<?xml version="1.0" standalone="no"?>
<!DOCTYPE svg PUBLIC "-//W3C//DTD SVG 1.1//EN" "http://www.w3.org/Graphics/SVG/1.1/DTD/svg11.dtd" >
<svg>
<metadata>
Created by FontForge 20090914 at Tue Jun 20 16:04:12 2017
 By www-data
Copyright (c) 2010-2014 by tyPoland Lukasz Dziedzic with Reserved Font Name "Lato". Licensed under the SIL Open Font License, Version 1.1. 
</metadata>
<defs>
<font id="Lato-Light" horiz-adv-x="1187" >
  <font-face 
    font-family="Lato Light"
    font-weight="300"
    font-stretch="normal"
    units-per-em="2048"
    panose-1="2 15 4 2 2 2 4 3 2 3"
    ascent="1649"
    descent="-399"
    x-height="1019"
    cap-height="1449"
    bbox="-67 -432 2601 1903"
    underline-thickness="198"
    underline-position="-6"
    unicode-range="U+000D-U+25FC"
  />
<missing-glyph horiz-adv-x="748" 
d="M68 0v1365h544v-1365h-544zM136 68h408v1229h-408v-1229z" />
    <glyph glyph-name=".notdef" horiz-adv-x="748" 
d="M68 0v1365h544v-1365h-544zM136 68h408v1229h-408v-1229z" />
    <glyph glyph-name="glyph1" horiz-adv-x="0" 
 />
    <glyph glyph-name="glyph1" horiz-adv-x="0" 
 />
    <glyph glyph-name="uni000D" unicode="&#xd;" horiz-adv-x="0" 
 />
    <glyph glyph-name="space" unicode=" " horiz-adv-x="556" 
 />
    <glyph glyph-name="exclam" unicode="!" horiz-adv-x="521" 
d="M164 79c0 12.667 2.33008 24.834 6.99707 36.501s11.334 21.834 20.001 30.501s18.667 15.5 30 20.5s23.666 7.5 36.999 7.5c12.667 0 24.834 -2.5 36.501 -7.5s21.834 -11.833 30.501 -20.5s15.5 -18.834 20.5 -30.501s7.5 -23.834 7.5 -36.501
c0 -13.333 -2.5 -25.666 -7.5 -36.999s-11.833 -21.333 -20.5 -30s-18.667 -15.334 -30 -20.001s-23.666 -7 -36.999 -7c-26.667 0 -49 9 -67 27s-27 40.333 -27 67zM213.997 863v586h95v-586c0 -30.667 -0.333008 -59.667 -1 -87s-1.5 -55.166 -2.5 -83.499
s-2.5 -58.166 -4.5 -89.499s-4 -66 -6 -104h-67c-2 38 -4 72.667 -6 104s-3.5 61.166 -4.5 89.499s-1.83301 56.166 -2.5 83.499s-1 56.333 -1 87z" />
    <glyph glyph-name="quotedbl" unicode="&#x22;" horiz-adv-x="697" 
d="M158 1150v299h85v-299l-10 -157c-1.33301 -11.333 -4.33301 -20.333 -9 -27s-12.667 -10 -24 -10c-9.33301 0 -16.833 3.33301 -22.5 10s-9.16699 15.667 -10.5 27zM455 1150v299h85v-299l-10 -157c-1.33301 -11.333 -4.33301 -20.333 -9 -27s-12.667 -10 -24 -10
c-9.33301 0 -16.833 3.33301 -22.5 10s-9.16699 15.667 -10.5 27z" />
    <glyph glyph-name="numbersign" unicode="#" 
d="M84 496l4.00098 28.999h223l85 399h-260l6 39c2.66699 22.667 18 33.667 46 33h219l89 414c2 12.667 7.16699 22.334 15.5 29.001s18.833 10 31.5 10h42l-97 -453h306l96 453h43c11.333 0 20.166 -3.83301 26.499 -11.5s8.16602 -18.167 5.49902 -31.5l-89 -410h229
l-6 -39c-1.33301 -11.333 -5.66602 -19.666 -12.999 -24.999s-18 -8 -32 -8h-189l-85 -399h232c10.667 0 18.667 -3 24 -9s7 -16.667 5 -32l-4 -30h-267l-96 -454h-41c-11.333 0 -20.333 4.16699 -27 12.5s-8.33398 19.166 -5.00098 32.499l87 409h-305l-87 -413
c-2.66699 -15.333 -8.5 -26 -17.5 -32s-19.167 -9 -30.5 -9h-43l96 454h-186c-11.333 0 -19.666 3 -24.999 9s-7.33301 17 -6 33zM393.001 524.999h305l85 399h-305z" />
    <glyph glyph-name="dollar" unicode="$" 
d="M138 173l27.9971 39.9971c8 10 17.667 15 29 15c6 0 13.333 -3.66699 22 -11l32.5 -28c13 -11.333 28.5 -23.666 46.5 -36.999s38.667 -26 62 -38s50 -22.333 80 -31s64.333 -14 103 -16l32 651c-46.667 14.667 -91.834 30.834 -135.501 48.501
s-82.834 40.334 -117.501 68.001s-62.5 61.667 -83.5 102s-31.5 91.5 -31.5 153.5c0 48 9 93.833 27 137.5s44.167 82.667 78.5 117s76.833 62 127.5 83s108.334 32.5 173.001 34.5l10 172c0 9.33301 2.66699 17.166 8 23.499s12.333 9.5 21 9.5h37l-10 -206
c68.667 -4.66699 129 -19.834 181 -45.501s99.333 -59.834 142 -102.501l-22 -35c-6.66699 -11.333 -16 -17 -28 -17c-8 0 -18.667 5.5 -32 16.5s-30.666 23.333 -51.999 37s-47.833 26.834 -79.5 39.501s-69.5 20.667 -113.5 24l-30 -585l144.5 -49.5
c47.667 -17 90.334 -39.167 128.001 -66.5s68 -61.166 91 -101.499s34.5 -91.166 34.5 -152.499c0 -58.667 -9.83301 -114 -29.5 -166s-48.167 -97.667 -85.5 -137s-83.166 -70.833 -137.499 -94.5s-116.5 -37.167 -186.5 -40.5l-10 -216
c-0.666992 -8.66699 -3.66699 -16.167 -9 -22.5s-12.666 -9.5 -21.999 -9.5h-37l13 248c-87.333 4 -163.333 22.667 -228 56s-121.667 77.333 -171 132zM296.997 1098c0 -42 7.49902 -78.1689 22.499 -108.502s35.5 -56.166 61.5 -77.499s55.833 -39.666 89.5 -54.999
s69.834 -29.666 108.501 -42.999l28 565c-52 -2.66699 -97.167 -12.167 -135.5 -28.5s-70.5 -37.333 -96.5 -63s-45.5 -54.834 -58.5 -87.501s-19.5 -66.667 -19.5 -102zM605.996 66.9951c54.667 3.33301 103.335 14.332 146.002 32.999s78.5 43.167 107.5 73.5
s51.167 65.5 66.5 105.5s23 83 23 129c0 45.333 -8.5 83.5 -25.5 114.5s-39.833 57.5 -68.5 79.5s-61.834 40.333 -99.501 55s-76.834 28.334 -117.501 41.001z" />
    <glyph glyph-name="percent" unicode="%" horiz-adv-x="1596" 
d="M102 1101c0 60 8 112.833 24 158.5s37.5 83.667 64.5 114s59.167 53.166 96.5 68.499s77.333 23 120 23c42 0 81.5 -7.66699 118.5 -23s69.333 -38.166 97 -68.499s49.5 -68.333 65.5 -114s24 -98.5 24 -158.5c0 -59.333 -8.16699 -111.666 -24.5 -156.999
s-38.5 -83.166 -66.5 -113.499s-60.5 -53.166 -97.5 -68.499s-75.833 -23 -116.5 -23c-42 0 -81.833 7.66699 -119.5 23s-70 38.166 -97 68.499s-48.5 68.166 -64.5 113.499s-24 97.666 -24 156.999zM181 1101c0 -52.667 6 -97.667 18 -135s28.333 -67.833 49 -91.5
s44.5 -41.167 71.5 -52.5s56.167 -17 87.5 -17c30.667 0 59.834 5.66699 87.501 17s51.834 28.833 72.501 52.5s37 54.167 49 91.5s18 82.333 18 135s-6 97.667 -18 135s-28.333 68.166 -49 92.499s-44.834 42.166 -72.501 53.499s-56.834 17 -87.501 17
s-59.667 -5.66699 -87 -17s-51.333 -29.166 -72 -53.499s-37 -55.166 -49 -92.499s-18 -82.333 -18 -135zM222 0l1040 1431c4 5.33301 8.83301 9.66602 14.5 12.999s13.167 5 22.5 5h69l-1040 -1431c-8.66699 -12 -20.667 -18 -36 -18h-70zM886 344.001
c0 60 7.83105 112.833 23.498 158.5s37.167 83.834 64.5 114.501s59.5 53.667 96.5 69s76.833 23 119.5 23c42 0 81.5 -7.66699 118.5 -23s69.333 -38.333 97 -69s49.334 -68.834 65.001 -114.501s23.5 -98.5 23.5 -158.5c0 -59.333 -8.16699 -111.666 -24.5 -156.999
s-38.333 -83 -66 -113s-60 -52.667 -97 -68s-75.833 -23 -116.5 -23c-42 0 -81.667 7.66699 -119 23s-69.666 38 -96.999 68s-48.833 67.667 -64.5 113s-23.5 97.666 -23.5 156.999zM963.998 344.001c0 -52.667 5.83301 -97.5 17.5 -134.5s27.834 -67.5 48.501 -91.5
s44.834 -41.5 72.501 -52.5s56.834 -16.5 87.501 -16.5s59.834 5.5 87.501 16.5s51.667 28.5 72 52.5s36.5 54.5 48.5 91.5s18 81.833 18 134.5s-6 98 -18 136s-28.167 69 -48.5 93s-44.333 41.667 -72 53s-56.834 17 -87.501 17s-59.834 -5.66699 -87.501 -17
s-51.834 -29 -72.501 -53s-36.834 -55 -48.501 -93s-17.5 -83.333 -17.5 -136z" />
    <glyph glyph-name="ampersand" unicode="&#x26;" horiz-adv-x="1430" 
d="M110 371c0 49.333 8.83789 96.335 26.5049 141.002s41.834 85.5 72.501 122.5s67.167 70.167 109.5 99.5s88.166 53.333 137.499 72c-48.667 54.667 -85.167 107.667 -109.5 159s-36.5 106.333 -36.5 165c0 48 8.66699 92.333 26 133s42.166 76 74.499 106
s70.833 53.5 115.5 70.5s94.667 25.5 150 25.5c46 0 89.333 -7.83301 130 -23.5s76.167 -36.834 106.5 -63.501s54.666 -57.5 72.999 -92.5s28.166 -71.5 29.499 -109.5l-56 -12c-6.66699 -1.33301 -12.834 0 -18.501 4s-10.167 10.667 -13.5 20
c-3.33301 18.667 -10.666 39.5 -21.999 62.5s-27.333 44.833 -48 65.5s-46 38 -76 52s-65 21 -105 21c-40.667 0 -77.834 -6.33301 -111.501 -19s-62.5 -30.5 -86.5 -53.5s-42.667 -50.167 -56 -81.5s-20 -65.666 -20 -102.999c0 -56 14.333 -109.667 43 -161
s73.334 -106.333 134.001 -165l456 -451c30.667 49.333 55.167 100.666 73.5 153.999s30.166 105 35.499 155c1.33301 8.66699 4 15.5 8 20.5s10 7.5 18 7.5h57c-1.33301 -64 -13.5 -130 -36.5 -198s-55.5 -133 -97.5 -195l305 -299h-91c-12 0 -22 1.33301 -30 4
s-17.333 9 -28 19l-210 205c-30.667 -35.333 -64.334 -68 -101.001 -98s-76.5 -55.833 -119.5 -77.5s-89 -38.5 -138 -50.5s-100.5 -18 -154.5 -18c-51.333 0 -101.833 8.5 -151.5 25.5s-94.167 42 -133.5 75s-71 73.667 -95 122s-36 103.166 -36 164.499zM209.005 377.002
c0 -52.667 10 -98.5 30 -137.5s46.167 -71.667 78.5 -98s68.166 -46 107.499 -59s78 -19.5 116 -19.5c48 0 93.167 5.5 135.5 16.5s82.166 26.333 119.499 46s71.5 42.667 102.5 69s59.5 55.833 85.5 88.5l-470 461c-4 3.33301 -7.66699 7.33301 -11 12
c-45.333 -19.333 -86.166 -42.333 -122.499 -69s-67.166 -56.167 -92.499 -88.5s-44.833 -67.333 -58.5 -105s-20.5 -76.5 -20.5 -116.5z" />
    <glyph glyph-name="quotesingle" unicode="'" horiz-adv-x="400" 
d="M158 1150v299h85v-299l-10 -157c-1.33301 -11.333 -4.33301 -20.333 -9 -27s-12.667 -10 -24 -10c-9.33301 0 -16.833 3.33301 -22.5 10s-9.16699 15.667 -10.5 27z" />
    <glyph glyph-name="parenleft" unicode="(" horiz-adv-x="528" 
d="M113 645c0 80 4.83496 157.66 14.502 232.993s25.667 150.333 48 225s51.333 149.834 87 225.501s79.834 153.834 132.501 234.501l43 -27c5.33301 -3.33301 9.66602 -8.66602 12.999 -15.999s1.33301 -16.666 -6 -27.999c-82 -130.667 -143.5 -266.167 -184.5 -406.5
s-61.5 -287.166 -61.5 -440.499c0 -152.667 20.667 -299.167 62 -439.5s102.666 -275.833 183.999 -406.5c6.66699 -11.333 8.5 -20.666 5.5 -27.999s-7.16699 -12.666 -12.5 -15.999l-43 -26c-52.667 80.667 -96.834 158.667 -132.501 234s-64.667 150.333 -87 225
s-38.333 149.5 -48 224.5s-14.5 152.5 -14.5 232.5z" />
    <glyph glyph-name="parenright" unicode=")" horiz-adv-x="528" 
d="M77.5 -229c-3 7.33301 -1.16699 16.6738 5.5 28.0068c82 130.667 143.667 266.167 185 406.5s62 286.833 62 439.5c0 153.333 -20.667 300.166 -62 440.499s-103 275.833 -185 406.5c-6.66699 11.333 -8.5 20.666 -5.5 27.999s7.16699 12.666 12.5 15.999l43 27
c52.667 -80.667 96.834 -158.834 132.501 -234.501s64.667 -150.834 87 -225.501s38.5 -149.667 48.5 -225s15 -153 15 -233s-5 -157.5 -15 -232.5s-26.167 -149.833 -48.5 -224.5s-51.333 -149.834 -87 -225.501s-79.834 -153.5 -132.501 -233.5l-43 26
c-5.33301 3.33301 -9.5 8.66602 -12.5 15.999z" />
    <glyph glyph-name="asterisk" unicode="*" horiz-adv-x="870" 
d="M153 1357l25.9971 46l194 -113c10.667 -6.66699 19.334 -13.167 26.001 -19.5s14.667 -15.5 24 -27.5c-5.33301 12.667 -9.16602 24 -11.499 34s-3.5 21 -3.5 33v219h53v-218c0 -12 -0.833008 -23 -2.5 -33s-5.5 -21.333 -11.5 -34c8 11.333 15.667 20.166 23 26.499
s16.333 12.833 27 19.5l192 112l27 -46l-193 -112c-10 -6 -19.5 -10.667 -28.5 -14s-19.167 -5.66602 -30.5 -6.99902c12 -2 22.333 -4.5 31 -7.5s18 -7.16699 28 -12.5l194 -112l-26 -47l-194 113c-10 6 -18.5 11.833 -25.5 17.5s-15.167 14.167 -24.5 25.5
c4 -12 7.33301 -22.5 10 -31.5s4 -19.167 4 -30.5v-219h-53v218c0 11.333 0.833008 21.5 2.5 30.5s5.16699 19.167 10.5 30.5c-7.33301 -10 -14.666 -17.833 -21.999 -23.5s-16 -11.5 -26 -17.5l-193 -111l-25 45l192 112c9.33301 5.33301 18.5 9.5 27.5 12.5
s19.833 5.5 32.5 7.5c-12.667 2 -23.5 4.5 -32.5 7.5s-18.167 7.5 -27.5 13.5z" />
    <glyph glyph-name="plus" unicode="+" 
d="M114 649v75h440v462h80v-462h441v-75h-441v-464h-80v464h-440z" />
    <glyph glyph-name="comma" unicode="," horiz-adv-x="448" 
d="M136 87c0 24 8.16699 44.5029 24.5 61.5029s37.833 25.5 64.5 25.5c29.333 0 52 -10 68 -30s24 -46.333 24 -79c0 -28 -3.5 -56.667 -10.5 -86s-17.333 -57.833 -31 -85.5s-30 -54.5 -49 -80.5s-40.167 -50 -63.5 -72l-16 15c-3.33301 2.66699 -5.5 5.5 -6.5 8.5
s-1.5 6.16699 -1.5 9.5c0 4 2.66699 9.33301 8 16c6 6.66699 14.333 16.667 25 30s21.667 29.166 33 47.499s21.5 38.666 30.5 60.999s14.833 46.166 17.5 71.499c-4 -1.33301 -8.66699 -2.33301 -14 -3s-11 -1 -17 -1c-25.333 0 -46 8.5 -62 25.5s-24 38.833 -24 65.5z" />
    <glyph glyph-name="hyphen" unicode="-" horiz-adv-x="757" 
d="M141 566v83h476v-83h-476z" />
    <glyph glyph-name="period" unicode="." horiz-adv-x="478" 
d="M144 79c0 12.667 2.50098 24.834 7.50098 36.501s11.667 21.834 20 30.501s18.166 15.5 29.499 20.5s24 7.5 38 7.5c12.667 0 24.834 -2.5 36.501 -7.5s21.667 -11.833 30 -20.5s15.166 -18.834 20.499 -30.501s8 -23.834 8 -36.501
c0 -13.333 -2.66699 -25.666 -8 -36.999s-12.166 -21.333 -20.499 -30s-18.333 -15.334 -30 -20.001s-23.834 -7 -36.501 -7c-26.667 0 -49.167 9 -67.5 27s-27.5 40.333 -27.5 67z" />
    <glyph glyph-name="slash" unicode="/" horiz-adv-x="889" 
d="M78 -86l637 1538c10 25.333 28.333 38 55 38h42l-636 -1536c-5.33301 -13.333 -13.5 -23.333 -24.5 -30s-22.167 -10 -33.5 -10h-40z" />
    <glyph glyph-name="zero" unicode="0" 
d="M75 725c0 126.667 13.499 236.5 40.499 329.5s64 169.833 111 230.5s101.833 105.834 164.5 135.501s130 44.5 202 44.5s139.5 -14.833 202.5 -44.5s118 -74.834 165 -135.501s84.167 -137.5 111.5 -230.5s41 -202.833 41 -329.5s-13.667 -236.5 -41 -329.5
s-64.5 -169.833 -111.5 -230.5s-102.167 -105.834 -165.5 -135.501s-130.666 -44.5 -201.999 -44.5c-72 0 -139.333 14.833 -202 44.5s-117.5 74.834 -164.5 135.501s-84 137.5 -111 230.5s-40.5 202.833 -40.5 329.5zM174.999 725c0 -118 11.333 -218.5 34 -301.5
s53 -151 91 -204s82.333 -91.5 133 -115.5s104 -36 160 -36s109.333 12 160 36s95 62.5 133 115.5s68.333 121 91 204s34 183.5 34 301.5c0 117.333 -11.333 217.666 -34 300.999s-53 151.5 -91 204.5s-82.333 91.667 -133 116s-104 36.5 -160 36.5
s-109.333 -12.167 -160 -36.5s-95 -63 -133 -116s-68.333 -121.167 -91 -204.5s-34 -183.666 -34 -300.999z" />
    <glyph glyph-name="one" unicode="1" 
d="M209 1085l419 370h77v-1379h316v-76h-748v76h333v1175c0 23.333 1 48 3 74l-319 -284c-9.33301 -8 -18.833 -11 -28.5 -9s-17.167 6 -22.5 12z" />
    <glyph glyph-name="two" unicode="2" 
d="M118 0l0.00488281 35.0078c0 7.33301 1.83301 15 5.5 23s8.5 14.667 14.5 20l495 501l113.5 120.5c35 39 65.333 78.333 91 118s45.667 80.167 60 121.5s21.5 85.666 21.5 132.999c0 53.333 -9 99.666 -27 138.999s-41.667 71.666 -71 96.999s-63.5 44 -102.5 56
s-79.167 18 -120.5 18c-46 0 -88.167 -7 -126.5 -21s-72.333 -33.333 -102 -58s-54.334 -54.334 -74.001 -89.001s-33.167 -72.334 -40.5 -113.001c-4.66699 -15.333 -11 -25.333 -19 -30s-18.667 -6.33398 -32 -5.00098l-50 8c8.66699 62 25.667 117.333 51 166
s57.333 89.667 96 123s83.667 58.666 135 75.999s106.666 26 165.999 26c55.333 0 108.166 -8 158.499 -24s94.666 -40.167 132.999 -72.5s68.833 -72.833 91.5 -121.5s34 -106 34 -172c0 -54.667 -8.33301 -105.334 -25 -152.001s-39.334 -91.5 -68.001 -134.5
s-62 -84.833 -100 -125.5l-119 -124l-454 -463c22 5.33301 44.667 9.33301 68 12s47 4 71 4h626c10.667 0 19.167 -3.16699 25.5 -9.5s9.5 -14.833 9.5 -25.5v-57h-935z" />
    <glyph glyph-name="three" unicode="3" 
d="M113 354l39.0059 17.0059c10.667 4.66699 22 6 34 4s20.667 -10 26 -24c3.33301 -8 7.83301 -20.667 13.5 -38s14 -36.666 25 -57.999s25.167 -43 42.5 -65s39.166 -42.333 65.499 -61s58 -33.667 95 -45s80.833 -17 131.5 -17c61.333 0 115 10.167 161 30.5
s84.5 46.333 115.5 78s54.167 67.167 69.5 106.5s23 77.333 23 114c0 44.667 -7 86.167 -21 124.5s-37.333 71.166 -70 98.499s-75.834 49.166 -129.501 65.499s-119.5 24.5 -197.5 24.5v70c62.667 1.33301 117.834 9.66602 165.501 24.999s87.5 36.333 119.5 63
s56.333 58.5 73 95.5s25 77.5 25 121.5c0 51.333 -8.66699 95.833 -26 133.5s-40.333 68.834 -69 93.501s-62 42.667 -100 54s-78 17 -120 17c-46 0 -88.333 -7 -127 -21s-72.834 -33.333 -102.501 -58s-54.5 -54.334 -74.5 -89.001s-33.667 -72.334 -41 -113.001
c-4 -15.333 -9.83301 -25.333 -17.5 -30s-18.167 -6.33398 -31.5 -5.00098l-50 8c8.66699 62 25.667 117.333 51 166s57.5 89.667 96.5 123s84 58.666 135 75.999s106.167 26 165.5 26c55.333 0 107.666 -7.66699 156.999 -23s92.5 -38.333 129.5 -69
s66.333 -68.834 88 -114.501s32.5 -98.5 32.5 -158.5c0 -47.333 -7.33301 -90 -22 -128s-34.834 -71.333 -60.501 -100s-55.834 -52.667 -90.501 -72s-72.667 -34 -114 -44c106.667 -20 187.334 -61.167 242.001 -123.5s82 -140.5 82 -234.5
c0 -59.333 -12 -114.333 -36 -165s-56.833 -94.5 -98.5 -131.5s-90.834 -65.833 -147.501 -86.5s-118 -31 -184 -31c-82.667 0 -151.5 11 -206.5 33s-100.333 50.833 -136 86.5s-63.334 75.5 -83.001 119.5s-35.5 87.667 -47.5 131z" />
    <glyph glyph-name="four" unicode="4" 
d="M42 488l727.999 963h87v-957h265v-54c0 -7.33301 -2.16699 -13.166 -6.5 -17.499s-11.166 -6.5 -20.499 -6.5h-238v-416h-86v416h-685c-10 0 -17.833 2.16699 -23.5 6.5s-9.5 10.166 -11.5 17.499zM147.999 494h623v758c0 11.333 0.5 24 1.5 38s2.16699 28 3.5 42z" />
    <glyph glyph-name="five" unicode="5" 
d="M146 113l30.002 39.9961c6 10 15.667 15 29 15c8.66699 0 21.334 -5.16699 38.001 -15.5s38.167 -21.666 64.5 -33.999s57.666 -23.5 93.999 -33.5s78.166 -15 125.499 -15c56 0 108.333 9 157 27s90.667 44 126 78s63.166 76.167 83.499 126.5
s30.5 107.166 30.5 170.499c0 52 -7.66699 99.833 -23 143.5s-38.666 81 -69.999 112s-70.666 55.167 -117.999 72.5s-103 26 -167 26c-38.667 0 -80 -3 -124 -9s-90.333 -16 -139 -30l-63 20l113 642h652v-42c0 -13.333 -4.66699 -24.666 -14 -33.999
s-23.666 -14 -42.999 -14h-525l-87 -483c46 11.333 89.5 19.5 130.5 24.5s79.833 7.5 116.5 7.5c76 0 142.667 -10.667 200 -32s105.333 -51.333 144 -90s67.667 -84.667 87 -138s29 -111.333 29 -174c0 -76.667 -13.167 -145.167 -39.5 -205.5
s-62.333 -111.666 -108 -153.999s-98.834 -74.666 -159.501 -96.999s-125.334 -33.5 -194.001 -33.5c-39.333 0 -77.333 3.5 -114 10.5s-70.834 16.5 -102.501 28.5s-61 25.833 -88 41.5s-50.833 31.834 -71.5 48.501z" />
    <glyph glyph-name="six" unicode="6" 
d="M139 461c0 56.667 14.3359 120.663 43.0029 191.996s76 151.333 142 240l395 532c11.333 16 28.666 24 51.999 24h86l-432 -564l-58.5 -79c-17.667 -24.667 -33.834 -49 -48.501 -73c40 41.333 87.833 73.833 143.5 97.5s116.167 35.5 181.5 35.5
c62 0 119.333 -10.167 172 -30.5s98 -49.166 136 -86.499s67.667 -82.333 89 -135s32 -112 32 -178c0 -65.333 -11.833 -125.666 -35.5 -180.999s-56.334 -103.166 -98.001 -143.499s-92 -71.666 -151 -93.999s-123.5 -33.5 -193.5 -33.5c-67.333 0 -129 10.833 -185 32.5
s-104 53 -144 94s-71 91 -93 150s-33 125.833 -33 200.5zM234.003 436.996c0 -54 8.50098 -103.834 25.501 -149.501s40.833 -85 71.5 -118s68.167 -58.667 112.5 -77s94.166 -27.5 149.499 -27.5c58.667 0 111.5 9.16699 158.5 27.5s87.167 43.666 120.5 75.999
s58.833 70.833 76.5 115.5s26.5 93.334 26.5 146.001c0 55.333 -8.66699 105.333 -26 150s-42 82.5 -74 113.5s-69.833 55 -113.5 72s-92.167 25.5 -145.5 25.5c-60 0 -113.667 -10.5 -161 -31.5s-87.333 -48 -120 -81s-57.667 -70.667 -75 -113s-26 -85.166 -26 -128.499z
" />
    <glyph glyph-name="seven" unicode="7" 
d="M128 1386l-0.00195312 63.001h965v-44c0 -11.333 -1.5 -21.333 -4.5 -30s-6.16699 -16 -9.5 -22l-663 -1316c-5.33301 -10.667 -12.666 -19.5 -21.999 -26.5s-21.666 -10.5 -36.999 -10.5h-67l669 1311c4.66699 9.33301 9.66699 17.833 15 25.5l16 22.5h-834
c-7.33301 0 -13.833 2.66699 -19.5 8s-8.5 11.666 -8.5 18.999z" />
    <glyph glyph-name="eight" unicode="8" 
d="M123 383c0 53.333 7.66797 100.833 23.001 142.5s37 77.834 65 108.501s61.333 56.167 100 76.5s81 35.833 127 46.5c-42 12 -79.5 28.667 -112.5 50s-60.5 46.666 -82.5 75.999s-38.833 61.833 -50.5 97.5s-17.5 74.167 -17.5 115.5c0 51.333 9.66699 99.5 29 144.5
s47.166 84.167 83.499 117.5s80.333 59.5 132 78.5s109.834 28.5 174.501 28.5c64 0 121.833 -9.5 173.5 -28.5s95.667 -45.167 132 -78.5s64.333 -72.666 84 -117.999s29.5 -93.333 29.5 -144c0 -40.667 -5.83301 -79 -17.5 -115s-28.834 -68.667 -51.501 -98
s-50.334 -54.666 -83.001 -75.999s-70 -38 -112 -50c46.667 -10 89.167 -25.333 127.5 -46s71.5 -46.334 99.5 -77.001s49.833 -66.834 65.5 -108.501s23.5 -89.167 23.5 -142.5c0 -61.333 -11.667 -116.666 -35 -165.999s-55.666 -91.333 -96.999 -126
s-90.833 -61.167 -148.5 -79.5s-121.167 -27.5 -190.5 -27.5s-133 9.16699 -191 27.5s-107.5 44.833 -148.5 79.5s-73.167 76.667 -96.5 126s-35 104.666 -35 165.999zM223.001 384c0 -48.667 8.83203 -92.667 26.499 -132s42.834 -73.166 75.501 -101.499
s71.834 -50.333 117.501 -66s96.167 -23.5 151.5 -23.5s105.666 7.83301 150.999 23.5s84.333 37.667 117 66s58 62.166 76 101.499s27 83.333 27 132c0 63.333 -11.667 116.166 -35 158.499s-53.166 76.166 -89.499 101.499s-76.333 43.333 -120 54s-85.834 16 -126.501 16
s-83 -5.33301 -127 -16s-84 -28.667 -120 -54s-65.667 -59.166 -89 -101.499s-35 -95.166 -35 -158.499zM270 1095c0 -38.667 6.32812 -76.168 18.9951 -112.501s32.334 -68.666 59.001 -96.999s60.334 -50.833 101.001 -67.5s89 -25 145 -25
c55.333 0 103.333 8.33301 144 25s74.334 39.167 101.001 67.5s46.167 60.5 58.5 96.5s18.5 73.667 18.5 113c0 41.333 -7.16699 80 -21.5 116s-35.166 67.333 -62.499 94s-61 47.5 -101 62.5s-85.667 22.5 -137 22.5s-97.166 -7.5 -137.499 -22.5
s-74.333 -35.833 -102 -62.5s-48.667 -58 -63 -94s-21.5 -74.667 -21.5 -116z" />
    <glyph glyph-name="nine" unicode="9" 
d="M134 1030c0 62 11.666 119.497 34.999 172.497s55.5 99 96.5 138s89.667 69.5 146 91.5s117.833 33 184.5 33c64 0 122.833 -10.833 176.5 -32.5s99.834 -52.5 138.501 -92.5s68.667 -87.833 90 -143.5s32 -117.5 32 -185.5c0 -37.333 -3.83301 -73.166 -11.5 -107.499
s-19.167 -68.5 -34.5 -102.5s-34 -69 -56 -105s-47 -74.333 -75 -115l-380 -557c-10 -16 -26.667 -24 -50 -24h-89l429 598l58.5 83.5c17.667 25.667 33.5 50.834 47.5 75.501c-40 -45.333 -88.333 -80.166 -145 -104.499s-117 -36.5 -181 -36.5
c-59.333 0 -114.166 9.83301 -164.499 29.5s-93.833 47.5 -130.5 83.5s-65.334 79.5 -86.001 130.5s-31 107.833 -31 170.5zM231.999 1036c0 -53.333 8.16699 -101.331 24.5 -143.998s39.333 -78.834 69 -108.501s65.5 -52.334 107.5 -68.001s88.333 -23.5 139 -23.5
c58 0 110 10 156 30s84.5 46 115.5 78s54.667 68 71 108s24.5 80.333 24.5 121c0 52.667 -8.5 100.834 -25.5 144.501s-40.833 81 -71.5 112s-67 55.167 -109 72.5s-88 26 -138 26c-54 0 -103.167 -8.5 -147.5 -25.5s-82.333 -40.833 -114 -71.5
s-56.5 -67.334 -74.5 -110.001s-27 -89.667 -27 -141z" />
    <glyph glyph-name="colon" unicode=":" horiz-adv-x="491" 
d="M150 79c0 12.667 2.50098 24.834 7.50098 36.501s11.667 21.834 20 30.501s18.166 15.5 29.499 20.5s24 7.5 38 7.5c12.667 0 24.834 -2.5 36.501 -7.5s21.667 -11.833 30 -20.5s15.166 -18.834 20.499 -30.501s8 -23.834 8 -36.501
c0 -13.333 -2.66699 -25.666 -8 -36.999s-12.166 -21.333 -20.499 -30s-18.333 -15.334 -30 -20.001s-23.834 -7 -36.501 -7c-26.667 0 -49.167 9 -67.5 27s-27.5 40.333 -27.5 67zM150.001 895c0 12.667 2.50098 24.834 7.50098 36.501s11.667 21.834 20 30.501
s18.166 15.5 29.499 20.5s24 7.5 38 7.5c12.667 0 24.834 -2.5 36.501 -7.5s21.667 -11.833 30 -20.5s15.166 -18.834 20.499 -30.501s8 -23.834 8 -36.501c0 -13.333 -2.66699 -25.666 -8 -36.999s-12.166 -21.333 -20.499 -30s-18.333 -15.334 -30 -20.001
s-23.834 -7 -36.501 -7c-26.667 0 -49.167 9 -67.5 27s-27.5 40.333 -27.5 67zM151.002 0z" />
    <glyph glyph-name="semicolon" unicode=";" horiz-adv-x="514" 
d="M161 895c0 12.667 2.50098 24.834 7.50098 36.501s11.667 21.834 20 30.501s18.166 15.5 29.499 20.5s24 7.5 38 7.5c12.667 0 24.834 -2.5 36.501 -7.5s21.667 -11.833 30 -20.5s15.166 -18.834 20.499 -30.501s8 -23.834 8 -36.501
c0 -13.333 -2.66699 -25.666 -8 -36.999s-12.166 -21.333 -20.499 -30s-18.333 -15.334 -30 -20.001s-23.834 -7 -36.501 -7c-26.667 0 -49.167 9 -67.5 27s-27.5 40.333 -27.5 67zM167.001 87c0 24 8.16699 44.5029 24.5 61.5029s37.833 25.5 64.5 25.5
c29.333 0 52 -10 68 -30s24 -46.333 24 -79c0 -28 -3.5 -56.667 -10.5 -86s-17.333 -57.833 -31 -85.5s-30 -54.5 -49 -80.5s-40.167 -50 -63.5 -72l-16 15c-3.33301 2.66699 -5.5 5.5 -6.5 8.5s-1.5 6.16699 -1.5 9.5c0 4 2.66699 9.33301 8 16
c6 6.66699 14.333 16.667 25 30s21.667 29.166 33 47.499s21.5 38.666 30.5 60.999s14.833 46.166 17.5 71.499c-4 -1.33301 -8.66699 -2.33301 -14 -3s-11 -1 -17 -1c-25.333 0 -46 8.5 -62 25.5s-24 38.833 -24 65.5z" />
    <glyph glyph-name="less" unicode="&#x3c;" 
d="M178 667v41.999l768 394v-67c0 -7.33301 -2 -13.666 -6 -18.999s-11 -11 -21 -17l-567 -286c-22.667 -11.333 -46.667 -20.333 -72 -27c13.333 -3.33301 26 -7 38 -11s23.333 -8.66699 34 -14l567 -288c10 -4.66699 17 -10 21 -16s6 -12.667 6 -20v-67z" />
    <glyph glyph-name="equal" unicode="=" 
d="M170 494v75h848v-75h-848zM170 814v76h848v-76h-848z" />
    <glyph glyph-name="greater" unicode="&#x3e;" 
d="M242 271v67.001c0 7.33301 2 14 6 20s10.667 11.333 20 16l568 288c21.333 10.667 45.333 19 72 25c-13.333 3.33301 -26 7.16602 -38 11.499s-23.333 9.5 -34 15.5l-568 286c-18 9.33301 -26.667 21.333 -26 36v67l768 -394v-42z" />
    <glyph glyph-name="question" unicode="?" horiz-adv-x="884" 
d="M96 1323c18.667 18.667 39.668 36.5 63.001 53.5s48.666 32.167 75.999 45.5s57.5 23.833 90.5 31.5s68.5 11.5 106.5 11.5c47.333 0 92.333 -7.16699 135 -21.5s79.834 -34.833 111.501 -61.5s56.834 -59.167 75.501 -97.5s28 -81.5 28 -129.5
c0 -52 -8 -96.667 -24 -134s-36.333 -70.166 -61 -98.499s-51.334 -53.333 -80.001 -75l-80.5 -60.5c-25 -18.667 -46.333 -37.667 -64 -57s-27.167 -40.333 -28.5 -63l-11 -168h-66l-7 175c-1.33301 28.667 6 53.834 22 75.501s36.167 42.5 60.5 62.5
s50.833 40.167 79.5 60.5s55.5 43.5 80.5 69.5s45.833 55.667 62.5 89s25 73.333 25 120c0 36.667 -7.16699 69.5 -21.5 98.5s-33.833 53.667 -58.5 74s-53 35.666 -85 45.999s-65.333 15.5 -100 15.5c-45.333 0 -84.5 -5.83301 -117.5 -17.5s-60.833 -24.834 -83.5 -39.501
s-40.334 -28 -53.001 -40s-21.667 -18 -27 -18c-10 0 -17.333 4 -22 12zM303.001 79c0 12.667 2.33301 24.834 7 36.501s11.334 21.834 20.001 30.501s18.667 15.5 30 20.5s23.666 7.5 36.999 7.5c12.667 0 25 -2.5 37 -7.5s22.167 -11.833 30.5 -20.5
s15.166 -18.834 20.499 -30.501s8 -23.834 8 -36.501c0 -13.333 -2.66699 -25.666 -8 -36.999s-12.166 -21.333 -20.499 -30s-18.333 -15.334 -30 -20.001s-24.167 -7 -37.5 -7c-26.667 0 -49 9 -67 27s-27 40.333 -27 67z" />
    <glyph glyph-name="at" unicode="@" horiz-adv-x="1696" 
d="M123 562c0 114 20.1719 219.829 60.5049 317.496s95.333 182.334 165 254.001s150.834 127.834 243.501 168.501s192 61 298 61c91.333 0 179 -14.167 263 -42.5s158.333 -70.666 223 -126.999s116.167 -126.166 154.5 -209.499s57.5 -180 57.5 -290
c0 -74.667 -9.83301 -142.667 -29.5 -204s-46.834 -114 -81.501 -158s-75.167 -78.167 -121.5 -102.5s-95.833 -36.5 -148.5 -36.5c-60 0 -105.167 15.833 -135.5 47.5s-46.166 77.167 -47.499 136.5c-38 -63.333 -81.167 -109.166 -129.5 -137.499
s-100.5 -42.5 -156.5 -42.5c-38 0 -71 6.66699 -99 20s-51.167 31.5 -69.5 54.5s-32.166 50.167 -41.499 81.5s-14 65.333 -14 102c0 58 11.167 116.167 33.5 174.5s54.833 110.833 97.5 157.5s95 84.667 157 114s132.667 44 212 44c36 0 69.833 -3 101.5 -9
s60.167 -15 85.5 -27l-93 -355c-16.667 -62.667 -24.667 -113.5 -24 -152.5s7.16699 -69.167 19.5 -90.5s29 -35.666 50 -42.999s43.5 -11 67.5 -11c38.667 0 75.667 10.167 111 30.5s66.666 49.5 93.999 87.5s49.166 84 65.499 138s24.5 114.333 24.5 181
c0 101.333 -16.667 189.666 -50 264.999s-78.5 138 -135.5 188s-123.333 87.167 -199 111.5s-156.167 36.5 -241.5 36.5c-93.333 0 -181.833 -18 -265.5 -54s-157.167 -86.5 -220.5 -151.5s-113.5 -142.333 -150.5 -232s-55.5 -188.167 -55.5 -295.5
c0 -120.667 19.167 -227 57.5 -319s90.666 -168.833 156.999 -230.5s143.666 -108.334 231.999 -140.001s182.5 -47.5 282.5 -47.5c101.333 0 193.666 11.667 276.999 35s159.333 57 228 101c8 5.33301 15.333 7 22 5s11.667 -6.66699 15 -14l16 -38
c-76.667 -50.667 -160.834 -89.667 -252.501 -117s-193.5 -41 -305.5 -41c-112.667 0 -217.834 18 -315.501 54s-182.667 88.333 -255 157s-129.333 153 -171 253s-62.5 214 -62.5 342zM594.005 456.996c0 -27.333 3.33203 -52.834 9.99902 -76.501s16.834 -44 30.501 -61
s30.667 -30.5 51 -40.5s44.166 -15 71.499 -15c24.667 0 50 4.16699 76 12.5s51.167 23.166 75.5 44.499s47.166 50.333 68.499 87s39 83.334 53 140.001l82 317c-16.667 4.66699 -33.667 8.33398 -51 11.001s-37.666 4 -60.999 4c-61.333 0 -117 -12.5 -167 -37.5
s-92.667 -57.667 -128 -98s-62.666 -85.5 -81.999 -135.5s-29 -100.667 -29 -152z" />
    <glyph glyph-name="A" unicode="A" horiz-adv-x="1342" 
d="M27 0l592.999 1449h103l593 -1449h-81c-9.33301 0 -17.166 2.5 -23.499 7.5s-11.166 11.833 -14.499 20.5l-170 421h-712l-170 -421c-2.66699 -7.33301 -7.33398 -13.833 -14.001 -19.5s-15 -8.5 -25 -8.5h-79zM345.999 526h649l-295 732c-10 24 -19.667 53 -29 87
c-4.66699 -16.667 -9.5 -32.5 -14.5 -47.5s-9.83301 -28.5 -14.5 -40.5z" />
    <glyph glyph-name="B" unicode="B" horiz-adv-x="1294" 
d="M214 0l-0.00195312 1449h417c82.667 0 154.334 -8.16699 215.001 -24.5s110.834 -40.333 150.501 -72s69 -70.5 88 -116.5s28.5 -98 28.5 -156c0 -38 -6.66699 -74.833 -20 -110.5s-32.666 -68.5 -57.999 -98.5s-56.166 -56 -92.499 -78s-77.833 -39 -124.5 -51
c114 -17.333 201.5 -55.333 262.5 -114s91.5 -136 91.5 -232c0 -61.333 -10.833 -116.5 -32.5 -165.5s-53.334 -90.667 -95.001 -125s-92.834 -60.5 -153.501 -78.5s-129.667 -27 -207 -27h-470zM318.998 84h364c126.667 0 222.667 27.5 288 82.5s98 132.167 98 231.5
c0 46 -8.66699 87.333 -26 124s-42.333 67.667 -75 93s-73 44.833 -121 58.5s-102.333 20.5 -163 20.5h-365v-610zM318.998 771l314 0.000976562c66.667 0 123.834 8.5 171.501 25.5s86.667 39.5 117 67.5s52.666 59.833 66.999 95.5s21.5 72.167 21.5 109.5
c0 97.333 -31 171.166 -93 221.499s-157.333 75.5 -286 75.5h-312v-595z" />
    <glyph glyph-name="C" unicode="C" horiz-adv-x="1384" 
d="M120 725c0 110 17 210.333 51 301s81.833 168.667 143.5 234s135.5 115.833 221.5 151.5s180.667 53.5 284 53.5c98.667 0 186.334 -15.333 263.001 -46s146.334 -74 209.001 -130l-31 -46c-5.33301 -8 -14 -12 -26 -12c-8 0 -21.333 7.5 -40 22.5
s-44.334 31.5 -77.001 49.5s-73.334 34.5 -122.001 49.5s-107.334 22.5 -176.001 22.5c-87.333 0 -167.333 -15 -240 -45s-135.167 -73 -187.5 -129s-93.166 -124.167 -122.499 -204.5s-44 -170.833 -44 -271.5c0 -102.667 14.833 -194.167 44.5 -274.5
s70.5 -148.333 122.5 -204s113.333 -98.334 184 -128.001s147 -44.5 229 -44.5c52 0 98.333 3.33301 139 10s78 16.834 112 30.501s65.667 30.5 95 50.5s58.333 43 87 69c3.33301 2.66699 6.83301 5 10.5 7s7.16699 3 10.5 3c6.66699 0 12.334 -2.33301 17.001 -7l41 -44
c-30 -32 -62.667 -60.833 -98 -86.5s-74 -47.667 -116 -66s-88 -32.333 -138 -42s-105 -14.5 -165 -14.5c-100.667 0 -192.834 17.5 -276.501 52.5s-155.5 84.833 -215.5 149.5s-106.5 142.667 -139.5 234s-49.5 193 -49.5 305z" />
    <glyph glyph-name="D" unicode="D" horiz-adv-x="1556" 
d="M214 0v1449h529c102.667 0 196.5 -16.667 281.5 -50s157.833 -81.5 218.5 -144.5s107.834 -139.167 141.501 -228.5s50.5 -189.666 50.5 -300.999c0 -112 -16.833 -212.667 -50.5 -302s-80.834 -165.5 -141.501 -228.5s-133.5 -111.167 -218.5 -144.5
s-178.833 -50 -281.5 -50h-529zM319 84.999l424 -0.00195312c86.667 0 166 14.333 238 43s133.5 70.334 184.5 125.001s90.5 121.5 118.5 200.5s42 169.5 42 271.5c0 101.333 -14 191.5 -42 270.5s-67.5 145.833 -118.5 200.5s-112.5 96.334 -184.5 125.001
s-151.333 43 -238 43h-424v-1279z" />
    <glyph glyph-name="E" unicode="E" 
d="M214 0v1449h868v-87h-763v-586h635v-85h-635v-604h765l-2 -87h-868z" />
    <glyph glyph-name="F" unicode="F" horiz-adv-x="1156" 
d="M214 0v1449h868v-87h-763v-609h661v-87h-661v-666h-105z" />
    <glyph glyph-name="G" unicode="G" horiz-adv-x="1505" 
d="M120 725c0 112 16.8369 213.502 50.5039 304.502s82.167 168.833 145.5 233.5s139.666 114.5 228.999 149.5s190 52.5 302 52.5c55.333 0 106.333 -3.66699 153 -11s90.167 -18.333 130.5 -33s77.833 -32.834 112.5 -54.501s68 -46.5 100 -74.5l-28 -45
c-9.33301 -16.667 -23.666 -20.334 -42.999 -11.001c-10 4 -24.667 13.5 -44 28.5s-45.666 30.667 -78.999 47s-74.833 31 -124.5 44s-109.834 19.5 -180.501 19.5c-94 0 -179.167 -15 -255.5 -45s-141.333 -73 -195 -129s-95 -124.167 -124 -204.5
s-43.5 -170.833 -43.5 -271.5c0 -102 14.5 -193.5 43.5 -274.5s71 -149.833 126 -206.5s121.833 -100 200.5 -130s167 -45 265 -45c43.333 0 83.166 2.5 119.499 7.5s71.166 12.667 104.499 23s65.5 22.833 96.5 37.5s62.5 31 94.5 49v391h-278
c-7.33301 0 -13.5 2.33301 -18.5 7s-7.5 10 -7.5 16v57h399v-515c-72.667 -51.333 -149.834 -90.5 -231.501 -117.5s-173.834 -40.5 -276.501 -40.5c-114.667 0 -217.667 17.5 -309 52.5s-169.333 84.833 -234 149.5s-114.167 142.667 -148.5 234s-51.5 193 -51.5 305z" />
    <glyph glyph-name="H" unicode="H" horiz-adv-x="1546" 
d="M214 0v1449h105v-676h908v676h105v-1449h-105v694h-908v-694h-105z" />
    <glyph glyph-name="I" unicode="I" horiz-adv-x="533" 
d="M214 0v1449h105v-1449h-105z" />
    <glyph glyph-name="J" unicode="J" horiz-adv-x="848" 
d="M27 13c0.666992 9.33301 1.49805 18.8311 2.49805 28.498s2.16699 19.5 3.5 29.5c1.33301 6 3.83301 11.333 7.5 16s10.167 7 19.5 7c6 0 13.333 -1.16699 22 -3.5s18.834 -4.83301 30.501 -7.5s25.334 -5.16699 41.001 -7.5s33.834 -3.5 54.501 -3.5
c52 0 98.833 8.16699 140.5 24.5s77.167 41.333 106.5 75s51.666 76.334 66.999 128.001s23 112.167 23 181.5v968h104v-966c0 -81.333 -9.83301 -153 -29.5 -215s-48.334 -114.167 -86.001 -156.5s-83.167 -74.166 -136.5 -95.499s-113.333 -32 -180 -32
c-30.667 0 -61.667 2.33301 -93 7s-63.666 12 -96.999 22z" />
    <glyph glyph-name="K" unicode="K" horiz-adv-x="1300" 
d="M214 0l-0.00292969 1449h105v-669h87c12.667 0 23.834 0.5 33.501 1.5s18.334 3 26.001 6s14.834 7 21.501 12s13.667 11.167 21 18.5l585 601c10 11.333 20 19.166 30 23.499s21.667 6.5 35 6.5h84l-633 -650c-12.667 -13.333 -24 -23.833 -34 -31.5
s-21 -13.834 -33 -18.501c14.667 -4 27.667 -10.333 39 -19s22.666 -20 33.999 -34l667 -696h-85c-18 0 -30.833 2.16699 -38.5 6.5s-15.167 11.5 -22.5 21.5l-613 626c-7.33301 7.33301 -14.166 13.833 -20.499 19.5s-13.5 10.334 -21.5 14.001
s-17.333 6.33398 -28 8.00098s-24 2.5 -40 2.5h-94v-698h-105z" />
    <glyph glyph-name="L" unicode="L" horiz-adv-x="1036" 
d="M214 0v1449h105v-1360h687v-89h-792z" />
    <glyph glyph-name="M" unicode="M" horiz-adv-x="1859" 
d="M214 0l0.000976562 1449h73c9.33301 0 16.666 -1 21.999 -3s11 -7.33301 17 -16l584 -1008c10 -19.333 19 -40 27 -62l13 32c4.66699 11.333 10 21.666 16 30.999l568 1007c5.33301 8.66699 11 14 17 16s13.667 3 23 3h72v-1449h-92v1235c0 8 0.166992 16.833 0.5 26.5
s0.833008 19.167 1.5 28.5l-569 -1011c-9.33301 -18 -23 -27 -41 -27h-16c-18 0 -31.667 9 -41 27l-586 1013c2 -20 3 -39 3 -57v-1235h-92z" />
    <glyph glyph-name="N" unicode="N" horiz-adv-x="1546" 
d="M214 0l0.000976562 1449h52c9.33301 0 16.666 -1.16699 21.999 -3.5s11 -7.5 17 -15.5l939 -1256c-2 20.667 -3 40.334 -3 59.001v1216h91v-1449h-49c-8.66699 0 -16 1.5 -22 4.5s-11.667 8.16699 -17 15.5l-941 1257c2 -20.667 3 -39.667 3 -57v-1220h-92z" />
    <glyph glyph-name="O" unicode="O" horiz-adv-x="1620" 
d="M120 725c0 111.333 16.667 212.5 50 303.5s80.333 168.833 141 233.5s133.334 114.667 218.001 150s178.334 53 281.001 53s196.5 -17.5 281.5 -52.5s157.833 -85 218.5 -150s107.667 -143 141 -234s50 -192.167 50 -303.5c0 -112 -16.667 -213.5 -50 -304.5
s-80.333 -168.833 -141 -233.5s-133.5 -114.5 -218.5 -149.5s-178.833 -52.5 -281.5 -52.5s-196.334 17.5 -281.001 52.5s-157.334 84.833 -218.001 149.5s-107.667 142.5 -141 233.5s-50 192.5 -50 304.5zM226 725c0 -102 14.167 -193 42.5 -273s68.333 -148 120 -204
s113.334 -98.667 185.001 -128s150.5 -44 236.5 -44c86.667 0 165.834 14.667 237.501 44s133.167 72 184.5 128s91 124 119 204s42 171 42 273c0 101.333 -14 192.166 -42 272.499s-67.667 148.5 -119 204.5s-112.833 98.833 -184.5 128.5s-150.834 44.5 -237.501 44.5
c-86 0 -164.833 -14.833 -236.5 -44.5s-133.334 -72.5 -185.001 -128.5s-91.667 -124.167 -120 -204.5s-42.5 -171.166 -42.5 -272.499z" />
    <glyph glyph-name="P" unicode="P" horiz-adv-x="1183" 
d="M214 0l-0.00195312 1449h375c170 0 298.167 -37.167 384.5 -111.5s129.5 -180.5 129.5 -318.5c0 -63.333 -12 -121.666 -36 -174.999s-58.167 -99.333 -102.5 -138s-98.166 -68.667 -161.499 -90s-134.666 -32 -213.999 -32h-270v-584h-105zM318.998 667.999
l270 -0.000976562c63.333 0 120.333 8.83301 171 26.5s93.5 42.167 128.5 73.5s61.833 68.333 80.5 111s28 89.334 28 140.001c0 111.333 -34 197 -102 257s-170 90 -306 90h-270v-698z" />
    <glyph glyph-name="Q" unicode="Q" horiz-adv-x="1620" 
d="M120 725c0 111.333 16.666 212.498 49.999 303.498s80.333 168.833 141 233.5s133.334 114.667 218.001 150s178.334 53 281.001 53s196.5 -17.5 281.5 -52.5s157.833 -85 218.5 -150s107.667 -143 141 -234s50 -192.167 50 -303.5
c0 -73.333 -7.33301 -142.166 -22 -206.499s-35.667 -123.666 -63 -177.999s-60.666 -103 -99.999 -146s-83.333 -79.833 -132 -110.5l377 -403h-88c-26.667 0 -48.667 8.33301 -66 25l-309 334c-86 -36.667 -182 -55 -288 -55c-102.667 0 -196.334 17.5 -281.001 52.5
s-157.334 84.833 -218.001 149.5s-107.667 142.5 -141 233.5s-50 192.5 -50 304.5zM225.999 724.998c0 -102 14.167 -193 42.5 -273s68.333 -148 120 -204s113.334 -98.667 185.001 -128s150.5 -44 236.5 -44c86.667 0 165.834 14.667 237.501 44s133.167 72 184.5 128
s91 124 119 204s42 171 42 273c0 101.333 -14 192.166 -42 272.499s-67.667 148.5 -119 204.5s-112.833 98.833 -184.5 128.5s-150.834 44.5 -237.501 44.5c-86 0 -164.833 -14.833 -236.5 -44.5s-133.334 -72.5 -185.001 -128.5s-91.667 -124.167 -120 -204.5
s-42.5 -171.166 -42.5 -272.499z" />
    <glyph glyph-name="R" unicode="R" horiz-adv-x="1243" 
d="M214 0l-0.00195312 1449h371c166.667 0 291.334 -32.333 374.001 -97s124 -159.334 124 -284.001c0 -55.333 -9.66699 -105.833 -29 -151.5s-46.833 -85.834 -82.5 -120.501s-79 -63 -130 -85s-107.833 -36.333 -170.5 -43c16.667 -10 31.334 -23.667 44.001 -41
l498 -627h-90c-11.333 0 -21 1.83301 -29 5.5s-15.333 10.834 -22 21.501l-465 587c-5.33301 7.33301 -10.833 13.833 -16.5 19.5s-12.167 10 -19.5 13s-16 5.16699 -26 6.5s-22 2 -36 2h-190v-655h-105zM318.998 733.001h251.001c64 0 121.5 7.66699 172.5 23
s94.167 37.333 129.5 66s62.166 63.167 80.499 103.5s27.5 85.833 27.5 136.5c0 103.333 -33.667 179.833 -101 229.5s-165.333 74.5 -294 74.5h-266v-633z" />
    <glyph glyph-name="S" unicode="S" horiz-adv-x="1095" 
d="M91 173l29.0078 45.001c8 10 17.333 15 28 15c6 0 13.833 -4 23.5 -12l35 -30c13.667 -12 30.167 -25 49.5 -39s41.5 -27 66.5 -39s54 -22 87 -30s70.167 -12 111.5 -12c57.333 0 108.5 8.66699 153.5 26s83.167 41 114.5 71s55.166 65.667 71.499 107
s24.5 85.666 24.5 132.999c0 51.333 -10.5 93.5 -31.5 126.5s-48.5 60.5 -82.5 82.5s-72.667 40.5 -116 55.5s-87.833 29.667 -133.5 44s-90.167 30.5 -133.5 48.5s-82.166 40.667 -116.499 68s-61.833 61.666 -82.5 102.999s-31 93.333 -31 156
c0 48.667 9.16699 95.334 27.5 140.001s45.166 84.334 80.499 119.001s79.166 62.334 131.499 83.001s112.166 31 179.499 31c75.333 0 142.666 -11.833 201.999 -35.5s113.666 -60.167 162.999 -109.5l-24 -47c-6 -11.333 -15 -17.333 -27 -18
c-8.66699 0 -20 6.33301 -34 19s-33 26.667 -57 42s-54 29.5 -90 42.5s-80 19.5 -132 19.5c-52.667 0 -99 -7.5 -139 -22.5s-73.5 -35.5 -100.5 -61.5s-47.5 -56 -61.5 -90s-21 -69.667 -21 -107c0 -49.333 10.333 -90 31 -122s48.167 -59.333 82.5 -82
s73.166 -41.667 116.499 -57l133.5 -45.5c45.667 -15 90.167 -31.5 133.5 -49.5s82.166 -40.667 116.499 -68s61.833 -61 82.5 -101s31 -89.667 31 -149c0 -60.667 -10.333 -117.834 -31 -171.501s-50.834 -100.334 -90.501 -140.001s-88.167 -70.834 -145.5 -93.501
s-123 -34 -197 -34c-95.333 0 -177.5 16.833 -246.5 50.5s-129.5 79.834 -181.5 138.501z" />
    <glyph glyph-name="T" unicode="T" horiz-adv-x="1185" 
d="M30 1360v89h1126v-89h-509v-1360h-105v1360h-512z" />
    <glyph glyph-name="U" unicode="U" horiz-adv-x="1488" 
d="M196 553l0.00292969 895.997h105v-895c0 -67.333 10 -130.166 30 -188.499s49 -109.166 87 -152.499s84.5 -77.166 139.5 -101.499s117.167 -36.5 186.5 -36.5s131.666 12 186.999 36s102 57.5 140 100.5s67.167 93.833 87.5 152.5s30.5 121.667 30.5 189v896h104v-896
c0 -80 -12.5 -154.667 -37.5 -224s-61.333 -129.666 -109 -180.999s-105.5 -91.666 -173.5 -120.999s-144.333 -44 -229 -44s-160.834 14.667 -228.501 44s-125.334 69.666 -173.001 120.999s-84 111.666 -109 180.999s-37.5 144 -37.5 224z" />
    <glyph glyph-name="V" unicode="V" horiz-adv-x="1342" 
d="M27 1449h83c9.33301 0 17 -2.5 23 -7.5s10.667 -11.833 14 -20.5l494 -1202l16.5 -48.5c5.66699 -17 10.5 -34.167 14.5 -51.5c4 18 8.5 35.5 13.5 52.5s10.5 32.833 16.5 47.5l493 1202c2.66699 7.33301 7.5 13.833 14.5 19.5s15.167 8.5 24.5 8.5h82l-598 -1449h-93z
" />
    <glyph glyph-name="W" unicode="W" horiz-adv-x="2082" 
d="M48 1449l87.0039 0.000976562c20 0 32.667 -9.33301 38 -28l366 -1191c7.33301 -27.333 14 -58.333 20 -93c3.33301 17.333 6.66602 33.833 9.99902 49.5s7.66602 30.167 12.999 43.5l409 1191c2.66699 7.33301 7.5 13.833 14.5 19.5s15.167 8.5 24.5 8.5h29
c9.33301 0 17.166 -2.5 23.499 -7.5s11.166 -11.833 14.499 -20.5l409 -1191c4.66699 -13.333 9 -27.5 13 -42.5s7.66699 -31.167 11 -48.5l9.5 48c3 15.333 6.16699 29.666 9.5 42.999l366 1191c2 7.33301 6.5 13.833 13.5 19.5s15.5 8.5 25.5 8.5h80l-456 -1449h-94
l-428 1257c-5.33301 16.667 -10.333 34.334 -15 53.001c-4 -18.667 -8.66699 -36.334 -14 -53.001l-429 -1257h-93z" />
    <glyph glyph-name="X" unicode="X" horiz-adv-x="1275" 
d="M41 0l523.001 743l-499 706h103c9.33301 0 16.333 -2 21 -6s8.66699 -9 12 -15l440 -634c2 5.33301 4.16699 10.5 6.5 15.5s5.16602 10.167 8.49902 15.5l425 602c3.33301 6 7.66602 11.167 12.999 15.5s11.333 6.5 18 6.5h100l-500 -700l521 -749h-104
c-9.33301 -0 -16.666 2.83301 -21.999 8.5s-9.66602 11.5 -12.999 17.5l-457 667c-2.66699 -10 -7.33398 -19.667 -14.001 -29l-449 -638c-4.66699 -6 -9.5 -11.833 -14.5 -17.5s-11.833 -8.5 -20.5 -8.5h-98z" />
    <glyph glyph-name="Y" unicode="Y" horiz-adv-x="1218" 
d="M20 1449h93.002c9.33301 0 17 -2.16699 23 -6.5s11.333 -10.833 16 -19.5l414 -665l24 -46c7.33301 -14.667 13.666 -29 18.999 -43c5.33301 14.667 11.666 29.167 18.999 43.5l24 45.5l415 665c3.33301 7.33301 8.33301 13.5 15 18.5s14.667 7.5 24 7.5h92l-536 -852
v-597h-105v597z" />
    <glyph glyph-name="Z" unicode="Z" horiz-adv-x="1223" 
d="M71 0l0.000976562 38c0 7.33301 1.16699 14 3.5 20s5.16602 11.667 8.49902 17l922 1287h-908v87h1048v-36c0 -12.667 -5 -26.667 -15 -42l-919 -1284h927v-87h-1067z" />
    <glyph glyph-name="bracketleft" unicode="[" horiz-adv-x="608" 
d="M207 -270v1823h325v-36c0 -8.66699 -2.83301 -15.834 -8.5 -21.501s-13.167 -8.5 -22.5 -8.5h-211v-1691h211c9.33301 0 16.833 -2.66699 22.5 -8s8.5 -12.333 8.5 -21v-37h-325z" />
    <glyph glyph-name="backslash" unicode="\" horiz-adv-x="889" 
d="M78 1490h42c26.667 0 45 -12.667 55 -38l637 -1538h-40c-11.333 0 -22.5 3.16699 -33.5 9.5s-19.167 16.5 -24.5 30.5z" />
    <glyph glyph-name="bracketright" unicode="]" horiz-adv-x="608" 
d="M76 -233c0 8.66699 2.66699 15.668 8 21.001s12.666 8 21.999 8h211v1691h-211c-9.33301 0 -16.666 2.66699 -21.999 8s-8 12.666 -8 21.999v36h324v-1823h-324v37z" />
    <glyph glyph-name="asciicircum" unicode="^" 
d="M177 732l385 716.999h61l388 -717h-70c-7.33301 0 -14 2.16699 -20 6.5s-10.667 10.166 -14 17.499l-285 533c-11.333 22.667 -21 45.667 -29 69c-3.33301 -11.333 -7.33301 -22.666 -12 -33.999l-15 -35l-281 -533c-2.66699 -5.33301 -7 -10.666 -13 -15.999
s-13.667 -8 -23 -8h-72z" />
    <glyph glyph-name="underscore" unicode="_" horiz-adv-x="922" 
d="M57 -210h807v-70h-807v70z" />
    <glyph glyph-name="grave" unicode="`" horiz-adv-x="819" 
d="M199 1465h94c16.667 0 29 -2.33301 37 -7s15.667 -13 23 -25l161 -244h-56c-8 0 -15 1.16699 -21 3.5s-11.667 6.83301 -17 13.5z" />
    <glyph glyph-name="a" unicode="a" horiz-adv-x="991" 
d="M87 247c0 43.333 12.3379 83.334 37.0049 120.001s63.167 68.667 115.5 96s119.666 49.166 201.999 65.499s181.166 25.833 296.499 28.5v107c0 94 -20.333 166.333 -61 217s-100.667 76 -180 76c-49.333 0 -91.333 -6.83301 -126 -20.5s-63.834 -28.667 -87.501 -45
s-43 -31.333 -58 -45s-27.833 -20.5 -38.5 -20.5c-7.33301 0 -13.333 1.83301 -18 5.5s-8.66699 8.16699 -12 13.5l-18 29c53.333 53.333 109.333 93.666 168 120.999s125.334 41 200.001 41c54.667 0 102.5 -8.66699 143.5 -26s75 -42.166 102 -74.499
s47.333 -71.5 61 -117.5s20.5 -97.333 20.5 -154v-664h-39c-20.667 0 -33.334 9.66699 -38.001 29l-15 130c-28 -27.333 -55.833 -52 -83.5 -74s-56.5 -40.5 -86.5 -55.5s-62.333 -26.333 -97 -34s-73 -11.5 -115 -11.5c-34.667 0 -68.334 5 -101.001 15
s-61.834 25.667 -87.501 47s-46.167 48.5 -61.5 81.5s-23 72.833 -23 119.5zM181.005 251.001c0 -34 5.66699 -63.5 17 -88.5s26.333 -45.5 45 -61.5s40.334 -27.833 65.001 -35.5s50.334 -11.5 77.001 -11.5c39.333 0 75.666 4.33301 108.999 13s64.166 20.667 92.499 36
s54.666 33.5 78.999 54.5s48.5 43.833 72.5 68.5v266c-96.667 -2.66699 -180.167 -10 -250.5 -22s-128.166 -28.333 -173.499 -49s-78.833 -45.167 -100.5 -73.5s-32.5 -60.5 -32.5 -96.5z" />
    <glyph glyph-name="b" unicode="b" horiz-adv-x="1128" 
d="M168 0l0.000976562 1490h98v-648c44.667 60 96.667 107.167 156 141.5s128.333 51.5 207 51.5c61.333 0 116.166 -11.167 164.499 -33.5s89.5 -54.666 123.5 -96.999s59.833 -94.5 77.5 -156.5s26.5 -132 26.5 -210c0 -82.667 -9.83301 -158 -29.5 -226
s-48.5 -126 -86.5 -174s-84.333 -85.167 -139 -111.5s-117 -39.5 -187 -39.5c-72.667 0 -134.667 13.833 -186 41.5s-95.333 68.5 -132 122.5l-6 -125c-2 -17.333 -11.333 -26 -28 -26h-59zM266.001 221.999c39.333 -58.667 82.668 -99.834 130.001 -123.501
s101 -35.5 161 -35.5c60.667 0 113.667 11 159 33s83.333 53.333 114 94s53.5 90 68.5 148s22.5 123.333 22.5 196c0 140.667 -28 246.334 -84 317.001s-134.667 106 -236 106c-73.333 0 -136.833 -17.333 -190.5 -52s-101.834 -83 -144.501 -145v-538z" />
    <glyph glyph-name="c" unicode="c" horiz-adv-x="965" 
d="M106 510c0 78 10.3359 148.999 31.0029 212.999s50.834 119.167 90.501 165.5s88 82.333 145 108s122.167 38.5 195.5 38.5c66 0 124.667 -10.5 176 -31.5s96.333 -49.5 135 -85.5l-26 -35c-3.33301 -3.33301 -6.5 -6.33301 -9.5 -9s-7.5 -4 -13.5 -4
c-6.66699 0 -15.834 4.66699 -27.501 14s-27.334 19.5 -47.001 30.5s-44.334 21 -74.001 30s-65.834 13.5 -108.501 13.5c-58.667 0 -110.667 -10.333 -156 -31s-83.666 -50.5 -114.999 -89.5s-55 -86.167 -71 -141.5s-24 -117.333 -24 -186c0 -72 8.33301 -135.5 25 -190.5
s40.334 -101.5 71.001 -139.5s67.834 -67 111.501 -87s92.167 -30 145.5 -30c49.333 0 90.5 5.83301 123.5 17.5s60.333 24.334 82 38.001s38.667 26.334 51 38.001s22.5 17.5 30.5 17.5s14.667 -3.33301 20 -10l26 -33c-16 -20.667 -35.833 -39.834 -59.5 -57.501
s-50.5 -33 -80.5 -46s-62.667 -23 -98 -30s-72 -10.5 -110 -10.5c-64.667 0 -123.834 11.667 -177.501 35s-99.834 57.333 -138.501 102s-68.834 99.5 -90.501 164.5s-32.5 138.833 -32.5 221.5z" />
    <glyph glyph-name="d" unicode="d" horiz-adv-x="1128" 
d="M109 507c0 74.667 9.66504 144.17 28.998 208.503s47.833 120.166 85.5 167.499s83.834 84.666 138.501 111.999s118 41 190 41c68.667 0 128.334 -12.833 179.001 -38.5s94.667 -62.834 132 -111.501v604h98v-1490h-54c-18 0 -28 9 -30 27l-11 160
c-45.333 -61.333 -98 -110 -158 -146s-127.333 -54 -202 -54c-125.333 0 -222.833 43.333 -292.5 130s-104.5 216.667 -104.5 390zM208.998 507.003c0 -151.333 27.8311 -262.667 83.498 -334s136.167 -107 241.5 -107c66.667 0 127.5 17.333 182.5 52
s103.833 83.334 146.5 146.001v535c-38.667 58.667 -81.667 100 -129 124s-101.666 36 -162.999 36c-60 0 -112.5 -10.833 -157.5 -32.5s-82.667 -52.5 -113 -92.5s-53.166 -87.833 -68.499 -143.5s-23 -116.834 -23 -183.501z" />
    <glyph glyph-name="e" unicode="e" horiz-adv-x="1068" 
d="M106 530c0 73.333 10.499 140.833 31.499 202.5s51.167 114.834 90.5 159.501s87.333 79.667 144 105s121.334 38 194.001 38c57.333 0 110.666 -9.83301 159.999 -29.5s92 -48.5 128 -86.5s64.5 -84.667 85.5 -140s31.5 -118.666 31.5 -189.999
c0 -15.333 -2.16699 -25.666 -6.5 -30.999s-11.166 -8 -20.499 -8h-741v-20c0 -76.667 8.83301 -143.834 26.5 -201.501s42.834 -106.167 75.501 -145.5s72.334 -68.833 119.001 -88.5s98.667 -29.5 156 -29.5c51.333 0 95.666 5.5 132.999 16.5s68.833 23.5 94.5 37.5
s46 26.667 61 38s25.833 17 32.5 17c8.66699 0 15.667 -3.33301 21 -10l26 -33c-16.667 -20.667 -38.334 -39.834 -65.001 -57.501s-56.667 -32.834 -90 -45.501s-68.833 -22.667 -106.5 -30s-75.834 -11 -114.501 -11c-69.333 0 -132.666 12 -189.999 36
s-106.5 59.333 -147.5 106s-72.667 103.5 -95 170.5s-33.5 143.833 -33.5 230.5zM206.999 612l676.002 0.000976562c0 54.667 -7.66699 103.667 -23 147s-37 80 -65 110s-61.333 53.167 -100 69.5s-81.334 24.5 -128.001 24.5c-52.667 0 -99.667 -8.33301 -141 -25
s-77.333 -40.334 -108 -71.001s-55.334 -67.5 -74.001 -110.5s-31 -91.167 -37 -144.5z" />
    <glyph glyph-name="f" unicode="f" horiz-adv-x="697" 
d="M56 947v40.001h172v129c0 58 7.5 109 22.5 153s36.167 80.667 63.5 110s60.166 51.333 98.499 66s80.833 22 127.5 22c21.333 0 42.666 -1.83301 63.999 -5.5s40.666 -8.83398 57.999 -15.501l-4 -47c-1.33301 -6 -4.16602 -10 -8.49902 -12
s-10.666 -2.83301 -18.999 -2.5s-18.833 1.5 -31.5 3.5s-27.667 3 -45 3c-33.333 0 -64.166 -5 -92.499 -15s-52.833 -26 -73.5 -48s-36.5 -50.5 -47.5 -85.5s-16.5 -78.167 -16.5 -129.5v-126h330v-73h-327v-914h-99v912l-143 10c-19.333 2 -29 10.333 -29 25z" />
    <glyph glyph-name="g" unicode="g" horiz-adv-x="1045" 
d="M79 -108c0 54 17.6719 100.324 53.0049 138.991s84 69 146 91c-34.667 11.333 -62.334 28 -83.001 50s-31 52.333 -31 91c0 14.667 2.66699 29.834 8 45.501s13.5 31.167 24.5 46.5s24.333 29.833 40 43.5s33.5 25.834 53.5 36.501c-48.667 28 -86.5 65.167 -113.5 111.5
s-40.5 100.833 -40.5 163.5c0 49.333 8.66699 93.833 26 133.5s42.166 73.834 74.499 102.501s70.833 50.834 115.5 66.501s94.334 23.5 149.001 23.5c45.333 0 86.666 -5.33301 123.999 -16s71.333 -26 102 -46h261v-34c0 -15.333 -9.66699 -24.666 -29 -27.999l-155 -11
c19.333 -26 34 -55.167 44 -87.5s15 -66.833 15 -103.5c0 -49.333 -8.66699 -94 -26 -134s-41.833 -74.167 -73.5 -102.5s-69.834 -50.333 -114.501 -66s-94 -23.5 -148 -23.5c-58.667 0 -111.667 9 -159 27c-28.667 -17.333 -51.334 -37.166 -68.001 -59.499
s-25 -43.833 -25 -64.5c0 -29.333 10.333 -51.833 31 -67.5s48 -27.167 82 -34.5s72.667 -12 116 -14s87.5 -4.16699 132.5 -6.5s89.167 -6.66602 132.5 -12.999s81.833 -17.166 115.5 -32.499s61 -36.833 82 -64.5s31.5 -64.167 31.5 -109.5
c0 -42 -10.667 -82.667 -32 -122s-52 -74 -92 -104s-88.333 -54 -145 -72s-120 -27 -190 -27c-72 0 -134.833 7.33301 -188.5 22s-98.834 34.5 -135.501 59.5s-64.167 53.833 -82.5 86.5s-27.5 67.334 -27.5 104.001zM166.005 -96.0088c0 -30 7.66699 -57.8311 23 -83.498
s37.833 -47.834 67.5 -66.501s66 -33.5 109 -44.5s92.5 -16.5 148.5 -16.5c52 0 100.333 5.83301 145 17.5s83.5 28 116.5 49s59 46.167 78 75.5s28.5 61.333 28.5 96c0 32 -8.5 57.833 -25.5 77.5s-39.333 35 -67 46s-60 18.5 -97 22.5s-75.333 7.16699 -115 9.5
s-79.667 4.5 -120 6.5s-78.166 6 -113.499 12c-26 -10 -49.833 -21.833 -71.5 -35.5s-40.334 -28.834 -56.001 -45.501s-28 -35 -37 -55s-13.5 -41.667 -13.5 -65zM227.005 707.993c0 -38 6.16699 -72.832 18.5 -104.499s30.333 -58.834 54 -81.501
s52.334 -40.167 86.001 -52.5s72.167 -18.5 115.5 -18.5c44 0 83 6.16699 117 18.5s62.5 29.833 85.5 52.5s40.667 49.667 53 81s18.5 66.333 18.5 105c0 38 -6.33301 72.833 -19 104.5s-30.667 58.834 -54 81.501s-52 40.167 -86 52.5s-72.333 18.5 -115 18.5
c-43.333 0 -81.833 -6.16699 -115.5 -18.5s-62.334 -29.833 -86.001 -52.5s-41.667 -49.834 -54 -81.501s-18.5 -66.5 -18.5 -104.5z" />
    <glyph glyph-name="h" unicode="h" horiz-adv-x="1126" 
d="M168 0l0.000976562 1490h98v-644c47.333 58 101.166 104 161.499 138s128.166 51 203.499 51c56 0 105.333 -8.83301 148 -26.5s78 -43.167 106 -76.5s49.167 -73.666 63.5 -120.999s21.5 -100.666 21.5 -159.999v-651h-99v651c0 95.333 -21.833 170.166 -65.5 224.499
s-110.167 81.5 -199.5 81.5c-66.667 0 -128.667 -16.833 -186 -50.5s-108.666 -80.5 -153.999 -140.5v-766h-98z" />
    <glyph glyph-name="i" unicode="i" horiz-adv-x="455" 
d="M137 1370c0 12 2.5 23.667 7.5 35s11.5 21.166 19.5 29.499s17.5 14.833 28.5 19.5s22.5 7 34.5 7s23.667 -2.33301 35 -7s21 -11.167 29 -19.5s14.5 -18.166 19.5 -29.499s7.5 -23 7.5 -35s-2.5 -23.333 -7.5 -34s-11.5 -20.167 -19.5 -28.5s-17.5 -14.833 -28.5 -19.5
s-22.833 -7 -35.5 -7c-12 0 -23.5 2.33301 -34.5 7s-20.5 11.167 -28.5 19.5s-14.5 17.833 -19.5 28.5s-7.5 22 -7.5 34zM179 0v1019h97v-1019h-97z" />
    <glyph glyph-name="j" unicode="j" horiz-adv-x="455" 
d="M-67 -356l5.99902 49c2 6 4.66699 9.5 8 10.5s7.83301 1 13.5 0l22 -4c9 -1.66699 20.167 -2.5 33.5 -2.5c55.333 0 96.333 15 123 45s40 72.667 40 128v1149h97v-1149c0 -35.333 -5 -68 -15 -98s-25.167 -56.167 -45.5 -78.5s-45.666 -39.833 -75.999 -52.5
s-65.833 -19 -106.5 -19c-20 0 -37.833 1.66699 -53.5 5s-31.167 9 -46.5 17zM135.999 1370c0 12 2.50098 23.667 7.50098 35s11.5 21.166 19.5 29.499s17.5 14.833 28.5 19.5s22.5 7 34.5 7s23.667 -2.33301 35 -7s21.166 -11.167 29.499 -19.5s15 -18.166 20 -29.499
s7.5 -23 7.5 -35s-2.5 -23.333 -7.5 -34s-11.667 -20.167 -20 -28.5s-18 -14.833 -29 -19.5s-22.833 -7 -35.5 -7c-12 0 -23.5 2.33301 -34.5 7s-20.5 11.167 -28.5 19.5s-14.5 17.833 -19.5 28.5s-7.5 22 -7.5 34z" />
    <glyph glyph-name="k" unicode="k" horiz-adv-x="974" 
d="M168 0l-0.000976562 1490h98v-908h47c9.33301 0 18.333 1.33301 27 4s18.334 9 29.001 19l408 388c6.66699 8 14.167 14.333 22.5 19s18.5 7 30.5 7h86l-449 -427c-12 -14.667 -25.333 -26 -40 -34c10.667 -5.33301 20 -11.666 28 -18.999s15.667 -15.666 23 -24.999
l472 -514h-85c-9.33301 0 -18 1.5 -26 4.5s-15.333 9.5 -22 19.5l-428 458c-5.33301 6 -10.5 11.167 -15.5 15.5s-10.333 7.66602 -16 9.99902s-12 4 -19 5s-15.833 1.5 -26.5 1.5h-46v-514h-98z" />
    <glyph glyph-name="l" unicode="l" horiz-adv-x="452" 
d="M177 0v1490h98v-1490h-98z" />
    <glyph glyph-name="m" unicode="m" horiz-adv-x="1648" 
d="M168 0v1019h54c17.333 0 27.333 -8.66699 30 -26l9 -147c39.333 56.667 84.666 102.334 135.999 137.001s109 52 173 52c74.667 0 134.334 -21.5 179.001 -64.5s75 -102.5 91 -178.5c12 41.333 29.167 77.333 51.5 108s47.833 56.167 76.5 76.5
s59.834 35.166 93.501 44.499s68.167 14 103.5 14c50.667 0 96.167 -8.33301 136.5 -25s74.5 -41.334 102.5 -74.001s49.5 -73 64.5 -121s22.5 -102.667 22.5 -164v-651h-97v651c0 100 -21.5 176 -64.5 228s-104.5 78 -184.5 78c-35.333 0 -69.333 -6.33301 -102 -19
s-61.334 -31.834 -86.001 -57.501s-44.334 -57.667 -59.001 -96s-22 -82.833 -22 -133.5v-651h-99v651c0 98.667 -19.667 174.334 -59 227.001s-96.666 79 -171.999 79c-55.333 0 -106.5 -16.333 -153.5 -49s-89.167 -78 -126.5 -136v-772h-98z" />
    <glyph glyph-name="n" unicode="n" horiz-adv-x="1126" 
d="M168 0v1019h54c17.333 0 27.333 -8.66699 30 -26l9 -153c47.333 59.333 101.666 106.666 162.999 141.999s130.333 53 207 53c56 0 105.333 -8.83301 148 -26.5s78 -43.167 106 -76.5s49.167 -73.666 63.5 -120.999s21.5 -100.666 21.5 -159.999v-651h-99v651
c0 95.333 -21.833 170.166 -65.5 224.499s-110.167 81.5 -199.5 81.5c-66.667 0 -128.667 -16.833 -186 -50.5s-108.666 -80.5 -153.999 -140.5v-766h-98z" />
    <glyph glyph-name="o" unicode="o" horiz-adv-x="1142" 
d="M106 510c0 80 10.5 152.167 31.5 216.5s51.5 119.5 91.5 165.5s88.667 81.333 146 106s122.666 37 195.999 37s138.833 -12.333 196.5 -37s106.334 -60 146.001 -106s69.834 -101.167 90.501 -165.5s31 -136.5 31 -216.5s-10.333 -152 -31 -216
s-50.834 -119 -90.501 -165s-88.334 -81.167 -146.001 -105.5s-123.167 -36.5 -196.5 -36.5s-138.666 12.167 -195.999 36.5s-106 59.5 -146 105.5s-70.5 101 -91.5 165s-31.5 136 -31.5 216zM207 510c0 -68 7.66406 -129.5 22.9971 -184.5s38.166 -102 68.499 -141
s68.166 -69 113.499 -90s98.333 -31.5 159 -31.5s113.834 10.5 159.501 31.5s83.667 51 114 90s53 86 68 141s22.5 116.5 22.5 184.5c0 67.333 -7.5 128.666 -22.5 183.999s-37.667 102.666 -68 141.999s-68.166 69.5 -113.499 90.5s-98.666 31.5 -159.999 31.5
c-60.667 0 -113.667 -10.5 -159 -31.5s-83.166 -51.167 -113.499 -90.5s-53.166 -86.666 -68.499 -141.999s-23 -116.666 -23 -183.999z" />
    <glyph glyph-name="p" unicode="p" horiz-adv-x="1129" 
d="M168 -360l0.000976562 1379h54c17.333 0 27.333 -8.66699 30 -26l9 -157c45.333 61.333 98.333 110 159 146s128.667 54 204 54c124.667 0 222 -43.333 292 -130s105 -216.667 105 -390c0 -74.667 -9.66699 -144.167 -29 -208.5s-48 -120.166 -86 -167.499
s-84.5 -84.666 -139.5 -111.999s-118.167 -41 -189.5 -41c-68.667 0 -128.334 12.5 -179.001 37.5s-94.667 62.167 -132 111.5v-496h-98zM266.001 221.998c38.667 -58.667 81.668 -99.833 129.001 -123.5s101.666 -35.5 162.999 -35.5c60 0 112.5 11 157.5 33
s82.667 53 113 93s53.333 87.833 69 143.5s23.5 116.834 23.5 183.501c0 151.333 -28 262.666 -84 333.999s-136.333 107 -241 107c-67.333 0 -128.333 -17.333 -183 -52s-103.667 -83 -147 -145v-538z" />
    <glyph glyph-name="q" unicode="q" horiz-adv-x="1127" 
d="M109 507c0 74.667 9.66602 144.17 28.999 208.503s47.833 120.166 85.5 167.499s83.834 84.666 138.501 111.999s118 41 190 41c70 0 130.667 -13.333 182 -40s95.666 -65.334 132.999 -116.001l10 113c2.66699 17.333 12.667 26 30 26h54v-1379h-98v542
c-45.333 -60 -97.666 -107.5 -156.999 -142.5s-126 -52.5 -200 -52.5c-125.333 0 -222.833 43.333 -292.5 130s-104.5 216.667 -104.5 390zM208.999 507.003c0 -151.333 27.8311 -262.668 83.498 -334.001s136.167 -107 241.5 -107c66.667 0 127.5 17.333 182.5 52
s103.833 83.334 146.5 146.001v536c-36.667 56.667 -79.167 97.334 -127.5 122.001s-103.166 37 -164.499 37c-60 0 -112.5 -10.833 -157.5 -32.5s-82.667 -52.5 -113 -92.5s-53.166 -87.833 -68.499 -143.5s-23 -116.834 -23 -183.501z" />
    <glyph glyph-name="r" unicode="r" horiz-adv-x="723" 
d="M168 0l0.00195312 1019h52c11.333 0 19.5 -2.33301 24.5 -7s8.16699 -13 9.5 -25l7 -214c16 41.333 34 78.333 54 111s43.167 60.167 69.5 82.5s55.666 39.5 87.999 51.5s68.5 18 108.5 18c21.333 0 42.166 -1.83301 62.499 -5.5s38.166 -10.167 53.499 -19.5l-8 -68
c-3.33301 -10.667 -9.66602 -16 -18.999 -16c-8 0 -20.5 2.33301 -37.5 7s-39.167 7 -66.5 7c-39.333 0 -74.333 -6.16699 -105 -18.5s-58 -30.166 -82 -53.499s-45 -52.666 -63 -87.999s-34.667 -76 -50 -122v-659h-98z" />
    <glyph glyph-name="s" unicode="s" horiz-adv-x="870" 
d="M91 108l23.0059 34.002c3.33301 5.33301 7.16602 9.5 11.499 12.5s10.166 4.5 17.499 4.5c8.66699 0 19.5 -5.5 32.5 -16.5s30 -22.833 51 -35.5s47 -24.5 78 -35.5s69.5 -16.5 115.5 -16.5c43.333 0 81.333 6 114 18s59.834 28.333 81.501 49s38.167 44.834 49.5 72.501
s17 56.834 17 87.501c0 34 -8.16699 62.167 -24.5 84.5s-37.833 41.333 -64.5 57s-56.834 29 -90.501 40l-104 33c-35.667 11 -70.334 23 -104.001 36s-63.834 29.333 -90.501 49s-48.167 43.667 -64.5 72s-24.5 63.833 -24.5 106.5c0 36 7.83301 70.667 23.5 104
s38 62.666 67 87.999s64.333 45.5 106 60.5s88.5 22.5 140.5 22.5c62 0 117 -8.83301 165 -26.5s92 -44.834 132 -81.501l-21 -34c-5.33301 -9.33301 -13 -14 -23 -14c-7.33301 0 -17 4.16699 -29 12.5s-27.667 17.833 -47 28.5s-43.333 20.334 -72 29.001
s-63.334 13 -104.001 13c-36.667 0 -70.334 -5.33301 -101.001 -16s-56.667 -24.834 -78 -42.501s-37.833 -38.334 -49.5 -62.001s-17.5 -48.5 -17.5 -74.5c0 -32 8.16699 -58.667 24.5 -80s37.666 -39.5 63.999 -54.5s56.5 -27.833 90.5 -38.5l104 -32.5
c35.333 -11 70 -23.167 104 -36.5s64.167 -30 90.5 -50s47.666 -44.333 63.999 -73s24.5 -63.334 24.5 -104.001c0 -44.667 -7.83301 -86 -23.5 -124s-38.667 -71 -69 -99s-67.666 -50.167 -111.999 -66.5s-95.166 -24.5 -152.499 -24.5c-72 0 -133.833 11.333 -185.5 34
s-98.167 52.667 -139.5 90z" />
    <glyph glyph-name="t" unicode="t" horiz-adv-x="701" 
d="M55 938l0.000976562 38.001l174 12l25 365c1.33301 6 4 11.333 8 16s10 7 18 7h46v-389h321v-73h-321v-691c0 -28 3.5 -52 10.5 -72s16.833 -36.5 29.5 -49.5s27.5 -22.667 44.5 -29s35.5 -9.5 55.5 -9.5c24.667 0 45.834 3.66699 63.501 11s33 15.333 46 24
s23.667 16.5 32 23.5s14.833 10.5 19.5 10.5c5.33301 0 10.666 -3.33301 15.999 -10l27 -43c-26 -28.667 -59 -51.667 -99 -69s-81.667 -26 -125 -26c-68.667 0 -122.334 19 -161.001 57s-58 97 -58 177v696h-146c-7.33301 0 -13.5 2.16699 -18.5 6.5
s-7.5 10.166 -7.5 17.499z" />
    <glyph glyph-name="u" unicode="u" horiz-adv-x="1125" 
d="M157 368v651.002h98v-651c0 -95.333 21.833 -170.333 65.5 -225s110.167 -82 199.5 -82c66 0 127.833 17 185.5 51s109.167 81 154.5 141v766h98v-1019h-54c-17.333 0 -27.333 9 -30 27l-9 151c-47.333 -58.667 -101.833 -105.667 -163.5 -141s-130.167 -53 -205.5 -53
c-56.667 0 -106.167 8.83301 -148.5 26.5s-77.5 43.167 -105.5 76.5s-49.167 73.666 -63.5 120.999s-21.5 100.666 -21.5 159.999z" />
    <glyph glyph-name="v" unicode="v" horiz-adv-x="1027" 
d="M40 1019h77.001c9.33301 0 17.166 -2.5 23.499 -7.5s10.5 -10.833 12.5 -17.5l336 -804c10 -29.333 18.333 -58.666 25 -87.999c6 29.333 14.667 58.666 26 87.999l338 804c3.33301 7.33301 7.83301 13.333 13.5 18s12.5 7 20.5 7h74l-430 -1019h-86z" />
    <glyph glyph-name="w" unicode="w" horiz-adv-x="1565" 
d="M51 1019h73.998c9.33301 0 17.166 -2.5 23.499 -7.5s10.5 -10.833 12.5 -17.5l257 -804c4 -16 7.5 -31.167 10.5 -45.5s5.83301 -28.833 8.5 -43.5c3.33301 14.667 7.33301 29.334 12 44.001l15 45l272 811c4.66699 15.333 14.334 23 29.001 23h40
c15.333 0 25.333 -7.66699 30 -23l270 -811c4.66699 -16 8.83398 -31 12.501 -45s7.16699 -28.667 10.5 -44l10 44c3.33301 14.667 7.33301 29.667 12 45l259 804c2.66699 7.33301 7.16699 13.333 13.5 18s13.5 7 21.5 7h70l-339 -1019h-73
c-11.333 0 -19.333 7.33301 -24 22l-278 827c-3.33301 10 -6.5 20.167 -9.5 30.5s-5.5 20.166 -7.5 29.499c-2 -10 -4.16699 -20 -6.5 -30s-5.16602 -20 -8.49902 -30l-283 -827c-4 -14.667 -12 -22 -24 -22h-70z" />
    <glyph glyph-name="x" unicode="x" horiz-adv-x="960" 
d="M44 0l369.999 521l-356 498h94c9.33301 0 16.333 -2 21 -6s8.66699 -9 12 -15l299 -431c3.33301 12.667 9 24.667 17 36l279 394c4 6 8.5 11.167 13.5 15.5s11.167 6.5 18.5 6.5h89l-355 -493l369 -526h-93c-9.33301 -0 -16.666 2.83301 -21.999 8.5s-10 11.5 -14 17.5
l-309 451c-3.33301 -13.333 -8.33301 -25.333 -15 -36l-295 -415c-4.66699 -6 -9.66699 -11.833 -15 -17.5s-12 -8.5 -20 -8.5h-88z" />
    <glyph glyph-name="y" unicode="y" horiz-adv-x="1027" 
d="M40 1019l81.001 -0.000976562c10 0 18.167 -2.5 24.5 -7.5s10.5 -10.833 12.5 -17.5l343 -792c4 -10 7.5 -20.333 10.5 -31s5.83301 -21.667 8.5 -33c3.33301 10.667 7 21.334 11 32.001l12 32l339 792c3.33301 7.33301 8 13.333 14 18s12.667 7 20 7h75l-585 -1347
c-4 -9.33301 -9.33301 -17 -16 -23s-16.334 -9 -29.001 -9h-69l179 398z" />
    <glyph glyph-name="z" unicode="z" horiz-adv-x="908" 
d="M67 0v39c0 11.333 5 24 15 38l640 865h-622v77h737v-41c0 -14.667 -5 -27.667 -15 -39l-638 -862h627v-77h-744z" />
    <glyph glyph-name="braceleft" unicode="{" horiz-adv-x="604" 
d="M84 610v63.001c24 0 45.667 3.66699 65 11s36 18 50 32s24.833 30.5 32.5 49.5s11.5 39.5 11.5 61.5c0 37.333 -3.33301 73.833 -10 109.5l-21 107l-21 107c-6.66699 35.667 -10 72.834 -10 111.501c0 41.333 6.5 79.833 19.5 115.5s31.833 66.5 56.5 92.5
s54.834 46.333 90.501 61s76.167 22 121.5 22h56v-43c0 -7.33301 -2.66699 -13 -8 -17s-11 -6 -17 -6h-34c-29.333 0 -56.166 -5.16699 -80.499 -15.5s-45.166 -25 -62.499 -44s-31 -42.167 -41 -69.5s-15 -57.666 -15 -90.999c0 -38.667 3.16699 -76.5 9.5 -113.5
s13.166 -73.5 20.499 -109.5s14.166 -71.833 20.499 -107.5s9.5 -71.834 9.5 -108.501c0 -25.333 -4.16699 -48.5 -12.5 -69.5s-19.5 -39.333 -33.5 -55s-30 -28.834 -48 -39.501s-37 -18.334 -57 -23.001c20 -4 39 -11.333 57 -22s34 -24 48 -40s25.167 -34.333 33.5 -55
s12.5 -43.667 12.5 -69c0 -36 -3.16699 -72 -9.5 -108s-13.166 -72.167 -20.499 -108.5s-14.166 -72.833 -20.499 -109.5s-9.5 -74.334 -9.5 -113.001c0 -33.333 5 -63.666 15 -90.999s23.667 -50.5 41 -69.5s38.166 -33.667 62.499 -44s51.166 -15.5 80.499 -15.5h34
c6 0 11.667 -2 17 -6s8 -9.66699 8 -17v-43h-56c-45.333 0 -85.833 7.33301 -121.5 22s-65.834 35.167 -90.501 61.5s-43.5 57.166 -56.5 92.499s-19.5 74 -19.5 116c0 38 3.33301 74.833 10 110.5l21 107l21 107c6.66699 35.667 10 72.167 10 109.5
c0 22.667 -3.83301 43.334 -11.5 62.001s-18.5 35 -32.5 49s-30.667 24.667 -50 32s-41 11 -65 11z" />
    <glyph glyph-name="bar" unicode="|" horiz-adv-x="488" 
d="M206 -364v1917h77v-1917h-77z" />
    <glyph glyph-name="braceright" unicode="}" horiz-adv-x="604" 
d="M79 -227c0 7.33301 2.66699 13.001 8 17.001s11 6 17 6h34c29.333 0 56.166 5.16699 80.499 15.5s45.166 25 62.499 44s31 42.167 41 69.5s15 57.666 15 90.999c0 38 -3.16699 75.5 -9.5 112.5s-13.166 73.667 -20.499 110s-14 72.333 -20 108s-9 71.834 -9 108.501
c0 25.333 4 48.333 12 69s19 39 33 55s30 29.333 48 40s37 18 57 22c-20 4.66699 -39 12.334 -57 23.001s-34 23.834 -48 39.501s-25 34.167 -33 55.5s-12 44.333 -12 69c0 36 3 72 9 108s12.667 72 20 108s14.166 72.333 20.499 109s9.5 74.667 9.5 114
c0 33.333 -5 63.666 -15 90.999s-23.667 50.5 -41 69.5s-38.166 33.667 -62.499 44s-51.166 15.5 -80.499 15.5h-34c-6 0 -11.667 2 -17 6s-8 9.66699 -8 17v43h56c45.333 0 85.833 -7.33301 121.5 -22s65.834 -35 90.501 -61s43.5 -56.833 56.5 -92.5
s19.5 -74.167 19.5 -115.5c0 -38 -3.33301 -75 -10 -111s-13.667 -71.833 -21 -107.5l-21 -106.5c-6.66699 -35.333 -10 -72 -10 -110c0 -22.667 3.83301 -43.334 11.5 -62.001s18.5 -35 32.5 -49s30.667 -24.667 50 -32s41 -11 65 -11v-63c-24 0 -45.667 -3.66699 -65 -11
s-36 -18 -50 -32s-24.833 -30.333 -32.5 -49s-11.5 -39.334 -11.5 -62.001c0 -37.333 3.33301 -73.833 10 -109.5l21 -107l21 -107c6.66699 -35.667 10 -72.5 10 -110.5c0 -41.333 -6.5 -79.833 -19.5 -115.5s-31.833 -66.667 -56.5 -93s-54.834 -46.833 -90.501 -61.5
s-76.167 -22 -121.5 -22h-56v43z" />
    <glyph glyph-name="asciitilde" unicode="~" 
d="M146 444c0 37.333 5.50195 72.166 16.502 104.499s26.833 60.5 47.5 84.5s45.834 42.833 75.501 56.5s63.5 20.5 101.5 20.5c35.333 0 71.333 -6.66699 108 -20s72.667 -28.166 108 -44.499s69.833 -31.166 103.5 -44.499s65.167 -20 94.5 -20
c25.333 0 48.333 4.5 69 13.5s38.167 21.667 52.5 38s25.5 35.833 33.5 58.5s12 47.334 12 74.001h80c0 -37.333 -5.5 -72.166 -16.5 -104.499s-26.833 -60.333 -47.5 -84s-46 -42.334 -76 -56.001s-64 -20.5 -102 -20.5c-34.667 0 -70.334 6.66699 -107.001 20
s-72.834 28.166 -108.501 44.499s-70.334 31.166 -104.001 44.499s-65.167 20 -94.5 20c-26 0 -49 -4.66699 -69 -14s-37.167 -22.166 -51.5 -38.499s-25.5 -35.833 -33.5 -58.5s-12.333 -47.334 -13 -74.001h-79z" />
    <glyph glyph-name="uni00A0" unicode="&#xa0;" horiz-adv-x="556" 
 />
    <glyph glyph-name="cent" unicode="&#xa2;" 
d="M169 510c0 76.667 10.833 146.838 32.5 210.505s53.5 118.5 95.5 164.5s93.667 82.167 155 108.5s131.333 40.166 210 41.499l10 210c0.666992 8.66699 3.5 16.334 8.5 23.001s12.167 10 21.5 10h37l-12 -246c59.333 -5.33301 112 -17.833 158 -37.5
s87.333 -45.167 124 -76.5l-25 -34c-3.33301 -3.33301 -6.5 -6.33301 -9.5 -9s-7.16699 -4 -12.5 -4c-6 0 -14.667 4 -26 12s-26.5 17 -45.5 27s-42.167 19.5 -69.5 28.5s-60 15.167 -98 18.5l-44 -895c51.333 1.33301 94.333 7.83301 129 19.5s63.5 24.167 86.5 37.5
s41.167 25.5 54.5 36.5s23.666 16.5 30.999 16.5s14 -3 20 -9l25 -32c-16 -20 -35.667 -38.333 -59 -55s-50 -31.334 -80 -44.001s-62.833 -22.834 -98.5 -30.501s-73.167 -12.167 -112.5 -13.5l-10 -215c-0.666992 -8.66699 -3.66699 -16.167 -9 -22.5
s-12.666 -9.5 -21.999 -9.5h-37l12 248c-65.333 4 -125 18.667 -179 44s-100.5 60.166 -139.5 104.499s-69 97.666 -90 159.999s-31.5 133.166 -31.5 212.499zM265 510.004c0 -66.667 8 -126.498 24 -179.498s39.167 -98.5 69.5 -136.5s66.833 -67.833 109.5 -89.5
s90.667 -34.834 144 -39.501l45 893c-62.667 -2 -118.334 -13.667 -167.001 -35s-89.667 -51.333 -123 -90s-58.666 -85.334 -75.999 -140.001s-26 -115.667 -26 -183z" />
    <glyph glyph-name="sterling" unicode="&#xa3;" 
d="M62 647l-0.00195312 33.001c0 10 3.33301 18.5 10 25.5s15.667 10.5 27 10.5h169v301c0 63.333 9 122.333 27 177s44.5 102 79.5 142s79 71.333 132 94s114.167 34 183.5 34c52 0 97.833 -6.33301 137.5 -19s74.334 -29.834 104.001 -51.501s55 -47.167 76 -76.5
s39.167 -60.333 54.5 -93l-39 -23c-10 -4.66699 -19.5 -6.33398 -28.5 -5.00098s-17.167 7 -24.5 17c-13.333 21.333 -27.833 42.166 -43.5 62.499s-34 38.333 -55 54s-46.167 28 -75.5 37s-64.666 13.5 -105.999 13.5c-53.333 0 -100 -8.83301 -140 -26.5
s-73.5 -42.334 -100.5 -74.001s-47.333 -69.834 -61 -114.501s-20.5 -94 -20.5 -148v-301h490v-40c0 -7.33301 -2.83301 -14 -8.5 -20s-13.167 -9 -22.5 -9h-459v-311c0 -60.667 -12.333 -111.667 -37 -153s-58.667 -76.666 -102 -105.999
c15.333 2.66699 30.333 4.66699 45 6s29.667 2 45 2h806v-41c0 -10 -4 -19.833 -12 -29.5s-19 -14.5 -33 -14.5h-993v67c23.333 8.66699 45.833 19.834 67.5 33.501s41.167 30.334 58.5 50.001s30.833 42.834 40.5 69.501s14.5 57.667 14.5 93v334h-206z" />
    <glyph glyph-name="yen" unicode="&#xa5;" 
d="M92 1449l82.002 -0.000976562c18.667 0 31.667 -8.66699 39 -26l354 -681l15 -38.5c4.66699 -12.333 8.66699 -24.166 12 -35.499c3.33301 12 7.16602 24 11.499 36s9.5 24.667 15.5 38l354 681c3.33301 7.33301 8.16602 13.5 14.499 18.5s14.5 7.5 24.5 7.5h82
l-433 -818h355v-60h-375v-120h375v-60h-375v-391h-98v391h-375v60h375v120h-375v60h354z" />
    <glyph glyph-name="dieresis" unicode="&#xa8;" horiz-adv-x="819" 
d="M144 1315c0 11.333 2.33301 22.165 7 32.498s10.834 19.333 18.501 27s16.5 13.834 26.5 18.501s20.667 7 32 7c10.667 0 21.167 -2.33301 31.5 -7s19.5 -10.834 27.5 -18.501s14.333 -16.667 19 -27s7 -21.166 7 -32.499c0 -10.667 -2.33301 -21 -7 -31
s-11 -18.833 -19 -26.5s-17 -13.667 -27 -18s-20.667 -6.5 -32 -6.5s-22 2.16699 -32 6.5s-18.833 10.333 -26.5 18s-13.834 16.334 -18.501 26.001s-7 20.167 -7 31.5zM506 1315c0 23.333 8.16699 43.332 24.5 59.999s36.166 25 59.499 25
c10.667 0 21.167 -2.33301 31.5 -7s19.166 -10.834 26.499 -18.501s13.5 -16.667 18.5 -27s7.5 -21.166 7.5 -32.499c0 -10.667 -2.5 -21 -7.5 -31s-11.167 -18.833 -18.5 -26.5s-16.166 -13.667 -26.499 -18s-20.833 -6.5 -31.5 -6.5
c-11.333 0 -22.166 2.16699 -32.499 6.5s-19.333 10.333 -27 18s-13.667 16.334 -18 26.001s-6.5 20.167 -6.5 31.5z" />
    <glyph glyph-name="copyright" unicode="&#xa9;" horiz-adv-x="1722" 
d="M122 725c0 67.333 8.83398 132.666 26.501 195.999s42.5 122.333 74.5 177s70.667 104.5 116 149.5s95.166 83.5 149.499 115.5s113 56.833 176 74.5s128.5 26.5 196.5 26.5c67.333 0 132.666 -8.83301 195.999 -26.5s122.333 -42.5 177 -74.5s104.5 -70.5 149.5 -115.5
s83.5 -94.833 115.5 -149.5s57 -113.667 75 -177s27 -128.666 27 -195.999c0 -68 -9 -133.5 -27 -196.5s-43 -121.833 -75 -176.5s-70.5 -104.5 -115.5 -149.5s-94.833 -83.5 -149.5 -115.5s-113.5 -56.833 -176.5 -74.5s-128.5 -26.5 -196.5 -26.5
s-133.5 8.83301 -196.5 26.5s-121.667 42.5 -176 74.5s-104.166 70.5 -149.499 115.5s-84 94.833 -116 149.5s-56.833 113.5 -74.5 176.5s-26.5 128.5 -26.5 196.5zM183.001 725c0 -94.667 17.667 -183.499 53 -266.499s83.666 -155.5 144.999 -217.5
s133.166 -110.667 215.499 -146s170.5 -53 264.5 -53c62.667 0 123 8 181 24s112.333 38.833 163 68.5s96.667 65.167 138 106.5s76.833 87.333 106.5 138s52.5 105.167 68.5 163.5s24 119.166 24 182.499c0 94.667 -17.667 183.5 -53 266.5s-84 155.667 -146 218
s-134.333 111.333 -217 147s-171 53.5 -265 53.5s-182.167 -17.833 -264.5 -53.5s-154.166 -84.667 -215.499 -147s-109.666 -135 -144.999 -218s-53 -171.833 -53 -266.5zM423.001 726.001c0 68 11.498 130.332 34.498 186.999s54.667 105.334 95 146.001
s88.833 72.334 145.5 95.001s119 34 187 34c35.333 0 67.833 -2.66699 97.5 -8s57.167 -12.833 82.5 -22.5s49 -21.5 71 -35.5s43.333 -30.333 64 -49l-23 -34c-4.66699 -7.33301 -12 -11 -22 -11c-6 0 -14.667 4.5 -26 13.5s-27 18.667 -47 29s-45.667 20 -77 29
s-70 13.5 -116 13.5c-56.667 0 -108.167 -9 -154.5 -27s-86.166 -43.833 -119.499 -77.5s-59 -74.334 -77 -122.001s-27 -101.167 -27 -160.5c0 -61.333 9 -116 27 -164s43.333 -88.5 76 -121.5s71 -58.167 115 -75.5s91.667 -26 143 -26c37.333 0 69.833 2.5 97.5 7.5
s52.334 11.833 74.001 20.5s41.5 19 59.5 31l56 38c6.66699 0.666992 12.667 -0.666016 18 -3.99902l34 -36c-40 -40 -87.333 -72 -142 -96s-121.667 -36 -201 -36c-65.333 0 -125.333 11.167 -180 33.5s-101.667 53.666 -141 93.999s-69.833 88.833 -91.5 145.5
s-32.5 119.667 -32.5 189z" />
    <glyph glyph-name="guillemotleft" unicode="&#xab;" horiz-adv-x="813" 
d="M115 525v14.001l246 387l31 -16c20 -10 23.333 -26.333 10 -49l-187 -300c-8.66699 -13.333 -16 -23.333 -22 -30c3.33301 -2.66699 6.66602 -6.33398 9.99902 -11.001l12 -17l187 -301c12.667 -22.667 9.33398 -39 -9.99902 -49l-31 -16zM376 525.001v14.001l246 387
l31 -16c20 -10 23.333 -26.333 10 -49l-187 -300c-8.66699 -13.333 -16 -23.333 -22 -30c3.33301 -2.66699 6.66602 -6.33398 9.99902 -11.001l12 -17l187 -301c12.667 -22.667 9.33398 -39 -9.99902 -49l-31 -16z" />
    <glyph glyph-name="uni00AD" unicode="&#xad;" horiz-adv-x="757" 
d="M141 566v83h476v-83h-476z" />
    <glyph glyph-name="registered" unicode="&#xae;" horiz-adv-x="1722" 
d="M122 725c0 67.333 8.83398 132.666 26.501 195.999s42.5 122.333 74.5 177s70.667 104.5 116 149.5s95.166 83.5 149.499 115.5s113 56.833 176 74.5s128.5 26.5 196.5 26.5c67.333 0 132.666 -8.83301 195.999 -26.5s122.333 -42.5 177 -74.5s104.5 -70.5 149.5 -115.5
s83.5 -94.833 115.5 -149.5s57 -113.667 75 -177s27 -128.666 27 -195.999c0 -68 -9 -133.5 -27 -196.5s-43 -121.833 -75 -176.5s-70.5 -104.5 -115.5 -149.5s-94.833 -83.5 -149.5 -115.5s-113.5 -56.833 -176.5 -74.5s-128.5 -26.5 -196.5 -26.5
s-133.5 8.83301 -196.5 26.5s-121.667 42.5 -176 74.5s-104.166 70.5 -149.499 115.5s-84 94.833 -116 149.5s-56.833 113.5 -74.5 176.5s-26.5 128.5 -26.5 196.5zM183.001 725c0 -94.667 17.667 -183.499 53 -266.499s83.666 -155.5 144.999 -217.5
s133.166 -110.667 215.499 -146s170.5 -53 264.5 -53c62.667 0 123 8 181 24s112.333 38.833 163 68.5s96.667 65.167 138 106.5s76.833 87.333 106.5 138s52.5 105.167 68.5 163.5s24 119.166 24 182.499c0 94.667 -17.667 183.5 -53 266.5s-84 155.667 -146 218
s-134.333 111.333 -217 147s-171 53.5 -265 53.5s-182.167 -17.833 -264.5 -53.5s-154.166 -84.667 -215.499 -147s-109.666 -135 -144.999 -218s-53 -171.833 -53 -266.5zM587.001 272.001v907h253c105.333 0 184.5 -19.667 237.5 -59s79.5 -99.333 79.5 -180
c0 -68 -21.833 -123.833 -65.5 -167.5s-105.834 -71.167 -186.501 -82.5c8 -4.66699 15.333 -10.167 22 -16.5s13 -14.5 19 -24.5l292 -377h-81c-7.33301 0 -13.333 1.16699 -18 3.5s-9.33398 6.83301 -14.001 13.5l-277 359c-5.33301 7.33301 -12.166 13.333 -20.499 18
s-22.166 7 -41.499 7h-112v-401h-87zM674.001 738.001l150.998 -0.000976562c82.667 0 144.334 16.667 185.001 50s61 81 61 143c0 62.667 -18.167 108.334 -54.5 137.001s-95.166 43 -176.499 43h-166v-373z" />
    <glyph glyph-name="acute" unicode="&#xb4;" horiz-adv-x="819" 
d="M322 1189l160.001 244c7.33301 12 15.166 20.333 23.499 25s20.833 7 37.5 7h97l-222 -259c-5.33301 -6.66699 -11 -11.167 -17 -13.5s-13 -3.5 -21 -3.5h-58z" />
    <glyph glyph-name="cedilla" unicode="&#xb8;" horiz-adv-x="819" 
d="M264 -323l9.99902 29c4.66699 7.33301 10.334 11 17.001 11c3.33301 0 7.83301 -1.83301 13.5 -5.5s13.167 -7.5 22.5 -11.5s20.833 -7.83301 34.5 -11.5s30.5 -5.5 50.5 -5.5c35.333 0 62.5 7.5 81.5 22.5s28.5 35.167 28.5 60.5c0 17.333 -4.33301 31.666 -13 42.999
s-21.167 20.5 -37.5 27.5s-35.5 12.833 -57.5 17.5s-46.333 8.66699 -73 12l47 146h57l-32 -107c62 -10.667 108.833 -26.5 140.5 -47.5s47.5 -51.5 47.5 -91.5c0 -20.667 -4.66699 -39.167 -14 -55.5s-22.333 -30.166 -39 -41.499s-36.5 -20 -59.5 -26s-48.167 -9 -75.5 -9
c-28 0 -55.333 4 -82 12s-49 18.333 -67 31z" />
    <glyph glyph-name="guillemotright" unicode="&#xbb;" horiz-adv-x="814" 
d="M151 202l187.001 301.001c4 7.33301 7.83301 13.166 11.5 17.499s7.16699 7.83301 10.5 10.5c-3.33301 3.33301 -6.83301 7.33301 -10.5 12s-7.5 10.667 -11.5 18l-187 300c-12.667 22.667 -9.33398 39 9.99902 49l30 16l247 -387v-14l-247 -388l-30 16
c-20 10 -23.333 26.333 -10 49zM412.001 202.001l187.001 301.001c4 7.33301 7.83301 13.166 11.5 17.499s7.16699 7.83301 10.5 10.5c-3.33301 3.33301 -6.83301 7.33301 -10.5 12s-7.5 10.667 -11.5 18l-187 300c-12.667 22.667 -9.33398 39 9.99902 49l30 16l247 -387
v-14l-247 -388l-30 16c-20 10 -23.333 26.333 -10 49z" />
    <glyph glyph-name="circumflex" unicode="&#x2c6;" horiz-adv-x="819" 
d="M143 1197l223 252.001h87l223 -252h-67c-10 0 -19.667 4.66699 -29 14l-158 170c-4.66699 3.33301 -8.33398 7.66602 -11.001 12.999l-12 -13l-157 -170c-4 -4 -8.66699 -7.33301 -14 -10s-10.666 -4 -15.999 -4h-69z" />
    <glyph glyph-name="ring" unicode="&#x2da;" horiz-adv-x="819" 
d="M233 1333c0 24.667 4.66699 47.334 14 68.001s22 38.334 38 53.001s34.667 26.167 56 34.5s44 12.5 68 12.5c24.667 0 47.667 -4.16699 69 -12.5s40 -19.833 56 -34.5s28.667 -32.334 38 -53.001s14 -43.334 14 -68.001s-4.66699 -47 -14 -67s-22 -37.5 -38 -52.5
s-34.833 -26.667 -56.5 -35s-44.5 -12.5 -68.5 -12.5s-46.667 4.16699 -68 12.5s-40 20 -56 35s-28.667 32.5 -38 52.5s-14 42.333 -14 67zM293 1333c0 -34 10.6689 -61.833 32.002 -83.5s49.666 -32.5 84.999 -32.5c34 0 61.833 10.833 83.5 32.5s32.5 49.5 32.5 83.5
s-10.833 62 -32.5 84s-49.5 33 -83.5 33c-34.667 0 -62.834 -11 -84.501 -33s-32.5 -50 -32.5 -84z" />
    <glyph glyph-name="tilde" unicode="&#x2dc;" horiz-adv-x="819" 
d="M150 1243c0 24.667 3.33398 47.834 10.001 69.501s16.5 40.334 29.5 56.001s28.667 27.834 47 36.501s39.166 13 62.499 13s44.833 -5.66699 64.5 -17s38.5 -23.5 56.5 -36.5s35.667 -25.167 53 -36.5s35 -17 53 -17c30 0 52.333 9.33301 67 28s22.667 44 24 76h61
c0 -24.667 -3.33301 -47.667 -10 -69s-16.167 -39.833 -28.5 -55.5s-27.833 -28 -46.5 -37s-40 -13.5 -64 -13.5c-22.667 0 -43.834 5.66699 -63.501 17s-38.667 23.666 -57 36.999s-36.166 25.666 -53.499 36.999s-35 17 -53 17c-28.667 0 -50.667 -9.83301 -66 -29.5
s-23.333 -44.834 -24 -75.501h-62z" />
    <glyph glyph-name="uni0400" unicode="&#x400;" 
d="M214 0v1449h868v-87h-763v-586h635v-85h-635v-604h765l-2 -87h-868zM350 1885l111 0.000976562c16.667 0 29.167 -1.16699 37.5 -3.5s16.833 -8.5 25.5 -18.5l244 -284h-66c-8.66699 0 -16 0.666992 -22 2s-12 4.66602 -18 9.99902z" />
    <glyph glyph-name="afii10023" unicode="&#x401;" 
d="M214 0v1449h868v-87h-763v-586h635v-85h-635v-604h765l-2 -87h-868zM375 1705c0 10.667 2.16602 21.167 6.49902 31.5s10.333 19.5 18 27.5s16.334 14.167 26.001 18.5s20.167 6.5 31.5 6.5c10.667 0 21.167 -2.16699 31.5 -6.5s19.333 -10.5 27 -18.5
s13.834 -17.167 18.501 -27.5s7 -20.833 7 -31.5s-2.33301 -21 -7 -31s-10.834 -18.667 -18.501 -26s-16.667 -13.166 -27 -17.499s-20.833 -6.5 -31.5 -6.5s-21 2.16699 -31 6.5s-18.833 10.166 -26.5 17.499s-13.667 16 -18 26s-6.5 20.333 -6.5 31zM774.999 1705
c0 22.667 8.16699 42.333 24.5 59s35.833 25 58.5 25c10.667 0 21 -2.16699 31 -6.5s19 -10.5 27 -18.5s14.167 -17.167 18.5 -27.5s6.5 -20.833 6.5 -31.5s-2.16699 -21 -6.5 -31s-10.5 -18.667 -18.5 -26s-16.833 -13.166 -26.5 -17.499s-20.167 -6.5 -31.5 -6.5
s-22 2.16699 -32 6.5s-18.667 10.166 -26 17.499s-13.333 16 -18 26s-7 20.333 -7 31z" />
    <glyph glyph-name="afii10051" unicode="&#x402;" horiz-adv-x="1482" 
d="M27 1363l-0.000976562 86.001h1046v-86h-509v-569h365c80.667 0 151.167 -8.83301 211.5 -26.5s110.5 -43 150.5 -76s69.833 -73 89.5 -120s29.5 -100.167 29.5 -159.5c0 -63.333 -10.5 -120.5 -31.5 -171.5s-52 -94.333 -93 -130s-91.667 -63 -152 -82
s-128.833 -28.5 -205.5 -28.5h-110v84h110c126 0 220.667 28.167 284 84.5s95 134.166 95 233.499c0 102 -31.167 178.833 -93.5 230.5s-157.166 77.5 -284.499 77.5h-365v-710h-104v1363h-433z" />
    <glyph glyph-name="afii10052" unicode="&#x403;" horiz-adv-x="1092" 
d="M214 0v1449h848v-84h-743v-1365h-105zM519 1579l263.999 283.999c8 9.33301 16.333 15.333 25 18s21.334 4 38.001 4h116l-336 -294c-6 -5.33301 -12.167 -8.66602 -18.5 -9.99902s-13.5 -2 -21.5 -2h-67z" />
    <glyph glyph-name="afii10053" unicode="&#x404;" horiz-adv-x="1401" 
d="M120 725c0 110 16.999 210.332 50.999 300.999s81.833 168.667 143.5 234s135.5 115.833 221.5 151.5s180.667 53.5 284 53.5c98.667 0 186.334 -15.333 263.001 -46s146.334 -74 209.001 -130l-31 -46c-5.33301 -8 -14 -12 -26 -12c-8 0 -21.333 7.5 -40 22.5
s-44.334 31.5 -77.001 49.5s-73.334 34.5 -122.001 49.5s-107.334 22.5 -176.001 22.5c-83.333 0 -160 -13.667 -230 -41s-130.833 -66.333 -182.5 -117s-93 -112.667 -124 -186s-49.5 -156.333 -55.5 -249h803v-81h-805c2.66699 -98 19.334 -185.833 50.001 -263.5
s71.667 -143.5 123 -197.5s111.833 -95.167 181.5 -123.5s144.834 -42.5 225.501 -42.5c52 0 98.333 3.33301 139 10s78 16.834 112 30.501s65.667 30.5 95 50.5s58.333 43 87 69c3.33301 2.66699 6.83301 5 10.5 7s7.16699 3 10.5 3c6.66699 0 12.334 -2.33301 17.001 -7
l41 -44c-30 -32 -62.667 -60.833 -98 -86.5s-74 -47.667 -116 -66s-88 -32.333 -138 -42s-105 -14.5 -165 -14.5c-100.667 0 -192.834 17.5 -276.501 52.5s-155.5 84.833 -215.5 149.5s-106.5 142.667 -139.5 234s-49.5 193 -49.5 305z" />
    <glyph glyph-name="afii10054" unicode="&#x405;" horiz-adv-x="1095" 
d="M91 173l29.0078 45.001c8 10 17.333 15 28 15c6 0 13.833 -4 23.5 -12l35 -30c13.667 -12 30.167 -25 49.5 -39s41.5 -27 66.5 -39s54 -22 87 -30s70.167 -12 111.5 -12c57.333 0 108.5 8.66699 153.5 26s83.167 41 114.5 71s55.166 65.667 71.499 107
s24.5 85.666 24.5 132.999c0 51.333 -10.5 93.5 -31.5 126.5s-48.5 60.5 -82.5 82.5s-72.667 40.5 -116 55.5s-87.833 29.667 -133.5 44s-90.167 30.5 -133.5 48.5s-82.166 40.667 -116.499 68s-61.833 61.666 -82.5 102.999s-31 93.333 -31 156
c0 48.667 9.16699 95.334 27.5 140.001s45.166 84.334 80.499 119.001s79.166 62.334 131.499 83.001s112.166 31 179.499 31c75.333 0 142.666 -11.833 201.999 -35.5s113.666 -60.167 162.999 -109.5l-24 -47c-6 -11.333 -15 -17.333 -27 -18
c-8.66699 0 -20 6.33301 -34 19s-33 26.667 -57 42s-54 29.5 -90 42.5s-80 19.5 -132 19.5c-52.667 0 -99 -7.5 -139 -22.5s-73.5 -35.5 -100.5 -61.5s-47.5 -56 -61.5 -90s-21 -69.667 -21 -107c0 -49.333 10.333 -90 31 -122s48.167 -59.333 82.5 -82
s73.166 -41.667 116.499 -57l133.5 -45.5c45.667 -15 90.167 -31.5 133.5 -49.5s82.166 -40.667 116.499 -68s61.833 -61 82.5 -101s31 -89.667 31 -149c0 -60.667 -10.333 -117.834 -31 -171.501s-50.834 -100.334 -90.501 -140.001s-88.167 -70.834 -145.5 -93.501
s-123 -34 -197 -34c-95.333 0 -177.5 16.833 -246.5 50.5s-129.5 79.834 -181.5 138.501z" />
    <glyph glyph-name="afii10055" unicode="&#x406;" horiz-adv-x="533" 
d="M214 0v1449h105v-1449h-105z" />
    <glyph glyph-name="afii10056" unicode="&#x407;" horiz-adv-x="533" 
d="M-14 1705c0 10.667 2.16602 21.167 6.49902 31.5s10.333 19.5 18 27.5s16.334 14.167 26.001 18.5s20.167 6.5 31.5 6.5c10.667 0 21.167 -2.16699 31.5 -6.5s19.333 -10.5 27 -18.5s13.834 -17.167 18.501 -27.5s7 -20.833 7 -31.5s-2.33301 -21 -7 -31
s-10.834 -18.667 -18.501 -26s-16.667 -13.166 -27 -17.499s-20.833 -6.5 -31.5 -6.5s-21 2.16699 -31 6.5s-18.833 10.166 -26.5 17.499s-13.667 16 -18 26s-6.5 20.333 -6.5 31zM213.999 0v1449h105v-1449h-105zM385.999 1705c0 22.667 8.16699 42.333 24.5 59
s35.833 25 58.5 25c10.667 0 21 -2.16699 31 -6.5s19 -10.5 27 -18.5s14.167 -17.167 18.5 -27.5s6.5 -20.833 6.5 -31.5s-2.16699 -21 -6.5 -31s-10.5 -18.667 -18.5 -26s-16.833 -13.166 -26.5 -17.499s-20.167 -6.5 -31.5 -6.5s-22 2.16699 -32 6.5
s-18.667 10.166 -26 17.499s-13.333 16 -18 26s-7 20.333 -7 31z" />
    <glyph glyph-name="afii10057" unicode="&#x408;" horiz-adv-x="848" 
d="M27 13c0.666992 9.33301 1.49805 18.8311 2.49805 28.498s2.16699 19.5 3.5 29.5c1.33301 6 3.83301 11.333 7.5 16s10.167 7 19.5 7c6 0 13.333 -1.16699 22 -3.5s18.834 -4.83301 30.501 -7.5s25.334 -5.16699 41.001 -7.5s33.834 -3.5 54.501 -3.5
c52 0 98.833 8.16699 140.5 24.5s77.167 41.333 106.5 75s51.666 76.334 66.999 128.001s23 112.167 23 181.5v968h104v-966c0 -81.333 -9.83301 -153 -29.5 -215s-48.334 -114.167 -86.001 -156.5s-83.167 -74.166 -136.5 -95.499s-113.333 -32 -180 -32
c-30.667 0 -61.667 2.33301 -93 7s-63.666 12 -96.999 22z" />
    <glyph glyph-name="afii10058" unicode="&#x409;" horiz-adv-x="2126" 
d="M-10 11l0.00390625 66.002h61c31.333 0 61.666 7 90.999 21s57.166 39.5 83.499 76.5s50.833 88 73.5 153s43 148.167 61 249.5s33.667 223.5 47 366.5s24 311.5 32 505.5h788v-655h339c80.667 0 151.167 -8.83301 211.5 -26.5s110.5 -43 150.5 -76s69.833 -73 89.5 -120
s29.5 -100.167 29.5 -159.5c0 -63.333 -10.833 -120.5 -32.5 -171.5s-52.834 -94.333 -93.501 -130s-91.167 -63 -151.5 -82s-128.833 -28.5 -205.5 -28.5h-443v1365h-583c-8.66699 -192 -20.5 -359.5 -35.5 -502.5s-32.833 -265.5 -53.5 -367.5
s-44.334 -185.833 -71.001 -251.5s-55.667 -117.334 -87 -155.001s-65.5 -63.834 -102.5 -78.501s-75.833 -22 -116.5 -22c-22 0 -41.167 2 -57.5 6s-24.5 9.66699 -24.5 17zM1227 84.002l337 0.000976562c126.667 0 221.5 28.167 284.5 84.5s94.5 134.166 94.5 233.499
c0 102 -31.167 178.833 -93.5 230.5s-156.833 77.5 -283.5 77.5h-339v-626z" />
    <glyph glyph-name="afii10059" unicode="&#x40a;" horiz-adv-x="2233" 
d="M214 0v1449h105v-676h908v676h105v-655h339c80.667 0 151.167 -8.83301 211.5 -26.5s110.5 -43 150.5 -76s69.833 -73 89.5 -120s29.5 -100.167 29.5 -159.5c0 -63.333 -10.5 -120.5 -31.5 -171.5s-52 -94.333 -93 -130s-91.5 -63 -151.5 -82s-128.667 -28.5 -206 -28.5
h-443v694h-908v-694h-105zM1332 84l338 0.000976562c126 0 220.667 28.167 284 84.5s95 134.166 95 233.499c0 102 -31 178.833 -93 230.5s-157 77.5 -285 77.5h-339v-626z" />
    <glyph glyph-name="afii10060" unicode="&#x40b;" horiz-adv-x="1503" 
d="M27 1363l-0.000976562 86.001h1046v-86h-509v-576c76 22 149.167 40.167 219.5 54.5s136.166 22.666 197.499 24.999s117.333 -2 168 -13s94 -31 130 -60s64 -68.167 84 -117.5s30 -110.333 30 -183v-493h-106v493c0 82 -16.333 145.667 -49 191
s-80.167 75.5 -142.5 90.5s-138.166 16.333 -227.499 4s-190.666 -35.5 -303.999 -69.5v-709h-104v1363h-433z" />
    <glyph glyph-name="afii10061" unicode="&#x40c;" horiz-adv-x="1310" 
d="M214 0l-0.00390625 1449h105v-669h167c17.333 0 33 1 47 3s27.333 5.66699 40 11s24.834 12.666 36.501 21.999s23.5 21.666 35.5 36.999l455 563c6.66699 9.33301 14.834 17.166 24.501 23.499s20.5 9.5 32.5 9.5h85l-493 -613c-18 -23.333 -36.667 -41.833 -56 -55.5
s-42 -24.167 -68 -31.5c30.667 -7.33301 56.167 -19.166 76.5 -35.499s40.5 -38.166 60.5 -65.499l520 -648h-90c-13.333 0 -24.5 3 -33.5 9s-18.5 16 -28.5 30l-476 588c-9.33301 12 -18.666 22.667 -27.999 32s-19.5 16.833 -30.5 22.5s-23.667 9.83398 -38 12.501
s-31.166 4 -50.499 4h-188v-698h-105zM587.996 1579l263.999 283.999c8 9.33301 16.333 15.333 25 18s21.334 4 38.001 4h116l-336 -294c-6 -5.33301 -12.167 -8.66602 -18.5 -9.99902s-13.5 -2 -21.5 -2h-67z" />
    <glyph glyph-name="uni040D" unicode="&#x40d;" horiz-adv-x="1546" 
d="M214 0l0.000976562 1449h105v-1190c0 -22 -0.333008 -44.333 -1 -67s-2.66699 -46.334 -6 -71.001c9.33301 21.333 18.833 40.666 28.5 57.999s19.5 33.666 29.5 48.999l837 1188c5.33301 8.66699 12.166 16.334 20.499 23.001s17.5 10 27.5 10h77v-1449h-105v1190
c0 22 0.333008 44.333 1 67s2.66699 46.334 6 71.001c-9.33301 -21.333 -18.833 -40.666 -28.5 -57.999s-19.167 -33.333 -28.5 -48l-837 -1189c-5.33301 -8.66699 -12.333 -16.334 -21 -23.001s-18 -10 -28 -10h-77zM460.001 1884l111 0.000976562
c16.667 0 29.167 -1.16699 37.5 -3.5s16.833 -8.5 25.5 -18.5l244 -284h-66c-8.66699 0 -16 0.666992 -22 2s-12 4.66602 -18 9.99902z" />
    <glyph glyph-name="afii10062" unicode="&#x40e;" horiz-adv-x="1233" 
d="M34 1449l97.001 0.000976562c9.33301 0 17.166 -2.16699 23.499 -6.5s11.5 -10.833 15.5 -19.5l452 -822c9.33301 -17.333 17.5 -34.833 24.5 -52.5s13.5 -35.5 19.5 -53.5c5.33301 18 11.333 35.833 18 53.5s14.667 35.5 24 53.5l377 821
c3.33301 7.33301 8.33301 13.5 15 18.5s14.667 7.5 24 7.5h87l-594 -1276c-16 -34 -32.833 -62.833 -50.5 -86.5s-37.167 -42.834 -58.5 -57.501s-44.5 -25.167 -69.5 -31.5s-52.167 -9.5 -81.5 -9.5c-22 0 -41.167 2 -57.5 6s-24.5 9.66699 -24.5 17v66h63
c40.667 0 77.167 10.667 109.5 32s59.833 57 82.5 107l87 188zM376.001 1773c0 9.33301 2.33496 17.166 7.00195 23.499s10.667 9.5 18 9.5h55c0 -68.667 13.667 -118.334 41 -149.001s72 -46 134 -46c61.333 0 105.666 15.333 132.999 46s41 80.334 41 149.001h55
c7.33301 0 13.333 -3.16699 18 -9.5s7 -14.166 7 -23.499c0 -65.333 -21.167 -117 -63.5 -155s-105.833 -57 -190.5 -57s-148.334 18.833 -191.001 56.5s-64 89.5 -64 155.5z" />
    <glyph glyph-name="afii10145" unicode="&#x40f;" horiz-adv-x="1481" 
d="M214 0v1449h105v-1365h842v1365h106v-1449h-479v-330c0 -10 -3.16699 -18.167 -9.5 -24.5s-14.833 -9.5 -25.5 -9.5h-61v364h-478z" />
    <glyph glyph-name="afii10017" unicode="&#x410;" horiz-adv-x="1340" 
d="M26 0l591.999 1449h104l593 -1449h-81c-9.33301 0 -17.166 2.5 -23.499 7.5s-11.166 11.833 -14.499 20.5l-170 421h-712l-170 -421c-2.66699 -7.33301 -7.33398 -13.833 -14.001 -19.5s-15 -8.5 -25 -8.5h-79zM344.999 526h649l-295 732c-10 24 -19.667 53 -29 87
c-4.66699 -16.667 -9.5 -32.5 -14.5 -47.5s-9.83301 -28.5 -14.5 -40.5z" />
    <glyph glyph-name="afii10018" unicode="&#x411;" horiz-adv-x="1246" 
d="M214 0l-0.00195312 1449h881v-83h-776v-572h339c80.667 0 151.334 -8.83301 212.001 -26.5s110.834 -43 150.501 -76s69.5 -73 89.5 -120s30 -100.167 30 -159.5c0 -63.333 -10.833 -120.5 -32.5 -171.5s-53 -94.333 -94 -130s-91.5 -63 -151.5 -82
s-128.667 -28.5 -206 -28.5h-442zM318.998 84l337 0.000976562c126.667 0 221.5 28.167 284.5 84.5s94.5 134.166 94.5 233.499c0 102 -31 178.833 -93 230.5s-156.667 77.5 -284 77.5h-339v-626z" />
    <glyph glyph-name="afii10019" unicode="&#x412;" horiz-adv-x="1294" 
d="M214 0l-0.00195312 1449h417c82.667 0 154.334 -8.16699 215.001 -24.5s110.834 -40.333 150.501 -72s69 -70.5 88 -116.5s28.5 -98 28.5 -156c0 -38 -6.66699 -74.833 -20 -110.5s-32.666 -68.5 -57.999 -98.5s-56.166 -56 -92.499 -78s-77.833 -39 -124.5 -51
c114 -17.333 201.5 -55.333 262.5 -114s91.5 -136 91.5 -232c0 -61.333 -10.833 -116.5 -32.5 -165.5s-53.334 -90.667 -95.001 -125s-92.834 -60.5 -153.501 -78.5s-129.667 -27 -207 -27h-470zM318.998 84h364c126.667 0 222.667 27.5 288 82.5s98 132.167 98 231.5
c0 46 -8.66699 87.333 -26 124s-42.333 67.667 -75 93s-73 44.833 -121 58.5s-102.333 20.5 -163 20.5h-365v-610zM318.998 771l314 0.000976562c66.667 0 123.834 8.5 171.501 25.5s86.667 39.5 117 67.5s52.666 59.833 66.999 95.5s21.5 72.167 21.5 109.5
c0 97.333 -31 171.166 -93 221.499s-157.333 75.5 -286 75.5h-312v-595z" />
    <glyph glyph-name="afii10020" unicode="&#x413;" horiz-adv-x="1092" 
d="M214 0v1449h848v-84h-743v-1365h-105z" />
    <glyph glyph-name="afii10021" unicode="&#x414;" horiz-adv-x="1554" 
d="M15 84l135 0.000976562c24.667 9.33301 48.667 26.166 72 50.499s45.833 59 67.5 104s41.667 101.667 60 170s35 151.5 50 249.5s28.167 212.167 39.5 342.5s20 279.833 26 448.5h787v-1365h252v-414c0 -10 -3.16699 -18.167 -9.5 -24.5s-15.166 -9.5 -26.499 -9.5h-60
v364h-1296v-330c0 -10 -3.33301 -18.167 -10 -24.5s-15.334 -9.5 -26.001 -9.5h-61v448zM290 84.001h856.999v1281h-584c-9.33301 -200.667 -22.333 -373.667 -39 -519s-36.667 -268.666 -60 -369.999s-49.666 -183.333 -78.999 -246s-61 -111.334 -95 -146.001z" />
    <glyph glyph-name="afii10022" unicode="&#x415;" 
d="M214 0v1449h868v-87h-763v-586h635v-85h-635v-604h765l-2 -87h-868z" />
    <glyph glyph-name="afii10024" unicode="&#x416;" horiz-adv-x="2055" 
d="M37 0l493.008 645c19.333 28 40.666 50.333 63.999 67s50.333 29 81 37c-28.667 7.33301 -53.167 18.666 -73.5 33.999s-39.5 35.666 -57.5 60.999l-483 605h81c11.333 0 22.166 -3 32.499 -9s19.166 -14.667 26.499 -26l446 -558c12 -16 24.333 -28.833 37 -38.5
s25.667 -17.334 39 -23.001s27.166 -9.5 41.499 -11.5s30.166 -3 47.499 -3h165v669h100v-669h165c17.333 0 33.333 1 48 3s28.667 5.83301 42 11.5s26.166 13.5 38.499 23.5s24.5 22.667 36.5 38l446 558c6.66699 10.667 15.167 19.167 25.5 25.5s21.833 9.5 34.5 9.5h80
l-483 -605c-18.667 -25.333 -38 -45.666 -58 -60.999s-44.333 -26.666 -73 -33.999c30.667 -7.33301 57.667 -19.5 81 -36.5s44.666 -39.5 63.999 -67.5l494 -645h-69c-16 0 -30 3.66699 -42 11s-21.667 16.666 -29 27.999l-455 581c-20 26 -42 45.5 -66 58.5
s-55.333 19.5 -94 19.5h-186v-698h-100v698h-184c-39.333 0 -71.333 -6.66699 -96 -20s-46.334 -32.666 -65.001 -57.999l-455 -581c-7.33301 -11.333 -17 -20.666 -29 -27.999s-26 -11 -42 -11h-69z" />
    <glyph glyph-name="afii10025" unicode="&#x417;" horiz-adv-x="1163" 
d="M67 175l28 44.9971c8 10 17.667 15.333 29 16c6.66699 0 15.167 -4.16699 25.5 -12.5l38 -30.5c15 -12 32.833 -25 53.5 -39s45.167 -27 73.5 -39s60.666 -22 96.999 -30s77.833 -12 124.5 -12c64 0 121 8.5 171 25.5s92.333 40.833 127 71.5s61 67 79 109s27 88 27 138
c0 44.667 -8 86.167 -24 124.5s-39.667 71.833 -71 100.5s-69.666 51.167 -114.999 67.5s-97.333 24.5 -156 24.5h-190v88h195c41.333 0 81.166 6.16699 119.499 18.5s72 30.333 101 54s52 52.334 69 86.001s25.5 72.5 25.5 116.5c0 40.667 -8.16699 78.167 -24.5 112.5
s-39.5 63.833 -69.5 88.5s-66.833 43.834 -110.5 57.501s-92.5 20.5 -146.5 20.5c-41.333 0 -78.166 -3 -110.499 -9s-61 -13.5 -86 -22.5s-46.5 -19 -64.5 -30s-33.5 -20.833 -46.5 -29.5l-33 -22.5c-9 -6.33301 -16.5 -9.5 -22.5 -9.5c-10.667 0 -19.334 6 -26.001 18
l-25 46c54 48 114 84.333 180 109s143 37 231 37c69.333 0 132 -9 188 -27s103.667 -43 143 -75s69.5 -70 90.5 -114s31.5 -91.667 31.5 -143c0 -40 -6.16699 -77.167 -18.5 -111.5s-29.166 -65.166 -50.499 -92.499s-46.833 -51 -76.5 -71s-61.5 -36.333 -95.5 -49
c45.333 -13.333 85.666 -31.666 120.999 -54.999s65.333 -50.5 90 -81.5s43.667 -65.167 57 -102.5s20 -76.666 20 -117.999c0 -60.667 -11.167 -117.667 -33.5 -171s-55.166 -99.833 -98.499 -139.5s-96.5 -70.667 -159.5 -93s-134.5 -33.5 -214.5 -33.5
c-52.667 0 -101.334 4.33301 -146.001 13s-86.167 21.167 -124.5 37.5s-73.666 36.166 -105.999 59.499s-62.5 49.666 -90.5 78.999z" />
    <glyph glyph-name="afii10026" unicode="&#x418;" horiz-adv-x="1546" 
d="M214 0l0.000976562 1449h105v-1190c0 -22 -0.333008 -44.333 -1 -67s-2.66699 -46.334 -6 -71.001c9.33301 21.333 18.833 40.666 28.5 57.999s19.5 33.666 29.5 48.999l837 1188c5.33301 8.66699 12.166 16.334 20.499 23.001s17.5 10 27.5 10h77v-1449h-105v1190
c0 22 0.333008 44.333 1 67s2.66699 46.334 6 71.001c-9.33301 -21.333 -18.833 -40.666 -28.5 -57.999s-19.167 -33.333 -28.5 -48l-837 -1189c-5.33301 -8.66699 -12.333 -16.334 -21 -23.001s-18 -10 -28 -10h-77z" />
    <glyph glyph-name="afii10027" unicode="&#x419;" horiz-adv-x="1546" 
d="M214 0l0.000976562 1449h105v-1190c0 -22 -0.333008 -44.333 -1 -67s-2.66699 -46.334 -6 -71.001c9.33301 21.333 18.833 40.666 28.5 57.999s19.5 33.666 29.5 48.999l837 1188c5.33301 8.66699 12.166 16.334 20.499 23.001s17.5 10 27.5 10h77v-1449h-105v1190
c0 22 0.333008 44.333 1 67s2.66699 46.334 6 71.001c-9.33301 -21.333 -18.833 -40.666 -28.5 -57.999s-19.167 -33.333 -28.5 -48l-837 -1189c-5.33301 -8.66699 -12.333 -16.334 -21 -23.001s-18 -10 -28 -10h-77zM514.001 1772c0 9.33301 2.33496 17.166 7.00195 23.499
s10.667 9.5 18 9.5h54c0 -68.667 13.833 -118.334 41.5 -149.001s72.5 -46 134.5 -46c61.333 0 105.666 15.333 132.999 46s41 80.334 41 149.001h55c7.33301 0 13.333 -3.16699 18 -9.5s7 -14.166 7 -23.499c0 -65.333 -21.167 -117 -63.5 -155s-105.833 -57 -190.5 -57
s-148.334 18.833 -191.001 56.5s-64 89.5 -64 155.5z" />
    <glyph glyph-name="afii10028" unicode="&#x41a;" horiz-adv-x="1310" 
d="M214 0l-0.00390625 1449h105v-669h167c17.333 0 33 1 47 3s27.333 5.66699 40 11s24.834 12.666 36.501 21.999s23.5 21.666 35.5 36.999l455 563c6.66699 9.33301 14.834 17.166 24.501 23.499s20.5 9.5 32.5 9.5h85l-493 -613c-18 -23.333 -36.667 -41.833 -56 -55.5
s-42 -24.167 -68 -31.5c30.667 -7.33301 56.167 -19.166 76.5 -35.499s40.5 -38.166 60.5 -65.499l520 -648h-90c-13.333 0 -24.5 3 -33.5 9s-18.5 16 -28.5 30l-476 588c-9.33301 12 -18.666 22.667 -27.999 32s-19.5 16.833 -30.5 22.5s-23.667 9.83398 -38 12.501
s-31.166 4 -50.499 4h-188v-698h-105z" />
    <glyph glyph-name="afii10029" unicode="&#x41b;" horiz-adv-x="1440" 
d="M-10 11l0.00292969 66.002h61c31.333 0 61.666 7 90.999 21s57.166 39.5 83.499 76.5s50.833 88 73.5 153s43 148.167 61 249.5s33.667 223.5 47 366.5s24 311.5 32 505.5h788v-1449h-106v1365h-583c-8.66699 -192 -20.5 -359.5 -35.5 -502.5
s-32.833 -265.5 -53.5 -367.5s-44.334 -185.833 -71.001 -251.5s-55.667 -117.334 -87 -155.001s-65.5 -63.834 -102.5 -78.501s-75.833 -22 -116.5 -22c-22 0 -41.167 2 -57.5 6s-24.5 9.66699 -24.5 17z" />
    <glyph glyph-name="afii10030" unicode="&#x41c;" horiz-adv-x="1859" 
d="M214 0l0.000976562 1449h73c9.33301 0 16.666 -1 21.999 -3s11 -7.33301 17 -16l584 -1008c10 -19.333 19 -40 27 -62l13 32c4.66699 11.333 10 21.666 16 30.999l568 1007c5.33301 8.66699 11 14 17 16s13.667 3 23 3h72v-1449h-92v1235c0 8 0.166992 16.833 0.5 26.5
s0.833008 19.167 1.5 28.5l-569 -1011c-9.33301 -18 -23 -27 -41 -27h-16c-18 0 -31.667 9 -41 27l-586 1013c2 -20 3 -39 3 -57v-1235h-92z" />
    <glyph glyph-name="afii10031" unicode="&#x41d;" horiz-adv-x="1546" 
d="M214 0v1449h105v-676h908v676h105v-1449h-105v694h-908v-694h-105z" />
    <glyph glyph-name="afii10032" unicode="&#x41e;" horiz-adv-x="1620" 
d="M120 725c0 111.333 16.667 212.5 50 303.5s80.333 168.833 141 233.5s133.334 114.667 218.001 150s178.334 53 281.001 53s196.5 -17.5 281.5 -52.5s157.833 -85 218.5 -150s107.667 -143 141 -234s50 -192.167 50 -303.5c0 -112 -16.667 -213.5 -50 -304.5
s-80.333 -168.833 -141 -233.5s-133.5 -114.5 -218.5 -149.5s-178.833 -52.5 -281.5 -52.5s-196.334 17.5 -281.001 52.5s-157.334 84.833 -218.001 149.5s-107.667 142.5 -141 233.5s-50 192.5 -50 304.5zM226 725c0 -102 14.167 -193 42.5 -273s68.333 -148 120 -204
s113.334 -98.667 185.001 -128s150.5 -44 236.5 -44c86.667 0 165.834 14.667 237.501 44s133.167 72 184.5 128s91 124 119 204s42 171 42 273c0 101.333 -14 192.166 -42 272.499s-67.667 148.5 -119 204.5s-112.833 98.833 -184.5 128.5s-150.834 44.5 -237.501 44.5
c-86 0 -164.833 -14.833 -236.5 -44.5s-133.334 -72.5 -185.001 -128.5s-91.667 -124.167 -120 -204.5s-42.5 -171.166 -42.5 -272.499z" />
    <glyph glyph-name="afii10033" unicode="&#x41f;" horiz-adv-x="1481" 
d="M214 0v1449h1053v-1449h-106v1365h-842v-1365h-105z" />
    <glyph glyph-name="afii10034" unicode="&#x420;" horiz-adv-x="1183" 
d="M214 0l-0.00195312 1449h375c170 0 298.167 -37.167 384.5 -111.5s129.5 -180.5 129.5 -318.5c0 -63.333 -12 -121.666 -36 -174.999s-58.167 -99.333 -102.5 -138s-98.166 -68.667 -161.499 -90s-134.666 -32 -213.999 -32h-270v-584h-105zM318.998 667.999
l270 -0.000976562c63.333 0 120.333 8.83301 171 26.5s93.5 42.167 128.5 73.5s61.833 68.333 80.5 111s28 89.334 28 140.001c0 111.333 -34 197 -102 257s-170 90 -306 90h-270v-698z" />
    <glyph glyph-name="afii10035" unicode="&#x421;" horiz-adv-x="1384" 
d="M120 725c0 110 17 210.333 51 301s81.833 168.667 143.5 234s135.5 115.833 221.5 151.5s180.667 53.5 284 53.5c98.667 0 186.334 -15.333 263.001 -46s146.334 -74 209.001 -130l-31 -46c-5.33301 -8 -14 -12 -26 -12c-8 0 -21.333 7.5 -40 22.5
s-44.334 31.5 -77.001 49.5s-73.334 34.5 -122.001 49.5s-107.334 22.5 -176.001 22.5c-87.333 0 -167.333 -15 -240 -45s-135.167 -73 -187.5 -129s-93.166 -124.167 -122.499 -204.5s-44 -170.833 -44 -271.5c0 -102.667 14.833 -194.167 44.5 -274.5
s70.5 -148.333 122.5 -204s113.333 -98.334 184 -128.001s147 -44.5 229 -44.5c52 0 98.333 3.33301 139 10s78 16.834 112 30.501s65.667 30.5 95 50.5s58.333 43 87 69c3.33301 2.66699 6.83301 5 10.5 7s7.16699 3 10.5 3c6.66699 0 12.334 -2.33301 17.001 -7l41 -44
c-30 -32 -62.667 -60.833 -98 -86.5s-74 -47.667 -116 -66s-88 -32.333 -138 -42s-105 -14.5 -165 -14.5c-100.667 0 -192.834 17.5 -276.501 52.5s-155.5 84.833 -215.5 149.5s-106.5 142.667 -139.5 234s-49.5 193 -49.5 305z" />
    <glyph glyph-name="afii10036" unicode="&#x422;" horiz-adv-x="1185" 
d="M30 1360v89h1126v-89h-509v-1360h-105v1360h-512z" />
    <glyph glyph-name="afii10037" unicode="&#x423;" horiz-adv-x="1233" 
d="M34 1449l97.001 0.000976562c9.33301 0 17.166 -2.16699 23.499 -6.5s11.5 -10.833 15.5 -19.5l452 -822c9.33301 -17.333 17.5 -34.833 24.5 -52.5s13.5 -35.5 19.5 -53.5c5.33301 18 11.333 35.833 18 53.5s14.667 35.5 24 53.5l377 821
c3.33301 7.33301 8.33301 13.5 15 18.5s14.667 7.5 24 7.5h87l-594 -1276c-16 -34 -32.833 -62.833 -50.5 -86.5s-37.167 -42.834 -58.5 -57.501s-44.5 -25.167 -69.5 -31.5s-52.167 -9.5 -81.5 -9.5c-22 0 -41.167 2 -57.5 6s-24.5 9.66699 -24.5 17v66h63
c40.667 0 77.167 10.667 109.5 32s59.833 57 82.5 107l87 188z" />
    <glyph glyph-name="afii10038" unicode="&#x424;" horiz-adv-x="1548" 
d="M98 767c0 78.667 14.832 153.334 44.499 224.001s71.834 132.5 126.501 185.5s120.5 95.333 197.5 127s162.833 48.167 257.5 49.5v169h100v-169c96 -1.33301 182.667 -17.833 260 -49.5s143 -74 197 -127s95.5 -114.833 124.5 -185.5s43.5 -145.334 43.5 -224.001
c0 -80 -14.5 -155.5 -43.5 -226.5s-70.5 -133.167 -124.5 -186.5s-119.5 -95.666 -196.5 -126.999s-163.833 -47.333 -260.5 -48v-179h-100v179c-96 0.666992 -182.833 16.667 -260.5 48s-143.5 73.666 -197.5 126.999s-95.5 115.5 -124.5 186.5s-43.5 146.5 -43.5 226.5z
M203.999 767c0 -68.667 12.333 -133.665 37 -194.998s59.5 -114.833 104.5 -160.5s99.5 -81.834 163.5 -108.501s135.667 -40.334 215 -41.001v1009c-79.333 -0.666992 -151 -14.667 -215 -42s-118.5 -63.833 -163.5 -109.5s-79.833 -99 -104.5 -160
s-37 -125.167 -37 -192.5zM823.999 262.002c79.333 0.666992 151 14.332 215 40.999s118.5 62.834 163.5 108.501s79.667 99.167 104 160.5s36.5 126.333 36.5 195c0 67.333 -12.167 131.5 -36.5 192.5s-59 114.333 -104 160s-99.5 82.167 -163.5 109.5
s-135.667 41.333 -215 42v-1009z" />
    <glyph glyph-name="afii10039" unicode="&#x425;" horiz-adv-x="1275" 
d="M41 0l523.001 743l-499 706h103c9.33301 0 16.333 -2 21 -6s8.66699 -9 12 -15l440 -634c2 5.33301 4.16699 10.5 6.5 15.5s5.16602 10.167 8.49902 15.5l425 602c3.33301 6 7.66602 11.167 12.999 15.5s11.333 6.5 18 6.5h100l-500 -700l521 -749h-104
c-9.33301 -0 -16.666 2.83301 -21.999 8.5s-9.66602 11.5 -12.999 17.5l-457 667c-2.66699 -10 -7.33398 -19.667 -14.001 -29l-449 -638c-4.66699 -6 -9.5 -11.833 -14.5 -17.5s-11.833 -8.5 -20.5 -8.5h-98z" />
    <glyph glyph-name="afii10040" unicode="&#x426;" horiz-adv-x="1561" 
d="M214 0l-0.000976562 1449h105v-1365h842v1365h106v-1365h239v-414c0 -10 -3.16699 -18.167 -9.5 -24.5s-15.166 -9.5 -26.499 -9.5h-60v364h-1196z" />
    <glyph glyph-name="afii10041" unicode="&#x427;" horiz-adv-x="1317" 
d="M111 982v467.002h105v-467c0 -82 18.5 -145.833 55.5 -191.5s89.333 -76 157 -91s149.667 -16.167 246 -3.5s203.833 36 322.5 70v683h106v-1449h-106v687c-76.667 -22 -151.5 -40.167 -224.5 -54.5s-142.333 -22.833 -208 -25.5s-126.334 1.66602 -182.001 12.999
s-103.667 31.666 -144 60.999s-71.666 68.5 -93.999 117.5s-33.5 110.167 -33.5 183.5z" />
    <glyph glyph-name="afii10042" unicode="&#x428;" horiz-adv-x="2183" 
d="M214 0v1449h105v-1365h716v1365h106v-1365h723v1365h105v-1449h-1755z" />
    <glyph glyph-name="afii10043" unicode="&#x429;" horiz-adv-x="2263" 
d="M214 0v1449h105v-1365h716v1365h106v-1365h723v1365h105v-1365h239v-414c0 -10 -3.33301 -18.167 -10 -24.5s-15.334 -9.5 -26 -9.5h-61v364h-1897z" />
    <glyph glyph-name="afii10044" unicode="&#x42a;" horiz-adv-x="1461" 
d="M30 1362v87h531v-655h339c80.667 0 151.167 -8.83301 211.5 -26.5s110.5 -43 150.5 -76s69.833 -73 89.5 -120s29.5 -100.167 29.5 -159.5c0 -63.333 -10.667 -120.5 -32 -171.5s-52.5 -94.333 -93.5 -130s-91.5 -63 -151.5 -82s-128.667 -28.5 -206 -28.5h-442v1362
h-426zM561 84l337 0.000976562c126.667 0 221.5 28.167 284.5 84.5s94.5 134.166 94.5 233.499c0 102 -31 178.833 -93 230.5s-156.667 77.5 -284 77.5h-339v-626z" />
    <glyph glyph-name="afii10045" unicode="&#x42b;" horiz-adv-x="1793" 
d="M214 0l-0.00195312 1449h105v-655h339c80.667 0 151.334 -8.83301 212.001 -26.5s110.834 -43 150.501 -76s69.5 -73 89.5 -120s30 -100.167 30 -159.5c0 -63.333 -10.833 -120.5 -32.5 -171.5s-53 -94.333 -94 -130s-91.5 -63 -151.5 -82s-128.667 -28.5 -206 -28.5
h-442zM318.998 84l337 0.000976562c126.667 0 221.5 28.167 284.5 84.5s94.5 134.166 94.5 233.499c0 102 -31 178.833 -93 230.5s-156.667 77.5 -284 77.5h-339v-626zM1472 0.000976562v1449h105v-1449h-105z" />
    <glyph glyph-name="afii10046" unicode="&#x42c;" horiz-adv-x="1219" 
d="M214 0l-0.00195312 1449h105v-655h339c80.667 0 151.334 -8.83301 212.001 -26.5s110.834 -43 150.501 -76s69.5 -73 89.5 -120s30 -100.167 30 -159.5c0 -63.333 -10.833 -120.5 -32.5 -171.5s-53 -94.333 -94 -130s-91.5 -63 -151.5 -82s-128.667 -28.5 -206 -28.5
h-442zM318.998 84l337 0.000976562c126.667 0 221.5 28.167 284.5 84.5s94.5 134.166 94.5 233.499c0 102 -31 178.833 -93 230.5s-156.667 77.5 -284 77.5h-339v-626z" />
    <glyph glyph-name="afii10047" unicode="&#x42d;" horiz-adv-x="1400" 
d="M83 193l41 44.0029c4.66699 4.66699 10.334 7 17.001 7c4 0 7.66699 -0.833008 11 -2.5s6.66602 -4.16699 9.99902 -7.5c28.667 -26.667 57.667 -49.834 87 -69.501s61 -36.334 95 -50.001s71.333 -23.834 112 -30.501s87 -10 139 -10
c80.667 0 155.834 14.167 225.501 42.5s130.167 69.5 181.5 123.5s92.166 119.833 122.499 197.5s46.833 165.5 49.5 263.5h-804v81h802c-5.33301 92 -23.666 174.833 -54.999 248.5s-73 135.834 -125 186.501s-112.667 89.667 -182 117s-145.333 41 -228 41
c-68.667 0 -127.334 -7.5 -176.001 -22.5s-89.5 -31.5 -122.5 -49.5s-58.833 -34.5 -77.5 -49.5s-32 -22.5 -40 -22.5c-11.333 0 -19.666 4 -24.999 12l-32 46c62.667 56 132.167 99.333 208.5 130s164.166 46 263.499 46c104 0 198.833 -17.833 284.5 -53.5
s159.5 -86.167 221.5 -151.5s110 -143.333 144 -234s51 -191 51 -301c0 -112 -16.667 -213.667 -50 -305s-80 -169.333 -140 -234s-131.667 -114.5 -215 -149.5s-175.333 -52.5 -276 -52.5c-60 0 -115.167 4.83301 -165.5 14.5s-96.5 23.667 -138.5 42
s-80.667 40.166 -116 65.499s-68 54.333 -98 87z" />
    <glyph glyph-name="afii10048" unicode="&#x42e;" horiz-adv-x="2082" 
d="M214 0l-0.00195312 1449h105v-680h378c4 105.333 22.167 200.833 54.5 286.5s76.166 158.834 131.499 219.501s120.666 107.5 195.999 140.5s158.333 49.5 249 49.5c93.333 0 178.833 -17.667 256.5 -53s144.334 -85.333 200.001 -150s98.834 -142.5 129.501 -233.5
s46 -192.167 46 -303.5c0 -112 -15.333 -213.333 -46 -304s-73.834 -168.334 -129.501 -233.001s-122.334 -114.334 -200.001 -149.001s-163.167 -52 -256.5 -52c-91.333 0 -174.666 16.333 -249.999 49s-140.666 79.334 -195.999 140.001s-99.166 134 -131.499 220
s-50.166 182.333 -53.499 289h-378v-685h-105zM803.998 725c0 -102 12.667 -193.167 38 -273.5s61 -148.333 107 -204s101.167 -98.334 165.5 -128.001s135.5 -44.5 213.5 -44.5s149.167 14.833 213.5 44.5s119.666 72.334 165.999 128.001s82 123.667 107 204
s37.5 171.5 37.5 273.5c0 101.333 -12.5 192.166 -37.5 272.499s-60.667 148.666 -107 204.999s-101.666 99.5 -165.999 129.5s-135.5 45 -213.5 45s-149.167 -15 -213.5 -45s-119.5 -73.167 -165.5 -129.5s-81.667 -124.666 -107 -204.999s-38 -171.166 -38 -272.499z" />
    <glyph glyph-name="afii10049" unicode="&#x42f;" horiz-adv-x="1327" 
d="M9 0l425.998 553.999c22 29.333 44.167 53.166 66.5 71.499s45.833 32.833 70.5 43.5c-64 6.66699 -120.167 20.334 -168.5 41.001s-88.666 47.667 -120.999 81s-56.666 72 -72.999 116s-24.5 93 -24.5 147c0 61.333 10.667 116.333 32 165s52.5 90.167 93.5 124.5
s91.5 60.5 151.5 78.5s128.667 27 206 27h445v-1449h-105v655h-270c-18 -0.666992 -34.833 -2.66699 -50.5 -6s-31.5 -9 -47.5 -17s-31.667 -19.167 -47 -33.5s-31.333 -32.833 -48 -55.5l-388 -504c-7.33301 -11.333 -16.833 -20.666 -28.5 -27.999s-25.5 -11 -41.5 -11
h-78zM288.998 1054c0 -102 31 -180 93 -234s157 -81 285 -81h341v626h-340c-126.667 0 -221.5 -26.833 -284.5 -80.5s-94.5 -130.5 -94.5 -230.5z" />
    <glyph glyph-name="afii10065" unicode="&#x430;" horiz-adv-x="991" 
d="M87 247c0 43.333 12.3379 83.334 37.0049 120.001s63.167 68.667 115.5 96s119.666 49.166 201.999 65.499s181.166 25.833 296.499 28.5v107c0 94 -20.333 166.333 -61 217s-100.667 76 -180 76c-49.333 0 -91.333 -6.83301 -126 -20.5s-63.834 -28.667 -87.501 -45
s-43 -31.333 -58 -45s-27.833 -20.5 -38.5 -20.5c-7.33301 0 -13.333 1.83301 -18 5.5s-8.66699 8.16699 -12 13.5l-18 29c53.333 53.333 109.333 93.666 168 120.999s125.334 41 200.001 41c54.667 0 102.5 -8.66699 143.5 -26s75 -42.166 102 -74.499
s47.333 -71.5 61 -117.5s20.5 -97.333 20.5 -154v-664h-39c-20.667 0 -33.334 9.66699 -38.001 29l-15 130c-28 -27.333 -55.833 -52 -83.5 -74s-56.5 -40.5 -86.5 -55.5s-62.333 -26.333 -97 -34s-73 -11.5 -115 -11.5c-34.667 0 -68.334 5 -101.001 15
s-61.834 25.667 -87.501 47s-46.167 48.5 -61.5 81.5s-23 72.833 -23 119.5zM181.005 251.001c0 -34 5.66699 -63.5 17 -88.5s26.333 -45.5 45 -61.5s40.334 -27.833 65.001 -35.5s50.334 -11.5 77.001 -11.5c39.333 0 75.666 4.33301 108.999 13s64.166 20.667 92.499 36
s54.666 33.5 78.999 54.5s48.5 43.833 72.5 68.5v266c-96.667 -2.66699 -180.167 -10 -250.5 -22s-128.166 -28.333 -173.499 -49s-78.833 -45.167 -100.5 -73.5s-32.5 -60.5 -32.5 -96.5z" />
    <glyph glyph-name="afii10066" unicode="&#x431;" horiz-adv-x="1184" 
d="M139 651c0 112 10.168 213.333 30.501 304s51.833 168.834 94.5 234.501s97 118.167 163 157.5s145.333 63.666 238 72.999l366 38l5 -49c1.33301 -12 -0.333984 -21.833 -5.00098 -29.5s-13 -12.167 -25 -13.5l-334 -35c-76 -7.33301 -141.5 -26 -196.5 -56
s-100.667 -70.833 -137 -122.5s-63.833 -114 -82.5 -187s-29 -156.5 -31 -250.5c14.667 42 35.667 79.833 63 113.5s59 61.834 95 84.501s75.833 40.167 119.5 52.5s89.5 18.5 137.5 18.5c68 0 129.167 -12 183.5 -36s100.166 -57.833 137.499 -101.5
s65.833 -96.167 85.5 -157.5s29.5 -129.666 29.5 -204.999s-10.833 -143.5 -32.5 -204.5s-53 -113.333 -94 -157s-90.667 -77.167 -149 -100.5s-123.833 -35 -196.5 -35c-62.667 0 -122.167 10.667 -178.5 32s-105.666 57.666 -147.999 108.999s-76 119.666 -101 204.999
s-37.5 191.333 -37.5 318zM245.001 526c0 -70.667 7.83203 -134.667 23.499 -192s38.667 -106.333 69 -147s67.833 -72.167 112.5 -94.5s96 -33.5 154 -33.5c60.667 0 114.334 10.167 161.001 30.5s85.5 48.833 116.5 85.5s54.5 81.167 70.5 133.5s24 110.833 24 175.5
c0 64 -7.5 122.333 -22.5 175s-37.5 97.667 -67.5 135s-67.167 66 -111.5 86s-95.833 30 -154.5 30c-55.333 0 -106 -8.66699 -152 -26s-85.5 -42.5 -118.5 -75.5s-58.667 -73.333 -77 -121s-27.5 -101.5 -27.5 -161.5z" />
    <glyph glyph-name="afii10067" unicode="&#x432;" horiz-adv-x="1001" 
d="M168 0l0.000976562 1019h339c61.333 0 113.5 -6.33301 156.5 -19s77.833 -29.834 104.5 -51.501s46.167 -46.834 58.5 -75.501s18.5 -58.667 18.5 -90c0 -22.667 -3.5 -46.5 -10.5 -71.5s-18.667 -49 -35 -72s-38.333 -43.667 -66 -62s-62.167 -31.833 -103.5 -40.5
c92 -10.667 159.833 -38.334 203.5 -83.001s65.5 -99.667 65.5 -165c0 -46 -9 -86.833 -27 -122.5s-43.167 -65.834 -75.5 -90.501s-71.333 -43.5 -117 -56.5s-95.834 -19.5 -150.501 -19.5h-361zM262.001 70.0039l265.999 0.00195312c43.333 0 82.333 5 117 15
s64 24.667 88 44s42.5 42.666 55.5 69.999s19.5 57.666 19.5 90.999c0 30.667 -5.16699 58.667 -15.5 84s-26.5 47 -48.5 65s-50.667 32 -86 42s-77.666 15 -126.999 15h-269v-426zM262 561.006l241.999 0.00195312c36.667 0 70.667 5 102 15s58.333 24.167 81 42.5
s40.334 40.333 53.001 66s19 54.167 19 85.5c0 23.333 -4.33301 45.666 -13 66.999s-23 40.666 -43 57.999s-46.333 31 -79 41s-72.667 15 -120 15h-242v-390z" />
    <glyph glyph-name="afii10068" unicode="&#x433;" horiz-adv-x="827" 
d="M168 0v1019h625v-75h-527v-944h-98z" />
    <glyph glyph-name="afii10069" unicode="&#x434;" horiz-adv-x="1226" 
d="M30 73l40.0029 0.000976562c24.667 0 49 5 73 15s47.5 28.167 70.5 54.5s44.667 62.166 65 107.499s38.666 103 54.999 173s30.666 153.833 42.999 251.5s21.5 212.5 27.5 344.5h589v-944h187v-406c0 -22 -10.333 -33 -31 -33h-56v364h-976v-335
c0 -7.33301 -2.33301 -14 -7 -20s-11.334 -9 -20.001 -9h-60v437zM257.003 73.001h640.997v868h-413c-7.33301 -136 -18.666 -253.5 -33.999 -352.5s-33.166 -183 -53.499 -252s-42.666 -124.667 -66.999 -167s-48.833 -74.5 -73.5 -96.5z" />
    <glyph glyph-name="afii10070" unicode="&#x435;" horiz-adv-x="1068" 
d="M106 530c0 73.333 10.499 140.833 31.499 202.5s51.167 114.834 90.5 159.501s87.333 79.667 144 105s121.334 38 194.001 38c57.333 0 110.666 -9.83301 159.999 -29.5s92 -48.5 128 -86.5s64.5 -84.667 85.5 -140s31.5 -118.666 31.5 -189.999
c0 -15.333 -2.16699 -25.666 -6.5 -30.999s-11.166 -8 -20.499 -8h-741v-20c0 -76.667 8.83301 -143.834 26.5 -201.501s42.834 -106.167 75.501 -145.5s72.334 -68.833 119.001 -88.5s98.667 -29.5 156 -29.5c51.333 0 95.666 5.5 132.999 16.5s68.833 23.5 94.5 37.5
s46 26.667 61 38s25.833 17 32.5 17c8.66699 0 15.667 -3.33301 21 -10l26 -33c-16.667 -20.667 -38.334 -39.834 -65.001 -57.501s-56.667 -32.834 -90 -45.501s-68.833 -22.667 -106.5 -30s-75.834 -11 -114.501 -11c-69.333 0 -132.666 12 -189.999 36
s-106.5 59.333 -147.5 106s-72.667 103.5 -95 170.5s-33.5 143.833 -33.5 230.5zM206.999 612l676.002 0.000976562c0 54.667 -7.66699 103.667 -23 147s-37 80 -65 110s-61.333 53.167 -100 69.5s-81.334 24.5 -128.001 24.5c-52.667 0 -99.667 -8.33301 -141 -25
s-77.333 -40.334 -108 -71.001s-55.334 -67.5 -74.001 -110.5s-31 -91.167 -37 -144.5z" />
    <glyph glyph-name="afii10072" unicode="&#x436;" horiz-adv-x="1541" 
d="M37 0l304.001 424c18.667 28 39.5 50.333 62.5 67s50.5 28.334 82.5 35.001c-26.667 8 -49.167 19.833 -67.5 35.5s-35.166 34.167 -50.499 55.5l-300 402h75c22 0 38.667 -9.66699 50 -29l270 -362c17.333 -24 38.666 -42.833 63.999 -56.5s52.333 -20.5 81 -20.5h115
v469h95v-469h114c28.667 0 56 6.83301 82 20.5s47.333 32.5 64 56.5l271 362c10.667 19.333 27 29 49 29h75l-299 -402c-16 -22 -33.333 -40.5 -52 -55.5s-41.334 -26.833 -68.001 -35.5c32 -6.66699 59.5 -18.334 82.5 -35.001s44.167 -39 63.5 -67l304 -424h-68
c-18 0 -32.167 2.66699 -42.5 8s-18.5 14.333 -24.5 27l-257 361c-20 28.667 -44 50.334 -72 65.001s-59.333 22 -94 22h-128v-484h-95v484h-128c-34.667 0 -66 -7.33301 -94 -22s-52 -36.334 -72 -65.001l-258 -361c-5.33301 -12 -13.333 -20.833 -24 -26.5
s-25 -8.5 -43 -8.5h-67z" />
    <glyph glyph-name="afii10073" unicode="&#x437;" horiz-adv-x="914" 
d="M78 131l24.9922 33c5.33301 6.66699 12.333 10 21 10c8 0 18.667 -5.83301 32 -17.5s31.5 -24.334 54.5 -38.001s51.333 -26.334 85 -38.001s74.834 -17.5 123.501 -17.5c45.333 0 86 5.66699 122 17s67 27.166 93 47.499s46 44.5 60 72.5s21 58.667 21 92
c0 31.333 -6.66699 60.166 -20 86.499s-33.166 48.833 -59.499 67.5s-59 33.334 -98 44.001s-83.833 16 -134.5 16h-114v67h114c44 0 84 5 120 15s66.333 23.667 91 41s43.834 37.833 57.501 61.5s20.5 49.5 20.5 77.5c0 24.667 -5.5 48.334 -16.5 71.001s-27.667 43 -50 61
s-50.833 32.167 -85.5 42.5s-75.334 15.5 -122.001 15.5c-45.333 0 -84 -4.33301 -116 -13s-58.667 -18.5 -80 -29.5s-38.166 -21 -50.499 -30s-21.833 -13.5 -28.5 -13.5c-5.33301 0 -9.66602 1.16699 -12.999 3.5s-6.66602 6.16602 -9.99902 11.499l-23 36
c36 33.333 80.833 60.333 134.5 81s116.834 31 189.501 31c60 0 112.5 -7.5 157.5 -22.5s82.5 -34.5 112.5 -58.5s52.333 -51.5 67 -82.5s22 -62.167 22 -93.5c0 -22 -3.83301 -44.667 -11.5 -68s-20.167 -45.833 -37.5 -67.5s-40.5 -41.167 -69.5 -58.5
s-63.833 -30.333 -104.5 -39c82 -17.333 144.333 -49 187 -95s64 -101 64 -165c0 -44.667 -9.83301 -85.167 -29.5 -121.5s-47 -67.666 -82 -93.999s-75.667 -46.666 -122 -60.999s-96.166 -21.5 -149.499 -21.5c-37.333 0 -73.5 3.5 -108.5 10.5s-67.5 17 -97.5 30
s-57.167 28.333 -81.5 46s-44.166 36.834 -59.499 57.501z" />
    <glyph glyph-name="afii10074" unicode="&#x438;" horiz-adv-x="1160" 
d="M168 0l0.000976562 1019h98v-821c0 -9.33301 -0.333008 -19.5 -1 -30.5s-1.66699 -21.833 -3 -32.5c4 8.66699 8.5 17 13.5 25l13.5 21c0.666992 1.33301 10 14 28 38l70.5 94l98 130.5l111.5 148.5l302 401c4 6.66699 9.33301 12.667 16 18s13.667 8 21 8h56v-1019h-97
v821c0 20 1 41 3 63c-4 -9.33301 -8.33301 -17.833 -13 -25.5s-9.33398 -14.5 -14.001 -20.5c-1.33301 -1.33301 -10.833 -14.166 -28.5 -38.499l-70 -94l-98 -130l-111.5 -148.5l-302 -402c-4 -6 -9.16699 -11.667 -15.5 -17s-13.5 -8 -21.5 -8h-56z" />
    <glyph glyph-name="afii10075" unicode="&#x439;" horiz-adv-x="1160" 
d="M168 0l0.000976562 1019h98v-821c0 -9.33301 -0.333008 -19.5 -1 -30.5s-1.66699 -21.833 -3 -32.5c4 8.66699 8.5 17 13.5 25l13.5 21c0.666992 1.33301 10 14 28 38l70.5 94l98 130.5l111.5 148.5l302 401c4 6.66699 9.33301 12.667 16 18s13.667 8 21 8h56v-1019h-97
v821c0 20 1 41 3 63c-4 -9.33301 -8.33301 -17.833 -13 -25.5s-9.33398 -14.5 -14.001 -20.5c-1.33301 -1.33301 -10.833 -14.166 -28.5 -38.499l-70 -94l-98 -130l-111.5 -148.5l-302 -402c-4 -6 -9.16699 -11.667 -15.5 -17s-13.5 -8 -21.5 -8h-56zM334.001 1415
c0 9.33301 2.33496 17.333 7.00195 24s10.667 10 18 10h54c0 -68.667 13.833 -118.667 41.5 -150s72.5 -47 134.5 -47c61.333 0 105.666 15.667 132.999 47s41 81.333 41 150h55c7.33301 0 13.333 -3.16699 18 -9.5s7 -14.5 7 -24.5
c0 -65.333 -21.167 -117.833 -63.5 -157.5s-105.833 -59.5 -190.5 -59.5s-148.334 19.833 -191.001 59.5s-64 92.167 -64 157.5z" />
    <glyph glyph-name="afii10076" unicode="&#x43a;" horiz-adv-x="995" 
d="M168 -1l-0.000976562 1020h98v-468h118c28.667 0 55.834 6.83301 81.501 20.5s46.834 32.5 63.501 56.5l272 362c5.33301 8 12.666 14.833 21.999 20.5s19 8.5 29 8.5h75l-299 -402c-16 -22 -33.333 -40.5 -52 -55.5s-41.334 -26.833 -68.001 -35.5
c32 -6.66699 59.667 -18.334 83 -35.001s44.333 -39 63 -67l304 -424h-68c-18 0 -32 2.83301 -42 8.5s-19 14.5 -27 26.5l-258 361c-20 28.667 -43.667 50.334 -71 65.001s-58.666 22 -93.999 22h-132v-484h-98z" />
    <glyph glyph-name="afii10077" unicode="&#x43b;" horiz-adv-x="1166" 
d="M-5 4l-0.000976562 63h45c24.667 0 49.834 4.83301 75.501 14.5s51 27.5 76 53.5s49.167 61.5 72.5 106.5s44.333 102.833 63 173.5s35 155.5 49 254.5s24.333 215.5 31 349.5h591v-1019h-98v941h-413c-6.66699 -134.667 -17.834 -251.667 -33.501 -351
s-34.5 -184.333 -56.5 -255s-46.5 -128.5 -73.5 -173.5s-55.333 -80.5 -85 -106.5s-60.167 -43.667 -91.5 -53s-61.666 -14 -90.999 -14c-16.667 0 -31 1.33301 -43 4s-18 6.66699 -18 12z" />
    <glyph glyph-name="afii10078" unicode="&#x43c;" horiz-adv-x="1418" 
d="M168 0v1024h72c6.66699 0 13.167 -1.5 19.5 -4.5s11.833 -9.16699 16.5 -18.5l414 -664c8.66699 -16.667 17 -34.667 25 -54c6 18 13.667 36 23 54l404 664c4.66699 9.33301 10.167 15.5 16.5 18.5s13.5 4.5 21.5 4.5h69v-1024h-87v821c0 11.333 0.666992 23.833 2 37.5
s3 26.167 5 37.5l-419 -703c-3.33301 -5.33301 -7.5 -10.166 -12.5 -14.499s-10.833 -6.5 -17.5 -6.5h-11c-6.66699 0 -12.5 2 -17.5 6s-9.16699 9 -12.5 15l-431 704c2 -11.333 3.66699 -23.833 5 -37.5s2 -26.5 2 -38.5v-821h-87z" />
    <glyph glyph-name="afii10079" unicode="&#x43d;" horiz-adv-x="1137" 
d="M168 0v1019h98v-433h605v433h99v-1019h-99v511h-605v-511h-98z" />
    <glyph glyph-name="afii10080" unicode="&#x43e;" horiz-adv-x="1142" 
d="M106 510c0 80 10.5 152.167 31.5 216.5s51.5 119.5 91.5 165.5s88.667 81.333 146 106s122.666 37 195.999 37s138.833 -12.333 196.5 -37s106.334 -60 146.001 -106s69.834 -101.167 90.501 -165.5s31 -136.5 31 -216.5s-10.333 -152 -31 -216
s-50.834 -119 -90.501 -165s-88.334 -81.167 -146.001 -105.5s-123.167 -36.5 -196.5 -36.5s-138.666 12.167 -195.999 36.5s-106 59.5 -146 105.5s-70.5 101 -91.5 165s-31.5 136 -31.5 216zM207 510c0 -68 7.66406 -129.5 22.9971 -184.5s38.166 -102 68.499 -141
s68.166 -69 113.499 -90s98.333 -31.5 159 -31.5s113.834 10.5 159.501 31.5s83.667 51 114 90s53 86 68 141s22.5 116.5 22.5 184.5c0 67.333 -7.5 128.666 -22.5 183.999s-37.667 102.666 -68 141.999s-68.166 69.5 -113.499 90.5s-98.666 31.5 -159.999 31.5
c-60.667 0 -113.667 -10.5 -159 -31.5s-83.166 -51.167 -113.499 -90.5s-53.166 -86.666 -68.499 -141.999s-23 -116.666 -23 -183.999z" />
    <glyph glyph-name="afii10081" unicode="&#x43f;" horiz-adv-x="1137" 
d="M168 0v1019h802v-1019h-99v944h-605v-944h-98z" />
    <glyph glyph-name="afii10082" unicode="&#x440;" horiz-adv-x="1128" 
d="M168 -360l0.000976562 1379h54c17.333 0 27.333 -8.66699 30 -26l9 -157c45.333 61.333 98.333 110 159 146s128.667 54 204 54c124.667 0 222 -43.333 292 -130s105 -216.667 105 -390c0 -74.667 -9.66699 -144.167 -29 -208.5s-48 -120.166 -86 -167.499
s-84.5 -84.666 -139.5 -111.999s-118.167 -41 -189.5 -41c-68.667 0 -128.334 12.5 -179.001 37.5s-94.667 62.167 -132 111.5v-496h-98zM266.001 221.998c38.667 -58.667 81.668 -99.833 129.001 -123.5s101.666 -35.5 162.999 -35.5c60 0 112.5 11 157.5 33
s82.667 53 113 93s53.333 87.833 69 143.5s23.5 116.834 23.5 183.501c0 151.333 -28 262.666 -84 333.999s-136.333 107 -241 107c-67.333 0 -128.333 -17.333 -183 -52s-103.667 -83 -147 -145v-538z" />
    <glyph glyph-name="afii10083" unicode="&#x441;" horiz-adv-x="965" 
d="M106 510c0 78 10.3359 148.999 31.0029 212.999s50.834 119.167 90.501 165.5s88 82.333 145 108s122.167 38.5 195.5 38.5c66 0 124.667 -10.5 176 -31.5s96.333 -49.5 135 -85.5l-26 -35c-3.33301 -3.33301 -6.5 -6.33301 -9.5 -9s-7.5 -4 -13.5 -4
c-6.66699 0 -15.834 4.66699 -27.501 14s-27.334 19.5 -47.001 30.5s-44.334 21 -74.001 30s-65.834 13.5 -108.501 13.5c-58.667 0 -110.667 -10.333 -156 -31s-83.666 -50.5 -114.999 -89.5s-55 -86.167 -71 -141.5s-24 -117.333 -24 -186c0 -72 8.33301 -135.5 25 -190.5
s40.334 -101.5 71.001 -139.5s67.834 -67 111.501 -87s92.167 -30 145.5 -30c49.333 0 90.5 5.83301 123.5 17.5s60.333 24.334 82 38.001s38.667 26.334 51 38.001s22.5 17.5 30.5 17.5s14.667 -3.33301 20 -10l26 -33c-16 -20.667 -35.833 -39.834 -59.5 -57.501
s-50.5 -33 -80.5 -46s-62.667 -23 -98 -30s-72 -10.5 -110 -10.5c-64.667 0 -123.834 11.667 -177.501 35s-99.834 57.333 -138.501 102s-68.834 99.5 -90.501 164.5s-32.5 138.833 -32.5 221.5z" />
    <glyph glyph-name="afii10084" unicode="&#x442;" horiz-adv-x="1015" 
d="M33 944v75h950v-75h-426v-944h-98v944h-426z" />
    <glyph glyph-name="afii10085" unicode="&#x443;" horiz-adv-x="1027" 
d="M40 1019l81.001 -0.000976562c10 0 18.167 -2.5 24.5 -7.5s10.5 -10.833 12.5 -17.5l343 -792c4 -10 7.5 -20.333 10.5 -31s5.83301 -21.667 8.5 -33c3.33301 10.667 7 21.334 11 32.001l12 32l339 792c3.33301 7.33301 8 13.333 14 18s12.667 7 20 7h75l-585 -1347
c-4 -9.33301 -9.33301 -17 -16 -23s-16.334 -9 -29.001 -9h-69l179 398z" />
    <glyph glyph-name="afii10086" unicode="&#x444;" horiz-adv-x="1378" 
d="M104 510c0 78 11.833 148.5 35.5 211.5s58.167 117.333 103.5 163s101.5 81.5 168.5 107.5s144.167 40 231.5 42v415h92v-415c86.667 -2 163.667 -16 231 -42s123.666 -61.833 168.999 -107.5s79.833 -100 103.5 -163s35.5 -133.5 35.5 -211.5
s-11.833 -148.5 -35.5 -211.5s-58.167 -117.167 -103.5 -162.5s-101.666 -80.833 -168.999 -106.5s-144.333 -39.5 -231 -41.5v-352h-92v352c-87.333 2 -164.5 15.833 -231.5 41.5s-123.167 61.167 -168.5 106.5s-79.833 99.5 -103.5 162.5s-35.5 133.5 -35.5 211.5z
M202 510c0 -66 9 -126.17 27 -180.503s45.333 -101 82 -140s82.5 -69.5 137.5 -91.5s119.833 -34.333 194.5 -37v23l2 34v784l-2 29v28c-74.667 -2 -139.5 -14.167 -194.5 -36.5s-100.833 -53.166 -137.5 -92.499s-64 -86.166 -82 -140.499s-27 -114.166 -27 -179.499z
M733 120.997l2 -36.9971v-23c74.667 2 139.667 14.167 195 36.5s101.166 53 137.499 92s63.666 85.667 81.999 140s27.5 114.5 27.5 180.5c0 65.333 -9.16699 125.166 -27.5 179.499s-45.666 101.166 -81.999 140.499s-82.166 70.166 -137.499 92.499
s-120.333 34.5 -195 36.5v-9l-2 -48v-781z" />
    <glyph glyph-name="afii10087" unicode="&#x445;" horiz-adv-x="960" 
d="M44 0l369.999 521l-356 498h94c9.33301 0 16.333 -2 21 -6s8.66699 -9 12 -15l299 -431c3.33301 12.667 9 24.667 17 36l279 394c4 6 8.5 11.167 13.5 15.5s11.167 6.5 18.5 6.5h89l-355 -493l369 -526h-93c-9.33301 -0 -16.666 2.83301 -21.999 8.5s-10 11.5 -14 17.5
l-309 451c-3.33301 -13.333 -8.33301 -25.333 -15 -36l-295 -415c-4.66699 -6 -9.66699 -11.833 -15 -17.5s-12 -8.5 -20 -8.5h-88z" />
    <glyph glyph-name="afii10088" unicode="&#x446;" horiz-adv-x="1203" 
d="M168 0v1019h98v-944h605v944h99v-944h186v-406c0 -10 -2.66699 -18 -8 -24s-13 -9 -23 -9h-57v364h-900z" />
    <glyph glyph-name="afii10089" unicode="&#x447;" horiz-adv-x="1024" 
d="M99 686v333.001h98v-321c0 -58.667 14 -103.667 42 -135s66.667 -52.166 116 -62.499s108.333 -11.166 177 -2.49902s144 24 226 46v475h97v-1019h-97v474c-57.333 -16 -113.5 -28.833 -168.5 -38.5s-107 -15.167 -156 -16.5s-93.833 2.16699 -134.5 10.5
s-76 23.166 -106 44.499s-53.167 49.166 -69.5 83.499s-24.5 77.166 -24.5 128.499z" />
    <glyph glyph-name="afii10090" unicode="&#x448;" horiz-adv-x="1661" 
d="M168 0v1019h98v-944h516v944h98v-944h516v944h98v-1019h-1326z" />
    <glyph glyph-name="afii10091" unicode="&#x449;" horiz-adv-x="1727" 
d="M168 0v1019h98v-944h516v944h98v-944h516v944h98v-944h186v-406c0 -22 -10 -33 -30 -33h-57v364h-1425z" />
    <glyph glyph-name="afii10092" unicode="&#x44a;" horiz-adv-x="1172" 
d="M33 942l0.00195312 77h436v-428h262c69.333 0 127.666 -8.16699 174.999 -24.5s85 -38 113 -65s48 -58 60 -93s18 -70.833 18 -107.5c0 -43.333 -7.66699 -83.333 -23 -120s-38.333 -68.5 -69 -95.5s-68.334 -48 -113.001 -63s-96.667 -22.5 -156 -22.5h-360v942h-343z
M469.002 73l267 -0.00292969c46.667 0 87 5.5 121 16.5s62.333 26.667 85 47s39.5 44.333 50.5 72s16.5 57.834 16.5 90.501c0 30 -4.66699 58.333 -14 85s-24.833 49.834 -46.5 69.501s-50.167 35.334 -85.5 47.001s-79 17.5 -131 17.5h-263v-445z" />
    <glyph glyph-name="afii10093" unicode="&#x44b;" horiz-adv-x="1427" 
d="M168 0l-0.000976562 1019h94v-428h262c69.333 0 127.5 -8.16699 174.5 -24.5s84.5 -38 112.5 -65s48 -58 60 -93s18 -70.833 18 -107.5c0 -43.333 -7.66699 -83.333 -23 -120s-38.166 -68.5 -68.499 -95.5s-68 -48 -113 -63s-96.833 -22.5 -155.5 -22.5h-361zM261.999 73
l265.999 -0.00292969c46.667 0 87 5.5 121 16.5s62.333 26.667 85 47s39.5 44.333 50.5 72s16.5 57.834 16.5 90.501c0 30 -4.66699 58.333 -14 85s-24.666 49.834 -45.999 69.501s-49.833 35.334 -85.5 47.001s-79.5 17.5 -131.5 17.5h-262v-445zM1161 -0.00292969v1019h99
v-1019h-99z" />
    <glyph glyph-name="afii10094" unicode="&#x44c;" horiz-adv-x="965" 
d="M168 0l-0.000976562 1019h94v-428h262c69.333 0 127.5 -8.16699 174.5 -24.5s84.5 -38 112.5 -65s48 -58 60 -93s18 -70.833 18 -107.5c0 -43.333 -7.66699 -83.333 -23 -120s-38.166 -68.5 -68.499 -95.5s-68 -48 -113 -63s-96.833 -22.5 -155.5 -22.5h-361zM261.999 73
l265.999 -0.00292969c46.667 0 87 5.5 121 16.5s62.333 26.667 85 47s39.5 44.333 50.5 72s16.5 57.834 16.5 90.501c0 30 -4.66699 58.333 -14 85s-24.666 49.834 -45.999 69.501s-49.833 35.334 -85.5 47.001s-79.5 17.5 -131.5 17.5h-262v-445z" />
    <glyph glyph-name="afii10095" unicode="&#x44d;" horiz-adv-x="975" 
d="M83 131l24.999 30.9951c4.66699 6.66699 11.334 10 20.001 10c7.33301 0 17.333 -5.66699 30 -17s30 -23.833 52 -37.5s49.5 -26.167 82.5 -37.5s74.167 -17 123.5 -17c52 0 99.333 9.33301 142 28s79.5 45.834 110.5 81.501s55.333 79.834 73 132.501
s27.5 112.667 29.5 180h-545v71h544c-3.33301 62 -14 117.833 -32 167.5s-42.833 91.834 -74.5 126.501s-69.334 61.334 -113.001 80.001s-93.167 28 -148.5 28c-42 0 -77.833 -4.33301 -107.5 -13s-54.5 -18.5 -74.5 -29.5s-35.833 -21 -47.5 -30
s-21.167 -13.5 -28.5 -13.5c-5.33301 0 -9.5 1.33301 -12.5 4s-6.16699 6 -9.5 10l-25 32c38 36 82.667 64.5 134 85.5s110.333 31.5 177 31.5c74 0 139.333 -12.833 196 -38.5s104.834 -61.667 144.501 -108s69.667 -101.5 90 -165.5s30.5 -135 30.5 -213
c0 -82.667 -10.667 -156.5 -32 -221.5s-51.333 -119.833 -90 -164.5s-85 -78.667 -139 -102s-113 -35 -177 -35c-38 0 -74.667 3.5 -110 10.5s-68 17 -98 30s-57 28.333 -81 46s-43.667 36.834 -59 57.501z" />
    <glyph glyph-name="afii10096" unicode="&#x44e;" horiz-adv-x="1552" 
d="M168 0l-0.000976562 1019h98v-471h305c2.66699 74.667 14.667 142 36 202s50.5 111.167 87.5 153.5s81.667 74.833 134 97.5s111.833 34 178.5 34c68.667 0 130.167 -12.333 184.5 -37s100.166 -60 137.499 -106s66 -101.167 86 -165.5s30 -136.5 30 -216.5
s-10.167 -152 -30.5 -216s-49.166 -119 -86.499 -165s-83.166 -81.167 -137.499 -105.5s-115.5 -36.5 -183.5 -36.5c-66.667 0 -126.5 11.333 -179.5 34s-98 55.167 -135 97.5s-66 93.5 -87 153.5s-32.833 127.667 -35.5 203h-304v-475h-98zM667.999 510
c0 -68 7 -129.5 21 -184.5s35.167 -102 63.5 -141s63.666 -69 105.999 -90s91.833 -31.5 148.5 -31.5s106.167 10.5 148.5 31.5s77.5 51 105.5 90s49 86 63 141s21 116.5 21 184.5c0 67.333 -7 128.666 -21 183.999s-35 102.666 -63 141.999s-63.167 69.5 -105.5 90.5
s-91.833 31.5 -148.5 31.5s-106.167 -10.5 -148.5 -31.5s-77.666 -51.167 -105.999 -90.5s-49.5 -86.666 -63.5 -141.999s-21 -116.666 -21 -183.999z" />
    <glyph glyph-name="afii10097" unicode="&#x44f;" horiz-adv-x="973" 
d="M32 0l344.999 417.997c18.667 29.333 43.667 49 75 59c-56 4 -103.667 13.833 -143 29.5s-71.5 35.334 -96.5 59.001s-43.167 50.334 -54.5 80.001s-17 61.167 -17 94.5c0 32.667 6.16699 65.667 18.5 99s32.333 63.333 60 90s63.667 48.334 108 65.001
s98.166 25 161.499 25h317v-1019h-95v458h-133c-15.333 -0.666992 -28.5 -2.16699 -39.5 -4.5s-20.667 -5.83301 -29 -10.5s-16.166 -10.5 -23.499 -17.5s-14.666 -15.833 -21.999 -26.5l-298 -364c-6.66699 -11.333 -15 -20 -25 -26s-24 -9 -42 -9h-67zM237.999 730.997
c0 -32.667 6.66504 -61.999 19.998 -87.999s32.5 -47.833 57.5 -65.5s55.667 -31.334 92 -41.001s76.833 -14.5 121.5 -14.5h182v429h-218c-48 0 -88.167 -6.83301 -120.5 -20.5s-58.666 -31 -78.999 -52s-34.666 -44.5 -42.999 -70.5s-12.5 -51.667 -12.5 -77z" />
    <glyph glyph-name="uni0450" unicode="&#x450;" horiz-adv-x="1068" 
d="M106 530c0 73.333 10.499 140.833 31.499 202.5s51.167 114.834 90.5 159.501s87.333 79.667 144 105s121.334 38 194.001 38c57.333 0 110.666 -9.83301 159.999 -29.5s92 -48.5 128 -86.5s64.5 -84.667 85.5 -140s31.5 -118.666 31.5 -189.999
c0 -15.333 -2.16699 -25.666 -6.5 -30.999s-11.166 -8 -20.499 -8h-741v-20c0 -76.667 8.83301 -143.834 26.5 -201.501s42.834 -106.167 75.501 -145.5s72.334 -68.833 119.001 -88.5s98.667 -29.5 156 -29.5c51.333 0 95.666 5.5 132.999 16.5s68.833 23.5 94.5 37.5
s46 26.667 61 38s25.833 17 32.5 17c8.66699 0 15.667 -3.33301 21 -10l26 -33c-16.667 -20.667 -38.334 -39.834 -65.001 -57.501s-56.667 -32.834 -90 -45.501s-68.833 -22.667 -106.5 -30s-75.834 -11 -114.501 -11c-69.333 0 -132.666 12 -189.999 36
s-106.5 59.333 -147.5 106s-72.667 103.5 -95 170.5s-33.5 143.833 -33.5 230.5zM206.999 612l676.002 0.000976562c0 54.667 -7.66699 103.667 -23 147s-37 80 -65 110s-61.333 53.167 -100 69.5s-81.334 24.5 -128.001 24.5c-52.667 0 -99.667 -8.33301 -141 -25
s-77.333 -40.334 -108 -71.001s-55.334 -67.5 -74.001 -110.5s-31 -91.167 -37 -144.5zM356.001 1465h94c16.667 0 29 -2.33301 37 -7s15.667 -13 23 -25l161 -244h-56c-8 0 -15 1.16699 -21 3.5s-11.667 6.83301 -17 13.5z" />
    <glyph glyph-name="afii10071" unicode="&#x451;" horiz-adv-x="1068" 
d="M106 530c0 73.333 10.499 140.833 31.499 202.5s51.167 114.834 90.5 159.501s87.333 79.667 144 105s121.334 38 194.001 38c57.333 0 110.666 -9.83301 159.999 -29.5s92 -48.5 128 -86.5s64.5 -84.667 85.5 -140s31.5 -118.666 31.5 -189.999
c0 -15.333 -2.16699 -25.666 -6.5 -30.999s-11.166 -8 -20.499 -8h-741v-20c0 -76.667 8.83301 -143.834 26.5 -201.501s42.834 -106.167 75.501 -145.5s72.334 -68.833 119.001 -88.5s98.667 -29.5 156 -29.5c51.333 0 95.666 5.5 132.999 16.5s68.833 23.5 94.5 37.5
s46 26.667 61 38s25.833 17 32.5 17c8.66699 0 15.667 -3.33301 21 -10l26 -33c-16.667 -20.667 -38.334 -39.834 -65.001 -57.501s-56.667 -32.834 -90 -45.501s-68.833 -22.667 -106.5 -30s-75.834 -11 -114.501 -11c-69.333 0 -132.666 12 -189.999 36
s-106.5 59.333 -147.5 106s-72.667 103.5 -95 170.5s-33.5 143.833 -33.5 230.5zM206.999 612l676.002 0.000976562c0 54.667 -7.66699 103.667 -23 147s-37 80 -65 110s-61.333 53.167 -100 69.5s-81.334 24.5 -128.001 24.5c-52.667 0 -99.667 -8.33301 -141 -25
s-77.333 -40.334 -108 -71.001s-55.334 -67.5 -74.001 -110.5s-31 -91.167 -37 -144.5zM301.001 1315c0 11.333 2.33301 22.165 7 32.498s10.834 19.333 18.501 27s16.5 13.834 26.5 18.501s20.667 7 32 7c10.667 0 21.167 -2.33301 31.5 -7s19.5 -10.834 27.5 -18.501
s14.333 -16.667 19 -27s7 -21.166 7 -32.499c0 -10.667 -2.33301 -21 -7 -31s-11 -18.833 -19 -26.5s-17 -13.667 -27 -18s-20.667 -6.5 -32 -6.5s-22 2.16699 -32 6.5s-18.833 10.333 -26.5 18s-13.834 16.334 -18.501 26.001s-7 20.167 -7 31.5zM663.001 1315
c0 23.333 8.16699 43.332 24.5 59.999s36.166 25 59.499 25c10.667 0 21.167 -2.33301 31.5 -7s19.166 -10.834 26.499 -18.501s13.5 -16.667 18.5 -27s7.5 -21.166 7.5 -32.499c0 -10.667 -2.5 -21 -7.5 -31s-11.167 -18.833 -18.5 -26.5s-16.166 -13.667 -26.499 -18
s-20.833 -6.5 -31.5 -6.5c-11.333 0 -22.166 2.16699 -32.499 6.5s-19.333 10.333 -27 18s-13.667 16.334 -18 26.001s-6.5 20.167 -6.5 31.5z" />
    <glyph glyph-name="afii10099" unicode="&#x452;" horiz-adv-x="1102" 
d="M-42 1151l0.00195312 77.999h210v261h97v-261h404v-78h-404v-385c47.333 58 101.166 104.167 161.499 138.5s128.166 51.5 203.499 51.5c58 0 109.167 -9.66699 153.5 -29s81.166 -47.5 110.499 -84.5s51.5 -81.5 66.5 -133.5s22.5 -111 22.5 -177
c0 -82.667 -6.66699 -162.167 -20 -238.5s-32.5 -150.5 -57.5 -222.5s-55.833 -142.667 -92.5 -212s-78.667 -138 -126 -206l-78 34c42 63.333 80 127.333 114 192s63 131.667 87 201s42.5 141.333 55.5 216s19.5 153.334 19.5 236.001c0 108.667 -24.167 193.667 -72.5 255
s-117.5 92 -207.5 92c-66.667 0 -128.667 -17.333 -186 -52s-108.666 -82 -153.999 -142v-685h-97v1151h-210z" />
    <glyph glyph-name="afii10100" unicode="&#x453;" horiz-adv-x="827" 
d="M168 0v1019h625v-75h-527v-944h-98zM362 1189l160.001 244c7.33301 12 15.166 20.333 23.499 25s20.833 7 37.5 7h97l-222 -259c-5.33301 -6.66699 -11 -11.167 -17 -13.5s-13 -3.5 -21 -3.5h-58z" />
    <glyph glyph-name="afii10101" unicode="&#x454;" horiz-adv-x="975" 
d="M106 510c0 78 10.3369 149.005 31.0039 213.005s50.834 119.167 90.501 165.5s88 82.333 145 108s122.167 38.5 195.5 38.5c66 0 124.667 -10.5 176 -31.5s96.333 -49.5 135 -85.5l-25 -32c-3.33301 -4 -6.5 -7.33301 -9.5 -10s-7.5 -4 -13.5 -4
c-6.66699 0 -16 4.5 -28 13.5s-27.833 19 -47.5 30s-44.334 20.833 -74.001 29.5s-65.834 13 -108.501 13c-55.333 0 -105 -9.33301 -149 -28s-81.667 -45.334 -113 -80.001s-56 -76.834 -74 -126.501s-28.667 -105.5 -32 -167.5h545v-71h-546
c2 -67.333 11.833 -127.333 29.5 -180s42 -96.834 73 -132.501s68 -62.834 111 -81.501s90.5 -28 142.5 -28c49.333 0 90.5 5.66699 123.5 17s60.5 23.833 82.5 37.5s39.167 26.167 51.5 37.5s22.5 17 30.5 17s14.667 -3.33301 20 -10l25 -31
c-16 -20.667 -35.833 -39.834 -59.5 -57.501s-50.5 -33 -80.5 -46s-62.667 -23 -98 -30s-72 -10.5 -110 -10.5c-64.667 0 -123.834 11.667 -177.501 35s-99.834 57.333 -138.501 102s-68.834 99.5 -90.501 164.5s-32.5 138.833 -32.5 221.5z" />
    <glyph glyph-name="afii10102" unicode="&#x455;" horiz-adv-x="870" 
d="M91 108l23.0059 34.002c3.33301 5.33301 7.16602 9.5 11.499 12.5s10.166 4.5 17.499 4.5c8.66699 0 19.5 -5.5 32.5 -16.5s30 -22.833 51 -35.5s47 -24.5 78 -35.5s69.5 -16.5 115.5 -16.5c43.333 0 81.333 6 114 18s59.834 28.333 81.501 49s38.167 44.834 49.5 72.501
s17 56.834 17 87.501c0 34 -8.16699 62.167 -24.5 84.5s-37.833 41.333 -64.5 57s-56.834 29 -90.501 40l-104 33c-35.667 11 -70.334 23 -104.001 36s-63.834 29.333 -90.501 49s-48.167 43.667 -64.5 72s-24.5 63.833 -24.5 106.5c0 36 7.83301 70.667 23.5 104
s38 62.666 67 87.999s64.333 45.5 106 60.5s88.5 22.5 140.5 22.5c62 0 117 -8.83301 165 -26.5s92 -44.834 132 -81.501l-21 -34c-5.33301 -9.33301 -13 -14 -23 -14c-7.33301 0 -17 4.16699 -29 12.5s-27.667 17.833 -47 28.5s-43.333 20.334 -72 29.001
s-63.334 13 -104.001 13c-36.667 0 -70.334 -5.33301 -101.001 -16s-56.667 -24.834 -78 -42.501s-37.833 -38.334 -49.5 -62.001s-17.5 -48.5 -17.5 -74.5c0 -32 8.16699 -58.667 24.5 -80s37.666 -39.5 63.999 -54.5s56.5 -27.833 90.5 -38.5l104 -32.5
c35.333 -11 70 -23.167 104 -36.5s64.167 -30 90.5 -50s47.666 -44.333 63.999 -73s24.5 -63.334 24.5 -104.001c0 -44.667 -7.83301 -86 -23.5 -124s-38.667 -71 -69 -99s-67.666 -50.167 -111.999 -66.5s-95.166 -24.5 -152.499 -24.5c-72 0 -133.833 11.333 -185.5 34
s-98.167 52.667 -139.5 90z" />
    <glyph glyph-name="afii10103" unicode="&#x456;" horiz-adv-x="455" 
d="M137 1370c0 12 2.5 23.667 7.5 35s11.5 21.166 19.5 29.499s17.5 14.833 28.5 19.5s22.5 7 34.5 7s23.667 -2.33301 35 -7s21 -11.167 29 -19.5s14.5 -18.166 19.5 -29.499s7.5 -23 7.5 -35s-2.5 -23.333 -7.5 -34s-11.5 -20.167 -19.5 -28.5s-17.5 -14.833 -28.5 -19.5
s-22.833 -7 -35.5 -7c-12 0 -23.5 2.33301 -34.5 7s-20.5 11.167 -28.5 19.5s-14.5 17.833 -19.5 28.5s-7.5 22 -7.5 34zM179 0v1019h97v-1019h-97z" />
    <glyph glyph-name="afii10104" unicode="&#x457;" horiz-adv-x="455" 
d="M4 1315c0 11.333 2.33008 22.165 6.99707 32.498s10.834 19.333 18.501 27s16.5 13.834 26.5 18.501s20.333 7 31 7s21.334 -2.33301 32.001 -7s19.834 -10.834 27.501 -18.501s13.834 -16.667 18.501 -27s7 -21.166 7 -32.499c0 -10.667 -2.33301 -21 -7 -31
s-10.834 -18.833 -18.501 -26.5s-16.667 -13.667 -27 -18s-21.166 -6.5 -32.499 -6.5c-10.667 0 -21 2.16699 -31 6.5s-18.833 10.333 -26.5 18s-13.834 16.334 -18.501 26.001s-7 20.167 -7 31.5zM178.997 -0.000976562v1019h99v-1019h-99zM287.997 1315
c0 11.333 2.16699 22.165 6.5 32.498s10.5 19.333 18.5 27s17 13.834 27 18.501s20.667 7 32 7c10.667 0 21.334 -2.33301 32.001 -7s19.834 -10.834 27.501 -18.501s13.834 -16.667 18.501 -27s7 -21.166 7 -32.499c0 -10.667 -2.33301 -21 -7 -31
s-10.834 -18.833 -18.501 -26.5s-16.834 -13.667 -27.501 -18s-21.334 -6.5 -32.001 -6.5c-11.333 0 -22 2.16699 -32 6.5s-19 10.333 -27 18s-14.167 16.334 -18.5 26.001s-6.5 20.167 -6.5 31.5z" />
    <glyph glyph-name="afii10105" unicode="&#x458;" horiz-adv-x="455" 
d="M-67 -356l5.99902 49c2 6 4.66699 9.5 8 10.5s7.83301 1 13.5 0l22 -4c9 -1.66699 20.167 -2.5 33.5 -2.5c55.333 0 96.333 15 123 45s40 72.667 40 128v1149h97v-1149c0 -35.333 -5 -68 -15 -98s-25.167 -56.167 -45.5 -78.5s-45.666 -39.833 -75.999 -52.5
s-65.833 -19 -106.5 -19c-20 0 -37.833 1.66699 -53.5 5s-31.167 9 -46.5 17zM135.999 1370c0 12 2.50098 23.667 7.50098 35s11.5 21.166 19.5 29.499s17.5 14.833 28.5 19.5s22.5 7 34.5 7s23.667 -2.33301 35 -7s21.166 -11.167 29.499 -19.5s15 -18.166 20 -29.499
s7.5 -23 7.5 -35s-2.5 -23.333 -7.5 -34s-11.667 -20.167 -20 -28.5s-18 -14.833 -29 -19.5s-22.833 -7 -35.5 -7c-12 0 -23.5 2.33301 -34.5 7s-20.5 11.167 -28.5 19.5s-14.5 17.833 -19.5 28.5s-7.5 22 -7.5 34z" />
    <glyph glyph-name="afii10106" unicode="&#x459;" horiz-adv-x="1700" 
d="M-5 4l-0.000976562 63h45c24.667 0 49.834 4.83301 75.501 14.5s51 27.5 76 53.5s49.167 61.5 72.5 106.5s44.333 102.833 63 173.5s35 155.5 49 254.5s24.333 215.5 31 349.5h591v-428h262c69.333 0 127.333 -8.16699 174 -24.5s84 -38 112 -65s48 -58 60 -93
s18 -70.833 18 -107.5c0 -43.333 -7.66699 -83.333 -23 -120s-38 -68.5 -68 -95.5s-67.333 -48 -112 -63s-96.667 -22.5 -156 -22.5h-365v941h-413c-6.66699 -134.667 -17.834 -251.667 -33.501 -351s-34.5 -184.333 -56.5 -255s-46.5 -128.5 -73.5 -173.5
s-55.333 -80.5 -85 -106.5s-60.167 -43.667 -91.5 -53s-61.666 -14 -90.999 -14c-16.667 0 -31 1.33301 -43 4s-18 6.66699 -18 12zM997.999 73l266.999 -0.00292969c46.667 0 87 5.5 121 16.5s62 26.667 84 47s38.5 44.333 49.5 72s16.5 57.834 16.5 90.501
c0 30 -4.66699 58.333 -14 85s-24.666 49.834 -45.999 69.501s-49.833 35.334 -85.5 47.001s-79.167 17.5 -130.5 17.5h-262v-445z" />
    <glyph glyph-name="afii10107" unicode="&#x45a;" horiz-adv-x="1673" 
d="M168 0v1019h98v-433h605v433h99v-428h261c69.333 0 127.5 -8.16699 174.5 -24.5s84.5 -38 112.5 -65s47.833 -58 59.5 -93s17.5 -70.833 17.5 -107.5c0 -43.333 -7.66699 -83.333 -23 -120s-38 -68.5 -68 -95.5s-67.333 -48 -112 -63s-96.667 -22.5 -156 -22.5h-365v511
h-605v-511h-98zM970 73l266 -0.00292969c46.667 0 87 5.5 121 16.5s62.167 26.667 84.5 47s38.833 44.333 49.5 72s16 57.834 16 90.501c0 30 -4.5 58.333 -13.5 85s-24.333 49.834 -46 69.501s-50.167 35.334 -85.5 47.001s-79 17.5 -131 17.5h-261v-445z" />
    <glyph glyph-name="afii10108" unicode="&#x45b;" horiz-adv-x="1126" 
d="M-2 1208l0.000976562 65.002h170v217h97v-217h316v-65h-316v-373c47.333 58 101.166 104.167 161.499 138.5s128.166 51.5 203.499 51.5c56 0 105.333 -8.83301 148 -26.5s78 -43.334 106 -77.001s49.167 -74 63.5 -121s21.5 -100.167 21.5 -159.5v-641h-98v641
c0 95.333 -21.833 170.166 -65.5 224.499s-110.5 81.5 -200.5 81.5c-66.667 0 -128.667 -17.167 -186 -51.5s-108.666 -81.5 -153.999 -141.5v-754h-97v1208h-170z" />
    <glyph glyph-name="afii10109" unicode="&#x45c;" horiz-adv-x="993" 
d="M168 -1l-0.000976562 1020h98v-468h118c28.667 0 55.834 6.83301 81.501 20.5s46.834 32.5 63.501 56.5l272 362c5.33301 8 12.666 14.833 21.999 20.5s19 8.5 29 8.5h75l-299 -402c-16 -22 -33.333 -40.5 -52 -55.5s-41.334 -26.833 -68.001 -35.5
c32 -6.66699 59.667 -18.334 83 -35.001s44.333 -39 63 -67l304 -424h-68c-18 0 -32 2.83301 -42 8.5s-19 14.5 -27 26.5l-258 361c-20 28.667 -43.667 50.334 -71 65.001s-58.666 22 -93.999 22h-132v-484h-98zM435.999 1189l160.001 244
c7.33301 12 15.166 20.333 23.499 25s20.833 7 37.5 7h97l-222 -259c-5.33301 -6.66699 -11 -11.167 -17 -13.5s-13 -3.5 -21 -3.5h-58z" />
    <glyph glyph-name="uni045D" unicode="&#x45d;" horiz-adv-x="1160" 
d="M168 0l0.000976562 1019h98v-821c0 -9.33301 -0.333008 -19.5 -1 -30.5s-1.66699 -21.833 -3 -32.5c4 8.66699 8.5 17 13.5 25l13.5 21c0.666992 1.33301 10 14 28 38l70.5 94l98 130.5l111.5 148.5l302 401c4 6.66699 9.33301 12.667 16 18s13.667 8 21 8h56v-1019h-97
v821c0 20 1 41 3 63c-4 -9.33301 -8.33301 -17.833 -13 -25.5s-9.33398 -14.5 -14.001 -20.5c-1.33301 -1.33301 -10.833 -14.166 -28.5 -38.499l-70 -94l-98 -130l-111.5 -148.5l-302 -402c-4 -6 -9.16699 -11.667 -15.5 -17s-13.5 -8 -21.5 -8h-56zM378.001 1465h94
c16.667 0 29 -2.33301 37 -7s15.667 -13 23 -25l161 -244h-56c-8 0 -15 1.16699 -21 3.5s-11.667 6.83301 -17 13.5z" />
    <glyph glyph-name="afii10110" unicode="&#x45e;" horiz-adv-x="1027" 
d="M40 1019l81.001 -0.000976562c10 0 18.167 -2.5 24.5 -7.5s10.5 -10.833 12.5 -17.5l343 -792c4 -10 7.5 -20.333 10.5 -31s5.83301 -21.667 8.5 -33c3.33301 10.667 7 21.334 11 32.001l12 32l339 792c3.33301 7.33301 8 13.333 14 18s12.667 7 20 7h75l-585 -1347
c-4 -9.33301 -9.33301 -17 -16 -23s-16.334 -9 -29.001 -9h-69l179 398zM288.001 1415c0 9.33301 2.33496 17.333 7.00195 24s10.667 10 18 10h54c0 -68.667 13.833 -118.667 41.5 -150s72.5 -47 134.5 -47c61.333 0 105.666 15.667 132.999 47s41 81.333 41 150h55
c7.33301 0 13.333 -3.16699 18 -9.5s7 -14.5 7 -24.5c0 -65.333 -21.167 -117.833 -63.5 -157.5s-105.833 -59.5 -190.5 -59.5s-148.334 19.833 -191.001 59.5s-64 92.167 -64 157.5z" />
    <glyph glyph-name="afii10193" unicode="&#x45f;" horiz-adv-x="1137" 
d="M168 0v1019h98v-944h605v944h99v-1019h-358v-331c0 -22 -10 -33 -30 -33h-57v364h-357z" />
    <glyph glyph-name="uni0460" unicode="&#x460;" horiz-adv-x="2200" 
d="M128 739c0 101.333 9.49512 195.997 28.4951 283.997s48.833 164.667 89.5 230s92.5 116.666 155.5 153.999s138.5 56 226.5 56c33.333 0 63.833 -2.66699 91.5 -8s52.834 -13.166 75.501 -23.499s44 -22.5 64 -36.5s38.667 -29 56 -45l-22 -48
c-3.33301 -5.33301 -6.66602 -9.16602 -9.99902 -11.499s-8 -3.5 -14 -3.5s-14 4.5 -24 13.5s-23.5 19 -40.5 30s-39 20.833 -66 29.5s-60.167 13 -99.5 13c-66.667 0 -125.334 -14.667 -176.001 -44s-93 -71.333 -127 -126s-59.833 -121.167 -77.5 -199.5
s-26.5 -166.833 -26.5 -265.5c0 -111.333 11.167 -208.333 33.5 -291s53.333 -151.667 93 -207s87.167 -96.833 142.5 -124.5s116.333 -41.5 183 -41.5c39.333 0 76.666 4.5 111.999 13.5s68.166 21.333 98.499 37s58.333 34.5 84 56.5s48.834 45.667 69.501 71v563h105
v-563c20.667 -25.333 43.834 -49 69.501 -71s53.667 -40.833 84 -56.5s63 -28 98 -37s72.5 -13.5 112.5 -13.5c66 0 126.833 13.833 182.5 41.5s103.334 69.167 143.001 124.5s70.5 124.333 92.5 207s33 179.667 33 291c0 98 -8.5 186.333 -25.5 265
s-42.5 145.334 -76.5 200.001s-76.333 96.667 -127 126s-109.334 44 -176.001 44c-40 0 -73.5 -4.33301 -100.5 -13s-49.167 -18.5 -66.5 -29.5s-31 -21 -41 -30s-18 -13.5 -24 -13.5c-5.33301 0 -9.66602 1 -12.999 3s-6.66602 6 -9.99902 12l-23 48
c18 16.667 36.833 31.834 56.5 45.501s41.167 25.667 64.5 36s48.666 18.166 75.999 23.499s58 8 92 8c87.333 0 162.333 -18.667 225 -56s114.334 -88.666 155.001 -153.999s70.667 -142 90 -230s29 -182.667 29 -284c0 -122.667 -13.167 -231.167 -39.5 -325.5
s-63.666 -173.333 -111.999 -237s-105.833 -111.667 -172.5 -144s-140.334 -48.5 -221.001 -48.5c-89.333 0 -170.166 18 -242.499 54s-134.166 84 -185.499 144c-52 -60 -113.833 -108 -185.5 -144s-152.167 -54 -241.5 -54c-81.333 0 -155.333 16.167 -222 48.5
s-124 80.333 -172 144s-85.167 142.667 -111.5 237s-39.5 202.833 -39.5 325.5z" />
    <glyph glyph-name="uni0461" unicode="&#x461;" horiz-adv-x="1571" 
d="M139 659l0.000976562 360.007h62c11.333 0 19.666 -3.5 24.999 -10.5s8 -14.5 8 -22.5v-317c0 -119.333 21.333 -226.5 64 -321.5s105.667 -181.167 189 -258.5c36 33.333 69.5 72.833 100.5 118.5s57.667 94.5 80 146.5s39.833 105.167 52.5 159.5
s19 107.166 19 158.499v347h62c11.333 0 19.833 -3.5 25.5 -10.5s8.5 -14.5 8.5 -22.5v-311c0 -51.333 6 -104.333 18 -159s29.167 -107.834 51.5 -159.501s48.833 -100.834 79.5 -147.501s64.667 -87.334 102 -122.001c38 37.333 73.167 77.5 105.5 120.5
s60.333 89.5 84 139.5s42 103.667 55 161s19.5 119 19.5 185c0 45.333 -2.5 84.666 -7.5 117.999s-10.333 62.166 -16 86.499s-10.834 44 -15.501 59s-7 26.5 -7 34.5c0 7.33301 2.16699 13.833 6.5 19.5s10.5 8.5 18.5 8.5h68c12.667 -48 23.834 -99.167 33.501 -153.5
s14.5 -111.5 14.5 -171.5c0 -72 -7.33301 -140.333 -22 -205s-35.5 -126 -62.5 -184s-59.833 -112.333 -98.5 -163s-81.667 -98 -129 -142h-59c-6.66699 0 -12.167 1.33301 -16.5 4s-9.5 6.66699 -15.5 12c-28 26.667 -54.833 57.5 -80.5 92.5s-49.667 72.833 -72 113.5
s-42.333 83.167 -60 127.5s-32.167 88.833 -43.5 133.5c-10.667 -45.333 -24.667 -90 -42 -134s-37.333 -86.333 -60 -127s-47.167 -78.667 -73.5 -114s-53.833 -66.333 -82.5 -93c-4.66699 -5.33301 -8.5 -9.16602 -11.5 -11.499s-7.5 -3.5 -13.5 -3.5h-63
c-94 85.333 -167.667 183.666 -221 294.999s-80 232.666 -80 363.999z" />
    <glyph glyph-name="afii10146" unicode="&#x462;" horiz-adv-x="1460" 
d="M65 1116v81h389v252h105v-252h477v-81h-477v-322h339c80.667 0 151.167 -8.83301 211.5 -26.5s110.5 -43 150.5 -76s69.833 -73 89.5 -120s29.5 -100.167 29.5 -159.5c0 -63.333 -10.667 -120.5 -32 -171.5s-52.5 -94.333 -93.5 -130s-91.5 -63 -151.5 -82
s-128.667 -28.5 -206 -28.5h-442v1116h-389zM559 84l337 0.000976562c126.667 0 221.5 28.167 284.5 84.5s94.5 134.166 94.5 233.499c0 102 -31 178.833 -93 230.5s-156.667 77.5 -284 77.5h-339v-626z" />
    <glyph glyph-name="afii10194" unicode="&#x463;" horiz-adv-x="1137" 
d="M34 941v78h293v312h94v-312h347v-78h-347v-350h282c69.333 0 127.5 -8.16699 174.5 -24.5s84.5 -38 112.5 -65s48 -58 60 -93s18 -70.833 18 -107.5c0 -43.333 -7.66699 -83.333 -23 -120s-38 -68.5 -68 -95.5s-67.333 -48 -112 -63s-96.667 -22.5 -156 -22.5h-382v941
h-293zM421 73l287.999 -0.00292969c46.667 0 87 5.5 121 16.5s62 26.667 84 47s38.5 44.333 49.5 72s16.5 57.834 16.5 90.501c0 30 -4.66699 58.333 -14 85s-24.666 49.834 -45.999 69.501s-49.833 35.334 -85.5 47.001s-79.5 17.5 -131.5 17.5h-282v-445z" />
    <glyph glyph-name="uni0464" unicode="&#x464;" horiz-adv-x="1942" 
d="M214 0l-0.00195312 1449h105v-667h389c5.33301 102.667 25.333 195.834 60 279.501s81.334 155.5 140.001 215.5s128 106.333 208 139s167.667 49 263 49s179.833 -15.333 253.5 -46s140.5 -74 200.5 -130l-32 -46c-5.33301 -8 -13.666 -12 -24.999 -12
c-8 0 -21 7.5 -39 22.5s-42.5 31.5 -73.5 49.5s-69.667 34.5 -116 49.5s-102.5 22.5 -168.5 22.5c-79.333 0 -152.166 -13.667 -218.499 -41s-124.333 -66.333 -174 -117s-89.334 -112.667 -119.001 -186s-47.167 -156.333 -52.5 -249h740v-81h-741
c2 -98 17.5 -185.833 46.5 -263.5s68.333 -143.5 118 -197.5s107.5 -95.167 173.5 -123.5s137.667 -42.5 215 -42.5c49.333 0 93.5 3.33301 132.5 10s74.5 16.834 106.5 30.501s62 30.5 90 50.5s56 43 84 69c7.33301 6.66699 13.666 10 18.999 10
c6.66699 0 12.667 -2.33301 18 -7l42 -44c-28.667 -32 -60.167 -60.833 -94.5 -86.5s-71.833 -47.667 -112.5 -66s-85 -32.333 -133 -42s-100.667 -14.5 -158 -14.5c-94.667 0 -181.667 17 -261 51s-147.666 82.167 -204.999 144.5s-102.5 137.833 -135.5 226.5
s-50.5 187 -52.5 295h-388v-701h-105z" />
    <glyph glyph-name="uni0465" unicode="&#x465;" horiz-adv-x="1415" 
d="M168 0l-0.000976562 1019h95v-462h258c4.66699 70.667 19.5 135.334 44.5 194.001s58.167 108.667 99.5 150s90 73.333 146 96s117.333 34 184 34c68 0 128.167 -11 180.5 -33s99.833 -53 142.5 -93l-31 -42c-4.66699 -7.33301 -11.667 -11 -21 -11
c-6 0 -15.167 5.16699 -27.5 15.5s-29.166 21.5 -50.499 33.5s-47.5 23 -78.5 33s-69.167 15 -114.5 15c-52.667 0 -101.167 -8.83301 -145.5 -26.5s-82.833 -43.334 -115.5 -77.001s-59.167 -74.834 -79.5 -123.501s-32.833 -103.667 -37.5 -165h505v-73h-506
c2.66699 -65.333 14 -123.666 34 -174.999s46.5 -94.833 79.5 -130.5s71.667 -62.834 116 -81.501s92.166 -28 143.499 -28c32.667 0 61.834 2.16699 87.501 6.5s49.334 11.166 71.001 20.499s42 20.666 61 33.999s37.833 28.666 56.5 45.999
c4.66699 4.66699 10.334 7 17.001 7c6 0 10.667 -2 14 -6l38 -40c-40.667 -46 -89 -82.167 -145 -108.5s-124.667 -39.5 -206 -39.5c-66.667 0 -127.834 11.667 -183.501 35s-103.834 56.666 -144.501 99.999s-72.667 95.5 -96 156.5s-36.333 128.833 -39 203.5h-257v-484
h-95z" />
    <glyph glyph-name="uni0466" unicode="&#x466;" horiz-adv-x="1360" 
d="M23 0l608.001 1449h99l608 -1449h-84c-9.33301 0 -17 2.5 -23 7.5s-10.667 11.833 -14 20.5l-270 654h-218v-682h-100v682h-215l-270 -654c-2.66699 -7.33301 -7.33398 -13.833 -14.001 -19.5s-15 -8.5 -25 -8.5h-82zM445.001 759h469.999l-204 499
c-5.33301 12 -10.666 25.833 -15.999 41.5s-10.333 32.5 -15 50.5c-9.33301 -35.333 -19.333 -66.333 -30 -93z" />
    <glyph glyph-name="uni0467" unicode="&#x467;" horiz-adv-x="1079" 
d="M33 0l463.001 1020h89l462 -1020h-75c-16.667 0 -27.667 8 -33 24l-197 437h-158v-461h-90v461h-157l-196 -437c-2 -6 -5.83301 -11.5 -11.5 -16.5s-12.834 -7.5 -21.501 -7.5h-75zM368.001 529h344l-147 327c-8.66699 22 -17 48 -25 78
c-4 -16 -8.16699 -30.5 -12.5 -43.5s-8.5 -24.5 -12.5 -34.5z" />
    <glyph glyph-name="uni0468" unicode="&#x468;" horiz-adv-x="1956" 
d="M214 0l0.000976562 1449h105v-690h618l290 690h98l608 -1449h-83c-9.33301 0 -17 2.5 -23 7.5s-11 11.833 -15 20.5l-269 654h-219v-682h-100v682h-215l-270 -654c-2.66699 -7.33301 -7.33398 -13.833 -14.001 -19.5s-15 -8.5 -25 -8.5h-82l286 682h-585v-682h-105z
M1040 759h470.999l-204 499c-5.33301 12 -10.666 25.667 -15.999 41s-10.333 32 -15 50c-4.66699 -18 -9.66699 -34.5 -15 -49.5l-15 -42.5z" />
    <glyph glyph-name="uni0469" unicode="&#x469;" horiz-adv-x="1528" 
d="M168 0l0.000976562 1020h95v-491h459l223 491h90l461 -1020h-75c-16.667 0 -27.334 8 -32.001 24l-196 437h-159v-461h-90v461h-157l-195 -437c-2 -6 -6.16699 -11.5 -12.5 -16.5s-13.833 -7.5 -22.5 -7.5h-75l209 461h-428v-461h-95zM818.001 529l344 0.000976562
l-146 327c-4.66699 10 -9.33398 21.667 -14.001 35s-9 27.666 -13 42.999c-3.33301 -16 -7.16602 -30.5 -11.499 -43.5s-8.5 -24.5 -12.5 -34.5z" />
    <glyph glyph-name="uni046A" unicode="&#x46a;" horiz-adv-x="1602" 
d="M43 0l196.003 508c18 46.667 37.167 87 57.5 121s45 62 74 84s63.667 38.5 104 49.5s89.5 16.5 147.5 16.5h66l-554 670h80h4h1164h6h79l-554 -670h68c58 0 107.167 -5.5 147.5 -16.5s75.166 -27.5 104.499 -49.5s54.166 -50 74.499 -84s39.5 -74.333 57.5 -121l195 -508
h-82c-9.33301 0 -17.5 2.66699 -24.5 8s-11.833 12 -14.5 20l-175 468c-14.667 39.333 -29.5 72.166 -44.5 98.499s-33 47.5 -54 63.5s-46.833 27.333 -77.5 34s-68.334 10 -113.001 10h-125v-702h-100v702h-122c-45.333 0 -83 -3.33301 -113 -10s-55.5 -18 -76.5 -34
s-39.333 -37.167 -55 -63.5s-30.5 -59.166 -44.5 -98.499l-174 -468c-3.33301 -7.33301 -8.33301 -13.833 -15 -19.5s-14.667 -8.5 -24 -8.5h-83zM307.003 1372l423 -506l45 -59c12 -16 20.667 -32.667 26 -50c5.33301 18 13.833 34.833 25.5 50.5l44.5 58.5l422 506h-986z
" />
    <glyph glyph-name="uni046B" unicode="&#x46b;" horiz-adv-x="1245" 
d="M40 0l146.001 349.999c15.333 35.333 31.833 66 49.5 92s38.167 47.333 61.5 64s49.666 29 78.999 37s63 12 101 12h39l-410 465h72h4h880h4h73l-412 -465h42c37.333 0 70.666 -4 99.999 -12s55.666 -20.333 78.999 -37s43.833 -38 61.5 -64s34.167 -56.667 49.5 -92
l147 -350h-74c-8 0 -15 2.33301 -21 7s-10.667 10.334 -14 17.001l-127 316c-11.333 29.333 -23.5 53.333 -36.5 72s-27.667 33.5 -44 44.5s-34.666 18.667 -54.999 23s-43.833 6.5 -70.5 6.5h-97v-1v-485h-90v486h-95c-27.333 0 -51.166 -2.16699 -71.499 -6.5
s-38.5 -12 -54.5 -23s-30.333 -25.833 -43 -44.5s-25 -42.667 -37 -72l-126 -316c-3.33301 -6 -8 -11.5 -14 -16.5s-13 -7.5 -21 -7.5h-75zM265.001 949.999l296 -322.999c16 -19.333 28.833 -35.833 38.5 -49.5s17.167 -28.167 22.5 -43.5c5.33301 16 13 30.667 23 44
s23 29.666 39 48.999l295 323h-714z" />
    <glyph glyph-name="uni046C" unicode="&#x46c;" horiz-adv-x="2191" 
d="M214 0l0.00195312 1449h105v-670h958l-554 670h81h4h1248l-553 -670h67c58 0 107.333 -5.5 148 -16.5s75.5 -27.5 104.5 -49.5s53.667 -50 74 -84s39.5 -74.333 57.5 -121l194 -508h-82c-9.33301 0 -17.333 2.66699 -24 8s-11.334 12 -14.001 20l-176 468
c-14.667 39.333 -29.334 72.166 -44.001 98.499s-32.667 47.5 -54 63.5s-47.166 27.333 -77.499 34s-67.833 10 -112.5 10h-124v-702h-101v702h-138c-30.667 0 -59.334 -3.33301 -86.001 -10s-51.167 -18 -73.5 -34s-43 -37.333 -62 -64s-35.833 -59.334 -50.5 -98.001
l-176 -468c-2.66699 -7.33301 -7.5 -13.833 -14.5 -19.5s-15.167 -8.5 -24.5 -8.5h-83l193 503c19.333 50 45.5 91.5 78.5 124.5s71.167 57.833 114.5 74.5h-698v-702h-105zM897.002 1372l422 -506l44.5 -59c11.667 -16 20.5 -32.667 26.5 -50c5.33301 18 14 34.833 26 50.5
l45 58.5l421 506h-985z" />
    <glyph glyph-name="uni046D" unicode="&#x46d;" horiz-adv-x="1695" 
d="M168 0l0.00292969 1020h95v-465h704l-411 465h73h4h957l-411 -465h41c37.333 0 70.666 -4 99.999 -12s55.666 -20.333 78.999 -37s43.833 -38 61.5 -64s33.834 -56.667 48.501 -92l148 -350h-75c-8 0 -15 2.33301 -21 7s-10.667 10.334 -14 17.001l-127 316
c-11.333 29.333 -23.333 53.333 -36 72s-27.167 33.5 -43.5 44.5s-34.833 18.667 -55.5 23s-44.334 6.5 -71.001 6.5h-97v-1v-485h-89v485l-1 1h-118c-18.667 -0.666992 -36.667 -3.5 -54 -8.5s-33.666 -13.167 -48.999 -24.5s-29.666 -26.166 -42.999 -44.499
s-25.333 -41.166 -36 -68.499l-129 -316c-2.66699 -6 -6.83398 -11.5 -12.501 -16.5s-12.834 -7.5 -21.501 -7.5h-75l147 351c13.333 34.667 31.666 63 54.999 85s49.333 38.667 78 50h-506v-486h-95zM717.003 949.997l295 -323c16 -20 29 -36.833 39 -50.5
s17.333 -28.834 22 -45.501c4.66699 16.667 12 31.834 22 45.501s23.333 30.5 40 50.5l293 323h-711z" />
    <glyph glyph-name="uni046E" unicode="&#x46e;" horiz-adv-x="1119" 
d="M34 -95c0 67.333 21.3281 117.667 63.9951 151s103.334 50 182.001 50c22 0 43 -1 63 -3s39.833 -4.33301 59.5 -7s39.5 -5 59.5 -7s40.667 -3 62 -3c58 0 110 8.5 156 25.5s84.833 40.333 116.5 70s56 64.667 73 105s25.5 83.833 25.5 130.5c0 46 -8 88.167 -24 126.5
s-39.667 71.666 -71 99.999s-69.833 50.5 -115.5 66.5s-97.5 24 -155.5 24h-190v88h193c41.333 0 81.333 6.16699 120 18.5s72.5 30.333 101.5 54s52 52.334 69 86.001s25.5 72.5 25.5 116.5c0 40.667 -8 78.167 -24 112.5s-39.167 63.833 -69.5 88.5
s-67.166 43.834 -110.499 57.501s-92 20.5 -146 20.5c-62.667 0 -115 -6.5 -157 -19.5s-76.667 -27.167 -104 -42.5s-48.666 -29.333 -63.999 -42s-28 -19 -38 -19c-12 0 -20.667 6 -26 18l-25 46c54 48 113.833 84.333 179.5 109s142.834 37 231.501 37
c69.333 0 132 -9 188 -27s103.667 -43 143 -75s69.333 -70 90 -114s31 -91.667 31 -143c0 -40 -6 -77.167 -18 -111.5s-28.667 -65.166 -50 -92.499s-46.5 -51 -75.5 -71s-60.5 -36.333 -94.5 -49c44.667 -12.667 84.5 -30.5 119.5 -53.5s64.667 -50.167 89 -81.5
s43.166 -66.333 56.499 -105s20 -80 20 -124c0 -56.667 -10.667 -110.334 -32 -161.001s-52.5 -94.834 -93.5 -132.501s-91.667 -67.667 -152 -90s-129.5 -33.5 -207.5 -33.5c-24.667 0 -47 1 -67 3s-39.167 4.16699 -57.5 6.5l-53 6.5c-17 2 -33.833 3 -50.5 3
c-50.667 0 -88 -9.5 -112 -28.5s-36 -47.833 -36 -86.5c0 -22.667 4.83301 -43 14.5 -61s25.667 -33.167 48 -45.5s52.166 -21.833 89.499 -28.5s83.666 -10 138.999 -10c24.667 0 47.334 0.5 68.001 1.5s40.667 2.33301 60 4s37.833 3 55.5 4s35.167 1.5 52.5 1.5
c40.667 0 74.834 -3.5 102.501 -10.5s49.5 -17 65.5 -30s27.167 -28.667 33.5 -47s9.5 -38.833 9.5 -61.5c0 -13.333 -1.5 -24.166 -4.5 -32.499s-10.167 -12.5 -21.5 -12.5h-27c0 21.333 -2.5 39.166 -7.5 53.499s-13.667 25.833 -26 34.5s-28.666 15 -48.999 19
s-46.166 6 -77.499 6c-18 0 -34.667 -0.5 -50 -1.5s-31.333 -2.16699 -48 -3.5s-35 -2.66602 -55 -3.99902s-43 -2 -69 -2c-73.333 0 -135.333 5 -186 15s-92 24.5 -124 43.5s-55.333 42.667 -70 71s-22 61.166 -22 98.499z" />
    <glyph glyph-name="uni046F" unicode="&#x46f;" horiz-adv-x="894" 
d="M33 -105c0 53.333 16.5 96.8369 49.5 130.504s82.167 50.5 147.5 50.5c25.333 0 52 -2.33301 80 -7s59.333 -7 94 -7c46 0 87.167 5.66699 123.5 17s66.666 27.166 90.999 47.499s43 44.333 56 72s19.5 57.834 19.5 90.501c0 32 -6.66699 61.333 -20 88
s-33.166 49.5 -59.499 68.5s-58.833 33.833 -97.5 44.5s-83.334 16 -134.001 16h-116v67h116c44 0 83.833 5 119.5 15s66 23.667 91 41s44.333 37.833 58 61.5s20.5 49.5 20.5 77.5c0 24.667 -5.5 48.334 -16.5 71.001s-27.833 43 -50.5 61s-51.167 32.167 -85.5 42.5
s-75.166 15.5 -122.499 15.5c-45.333 0 -84 -4.33301 -116 -13s-58.667 -18.5 -80 -29.5s-38.166 -21 -50.499 -30s-21.5 -13.5 -27.5 -13.5c-5.33301 0 -9.83301 1.16699 -13.5 3.5s-7.16699 6.16602 -10.5 11.499l-22 36c34.667 32.667 77.5 59.167 128.5 79.5
s110.833 31.166 179.5 32.499l-207 234h59c16 0 28 -5.66699 36 -17l151 -167l13 -19c2 3.33301 4.16699 6.5 6.5 9.5s5.16602 6.16699 8.49902 9.5l107 139c16.667 21.333 34.5 35.833 53.5 43.5s38.5 11.5 58.5 11.5c9.33301 0 17.666 -0.833008 24.999 -2.5
s14.333 -3.5 21 -5.5v-47h-25c-18 0 -33.667 -4.5 -47 -13.5s-26 -20.167 -38 -33.5l-120 -148c46 -6.66699 86 -18.334 120 -35.001s62.333 -36.5 85 -59.5s39.667 -48 51 -75s17 -54.167 17 -81.5c0 -22 -4 -44.667 -12 -68s-20.667 -45.833 -38 -67.5
s-40.333 -41.167 -69 -58.5s-63.334 -30.333 -104.001 -39c42 -8.66699 78.667 -21.5 110 -38.5s57.5 -36.833 78.5 -59.5s36.5 -47.5 46.5 -74.5s15 -55.167 15 -84.5c0 -43.333 -8.66699 -83.166 -26 -119.499s-42.166 -67.833 -74.499 -94.5
s-71.666 -47.5 -117.999 -62.5s-98.5 -22.5 -156.5 -22.5c-36.667 0 -69.667 2.16699 -99 6.5s-56 6.5 -80 6.5c-38 0 -67.333 -8.83301 -88 -26.5s-31 -43.834 -31 -78.501c0 -48.667 19 -85.334 57 -110.001s90.667 -37 158 -37c15.333 0 32.333 0.5 51 1.5
s37.667 2.16699 57 3.5s38.833 2.5 58.5 3.5s38.5 1.5 56.5 1.5c40.667 0 74.667 -3.33301 102 -10s49 -16.5 65 -29.5s27.333 -28.5 34 -46.5s10 -38.333 10 -61c0 -14.667 -1.5 -25.834 -4.5 -33.501s-10.5 -11.5 -22.5 -11.5h-26c0 21.333 -2.83301 39.166 -8.5 53.499
s-14.667 25.833 -27 34.5s-28.5 15 -48.5 19s-45.333 6 -76 6c-36.667 0 -73.667 -1.83301 -111 -5.5s-72 -5.5 -104 -5.5c-44 0 -84.333 4.83301 -121 14.5s-68.5 23.834 -95.5 42.501s-48 42 -63 70s-22.5 60.667 -22.5 98z" />
    <glyph glyph-name="uni0470" unicode="&#x470;" horiz-adv-x="1628" 
d="M119 937v512.002h67c12 0 21.333 -3.83301 28 -11.5s10 -16.834 10 -27.501v-473c0 -76 11.333 -144 34 -204s56.334 -110.833 101.001 -152.5s100.5 -73.834 167.5 -96.501s145.167 -35.334 234.5 -38.001v1003h105v-1003c88.667 2 166.667 14.5 234 37.5
s123.5 55.333 168.5 97s78.833 92.5 101.5 152.5s34 128 34 204v473c0 10.667 3 19.834 9 27.501s15.333 11.5 28 11.5h68v-512c0 -87.333 -14 -165.833 -42 -235.5s-69 -129.5 -123 -179.5s-121 -88.5 -201 -115.5s-172.333 -41.833 -277 -44.5v-362h-105v362
c-104.667 2 -196.834 16.667 -276.501 44s-146.667 66 -201 116s-95.333 109.833 -123 179.5s-41.5 148.167 -41.5 235.5z" />
    <glyph glyph-name="uni0471" unicode="&#x471;" horiz-adv-x="1498" 
d="M153 458l0.00390625 560.998h65c9.33301 0 17 -4.5 23 -13.5s9 -17.833 9 -26.5v-521c0 -58 10.667 -110.5 32 -157.5s51.833 -87.5 91.5 -121.5s87.334 -60.833 143.001 -80.5s117.167 -31.834 184.5 -36.501v1387h98v-1387c57.333 3.33301 113.833 14 169.5 32
s105.667 45.833 150 83.5s80.166 87 107.499 148s41 136.5 41 226.5c0 40.667 -2 79.834 -6 117.501s-8.83301 74 -14.5 109s-11.834 69.333 -18.501 103s-13.667 67.167 -21 100.5c-0.666992 13.333 2.16602 22.833 8.49902 28.5s13.166 8.5 20.499 8.5h69l24 -119.5
c7.33301 -37.667 13.666 -75 18.999 -112s9.33301 -74.667 12 -113s4 -79.166 4 -122.499c0 -68 -7.33301 -129.167 -22 -183.5s-35.167 -102 -61.5 -143s-57.166 -76.167 -92.499 -105.5s-74 -53.666 -116 -72.999s-86.333 -33.833 -133 -43.5
s-93.334 -15.5 -140.001 -17.5v-346h-98v345c-82.667 3.33301 -157.5 16 -224.5 38s-124.667 53 -173 93s-85.5 88.5 -111.5 145.5s-39 122.5 -39 196.5z" />
    <glyph glyph-name="afii10147" unicode="&#x472;" horiz-adv-x="1620" 
d="M120 725c0 111.333 16.667 212.5 50 303.5s80.333 168.833 141 233.5s133.334 114.667 218.001 150s178.334 53 281.001 53s196.5 -17.5 281.5 -52.5s157.833 -85 218.5 -150s107.667 -143 141 -234s50 -192.167 50 -303.5c0 -112 -16.667 -213.5 -50 -304.5
s-80.333 -168.833 -141 -233.5s-133.5 -114.5 -218.5 -149.5s-178.833 -52.5 -281.5 -52.5s-196.334 17.5 -281.001 52.5s-157.334 84.833 -218.001 149.5s-107.667 142.5 -141 233.5s-50 192.5 -50 304.5zM226 701c2 -98 17.668 -185.5 47.001 -262.5
s69.666 -142.5 120.999 -196.5s112.333 -95.167 183 -123.5s148.334 -42.5 233.001 -42.5c85.333 0 163.166 14.167 233.499 42.5s131 69.5 182 123.5s91 119.5 120 196.5s44.5 164.5 46.5 262.5h-1166zM227.001 782h1164c-5.33301 92 -23.166 174.833 -53.499 248.5
s-70.666 136 -120.999 187s-110 90 -179 117s-144.833 40.5 -227.5 40.5c-82 0 -157.5 -13.5 -226.5 -40.5s-129 -66 -180 -117s-91.667 -113.167 -122 -186.5s-48.5 -156.333 -54.5 -249z" />
    <glyph glyph-name="afii10195" unicode="&#x473;" horiz-adv-x="1142" 
d="M106 510c0 80 10.5 152.167 31.5 216.5s51.5 119.5 91.5 165.5s88.667 81.333 146 106s122.666 37 195.999 37s138.833 -12.333 196.5 -37s106.334 -60 146.001 -106s69.834 -101.167 90.501 -165.5s31 -136.5 31 -216.5s-10.333 -152 -31 -216
s-50.834 -119 -90.501 -165s-88.334 -81.167 -146.001 -105.5s-123.167 -36.5 -196.5 -36.5s-138.666 12.167 -195.999 36.5s-106 59.5 -146 105.5s-70.5 101 -91.5 165s-31.5 136 -31.5 216zM202 477c2.66699 -64 12.332 -121.833 28.999 -173.5
s40.5 -95.334 71.5 -131.001s68.833 -63.167 113.5 -82.5s96.334 -29 155.001 -29c58 0 109.5 9.66699 154.5 29s82.833 46.833 113.5 82.5s54.5 79.334 71.5 131.001s26.5 109.5 28.5 173.5h-737zM201.998 545h737.002c-2.66699 63.333 -12.334 120.666 -29.001 171.999
s-40.334 95 -71.001 131s-68.5 63.833 -113.5 83.5s-96.5 29.5 -154.5 29.5s-109.333 -9.83301 -154 -29.5s-82.5 -47.5 -113.5 -83.5s-55 -79.667 -72 -131s-26.833 -108.666 -29.5 -171.999z" />
    <glyph glyph-name="afii10148" unicode="&#x474;" horiz-adv-x="1392" 
d="M25 1449l84 -0.000976562c9.33301 0 17 -2.5 23 -7.5s10.667 -11.833 14 -20.5l493 -1202l17 -49c6 -16.667 11 -34 15 -52c4 18.667 8.5 36.334 13.5 53.001s10.167 32.667 15.5 48l376 1072c18.667 54.667 47.167 95.167 85.5 121.5s80.833 39.5 127.5 39.5
c22 0 40 -1.83301 54 -5.5s21 -9.16699 21 -16.5v-64h-55c-29.333 0 -56.333 -9.66699 -81 -29s-43.667 -47 -57 -83l-454 -1254h-94z" />
    <glyph glyph-name="afii10196" unicode="&#x475;" horiz-adv-x="1075" 
d="M39 1019l77 0.000976562c9.33301 0 17 -2.5 23 -7.5s10.333 -10.833 13 -17.5l327 -804c5.33301 -16 10.166 -31.333 14.499 -46s8.16602 -29.667 11.499 -45c5.33301 28 13.333 58.333 24 91l262 691c10.667 31.333 22.834 56.666 36.501 75.999
s28.334 34.333 44.001 45s32 17.667 49 21s34.833 5 53.5 5c22 0 37.167 -1.83301 45.5 -5.5s12.5 -7.16699 12.5 -10.5v-55h-27c-32.667 0 -59 -7.16699 -79 -21.5s-36 -37.833 -48 -70.5l-332 -865h-86z" />
    <glyph glyph-name="uni0476" unicode="&#x476;" horiz-adv-x="1392" 
d="M25 1449l84 -0.000976562c9.33301 0 17 -2.5 23 -7.5s10.667 -11.833 14 -20.5l493 -1202l17 -49c6 -16.667 11 -34 15 -52c4 18.667 8.5 36.334 13.5 53.001s10.167 32.667 15.5 48l376 1072c18.667 54.667 47.167 95.167 85.5 121.5s80.833 39.5 127.5 39.5
c22 0 40 -1.83301 54 -5.5s21 -9.16699 21 -16.5v-64h-55c-29.333 0 -56.333 -9.66699 -81 -29s-43.667 -47 -57 -83l-454 -1254h-94zM246 1853h75.999c16.667 0 29.834 -2.5 39.501 -7.5s19.167 -13.167 28.5 -24.5l193 -242h-54c-15.333 0 -29 5.66699 -41 17z
M595.999 1853h66c16.667 0 30 -2.5 40 -7.5s18.667 -13.167 26 -24.5l163 -242h-48c-8 0 -15 1.33301 -21 4s-11.667 7 -17 13z" />
    <glyph glyph-name="uni0477" unicode="&#x477;" horiz-adv-x="1075" 
d="M39 1019l77 0.000976562c9.33301 0 17 -2.5 23 -7.5s10.333 -10.833 13 -17.5l327 -804c5.33301 -16 10.166 -31.333 14.499 -46s8.16602 -29.667 11.499 -45c5.33301 28 13.333 58.333 24 91l262 691c10.667 31.333 22.834 56.666 36.501 75.999
s28.334 34.333 44.001 45s32 17.667 49 21s34.833 5 53.5 5c22 0 37.167 -1.83301 45.5 -5.5s12.5 -7.16699 12.5 -10.5v-55h-27c-32.667 0 -59 -7.16699 -79 -21.5s-36 -37.833 -48 -70.5l-332 -865h-86zM119 1465h77c16.667 0 28.667 -2.5 36 -7.5
s15.333 -13.167 24 -24.5l186 -244h-48c-8 0 -14.833 1.16699 -20.5 3.5s-11.5 6.83301 -17.5 13.5zM397 1465h69c16.667 0 29 -2.33301 37 -7s15.667 -13 23 -25l156 -244h-43c-8 0 -15.167 1.16699 -21.5 3.5s-11.833 6.83301 -16.5 13.5z" />
    <glyph glyph-name="uni0478" unicode="&#x478;" horiz-adv-x="2635" 
d="M120 725c0 111.333 16.667 212.5 50 303.5s80.333 168.833 141 233.5s133.334 114.667 218.001 150s178.334 53 281.001 53s196.5 -17.5 281.5 -52.5s157.833 -85 218.5 -150s107.667 -143 141 -234s50 -192.167 50 -303.5c0 -112 -16.667 -213.5 -50 -304.5
s-80.333 -168.833 -141 -233.5s-133.5 -114.5 -218.5 -149.5s-178.833 -52.5 -281.5 -52.5s-196.334 17.5 -281.001 52.5s-157.334 84.833 -218.001 149.5s-107.667 142.5 -141 233.5s-50 192.5 -50 304.5zM226 725c0 -102 14.167 -193 42.5 -273s68.333 -148 120 -204
s113.334 -98.667 185.001 -128s150.5 -44 236.5 -44c86.667 0 165.834 14.667 237.501 44s133.167 72 184.5 128s91 124 119 204s42 171 42 273c0 101.333 -14 192.166 -42 272.499s-67.667 148.5 -119 204.5s-112.833 98.833 -184.5 128.5s-150.834 44.5 -237.501 44.5
c-86 0 -164.833 -14.833 -236.5 -44.5s-133.334 -72.5 -185.001 -128.5s-91.667 -124.167 -120 -204.5s-42.5 -171.166 -42.5 -272.499zM1650 1019l81.001 -0.000976562c10 0 18.167 -2.5 24.5 -7.5s10.5 -10.833 12.5 -17.5l343 -792c4 -10 7.5 -20.333 10.5 -31
s5.83301 -21.667 8.5 -33c3.33301 10.667 7 21.334 11 32.001l12 32l339 792c3.33301 7.33301 8 13.333 14 18s12.667 7 20 7h75l-585 -1347c-4 -9.33301 -9.33301 -17 -16 -23s-16.334 -9 -29.001 -9h-69l179 398z" />
    <glyph glyph-name="uni0479" unicode="&#x479;" horiz-adv-x="2138" 
d="M106 510c0 80 10.5 152.167 31.5 216.5s51.5 119.5 91.5 165.5s88.667 81.333 146 106s122.666 37 195.999 37s138.833 -12.333 196.5 -37s106.334 -60 146.001 -106s69.834 -101.167 90.501 -165.5s31 -136.5 31 -216.5s-10.333 -152 -31 -216
s-50.834 -119 -90.501 -165s-88.334 -81.167 -146.001 -105.5s-123.167 -36.5 -196.5 -36.5s-138.666 12.167 -195.999 36.5s-106 59.5 -146 105.5s-70.5 101 -91.5 165s-31.5 136 -31.5 216zM207 510c0 -68 7.66406 -129.5 22.9971 -184.5s38.166 -102 68.499 -141
s68.166 -69 113.499 -90s98.333 -31.5 159 -31.5s113.834 10.5 159.501 31.5s83.667 51 114 90s53 86 68 141s22.5 116.5 22.5 184.5c0 67.333 -7.5 128.666 -22.5 183.999s-37.667 102.666 -68 141.999s-68.166 69.5 -113.499 90.5s-98.666 31.5 -159.999 31.5
c-60.667 0 -113.667 -10.5 -159 -31.5s-83.166 -51.167 -113.499 -90.5s-53.166 -86.666 -68.499 -141.999s-23 -116.666 -23 -183.999zM1150 1019l81.001 -0.000976562c10 0 18.167 -2.5 24.5 -7.5s10.5 -10.833 12.5 -17.5l343 -792c4 -10 7.5 -20.333 10.5 -31
s5.83301 -21.667 8.5 -33c3.33301 10.667 7 21.334 11 32.001l12 32l339 792c3.33301 7.33301 8 13.333 14 18s12.667 7 20 7h75l-585 -1347c-4 -9.33301 -9.33301 -17 -16 -23s-16.334 -9 -29.001 -9h-69l179 398z" />
    <glyph glyph-name="uni047A" unicode="&#x47a;" horiz-adv-x="1689" 
d="M120 725c0 105.333 15.001 201.499 45.001 288.499s72.333 162.5 127 226.5s120.167 115.167 196.5 153.5s161.166 61.166 254.499 68.499c8 20.667 21 37.5 39 50.5s39 19.5 63 19.5s45.167 -6.5 63.5 -19.5s31.5 -29.833 39.5 -50.5
c92.667 -7.33301 177.167 -30.166 253.5 -68.499s141.833 -89.333 196.5 -153s97 -139 127 -226s45 -183.167 45 -288.5s-15 -201.5 -45 -288.5s-72.333 -162.5 -127 -226.5s-120.167 -115.333 -196.5 -154s-160.833 -61.667 -253.5 -69c-8 -20 -21.167 -36.5 -39.5 -49.5
s-39.5 -19.5 -63.5 -19.5s-44.833 6.33301 -62.5 19s-30.834 29.334 -39.501 50.001c-93.333 7.33301 -178.166 30 -254.499 68s-141.833 89 -196.5 153s-97 139.5 -127 226.5s-45 183.5 -45 289.5zM226.001 724.999c0 -95.333 12.501 -181.333 37.501 -258
s60.333 -142.667 106 -198s100.5 -99.166 164.5 -131.499s134.667 -51.833 212 -58.5c8.66699 18.667 21.834 33.667 39.501 45s37.5 17 59.5 17s41.833 -5.83301 59.5 -17.5s31.167 -26.5 40.5 -44.5c77.333 6.66699 147.833 26.334 211.5 59.001
s118.334 76.667 164.001 132s80.834 121.5 105.501 198.5s37 162.833 37 257.5s-12.333 180.167 -37 256.5s-59.834 142.166 -105.501 197.499s-100.334 99.333 -164.001 132s-134.167 52.667 -211.5 60c-8.66699 -18.667 -21.834 -33.5 -39.501 -44.5
s-37.834 -16.5 -60.501 -16.5c-22 0 -41.833 5.66699 -59.5 17s-31.167 26 -40.5 44c-78 -7.33301 -148.667 -27.333 -212 -60s-117.833 -76.667 -163.5 -132s-81 -121.333 -106 -198s-37.5 -162.334 -37.5 -257.001z" />
    <glyph glyph-name="uni047B" unicode="&#x47b;" horiz-adv-x="1228" 
d="M105 510c0 74 9.16699 141.5 27.5 202.5s44.5 114 78.5 159s76.167 81.167 126.5 108.5s107.166 44.333 170.499 51c7.33301 22 20.333 39.833 39 53.5s40 20.5 64 20.5s45.667 -6.83301 65 -20.5s32.666 -31.167 39.999 -52.5c64 -6.66699 121.167 -23.667 171.5 -51
s92.833 -63.5 127.5 -108.5s61 -98.167 79 -159.5s27 -129 27 -203c0 -74.667 -9 -142.5 -27 -203.5s-44.333 -113.833 -79 -158.5s-77.167 -80.667 -127.5 -108s-107.5 -44 -171.5 -50c-8 -21.333 -21.5 -38.5 -40.5 -51.5s-40.5 -19.5 -64.5 -19.5s-45.167 6.5 -63.5 19.5
s-31.166 30.167 -38.499 51.5c-64 6.66699 -121 23.667 -171 51s-92.167 63.333 -126.5 108s-60.666 97.5 -78.999 158.5s-27.5 128.5 -27.5 202.5zM206 510c0 -62 6.33008 -118.668 18.9971 -170.001s31.5 -96.166 56.5 -134.499s56.333 -69.166 94 -92.499
s81.834 -38.333 132.501 -45c7.33301 22 20.333 39.667 39 53s40 20 64 20c24.667 0 46.5 -6.83301 65.5 -20.5s32.167 -31.167 39.5 -52.5c51.333 6.66699 95.833 21.667 133.5 45s69.334 54 95.001 92s44.834 82.833 57.501 134.5s19 108.5 19 170.5
s-6.33301 118.667 -19 170s-31.834 96.166 -57.501 134.499s-57.334 69.5 -95.001 93.5s-82.167 39.333 -133.5 46c-7.33301 -21.333 -20.666 -38.333 -39.999 -51s-41 -19 -65 -19s-45.167 6.5 -63.5 19.5s-31.166 29.833 -38.499 50.5c-50.667 -7.33301 -95 -23 -133 -47
s-69.5 -55 -94.5 -93s-43.833 -82.833 -56.5 -134.5s-19 -108.167 -19 -169.5z" />
    <glyph glyph-name="uni047C" unicode="&#x47c;" horiz-adv-x="2201" 
d="M128 739c0 101.333 9.5 195.997 28.5 283.997s48.833 164.667 89.5 230s92.5 116.666 155.5 153.999s138.5 56 226.5 56c33.333 0 63.833 -2.66699 91.5 -8s53 -13.166 76 -23.499s44.5 -22.5 64.5 -36.5s38.667 -29 56 -45l-22 -48
c-4 -5.33301 -7.5 -9.16602 -10.5 -11.499s-7.5 -3.5 -13.5 -3.5s-14 4.5 -24 13.5s-23.667 19 -41 30s-39.5 20.833 -66.5 29.5s-60.167 13 -99.5 13c-66.667 0 -125.334 -14.667 -176.001 -44s-93 -71.333 -127 -126s-59.833 -121.167 -77.5 -199.5
s-26.5 -166.833 -26.5 -265.5c0 -111.333 11.167 -208.333 33.5 -291s53.333 -151.667 93 -207s87.167 -96.833 142.5 -124.5s116.333 -41.5 183 -41.5c44 0 84.833 5.33301 122.5 16s72 25.834 103 45.501s58.833 42.334 83.5 68.001s46 53.5 64 83.5h87
c18 -30 39.167 -57.833 63.5 -83.5s52.166 -48.334 83.499 -68.001s65.833 -34.834 103.5 -45.501s78.5 -16 122.5 -16c66.667 0 127.667 13.833 183 41.5s103 69.167 143 124.5s70.833 124.333 92.5 207s32.5 179.667 32.5 291c0 98 -8.5 186.333 -25.5 265
s-42.5 145.334 -76.5 200.001s-76.333 96.667 -127 126s-109.334 44 -176.001 44c-40 0 -73.5 -4.33301 -100.5 -13s-49.167 -18.5 -66.5 -29.5s-31 -21 -41 -30s-18 -13.5 -24 -13.5c-5.33301 0 -9.66602 1 -12.999 3s-6.66602 6 -9.99902 12l-23 48
c18 16.667 36.833 31.834 56.5 45.501s41.167 25.667 64.5 36s48.666 18.166 75.999 23.499s58 8 92 8c87.333 0 162.333 -18.667 225 -56s114.334 -88.666 155.001 -153.999s70.667 -142 90 -230s29 -182.667 29 -284c0 -122.667 -13.167 -231.167 -39.5 -325.5
s-63.666 -173.333 -111.999 -237s-105.833 -111.667 -172.5 -144s-140.334 -48.5 -221.001 -48.5c-89.333 0 -170 18 -242 54s-133.667 84 -185 144c-51.333 -60 -113.166 -108 -185.499 -144s-153.166 -54 -242.499 -54c-80.667 0 -154.5 16.167 -221.5 48.5
s-124.333 80.333 -172 144s-84.834 142.667 -111.501 237s-40 202.833 -40 325.5zM787 1690c0 32 5.33496 61.1699 16.002 87.5029s26 48.666 46 66.999s44.167 32.666 72.5 42.999s60.166 15.5 95.499 15.5c48 0 93.333 -8.33301 136 -25s85.5 -35 128.5 -55
s87.667 -38.167 134 -54.5s97.5 -24.5 153.5 -24.5v-55c-58.667 0 -112.334 8.16699 -161.001 24.5s-94.5 34.333 -137.5 54s-84.667 37.667 -125 54s-81.5 24.5 -123.5 24.5c-53.333 0 -95 -14.333 -125 -43s-45 -66.334 -45 -113.001h-65zM1058 1618
c0 20.667 6.66797 37.333 20.001 50s30.666 19 51.999 19c24 0 43.167 -8.33301 57.5 -25s21.5 -43 21.5 -79c0 -20.667 -2.5 -40.834 -7.5 -60.501s-13.167 -37.167 -24.5 -52.5s-26 -27.666 -44 -36.999s-39.667 -14 -65 -14v23c0 7.33301 7.66699 12 23 14
c22 5.33301 39 16.333 51 33s18.667 42 20 76c-10 -6 -21.333 -9.33301 -34 -10c-24 0 -41.667 6 -53 18s-17 27 -17 45z" />
    <glyph glyph-name="uni047D" unicode="&#x47d;" horiz-adv-x="1595" 
d="M112 519c0 70.667 6.66895 137.167 20.002 199.5s34.333 116.5 63 162.5s65.334 82.333 110.001 109s98.334 40 161.001 40c24.667 0 46.834 -2 66.501 -6s38 -9.66699 55 -17s32.5 -16 46.5 -26s27.667 -21 41 -33l-20 -45c-5.33301 -8.66699 -12 -13 -20 -13
c-4.66699 0 -10.667 3 -18 9s-17 12.833 -29 20.5s-27 14.5 -45 20.5s-40.333 9 -67 9c-44.667 0 -83.834 -9.83301 -117.501 -29.5s-61.834 -48 -84.501 -85s-39.834 -82 -51.501 -135s-17.5 -113.5 -17.5 -181.5c0 -75.333 7.16699 -140.833 21.5 -196.5
s34.833 -102.334 61.5 -140.001s58.5 -65.834 95.5 -84.501s78.5 -28 124.5 -28c59.333 0 110 14.333 152 43s75.333 64.334 100 107.001h76c24.667 -43.333 58 -79.166 100 -107.499s93 -42.5 153 -42.5c46 0 87.5 9.33301 124.5 28s68.667 46.834 95 84.501
s46.666 84.5 60.999 140.5s21.5 121.333 21.5 196c0 67.333 -5.83301 127.666 -17.5 180.999s-28.834 98.5 -51.501 135.5s-50.834 65.333 -84.501 85s-72.834 29.5 -117.501 29.5c-26.667 0 -49 -3 -67 -9s-33 -12.833 -45 -20.5s-21.5 -14.5 -28.5 -20.5
s-12.833 -9 -17.5 -9c-8 0 -15 4.33301 -21 13l-20 45c26 24 55.167 43.667 87.5 59s72.833 23 121.5 23c62 0 115.5 -13.333 160.5 -40s81.833 -63 110.5 -109s49.834 -100 63.501 -162s20.5 -128.667 20.5 -200c0 -85.333 -9.16699 -160.833 -27.5 -226.5
s-44.5 -121.167 -78.5 -166.5s-74.667 -79.5 -122 -102.5s-100 -34.5 -158 -34.5c-62 0 -118.333 12 -169 36s-94.667 56.667 -132 98c-37.333 -40.667 -81.166 -73.167 -131.499 -97.5s-106.5 -36.5 -168.5 -36.5c-58.667 0 -111.834 11.5 -159.501 34.5
s-88.167 57.167 -121.5 102.5s-59.166 100.833 -77.499 166.5s-27.5 141.167 -27.5 226.5zM478.002 1308c0 32 5.33105 61.1621 15.998 87.4951s25.834 48.833 45.501 67.5s43.667 33.167 72 43.5s60.5 15.5 96.5 15.5c48 0 93.167 -8.16699 135.5 -24.5
s85 -34.666 128 -54.999s87.833 -38.666 134.5 -54.999s98 -24.5 154 -24.5v-55c-38.667 0 -75.334 3.83301 -110.001 11.5s-67.667 17.334 -99 29.001s-61.166 24.167 -89.499 37.5l-83.5 37.5c-27.333 11.667 -54.666 21.334 -81.999 29.001s-55 11.5 -83 11.5
c-53.333 0 -95 -14.167 -125 -42.5s-45 -66.166 -45 -113.499h-65zM749 1237c0 20.667 6.50098 37.165 19.501 49.498s30.5 18.5 52.5 18.5c24 0 43.167 -8.16699 57.5 -24.5s21.5 -42.833 21.5 -79.5c0 -20.667 -2.5 -40.667 -7.5 -60s-13.167 -36.666 -24.5 -51.999
s-26 -27.666 -44 -36.999s-39.667 -14 -65 -14v23c0 4 1.83301 7 5.5 9s9.16699 3.66699 16.5 5c22 5.33301 39.167 16.333 51.5 33s19.166 41.667 20.499 75c-10 -6 -21.333 -9 -34 -9c-24 0 -41.667 6 -53 18s-17 27 -17 45z" />
    <glyph glyph-name="uni047E" unicode="&#x47e;" horiz-adv-x="2200" 
d="M128 739c0 101.333 9.49512 195.997 28.4951 283.997s48.833 164.667 89.5 230s92.5 116.666 155.5 153.999s138.5 56 226.5 56c33.333 0 63.833 -2.66699 91.5 -8s52.834 -13.166 75.501 -23.499s44 -22.5 64 -36.5s38.667 -29 56 -45l-22 -48
c-3.33301 -5.33301 -6.66602 -9.16602 -9.99902 -11.499s-8 -3.5 -14 -3.5s-14 4.5 -24 13.5s-23.5 19 -40.5 30s-39 20.833 -66 29.5s-60.167 13 -99.5 13c-66.667 0 -125.334 -14.667 -176.001 -44s-93 -71.333 -127 -126s-59.833 -121.167 -77.5 -199.5
s-26.5 -166.833 -26.5 -265.5c0 -111.333 11.167 -208.333 33.5 -291s53.333 -151.667 93 -207s87.167 -96.833 142.5 -124.5s116.333 -41.5 183 -41.5c39.333 0 76.666 4.5 111.999 13.5s68.166 21.333 98.499 37s58.333 34.5 84 56.5s48.834 45.667 69.501 71v563h105
v-563c20.667 -25.333 43.834 -49 69.501 -71s53.667 -40.833 84 -56.5s63 -28 98 -37s72.5 -13.5 112.5 -13.5c66 0 126.833 13.833 182.5 41.5s103.334 69.167 143.001 124.5s70.5 124.333 92.5 207s33 179.667 33 291c0 98 -8.5 186.333 -25.5 265
s-42.5 145.334 -76.5 200.001s-76.333 96.667 -127 126s-109.334 44 -176.001 44c-40 0 -73.5 -4.33301 -100.5 -13s-49.167 -18.5 -66.5 -29.5s-31 -21 -41 -30s-18 -13.5 -24 -13.5c-5.33301 0 -9.66602 1 -12.999 3s-6.66602 6 -9.99902 12l-23 48
c18 16.667 36.833 31.834 56.5 45.501s41.167 25.667 64.5 36s48.666 18.166 75.999 23.499s58 8 92 8c87.333 0 162.333 -18.667 225 -56s114.334 -88.666 155.001 -153.999s70.667 -142 90 -230s29 -182.667 29 -284c0 -122.667 -13.167 -231.167 -39.5 -325.5
s-63.666 -173.333 -111.999 -237s-105.833 -111.667 -172.5 -144s-140.334 -48.5 -221.001 -48.5c-89.333 0 -170.166 18 -242.499 54s-134.166 84 -185.499 144c-52 -60 -113.833 -108 -185.5 -144s-152.167 -54 -241.5 -54c-81.333 0 -155.333 16.167 -222 48.5
s-124 80.333 -172 144s-85.167 142.667 -111.5 237s-39.5 202.833 -39.5 325.5zM681.995 1779l833.999 0.00488281v-12.5c0 -3.66699 -0.666992 -8.16699 -2 -13.5l-26 -130c-2 -8.66699 -7.33301 -12.834 -16 -12.501s-13.667 4.5 -15 12.5l-21 101h-302l-19 -101
c-2 -8.66699 -7.33301 -12.834 -16 -12.501s-14 4.5 -16 12.5l-19 101h-302l-21 -101c-2 -8.66699 -7.16699 -12.834 -15.5 -12.501s-13.833 4.5 -16.5 12.5l-24 130c-1.33301 5.33301 -2.16602 9.66602 -2.49902 12.999s-0.5 7.66602 -0.5 12.999z" />
    <glyph glyph-name="uni047F" unicode="&#x47f;" horiz-adv-x="1571" 
d="M139 659l0.000976562 360.007h62c11.333 0 19.666 -3.5 24.999 -10.5s8 -14.5 8 -22.5v-317c0 -119.333 21.333 -226.5 64 -321.5s105.667 -181.167 189 -258.5c36 33.333 69.5 72.833 100.5 118.5s57.667 94.5 80 146.5s39.833 105.167 52.5 159.5
s19 107.166 19 158.499v347h62c11.333 0 19.833 -3.5 25.5 -10.5s8.5 -14.5 8.5 -22.5v-311c0 -51.333 6 -104.333 18 -159s29.167 -107.834 51.5 -159.501s48.833 -100.834 79.5 -147.501s64.667 -87.334 102 -122.001c38 37.333 73.167 77.5 105.5 120.5
s60.333 89.5 84 139.5s42 103.667 55 161s19.5 119 19.5 185c0 45.333 -2.5 84.666 -7.5 117.999s-10.333 62.166 -16 86.499s-10.834 44 -15.501 59s-7 26.5 -7 34.5c0 7.33301 2.16699 13.833 6.5 19.5s10.5 8.5 18.5 8.5h68c12.667 -48 23.834 -99.167 33.501 -153.5
s14.5 -111.5 14.5 -171.5c0 -72 -7.33301 -140.333 -22 -205s-35.5 -126 -62.5 -184s-59.833 -112.333 -98.5 -163s-81.667 -98 -129 -142h-59c-6.66699 0 -12.167 1.33301 -16.5 4s-9.5 6.66699 -15.5 12c-28 26.667 -54.833 57.5 -80.5 92.5s-49.667 72.833 -72 113.5
s-42.333 83.167 -60 127.5s-32.167 88.833 -43.5 133.5c-10.667 -45.333 -24.667 -90 -42 -134s-37.333 -86.333 -60 -127s-47.167 -78.667 -73.5 -114s-53.833 -66.333 -82.5 -93c-4.66699 -5.33301 -8.5 -9.16602 -11.5 -11.499s-7.5 -3.5 -13.5 -3.5h-63
c-94 85.333 -167.667 183.666 -221 294.999s-80 232.666 -80 363.999zM369.001 1349.01l833.999 0.00488281v-12.5c0 -3.66699 -0.666992 -8.16699 -2 -13.5l-26 -130c-2 -8.66699 -7.33301 -12.834 -16 -12.501s-13.667 4.5 -15 12.5l-21 101h-302l-19 -101
c-2 -8.66699 -7.33301 -12.834 -16 -12.501s-14 4.5 -16 12.5l-19 101h-302l-21 -101c-2 -8.66699 -7.16699 -12.834 -15.5 -12.501s-13.833 4.5 -16.5 12.5l-24 130c-1.33301 5.33301 -2.16602 9.66602 -2.49902 12.999s-0.5 7.66602 -0.5 12.999z" />
    <glyph glyph-name="uni0480" unicode="&#x480;" horiz-adv-x="1311" 
d="M120 725c0 110 17.0039 210.333 51.0039 301s81.833 168.667 143.5 234s135.5 115.833 221.5 151.5s180.667 53.5 284 53.5c100 0 188 -15.333 264 -46s145.333 -74 208 -130l-31 -46c-5.33301 -8 -14 -12 -26 -12c-8 0 -21.333 7.5 -40 22.5s-44.334 31.5 -77.001 49.5
s-73.334 34.5 -122.001 49.5s-107.334 22.5 -176.001 22.5c-87.333 0 -167.166 -15 -239.499 -45s-134.833 -73 -187.5 -129s-93.5 -124.167 -122.5 -204.5s-43.5 -170.833 -43.5 -271.5c0 -102.667 14.667 -194.167 44 -274.5s69.833 -148.5 121.5 -204.5
s112.834 -98.833 183.501 -128.5s147.667 -44.5 231 -44.5c25.333 0 47.166 1 65.499 3s33.833 4 46.5 6s23.5 4 32.5 6s16.833 3 23.5 3h31v-422c0 -10 -2.83301 -18 -8.5 -24s-13.167 -9 -22.5 -9h-57v356c-18.667 -2 -39 -3.66699 -61 -5s-40.667 -2 -56 -2
c-100.667 0 -192.834 17.5 -276.501 52.5s-155.334 84.833 -215.001 149.5s-106.167 142.5 -139.5 233.5s-50 192.5 -50 304.5z" />
    <glyph glyph-name="uni0481" unicode="&#x481;" horiz-adv-x="919" 
d="M106 510c0 78 10.3369 149 31.0039 213s50.834 119.167 90.501 165.5s88 82.333 145 108s122.167 38.5 195.5 38.5c66 0 124.667 -10.5 176 -31.5s96.333 -49.5 135 -85.5l-26 -35c-3.33301 -3.33301 -6.5 -6.33301 -9.5 -9s-7.5 -4 -13.5 -4
c-6.66699 0 -15.834 4.66699 -27.501 14s-27.334 19.5 -47.001 30.5s-44.334 21 -74.001 30s-65.834 13.5 -108.501 13.5c-58.667 0 -110.667 -10.333 -156 -31s-83.666 -50.5 -114.999 -89.5s-55 -86.167 -71 -141.5s-24 -117.333 -24 -186c0 -72 8.33301 -135.5 25 -190.5
s40.334 -101.5 71.001 -139.5s67.834 -67 111.501 -87s92.167 -30 145.5 -30c20.667 0 38 1.16699 52 3.5s25.833 4.5 35.5 6.5s17.334 4 23.001 6s10.167 3 13.5 3h36v-414c0 -21.333 -10.333 -32 -31 -32h-56v358c-14.667 -2.66699 -29.334 -4.5 -44.001 -5.5
s-29.334 -1.5 -44.001 -1.5c-64.667 0 -123.834 11.667 -177.501 35s-99.834 57.333 -138.501 102s-68.834 99.5 -90.501 164.5s-32.5 138.833 -32.5 221.5z" />
    <glyph glyph-name="uni0482" unicode="&#x482;" horiz-adv-x="1472" 
d="M77 709l48 72l407 -281l344 498l-407 281l48 74l409 -283l268 389l80 -53l-269 -390l392 -270l-48 -73l-395 271l-343 -499l393 -269l-49 -74l-393 272l-267 -388l-80 53l268 389z" />
    <glyph glyph-name="uni0483" unicode="&#x483;" horiz-adv-x="819" 
d="M5 1214c0 28.667 8.5 49.002 25.5 61.002s37.833 18 62.5 18h595v84h39c10.667 0 21.334 -1.5 32.001 -4.5s20.167 -7.5 28.5 -13.5s14.833 -13.833 19.5 -23.5s7 -20.834 7 -33.501c0 -28.667 -8.66699 -49 -26 -61s-38 -18 -62 -18h-595v-84h-39
c-22.667 0 -42.834 6.16699 -60.501 18.5s-26.5 31.166 -26.5 56.499z" />
    <glyph glyph-name="uni0484" unicode="&#x484;" horiz-adv-x="819" 
d="M18 1176l0.000976562 60.999c55.333 0 106.666 8.5 153.999 25.5s93.333 35.833 138 56.5s89.834 39.5 135.501 56.5s95.167 25.5 148.5 25.5c70 0 124.167 -20.5 162.5 -61.5s57.5 -95.5 57.5 -163.5h-73c0 26.667 -4 50 -12 70s-18.833 36.833 -32.5 50.5
s-29.834 23.834 -48.501 30.501s-38.667 10 -60 10c-32.667 0 -63.667 -3.83301 -93 -11.5s-58.166 -17.667 -86.499 -30l-85.5 -39c-28.667 -13.667 -58.834 -26.667 -90.501 -39s-65 -22.333 -100 -30s-73.167 -11.5 -114.5 -11.5z" />
    <glyph glyph-name="uni0485" unicode="&#x485;" horiz-adv-x="819" 
d="M341 1366c0 38.667 8.00391 66.333 24.0039 83s37 25 63 25c24.667 0 44.167 -6.83301 58.5 -20.5s21.5 -31.834 21.5 -54.501c0 -20 -6.33301 -36.5 -19 -49.5s-32.334 -19.5 -59.001 -19.5c-14.667 0 -26.334 2.33301 -35.001 7
c1.33301 -33.333 8.33301 -58.333 21 -75s31 -27.667 55 -33c17.333 -4 26 -10 26 -18v-25c-28 0 -51.833 5.33301 -71.5 16s-35.834 24.334 -48.501 41.001s-21.834 35.667 -27.501 57s-8.5 43.333 -8.5 66z" />
    <glyph glyph-name="uni0486" unicode="&#x486;" horiz-adv-x="819" 
d="M341 1392c0 22 7.16699 39.8311 21.5 53.498s33.5 20.5 57.5 20.5c26.667 0 48 -9 64 -27s24 -46.333 24 -85c0 -22.667 -3 -44.667 -9 -66s-15.167 -40.166 -27.5 -56.499s-28.5 -29.166 -48.5 -38.499s-44 -14 -72 -14v24c0 5.33301 2.33301 9.33301 7 12
s11.334 4.66699 20.001 6c23.333 5.33301 41.333 16.333 54 33s19.667 42 21 76c-10.667 -5.33301 -22.334 -8 -35.001 -8c-26 0 -45.333 6.66699 -58 20s-19 30 -19 50z" />
    <glyph glyph-name="uni0488" unicode="&#x488;" horiz-adv-x="2258" 
d="M139 595c0 68 17.499 120.833 52.499 158.5s86.167 56.5 153.5 56.5c68 0 119.5 -18.833 154.5 -56.5s52.5 -90.5 52.5 -158.5h-71c0 49.333 -10.833 86.666 -32.5 111.999s-56.167 38 -103.5 38s-81.666 -12.667 -102.999 -38s-32 -62.666 -32 -111.999h-71z
M333.999 129c0 68 17.501 120.833 52.501 158.5s86.5 56.5 154.5 56.5s119.167 -18.833 153.5 -56.5s51.5 -90.5 51.5 -158.5h-70c0 49.333 -10.833 86.833 -32.5 112.5s-55.834 38.5 -102.501 38.5c-47.333 0 -82 -12.833 -104 -38.5s-33 -63.167 -33 -112.5h-70zM334 1061
c0 68 17.501 120.833 52.501 158.5s86.5 56.5 154.5 56.5s119.167 -18.833 153.5 -56.5s51.5 -90.5 51.5 -158.5h-70c0 49.333 -10.833 86.666 -32.5 111.999s-55.834 38 -102.501 38c-47.333 0 -82 -12.667 -104 -38s-33 -62.666 -33 -111.999h-70zM923.001 -183
c0 68 17.333 120.835 52 158.502s86 56.5 154 56.5s119.333 -18.833 154 -56.5s52 -90.5 52 -158.5h-70c0 49.333 -10.833 86.666 -32.5 111.999s-56.167 38 -103.5 38s-81.833 -12.833 -103.5 -38.5s-32.5 -62.834 -32.5 -111.501h-70zM923.001 1373
c0 68 17.333 120.833 52 158.5s86 56.5 154 56.5s119.333 -18.667 154 -56s52 -90.333 52 -159h-70c0 49.333 -10.833 86.833 -32.5 112.5s-56.167 38.5 -103.5 38.5s-81.833 -12.833 -103.5 -38.5s-32.5 -63.167 -32.5 -112.5h-70zM1511 129.002
c0 68 17.499 120.833 52.499 158.5s86.5 56.5 154.5 56.5s119.333 -18.833 154 -56.5s52 -90.5 52 -158.5h-71c0 49.333 -10.667 86.833 -32 112.5s-55.666 38.5 -102.999 38.5s-81.833 -12.833 -103.5 -38.5s-32.5 -63.167 -32.5 -112.5h-71zM1511 1061
c0 68 17.499 120.833 52.499 158.5s86.5 56.5 154.5 56.5s119.333 -18.833 154 -56.5s52 -90.5 52 -158.5h-71c0 49.333 -10.667 86.666 -32 111.999s-55.666 38 -102.999 38s-81.833 -12.667 -103.5 -38s-32.5 -62.666 -32.5 -111.999h-71zM1707 595.002
c0 68 17.333 120.833 52 158.5s86 56.5 154 56.5s119.333 -18.833 154 -56.5s52 -90.5 52 -158.5h-71c0 49.333 -10.833 86.666 -32.5 111.999s-55.834 38 -102.501 38c-47.333 0 -81.666 -12.667 -102.999 -38s-32 -62.666 -32 -111.999h-71z" />
    <glyph glyph-name="uni0489" unicode="&#x489;" horiz-adv-x="2191" 
d="M114 772l12.999 14c5.33301 6 10.666 9 15.999 9c2 0 4.5 -0.833008 7.5 -2.5s5.83301 -3.83398 8.5 -6.50098c6 -5.33301 15.5 -13.333 28.5 -24s28.333 -21.334 46 -32.001s37.667 -20.5 60 -29.5s46.166 -14.833 71.499 -17.5c-4 8.66699 -6.33301 19.667 -7 33
c0.666992 24 9 43.5 25 58.5s36.667 22.833 62 23.5c22.667 -0.666992 42.334 -8.66699 59.001 -24s25 -35.666 25 -60.999c0 -28 -9.66699 -49.667 -29 -65s-44.333 -23 -75 -23c-55.333 0 -110.666 13.333 -165.999 40s-103.666 62.334 -144.999 107.001zM322.999 36
l0.000976562 18.9971c-0.666992 6.66699 1.33301 12.334 6 17.001c3.33301 3.33301 8.66602 5 15.999 5c8 0.666992 20.333 1.83398 37 3.50098s35.167 5 55.5 10s41.5 12.333 63.5 22s42.667 22.5 62 38.5c-8 2.66699 -16.667 8.66699 -26 18
c-16.667 17.333 -24.667 37 -24 59s10 42.333 28 61c8 7.33301 17 13 27 17s20.167 6.16699 30.5 6.5s20.833 -1.5 31.5 -5.5s20.334 -10.333 29.001 -19c20 -20 28.5 -42.5 25.5 -67.5s-15.5 -48.167 -37.5 -69.5c-38.667 -38.667 -86.834 -68.167 -144.501 -88.5
s-117.5 -29.166 -179.5 -26.499zM485 1442l21.001 1.00293c7.33301 0 12.666 -2 15.999 -6c3.33301 -3.33301 5 -9 5 -17c0.666992 -8.66699 2 -21.334 4 -38.001s5.5 -35.167 10.5 -55.5s12.167 -41.5 21.5 -63.5s22 -42.667 38 -62c2.66699 8 9 17 19 27
c17.333 17.333 36.833 25.666 58.5 24.999s41.5 -10 59.5 -28c16 -16.667 24.333 -36.334 25 -59.001s-8 -43 -26 -61c-20 -20 -42.167 -28.5 -66.5 -25.5s-47.5 15.5 -69.5 37.5c-38.667 38.667 -68.167 87 -88.5 145s-29.5 118 -27.5 180zM968.001 -4
c0 22.667 7.83105 42.1689 23.498 58.502s36.167 24.5 61.5 24.5c28 0 49.667 -9.83301 65 -29.5s23 -44.834 23 -75.501c0 -55.333 -13.5 -110.333 -40.5 -165s-63.167 -103.334 -108.5 -146.001l-14 13c-5.33301 5.33301 -7.66602 11 -6.99902 17
c0 4.66699 2.66699 9.66699 8 15l23.5 29.5c10.333 13 21 28.5 32 46.5s20.833 38 29.5 60s14.334 45.333 17.001 70c-10 -3.33301 -20.333 -5 -31 -5c-24 0 -43.667 8 -59 24s-23 37 -23 63zM1074 1340c0 55.333 13.502 110.499 40.502 165.499s63.167 103.833 108.5 146.5
l14 -14c5.33301 -5.33301 7.66602 -10.666 6.99902 -15.999c0 -4 -2.33301 -9 -7 -15l-24 -29.5c-10.667 -13 -21.5 -28.5 -32.5 -46.5s-20.833 -38 -29.5 -60s-14.334 -45.333 -17.001 -70c8.66699 3.33301 19 5 31 5c24 0 43.667 -8 59 -24s23.333 -37 24 -63
c-0.666992 -22.667 -8.66699 -42.167 -24 -58.5s-36 -24.5 -62 -24.5c-28 0 -49.667 9.66699 -65 29s-23 44.333 -23 75zM1452.5 149.001c-0.333008 10.667 1.49512 21.3291 5.49512 31.9961s10.667 20.334 20 29.001c20 20 42.167 28.333 66.5 25
s47.5 -15.666 69.5 -36.999c38.667 -38.667 68.334 -87 89.001 -145s29.667 -118 27 -180l-21 -1c-7.33301 0 -12.666 2 -15.999 6c-2 2 -3.66699 7.66699 -5 17c-0.666992 8.66699 -2 21.334 -4 38.001s-5.5 35 -10.5 55s-12.167 40.833 -21.5 62.5
s-21.666 42.5 -36.999 62.5c-4.66699 -9.33301 -11 -18 -19 -26c-17.333 -17.333 -37 -25.666 -59 -24.999s-42 10 -60 28c-7.33301 8 -13.166 17.167 -17.499 27.5s-6.66602 20.833 -6.99902 31.5zM1530.5 1094.5c3 25 15.498 48.168 37.498 69.501
c38.667 38.667 86.834 68.167 144.501 88.5s117.5 29.166 179.5 26.499v-19c0.666992 -6.66699 -1.33301 -12.334 -6 -17.001c-2 -3.33301 -7.33301 -5 -16 -5c-8.66699 -0.666992 -21.334 -1.83398 -38.001 -3.50098s-35 -5 -55 -10s-41 -12.333 -63 -22
s-42.667 -22.5 -62 -38.5c7.33301 -3.33301 16 -9.33301 26 -18c16.667 -17.333 24.667 -37 24 -59s-10 -42.333 -28 -61c-8 -7.33301 -17 -13.166 -27 -17.499s-20.167 -6.66602 -30.5 -6.99902s-20.666 1.66699 -30.999 6s-20.166 10.833 -29.499 19.5
c-20 20 -28.5 42.5 -25.5 67.5zM1685.99 601.997c0.666992 28 10.665 49.668 29.998 65.001s44.333 23 75 23c27.333 0 55 -3.5 83 -10.5s55.333 -16.833 82 -29.5s52.5 -28 77.5 -46s47.833 -38.333 68.5 -61l-14 -15c-5.33301 -6 -10.333 -8.66699 -15 -8
c-2.66699 0 -5.33398 0.833008 -8 2.5c-2.66699 1.66699 -5.33398 3.5 -8 5.5l-29.5 24c-13 10.667 -28.5 21.5 -46.5 32.5s-38.167 21 -60.5 30s-46.166 14.833 -71.499 17.5c3.33301 -8 6 -19 8 -33c-0.666992 -24 -9.16699 -43.5 -25.5 -58.5
s-37.166 -22.833 -62.499 -23.5c-22.667 0.666992 -42.167 8.66699 -58.5 24s-24.5 35.666 -24.5 60.999z" />
    <glyph glyph-name="uni048A" unicode="&#x48a;" horiz-adv-x="1591" 
d="M214 0l0.000976562 1449h105v-1190c0 -22 -0.333008 -44.333 -1 -67s-2.66699 -46.334 -6 -71.001c9.33301 21.333 18.833 40.666 28.5 57.999s19.5 33.666 29.5 48.999l837 1188c5.33301 8.66699 12.166 16.334 20.499 23.001s17.5 10 27.5 10h77v-1365h196l-148 -448
h-102l126 364h-177v1190c0 22 0.333008 44.333 1 67s2.66699 46.334 6 71.001c-9.33301 -21.333 -18.833 -40.666 -28.5 -57.999s-19.167 -33.333 -28.5 -48l-837 -1189c-5.33301 -8.66699 -12.333 -16.334 -21 -23.001s-18 -10 -28 -10h-77zM514.001 1772
c0 9.33301 2.33496 17.166 7.00195 23.499s11 9.5 19 9.5h54c0 -68.667 13.667 -118.334 41 -149.001s72 -46 134 -46c61.333 0 105.666 15.333 132.999 46s41 80.334 41 149.001h55c7.33301 0 13.333 -3.16699 18 -9.5s7 -14.166 7 -23.499
c0 -65.333 -21.167 -117 -63.5 -155s-105.833 -57 -190.5 -57s-148.334 18.833 -191.001 56.5s-64 89.5 -64 155.5z" />
    <glyph glyph-name="uni048B" unicode="&#x48b;" horiz-adv-x="1216" 
d="M168 0l0.000976562 1019h98v-821c0 -9.33301 -0.333008 -19.5 -1 -30.5s-1.66699 -21.833 -3 -32.5c4 8.66699 8.5 17 13.5 25l13.5 21c0.666992 1.33301 10 14 28 38l70.5 94l98 130.5l111.5 148.5l302 401c4 6.66699 9.33301 12.667 16 18s13.667 8 21 8h56v-944h193
l-146 -439h-92l127 364h-179v821c0 20 1 41 3 63c-4 -9.33301 -8.33301 -17.833 -13 -25.5s-9.33398 -14.5 -14.001 -20.5c-1.33301 -1.33301 -10.833 -14.166 -28.5 -38.499l-70 -94l-98 -130l-111.5 -148.5l-302 -402c-4 -6 -9.16699 -11.667 -15.5 -17s-13.5 -8 -21.5 -8
h-56zM334.001 1415c0 9.33301 2.33496 17.333 7.00195 24s10.667 10 18 10h55c0 -68.667 13.667 -118.667 41 -150s72 -47 134 -47c61.333 0 105.666 15.667 132.999 47s41 81.333 41 150h55c7.33301 0 13.333 -3.16699 18 -9.5s7 -14.5 7 -24.5
c0 -65.333 -21.167 -117.833 -63.5 -157.5s-105.833 -59.5 -190.5 -59.5s-148.334 19.833 -191.001 59.5s-64 92.167 -64 157.5z" />
    <glyph glyph-name="uni048C" unicode="&#x48c;" horiz-adv-x="1308" 
d="M45 1112v81h258v256h106v-256h351v-81h-351v-318h339c80.667 0 151.167 -8.83301 211.5 -26.5s110.333 -43 150 -76s69.5 -73 89.5 -120s30 -100.167 30 -159.5c0 -63.333 -10.833 -120.5 -32.5 -171.5s-53 -94.333 -94 -130s-91.5 -63 -151.5 -82
s-128.667 -28.5 -206 -28.5h-442v1112h-258zM409 84l336 0.000976562c126.667 0 221.5 28.167 284.5 84.5s94.5 134.166 94.5 233.499c0 102 -31 178.833 -93 230.5s-156.333 77.5 -283 77.5h-339v-626z" />
    <glyph glyph-name="uni048D" unicode="&#x48d;" horiz-adv-x="1051" 
d="M52 814v73h203v140h93v-140h238v-73h-238v-223h262c69.333 0 127.666 -8.16699 174.999 -24.5s85 -38 113 -65s48 -58 60 -93s18 -70.833 18 -107.5c0 -43.333 -7.66699 -83.333 -23 -120s-38.166 -68.5 -68.499 -95.5s-67.833 -48 -112.5 -63s-97 -22.5 -157 -22.5h-360
v814h-203zM348 73l266.999 -0.00292969c46.667 0 87 5.5 121 16.5s62.333 26.667 85 47s39.5 44.333 50.5 72s16.5 57.834 16.5 90.501c0 30 -4.66699 58.333 -14 85s-24.666 49.834 -45.999 69.501s-49.833 35.334 -85.5 47.001s-79.5 17.5 -131.5 17.5h-263v-445z" />
    <glyph glyph-name="uni048E" unicode="&#x48e;" horiz-adv-x="1183" 
d="M214 0l-0.000976562 1449h375c170 0 298.167 -37.167 384.5 -111.5s129.5 -180.5 129.5 -318.5c0 -87.333 -21.667 -164 -65 -230s-104.666 -117 -183.999 -153l105 -158l-64 -43l-115 173c-57.333 -16.667 -121 -24.667 -191 -24h-270v-584h-105zM318.999 668h270
c50 0 97 5.66699 141 17l-116 175l65 42l125 -190c62 30 109.667 71.5 143 124.5s50 113.833 50 182.5c0 111.333 -34 197 -102 257s-170 90 -306 90h-270v-698z" />
    <glyph glyph-name="uni048F" unicode="&#x48f;" horiz-adv-x="1128" 
d="M168 -360v1379h54c17.333 0 27.333 -8.66699 30 -26l9 -157c45.333 61.333 98.333 110 159 146s128.667 54 204 54c124.667 0 222 -43.333 292 -130s105 -216.667 105 -390c0 -103.333 -18.167 -195.666 -54.5 -276.999s-89.5 -144.666 -159.5 -189.999l108 -164l-64 -43
l-115 172c-24 -8.66699 -49.167 -15.334 -75.5 -20.001s-54.166 -7 -83.499 -7c-68.667 0 -128.334 12.5 -179.001 37.5s-94.667 62.167 -132 111.5v-496h-98zM266 221.999c38.667 -58.667 81.667 -99.832 129 -123.499s101.666 -35.5 162.999 -35.5
c24.667 0 47.834 2 69.501 6s42.5 9.66699 62.5 17l-120 181l65 42l124 -188c54 37.333 94.5 90 121.5 158s40.5 147 40.5 237c0 151.333 -28 262.666 -84 333.999s-136.333 107 -241 107c-67.333 0 -128.333 -17.333 -183 -52s-103.667 -83 -147 -145v-538z" />
    <glyph glyph-name="afii10050" unicode="&#x490;" horiz-adv-x="1092" 
d="M214 0v1449h765v334h83v-418h-743v-1365h-105z" />
    <glyph glyph-name="afii10098" unicode="&#x491;" horiz-adv-x="827" 
d="M168 0v1019h538v262h88v-337h-528v-944h-98z" />
    <glyph glyph-name="uni0492" unicode="&#x492;" horiz-adv-x="1185" 
d="M45 727v82h258v640h848v-84h-742v-556h350v-82h-350v-727h-106v727h-258z" />
    <glyph glyph-name="uni0493" unicode="&#x493;" horiz-adv-x="915" 
d="M54 515v73h202v431h625v-75h-527v-356h234v-73h-234v-515h-98v515h-202z" />
    <glyph glyph-name="uni0494" unicode="&#x494;" horiz-adv-x="1287" 
d="M214 0l-0.00292969 1449h848v-84h-743v-607c46 29.333 97 52.666 153 69.999s119.333 26 190 26c75.333 0 145 -10.167 209 -30.5s119.5 -53.666 166.5 -99.999s83.833 -107 110.5 -182s40 -166.833 40 -275.5c0 -104 -13.167 -195.833 -39.5 -275.5
s-62.833 -147 -109.5 -202s-102.5 -96.667 -167.5 -125s-136.167 -42.5 -213.5 -42.5c-30.667 0 -61.667 2.5 -93 7.5s-63.666 12.5 -96.999 22.5c0.666992 9.33301 1.5 18.833 2.5 28.5s2.16699 19.167 3.5 28.5c1.33301 6 3.83301 11.5 7.5 16.5s10.5 7.5 20.5 7.5
c6 0 13.333 -1.16699 22 -3.5l30 -8c11.333 -3 24.833 -5.66699 40.5 -8s33.834 -3.5 54.501 -3.5c64.667 0 124 11.667 178 35s100.333 58 139 104s68.834 103.833 90.501 173.5s32.5 150.5 32.5 242.5c0 94.667 -10.833 174.834 -32.5 240.501
s-52.167 118.834 -91.5 159.501s-86.333 69.834 -141 87.501s-115 26.5 -181 26.5c-42 0 -79.833 -3.16699 -113.5 -9.5s-63.5 -14.666 -89.5 -24.999s-48.833 -21.333 -68.5 -33s-37.167 -22.5 -52.5 -32.5v-678h-105z" />
    <glyph glyph-name="uni0495" unicode="&#x495;" horiz-adv-x="977" 
d="M168 0l0.00195312 1019h625v-75h-527v-445c32.667 26 69.667 46.667 111 62s88.666 23 141.999 23c55.333 0 105.833 -9.5 151.5 -28.5s84.834 -47.5 117.501 -85.5s58 -85.667 76 -143s27 -124.666 27 -201.999c0 -78.667 -10 -149.167 -30 -211.5
s-47.333 -115.166 -82 -158.499s-75.667 -76.666 -123 -99.999s-98.333 -35 -153 -35c-44.667 0 -90.667 7.33301 -138 22c1.33301 9.33301 2.5 17 3.5 23s1.83301 14 2.5 24c1.33301 5.33301 3.66602 10 6.99902 14s9 6 17 6c8.66699 0 20.667 -2.5 36 -7.5
s36.333 -7.5 63 -7.5c43.333 0 83.166 8.83301 119.499 26.5s67.833 44.5 94.5 80.5s47.667 80.667 63 134s23 115.666 23 186.999c0 70 -7.5 129.667 -22.5 179s-36 89.5 -63 120.5s-59.5 53.5 -97.5 67.5s-79.667 21 -125 21c-28.667 0 -54.167 -2.5 -76.5 -7.5
s-42.5 -11.333 -60.5 -19s-33.667 -16 -47 -25l-36 -24.5v-434h-98z" />
    <glyph glyph-name="uni0496" unicode="&#x496;" horiz-adv-x="2163" 
d="M37 0l493.008 645c19.333 28 40.666 50.333 63.999 67s50.333 29 81 37c-28.667 7.33301 -53.167 18.666 -73.5 33.999s-39.5 35.666 -57.5 60.999l-483 605h81c11.333 0 22.166 -3 32.499 -9s19.166 -14.667 26.499 -26l446 -558c12 -16 24.333 -28.833 37 -38.5
s25.667 -17.334 39 -23.001s27.166 -9.5 41.499 -11.5s30.166 -3 47.499 -3h165v669h100v-669h165c17.333 0 33.333 1 48 3s28.667 5.83301 42 11.5s26.166 13.5 38.499 23.5s24.5 22.667 36.5 38l446 558c6.66699 10.667 15.167 19.167 25.5 25.5s21.833 9.5 34.5 9.5h80
l-483 -605c-18.667 -25.333 -38 -45.666 -58 -60.999s-44.333 -26.666 -73 -33.999c30.667 -7.33301 57.667 -19.5 81 -36.5s44.666 -39.5 63.999 -67.5l430 -561h199v-414c0 -10 -3.16699 -18.167 -9.5 -24.5s-14.833 -9.5 -25.5 -9.5h-61v364h-108
c-16 0 -30 3.66699 -42 11s-21.667 16.666 -29 27.999l-455 581c-20 26 -42 45.5 -66 58.5s-55.333 19.5 -94 19.5h-186v-698h-100v698h-184c-39.333 0 -71.333 -6.66699 -96 -20s-46.334 -32.666 -65.001 -57.999l-455 -581c-7.33301 -11.333 -17 -20.666 -29 -27.999
s-26 -11 -42 -11h-69z" />
    <glyph glyph-name="uni0497" unicode="&#x497;" horiz-adv-x="1665" 
d="M37 0l304.001 424c18.667 28 39.5 50.333 62.5 67s50.5 28.334 82.5 35.001c-26.667 8 -49.167 19.833 -67.5 35.5s-35.166 34.167 -50.499 55.5l-300 402h75c22 0 38.667 -9.66699 50 -29l270 -362c17.333 -24 38.666 -42.833 63.999 -56.5s52.333 -20.5 81 -20.5h115
v469h95v-469h114c28.667 0 56 6.83301 82 20.5s47.333 32.5 64 56.5l271 362c10.667 19.333 27 29 49 29h75l-299 -402c-16 -22 -33.333 -40.5 -52 -55.5s-41.334 -26.833 -68.001 -35.5c32 -6.66699 59.5 -18.334 82.5 -35.001s44.167 -39 63.5 -67l250 -349h196v-406
c0 -10 -2.83301 -18 -8.5 -24s-13.167 -9 -22.5 -9h-57v364h-122c-18 0 -32.167 2.66699 -42.5 8s-18.5 14.333 -24.5 27l-257 361c-20 28.667 -44 50.334 -72 65.001s-59.333 22 -94 22h-128v-484h-95v484h-128c-34.667 0 -66 -7.33301 -94 -22s-52 -36.334 -72 -65.001
l-258 -361c-5.33301 -12 -13.333 -20.833 -24 -26.5s-25 -8.5 -43 -8.5h-67z" />
    <glyph glyph-name="uni0498" unicode="&#x498;" horiz-adv-x="1163" 
d="M67 175l28.001 44.9941c8 10 17.667 15.333 29 16c6.66699 0 15.167 -4.16699 25.5 -12.5l38 -30.5c15 -12 32.833 -25 53.5 -39s45.167 -27 73.5 -39s60.666 -22 96.999 -30s77.833 -12 124.5 -12c64 0 121 8.5 171 25.5s92.333 40.833 127 71.5s61 67 79 109
s27 88 27 138c0 44.667 -8 86.167 -24 124.5s-39.667 71.833 -71 100.5s-69.666 51.167 -114.999 67.5s-97.333 24.5 -156 24.5h-190v88h195c41.333 0 81.166 6.16699 119.499 18.5s72 30.333 101 54s52 52.334 69 86.001s25.5 72.5 25.5 116.5
c0 40.667 -8.16699 78.167 -24.5 112.5s-39.5 63.833 -69.5 88.5s-66.833 43.834 -110.5 57.501s-92.5 20.5 -146.5 20.5c-41.333 0 -78.166 -3 -110.499 -9s-61 -13.5 -86 -22.5s-46.5 -19 -64.5 -30s-33.5 -20.833 -46.5 -29.5l-33 -22.5
c-9 -6.33301 -16.5 -9.5 -22.5 -9.5c-10.667 0 -19.334 6 -26.001 18l-25 46c54 48 114 84.333 180 109s143 37 231 37c69.333 0 132 -9 188 -27s103.667 -43 143 -75s69.5 -70 90.5 -114s31.5 -91.667 31.5 -143c0 -40 -6.16699 -77.167 -18.5 -111.5
s-29.166 -65.166 -50.499 -92.499s-46.833 -51 -76.5 -71s-61.5 -36.333 -95.5 -49c45.333 -13.333 85.666 -31.666 120.999 -54.999s65.333 -50.5 90 -81.5s43.667 -65.167 57 -102.5s20 -76.666 20 -117.999c0 -55.333 -9.16699 -107.166 -27.5 -155.499
s-45.166 -91.666 -80.499 -129.999s-78.833 -70.166 -130.5 -95.499s-110.5 -42 -176.5 -50c35.333 -16 63.333 -38.167 84 -66.5s31 -60.833 31 -97.5c0 -26 -4.33301 -49.833 -13 -71.5s-21 -40.834 -37 -57.501s-35.333 -29.5 -58 -38.5s-47.334 -13.5 -74.001 -13.5
c-32 0 -62.333 4.83301 -91 14.5s-52.667 22.834 -72 39.501l17 35c2 5.33301 6.33301 8 13 8c3.33301 0 7.5 -1.83301 12.5 -5.5s12 -7.66699 21 -12s20 -8.33301 33 -12s29.167 -5.5 48.5 -5.5c38.667 0 69.667 12.5 93 37.5s35 58.167 35 99.5
c0 33.333 -8.5 62.833 -25.5 88.5s-43.167 43.167 -78.5 52.5c-5.33301 0 -10.333 -0.166992 -15 -0.5s-9.66699 -0.5 -15 -0.5c-52.667 0 -101.334 4.33301 -146.001 13s-86.167 21.167 -124.5 37.5s-73.666 36.166 -105.999 59.499s-62.5 49.666 -90.5 78.999z" />
    <glyph glyph-name="uni0499" unicode="&#x499;" horiz-adv-x="915" 
d="M78 131l24.9922 33.001c5.33301 6.66699 12.333 10 21 10c8 0 18.667 -5.83301 32 -17.5s31.5 -24.334 54.5 -38.001s51.333 -26.334 85 -38.001s74.834 -17.5 123.501 -17.5c45.333 0 86 5.66699 122 17s67 27.166 93 47.499s46 44.5 60 72.5s21 58.667 21 92
c0 31.333 -6.66699 60.166 -20 86.499s-33.166 48.833 -59.499 67.5s-59 33.334 -98 44.001s-83.833 16 -134.5 16h-114v67h114c44 0 84 5 120 15s66.333 23.667 91 41s43.834 37.833 57.501 61.5s20.5 49.5 20.5 77.5c0 24.667 -5.5 48.334 -16.5 71.001s-27.667 43 -50 61
s-50.833 32.167 -85.5 42.5s-75.334 15.5 -122.001 15.5c-45.333 0 -84 -4.33301 -116 -13s-58.667 -18.5 -80 -29.5s-38.166 -21 -50.499 -30s-21.833 -13.5 -28.5 -13.5c-5.33301 0 -9.66602 1.16699 -12.999 3.5s-6.66602 6.16602 -9.99902 11.499l-23 36
c36 33.333 80.833 60.333 134.5 81s116.834 31 189.501 31c60 0 112.5 -7.5 157.5 -22.5s82.5 -34.5 112.5 -58.5s52.333 -51.5 67 -82.5s22 -62.167 22 -93.5c0 -22 -3.83301 -44.667 -11.5 -68s-20.167 -45.833 -37.5 -67.5s-40.5 -41.167 -69.5 -58.5
s-63.833 -30.333 -104.5 -39c82 -17.333 144.333 -49 187 -95s64 -101 64 -165c0 -37.333 -7.16699 -72.166 -21.5 -104.499s-34.333 -61 -60 -86s-56.167 -45.833 -91.5 -62.5s-74 -28.667 -116 -36c38 -14.667 68.333 -36.667 91 -66s34 -63.333 34 -102
c0 -26 -4.5 -49.833 -13.5 -71.5s-21.5 -40.834 -37.5 -57.501s-35.167 -29.5 -57.5 -38.5s-46.833 -13.5 -73.5 -13.5c-32 0 -62.333 4.83301 -91 14.5s-52.667 22.834 -72 39.501l16 35c2.66699 5.33301 7.33398 8 14.001 8c3.33301 0 7.5 -1.83301 12.5 -5.5
s12 -7.66699 21 -12s20 -8.33301 33 -12s28.833 -5.5 47.5 -5.5c38.667 0 69.667 12.5 93 37.5s35 58.167 35 99.5c0 34.667 -8.83301 65 -26.5 91s-45.167 43.333 -82.5 52c-6 -0.666992 -12.167 -1.16699 -18.5 -1.5s-12.5 -0.5 -18.5 -0.5
c-37.333 0 -73.5 3.5 -108.5 10.5s-67.5 17 -97.5 30s-57.167 28.333 -81.5 46s-44.166 36.834 -59.499 57.501z" />
    <glyph glyph-name="uni049A" unicode="&#x49a;" horiz-adv-x="1415" 
d="M214 0l-0.00488281 1449h105v-669h167c17.333 0 33 1 47 3s27.333 5.66699 40 11s24.834 12.666 36.501 21.999s23.5 21.666 35.5 36.999l455 563c6.66699 9.33301 14.834 17.166 24.501 23.499s20.5 9.5 32.5 9.5h85l-493 -613c-18 -23.333 -36.667 -41.833 -56 -55.5
s-42 -24.167 -68 -31.5c30.667 -7.33301 56.167 -19.166 76.5 -35.499s40.5 -38.166 60.5 -65.499l452 -564h193v-414c0 -10 -3.16699 -18.167 -9.5 -24.5s-15.166 -9.5 -26.499 -9.5h-60v364h-119c-13.333 0 -24.5 3 -33.5 9s-18.5 16 -28.5 30l-476 588
c-9.33301 12 -18.666 22.667 -27.999 32s-19.5 16.833 -30.5 22.5s-23.667 9.83398 -38 12.501s-31.166 4 -50.499 4h-188v-698h-105z" />
    <glyph glyph-name="uni049B" unicode="&#x49b;" horiz-adv-x="1119" 
d="M168 -1l-0.000976562 1020h98v-468h118c28.667 0 55.834 6.83301 81.501 20.5s46.834 32.5 63.501 56.5l272 362c5.33301 8 12.666 14.833 21.999 20.5s19 8.5 29 8.5h75l-299 -402c-16 -22 -33.333 -40.5 -52 -55.5s-41.334 -26.833 -68.001 -35.5
c32 -6.66699 59.667 -18.334 83 -35.001s44.333 -39 63 -67l250 -349h196v-406c0 -22 -10.333 -33 -31 -33h-56v364h-123c-18 0 -32 2.83301 -42 8.5s-19 14.5 -27 26.5l-258 361c-20 28.667 -43.667 50.334 -71 65.001s-58.666 22 -93.999 22h-132v-484h-98z" />
    <glyph glyph-name="uni049C" unicode="&#x49c;" horiz-adv-x="1350" 
d="M214 0l0.00292969 1449h105v-669h180v350h79v-350c14.667 0.666992 28.167 2 40.5 4s24.166 5.83301 35.499 11.5s22.166 13 32.499 22s21.166 20.833 32.499 35.5l415 563c6 9.33301 13.833 17.166 23.5 23.499s20.834 9.5 33.501 9.5h82l-456 -613
c-16.667 -24 -34.5 -42.833 -53.5 -56.5s-41.167 -23.834 -66.5 -30.501c30.667 -6.66699 56.5 -18 77.5 -34s40.833 -38.333 59.5 -67l479 -648h-90c-13.333 0 -24.833 3 -34.5 9s-18.834 16 -27.501 30l-435 588c-8.66699 12.667 -17.667 23.5 -27 32.5
s-19.666 16.333 -30.999 22s-24.333 9.83398 -39 12.501s-31.334 4 -50.001 4h-1v-300h-79v300h-180v-698h-105z" />
    <glyph glyph-name="uni049D" unicode="&#x49d;" horiz-adv-x="1056" 
d="M168 -1l0.000976562 1020h98v-468h157v259h70v-257c24 3.33301 47 11.166 69 23.499s39.667 29.5 53 51.5l238 362c4 9.33301 11.167 16.5 21.5 21.5s20.5 7.5 30.5 7.5h73l-265 -402c-14.667 -22.667 -31.334 -41.5 -50.001 -56.5s-41 -26.5 -67 -34.5
c32 -6.66699 59.5 -18.167 82.5 -34.5s43.167 -38.833 60.5 -67.5l271 -424h-66c-18 0 -32.833 2.5 -44.5 7.5s-20.167 14.167 -25.5 27.5l-226 361c-18 28 -40.167 49.167 -66.5 63.5s-55.833 22.166 -88.5 23.499v-282h-70v282h-157v-484h-98z" />
    <glyph glyph-name="uni049E" unicode="&#x49e;" horiz-adv-x="1399" 
d="M45 1112l-0.00390625 81h258v256h106v-256h322v-81h-322v-332h166c17.333 0 33 1 47 3s27.333 5.66699 40 11s24.834 12.666 36.501 21.999s23.5 21.666 35.5 36.999l455 563c6.66699 9.33301 14.834 17.166 24.501 23.499s20.5 9.5 32.5 9.5h85l-493 -613
c-18 -23.333 -36.667 -41.833 -56 -55.5s-42 -24.167 -68 -31.5c30.667 -7.33301 56.167 -19.166 76.5 -35.499s40.5 -38.166 60.5 -65.499l520 -648h-90c-13.333 0 -24.5 3 -33.5 9s-18.167 16 -27.5 30l-477 588c-9.33301 12 -18.666 22.667 -27.999 32
s-19.5 16.833 -30.5 22.5s-23.667 9.83398 -38 12.501s-31.166 4 -50.499 4h-187v-698h-106v1112h-258z" />
    <glyph glyph-name="uni049F" unicode="&#x49f;" horiz-adv-x="1082" 
d="M52 814l-0.000976562 73h203v132h97v-132h225v-73h-225v-263h119c28.667 0 55.834 6.83301 81.501 20.5s46.834 32.5 63.501 56.5l271 362c6 8 13.667 14.833 23 20.5s19 8.5 29 8.5h75l-299 -402c-16 -22 -33.333 -40.5 -52 -55.5s-41.334 -26.833 -68.001 -35.5
c32 -6.66699 59.5 -18.334 82.5 -35.001s44.167 -39 63.5 -67l303 -424h-67c-18 0 -32 2.83301 -42 8.5s-19 14.5 -27 26.5l-258 361c-20 28.667 -43.833 50.334 -71.5 65.001s-59.167 22 -94.5 22h-132v-484h-97v815h-203z" />
    <glyph glyph-name="uni04A0" unicode="&#x4a0;" horiz-adv-x="1551" 
d="M29 1362l-0.00683594 87h531v-669h168c17.333 0 33 1 47 3s27.167 5.66699 39.5 11s24.166 12.666 35.499 21.999s23.333 21.666 36 36.999l455 563c6.66699 9.33301 14.834 17.166 24.501 23.499s20.5 9.5 32.5 9.5h85l-494 -613c-18 -23.333 -36.667 -41.833 -56 -55.5
s-42 -24.167 -68 -31.5c30.667 -7.33301 56.334 -19.166 77.001 -35.499s40.667 -38.166 60 -65.499l521 -648h-90c-13.333 0 -24.666 3 -33.999 9s-18.666 16 -27.999 30l-475 588c-9.33301 12 -18.666 22.667 -27.999 32s-19.666 16.833 -30.999 22.5
s-24.166 9.83398 -38.499 12.501s-31.166 4 -50.499 4h-188v-698h-105v1362h-426z" />
    <glyph glyph-name="uni04A1" unicode="&#x4a1;" horiz-adv-x="1203" 
d="M33 942l-0.00195312 77h440v-468h119c28.667 0 55.834 6.83301 81.501 20.5s46.834 32.5 63.501 56.5l271 362c6 8 13.5 14.833 22.5 20.5s18.833 8.5 29.5 8.5h75l-299 -402c-16 -22 -33.333 -40.5 -52 -55.5s-41.334 -26.833 -68.001 -35.5
c32 -6.66699 59.5 -18.334 82.5 -35.001s44.167 -39 63.5 -67l303 -424h-67c-18 0 -32.167 2.83301 -42.5 8.5s-19.166 14.5 -26.499 26.5l-258 361c-20 28.667 -44 50.334 -72 65.001s-59.333 22 -94 22h-132v-484h-97v943h-343z" />
    <glyph glyph-name="uni04A2" unicode="&#x4a2;" horiz-adv-x="1627" 
d="M214 0l0.000976562 1449h105v-676h908v676h105v-1365h240v-414c0 -10 -3.33301 -18.167 -10 -24.5s-15.334 -9.5 -26.001 -9.5h-60v364h-249v694h-908v-694h-105z" />
    <glyph glyph-name="uni04A3" unicode="&#x4a3;" horiz-adv-x="1203" 
d="M168 0v1019h98v-433h605v433h99v-944h186v-406c0 -10 -2.66699 -18 -8 -24s-13 -9 -23 -9h-57v364h-197v511h-605v-511h-98z" />
    <glyph glyph-name="uni04A4" unicode="&#x4a4;" horiz-adv-x="2105" 
d="M214 0v1449h105v-676h908v676h848v-84h-743v-1365h-105v694h-908v-694h-105z" />
    <glyph glyph-name="uni04A5" unicode="&#x4a5;" horiz-adv-x="1530" 
d="M168 0v1019h98v-433h605v433h625v-75h-526v-944h-99v511h-605v-511h-98z" />
    </font>
</defs>
</svg>
