<?xml version="1.0" standalone="no"?>
<!DOCTYPE svg PUBLIC "-//W3C//DTD SVG 1.1//EN" "http://www.w3.org/Graphics/SVG/1.1/DTD/svg11.dtd" >
<svg xmlns="http://www.w3.org/2000/svg" xmlns:xlink="http://www.w3.org/1999/xlink" version="1.1">
<metadata>
Created by FontForge 20161004 at Fri Aug 11 10:13:28 2017
 By Guillaume
</metadata>
<defs>
<font id="ao-izneo" horiz-adv-x="512" >
  <font-face 
    font-family="ao-izneo"
    font-weight="400"
    font-stretch="normal"
    units-per-em="512"
    panose-1="2 0 5 3 0 0 0 0 0 0"
    ascent="448"
    descent="-64"
    bbox="-0.186047 -64 618 449"
    underline-thickness="25"
    underline-position="-76"
    unicode-range="U+F101-F135"
  />
<missing-glyph horiz-adv-x="187" 
d="M17 0v341h136v-341h-136zM34 17h102v307h-102v-307z" />
    <glyph glyph-name=".notdef" horiz-adv-x="187" 
d="M17 0v341h136v-341h-136zM34 17h102v307h-102v-307z" />
    <glyph glyph-name=".null" horiz-adv-x="0" 
 />
    <glyph glyph-name="nonmarkingreturn" horiz-adv-x="170" 
 />
    <glyph glyph-name="album" unicode="&#xf101;" horiz-adv-x="572" 
d="M423 -64h-330q-38 0 -65.5 27.5t-27.5 65.5v28q0 38 27.5 65.5t65.5 27.5h330q10 0 16.5 -7t6.5 -16.5t-6.5 -16.5t-16.5 -7h-330q-19 0 -33 -13.5t-14 -33.5v-27q0 -19 14 -33t33 -14h330q10 0 16.5 -6.5t6.5 -16.5t-6.5 -16.5t-16.5 -6.5zM150 362h-1q-9 0 -16 7t-7 16
q0 6 3 12q11 21 35 36t48 15h336q10 0 17 -7t7 -16.5t-7 -16.5t-17 -7h-336q-12 0 -24 -7.5t-17 -18.5q-7 -13 -21 -13h-1h1zM31 67h-4h-4q-15 6 -15 22q0 5 2 9l119 298q6 15 22 15q10 0 17 -7t7 -17q0 -4 -2 -8l-119 -298q-6 -14 -22 -14h-1zM429 -64h-4.5h-4.5
q-14 6 -14 22q0 4 2 8l119 298q6 15 21 15q10 0 17 -7t7 -17q0 -4 -2 -8l-120 -296q-6 -15 -22 -15h1zM423 102q-4 1 -8 3q-6 2 -10.5 8.5t-4.5 13.5q0 5 2 10l125 297q6 14 21 14q10 0 17 -7t7 -16q0 -5 -2 -9l-125 -298q-6 -15 -22 -15v-1zM407 53h-317h-2q-5 0 -8.5 3.5
t-3.5 8.5t3.5 8.5t8.5 3.5q1 0 2 -1h317q1 1 2 1q5 0 8.5 -3.5t3.5 -8.5t-3.5 -8.5t-8.5 -3.5h-2zM407 10h-317h-2q-5 0 -8.5 3.5t-3.5 8t3.5 8t8.5 3.5h2h317h2q5 0 8.5 -3.5t3.5 -8t-3.5 -8t-8.5 -3.5h-2z" />
    <glyph glyph-name="arrow-down" unicode="&#xf102;" 
d="M0 299.5q0 17.5 13 30.5t30.5 13t30.5 -13l180 -180l184 180q13 13 30.5 13t30.5 -13t13 -30.5t-13 -30.5l-215 -215q-6 -13 -30 -13q-18 0 -31 13l-210 215q-13 13 -13 30.5z" />
    <glyph glyph-name="arrow-left" unicode="&#xf103;" horiz-adv-x="300" 
d="M256 -64q-18 0 -31 13l-212 212q-13 13 -13 31t13 31l212 212q13 13 31 13t31 -13t13 -31t-13 -31l-181 -181l181 -181q13 -13 13 -31t-13 -31t-31 -13z" />
    <glyph glyph-name="arrow-right" unicode="&#xf104;" horiz-adv-x="300" 
d="M44 -64q-18 0 -31 13t-13 31t13 31l181 181l-181 181q-13 13 -13 31t13 31t31 13t31 -13l212 -212q13 -13 13 -31t-13 -31l-212 -212q-13 -13 -31 -13v0z" />
    <glyph glyph-name="arrow-thin-down" unicode="&#xf105;" 
d="M256 54l-256 256l21 20l235 -235l235 235l21 -20z" />
    <glyph glyph-name="arrow-thin-left" unicode="&#xf106;" horiz-adv-x="277" 
d="M256 -64l-256 256l256 256l21 -21l-236 -235l236 -235z" />
    <glyph glyph-name="arrow-thin-right" unicode="&#xf107;" horiz-adv-x="277" 
d="M21 -64l-21 21l235 235l-235 235l21 21l256 -256z" />
    <glyph glyph-name="arrow-thin-up" unicode="&#xf108;" 
d="M491 54l-235 235l-235 -235l-21 20l256 256l256 -256z" />
    <glyph glyph-name="arrow-thin" unicode="&#xf109;" horiz-adv-x="277" 
d="M10 438l-10 -11l235 -235l-235 -235l10 -11l11 -10l245 246l11 10l-11 10l-245 246z" />
    <glyph glyph-name="arrow-up" unicode="&#xf10a;" 
d="M512 85q0 -18 -13 -31t-30.5 -13t-30.5 13l-184 184l-180 -184q-13 -13 -30.5 -13t-30.5 13t-13 30.5t13 30.5l210 210q13 14 30.5 14t30.5 -14l210 -210q18 -5 18 -30z" />
    <glyph glyph-name="arrow" unicode="&#xf10b;" horiz-adv-x="300" 
d="M44 -64q-18 0 -31 13t-13 31t13 31l181 181l-181 181q-13 13 -13 31t13 31t31 13t31 -13l212 -212q13 -13 13 -31t-13 -31l-212 -212q-13 -13 -31 -13z" />
    <glyph glyph-name="books" unicode="&#xf10c;" horiz-adv-x="543" 
d="M398 -64h-310q-37 0 -62.5 26t-25.5 62v26q0 36 25.5 62t62.5 26h310q9 0 15.5 -6.5t6.5 -15.5t-6.5 -15.5t-15.5 -6.5h-310q-18 0 -31 -13t-13 -31v-26q0 -18 13 -31t31 -13h310q9 0 15.5 -6t6.5 -15.5t-6.5 -15.5t-15.5 -6v-1zM30 59q-9 0 -15.5 6.5t-6.5 15.5
q0 8 5 14l34 43q7 8 17 8q9 0 15.5 -6.5t6.5 -15.5q0 -8 -5 -14l-34 -42q-7 -9 -17 -9zM404 -64q-9 0 -15.5 6.5t-6.5 15.5q0 8 5 14l117 145q6 8 17 8q9 0 15.5 -6t6.5 -15t-5 -15l-117 -145q-7 -8 -17 -8v0zM398 94q-8 0 -14.5 6.5t-6.5 15.5q0 7 5 14l123 146q6 7 16 7
t16 -6t6 -16q0 -8 -5 -14l-122 -146q-7 -7 -17 -7h-1zM384 47h-300q-4 0 -7 3t-3 7.5t3 7.5t7 3h300q5 0 8 -3t3 -7.5t-3 -7.5t-8 -3zM384 6h-300q-4 0 -7 3t-3 7.5t3 8t7 3.5h300q5 0 8 -3.5t3 -8t-3 -7.5t-8 -3zM398 101h-310q-37 0 -62.5 25.5t-25.5 62.5v25
q0 37 25.5 62.5t62.5 25.5h310q9 0 15.5 -6.5t6.5 -15.5t-6.5 -15.5t-15.5 -6.5h-310q-18 0 -31 -12.5t-13 -31.5v-25q0 -18 13 -31t31 -13h310q9 0 15.5 -6.5t6.5 -15.5t-6.5 -15.5t-15.5 -6.5v0zM145 367q-9 0 -15 6.5t-6 15.5q0 7 4 13q11 15 18.5 23t23.5 16t36 7h315
q9 0 15.5 -6.5t6.5 -15.5t-6.5 -15.5t-15.5 -6.5h-317q-12 1 -20 -5t-21 -23q-7 -9 -18 -9v0zM30 224q-9 0 -15.5 6.5t-6.5 15.5q0 8 5 14l116 144q7 8 17 8q9 0 15.5 -6.5t6.5 -15.5q0 -7 -4 -13l-117 -145q-7 -8 -17 -8v0zM404 100q-9 0 -15.5 6.5t-6.5 15.5q0 8 5 14
l117 145q6 8 16 8q9 0 15.5 -6.5t6.5 -15.5q0 -8 -4 -13l-117 -145q-7 -9 -17 -9v0zM398 258q-8 0 -14.5 6.5t-6.5 15.5q0 8 5 14l122 146q6 8 17 8q9 0 15.5 -6.5t6.5 -15.5q0 -8 -6 -14l-121 -146q-7 -8 -17 -8h-1zM384 211h-300q-9 1 -9 11t9 11h300q10 -1 10 -11
t-10 -11zM384 170h-300q-4 0 -7 3.5t-3 8t3 7.5t7 3h300q5 0 8 -3t3 -7.5t-3 -8t-8 -3.5z" />
    <glyph glyph-name="cart" unicode="&#xf10d;" horiz-adv-x="618" 
d="M532 81h-328q-8 0 -15 5.5t-9 12.5l-62 226q-1 4 -1 7q0 10 7 17t17 7h453q10 0 17 -7t7 -17q0 -3 -1 -7l-62 -226q-2 -8 -9 -13t-14 -5v0zM222 129h291l49 178h-389zM204 81q-8 0 -15 5.5t-9 12.5l-81 297l-76 4q-9 0 -16 7.5t-7 16.5v1q0 9 7 16t17 7h1l94 -4
q7 0 13.5 -5.5t8.5 -12.5l86 -314q1 -3 1 -6q0 -10 -7 -17.5t-17 -7.5zM262 -64q-28 0 -47.5 19.5t-19.5 47.5t19.5 47.5t47.5 19.5t47.5 -19.5t19.5 -47.5t-19.5 -47.5t-47.5 -19.5zM262.5 21q-7.5 0 -13 -5t-5.5 -13t5.5 -13t13 -5t12.5 5t5 13t-5 13t-12.5 5zM465.5 -64
q-27.5 0 -47.5 19.5t-20 47.5t20 47.5t47.5 19.5t47 -19.5t19.5 -47.5t-19.5 -47.5t-47 -19.5zM465.5 21q-7.5 0 -13 -5t-5.5 -13t5.5 -13t13 -5t13 5t5 13t-5.5 13t-12.5 5z" />
    <glyph glyph-name="close" unicode="&#xf10e;" 
d="M195 110q-9 0 -15 6t-6 15t6 16l121 121q7 6 16 6t15 -6.5t6 -15.5t-6 -15l-121 -121q-7 -6 -16 -6v0zM317 110q-9 0 -16 6l-121 121q-6 7 -6 16t6 15t15 6t16 -6l121 -121q6 -7 6 -16t-6 -15t-15 -6v0zM256 -64q-106 0 -181 75t-75 181t75 181t181 75t181 -75t75 -181
t-75 -181t-181 -75v0zM256 405q-88 0 -150 -62.5t-62 -150.5t62 -150.5t150 -62.5t150 62.5t62 150.5t-62 150.5t-150 62.5v0z" />
    <glyph glyph-name="cvv" unicode="&#xf10f;" 
d="M354 158h-306q-20 0 -34 14t-14 34v194q0 20 14 34t34 14h306q20 0 34 -14t14 -34v-194q0 -20 -14 -34t-34 -14zM48 414q-6 0 -10 -4t-4 -10v-194q0 -6 4 -10t10 -4h306q6 0 10 4t4 10v194q0 6 -4 10t-10 4h-306zM11 309v54h391v-54h-391zM333 255h-264q-8 0 -8 8.5
t8 8.5h264q8 0 8 -8.5t-8 -8.5v0zM509 173q8 -8 0 -16q-4 -3 -8.5 -3t-7.5 3l-57 57q-31 -23 -69 -23q-46 0 -78.5 32.5t-32.5 79t32.5 79t79 32.5t79 -32.5t32.5 -78.5q0 -42 -27 -74zM278 303q0 37 26 63t63 26t63.5 -26t26.5 -63t-26.5 -63.5t-63.5 -26.5t-63 26.5
t-26 63.5v0zM459 303q0 39 -27 65.5t-65 26.5t-65 -26.5t-27 -65t27 -65.5t65 -27t65 27t27 65v0zM327 274q-6 -3 -13 -3q-10 0 -16 6.5t-6 16.5t6.5 17t17.5 7q7 0 11 -3l-2 -6q-4 2 -9 2q-16 0 -16 -16.5t15 -16.5q6 0 10 2zM339 317l8 -25q3 -7 4 -12q1 4 4 12l9 25h8
l-17 -45h-8l-17 45h9zM383 317l9 -25q2 -7 3 -12h1l3 12l9 25h9l-18 -45h-8l-17 45h9z" />
    <glyph glyph-name="danger" unicode="&#xf110;" horiz-adv-x="585" 
d="M273 138l-4 72q-2 22 -2 30v1q0 11 7 18q6 7 16 7h1q1 1 2 1q11 0 16 -10q4 -11 4 -23v-2v-10.5v-10.5l-6 -74q-1 -10 -5 -20q-3 -7 -11 -7h-1q-8 0 -11 7q-4 10 -6 21zM290 38q-9 0 -16 6q-7 7 -7 16v1q0 9 6.5 15.5t15.5 6.5h1q9 0 15.5 -6.5t6.5 -15.5v-1
q0 -10 -7 -16q-6 -6 -14 -6h-1zM563 -64h-541q-9 0 -15.5 6.5t-6.5 15.5q0 6 3 11l271 469q6 11 18.5 11t19.5 -11l270 -469q3 -5 3 -11q0 -9 -6.5 -15.5t-15.5 -6.5v0zM60 -20h465l-232 402z" />
    <glyph glyph-name="eye-alt" unicode="&#xf111;" 
d="M256 10q-41 0 -79.5 13t-64 31t-48.5 42t-34 39.5t-20 30.5l-7 13q-3 6 -3 12.5t3 13.5q4 8 11 20.5t30.5 41t50 50.5t70 39.5t91.5 17.5q41 0 79.5 -13t64 -31t48.5 -42t34 -39.5t20 -30.5l7 -13q3 -6 3 -12.5t-3 -12.5q-4 -9 -11 -21.5t-30.5 -41t-50 -50.5t-70 -39.5
t-91.5 -17.5zM60 192q9 -17 23 -34t38.5 -40t59.5 -37.5t75 -14.5q39 0 74 14t59.5 37t38.5 40.5t24 34.5q-11 19 -25.5 37t-38.5 40t-58.5 35.5t-73.5 13.5t-74 -14t-59.5 -37t-38.5 -40.5t-24 -34.5zM256 94q-40 0 -69 29t-29 69t29 69t69 29t69 -29t29 -69t-29 -69
t-69 -29zM256 234q-17 0 -29.5 -12.5t-12.5 -29.5t12.5 -29.5t29.5 -12.5t29.5 12.5t12.5 29.5t-12.5 29.5t-29.5 12.5zM440.5 -20q-11.5 0 -19.5 8l-369 369q-8 8 -8 19.5t8 19.5t19.5 8t19.5 -8l369 -369q8 -8 8 -19.5t-8 -19.5t-19.5 -8z" />
    <glyph glyph-name="eye-circle" unicode="&#xf112;" 
d="M256 -64q-106 0 -181 75t-75 181t75 181t181 75t181 -75t75 -181t-75 -181t-181 -75zM256 403q-87 0 -149 -62t-62 -149t62 -149t149 -62t149 62t62 149t-62 149t-149 62zM256 97q-45 0 -81 25t-50 66q-1 4 0 8q14 41 50 66t81 25t81 -25t50 -66q1 -4 0 -8
q-14 -41 -50 -66t-81 -25zM148 192q12 -33 41.5 -53t66.5 -20t66.5 20t41.5 53q-12 33 -41.5 53t-66.5 20t-66.5 -20t-41.5 -53zM256 130q-26 0 -44 18t-18 44q0 5 3.5 8t8 3t8 -3t3.5 -8q0 -16 11.5 -27.5t27.5 -11.5t27.5 11.5t11.5 27.5t-11.5 27.5t-27.5 11.5
q-5 0 -8 3.5t-3 8t3 8t8 3.5q25 0 43.5 -18.5t18.5 -44t-18.5 -43.5t-43.5 -18v0z" />
    <glyph glyph-name="eye" unicode="&#xf113;" 
d="M256 76q-88 0 -158.5 49t-96.5 130q-2 7 0 14q26 80 96.5 129.5t158.5 49.5t158.5 -49.5t96.5 -129.5q2 -7 0 -14q-26 -81 -96.5 -130t-158.5 -49zM46 262q23 -64 80.5 -103t129.5 -39t129.5 39t80.5 103q-23 64 -80.5 103t-129.5 39t-129.5 -39t-80.5 -103zM256 141
q-50 0 -85 35.5t-35 85.5q0 9 6.5 15.5t15.5 6.5t15.5 -6.5t6.5 -15.5q0 -32 22.5 -54t53.5 -22t53.5 22t22.5 53.5t-22.5 54t-53.5 22.5q-9 0 -15.5 6.5t-6.5 15.5t6.5 15.5t15.5 6.5q50 0 85 -35t35 -85t-35 -85.5t-85 -35.5v0z" />
    <glyph glyph-name="facebook" unicode="&#xf114;" horiz-adv-x="247" 
d="M0 279h53v51q0 57 17 79q29 39 82 39q30 0 53.5 -2.5t32.5 -4.5l9 -3l-13 -78q-22 6 -43 6q-39 0 -39 -28v-59h85l-6 -77h-79v-266h-99v266h-53v77z" />
    <glyph glyph-name="genre" unicode="&#xf115;" 
d="M226 -64q-10 0 -16.5 6.5t-6.5 15.5q0 5 2 9q10 24 10 50q0 16 -6.5 37t-15.5 35l-19 3q-6 1 -11 6.5t-7 11.5q0 3 -1 9.5t-1 8.5q-33 22 -72 22q-26 0 -50 -10q-4 -2 -10 -2q-9 0 -15.5 6.5t-6.5 15.5q0 6 3 11q13 30 36 54q21 21 57.5 36t65.5 15q9 0 17 -1
q23 48 61 86q34 35 93.5 60.5t108.5 26.5q25 0 49 -5q6 -1 11 -6t6 -11q4 -24 4 -47q0 -50 -25.5 -110t-60.5 -94q-38 -38 -87 -61v-16q0 -30 -14.5 -65.5t-35.5 -56.5q-24 -24 -55 -37q-4 -2 -8 -2v-1zM199 134l10 -1q10 -1 16 -9q14 -19 24.5 -50t10.5 -55q0 -5 -1 -10
q15 15 25.5 41t10.5 47q0 13 -3 27q-1 2 -1 4q0 16 14 21q21 8 47 24.5t42 32.5q30 29 51.5 80t21.5 94q0 10 -1 21q-10 1 -21 1q-42 0 -93 -22t-80 -52q-16 -16 -33 -41.5t-25 -46.5q-6 -14 -21 -14q-2 0 -5 1q-13 2 -26 2q-21 0 -47 -10t-41 -24h9q24 0 55 -10t51 -25
q8 -6 9 -16v-9zM368 247h-1q-23 0 -39.5 16.5t-16.5 39.5q0 25 17 41t40 16t40 -16t17 -39.5t-16.5 -40t-40.5 -16.5v-1zM368 337q-13 0 -22.5 -10.5t-9.5 -23.5q0 -14 9 -23q10 -10 23.5 -10t23.5 10q9 9 9 23q0 13 -9.5 23.5t-23.5 10.5zM112 13h-1q-11 0 -21 2
q-8 2 -10 10q-1 10 -1 21q0 27 13.5 59t32.5 51q4 5 10 5q4 0 7.5 -3.5t3.5 -8.5t-5 -9q-16 -16 -28 -43.5t-12 -50.5v-10h10q23 0 50.5 11.5t43.5 28.5q3 2 7 2t7.5 -3t3.5 -8q0 -4 -2 -7q-18 -19 -50 -32.5t-59 -14.5z" />
    <glyph glyph-name="gift" unicode="&#xf116;" horiz-adv-x="434" 
d="M116 448h8q30 -3 56 -24q19 -15 32 -40q13 23 34 40q25 21 56 24q32 2 57 -19q25 -22 18 -54q-5 -24 -30 -48q-31 -28 -75 -42h-118q-44 14 -75 42q-26 24 -31 48q-7 31 19 54q18 16 42 19h7zM115 409q-9 -1 -17 -8q-9 -9 -7 -19q2 -12 19 -28q16 -14 72 -28
q-11 51 -33 70q-14 11 -28 13h-6zM305 409q-15 -2 -28 -13q-23 -19 -34 -70q54 13 71 28q17 16 19 28q3 11 -6 19q-10 9 -22 8zM15 267h164v-331h-164q-6 0 -10.5 4t-4.5 10v303q0 6 4.5 10t10.5 4zM255 267h164q6 0 10.5 -4t4.5 -10v-303q0 -6 -4.5 -10t-10.5 -4h-164v331z
" />
    <glyph glyph-name="googleplus" unicode="&#xf117;" horiz-adv-x="493" 
d="M162 -39q115 0 115 83q0 8 -2 16q-1 6 -3 10.5t-6.5 9.5t-7.5 8t-9.5 8.5t-10 8t-13 8.5t-13.5 9q-19 6 -39 7q-46 0 -81 -24.5t-35 -58.5q0 -35 30 -60t75 -25zM178 233q31 -1 48.5 26.5t12.5 68t-30.5 69t-56 29t-48.5 -26.5t-12.5 -67t30.5 -69t56 -30zM263 153
q31 -22 43 -45t12 -58q0 -46 -42 -80t-114 -34q-68 0 -115 25.5t-47 67.5q0 45 45.5 79.5t110.5 34.5q5 0 14 0.5t13 0.5q-21 21 -21 43q0 15 8 30h-15q-53 0 -87 33t-34 82q0 46 42 81t96 35h159l-36 -26h-50q24 -9 37.5 -34.5t13.5 -56.5q0 -48 -45 -83q-18 -15 -24 -23.5
t-6 -21.5q0 -10 14 -25t28 -25zM493 228v-50h-61v-61h-50v61h-62v50h62v62h50v-62h61z" />
    <glyph glyph-name="grid" unicode="&#xf118;" horiz-adv-x="516" 
d="M20 361q-10 0 -10 10v57q0 10 10 10h57q10 0 10 -10v-57q0 -10 -10 -10h-57zM77 428h-57v-57h57v57zM77 448q9 0 15 -6t6 -14v-57q0 -9 -6 -14.5t-15 -5.5h-57q-8 0 -14 5.5t-6 14.5v57q0 8 6 14t14 6h57zM20 175q-10 0 -10 10v58q0 10 10 10h57q10 0 10 -10v-58
q0 -10 -10 -10h-57zM77 243h-57v-58h57v58zM77 263q9 0 15 -6t6 -14v-58q0 -8 -6 -14t-15 -6h-57q-8 0 -14 6t-6 14v58q0 8 6 14t14 6h57zM20 -10q-10 0 -10 10v57q0 10 10 10h57q10 0 10 -10v-57q0 -10 -10 -10h-57zM77 57h-57v-57h57v57zM77 77q9 0 15 -5.5t6 -14.5v-57
q0 -8 -6 -14t-15 -6h-57q-8 0 -14 6t-6 14v57q0 9 6 14.5t14 5.5h57zM229 361q-10 0 -10 10v57q0 10 10 10h58q10 0 10 -10v-57q0 -10 -10 -10h-58zM287 428h-58v-57h58v57zM287 448q8 0 14 -6t6 -14v-57q0 -9 -6 -14.5t-14 -5.5h-58q-8 0 -14 5.5t-6 14.5v57q0 8 6 14t14 6
h58zM229 175q-10 0 -10 10v58q0 10 10 10h58q10 0 10 -10v-58q0 -10 -10 -10h-58zM287 243h-58v-58h58v58zM287 263q8 0 14 -6t6 -14v-58q0 -8 -6 -14t-14 -6h-58q-8 0 -14 6t-6 14v58q0 8 6 14t14 6h58zM229 -10q-10 0 -10 10v57q0 10 10 10h58q10 0 10 -10v-57
q0 -10 -10 -10h-58zM287 57h-58v-57h58v57zM287 77q8 0 14 -5.5t6 -14.5v-57q0 -8 -6 -14t-14 -6h-58q-8 0 -14 6t-6 14v57q0 9 6 14.5t14 5.5h58zM439 361q-10 0 -10 10v57q0 10 10 10h57q10 0 10 -10v-57q0 -10 -10 -10h-57zM496 428h-57v-57h57v57zM496 448q8 0 14 -6
t6 -14v-57q0 -9 -6 -14.5t-14 -5.5h-57q-9 0 -14.5 5.5t-5.5 14.5v57q0 8 5.5 14t14.5 6h57zM439 175q-10 0 -10 10v58q0 10 10 10h57q10 0 10 -10v-58q0 -10 -10 -10h-57zM496 243h-57v-58h57v58zM496 263q8 0 14 -6t6 -14v-58q0 -8 -6 -14t-14 -6h-57q-9 0 -14.5 6
t-5.5 14v58q0 8 5.5 14t14.5 6h57zM439 -10q-10 0 -10 10v57q0 10 10 10h57q10 0 10 -10v-57q0 -10 -10 -10h-57zM496 57h-57v-57h57v57zM496 77q8 0 14 -5.5t6 -14.5v-57q0 -8 -6 -14t-14 -6h-57q-9 0 -14.5 6t-5.5 14v57q0 9 5.5 14.5t14.5 5.5h57z" />
    <glyph glyph-name="heart-fill" unicode="&#xf119;" horiz-adv-x="511" 
d="M259 5q-6 0 -11 3l-2 2l-7 4q-54 38 -78 57q-72 55 -109.5 96.5t-44.5 71.5q-7 21 -7 46q-1 70 46 118q42 42 100 42q14 0 31 -10.5t27.5 -21t27.5 -30.5t22 -25q3 4 21 26t28 32t26.5 21t31.5 11h3q60 0 103 -46t44 -110q0 -25 -7 -48q-12 -59 -148 -171
q-54 -44 -86 -64q-5 -4 -11 -4z" />
    <glyph glyph-name="heart" unicode="&#xf11a;" horiz-adv-x="511" 
d="M259 5q-6 0 -11 3l-2 2l-7 4q-54 38 -78 57q-72 55 -109.5 96.5t-44.5 71.5q-7 21 -7 46q-1 70 46 118q42 42 100 42q64 0 108 -46q43 48 107 49h3q60 0 103 -46t44 -110q0 -25 -7 -48q-12 -59 -148 -171q-54 -44 -86 -64q-5 -4 -11 -4zM147 402q-41 0 -70 -30
q-34 -34 -34 -86q0 -18 6 -35q11 -47 138 -146q22 -17 72 -52q29 20 69 53q125 102 134 148q6 19 5 37q0 47 -30.5 80.5t-72.5 33.5h-1h-1q-28 -1 -51.5 -15t-37.5 -38q-6 -11 -18 -11q-13 0 -19 10q-15 24 -38.5 37.5t-50.5 13.5v0z" />
    <glyph glyph-name="info" unicode="&#xf11b;" 
d="M255 268q-9 0 -15.5 6t-6.5 16q0 9 7 15t15 6q9 0 15.5 -5.5t6.5 -15.5t-6.5 -16t-15.5 -6zM277 223v-128q0 -13 -6 -20t-16 -7t-16 7t-6 20v126q0 13 6 20t16 7t16 -6.5t6 -18.5zM256 -64q-106 0 -181 75t-75 181t75 181t181 75t181 -75t75 -181t-75 -181t-181 -75v0z
M256 405q-88 0 -150.5 -62.5t-62.5 -150.5t62.5 -150.5t150.5 -62.5t150 62.5t62 150.5t-62 150.5t-150 62.5v0z" />
    <glyph glyph-name="instagram" unicode="&#xf11c;" horiz-adv-x="504" 
d="M252 399q-70 0 -102 -2q-28 -1 -47 -9q-16 -6 -28.5 -18.5t-18.5 -28.5q-8 -19 -9 -47q-2 -32 -2 -102t2 -102q1 -28 9 -47q6 -16 18.5 -28.5t28.5 -18.5q19 -8 47 -9q32 -2 102 -2t102 2q27 1 46 9q17 6 29.5 18.5t18.5 28.5q8 19 9 47q1 32 1 102t-1 102q-1 28 -9 47
q-6 16 -18.5 28.5t-29.5 18.5q-19 8 -46 9q-32 2 -102 2zM252 444q71 0 104 -2q35 -1 61 -11q25 -10 44.5 -29.5t29.5 -44.5q10 -26 11 -61q2 -33 2 -104t-2 -104q-1 -35 -11 -61q-10 -25 -29.5 -44.5t-44.5 -29.5q-26 -10 -61 -11q-33 -2 -104 -2t-104 2q-35 1 -61 11
t-45 29.5t-29 44.5q-10 26 -11 61q-2 33 -2 104t2 104q1 35 11 61q10 25 29 44.5t45 29.5t61 11q33 2 104 2zM252 321q54 0 91.5 -37.5t37.5 -91.5t-37.5 -91.5t-91.5 -37.5t-91.5 37.5t-37.5 91.5t37.5 91.5t91.5 37.5zM252 108q35 0 59.5 24.5t24.5 59.5t-24.5 59.5
t-59.5 24.5t-59.5 -24.5t-24.5 -59.5t24.5 -59.5t59.5 -24.5zM356 326.5q0 12.5 9 21.5t21.5 9t21.5 -9t9 -21.5t-9 -21.5t-21.5 -9t-21.5 9t-9 21.5z" />
    <glyph glyph-name="linkedin" unicode="&#xf11d;" horiz-adv-x="256" 
d="M56 85h-50v160h50v-160zM30 265q-14 0 -22 7.5t-8 19.5t8.5 20t22 8t21.5 -8t9 -20q0 -12 -8.5 -19.5t-22.5 -7.5zM256 85h-57v83q0 36 -28 36q-19 0 -27 -20q-1 -2 -1 -13v-86h-56q1 146 0 160h56v-25q3 9 16.5 17.5t33.5 8.5q28 0 45.5 -18.5t17.5 -53.5v-89z" />
    <glyph glyph-name="list" unicode="&#xf11e;" horiz-adv-x="517" 
d="M495 368h-297q-9 0 -15 6t-6 15.5t6 15.5t15 6h297q9 0 15.5 -6t6.5 -15.5t-6.5 -15.5t-15.5 -6zM95 331h-73q-9 0 -15.5 6.5t-6.5 15.5v73q0 9 6.5 15.5t15.5 6.5h73q9 0 15.5 -6.5t6.5 -15.5v-73q0 -9 -6.5 -15.5t-15.5 -6.5zM44 375h29v29h-29v-29zM495 170h-297
q-9 0 -15 6.5t-6 15.5t6 15.5t15 6.5h297q9 0 15.5 -6.5t6.5 -15.5t-6.5 -15.5t-15.5 -6.5zM95 133h-73q-9 0 -15.5 6.5t-6.5 15.5v74q0 9 6.5 15t15.5 6h73q9 0 15.5 -6t6.5 -15v-74q0 -9 -6.5 -15.5t-15.5 -6.5zM44 177h29v30h-29v-30zM495 -27h-297q-9 0 -15 6t-6 15.5
t6 15.5t15 6h297q9 0 15.5 -6t6.5 -15.5t-6.5 -15.5t-15.5 -6zM95 -64h-73q-9 0 -15.5 6.5t-6.5 15.5v73q0 9 6.5 15.5t15.5 6.5h73q9 0 15.5 -6.5t6.5 -15.5v-73q0 -9 -6.5 -15.5t-15.5 -6.5zM44 -20h29v29h-29v-29z" />
    <glyph glyph-name="logo-izneo-baseline" unicode="&#xf11f;" horiz-adv-x="507" 
d="M393 428q21 0 36.5 -13.5t15.5 -37.5t-15 -37.5t-36 -13.5q-14 0 -26 7l-23 -5q5 10 8 17q-10 13 -10 32q0 24 15 37t35 14zM393.5 350.5q9.5 -0.5 16.5 6.5t7 20q0 12 -6.5 19t-16 7t-16.5 -7t-7 -19.5t6.5 -19t16 -7zM28 328h-28v97h28v-97zM120 422l-42 -70h42v-24
h-83v3l43 71h-40v23h80v-3zM203 328v56q1 10 -4.5 15.5t-13.5 5.5t-14 -6t-6 -16v-55h-28v67q0 8 -1.5 10.5t-8.5 2.5v17q36 6 36 -13q7 15 31 15q38 0 38 -43v-56h-29zM325 331q-15 -5 -29 -5q-25 -1 -40.5 13t-15.5 39q1 24 15.5 36.5t35.5 12.5q26 0 37 -15.5t6 -40.5
h-66q2 -20 26 -22q9 -1 13 0l12 2zM269 389h42q0 17 -20 17q-19 0 -22 -17zM14 448h14v-17h-14h-14v2q0 6 4 10.5t10 4.5zM388 392l18 -15l-18 -16v31zM0 306h6q7 0 7 -7q0 -3 -2 -4q4 -1 4 -6q0 -7 -7 -7h-8v24zM5 296q4 0 4 3t-4 3v-6zM5 285h1q5 0 5 3.5t-5 3.5h-1v-7z
M20 306h7q12 0 12 -12t-12 -12h-7v24zM25 286h1q8 0 8 8t-8 8h-1v-16zM49 284q0 -3 -3 -3t-3 3t3 3t3 -3zM71 300q-2 2 -6 2q-7 0 -7 -8t7 -8q4 0 6 2v-6q-3 -1 -6 -1q-5 0 -8.5 4t-3.5 9t3.5 9t8.5 4q3 0 6 -2v-5zM87 281q-12 0 -12 13t12 13t12 -13t-12 -13zM87 302
q-7 0 -7 -8t7 -8t7 8t-7 8zM122 297l-6 -16h-2l-5 16l-2 -15h-5l4 25h4l6 -16l5 16h4l4 -25h-5zM137 282h-4v24h4v-24zM159 300q-2 2 -5 2q-7 0 -7 -8t7 -8q3 0 5 2v-6q-3 -1 -5 -1q-5 0 -8.5 4t-3.5 9t3.5 9t8.5 4q3 0 5 -2v-5zM176 301q-2 2 -4 2q-3 0 -3 -3q0 -2 5 -4
t5 -7q0 -8 -8 -8q-5 0 -8 5l3 3q2 -4 5 -4t3 4q0 2 -4 4q-6 2 -6 6q0 8 8 8q4 0 6 -3zM189 284q0 -3 -2.5 -3t-2.5 3t2.5 3t2.5 -3zM213 297l-5 -16h-2l-5 16l-3 -15h-5l5 25h3l6 -16l6 16h3l4 -25h-5zM229 287l-2 -5h-5l10 25h3l10 -25h-5l-2 5h-9zM233 300l-2 -9h5z
M248 307h4l13 -17v16h4v-25h-3l-13 17v-16h-5v25zM297 295v-1q0 -13 -12 -13q-11 0 -11 13t12 13q6 0 9 -6l-4 -2q-2 4 -5 4q-7 0 -7 -9t7 -9q5 0 5 6h-5v4h11zM306 287l-2 -5h-5l9 25h4l9 -25h-5l-2 5h-8zM310 300l-3 -9h6zM336 301q-1 2 -3 2q-3 0 -3 -3q0 -2 5 -4t5 -7
q0 -8 -9 -8q-4 0 -7 5l3 3q1 -4 4.5 -4t3.5 4q0 2 -5 4t-5 6q0 8 7 8q4 0 7 -3zM350 284q0 -3 -3 -3t-3 3t3 3t3 -3zM365 290q0 -4 -2 -6q-2 -3 -5 -3t-5 2l3 4q0 -2 2 -2t2 6v15h5v-16zM375 302v-5h7v-5h-7v-6h8v-4h-13v24h13v-4h-8zM388 306h5v-14q0 -7 4 -7t4 7v14h5v-15
q0 -10 -9 -10t-9 10v15zM411 307h4l13 -17v16h5v-25h-4l-13 17v-16h-5v25zM443 302v-5h7v-5h-7v-6h8v-4h-13v24h13v-4h-8zM467 301q-1 2 -3 2q-3 0 -3 -3q0 -2 5 -4t5 -7q0 -8 -9 -8q-4 0 -7 5l3 3q1 -4 4.5 -4t3.5 4q0 2 -5 4t-5 6q0 8 7 8q4 0 7 -3zM487 301q-2 2 -4 2
q-3 0 -3 -3q0 -2 5 -4t5 -7q0 -8 -8 -8q-5 0 -8 5l3 3q1 -4 4.5 -4t3.5 4q0 2 -5 4t-5 6q0 8 7 8q4 0 7 -3zM499 302v-5h8v-5h-8v-6h8v-4h-13v24h13v-4h-8z" />
    <glyph glyph-name="logo-izneo-icon" unicode="&#xf120;" 
d="M253 448q50 0 95.5 -16t82.5 -46.5t59 -80t22 -111.5q0 -61 -21.5 -110.5t-58 -80t-81.5 -46.5t-93 -16q-73 0 -133 33l-113 -23l41 82q-53 66 -53 161q0 61 21.5 110t57.5 80t81 47.5t93 16.5zM255 63q47 -1 82.5 34t35.5 97t-34 96.5t-81 34.5q-49 0 -84 -34.5t-35 -96
t34 -96.5t82 -35zM227 271l92 -77l-92 -76v153z" />
    <glyph glyph-name="logo-izneo" unicode="&#xf121;" 
d="M452 425q25 0 42.5 -15.5t17.5 -43t-17.5 -43t-41.5 -15.5q-16 0 -30 7l-26 -5q5 11 9 19q-12 15 -12 37q0 28 17.5 43t40.5 16zM453 336q11 0 19 8t8 22t-8 22t-19 8t-19 -8t-8 -22t8 -22t19 -8zM32 310h-32v111h32v-111zM138 418l-49 -80h49v-28h-95v4l49 81h-46v26h92
v-3zM234 310v65q0 10 -6 16.5t-15 6.5q-10 0 -17 -6.5t-7 -17.5v-64h-32v77q0 9 -1.5 12t-9.5 3v20q41 7 41 -15q8 17 36 17q43 0 43 -49v-65h-32zM373 313q-16 -6 -33 -6q-28 0 -46 16t-18 44q1 28 18 42.5t41 14.5q29 0 42 -18t7 -47h-75q1 -23 29 -25q10 -1 15 0
q7 1 14 3zM309 380h49q0 19 -23 19q-22 0 -26 -19zM16 448h16v-20h-16h-16v2q0 8 5 13t11 5zM446 384l21 -18l-21 -18v36z" />
    <glyph glyph-name="magnifier" unicode="&#xf122;" horiz-adv-x="504" 
d="M220 9q-91 0 -155.5 64t-64.5 155t64.5 155.5t155.5 64.5t155 -64.5t64 -155.5t-64 -155t-155 -64v0zM219.5 404q-72.5 0 -124 -51.5t-51.5 -124t51.5 -124t124 -51.5t124 51.5t51.5 124t-51.5 124t-124 51.5zM96 228h-22q0 61 43 103.5t103 42.5v-22q-51 0 -87.5 -36.5
t-36.5 -87.5v0zM481.5 -64q-9.5 0 -15.5 6l-123 123q-6 7 -6 16t6.5 15.5t15.5 6.5t15 -7l123 -122q7 -7 7 -16t-6.5 -15.5t-16 -6.5z" />
    <glyph glyph-name="mail" unicode="&#xf123;" 
d="M461 76h-407h-2q-21 0 -36.5 15t-15.5 37v268q0 21 15.5 36.5t36.5 15.5h408q21 0 36.5 -15.5t15.5 -36.5v-267v-3q0 -21 -15 -35.5t-36 -14.5zM52 403q-8 0 -8 -8v-1v-266q0 -8 8 -8h408q8 0 8 8v268q0 8 -8 8q0 -1 -101.5 -1h-204.5h-102zM461 87h-407h-1q-12 0 -23 8
t-15 19v3q0 6 4 10l159 142q4 4 9 4q4 0 7.5 -3.5t3.5 -8.5q0 -6 -5 -10l-155 -136q6 -6 14 -6h408q8 0 14 6l-154 138q-5 3 -5 9q0 5 3.5 8.5t7.5 3.5q6 0 9 -4l161 -143q4 -4 4 -10q0 -1 -1 -3q-4 -11 -15 -19t-23 -8zM257 187q-4 0 -7 3l-233 208q-4 3 -4 8q0 2 1 4
q4 11 15.5 18.5t22.5 7.5h408q12 0 23 -7.5t15 -18.5v-4q0 -5 -3 -9l-231 -206q-3 -3 -7 -4zM38 408l218 -194l219 194q-6 6 -14 6h-407h-1q-8 0 -15 -6z" />
    <glyph glyph-name="pdf" unicode="&#xf124;" horiz-adv-x="387" 
d="M228 448h-6h-199q-23 0 -23 -23v-466q0 -23 23 -23h341q23 0 23 23v325v5h-7h-132q-20 0 -20 21v132v6zM250 447v-4v-118q0 -14 14 -14h118h3zM228 448v-6v-132q0 -21 20 -21h132h7v-5v-328q0 -20 -20 -20h-347q-20 0 -20 20v472q0 11 4.5 15.5t15.5 4.5h202h6zM201 200
q-2 13 -2 14q-3 12 -15 12q-10 0 -14 -12q-8 -23 1 -48q1 -3 0 -8q-9 -32 -28 -64q-3 -4 -8 -8q-2 -1 -8 -5l-9 -6q-13 -9 -19 -21q-2 -4 -2 -11q0 -5 8 -8.5t13 -0.5q12 7 15 11q5 6 13.5 18.5t10.5 14.5q3 4 6 5q13 5 48 11q11 1 23 -3q21 -8 41 -6q14 1 15 13
q2 13 -13 16q-18 3 -30 2q-17 -2 -27 8l-8 8q-9 16 -16 29q-2 3 -1 9q1 4 6 30v0zM250 447l135 -136h-3h-118q-14 0 -14 14v118v4zM201 200q-2 13 -2 14q-3 12 -15 12q-10 0 -14 -12q-8 -23 1 -48q1 -3 0 -8q-9 -32 -28 -64q-3 -4 -8 -8q-2 -1 -8 -5l-9 -6q-13 -9 -19 -21
q-2 -4 -2 -11q0 -5 8 -8.5t13 -0.5q12 7 15 11q5 6 13.5 18.5t10.5 14.5q3 4 6 5q13 5 48 11q11 1 23 -3q21 -8 41 -6q14 1 15 13q2 13 -13 16q-18 3 -30 2q-17 -2 -27 8l-8 8q-9 16 -16 29q-2 3 -1 9q1 4 6 30zM184 147q12 -24 27 -39q-21 -6 -51 -14q9 19 24 53zM134 75
q-12 -23 -26 -28q10 19 26 28zM279 97q-13 -1 -34 8q6 3 18.5 0t15.5 -8zM182 186q-5 22 2 33q4 -12 -2 -33v0zM184 147q12 -24 27 -39q-10 -2 -28 -7.5t-23 -6.5q3 7 11 25t13 28v0zM134 75q-12 -23 -26 -28q10 19 26 28v0zM279 97q-13 -1 -34 8q6 3 18.5 0t15.5 -8v0z
M182 186q-5 22 2 33q4 -12 -2 -33v0z" />
    <glyph glyph-name="pin" unicode="&#xf125;" 
d="M367 -21q-9 0 -16 6l-302 303q-10 9 -5.5 22t17.5 15q24 4 48 4q118 0 201 -83q49 -49 70 -115t9 -134q-2 -13 -15 -17q-3 -1 -7 -1zM490 200h-3q-75 8 -145 78t-78 145q-2 16 12.5 23t25.5 -5l203 -203q12 -11 5 -26q-6 -12 -20 -12v0zM234.5 260q-9.5 0 -16 6.5
t-6.5 15.5t7 16l70 70q6 6 15.5 6t16 -6.5t6.5 -15.5t-6 -16l-71 -70q-6 -6 -15.5 -6zM346 148q-9 0 -15.5 6.5t-6.5 16t6 15.5l70 71q7 6 16 6t15.5 -6.5t6.5 -16t-6 -15.5l-70 -70q-7 -7 -16 -7zM22.5 -64q-9.5 0 -16 6.5t-6.5 16t7 15.5l193 194q7 6 16 6t15.5 -6.5
t6.5 -15.5t-6 -16l-194 -193q-6 -7 -15.5 -7zM219 266l102 102l95 -124l-86 -89z" />
    <glyph glyph-name="pinterest" unicode="&#xf126;" 
d="M256 448q106 0 181 -75t75 -181q0 -70 -34.5 -128.5t-93.5 -93t-128 -34.5q-37 0 -73 11q19 29 26 54l18 71q7 -13 25 -22.5t38 -9.5q61 0 99.5 49.5t38.5 125.5q0 59 -45.5 103t-116.5 44q-85 0 -134 -49.5t-49 -110.5q0 -35 13 -61t39 -37q10 -4 13 7q1 2 3 10t2 10
q2 8 -3 14q-17 20 -17 51q0 50 34.5 86t91.5 36q50 0 78 -27.5t28 -70.5q0 -57 -22.5 -96.5t-58.5 -39.5q-20 0 -32.5 14.5t-7.5 34.5q3 12 9 31.5t9.5 34.5t3.5 25q0 17 -8.5 28t-25.5 11q-21 0 -35.5 -19t-14.5 -48q0 -10 2.5 -20.5t4.5 -14.5l2 -5q-28 -119 -33 -140
q-6 -24 -5 -58q-68 30 -110.5 93.5t-42.5 140.5q0 106 75 181t181 75z" />
    <glyph glyph-name="play" unicode="&#xf127;" 
d="M225 77q-6 0 -10.5 7t-4.5 19v189q0 11 4.5 18t10.5 7q5 0 10 -4l110 -94q9 -8 9 -21.5t-9 -21.5l-110 -95q-5 -4 -10 -4v0zM226 295v-1q-1 -1 -1 -2v-189q0 -2 1 -3l2 1l109 94l2 2l-1 1q0 1 -1 1l-109 95zM256 -64q-106 0 -181 75t-75 181t75 181t181 75t181 -75
t75 -181t-75 -181t-181 -75zM256 403q-87 0 -149 -62t-62 -149t62 -149t149 -62t149 62t62 149t-62 149t-149 62z" />
    <glyph glyph-name="plus" unicode="&#xf128;" 
d="M256 85q-9 0 -15.5 6t-6.5 15v172q0 9 6.5 15t15.5 6t15.5 -6t6.5 -15v-172q0 -9 -6.5 -15t-15.5 -6zM341 170h-171q-9 0 -15 6.5t-6 15.5t6 15.5t15 6.5h171q9 0 15.5 -6.5t6.5 -15.5t-6.5 -15.5t-15.5 -6.5zM256 -64q-106 0 -181 75t-75 181t75 181t181 75t181 -75
t75 -181t-75 -181t-181 -75v0zM256 405q-88 0 -150.5 -62.5t-62.5 -150.5t62.5 -150.5t150.5 -62.5t150 62.5t62 150.5t-62 150.5t-150 62.5v0z" />
    <glyph glyph-name="share" unicode="&#xf129;" horiz-adv-x="488" 
d="M80 112q-33 0 -56.5 23.5t-23.5 56.5t23.5 56.5t56.5 23.5t56.5 -23.5t23.5 -56.5t-23.5 -56.5t-56.5 -23.5zM408 288q-33 0 -56.5 23.5t-23.5 56.5t23.5 56.5t56.5 23.5t56.5 -23.5t23.5 -56.5t-23.5 -56.5t-56.5 -23.5zM408 -64q-33 0 -56.5 23.5t-23.5 56.5t23.5 56.5
t56.5 23.5t56.5 -23.5t23.5 -56.5t-23.5 -56.5t-56.5 -23.5zM347 27q-6 0 -10 2l-211 122q-7 4 -9.5 12.5t2 15.5t13 9.5t15.5 -1.5l210 -122q8 -4 10 -12.5t-2 -15.5q-6 -10 -18 -10v0zM137 195q-12 0 -18 10q-5 7 -2.5 15.5t9.5 12.5l211 122q7 4 15.5 2t12.5 -9.5t2 -16
t-10 -12.5l-210 -122q-5 -2 -10 -2v0z" />
    <glyph glyph-name="star-circle" unicode="&#xf12a;" 
d="M256 -64q-106 0 -181 75t-75 181t75 181t181 75t181 -75t75 -181t-75 -181t-181 -75zM256 403q-87 0 -149 -62t-62 -149t62 -149t149 -62t149 62t62 149t-62 149t-149 62zM256 316l31 -95h100l-81 -58l31 -95l-81 58l-81 -58l31 95l-81 58h100z" />
    <glyph glyph-name="star" unicode="&#xf12b;" horiz-adv-x="507" 
d="M253 448l60 -184h194l-157 -114l60 -184l-157 114l-156 -114l60 184l-157 114h194z" />
    <glyph glyph-name="store-apple" unicode="&#xf12c;" 
d="M512 312q0 -6 -4.5 -10t-10.5 -4h-482q-6 0 -10.5 4t-4.5 10v118q0 6 4.5 10.5t10.5 4.5h482q6 0 10.5 -4.5t4.5 -10.5v-118zM113 372q-1 12 10 19q-6 9 -18 9q-4 1 -10.5 -1.5t-8.5 -2.5q-1 0 -6.5 2t-9.5 2q-13 0 -20 -12q-6 -13 -3.5 -26t9.5 -24q9 -12 16 -12
q2 0 7 2t9 2t8.5 -2t7.5 -2q7 0 15 12q5 8 7 14q-13 5 -13 20zM100 408q6 8 5 16q-8 0 -14 -7.5t-5 -15.5q8 0 14 7zM170 327v49h-7v-49h7zM190 375l-8 -1q-1 -9 -4 -17l5 1q4 6 7 17zM226 327l-15 47h-9l-15 -47h8l4 14h15l4 -14h8zM213 346h-13l4 12q2 6 2 9q2 -7 3 -9z
M265 344q0 8 -4 12.5t-10 4.5q-7 0 -11 -6l-1 6h-6v-12v-36h7v18h1q2 -5 9 -5q6 0 10 5q5 5 5 13zM257 344q0 -6 -2 -9t-6 -3t-6.5 2.5t-2.5 6.5v5q0 1 1 3q0 3 2.5 4.5t5.5 1.5q4 0 6 -3t2 -8zM304 344q0 8 -4 12.5t-10 4.5q-8 0 -12 -6v6h-7q1 -6 1 -12v-36h7v18
q3 -5 10 -5q6 0 10 5q5 5 5 13zM296 344q0 -6 -2.5 -9t-6.5 -3q-3 0 -5.5 2.5t-2.5 6.5v5v3q1 3 3.5 4.5t4.5 1.5q4 0 7 -3q2 -3 2 -8zM347 340q0 5 -3 8t-9 6q-5 2 -6 3q-3 2 -3 5q0 2 2 4t6 2q5 0 9 -2l2 6q-4 2 -10 2q-8 0 -12 -3.5t-4 -9.5q0 -9 12 -13q5 -2 7 -4t2 -5
t-2.5 -5t-6.5 -2q-6 0 -11 3l-2 -6q5 -3 12 -3q8 0 13 4q4 4 4 10zM372 355v5h-9v9l-7 -2v-7h-5v-5h5v-17q0 -6 2.5 -9t7.5 -3q3 0 5 1v6q-1 -1 -3 -1q-5 0 -5 7v16h9zM409 344q0 7 -4 12q-5 5 -12 5q-8 0 -12.5 -5t-4.5 -13q0 -7 4.5 -12t11.5 -5q8 0 12 5q5 5 5 13z
M401 343.5q0 -4.5 -2 -7.5q-2 -4 -6.5 -4t-6.5 4q-2 3 -2 7.5t2 8.5t6.5 4t6.5 -4t2 -8.5zM433 354v7h-2q-3 0 -5.5 -2t-3.5 -5v6h-7v-10v-23h8v18q0 4 2 6q2 3 6 3h2zM467 345q0 7 -3 11q-4 5 -11.5 5t-11.5 -5t-4 -13t4.5 -12.5t11.5 -4.5t12 2l-1 6q-5 -2 -9 -2
q-5 0 -8 2q-3 3 -3 8h22q1 1 1 3zM459 347h-15q0 4 2 6q2 3 6 3t6 -3q2 -2 1 -6zM181 418v3h-19v-3h7v-22h4v22h8zM200 406q0 4 -1 6q-2 3 -6 3t-6.5 -3t-2.5 -7t2.5 -6.5t6.5 -2.5t6 1v3q-3 -1 -5 -1q-3 0 -4.5 1.5t-1.5 3.5h12v2zM196 407h-8q0 2 1 3q2 2 4 2t3 -2
q1 -1 0 -3zM198 422h-4l-3 -5h3zM210 396v27h-4v-27h4zM232 406q0 4 -1 6q-2 3 -6 3t-6.5 -3t-2.5 -7t2.5 -6.5t6.5 -2.5t6 1v3q-3 -1 -5 -1q-3 0 -4.5 1.5t-1.5 3.5h12v2zM228 407h-8q0 2 1 3q1 2 3.5 2t3.5 -2v-3zM230 422h-4l-3 -5h3zM251 414q-2 1 -4 1q-5 0 -7.5 -3
t-2.5 -7t2.5 -6.5t6.5 -2.5q3 0 5 1l-1 3q-1 -1 -3 -1q-3 0 -4.5 2t-1.5 4.5t1.5 4.5t4.5 2q2 0 3 -1zM272 396v11q0 4 -2 6q-1 2 -4 2t-5 -3v11h-4v-27h4v11v2q1 3 4 3t3 -5v-11h4zM293 396v5v6q0 8 -7 8q-4 0 -7 -2l1 -2q2 1 5 1q4 0 4 -4q-5 0 -8 -1.5t-3 -5.5
q0 -2 1.5 -3.5t4.5 -1.5t5 2v-2h4zM289 403v-1l-2 -2t-2 -1t-2 0.5t-1 2.5q0 3 7 3v-2zM309 411v4h-1t-2.5 -1t-2.5 -3v3h-3v-5v-13h4v10q0 2 1 3.5t3 1.5h1zM330 414h-3v-2q-2 3 -6 3q-3 0 -5.5 -2.5t-2.5 -7.5q0 -4 2.5 -6.5t5.5 -2.5q4 0 5 3v-2q0 -5 -5 -5q-3 0 -5 1
l-1 -3q2 -1 6 -1t7 2q2 2 2 8v10v5zM326 404v-2t-1.5 -2t-2.5 -1q-2 0 -3.5 2t-1.5 4q0 3 1.5 5t3.5 2t3 -1.5t1 -3.5v-3zM352 406q0 4 -1 6q-2 3 -6 3t-6.5 -3t-2.5 -7t2.5 -6.5t6.5 -2.5t6 1v3q-2 -1 -5 -1t-4.5 1.5t-1.5 3.5h12v2zM349 407h-9q0 2 1 3q2 2 4 2t3 -2
q1 -1 1 -3zM368 411v4h-1q-2 0 -3.5 -1t-1.5 -3v3h-4v-5v-13h4v10q0 2 1 3.5t4 1.5h1zM400 396v5v22h-4v-11q-2 3 -5 3q-4 0 -6 -2.5t-2 -7.5q0 -4 2 -6.5t5 -2.5q4 0 6 3v-3h4zM396 404q0 -2 -1.5 -3.5t-3.5 -1.5t-3 2t-1 4.5t1 4.5t3 2t3 -1t2 -3v-1v-3zM421 396
q-1 2 -1 5v6q0 8 -7 8q-4 0 -6 -2l1 -2q2 1 4 1q4 0 4 -4q-5 0 -7.5 -1.5t-2.5 -5.5q0 -2 1.5 -3.5t3.5 -1.5q4 0 6 2v-2h4zM416 403v-1q0 -1 -1 -2t-2.5 -1t-2 0.5t-0.5 2.5q0 3 6 3v-2zM443 396v11q0 4 -2 6t-4 2t-4 -1l-2 -2v2h-4v-5v-13h4v11q0 2 1.5 3.5t2.5 1.5
q4 0 4 -5v-11h4zM461 402q0 3 -4 5l-3 1.5t-1 1.5t1 1.5t2 0.5q2 0 4 -1l1 3q-2 1 -5 1t-5 -1.5t-2 -4.5t5 -5q2 0 2.5 -1t0.5 -2q0 -2 -3 -2q-2 0 -4 1l-1 -3q2 -1 5.5 -1t5 1.5t1.5 4.5z" />
    <glyph glyph-name="store-google" unicode="&#xf12d;" 
d="M493 296h-474q-8 0 -13.5 5.5t-5.5 13.5v114q0 8 5.5 13.5t13.5 5.5h474q8 0 13.5 -5.5t5.5 -13.5v-114q0 -8 -5.5 -13.5t-13.5 -5.5zM258.5 366q-6.5 0 -11.5 -5t-5 -12t5 -11.5t11.5 -4.5t11.5 4.5t5 11.5t-5 12t-11.5 5zM258.5 340q-9.5 0 -9.5 9.5t9.5 9.5t9.5 -9.5
t-9.5 -9.5zM223 366q-7 0 -11.5 -5t-4.5 -12t4.5 -11.5t11.5 -4.5t11.5 4.5t4.5 11.5t-4.5 12t-11.5 5zM223 340q-9 0 -9 9.5t9 9.5t9 -9.5t-9 -9.5zM181 361v-7h16q0 -6 -3 -9q-5 -5 -12.5 -5t-13 5.5t-5.5 13t5.5 13t12.5 5.5t12 -5l5 4q-7 7 -17 7t-17.5 -7t-7.5 -17.5
t7.5 -18t17.5 -7.5q11 0 18 7q5 6 5 16v5h-23zM353 355q-4 11 -14 11q-6 0 -10.5 -5t-4.5 -12q0 -6 4.5 -11t11.5 -5q9 0 13 7l-5 4q-3 -4 -8 -4t-8 4l22 9zM331 350q0 9 8 9q5 0 6 -3zM313 334h7v48h-7v-48zM302 362q-3 4 -9 4t-10.5 -5t-4.5 -11.5t4.5 -11.5t10.5 -5t9 4
v-2q0 -10 -9 -10q-6 0 -8 6l-6 -3q4 -9 14 -9q15 0 15 17v29h-6v-3zM294 340q-9 0 -9 9.5t9 9.5q8 0 8 -9.5t-8 -9.5zM386 382h-17v-48h7v18h10q6 0 11 4t5 10.5t-5 11t-11 4.5zM386 359h-10v16h10q9 0 9 -8t-9 -8zM430 366q-9 0 -13 -8l7 -2q1 3 6 3q7 0 8 -6q-4 1 -8 1
q-13 0 -13 -10q0 -11 11 -11q6 0 9 5h1v-4h6v18q0 14 -14 14zM429 340q-5 0 -5 4q0 5 7 5q3 0 7 -2q-1 -7 -9 -7zM469 365l-8 -21l-8 21h-8l13 -29l-8 -16h8l19 45h-8zM406 334h7v48h-7v-48zM40 419v1l47 -47v-1l-47 -47q-2 2 -2 5v84q0 4 2 5zM103 356l-16 16v1l16 15
l18 -10q10 -6 0 -11zM103 356l-16 16l-47 -47q2 -3 7 0l56 31v0zM103 388l-16 -16l-47 47q2 3 7 1zM103 356l-56 -31q-4 -3 -7 0v0v0q3 -2 7 0zM40 325v0q-2 2 -2 5v1q0 -4 2 -6zM121 367q4 2 4 5q0 -3 -4 -5l-18 -11zM47 419l74 -42q4 -2 4 -5q0 3 -4 6l-74 42
q-4 2 -6.5 0.5t-2.5 -6.5q0 4 2.5 5.5t6.5 -0.5zM157 399v22h7q5 0 8 -3t3 -8t-3 -8t-8 -3h-7zM157 398h7q5 0 8 3.5t3 8.5t-3 8.5t-8 3.5h-7h-1v-1v-22v-1h1zM159 401v0h5q4 0 6 2.5t2 6.5t-2 6.5t-6 2.5h-5v0v-18zM160 402v16h4q3 0 5.5 -2t2.5 -6t-2.5 -6t-5.5 -2h-4z
M159 401v0h5q4 0 6 2.5t2 6.5t-2 6.5t-6 2.5h-5v0v-18zM160 402v16h4q3 0 5.5 -2t2.5 -6t-2.5 -6t-5.5 -2h-4zM157 399h7q5 0 8 3t3 8t-3 8t-8 3h-7v-22zM159 401v18h5q3 0 5.5 -2.5t2.5 -6.5t-2.5 -6.5t-5.5 -2.5h-5zM182 399l-2 22q2 4 2 0v-22zM179 399h3v22h-3v-22z
M185 404q1 -3 3.5 -4.5t5.5 -1.5h13l-4 13q-2 5 8 7q19 4 25 0q12 -7 -198 24q-18 3 -38 6zM201 417q-1 2 -2.5 3.5t-4.5 1.5q-4 0 -6 -2t-2 -4.5t1.5 -4t5.5 -2.5l4 -2l-6 -4q-2 1 -2 3l-3 -1zM194 399q-3 0 -5 1.5t-3 3.5q0 2 0.5 2.5t1.5 -1.5t2 -3q1 1 4 2t3.5 1.5
t-0.5 2.5q-1 1 -4 2t-4.5 2.5t-1.5 3.5t2 4t5 2q2 0 4 -1.5t2 -3.5zM194 398q1 0 2.5 0.5t2.5 1.5t1.5 2t0.5 2.5t-0.5 3t-1.5 2.5t-2 1.5t-3 0.5q-2 1 -3 2t-1 2t1 2t2.5 1t3 -1t1.5 -2l3 1q-1 2 -3 3.5t-4 1.5q-4 0 -5.5 -2t-1.5 -4t1.5 -3.5t4.5 -2.5t4 -2t1 -3t-1 -3
t-3 -1t-3.5 1.5l-2.5 2.5l-2 -1q0 -3 2.5 -4.5t5.5 -1.5zM208 399l-2 22h7q3 0 5 -2t2 -4.5t-2 -4.5t-5 -2h-5v-9zM208 399l1 9h4q3 0 5.5 2t2.5 5t-2.5 5t-5.5 2h-8v-23h3zM208 411v-1h5q0 2 1 4.5t1 3.5t-2 1h-5v0v-8zM209 411v7h4v-7h-4zM208 411v-1h5q0 2 1 4.5t1 3.5
t-2 1h-5v0v-8zM209 411v7h4v-7h-4zM208 399v9h5q3 0 5 2t2 5t-2 4.5t-5 1.5h-8v-22h3zM208 411v8h5q2 0 3 -1.5t1 -3t-1 -2.5t-3 -1h-5zM242.5 402q-3.5 -3 -8.5 -3t-8 3t-3 8t3 8.5t8 3.5t8.5 -3.5t3.5 -8.5t-3.5 -8zM242.5 401.5q3.5 3.5 3.5 8.5t-3.5 8.5t-8.5 3.5
t-8.5 -3.5t-3.5 -8.5t3.5 -8.5t8.5 -3.5t8.5 3.5zM227.5 403.5q2.5 -2.5 6.5 -2.5t6.5 2.5t2.5 6.5t-2.5 7t-6 3t-6.5 -3t-3 -7t2.5 -6.5zM228.5 403.5q-2.5 2.5 -2.5 6.5t2.5 6.5t6 2.5t6 -2.5t2.5 -6.5t-2.5 -6.5t-6 -2.5t-6 2.5zM227.5 403.5q2.5 -2.5 6.5 -2.5t6.5 2.5
t2.5 6.5t-2.5 7t-6 3t-6.5 -3t-3 -7t2.5 -6.5zM228.5 403.5q-2.5 2.5 -2.5 6.5t2.5 6.5t6 2.5t6 -2.5t2.5 -6.5t-2.5 -6.5t-6 -2.5t-6 2.5zM242.5 401.5q3.5 3.5 3.5 8.5t-3.5 8.5t-8.5 3.5t-8 -3.5t-3 -8.5t3 -8.5t8 -3.5t8.5 3.5zM228.5 403.5q-2.5 2.5 -2.5 6.5t2.5 6.5
t6 2.5t6 -2.5t2.5 -6.5t-2.5 -6.5t-6 -2.5t-6 2.5zM253 399l-3 22q1 3 3 0l11 -17v-1l1 -1v6v13q2 4 2 0v-22q0 -3 -2 0l-13 20l1 -6v-14zM265 421l-1 -13v-3l-14 23v-29h3v14v3l15 -24v29h-3zM250 399h3v14v4l12 -18h3v22h-3v-13v-4l-11 17h-4v-22zM275 399l-2 22q2 4 2 0
v-22zM273 399h3v22h-3v-22zM296 415q0 3 -2 5t-5 2h-8v-24h9q3 0 5 2t2 5zM296 405q0 -2 -2 -4t-4 -2h-9v22h8q3 0 4.5 -1.5t1.5 -4.5zM0 448l293 -36q-9 1 -9 -1h5q0 1 0.5 2t0.5 2q2 4 -1 4h-5v-7zM284 412v6h5v-6h-5zM284 401v0h6q0 2 1 4q1 4 -1 4h-6v0v-8zM284 402v7h6
v-7h-6zM0 448l293 -36q-9 1 -9 -1h5q0 1 0.5 2t0.5 2q2 4 -1 4h-5v-7zM284 412v6h5v-6h-5zM284 401v0h6q0 2 1 4q1 4 -1 4h-6v0v-8zM284 402v7h6v-7h-6zM284 401v0h6q0 2 1 4q1 4 -1 4h-6v0v-8zM284 402v7h6v-7h-6zM281 399h9q2 0 4.5 1.5t2.5 4.5q0 2 -1.5 3.5t-2.5 1.5v1
q1 0 2 1.5t1 2.5q0 3 -2 4.5t-5 1.5h-8v-22zM284 412v7h5q2 0 3 -1.5t1 -2.5t-1 -2t-3 -1h-5zM284 401v8h6q1 0 2.5 -1t1.5 -2.5t-1.5 -3t-2.5 -1.5h-6zM301 421l-1 -23h13v3l-9 1v19h-3zM301 399v22q2 4 2 0v-20v0h10q4 -2 0 -2h-12zM301 399h12v2h-10v20h-2v-22zM330 421
l-10 -2v-8h9q4 -2 0 -2h-9v-8h10q4 -2 0 -2h-13v22h13zM329 411l-9 1v6h10v3l-13 1v-24h13v3l-10 1v6h9v3zM330 419v2h-13v-22h13v2h-10v8h9v2h-9v8h10zM340 404q0 -3 2.5 -4.5t5.5 -1.5h13l-4 13q-4 13 40 13l15 -2q-40 -6 -412 26zM355 417q0 2 -2 3.5t-5 1.5t-5.5 -1.5
t-2.5 -4.5t2 -4.5t5 -2.5t4 -2l-6 -4q-2 1 -2 3l-3 -1zM348 399q-2 0 -4.5 1.5t-3.5 3.5q1 2 1 2.5t1 -1.5t2 -3q1 1 4 2t3.5 1.5t-0.5 2.5q-1 1 -4 2t-4.5 2.5t-1.5 3.5t2 4t5 2t4.5 -1.5t1.5 -3.5zM348 398q1 0 2.5 0.5t2.5 1.5l2 2t1 2.5t-1 3t-2 2.5t-2 1.5t-3 0.5
q-2 1 -3 2t-1 2t1 2t3 1t3 -1t1 -2l3 1q-1 2 -2.5 3.5t-4.5 1.5t-5 -2t-2 -4t1.5 -3.5t4.5 -2.5t4.5 -2t1.5 -3t-1.5 -3t-3.5 -1t-3.5 1.5t-1.5 2.5l-3 -1q1 -3 3 -4.5t5 -1.5zM360 421l-1 -14q0 -4 2.5 -6.5t6.5 -2.5t6 2.5t2 6.5v14h-2l-1 -14q0 -3 -1.5 -4.5t-4 -1.5
t-3.5 1.5t-1 4.5v14h-3zM367.5 399q-3.5 0 -5.5 2t-2 6v14q2 4 2 0v-14q0 -3 1.5 -4.5t4 -1.5t4.5 1.5t2 4.5v14q2 4 2 0v-14q0 -4 -2.5 -6t-6 -2zM368 398q4 0 6 2.5t2 6.5v14h-3v-14q0 -3 -1.5 -4.5t-4 -1.5t-4 1.5t-1.5 4.5v14h-3v-14q0 -4 2.5 -6.5t6.5 -2.5zM393 398
l-2 10q2 0 3 2q2 2 2 5t-2 5t-5 2h-9v-23h3l-2 22h8q2 0 4 -2t2 -4q0 -3 -1.5 -4.5t-3.5 -1.5l-1 -1l7 -9h-3l-10 15v-15zM383 411v-1h1h4q0 2 1 4.5t1 3t-1 1.5h-5h-1v-8zM384 411v7h5l-1 -7h-4zM383 411v-1h1h4q0 2 1 4.5t1 3t-1 1.5h-5h-1v-8zM384 411v7h5l-1 -7h-4z
M381 399h3v9h3l6 -9h4l-7 9q3 1 4.5 2.5t1.5 4.5t-2.5 4.5t-4.5 1.5h-8v-22zM384 411v8h5q1 0 2.5 -1.5t1.5 -2.5q0 -2 -1.5 -3t-3.5 -1h-4z" />
    <glyph glyph-name="store-microsoft" unicode="&#xf12e;" 
d="M0 206v183h512v-183h-512zM242 294q0 -2 1.5 -3.5t4 -1.5t4 1.5t1.5 3.5t-1.5 3.5t-4 1.5t-4 -1.5t-1.5 -3.5zM252 245v38h-9v-38h9zM279 252q-6 0 -9 3t-3 9t3.5 9t8.5 3q2 0 4 -0.5t4 -2.5v9q-1 1 -4 1q-2 1 -5 1q-9 0 -14.5 -6t-5.5 -15q0 -8 5 -13.5t14 -5.5
q3 0 5.5 0.5t4.5 2.5v8q-2 -2 -4 -2.5t-4 -0.5v0zM313 284q-4 0 -6.5 -2t-3.5 -5v6h-9v-38h9v19q0 6 2.5 8.5t5.5 2.5h3.5t1.5 -1v9l-1 0.5t-2 0.5v0zM317 263q0 -9 5 -14t14 -5t14.5 5.5t5.5 14.5t-5 14.5t-14 5.5q-10 0 -15 -5.5t-5 -15.5zM326 264q0 6 2.5 9t7.5 3
t7.5 -3t2.5 -9t-2.5 -9t-7.5 -3t-7.5 3t-2.5 9v0zM369 273q0 2 1.5 3t4 1t4.5 -1l4 -2v8q-2 1 -4 1q-2 1 -5 1q-6 0 -10 -3.5t-4 -8.5q0 -4 2 -6.5t7 -4.5l6 -3q1 -1 1 -3t-1.5 -3t-4.5 -1q-2 0 -5 1t-5 3v-9q2 -1 5 -1q2 -1 5 -1q7 0 11 3.5t4 8.5q0 4 -2 6.5t-8 4.5
q-4 2 -5 3t-1 3v0zM389 263q0 -9 5 -14t14 -5t14.5 5.5t5.5 14.5t-5 14.5t-14 5.5t-14.5 -5.5t-5.5 -15.5zM398 264q0 6 3 9t7.5 3t7.5 -3t3 -9t-3 -9t-7.5 -3t-7.5 3t-3 9v0zM457 276v-20q0 -6 3 -9t9 -3q2 0 3.5 0.5t2.5 0.5v8q-1 -1 -2 -1h-2q-2 0 -3.5 1t-1.5 5v18h9v7
h-9v11l-9 -3v-8h-13v4q0 4 1.5 5.5t4.5 1.5h2t2 -1v8q-1 0 -2 1h-3q-6 0 -10 -4t-4 -10v-5h-6v-7h6v-31h9v31h13zM234 298h-12l-16 -39h-1l-15 39h-13v-53h9v41l16 -41h7l16 41v-41h9v53zM41 300v50h50v-50h-50zM96 300v50h50v-50h-50zM41 245v50h50v-50h-50zM96 245v50h50
v-50h-50zM183 318q5 0 8 1.5t6.5 5t5 7t1.5 6.5t-0.5 4.5t-2 3t-4 2.5t-5.5 1q-4 0 -8 -3.5t-6.5 -8.5t-2.5 -9t2.5 -7t5.5 -3zM179 328q0 6 4.5 12t8.5 6q3 0 5 -1t3 -2.5t1 -3.5q0 -6 -5 -12t-11 -6q-3 0 -4.5 2t-1.5 5zM212 331q2 11 3.5 15t1.5 6.5t-1 2.5t-1.5 -0.5
t-1 -2t-1.5 -7.5l-3 -12q-1 -6 -1 -8q0 -1 1 -2q1 0 1 -1t1 -2t3 -1q5 0 9.5 5.5t4.5 11.5q0 2 -1 3.5t-2 1.5q-3 0 -6.5 -2.5t-6.5 -7.5zM212 324q1 5 5 9.5t7 4.5l0.5 -1t0.5 -2q0 -2 -2 -5.5t-4.5 -5.5t-4.5 -2q-1 0 -2 2zM240 340l2 4v3l-0.5 1t-1.5 1t-1.5 -2.5
t-1 -4.5t-1 -2.5l-0.5 -0.5h-4q-2 0 -2 -1q0 -2 3 -2h2h1q0 -1 -1 -5.5t-1 -6.5q0 -6 4 -6q3 0 6 2.5t3 4.5h-1t-2 -1q-3 -2 -5 -2q-1 0 -1.5 0.5t-0.5 2.5t1 6.5t1.5 4.5t2.5 0.5t5 0.5t3 2q0 1 -0.5 1h-2.5h-3h-4zM269 326q0 1 -1 1h-1q-5 -5 -9 -5q-2 0 -3 1t-1 2t1 2
q5 3 8 5.5t3 5.5q0 2 -0.5 3t-2.5 1q-5 0 -8.5 -5.5t-3.5 -10.5q0 -4 1.5 -6t4.5 -2q4 0 8 3t4 5zM255 329q1 4 3 7t4 3q1 0 1 -1q0 -4 -8 -9zM286 335q2 0 2.5 -6t1.5 -7.5t2.5 -1.5t3 1t1.5 2t-1 1h-2t-1.5 1t-0.5 6q-1 4 -2 6t-3 2t-4 -2t-4.5 -7l-2.5 -5v3q1 6 1 8
t-0.5 3t-1.5 1l-1 -1t-1 -2q0 -7 -1 -13v-3q0 -2 2 -2q1 0 2 1t4 7q3 5 4 6.5t2 1.5zM304 324v5.5t2 7.5v1.5t-0.5 1t-1.5 0.5t-1.5 -1t-0.5 -2v-3q-2 -8 -2 -12t2 -4q1 0 1.5 0.5t0.5 1.5v4zM306.5 346q0.5 0 1.5 0.5t1.5 2.5l0.5 2q0 1 -0.5 1.5t-1.5 0.5t-2 -1t-1 -2v-2
q1 0 1 -1t0.5 -1zM316 327v1v1v4v1.5t0.5 2t0.5 2.5v1.5t-1 0.5t-1.5 -1t-1 -1.5t-0.5 -2v-1.5v-6q-1 -3 -1 -4q0 -4 0.5 -5.5t1.5 -1.5t1.5 0.5t1.5 2.5q0 6 4 11t6 5q1 0 1.5 -0.5t1.5 -0.5t1.5 0.5l0.5 0.5q0 2 -1.5 3t-2.5 1t-2 -0.5t-2 -1.5l-2.5 -2.5t-2.5 -3t-3 -5.5
v-1zM359 324q-1 -1 -3.5 -2t-4.5 -1l-1 0.5l-1 0.5q-1 0 -1.5 -0.5t-0.5 -1.5q0 -2 3 -2q4 0 8 2t4 5q0 1 -1 2.5t-4 2.5t-4 2t-1 2q0 2 3 3.5t4 1.5t1.5 -0.5l0.5 -0.5l0.5 0.5t0.5 1.5t-0.5 1.5t-2.5 0.5t-6 -2.5t-4 -6.5q0 -1 1.5 -2.5t5.5 -3.5q3 -2 3 -3zM380 328v-1
q0 -4 1 -6t3 -2h1t1 0.5t-1 1.5q-2 2 -2 6t2 9v1q0 2 -1 2t-1.5 -0.5t-1.5 -3.5q-2 -6 -5 -9t-5 -3t-2 3t2 9q1 2 1 4l-0.5 0.5t-1.5 0.5t-2 -1q0 -2 -1 -6q-1 -5 -1 -8t1.5 -4.5t2.5 -1.5q3 0 5.5 2.5t4.5 6.5zM395 327v1v1q1 3 1 4v1.5t0.5 2t0.5 2.5t-0.5 1.5t-1 0.5
t-1.5 -1t-1 -1.5v-2v-1.5q-1 -2 -1 -6v-4q0 -4 0.5 -5.5t1.5 -1.5t1.5 0.5t0.5 2.5q1 6 4.5 11t5.5 5q1 0 2 -0.5t1.5 -0.5t1 0.5l0.5 0.5q0 2 -1 3t-3 1q-1 0 -2 -0.5t-2 -1.5l-2.5 -2.5t-2.5 -3t-2 -5.5z" />
    <glyph glyph-name="thick-circle" unicode="&#xf12f;" horiz-adv-x="508" 
d="M230 104q-9 1 -15 7l-57 60q-6 6 -6 15t6.5 15t15.5 6t16 -6l39 -42l109 133q6 8 17 8q9 0 15 -6.5t6 -15.5q0 -8 -5 -14l-124 -152q-6 -8 -16 -8h-1zM256 -64q-106 0 -181 75t-75 181q0 44 22 97t53 84q31 29 83 50t94 21q106 0 181 -75t75 -181q0 -43 -20.5 -94.5
t-50.5 -82.5q-31 -31 -83.5 -53t-96.5 -22h-1zM256 405q-88 -1 -150 -63t-62 -150q0 -37 18 -81t44 -69q26 -28 71.5 -47.5t83.5 -19.5q88 0 150 62.5t62 150.5q0 38 -19.5 83t-47.5 71q-25 26 -69 44.5t-80 18.5h-1z" />
    <glyph glyph-name="timer" unicode="&#xf130;" horiz-adv-x="451" 
d="M397 309v-1q54 -63 54 -146q0 -94 -66 -160l-1 -1q-66 -65 -158 -65q-94 0 -160 66t-66 159.5t66 159.5q59 59 142 66v26h-20q-7 0 -12 5t-5 12.5t5 12.5t12 5h75q7 0 12.5 -5t5.5 -12.5t-5.5 -12.5t-12.5 -5h-20v-26q73 -6 130 -54l19 20q5 5 12 5t12 -5q6 -6 6 -13
t-6 -12zM361 27v0q56 56 56 135q0 78 -55 134l-1 1q-56 56 -135 56q-80 0 -135.5 -56t-55.5 -135.5t56 -134.5v0q55 -56 135 -56q78 0 134 55zM244.5 195q13.5 -8 18 -23.5t-3.5 -29t-23.5 -17.5t-29 4t-17.5 23t4 28.5t23 18t28.5 -3.5zM240.5 153q3.5 6 2 13t-8 10.5
t-13.5 2t-10.5 -8t-1.5 -13.5t8 -10.5t13 -1.5t10.5 8zM239 179q-3 0 -5 1q-10 4 -6 15l43 95q4 10 14.5 5.5t5.5 -14.5l-42 -95q-3 -7 -10 -7zM202 96q-3 0 -5 1q-10 4 -5 14l9 22q4 10 14.5 5.5t5.5 -14.5l-9 -21q-3 -7 -10 -7z" />
    <glyph glyph-name="twitter" unicode="&#xf131;" horiz-adv-x="517" 
d="M517 398q-22 -32 -53 -55v-13q0 -54 -20 -107t-57 -97t-95.5 -71t-128.5 -27q-89 0 -163 48q12 -2 25 -2q74 0 132 45q-34 1 -61.5 21.5t-37.5 52.5q10 -2 20 -2q14 0 28 4q-37 7 -61 36.5t-24 67.5v1q22 -12 48 -13q-47 32 -47 88q0 29 14 54q40 -49 96.5 -78.5
t122.5 -32.5q-3 11 -3 24q0 44 31 75t75 31q46 0 77 -33q36 7 68 25q-12 -38 -47 -58q32 3 61 16z" />
    <glyph glyph-name="user" unicode="&#xf132;" horiz-adv-x="382" 
d="M193 210q-44 0 -75 35t-31 84t31 84t75 35t75 -35t31 -84t-31 -84t-75 -35zM193 404q-26 0 -44 -22t-18 -53t18 -53t44 -22t44 22t18 53t-18 53t-44 22zM353 -64h-324q-8 0 -14.5 6t-7.5 15l-7 104q-2 29 17.5 57.5t47.5 39.5q126 45 252 0q29 -11 48 -39.5t17 -57.5
l-7 -104q0 -9 -6.5 -15t-15.5 -6v0zM50 -20h282l6 84q1 14 -10 30.5t-26 21.5q-111 40 -222 0q-15 -5 -26 -21.5t-10 -30.5z" />
    <glyph glyph-name="viadeo" unicode="&#xf133;" horiz-adv-x="327" 
d="M211 251q0 -1 0.5 -3t0.5 -3q0 1 -0.5 3t-0.5 3zM252 197q-14 -13 -33 -19q8 -19 8 -39q0 -31 -18 -56t-46 -34q46 57 53 130q3 31 -3 60q3 -8 23 2q-1 -2 -5.5 -4.5t-7.5 -5t-2 -3.5q22 -28 55.5 -19.5t45.5 44.5q8 25 4.5 54.5t-15.5 44.5q-7 -14 -19 -21t-29.5 -13.5
t-30.5 -15.5q-25 -16 -21 -51q-16 74 -74 126q72 -89 62 -204q-5 -68 -40 -126q-13 -3 -26 -3q-40 0 -67.5 27.5t-27.5 67t28 67t67 27.5q25 0 48 -13q5 15 4 41q-25 10 -52 10q-55 0 -94 -39t-39 -93.5t39 -93.5t94 -39t93.5 39t38.5 94q0 30 -13 58v0z" />
    <glyph glyph-name="whatsapp" unicode="&#xf134;" horiz-adv-x="510" 
d="M435 374q-30 30 -82.5 52t-95.5 22h-1q-105 0 -179.5 -74.5t-74.5 -179.5q0 -28 10 -65t24 -62l-36 -131l134 35q24 -13 59.5 -22t62.5 -9q105 0 179.5 74.5t74.5 179.5v1q0 43 -22 95.5t-53 83.5zM256 -17v0q-24 0 -55.5 8.5t-52.5 21.5l-7 4l-80 -21l21 78l-5 8
q-13 21 -22.5 54t-9.5 58q0 87 62 149t149 62t149 -61.5t62 -149t-62 -149.5t-149 -62zM372 141q-36 18 -44 21q-10 4 -14 -3q-6 -9 -20 -25q-5 -6 -14 -2l-7 3t-12 6t-14 9t-18 14q-20 18 -35 44q-4 6 3 13q1 1 2.5 3t3.5 4t3 4q3 3 6 10q3 5 0 11q-1 2 -4.5 10.5
t-8.5 20.5t-7 16q-4 11 -14 11q-4 1 -12 1q-10 -1 -17 -8q-22 -25 -22 -53q0 -31 26 -66l2 -3l4 -6t6.5 -8t8.5 -10.5t10 -11.5t12.5 -12t14 -12.5t15 -12t17 -11t18.5 -9.5q18 -7 36 -13t40 -2q11 1 25 10t18 20q8 23 4 30q-2 2 -13 7h1z" />
    <glyph glyph-name="youtube" unicode="&#xf135;" horiz-adv-x="256" 
d="M180 278h14v-64h-14v7q-3 -4 -7 -6t-8 -2t-6.5 3t-2.5 9v53h13v-49q0 -2 1 -3t3 -1q1 0 3.5 1.5t3.5 3.5v48zM140 275.5q5 -4.5 5 -12.5v-33q0 -8 -5 -13q-5 -4 -14 -4q-8 0 -13.5 4.5t-5.5 12.5v34q0 7 5 12q6 4 15 4q8 0 13 -4.5zM132 229v35q0 2 -1.5 3.5t-4 1.5
t-4.5 -1q-1 -2 -1 -4v-35q0 -2 1.5 -3.5t4 -1.5t4 1.5t1.5 3.5zM91 301h15l-17 -51v-36h-15v35l-17 52h14l10 -35h1zM194 148q1 -2 1 -5v-6h-10v6q0 4 1 5q1 2 4 2t4 -2zM153.5 148.5q1.5 -1.5 1.5 -4.5v-30q0 -3 -1 -4.5t-4 -1.5q-1 0 -2.5 1t-2.5 2v36q1 2 2 2.5t3 0.5
t3.5 -1.5zM153.5 148.5q-1.5 1.5 -3.5 1.5t-3 -0.5t-2 -2.5v-36q1 -1 2.5 -2t2.5 -1q3 0 4 1.5t1 4.5v30q0 3 -1.5 4.5zM219 193q15 0 26 -10.5t11 -25.5v-38q0 -15 -11 -25.5t-26 -10.5h-182q-16 0 -26.5 10.5t-10.5 25.5v38q0 15 11 25.5t26 10.5h182zM86 167v12h-41v-12
h14v-67h13v67h14zM124 100v58h-12v-44q-1 -2 -3 -3t-3 -1h-3v3v45h-12v-49q0 -5 2 -7q2 -3 6 -3q3 0 6.5 2t6.5 5v-6h12zM167 112v32q0 8 -3 11.5t-9 3.5q-2 0 -5 -1q-3 -2 -5 -4v25h-12v-79h12v4q2 -2 5 -4q2 -1 6 -1q5 0 8 3.5t3 9.5zM207 128v15q0 8 -4.5 12.5t-12 4.5
t-12.5 -5t-5 -12v-27q0 -8 4.5 -13t12.5 -5t13 5q4 4 4 13v3h-12v-2q0 -6 -1 -7t-4 -1t-4 1q-1 2 -1 7v11h22zM150 150q2 0 3.5 -1.5t1.5 -4.5v-30q0 -3 -1 -4.5t-4 -1.5q-1 0 -2.5 1t-2.5 2v36q1 2 2 2.5t3 0.5zM153.5 148.5q-1.5 1.5 -3.5 1.5t-3 -0.5t-2 -2.5v-36
q1 -1 2.5 -2t2.5 -1q3 0 4 1.5t1 4.5v30q0 3 -1.5 4.5zM153 148q-1 2 -3 2t-3 -0.5t-2 -2.5v-36q1 -1 2.5 -2t2.5 -1q3 0 4 1.5t1 4.5v30q0 3 -2 4v0z" />
  </font>
</defs>
</svg>
