<?xml version="1.0" standalone="no"?>
<!DOCTYPE svg PUBLIC "-//W3C//DTD SVG 1.1//EN" "http://www.w3.org/Graphics/SVG/1.1/DTD/svg11.dtd" >
<svg xmlns="http://www.w3.org/2000/svg">
<metadata>Generated by IcoMoon</metadata>
<defs>
<font id="icons" horiz-adv-x="1024">
<font-face units-per-em="1024" ascent="960" descent="-64" />
<missing-glyph horiz-adv-x="1024" />
<glyph unicode="&#x20;" horiz-adv-x="512" d="" />
<glyph unicode="&#xe900;" glyph-name="account" d="M-1.376-65.376q1.376 157.024 83.296 280.576t217.088 184.992q45.056-31.392 98.304-48.48t112.64-17.056 113.312 17.056 98.976 48.48q135.168-61.44 216.416-184.992t83.968-280.576h-1024zM253.952 701.952q2.72-107.872 75.104-180.224t181.6-75.104q109.216 2.72 180.896 75.104t74.4 180.224q-2.72 109.216-74.4 181.6t-180.896 75.104q-109.216-2.72-181.6-75.104t-75.104-181.6z" />
<glyph unicode="&#xe901;" glyph-name="accounts" d="M-1.376 192.672h264.864q32.768 49.152 78.496 88.064t100.352 64.864q-50.528 62.816-58.72 146.080h-1.376q-88.736 1.376-158.368 50.528-101.024-47.776-162.464-139.936t-62.816-209.568zM191.136 767.488q1.376-79.2 53.92-133.12t131.744-58.016q19.104 72.352 71.68 123.552t126.304 68.96q-2.72 80.544-56.672 134.496t-135.84 56.672q-80.544-2.72-135.168-56.672t-55.968-135.84zM255.328-64q1.376 118.784 62.816 210.944t162.464 138.592q68.256-49.152 158.368-49.152t158.368 49.152q101.024-46.432 162.464-138.592t62.816-210.944h-767.328zM446.464 512.16q2.72-81.92 56.672-135.84t135.84-56.672q81.92 2.72 135.84 56.672t56.672 135.84q-2.72 81.92-56.672 135.84t-135.84 55.296q-81.92-1.376-135.84-55.296t-56.672-135.84z" />
<glyph unicode="&#xe902;" glyph-name="anchor" horiz-adv-x="928" d="M855.136 280.416c-32.16 0-58.976-26.816-58.976-58.976 0-2.688 0-4.032 1.344-6.688-25.472-18.752-64.32-42.88-109.92-71.040-41.536-25.472-89.792-26.816-138.048-24.128l-37.536 176.928c0 0-4.032 112.576-8.032 221.152h156.832l60.32 13.408c8.032-12.064 22.784-20.096 37.536-20.096 25.472 0 46.912 21.44 46.912 46.912s-21.44 46.912-46.912 46.912c-16.096 0-30.816-8.032-38.88-21.44h-218.464c-1.344 46.912-2.688 88.448-4.032 112.576 46.912 14.752 81.76 58.976 81.76 111.232 0 64.32-52.288 116.608-116.608 116.608s-116.608-52.256-116.608-116.608c0-52.256 34.848-97.856 83.104-111.232-1.344-24.128-2.688-64.32-4.032-111.232h-217.12c-8.032 13.408-22.784 21.44-38.88 21.44-25.472 0-46.912-21.44-46.912-46.912s21.44-46.912 46.912-46.912c16.096 0 29.472 8.032 37.536 20.096l61.664-13.408h156.832c-5.376-108.576-9.376-221.152-9.376-221.152l-37.536-174.24c-60.32 0-117.952 6.688-166.208 37.536-33.504 22.784-63.008 34.848-83.104 50.944 0 2.688 1.344 5.376 1.344 9.376 0 32.16-26.816 58.976-58.976 58.976s-58.976-26.816-58.976-58.976c0-32.16 26.816-58.976 58.976-58.976 4.032 0 9.376 0 13.408 1.344 22.784-18.752 53.6-44.224 91.136-68.352 50.944-33.504 112.576-67.008 179.616-85.792 10.72-6.688 87.136-52.288 109.92-52.288 21.44 0 88.448 41.536 104.544 50.944 68.352 18.752 131.36 53.6 182.272 87.136 37.536 25.472 69.696 49.6 91.136 68.352 4.032-1.344 8.032-1.344 13.408-1.344 32.16 0 58.976 26.816 58.976 58.976-1.344 33.504-28.16 58.976-60.32 58.976zM400.768 807.168c0 33.504 28.16 61.664 61.664 61.664s61.664-28.16 61.664-61.664-28.16-61.664-61.664-61.664c-33.504 0-61.664 28.16-61.664 61.664z" />
<glyph unicode="&#xe903;" glyph-name="assistance" d="M46.432 297.824q4.096-152.928 106.496-255.328t255.328-106.496q86.016 0 153.6 30.048t105.824 84.64l-57.344 117.408q-42.336-51.872-92.16-77.152t-109.92-25.248q-98.304 2.72-163.84 68.256t-68.256 163.84q0 57.344 18.432 103.072t59.392 78.496l-15.008 143.36q-87.392-50.528-139.264-137.216t-53.248-187.744zM245.76 808.448q0-19.104 5.472-38.24 13.664-50.528 55.968-83.296l47.776-415.072 289.44-2.72 143.36-282.624 197.984 60.064-38.24 126.976-91.488-27.296-129.696 255.328-252.576 2.72-8.192 79.2 169.312 1.376-1.376 129.696-181.6-1.376-8.192 51.872q24.576 8.192 45.056 24.576 28.672 21.856 43.68 52.576t15.008 66.208q-1.376 64.16-44.384 107.168t-107.168 44.384q-64.16-1.376-106.496-44.384t-43.68-107.168z" />
<glyph unicode="&#xe904;" glyph-name="backprev" d="M211.616 448q0 15.008 13.664 25.952l573.44 457.376q13.664 10.912 23.2 6.144t9.568-22.528v-935.264q0-17.76-9.568-22.528t-23.2 6.144l-573.44 457.376q-13.664 12.288-13.664 27.296z" />
<glyph unicode="&#xe905;" glyph-name="backToTop" d="M5.472 770.208q0-19.104 12.288-30.72t30.048-12.96h939.36q17.76 1.376 30.048 12.96t12.288 30.72v141.984q0 17.76-12.288 30.048t-30.048 12.288h-939.36q-17.76 0-30.048-12.288t-12.288-30.048v-141.984zM172.704 247.296q-4.768 9.568 6.144 23.2l331.776 413.696q10.912 15.008 25.952 15.008t27.296-15.008l330.4-413.696q10.912-13.664 6.144-23.2t-22.528-9.568h-228v-264.864q0-17.76-12.288-30.048t-30.048-12.288h-141.984q-17.76 0-30.048 12.288t-12.288 30.048v264.864h-228q-17.76 0-22.528 9.568z" />
<glyph unicode="&#xe906;" glyph-name="battery" d="M51.872-21.664q1.376-17.76 12.96-30.048t30.72-12.288h824.672q17.76 0 30.048 12.288t12.288 30.048v682.656q0 17.76-12.288 30.048t-30.048 13.664h-157.024v212.992q0 17.76-12.288 30.048t-30.048 12.288h-425.984q-19.104 0-30.72-12.288t-12.96-30.048v-212.992h-155.648q-19.104-1.376-30.72-13.664t-12.96-30.048v-682.656zM180.224 192.672v383.648h653.984v-128.352zM379.552 704.672v126.976h256.672v-126.976h-256.672z" />
<glyph unicode="&#xe907;" glyph-name="bobble-hat" d="M1.376 183.136q1.376-75.104 51.2-126.304t124.928-55.296l589.824-1.376q66.912 2.72 110.592 46.432t45.056 109.216q0 38.24-16.384 70.304t-45.056 53.92l-1.376 8.192h1.376q13.664 8.192 16.384 24.576t-5.472 31.392l-12.288 20.48q24.576 20.48 42.336 46.432l23.2-13.664q15.008-8.192 31.392-5.472t23.904 16.384 2.048 28.672-20.48 24.576l-25.952 15.008q9.568 27.296 12.288 57.344h32.768q17.76 1.376 30.048 11.616t12.288 25.952-12.288 26.624-30.048 10.912h-36.864q-5.472 27.296-17.76 51.872l35.488 20.48q15.008 9.568 20.48 24.576t-2.048 28.672-23.904 17.056-31.392-6.144l-38.24-21.856q-17.76 19.104-38.24 35.488l23.2 39.584q8.192 16.384 5.472 32.096t-16.384 23.2-29.344 2.72-23.904-21.152l-24.576-40.96q-23.2 8.192-47.776 12.288v47.776q-1.376 19.104-11.616 31.392t-25.952 12.288-26.624-12.288-10.912-31.392v-47.776q-24.576-4.096-47.776-12.288l-24.576 40.96q-9.568 16.384-24.576 21.152t-28.672-2.72-17.056-23.2 6.144-32.096l23.2-39.584q-21.856-16.384-38.24-35.488l-38.24 21.856q-16.384 9.568-32.096 6.144t-23.2-17.056-2.72-28.672 21.152-24.576l34.144-20.48q-10.912-24.576-16.384-51.872h-36.864q-19.104 0-31.392-10.912t-12.288-28 16.384-28q-46.432-5.472-87.392-28.672t-69.632-58.72q-15.008 2.72-30.048 2.72-60.064-1.376-100.352-41.632t-41.632-100.352q-27.296-25.952-42.336-60.064t-15.008-72.352zM116.064 183.136q1.376 36.864 32.768 57.344 17.76 10.912 24.576 29.344t1.376 37.536q-1.376 4.096-1.376 8.192 0 10.912 7.52 19.104t19.104 7.52 17.056-4.768q21.856-16.384 48.48-10.24t38.912 30.72q15.008 31.392 43.008 50.528t63.488 20.48l6.816 1.376q39.584-1.376 71.008-21.856 27.296-19.104 43.68-49.152 10.912-23.2 34.816-30.048t45.056 5.472 45.728 11.616 45.056-12.288 32.768-32.096 12.288-46.432v-4.096q-1.376-19.104 8.192-34.816t27.296-22.528q23.2-10.912 24.576-38.24 0-16.384-11.616-28t-29.344-11.616h-585.728q-27.296 1.376-46.432 19.808t-19.104 47.104z" />
<glyph unicode="&#xe908;" glyph-name="book" d="M1.376 670.56l281.248-704.512q6.816-16.384 23.2-23.2t34.144-1.376l345.44 137.888q16.384 8.192 23.2 23.904t1.376 33.44l-282.624 704.512q-6.816 17.76-23.2 24.576t-32.768 0l-345.44-137.888q-17.76-8.192-24.576-23.904t0-33.44zM540 779.104q0.672 22.528 8.864 38.912l57.344 116.064q9.568 16.384 25.952 21.856t32.768-2.72l333.152-166.56q16.384-8.192 21.856-25.248t-2.72-33.44l-240.288-479.232q-8.192-16.384-18.432-15.712t-17.056 17.056l-195.232 488.8q-6.816 17.76-6.144 40.288z" />
<glyph unicode="&#xe909;" glyph-name="building" d="M4.096-21.664v682.656l370.016 299.008h356.352q17.76 0 29.344-12.288t12.96-30.048v-212.992l255.328-256.672v-469.664q0-17.76-12.288-30.048t-30.048-12.288h-84.64v383.648h-128.352v-383.648h-724.992q-19.104 0-30.72 12.288t-12.96 30.048zM132.448 64.352h199.328v255.328h-199.328v-255.328zM132.448 448h199.328v128.352h-199.328v-128.352zM445.088 64.352h199.328v255.328h-199.328v-255.328zM445.088 448h199.328v128.352h-199.328v-128.352zM445.088 704.672h199.328v126.976h-199.328v-126.976z" />
<glyph unicode="&#xe90a;" glyph-name="bus" d="M1.376 105.312q0-17.76 12.288-30.048t30.048-12.288h84.64v-86.016q1.376-17.76 12.96-30.048t30.72-12.288h99.68q17.76 0 29.344 12.288t12.96 30.048v86.016h397.312v-86.016q1.376-17.76 12.96-30.048t30.72-12.288h99.68q17.76 0 30.048 12.288t12.288 30.048v86.016h84.64q19.104 0 30.72 12.288t12.96 30.048v811.008q-1.376 17.76-12.96 30.048t-30.72 12.288h-937.984q-17.76 0-30.048-12.288t-12.288-30.048v-811.008zM128.352 318.304v512h128.352v-84.64q0-17.76 12.288-30.048t30.048-12.288h427.36q17.76 0 30.048 12.288t12.288 30.048v84.64h128.352v-512h-768.672zM158.368 198.144q0 27.296 17.76 45.056t45.056 17.76 45.056-17.76 17.76-45.056-17.76-45.728-45.056-18.432-45.056 18.432-17.76 45.728zM741.376 198.144q0 27.296 17.76 45.056t45.056 17.76 45.728-17.76 18.432-45.056-18.432-45.728-45.728-18.432-45.056 18.432-17.76 45.728z" />
<glyph unicode="&#xe90b;" glyph-name="call" d="M15.712 849.408q-32.096-66.912 7.52-163.84 102.4-253.952 279.904-435.552 181.6-177.504 435.552-279.904 95.584-38.24 163.168-6.816t104.448 129.696q9.568 30.048 2.72 53.92t-27.296 45.728q-32.768 31.392-68.256 58.016t-73.728 49.824q-62.816 43.68-97.632 38.912t-82.592-66.208q-23.2-27.296-49.152-32.096t-54.624 6.144q-92.832 35.488-156.32 98.976t-98.976 156.32q-12.288 28.672-6.816 54.624t32.768 49.152q61.44 47.776 66.208 82.592t-38.912 97.632q-23.2 38.24-49.824 74.4t-57.344 66.912-68.96 30.72q-15.008 0-31.392-5.472-98.304-36.864-130.4-103.776z" />
<glyph unicode="&#xe90c;" glyph-name="camera" d="M0 114.848q0-13.664 8.864-21.856t22.528-9.568h962.56q12.288 1.376 21.152 9.568t8.864 21.856v583.008q0 13.664-8.864 22.528t-21.152 8.864h-204.8l-30.048 60.064q-6.816 10.912-19.104 18.432t-25.952 8.864h-394.592q-12.288-1.376-25.248-8.864t-18.432-18.432l-30.048-60.064h-214.368q-13.664 0-22.528-8.864t-8.864-22.528v-583.008zM271.712 413.856q2.72 102.4 71.008 170.656t170.656 71.008q102.4-2.72 170.656-71.008t69.632-170.656q-1.376-102.4-69.632-170.656t-170.656-71.008q-102.4 2.72-170.656 71.008t-71.008 170.656zM372.736 413.856q1.376 60.064 40.96 99.68t99.68 40.96q58.72-1.376 98.304-40.96t40.96-99.68q-1.376-60.064-40.96-99.68t-98.304-40.96q-60.064 1.376-99.68 40.96t-40.96 99.68z" />
<glyph unicode="&#xe90d;" glyph-name="car" d="M0 165.376q1.376-17.76 12.96-30.048t29.344-12.288v-86.016q1.376-17.76 13.664-30.048t30.048-12.288h99.68q17.76 0 30.048 12.288t12.288 30.048v86.016h569.344v-86.016q0-17.76 12.288-30.048t30.048-12.288h99.68q17.76 0 30.048 12.288t12.288 30.048v86.016q17.76 0 30.048 12.288t12.288 30.048v299.008q0 17.76-12.288 30.048t-30.048 12.288h-28.672l-57.344 341.344q0 17.76-11.616 30.048t-30.72 12.288h-682.656q-17.76 0-30.048-12.288t-12.288-30.048l-57.344-341.344h-28.672q-17.76 0-29.344-12.288t-12.96-30.048v-299.008zM128.352 314.208q0 27.296 18.432 45.728t45.728 18.432 45.056-18.432 17.76-45.728-17.76-45.056-45.056-17.76-45.728 17.76-18.432 45.056zM212.992 506.72l43.68 256.672h512l42.336-256.672h-598.016zM341.344 236.384v42.336q1.376 19.104 12.96 30.72t29.344 12.96h256.672q17.76-1.376 30.048-12.96t12.288-30.72v-42.336q0-17.76-12.288-30.048t-30.048-12.288h-256.672q-17.76 0-29.344 12.288t-12.96 30.048zM768.672 314.208q0 27.296 18.432 45.728t45.728 18.432 45.056-18.432 17.76-45.728-17.76-45.056-45.056-17.76-45.728 17.76-18.432 45.056z" />
<glyph unicode="&#xe90e;" glyph-name="close" d="M1001.728 933.28c-35.616 31.168-89.056 31.168-120.224 0l-365.088-365.088-369.536 365.088c-35.616 31.168-89.056 31.168-120.224 0s-31.168-84.576 0-120.224l365.088-365.088-365.088-365.088c-31.168-35.616-31.168-89.056 0-120.224s84.576-31.168 120.224 0l365.088 365.088 365.088-365.088c31.168-31.168 89.056-31.168 120.224 0s31.168 89.056 0 120.224l-365.088 365.088 365.088 365.088c35.616 35.616 35.616 89.056 4.448 120.224z" />
<glyph unicode="&#xe90f;" glyph-name="closeerase" d="M-1.376 78.688q0 17.056 12.288 29.344l339.968 339.968-339.968 339.968q-12.288 12.288-12.288 29.344t12.288 30.72l99.68 99.68q13.664 12.288 30.048 12.288t30.048-12.288l339.968-339.968 339.968 339.968q12.288 12.288 29.344 12.288t30.72-12.288l99.68-99.68q12.288-13.664 12.288-30.72t-12.288-29.344l-339.968-339.968 339.968-339.968q12.288-12.288 12.288-29.344t-12.288-30.72l-99.68-99.68q-13.664-12.288-30.72-12.288t-29.344 12.288l-339.968 339.968-339.968-339.968q-13.664-12.288-30.048-12.288t-30.048 12.288l-99.68 99.68q-12.288 13.664-12.288 30.72z" />
<glyph unicode="&#xe910;" glyph-name="cloud" d="M-1.376 341.504q4.096-122.88 83.968-208.224t197.28-88.064h461.472q117.408 2.72 197.984 88.064t83.296 208.224q-1.376 94.208-53.92 166.56t-138.592 102.4q-32.768 109.216-120.832 176.128t-205.472 68.256q-117.408-1.376-206.176-69.632t-120.16-180.224q-80.544-32.768-129.024-103.776t-49.824-159.744zM99.68 341.504q0 62.816 36.864 110.592t96.928 65.536l19.104 5.472q62.816-1.376 86.688-25.952t23.904-27.296q1.376 5.472-12.288 53.92t-72.352 68.96q25.952 73.728 86.016 117.408t139.264 45.056q88.736-1.376 152.928-55.296t81.92-139.936l2.72-13.664q6.816-71.008-13.664-107.168t-23.2-36.192q2.72-1.376 43.008 17.056t73.056 75.776l4.096 8.192q45.056-23.2 71.008-66.208t27.296-96.256q-2.72-80.544-54.624-137.888t-126.976-58.72h-461.472q-73.728 1.376-126.304 58.72t-53.92 137.888z" />
<glyph unicode="&#xe911;" glyph-name="cloudrain" d="M-1.376 401.568q2.72-124.256 83.296-208.896t197.984-88.736h73.728v99.68h-73.728q-75.104 2.72-126.976 60.064t-54.624 137.888q1.376 62.816 37.536 110.592t97.632 65.536l19.104 5.472q62.816-1.376 86.688-25.952t22.528-27.296q2.72 5.472-11.616 53.92t-71.68 68.96q24.576 72.352 85.344 116.736t139.936 45.728q88.736-1.376 152.928-55.296t81.92-139.936l2.72-13.664q6.816-71.008-13.664-107.168t-24.576-36.192q4.096-1.376 44.384 17.056t73.056 75.776l4.096 8.192q43.68-23.2 70.304-66.912t28-95.584q-2.72-80.544-54.624-137.888t-126.976-60.064h-73.728v-99.68h73.728q117.408 4.096 197.984 88.736t83.296 208.896q-1.376 92.832-53.92 165.888t-138.592 103.072q-32.768 109.216-120.832 176.128t-205.472 68.256q-117.408-1.376-206.176-69.632t-120.16-180.224q-81.92-32.768-129.696-103.776t-49.152-159.744zM382.304 46.592q1.376-30.048 20.48-49.152t48.48-19.104 48.48 19.104 20.48 49.152q0 10.912-3.424 21.856t-10.24 19.104l-54.624 72.352-55.968-72.352q-5.472-8.192-9.568-19.104t-4.096-21.856zM484.704 215.904q1.376-30.048 21.152-49.824t49.152-19.808 49.152 19.808 19.808 49.824q0 12.288-3.424 22.528t-10.24 18.432l-55.968 75.104-55.968-73.728v-1.376q-5.472-8.192-9.568-18.432t-4.096-22.528z" />
<glyph unicode="&#xe912;" glyph-name="cloudsun" d="M1.376 307.36q2.72-124.256 83.296-206.848t197.984-85.344h461.472q117.408 2.72 197.984 85.344t83.296 206.848q-1.376 90.112-51.872 159.744t-133.792 99.68q25.952 16.384 40.96 42.336t16.384 57.344q-1.376 50.528-34.144 82.592t-81.92 33.44q-46.432 0-79.2-30.048-40.96 30.048-90.784 46.432t-104.448 16.384q-117.408-2.72-206.176-71.008t-120.16-180.224q-81.92-32.768-129.696-100.352t-49.152-156.32zM101.024 306.016q1.376 62.816 37.536 109.92t97.632 63.488l19.104 4.096q62.816-1.376 86.688-25.952t22.528-27.296q2.72 5.472-11.616 53.92t-71.68 68.96q24.576 72.352 85.344 116.736t139.936 45.728q88.736-2.72 152.928-55.968t81.92-139.264l2.72-13.664q6.816-71.008-13.664-107.168t-24.576-36.192q4.096-1.376 44.384 17.056t73.056 75.776l4.096 8.192q43.68-23.2 70.304-64.16t28-94.208q-2.72-80.544-54.624-135.168t-126.976-55.968h-461.472q-75.104 1.376-126.976 55.968t-54.624 135.168zM670.368 833.024l1.376-15.008v-16.384q4.096-5.472 12.288-8.192t15.008-2.72h8.192l5.472 2.72 5.472 6.816q4.096 5.472 6.816 13.664t0 13.664q-5.472 5.472-12.288 10.912l-12.288 9.568-10.912 9.568-12.288 6.816-5.472-2.72-1.376-13.664v-15.008zM806.912 838.496q-1.376-6.816 2.72-14.336t9.568-12.96l6.816-5.472 5.472-1.376 8.192 1.376q6.816 1.376 14.336 5.472t10.24 10.912q0 6.816-1.376 15.712t-2.72 15.712l-2.72 15.008-2.72 13.664-6.816 1.376-20.48-20.48-9.568-12.288q-6.816-6.816-10.912-12.288zM902.496 577.696q0-8.192 2.048-15.712t7.52-11.616q8.192-1.376 16.384-2.048t16.384-0.672l13.664-1.376 15.008 1.376 2.72 4.096-6.816 13.664-8.192 10.912-10.912 12.288q-4.096 8.192-9.568 13.664-2.72 1.376-6.816 1.376t-8.192-1.376q-8.192-2.72-13.664-6.816l-6.816-5.472-2.72-4.096v-8.192zM921.6 712.864l1.376-5.472 5.472-6.816q5.472-5.472 12.288-9.568t13.664-2.72q6.816 4.096 12.96 9.568t12.96 9.568l10.912 9.568 9.568 10.912-1.376 5.472-13.664 4.096-15.008 2.72q-6.816 1.376-15.008 2.72l-15.008 2.72h-1.376q-6.816-2.72-10.912-10.24t-5.472-14.336z" />
<glyph unicode="&#xe913;" glyph-name="cloudsunrain" d="M1.376 368.8q4.096-122.88 83.968-205.472t197.28-85.344h71.008v98.304h-71.008q-73.728 2.72-126.304 57.344t-53.92 135.168q0 62.816 36.864 109.216t96.928 64.16l19.104 4.096q62.816-1.376 86.688-25.952t23.904-28.672q1.376 6.816-12.288 54.624t-72.352 69.632q25.952 72.352 86.016 116.064t140.64 45.056q87.392-1.376 151.552-54.624t81.92-139.264l2.72-13.664q6.816-72.352-13.664-107.872t-23.2-35.488q2.72-2.72 43.008 15.712t73.056 75.776l4.096 8.192q45.056-23.2 71.008-64.16t27.296-92.832q-2.72-80.544-54.624-135.168t-126.976-57.344h-62.816v-98.304h62.816q117.408 2.72 197.984 85.344t83.296 205.472q-1.376 91.488-51.872 160.416t-133.792 100.352q25.952 15.008 41.632 41.632t15.712 58.016q-1.376 49.152-34.144 81.92t-81.92 34.144q-46.432-1.376-77.824-30.048-42.336 30.048-92.16 45.728t-103.072 15.712q-118.784-1.376-207.52-69.632t-120.16-180.224q-80.544-32.768-129.024-101.024t-49.824-157.024zM382.304 17.92q1.376-28.672 20.48-48.48t49.152-19.808 49.824 19.808 19.808 48.48q0 12.288-3.424 23.2t-10.24 19.104l-55.968 75.104-55.968-75.104q-5.472-8.192-9.568-19.104t-4.096-23.2zM484.704 188.576q0-30.048 19.808-49.824t49.824-19.808 49.824 19.808 19.808 49.824q0 12.288-3.424 22.528t-10.24 19.808l-55.968 73.728-55.968-73.728q-6.816-9.568-10.24-19.808t-3.424-22.528zM671.744 879.456q0-8.192 2.048-15.008t10.24-8.864 16.384-2.048h8.192l4.096 2.72 5.472 6.816q4.096 5.472 7.52 12.96t0.672 14.336q-5.472 5.472-12.288 9.568l-12.288 10.912-24.576 16.384-4.096-2.72-1.376-13.664v-31.392zM806.912 901.28q-1.376-8.192 3.424-15.008t8.864-12.288l6.816-5.472 5.472-1.376 8.192 1.376q6.816 1.376 14.336 5.472t10.24 10.912q0 6.816-2.72 16.384l-1.376 15.008-2.72 15.008-2.72 13.664-5.472 1.376q-1.376 0-10.912-9.568l-9.568-10.912q-5.472-5.472-10.912-12.288t-10.912-12.288zM902.496 640.512q0-8.192 2.048-16.384t7.52-12.288q8.192-1.376 16.384-1.376t16.384-1.376h28.672l2.72 5.472-6.816 12.288-8.192 12.288q-5.472 6.816-10.24 12.96t-10.24 12.96q-2.72 1.376-6.816 1.376-4.096-1.376-8.192-1.376-8.192-2.72-13.664-6.816l-6.816-5.472-2.72-5.472v-6.816zM922.976 775.68l1.376-5.472q0-1.376 4.768-6.816t12.288-10.24 14.336-3.424q5.472 4.096 12.288 10.912l12.288 9.568 10.912 9.568 10.912 10.912-1.376 5.472-15.008 4.096-13.664 2.72-15.008 1.376-15.008 2.72h-1.376q-6.816-1.376-10.912-8.864t-5.472-14.336z" />
<glyph unicode="&#xe914;" glyph-name="community" d="M0-23.040v299.008q0 17.76 8.864 38.24t21.152 34.144l324.96 323.584q13.664 13.664 30.72 12.96t29.344-12.96l323.584-323.584q12.288-13.664 20.48-34.144t9.568-38.24v-299.008q-1.376-17.76-12.96-30.048t-30.72-12.288h-212.992v255.328h-255.328v-255.328h-214.368q-17.76 0-29.344 12.288t-12.96 30.048zM640.352 605.024q0-9.568 6.144-15.712t15.712-6.144h106.496v128.352h126.976v-128.352h107.872q8.192 0 14.336 6.144t6.144 15.712v148.832q0 9.568-4.096 19.808t-10.912 17.056l-161.12 161.12q-6.816 6.816-15.008 6.816t-15.008-6.816l-162.464-161.12q-6.816-6.816-10.912-17.056t-4.096-19.808v-148.832z" />
<glyph unicode="&#xe915;" glyph-name="cruise-ship" d="M703.072 739.2c0 35.84-28.352 70.144-64.192 70.144h-255.264c-35.84 0-64.192-34.336-64.192-70.144v-32.832h383.616v32.832zM638.88 894.432c0 35.84-28.352 64.192-64.192 64.192s-64.192-28.352-64.192-64.192v-58.208h128.384v58.208zM767.264 569.024v43.296c0 35.84-28.352 70.144-64.192 70.144h-383.616c-35.84 0-64.192-34.336-64.192-70.144v-43.296l255.264 80.608 256.736-80.608zM220.928 125.696c31.36 25.376 59.712 52.256 98.528 52.256 70.144 0 103.008-89.568 191.072-89.568s122.4 89.568 191.072 89.568c38.816 0 65.664-28.352 98.528-52.256l77.632 298.528c8.96 34.336-13.44 67.168-47.776 73.152l-295.552 119.424c-23.872 4.48-23.872 4.48-49.248 0l-295.552-119.424c-34.336-5.984-56.736-38.816-47.776-73.152l79.104-298.528zM703.072 151.072c-70.144 0-103.008-89.568-191.072-89.568-89.568 0-122.4 89.568-191.072 89.568-70.144 0-104.48-89.568-191.072-89.568-56.736 0-89.568 37.312-128.384 64.192v-126.88c38.816-26.88 70.144-64.192 128.384-64.192 88.064 0 122.4 89.568 191.072 89.568 70.144 0 103.008-89.568 191.072-89.568 89.568 0 122.4 89.568 191.072 89.568 70.144 0 103.008-89.568 191.072-89.568 56.736 0 89.568 35.84 128.384 62.688v126.88c-38.816-26.88-71.648-62.688-128.384-62.688-88.064 0-120.896 89.568-191.072 89.568z" />
<glyph unicode="&#xe916;" glyph-name="date" d="M1.376-23.040q0-17.76 12.288-30.048t30.048-12.288h939.36q17.76 0 30.048 12.288t12.288 30.048v811.008q0 17.76-12.288 30.048t-30.048 12.288h-86.016v-767.328h-767.328v767.328h-86.016q-17.76 0-30.048-12.288t-12.288-30.048v-811.008zM200.704 745.632v170.656q0 17.76 12.288 30.048t30.048 12.288h42.336q19.104 0 30.72-12.288t12.96-30.048v-170.656q-1.376-17.76-12.96-30.048t-30.72-12.288h-42.336q-17.76 0-30.048 12.288t-12.288 30.048zM214.368 233.632q1.376-17.76 12.96-30.048t30.72-12.288h170.656q17.76 0 29.344 12.288t12.96 30.048v299.008q-1.376 17.76-12.96 29.344t-29.344 12.96h-170.656q-19.104-1.376-30.72-12.96t-12.96-29.344v-299.008zM400.032 703.328h226.656v126.976h-226.656v-126.976zM555.68 233.632q1.376-17.76 12.96-30.048t30.72-12.288h170.656q17.76 0 29.344 12.288t12.96 30.048v299.008q-1.376 17.76-12.96 29.344t-29.344 12.96h-170.656q-19.104-1.376-30.72-12.96t-12.96-29.344v-299.008zM697.696 745.632q1.376-17.76 12.96-30.048t30.72-12.288h42.336q17.76 0 30.048 12.288t12.288 30.048v170.656q0 17.76-12.288 30.048t-30.048 12.288h-42.336q-19.104 0-30.72-12.288t-12.96-30.048v-170.656z" />
<glyph unicode="&#xe917;" glyph-name="documents" d="M118.784-17.568q0-17.76 12.288-30.048t30.048-12.288h682.656q17.76 0 30.048 12.288t13.664 30.048v711.328h-228q-16.384 0-29.344 12.288t-12.96 30.048v228h-456.032q-17.76 0-30.048-12.288t-12.288-30.048v-939.36zM247.136 97.12v99.68h370.016v-99.68h-370.016zM247.136 281.44v99.68h512v-99.68h-512zM247.136 465.76v99.68h512v-99.68h-512zM659.456 764.768q0-12.288 8.192-19.808t20.48-8.864h199.328l-228 228v-199.328z" />
<glyph unicode="&#xe918;" glyph-name="doNotDisturb" d="M23.2-23.040q0-17.76 12.288-30.048t30.048-12.288h425.984q19.104 0 30.72 12.288t12.96 30.048v939.36q-1.376 17.76-12.96 30.048t-30.72 12.288h-425.984q-17.76 0-30.048-12.288t-12.288-30.048v-137.888q0-17.76 9.568-22.528t23.2 6.144q2.72 4.096 52.576 34.144t114.016 34.144q107.872-2.72 180.224-75.104t75.104-180.224q-2.72-109.216-75.104-181.6t-180.224-75.104q-64.16 4.096-114.016 34.144t-52.576 34.144q-13.664 10.912-23.2 6.816t-9.568-21.856v-394.592zM95.584 574.976q0 54.624 36.192 90.112t90.112 35.488 90.112-35.488 37.536-90.112q-1.376-54.624-37.536-90.784t-90.112-36.192-90.112 36.192-36.192 90.784zM651.264 778.4q-6.816-15.008 0.672-30.72t15.712-19.808 13.664-4.096h4.096q13.664 2.72 35.488 12.288l66.912 31.392-10.912-35.488-32.768-110.592q-9.568-31.392-12.288-43.68-2.72-15.008 2.72-27.296 9.568-19.104 27.296-25.952 6.816-1.376 12.288-1.376 13.664 0 28.672 6.816l172.032 80.544q19.104 9.568 25.952 25.248t-0.672 32.096-23.904 21.856-36.864-4.096l-95.584-43.68 51.872 169.312 2.72 13.664q1.376 6.816 0.672 15.008t-3.424 16.384q-6.816 13.664-16.384 19.104t-16.384 5.472q-17.76 1.376-40.96-9.568l-144.736-68.256q-19.104-9.568-25.952-24.576zM664.224 772.96q-4.768-9.568 0.672-20.48 6.816-15.008 18.432-13.664t30.72 9.568l94.208 45.056q-1.376-10.912-5.472-27.296l-12.288-38.24-32.768-110.592q-9.568-31.392-12.288-42.336t1.376-19.104q6.816-13.664 19.104-17.056t31.392 4.768l170.656 80.544q15.008 6.816 19.808 17.056t-0.672 21.152-16.384 14.336-25.952-3.424l-122.88-58.72 60.064 200.704q1.376 8.192 2.72 12.288t0.672 10.912-3.424 12.288q-6.816 15.008-20.48 15.712t-34.144-8.864l-144.736-68.256q-13.664-6.816-18.432-16.384zM677.216 767.488q4.096 6.816 10.912 9.568l146.080 68.256q19.104 8.192 24.576 6.816h1.376q4.096 1.376 9.568-8.192 1.376-2.72 1.376-7.52v-6.144l-2.72-10.912-69.632-230.752 152.928 71.008q9.568 5.472 15.008 3.424t8.192-6.816 0-9.568-12.288-10.24l-172.032-80.544q-12.288-5.472-20.48-4.096-4.096 1.376-9.568 10.912-2.72 2.72-1.376 9.568 2.72 10.912 12.288 40.96l45.056 148.832q4.096 16.384 5.472 28.672l5.472 27.296-118.784-55.968q-20.48-9.568-27.296-9.568l-2.72 6.144q0 0-1.376 8.864zM691.552 240.48q4.768-10.912 18.432-17.76l114.688-50.528q8.192-4.096 15.008-4.096 4.096 0 6.816 1.376 10.912 2.72 15.008 12.96t0 19.808-16.384 15.008l-68.256 31.392 120.16 53.248q4.096 2.72 8.192 6.144t5.472 8.864q5.472 16.384-1.376 24.576t-21.856 15.008l-96.928 43.68q-10.912 5.472-21.152 2.048t-14.336-12.96-2.048-15.008 4.768-8.192q6.816-6.816 20.48-12.288l49.152-23.2-96.928-42.336-27.296-13.664q0 0-10.912-10.912-5.472-12.288-0.672-23.2zM697.696 243.2q4.096-8.192 16.384-13.664l113.312-50.528q10.912-5.472 17.76-3.424t10.24 9.568 0 14.336-12.96 12.288l-81.92 36.864 126.976 55.968q4.096 2.72 6.816 4.096t5.472 4.096 4.096 6.816q5.472 9.568 0 17.056t-19.104 12.96l-96.928 43.68q-9.568 4.096-16.384 2.048t-10.912-10.912 2.048-13.664 18.432-11.616l62.816-27.296-16.384-8.192-94.208-42.336q-19.104-8.192-25.952-12.288t-9.568-9.568q-4.096-8.192 0-16.384zM704.512 245.92q-2.72 5.472 0 10.912 1.376 4.096 6.816 5.472l25.952 12.288 110.592 50.528 10.912 6.816-75.104 34.144q-13.664 6.816-16.384 9.568-1.376 0 0.672 6.144t6.144 7.52h2.72q2.72 0 8.192-2.72l96.928-43.68q10.912-5.472 16.384-10.912 2.72-1.376 0-9.568-1.376-2.72-4.096-4.096l-4.096-4.096-147.456-65.536 96.928-43.68q6.816-4.096 8.864-8.192t0-8.192-6.144-5.472-12.288 1.376l-113.312 51.872q-9.568 4.096-12.288 9.568z" />
<glyph unicode="&#xe919;" glyph-name="download" d="M1.376 117.6q1.376-19.104 12.96-30.72t29.344-12.96h939.36q17.76 1.376 30.048 12.96t12.288 30.72v554.336q0 17.76-12.288 30.048t-30.048 12.288h-299.008v-128.352h212.992v-383.648h-767.328v383.648h212.992v128.352h-299.008q-17.76 0-29.344-12.288t-12.96-30.048v-554.336zM282.624 478.048q-17.76 19.104 8.192 21.856l113.312-1.376q12.288 1.376 21.152 9.568t8.864 21.856v281.248q0 13.664 8.864 22.528t22.528 8.864h96.928q12.288 0 21.152-8.864t8.864-22.528v-282.624q1.376-12.288 9.568-21.152t21.856-8.864h111.968q25.952-1.376 8.192-21.856l-208.896-208.896q-9.568-8.192-21.856-8.192t-21.856 8.192z" />
<glyph unicode="&#xe91a;" glyph-name="drink" d="M132.448 660.992l113.312-684.032q4.096-17.76 17.76-30.048t32.768-12.288h425.984q17.76 0 32.096 12.288t18.432 30.048l113.312 684.032q2.72 17.76-7.52 29.344t-28 12.96h-212.992v126.976h141.984q17.76 1.376 30.048 12.96t12.288 30.72v42.336q0 17.76-12.288 30.048t-30.048 12.288h-170.656l-6.816-1.376-8.192 1.376h-42.336q-17.76 0-30.048-12.288t-12.288-30.048v-212.992h-341.344q-17.76-1.376-28-12.96t-7.52-29.344zM281.248 574.976h228v-383.648h-170.656zM637.6 191.328v383.648h99.68l-57.344-383.648h-42.336z" />
<glyph unicode="&#xe91b;" glyph-name="email" d="M6.816 117.6v555.68q0 17.76 10.912 24.576t27.296-1.376l435.552-218.464q16.384-6.816 38.24-6.816t38.24 6.816l435.552 218.464q16.384 8.192 27.296 1.376t10.912-24.576v-555.68q0-17.76-12.288-29.344t-30.048-12.96h-939.36q-17.76 1.376-30.048 12.96t-12.288 29.344zM135.168 203.616h767.328v312.672l-383.648-184.32-383.648 184.32v-312.672zM163.168 778.4q-2.048-6.816 11.616-17.76l309.92-162.464q15.008-10.912 34.144-10.912t34.144 10.912l315.392 162.464q13.664 10.912 11.616 17.76t-19.808 8.192h-677.216q-17.76-1.376-19.808-8.192z" />
<glyph unicode="&#xe91c;" glyph-name="end" d="M184.32 118.944v655.36h655.36v-655.36h-655.36z" />
<glyph unicode="&#xe91d;" glyph-name="entertainment" d="M-1.376 18.592q0-3.424 3.424-7.52t6.816-4.096h6.144l65.536 9.568q2.72 0 5.472-2.72l31.392-69.632q1.376-2.72 3.424-5.472t7.52-4.096 10.24 3.424 4.768 10.24l9.568 71.008q1.376 0 2.72 1.376t2.72 1.376l73.728 2.72q4.096 0 10.912 4.096 4.096 2.72 3.424 8.192t-3.424 8.192-5.472 4.096l-65.536 39.584q-2.72 2.72-1.376 4.096l17.76 64.16q1.376 2.72 1.376 6.144t-3.424 7.52-7.52 5.472q-4.096 0-6.816-1.376l-5.472-4.096-51.872-45.056q-1.376 0-4.096-0.672t-2.72 0.672l-62.816 40.96q-2.72 2.72-6.816 4.096t-9.568-4.096-4.768-9.568 2.048-6.816l31.392-66.912q1.376-1.376 0.672-4.096t-2.048-2.72l-51.872-46.432q-2.72-1.376-4.096-4.768t-1.376-6.816zM19.104 439.808q-20.48 73.056-20.48 140.64 0 90.784 36.864 172.704 64.16 142.688 211.616 191.84 48.48 13.664 95.584 13.664 66.208 0 130.4-26.624 109.92-45.728 183.648-152.224-91.488-20.48-169.312-77.824t-129.696-146.080q-42.336-76.448-56.672-158.368-6.816-38.24-6.816-76.448 0-43.68 8.864-87.392 9.568-50.528 31.392-95.584-106.496 20.48-191.84 99.68t-123.552 202.080zM70.304 693.76q-0.672-4.096 0.672-5.472t2.72-1.376q16.384-4.096 35.488-8.192v-5.472l-21.856-54.624-1.376-4.096q0-2.72 4.768-2.72t7.52 2.72l4.096 4.096 46.432 47.776 1.376 2.72h15.712q17.76 0 38.912 2.72 2.72 0 6.816 2.72l5.472 2.72q4.096 2.72 6.144 6.144t1.376 4.096l-2.048 2.048q-16.384 5.472-27.296 21.856-1.376 1.376 0 4.096l46.432 49.152 2.72 4.096q2.72 2.72 2.72 6.816-1.376 4.096-5.472 5.472t-8.192 0q-25.952-9.568-50.528-20.48l-1.376 0.672q-1.376 0.672-1.376 2.048 0 32.768 17.76 83.296 2.72 6.816 2.72 13.664 1.376 4.096-2.72 0t-6.816-8.192l-6.816-9.568q-30.048-55.968-46.432-96.928l-1.376-1.376q-2.72-4.096-4.096-4.096-20.48-9.568-46.432-24.576l-4.096-4.096q-2.72-2.72-6.816-8.192t-4.768-9.568zM389.12 250.72q-6.816 34.816-6.816 69.632 0 95.584 51.872 193.184 77.824 128.352 203.424 171.36 51.872 17.76 101.728 17.76 71.68 0 139.936-36.192 111.968-69.632 138.592-199.328 6.816-34.816 6.816-69.632 0-95.584-52.576-192.512-77.824-128.352-203.424-172.032-51.2-17.76-101.728-17.76-71.68 0-139.936 36.864-111.968 68.256-137.888 198.656zM432.8 22.016l101.024-58.72q6.816 13.664 6.816 28 0 8.192-2.048 16.384-6.144 22.528-27.296 34.816-14.336 8.192-28.672 8.192-7.52 0-15.008-2.048-22.528-6.144-34.816-26.624zM707.232 469.152q-1.376-3.424 0.672-5.472t4.768-3.424q27.296-17.76 53.248-46.432 2.72-2.72 1.376-5.472l-47.776-49.152q-1.376-1.376-2.72-4.096t1.376-9.568 10.24-10.912 11.616-2.72q36.864 0 69.632 2.72l2.048-1.376q0 0 2.048-2.72 6.816-20.48 12.288-50.528 4.096-23.904 4.096-49.824v-12.96q-1.376-8.192 1.376-17.76v-1.376q1.376-5.472 6.144-2.048t6.816 8.864 3.424 12.288q19.104 65.536 25.952 116.064v2.72q1.376 4.096 4.096 4.096 28.672 2.72 60.064 12.288 2.72 1.376 5.472 3.424t6.144 8.192 2.048 11.616q0 6.816-2.72 8.864t-5.472 2.048q-28.672 15.008-58.72 31.392-1.376 1.376-2.72 3.424t-1.376 3.424l5.472 69.632q1.376 2.72 0.672 6.144t-8.192 6.144-10.912 0.672-4.768-4.768l-46.432-47.776q0-1.376-2.72-1.376h-4.096q-36.864 15.008-77.824 21.856-5.472 1.376-9.568 0.672t-8.864-2.048-6.144-4.768z" />
<glyph unicode="&#xe91e;" glyph-name="excursion" d="M-2.72 185.184q-6.816-11.616 1.376-28l92.832-182.944q8.192-16.384 26.624-28t37.536-11.616h656.736q19.104 0 38.24 10.24t30.048 26.624l131.072 188.416q10.912 16.384 5.472 26.624t-24.576 10.24h-969.376q-19.104 0-25.952-11.616zM8.864 342.88q6.144-10.912 23.904-10.912h299.008q19.104 0 31.392 12.288t12.288 31.392v563.872q-1.376 36.864-21.856 6.816l-341.344-577.536q-9.568-15.008-3.424-25.952zM507.904 375.648v563.872q0 17.76 8.192 20.48t19.104-10.912l469.664-583.008q12.288-15.008 7.52-24.576t-23.904-9.568h-436.896q-17.76 0-30.048 12.288t-13.664 31.392z" />
<glyph unicode="&#xe91f;" glyph-name="exit" d="M155.648 501.92q5.472-12.96 19.104-12.96h667.648q13.664 0 19.104 12.96t-2.72 22.528l-334.496 367.264q-5.472 6.816-15.008 6.816t-16.384-6.816l-333.152-367.264q-9.568-9.568-4.096-22.528zM389.12-6.656h240.288v121.504h-240.288v-121.504zM389.12 191.328h240.288v105.12h-240.288v-105.12zM389.12 367.456h240.288v121.504h-240.288v-121.504z" />
<glyph unicode="&#xe920;" glyph-name="f-rating" d="M146.080-66.72h196.608l54.624 460.128h299.008l10.912 86.016h-301.728l49.152 402.784h241.664q76.448-9.568 95.584-75.104t16.384-75.104h38.24l27.296 225.28h-726.368v-30.048q79.2-10.912 94.88-54.624t11.616-61.44z" />
<glyph unicode="&#xe921;" glyph-name="facebook" d="M274.432 467.104v152.928h106.496v116.736q0 30.048 4.096 66.208 5.472 45.056 30.048 79.2t64.16 55.296 99.68 21.152q99.68-1.376 145.408-9.568t44.384-9.568l-25.952-157.024q-1.376 1.376-27.296 6.816t-58.016 6.144h-3.424q-30.048 0-51.2-12.288-22.528-12.96-23.904-43.008v-120.16h169.312l-12.288-152.928h-157.024v-532.48h-197.984v532.48h-106.496z" />
<glyph unicode="&#xe922;" glyph-name="facilities" d="M64.16-21.664v811.008q0 17.76 12.288 30.048t30.048 12.288h270.336v86.016q1.376 17.76 12.96 30.048t29.344 12.288h170.656q19.104 0 30.72-12.288t12.96-30.048v-86.016h273.056q17.76 0 30.048-12.288t12.288-30.048v-811.008q0-17.76-12.288-30.048t-30.048-12.288h-800.096q-17.76 0-30.048 12.288t-12.288 30.048zM192.512 64.352h628.064v640.352h-116.064v-86.016q-1.376-17.76-12.96-30.048t-29.344-12.288h-314.016q-17.76 0-30.048 12.288t-12.288 30.048v86.016h-113.312v-640.352zM248.48 308.736q0 8.192 6.816 15.008l50.528 50.528q6.816 6.816 15.008 6.816t15.008-6.816l81.92-81.92q6.816-6.816 15.008-6.816t15.008 6.816l228 228q5.472 5.472 13.664 5.472t15.008-5.472l50.528-50.528q5.472-6.816 5.472-15.008t-5.472-13.664l-275.808-277.152q-6.816-6.816-16.384-10.912t-19.104-4.096h-23.2q-9.568 0-19.104 4.096t-16.384 10.912l-129.696 131.072q-6.816 5.472-6.816 13.664z" />
<glyph unicode="&#xe923;" glyph-name="fc-rating" d="M16.384 370.176q12.288 92.832 197.984 107.168 169.312 12.96 208.224 12.96h6.144q-1.376 5.472-45.056 51.2t-90.112 111.264-62.816 124.256q-4.768 17.76-4.768 32.768 0 32.768 25.248 49.152 10.912 2.72 21.152 2.72 78.496 0 144.032-134.496 73.728-152.224 79.2-176.8v4.096q0 31.392 34.816 180.224 34.816 149.504 125.6 149.504 6.144 0 12.96-0.672 39.584-26.624 39.584-76.448 0-51.2-41.632-127.648-82.592-150.88-100.352-172.704l221.184 84.64q81.248 30.72 133.12 30.72 69.632 0 86.688-55.296-23.2-107.872-197.984-126.976-163.168-17.76-197.984-17.76h-4.096q2.72-2.72 44.384-36.864t90.784-86.016q57.344-61.44 85.344-123.552 12.288-27.296 12.288-49.152 0-27.296-19.808-45.728-11.616-7.52-25.248-7.52-19.808 0-44.384 15.008-42.336 25.248-83.296 77.152-53.248 72.352-88.736 137.888t-39.584 69.632q1.376-8.864 1.376-31.392 0-49.152-6.144-164.512-8.864-168.608-115.36-175.456-43.68 10.912-47.776 71.68-0.672 9.568-0.672 19.104 0 52.576 19.104 111.264 22.528 69.632 43.68 120.16t21.152 54.624h-0.672q-6.144 0-51.2-12.288-49.152-13.664-121.504-27.296-45.056-10.912-144.736-14.336h-12.288q-88.736 0-107.872 45.728z" />
<glyph unicode="&#xe924;" glyph-name="filter" d="M0 140.8q0-17.76 12.288-30.048t30.048-12.288h86.016v-121.504q0-17.76 12.288-30.048t30.048-12.288h370.016q17.76 0 30.048 12.288t12.288 30.048v121.504h398.688q17.76 0 29.344 12.288t12.96 30.048v42.336q-1.376 19.104-12.96 30.72t-29.344 12.96h-398.688v120.16q0 17.76-12.288 30.048t-30.048 12.288h-370.016q-17.76 0-30.048-12.288t-12.288-30.048v-120.16h-86.016q-17.76-1.376-30.048-12.96t-12.288-30.72v-42.336zM0 710.144q0-19.104 12.288-30.72t30.048-12.96h412.32v-120.16q0-17.76 12.288-30.048t30.048-12.288h356.352q17.76 0 30.048 12.288t12.288 30.048v120.16h86.016q17.76 1.376 29.344 12.96t12.96 30.72v42.336q-1.376 17.76-12.96 30.048t-29.344 12.288h-86.016v121.504q0 17.76-12.288 30.048t-30.048 12.288h-356.352q-17.76 0-30.048-12.288t-12.288-30.048v-121.504h-412.32q-17.76 0-30.048-12.288t-12.288-30.048v-42.336zM255.328 62.976v199.328h199.328v-199.328h-199.328zM583.008 630.944v199.328h184.32v-199.328h-184.32z" />
<glyph unicode="&#xe925;" glyph-name="flyin-up" d="M67.584 957.952q23.904-2.048 25.248-4.768 17.76-6.816 38.24-19.808t34.144-26.624l158.368-158.368q13.664-13.664 34.144-19.104t39.584-1.376l513.376 129.696q17.76 4.096 38.24-1.376t34.144-17.76l17.76-17.76q13.664-13.664 11.616-28.672t-17.056-25.952l-393.216-236.192q-15.008-10.912-17.056-25.952t10.24-28.672l150.176-148.832q13.664-13.664 34.816-21.152t40.288-6.144l99.68 8.192q19.104 1.376 40.288-6.144t34.816-19.808l16.384-17.76q13.664-13.664 10.912-26.624t-20.48-19.808l-151.552-55.968q-17.76-6.816-33.44-22.528t-22.528-33.44l-55.968-151.552q-6.816-16.384-19.808-19.104t-26.624 9.568l-16.384 17.76q-13.664 13.664-21.152 34.816t-6.144 38.912l8.192 101.024q1.376 17.76-6.144 38.912t-19.808 34.816l-150.176 150.176q-13.664 12.288-28.672 10.912t-24.576-17.76l-237.568-391.84q-9.568-15.008-24.576-17.056t-28.672 10.24l-17.76 17.76q-12.288 13.664-18.432 34.144t-2.048 39.584l129.696 513.376q4.096 17.76-1.376 38.24t-17.76 34.144l-159.744 159.744q-13.664 13.664-26.624 33.44t-19.808 37.536q-1.376 2.72-4.096 25.952v5.472q0 21.152 19.104 43.68 23.904 19.808 45.728 19.808h4.096z" />
<glyph unicode="&#xe926;" glyph-name="flyin" d="M0.672 2.208q2.048 23.904 4.768 25.248 6.816 17.76 19.808 38.24t26.624 34.144l158.368 158.368q13.664 13.664 19.104 34.144t1.376 39.584l-129.696 513.376q-4.096 17.76 1.376 38.24t17.76 34.144l17.76 17.76q13.664 13.664 28.672 11.616t25.952-17.056l236.192-393.216q10.912-15.008 25.952-17.056t28.672 10.24l148.832 150.176q13.664 13.664 21.152 34.816t6.144 40.288l-8.192 99.68q-1.376 19.104 6.144 40.288t19.808 34.816l17.76 16.384q13.664 13.664 26.624 10.912t19.808-20.48l55.968-151.552q6.816-17.76 22.528-33.44t33.44-22.528l151.552-55.968q16.384-6.816 19.104-19.808t-9.568-26.624l-17.76-16.384q-13.664-13.664-34.816-21.152t-38.912-6.144l-101.024 8.192q-17.76 1.376-38.912-6.144t-34.816-19.808l-150.176-150.176q-12.288-13.664-10.912-28.672t17.76-24.576l391.84-237.568q15.008-9.568 17.056-24.576t-10.24-28.672l-17.76-17.76q-13.664-12.288-34.144-18.432t-39.584-2.048l-513.376 129.696q-17.76 4.096-38.24-1.376t-34.144-17.76l-159.744-159.744q-13.664-13.664-33.44-26.624t-37.536-19.808q-2.72-1.376-25.952-4.096h-5.472q-21.152 0-43.68 19.104-19.808 23.904-19.808 45.728v4.096z" />
<glyph unicode="&#xe927;" glyph-name="flyout" d="M4.096 238.432q-2.72 12.96 9.568 26.624l17.76 16.384q13.664 13.664 34.816 21.152t38.912 6.144l101.024-8.192q17.76-1.376 38.912 6.144t34.816 19.808l150.176 150.176q12.288 13.664 10.912 28.672t-17.76 24.576l-391.84 237.568q-15.008 9.568-17.056 24.576t10.24 28.672l17.76 17.76q13.664 12.288 34.816 18.432t38.912 2.048l513.376-129.696q17.76-4.096 38.24 1.376t34.144 17.76l159.744 159.744q13.664 13.664 33.44 26.624t37.536 19.808q2.72 1.376 25.952 4.096h5.472q21.152 0 43.68-19.104 19.808-23.904 19.808-45.728v-4.096q-2.048-23.904-4.768-25.248-6.816-17.76-19.808-38.24t-26.624-34.144l-158.368-158.368q-13.664-13.664-19.104-34.144t-1.376-39.584l129.696-513.376q4.096-17.76-1.376-38.24t-17.76-34.144l-17.76-17.76q-13.664-13.664-28.672-11.616t-25.952 17.056l-236.192 393.216q-10.912 15.008-25.952 17.056t-28.672-10.24l-148.832-150.176q-13.664-13.664-21.152-34.816t-6.144-40.288l9.568-99.68q0-19.104-7.52-40.288t-19.808-34.816l-17.76-16.384q-13.664-13.664-26.624-10.912t-19.808 20.48l-55.968 151.552q-6.816 17.76-22.528 33.44t-33.44 22.528l-151.552 55.968q-16.384 6.816-19.104 19.808z" />
<glyph unicode="&#xe928;" glyph-name="food" d="M107.872 546.304q1.376-17.76 12.96-30.048t29.344-12.288h128.352v-527.008q1.376-17.76 12.96-30.048t29.344-12.288h43.68q17.76 0 30.048 12.288t12.288 30.048v527.008h128.352q17.76 0 30.048 12.288t12.288 30.048v370.016q0 17.76-12.288 30.048t-30.048 12.288h-15.008q-17.76 0-30.048-12.288t-12.288-30.048v-285.344h-84.64v285.344q-1.376 17.76-12.96 30.048t-30.72 12.288h-13.664q-17.76 0-30.048-12.288t-12.288-30.048v-285.344h-86.016v285.344q0 17.76-12.288 30.048t-30.048 12.288h-15.008q-17.76 0-29.344-12.288t-12.96-30.048v-370.016zM686.752 772.256q65.536 174.080 174.752 186.368 19.104 0 30.72-12.288t12.96-30.048v-939.36q-1.376-17.76-12.96-30.048t-30.72-12.288h-42.336q-17.76 0-30.048 12.288t-12.288 30.048v427.36q-109.216 136.544-109.216 262.816 0 53.248 19.104 105.12z" />
<glyph unicode="&#xe929;" glyph-name="forwardnext" d="M214.368-21.664v936.608q0 17.76 9.568 21.856t23.2-6.816l573.44-457.376q13.664-10.912 13.664-25.952t-13.664-25.952l-573.44-457.376q-13.664-10.912-23.2-6.816t-9.568 21.856z" />
<glyph unicode="&#xe92a;" glyph-name="gallery" d="M2.72 282.784q-5.472-17.76 2.048-32.768t23.904-20.48l155.648-53.248v-199.328q1.376-17.76 13.664-30.048t30.048-12.288h753.664q17.76 0 30.048 12.288t12.288 30.048v690.848q1.376 15.008-6.144 28t-22.528 18.432l-719.52 241.664q-17.76 5.472-32.768-2.048t-21.856-23.904zM150.176 322.4l34.144 101.024v-111.968zM278.528 703.328l35.488 105.12 311.296-105.12h-346.784zM312.672 62.976v512h583.008v-512h-583.008zM370.016 401.568q0 27.296 18.432 45.056t45.056 17.76 45.056-17.76 18.432-45.056-18.432-45.056-45.056-17.76-45.056 17.76-18.432 45.056zM371.36 125.792l110.592 137.888 71.008-51.872 132.448 217.088 40.96-87.392 95.584 15.008v-230.752h-450.56z" />
<glyph unicode="&#xe92b;" glyph-name="google" d="M23.2 127.136q4.096 99.68 94.88 167.264t223.232 70.304h20.48q-24.576 34.144-24.576 69.632 0 20.48 8.192 42.336h-5.472q-110.592 1.376-178.848 66.912t-71.008 172.032q4.096 96.928 86.016 167.264t196.608 73.056h354.976l-110.592-80.544h-50.528q28.672-27.296 45.056-68.96t16.384-91.488-23.2-94.208-68.256-79.872q-35.488-27.296-45.056-43.008t-8.192-33.44q1.376-13.664 23.904-38.912t49.824-44.384q61.44-42.336 88.064-92.16t26.624-120.832q0-91.488-80.544-161.792t-237.568-74.4q-146.080 1.376-236.896 55.296t-93.536 139.936zM165.216 161.28q1.376-65.536 53.92-107.168t134.496-43.008q207.52 0 208.896 144.736 0 15.008-4.096 28.672-6.816 27.296-30.72 49.152t-62.112 46.432l-21.856 15.008q-34.144 9.568-69.632 10.912h-2.72q-86.016-2.72-144.736-44.384t-61.44-100.352zM230.752 718.336q10.912-75.104 54.624-125.6t99.68-54.624h2.72q39.584 0 68.256 31.392 20.48 24.576 28.672 59.392 5.472 23.2 5.472 49.152 0 12.96-1.376 26.624-12.288 73.728-55.296 123.552t-98.976 53.92h-2.72q-40.96 0-69.632-31.392-20.48-23.2-28.672-58.016-4.768-21.152-4.768-43.68 0-15.008 2.048-30.72zM701.792 715.616v60.064h121.504v121.504h60.064v-121.504h120.16v-60.064h-120.16v-120.16h-60.064v120.16h-121.504z" />
<glyph unicode="&#xe92c;" glyph-name="health" d="M4.096 798.88q4.096-66.912 39.584-120.16t39.584-55.968l240.288-301.728 240.288 301.728q5.472 2.72 40.288 55.968t40.288 120.16q-2.72 88.736-49.824 125.6t-109.92 35.488q-64.16-5.472-111.264-48.48t-49.824-49.824q-2.72 6.816-49.824 49.824t-111.264 48.48q-62.816 1.376-109.92-35.488t-48.48-125.6zM6.816 121.696q4.096-42.336 44.384-92.16t85.344-71.008 96.928-21.152h2.72q51.872 0 96.928 21.152t85.344 71.008 44.384 92.16-4.096 81.92q-36.864-5.472-73.056-16.384t-70.304-35.488q-10.912 35.488-32.768 61.44t-47.776 49.152q-25.952-23.2-47.776-49.152t-32.768-61.44q-34.144 24.576-70.304 35.488t-73.056 16.384q-8.192-39.584-4.096-81.92zM644.448-20.32q0-17.76 12.288-30.048t30.048-12.288h297.632q19.104 0 30.72 12.288t12.96 30.048v425.984q-1.376 19.104-12.96 30.72t-30.72 12.96h-297.632q-17.76-1.376-30.048-12.96t-12.288-30.72v-425.984zM744.8 546.976q-64.864 93.536 133.12 228.704-8.192-2.72-32.096-42.336t17.056-92.832q62.816-65.536 47.104-104.448t-75.776-86.688q-24.576 4.096-89.44 97.632z" />
<glyph unicode="&#xe92d;" glyph-name="infant" d="M73.056-25.76q0.672-21.856 47.104-35.488 43.68-6.816 61.44 17.76t16.384 28.672l27.296 69.632q4.096-1.376 43.68 2.048t65.536 11.616q25.952 12.288 53.92 35.488t30.72 25.952l-174.752 141.984q-6.816-5.472-65.536-68.256t-83.296-109.216q-8.192-19.104-10.24-40.288t-6.144-41.632q-6.816-16.384-6.144-38.24zM110.592 699.232q9.568-27.296 12.288-30.048l72.352-116.064 2.72-4.096 16.384-21.856q6.816-8.192 34.144-19.808t55.968-32.096q9.568-34.144-10.24-58.016t-22.528-79.872h-2.72v-2.72h469.664v2.72h1.376q-4.096 55.968-23.2 79.872t-9.568 58.016q28.672 20.48 55.968 32.096t35.488 19.808l15.008 21.856 2.72 4.096 72.352 116.064q2.72 2.72 12.288 30.048t-10.912 53.248q-32.768 30.048-55.296 16.384t-23.904-17.76l-61.44-90.112q-2.72-1.376-36.192-13.664t-53.92-28.672h-307.2q-20.48 16.384-53.92 28.672t-36.192 13.664l-61.44 90.112q0 1.376-11.616 10.912t-30.72 10.912q-16.384 0-36.864-20.48-20.48-25.952-10.912-53.248zM353.632 807.072q1.376-65.536 44.384-108.544t108.544-45.728q65.536 2.72 108.544 45.728t44.384 108.544q-1.376 64.16-44.384 107.872t-108.544 45.056q-65.536-1.376-108.544-45.056t-44.384-107.872zM600.736 129.888q2.72-2.72 30.72-25.952t53.92-35.488q25.952-8.192 65.536-11.616t43.68-2.048l25.952-69.632q0-4.096 17.76-28.672t61.44-17.76q45.056 13.664 46.432 35.488t-5.472 38.24q-4.096 20.48-6.144 41.632t-10.24 40.288q-24.576 46.432-83.296 109.216t-65.536 68.256z" />
<glyph unicode="&#xe92e;" glyph-name="info" d="M4.096 448q5.472-217.088 150.176-361.824t361.824-150.176q218.464 5.472 362.496 150.176t149.504 361.824q-5.472 217.088-149.504 361.824t-362.496 150.176q-217.088-5.472-361.824-150.176t-150.176-361.824zM453.28 786.592q27.296 24.576 62.112 25.248h2.048q33.44 0 60.064-22.528 27.296-23.2 28-64.16v-2.048q0-39.584-26.624-64.864-25.952-23.2-62.112-23.2t-64.16 23.904q-27.296 23.2-27.296 61.44 0 40.96 28 66.208zM446.464 151.712v324.96q0 39.584 19.808 60.064t51.872 20.48 51.2-21.152 19.104-56.672v-329.056h-1.376q0-39.584-20.48-60.768t-51.2-21.152-49.824 22.528-19.104 60.768z" />
<glyph unicode="&#xe92f;" glyph-name="instagram" d="M0 56.16q1.376-50.528 34.816-83.968t83.968-34.816h787.808q50.528 1.376 83.296 34.816t34.144 83.968v787.808q-1.376 49.152-34.144 82.592t-83.296 34.816h-787.808q-50.528-1.376-83.968-34.816t-34.816-82.592v-787.808zM118.784 95.744v432.8h88.736q-9.568-36.864-10.912-77.824 4.096-133.792 92.832-222.56t222.56-92.832q133.792 4.096 222.56 92.832t91.488 222.56q1.376 39.584-9.568 77.824h91.488v-432.8q-1.376-17.76-12.288-28.672t-27.296-10.912h-709.984q-17.76 0-28.672 11.616t-10.912 28zM315.392 450.72q1.376 83.296 57.344 138.592t139.264 58.016q84.64-2.72 139.936-58.016t56.672-138.592q-2.72-83.296-58.016-139.264t-138.592-57.344q-83.296 1.376-139.264 57.344t-57.344 139.264zM708.608 685.568v117.408q0 17.76 11.616 28.672t28 12.288h117.408q17.76-1.376 28.672-12.96t12.288-28v-117.408q-1.376-17.76-12.288-28.672t-28.672-10.912h-117.408q-17.76 0-28.672 11.616t-10.912 28z" />
<glyph unicode="&#xe930;" glyph-name="left" horiz-adv-x="608" d="M520.992-64c22.464 0 44.928 8.992 62.88 26.944 31.424 31.424 35.936 85.344 0 116.768 0 0 0 0 0 0l-372.768 368.288 372.768 368.288c31.424 31.424 35.936 85.344 0 116.768 0 0 0 0 0 0-35.936 31.424-89.824 31.424-121.248 0l-435.648-426.656c-31.424-31.424-35.936-85.344 0-116.768 0 0 0 0 0 0l435.648-426.656c13.472-17.952 35.936-26.944 58.4-26.944z" />
<glyph unicode="&#xe931;" glyph-name="library" d="M0-17.568q0-17.76 12.288-30.048t30.048-12.288h141.984q19.104 0 30.72 12.288t12.96 30.048v71.008h-228v-71.008zM0 124.416h228v71.008h-228v-71.008zM0 266.4v498.336h228v-498.336h-228zM0 835.744h228v84.64q-1.376 19.104-12.96 30.72t-30.72 12.96h-141.984q-17.76-1.376-30.048-12.96t-12.288-30.72v-84.64zM270.336-17.568q0-17.76 12.288-30.048t30.048-12.288h141.984q17.76 0 30.048 12.288t12.288 30.048v71.008h-226.656v-71.008zM270.336 124.416h226.656v71.008h-226.656v-71.008zM270.336 266.4h226.656v498.336h-226.656v-498.336zM270.336 835.744h226.656v84.64q0 19.104-12.288 30.72t-30.048 12.96h-141.984q-17.76-1.376-30.048-12.96t-12.288-30.72v-84.64zM513.376 845.312l27.296-79.2 212.992 71.008-27.296 80.544q-5.472 16.384-20.48 23.904t-32.768 2.048l-132.448-45.056q-16.384-5.472-23.904-20.48t-3.424-32.768zM562.528 699.232l157.024-464.224 212.992 71.008-157.024 465.568zM742.752 168.096l21.856-66.912 212.992 72.352-23.2 65.536zM786.432 35.68l23.2-66.912q5.472-16.384 20.48-23.904t32.768-2.048l132.448 43.68q16.384 6.816 23.904 21.856t2.048 31.392l-21.856 66.912z" />
<glyph unicode="&#xe932;" glyph-name="link" d="M133.792-38.048v176.128q0 17.76 10.24 37.536t26.624 32.096l323.584 215.712q15.008 10.912 15.008 24.576t-15.008 24.576l-323.584 215.712q-16.384 10.912-26.624 30.048t-10.24 39.584v176.128q0 17.76 10.24 23.904t26.624-4.768l720.896-480.608q15.008-10.912 15.008-24.576t-15.008-24.576l-720.896-480.608q-16.384-10.912-26.624-5.472t-10.24 24.576z" />
<glyph unicode="&#xe933;" glyph-name="menu" d="M1.376 24.736q0-17.76 12.288-29.344t30.048-12.96h939.36q17.76 1.376 30.048 12.96t12.288 29.344v143.36q0 17.76-12.288 30.048t-30.048 12.288h-939.36q-17.76 0-30.048-12.288t-12.288-30.048v-143.36zM1.376 366.080v143.36q0 17.76 12.288 30.048t30.048 12.288h939.36q17.76 0 30.048-12.288t12.288-30.048v-143.36q0-17.76-12.288-29.344t-30.048-12.96h-939.36q-17.76 1.376-30.048 12.96t-12.288 29.344zM1.376 707.424q0-17.76 12.288-29.344t30.048-12.96h939.36q17.76 1.376 30.048 12.96t12.288 29.344v143.36q0 17.76-12.288 30.048t-30.048 12.288h-939.36q-17.76 0-30.048-12.288t-12.288-30.048v-143.36z" />
<glyph unicode="&#xe934;" glyph-name="minus" d="M-1.376 342.88v143.36q0 17.76 12.288 29.344t30.048 12.96h939.36q17.76-1.376 30.048-12.96t12.288-29.344v-143.36q0-17.76-12.288-30.048t-30.048-12.288h-939.36q-17.76 0-30.048 12.288t-12.288 30.048z" />
<glyph unicode="&#xe935;" glyph-name="multiMenu" d="M7.392 10.944q0-17.888 12.128-30.016t30.016-12.128h168.672q17.888 0 30.016 12.128t12.128 30.016v140.576q0 17.888-12.128 30.016t-30.016 12.128h-168.672q-17.888 0-30.016-12.128t-12.128-30.016v-140.576zM7.392 377.728q0-17.888 12.128-30.016t30.016-12.128h168.672q17.888 0 30.016 12.128t12.128 30.016v140.576q0 17.888-12.128 30.016t-30.016 12.128h-168.672q-17.888 0-30.016-12.128t-12.128-30.016v-140.576zM7.392 744.48q0-17.888 12.128-30.016t30.016-12.128h168.672q17.888 0 30.016 12.128t12.128 30.016v140.576q0 17.888-12.128 30.016t-30.016 12.128h-168.672q-17.888 0-30.016-12.128t-12.128-30.016v-140.576zM386.944 10.944q1.28-17.888 12.768-30.016t29.376-12.128h550.784q17.888 0 29.408 12.128t12.768 30.016v140.576q-1.28 17.888-12.768 30.016t-29.408 12.128h-550.784q-17.888 0-29.376-12.128t-12.768-30.016v-140.576zM386.944 377.728v140.576q1.28 17.888 12.768 30.016t29.376 12.128h550.784q17.888 0 29.408-12.128t12.768-30.016v-140.576q-1.28-17.888-12.768-30.016t-29.408-12.128h-550.784q-17.888 0-29.376 12.128t-12.768 30.016zM386.944 744.48q1.28-17.888 12.768-30.016t29.376-12.128h550.784q17.888 0 29.408 12.128t12.768 30.016v140.576q-1.28 17.888-12.768 30.016t-29.408 12.128h-550.784q-17.888 0-29.376-12.128t-12.768-30.016v-140.576z" />
<glyph unicode="&#xe936;" glyph-name="my-thomson" d="M-1.376 448q5.472-217.088 150.176-361.824t361.824-150.176q217.088 5.472 361.824 150.176t150.176 361.824q-5.472 217.088-150.176 361.824t-361.824 150.176q-217.088-5.472-361.824-150.176t-150.176-361.824zM154.272 671.904q0 5.472 5.472 8.864t15.008 4.768 21.856 1.376q19.104 0 29.344-2.72t15.712-9.568l128.352-199.328 116.064 195.232q4.096 6.816 8.864 10.24t11.616 4.768 20.48 1.376 21.152-1.376 10.912-4.096 4.096-6.144 0.672-10.24v-395.936q0-8.192-0.672-10.912t-4.096-5.472-10.912-4.768-21.152-2.048-21.856 2.048-10.912 4.768-4.096 5.472-1.376 9.568v284l-80.544-140.64-9.568-9.568q-2.72-1.376-10.24-3.424t-19.104-2.048-19.104 2.048-11.616 3.424l-9.568 9.568-79.2 132.448v-274.432q0-8.192-0.672-10.912t-4.096-5.472-11.616-4.768-21.856-2.048-21.152 2.048-10.24 4.768-4.096 5.472-1.376 9.568v363.168l-17.76 31.392q-2.72 4.096-2.72 9.568zM615.776 517.632q0 8.192 8.864 12.96t28.672 4.768 28-3.424 12.288-11.616l76.448-163.84 71.008 162.464q4.096 8.192 11.616 12.288t26.624 4.096q21.856 0 29.344-4.096t7.52-10.24-2.72-14.336l-5.472-12.288-165.216-357.728q-4.096-9.568-12.288-12.96t-25.952-3.424-26.624 4.096-8.864 12.288q0 5.472 2.72 12.288l58.72 126.976-111.968 232.096q-2.72 5.472-2.72 9.568z" />
<glyph unicode="&#xe937;" glyph-name="nature" d="M0 678.752q5.472-72.352 28-142.688t98.976-134.496q77.824-61.44 151.552-68.96t144.736 3.424q-4.096 72.352-26.624 142.688t-98.976 134.496q-79.2 60.064-152.224 67.584t-145.408-2.048zM33.44 14.496q-0.672-15.712 14.336-29.344l40.96-34.144q15.008-12.288 34.144-10.912t32.768 15.008l263.52 273.056q13.664 13.664 15.712 28.672t-8.864 24.576q-10.912 8.192-28 6.816t-32.096-12.288l-316.768-234.848q-15.008-10.912-15.712-26.624zM432.8 546.976q-20.48 77.152 12.288 179.552 35.488 101.024 98.304 150.88t133.792 81.248q36.864-68.256 57.344-144.736t-10.912-180.224q-36.864-101.024-98.976-150.176t-133.12-81.92q-38.24 68.256-58.72 145.408zM484.704 172.896q4.096-55.296 47.776-118.784t94.208-86.688 102.4-32.768q8.192 51.872 4.096 107.168t-47.776 118.784-94.208 86.688-101.024 32.768q-9.568-51.872-5.472-107.168zM544.768 334.688q50.528-38.24 111.264-64.864t149.504-15.712q90.112 15.008 139.936 58.016t86.688 94.88q-50.528 38.24-110.592 64.864t-150.176 14.336q-88.736-15.008-138.592-57.344t-88.064-94.208z" />
<glyph unicode="&#xe938;" glyph-name="night" d="M2.048 250.72q3.424 3.424 11.616-0.672l19.104-8.192q86.016-31.392 182.944-32.768 229.376 6.816 381.6 158.368t157.696 380.928q0 92.832-30.048 176.128-4.096 10.912-6.144 17.76t2.048 13.664q8.192 2.72 14.336 0t17.056-8.192q122.88-72.352 196.608-194.56t75.104-273.76q-5.472-229.376-157.696-381.6t-380.256-157.696q-155.648 1.376-279.2 77.152t-194.56 202.752l-9.568 17.76q-4.096 9.568-0.672 12.96z" />
<glyph unicode="&#xe939;" glyph-name="other" d="M1.376 450.72q0 47.776 31.392 79.2t79.2 31.392 79.872-31.392 33.44-79.2q-1.376-47.776-33.44-79.872t-79.872-32.096-79.2 32.096-31.392 79.872zM400.032 450.72q0-47.776 32.096-79.872t79.872-32.096 79.872 32.096 32.096 79.872-32.096 79.2-79.872 32.768q-47.776-1.376-79.872-32.768t-32.096-79.2zM800.096 450.72q0-47.776 32.096-79.872t79.872-32.096 79.2 32.096 31.392 79.872-31.392 79.2-79.2 32.768q-47.776-1.376-79.872-32.768t-32.096-79.2z" />
<glyph unicode="&#xe93a;" glyph-name="parking" d="M0 446.624q5.472 217.088 150.176 361.824t361.824 150.176q217.088-5.472 361.824-150.176t150.176-361.824q-5.472-217.088-150.176-361.824t-361.824-150.176q-217.088 5.472-361.824 150.176t-150.176 361.824zM284 121.696q1.376-25.952 19.104-43.68t44.384-17.76 43.68 17.76 18.432 43.68v172.032h140.64q121.504 0 202.080 61.44t83.296 181.6v1.376q-1.376 109.216-73.056 173.408t-197.28 65.536h-217.088q-27.296-1.376-45.056-18.432t-19.104-44.384v-592.544zM409.6 407.040v255.328h144.736q71.008 0 111.968-32.096t42.336-94.88v-1.376q-1.376-57.344-41.632-92.16t-112.64-34.816h-144.736z" />
<glyph unicode="&#xe93b;" glyph-name="party" d="M124.256 292.352v427.36q0 17.76 12.288 30.048t30.048 12.288h118.784q-30.048 12.288-47.776 37.536t-17.76 58.016q1.376 45.056 30.048 73.728t72.352 28.672 73.056-28.672 30.72-73.728q0-32.768-18.432-58.016t-47.104-37.536h105.12q17.76 0 29.344-12.288t12.96-30.048v-427.36q-1.376-17.76-12.96-29.344t-29.344-12.96h-15.008v-270.336q0-17.76-12.288-30.048t-30.048-12.288h-170.656q-17.76 0-30.048 12.288t-12.288 30.048v270.336h-28.672q-17.76 1.376-30.048 12.96t-12.288 29.344zM563.872 292.352q1.376-17.76 12.96-29.344t30.72-12.96h28.672v-270.336q0-17.76 12.288-30.048t30.048-12.288h99.68q17.76 0 30.048 12.288t12.288 30.048v270.336h28.672q17.76 1.376 30.048 12.96t12.288 29.344v285.344q0 17.76-12.288 30.048t-30.048 12.288h-65.536q16.384 12.288 25.952 30.048t9.568 39.584q-1.376 36.864-25.248 61.44t-60.768 24.576-61.44-24.576-25.952-61.44q0-21.856 9.568-39.584t25.952-30.048h-73.728q-19.104 0-30.72-12.288t-12.96-30.048v-285.344z" />
<glyph unicode="&#xe93c;" glyph-name="pause" horiz-adv-x="832" d="M128 960h46.080c71.68 0 128-56.32 128-128v-768c0-71.68-56.32-128-128-128h-46.080c-71.68 0-128 56.32-128 128v768c0 71.68 56.32 128 128 128zM645.12 960h46.080c71.68 0 128-56.32 128-128v-768c0-71.68-56.32-128-128-128h-46.080c-71.68 0-128 56.32-128 128v768c0 71.68 56.32 128 128 128z" />
<glyph unicode="&#xe93d;" glyph-name="pay" d="M-1.376 446.624q5.472-217.088 150.176-361.824t361.824-150.176q218.464 5.472 362.496 150.176t149.504 361.824q-5.472 217.088-149.504 361.824t-362.496 150.176q-217.088-5.472-361.824-150.176t-150.176-361.824zM221.184 154.464q0 32.768 32.768 45.056l51.872 15.008v178.848h-32.768q-21.856 0-36.864 15.008t-15.008 36.864 15.008 36.864 36.864 16.384h32.768v92.832q0 55.968 16.384 101.024t46.432 75.104q60.064 62.816 170.656 62.816 69.632 0 117.408-22.528t80.544-59.392q17.76-16.384 17.76-43.68t-17.056-44.384-44.384-17.056q-16.384 0-27.296 6.144t-16.384 12.96q-23.2 25.952-48.48 39.584t-60.768 13.664q-46.432-1.376-75.104-28.672-31.392-34.144-32.768-98.304v-90.112h204.8q21.856-1.376 36.864-16.384t15.008-36.864-15.008-36.864-36.864-15.008h-204.8v-173.408h279.904q23.2-1.376 38.24-16.384t15.008-38.24-15.008-38.24-38.24-16.384h-443.744q-21.856 1.376-34.816 13.664t-12.96 30.048z" />
<glyph unicode="&#xe93e;" glyph-name="pin" d="M128.352 576.352q0-68.256 21.856-128.352 19.104-54.624 53.248-101.024l308.576-410.976 308.576 410.976q34.144 46.432 53.248 101.024 21.856 60.064 21.856 128.352-4.096 162.464-111.968 271.008t-271.712 112.64q-162.464-4.096-271.008-112.64t-112.64-271.008zM385.024 576.352q0 54.624 36.192 90.112t90.784 35.488 90.784-35.488 36.192-90.112-36.192-90.784-90.784-37.536q-54.624 1.376-90.784 37.536t-36.192 90.784z" />
<glyph unicode="&#xe93f;" glyph-name="pintrest" d="M-1.376 448q2.72-159.744 86.016-284t221.184-185.696q-1.376 27.296 0.672 57.344t7.52 60.064l65.536 278.528q-1.376 1.376-8.192 23.2t-6.816 58.72q0 57.344 28 94.208t70.304 38.24q35.488-1.376 51.872-23.2t16.384-53.248q-1.376-36.864-17.056-84.64t-29.344-96.928q-8.192-42.336 15.712-69.632t66.208-28.672q73.728 2.72 117.408 80.544t45.056 191.136q0 87.392-54.624 141.312t-158.368 56.672q-117.408-4.096-184.32-74.4t-66.912-171.36q0-65.536 34.144-99.68 6.816-8.192 8.192-13.664t-1.376-15.008l-5.472-20.48q-2.72-12.288-4.768-21.152t-9.568-12.288-15.712-0.672q-53.248 23.2-79.2 75.776t-24.576 119.456q0 116.064 91.488 215.040t273.056 104.448q148.832-4.096 235.52-90.112t88.064-204.8q-1.376-154.272-75.776-251.232t-201.376-99.68q-42.336 1.376-76.448 19.808t-49.152 44.384l-35.488-140.64q-8.192-30.048-21.856-58.016t-28.672-52.576q68.256-20.48 144.736-20.48 217.088 5.472 361.824 149.504t150.176 362.496q-5.472 218.464-150.176 363.168t-361.824 150.176q-217.088-5.472-361.824-150.176t-150.176-361.824z" />
<glyph unicode="&#xe940;" glyph-name="play" d="M1.376 446.624q5.472-217.088 150.176-361.824t361.824-150.176q217.088 5.472 361.824 150.176t150.176 361.824q-5.472 217.088-150.176 361.824t-361.824 150.176q-217.088-5.472-361.824-150.176t-150.176-361.824zM117.408 446.624q4.096 167.936 116.064 279.904t279.904 117.408q169.312-5.472 281.248-117.408t116.064-279.904q-4.096-167.936-116.064-279.904t-281.248-116.064q-167.936 4.096-279.904 116.064t-116.064 279.904zM372.736 243.2q0-17.76 15.008-25.952 5.472-2.72 13.664-2.72t15.008 5.472l293.536 200.704q10.912 9.568 10.912 23.904t-10.912 23.904l-293.536 200.704q-6.816 5.472-16.384 5.472-6.816 0-12.288-2.72-15.008-8.192-15.008-25.952v-402.784z" />
<glyph unicode="&#xe941;" glyph-name="plus" d="M0 375.648v141.984q0 17.76 12.288 30.048t30.048 12.288h354.976v356.352q1.376 17.76 12.96 30.048t29.344 12.288h143.36q17.76 0 30.048-12.288t12.288-30.048v-356.352h354.976q19.104 0 30.72-12.288t12.96-30.048v-141.984q-1.376-17.76-12.96-30.048t-30.72-12.288h-354.976v-356.352q0-17.76-12.288-30.048t-30.048-12.288h-143.36q-17.76 0-29.344 12.288t-12.96 30.048v356.352h-354.976q-17.76 0-30.048 12.288t-12.288 30.048z" />
<glyph unicode="&#xe942;" glyph-name="pool" d="M1.376-32.608h129.696q-25.952 12.288-58.016 36.192t-71.68 63.488v-99.68zM1.376 209.056q122.88-117.408 199.328-117.408 32.768 0 56.672 21.856 79.872 72.352 256 95.584 176.128-23.2 256-95.584 23.904-21.856 56.672-21.856 76.448 0 199.328 117.408v141.984q-122.88-117.408-199.328-117.408-32.768 0-56.672 21.856-79.872 72.352-256 95.584-176.128-23.2-256-95.584-23.904-21.856-56.672-21.856-76.448 0-199.328 117.408v-141.984zM79.2 683.52q-1.376-17.056 9.568-30.72l28.672-32.768q10.912-13.664 28-15.008t32.096 10.912l161.12 137.888 118.784-136.544-305.824-234.848q23.904-6.816 47.104-6.816 55.296 0 105.824 38.24 72.352 54.624 208.896 65.536 122.88-6.816 193.184-54.624 68.256-46.432 133.792-46.432h3.424l-217.088 236.192-245.76 288.096q-12.288 13.664-29.344 15.008t-30.72-10.912l-226.656-193.888q-13.664-12.288-15.008-29.344zM249.856-32.608h527.008q-47.776 25.952-107.168 60.768t-156.32 38.912q-96.928-4.096-156.32-38.912t-107.168-60.768zM707.232 648.704q1.376 50.528 34.816 83.296t83.296 32.768 83.296-32.768 33.44-83.296-33.44-83.968-83.296-33.44-83.296 33.44-34.816 83.968zM895.648-32.608h129.696v99.68q-39.584-39.584-71.68-63.488t-58.016-36.192z" />
<glyph unicode="&#xe943;" glyph-name="print" d="M1.376 49.312v425.984q1.376 19.104 12.96 30.72t30.72 12.96h84.64v341.344q0 17.76 12.288 29.344t30.048 12.96h682.656q19.104-1.376 30.72-12.96t12.96-29.344v-341.344h84.64q17.76-1.376 30.048-12.96t12.288-30.72v-425.984q0-17.76-12.288-30.048t-30.048-12.288h-937.984q-19.104 0-30.72 12.288t-12.96 30.048zM129.696 133.984h768.672v256.672h-768.672v-256.672zM258.048 519.008h512v255.328h-512v-255.328zM513.376 233.632q1.376-17.76 12.96-30.048t30.72-12.288h42.336q17.76 0 30.048 12.288t12.288 30.048v42.336q0 19.104-12.288 30.72t-30.048 12.96h-42.336q-19.104-1.376-30.72-12.96t-12.96-30.72v-42.336zM699.040 233.632v42.336q0 19.104 12.288 30.72t30.048 12.96h42.336q17.76-1.376 30.048-12.96t12.288-30.72v-42.336q0-17.76-12.288-30.048t-30.048-12.288h-42.336q-17.76 0-30.048 12.288t-12.288 30.048z" />
<glyph unicode="&#xe944;" glyph-name="question" d="M1.376 448q5.472-217.088 150.176-361.824t361.824-150.176q217.088 5.472 361.824 150.176t150.176 361.824q-5.472 217.088-150.176 361.824t-361.824 150.176q-217.088-5.472-361.824-150.176t-150.176-361.824zM292.192 610.464q0 43.68 27.296 87.392t79.2 72.352 121.504 28.672q62.816 0 112.64-23.904t77.152-65.536 27.296-90.784q0-39.584-16.384-68.256-15.008-28.672-35.488-49.152t-72.352-66.912q-13.664-12.288-21.152-21.152t-10.912-15.712-6.144-13.664l-6.816-25.952q-9.568-54.624-62.816-55.968-27.296 0-46.432 18.432t-19.104 52.576q0 38.24 11.616 66.208t30.72 48.48 50.528 47.776q25.952 23.2 36.864 34.144t17.76 22.528 6.816 25.248q0 27.296-20.48 46.432t-53.248 19.104q-39.584 0-57.344-19.104-20.48-20.48-34.144-62.816-10.912-34.144-30.048-45.728t-36.864-10.24q-30.048 0-49.824 20.48t-19.808 45.056zM432.8 159.904q0 31.392 22.528 53.92t54.624 22.528 53.92-22.528 21.856-53.92q0-35.488-23.2-57.344-23.2-19.104-53.248-19.104t-53.248 19.808-23.2 56.672z" />
<glyph unicode="&#xe945;" glyph-name="record" d="M253.952 450.72q2.72-109.216 75.776-182.272t182.272-75.776q109.216 2.72 182.272 75.776t75.776 182.272q-2.72 109.216-75.776 182.272t-182.272 75.776q-109.216-2.72-182.272-75.776t-75.776-182.272z" />
<glyph unicode="&#xe946;" glyph-name="refresh" d="M-2.72 448q4.096 182.944 125.6 305.152t305.824 126.304q180.224-4.096 301.056-122.88t130.4-299.008h139.264q17.76 0 21.856-8.864t-9.568-21.152l-223.904-223.904q-13.664-13.664-30.72-13.664t-30.72 13.664l-223.904 223.904q-12.288 12.288-8.864 21.152t21.152 8.864h162.464q-6.816 102.4-76.448 169.984t-172.032 70.304q-106.496-2.72-176.8-73.056t-73.056-176.8q2.72-106.496 73.056-176.8t176.8-73.056q17.76 0 30.048-12.96t12.288-30.72v-94.208q0-19.104-12.288-31.392t-30.048-12.288q-184.32 4.096-305.824 125.6t-125.6 305.824z" />
<glyph unicode="&#xe947;" glyph-name="right" horiz-adv-x="608" d="M85.344-64c-22.464 0-44.896 8.992-62.88 26.944-31.424 31.424-35.936 85.344 0 116.768 0 0 0 0 0 0l372.768 368.288-368.288 368.288c-31.424 31.424-35.936 85.344 0 116.768 0 0 0 0 0 0 35.936 35.936 89.824 35.936 121.248 0l435.648-426.656c31.424-31.424 35.936-85.344 0-116.768 0 0 0 0 0 0l-435.648-426.656c-13.472-17.952-35.936-26.944-62.88-26.944z" />
<glyph unicode="&#xe948;" glyph-name="room" d="M0 117.6q1.376-19.104 12.96-30.72t30.72-12.96h42.336q17.76 1.376 30.048 12.96t12.288 30.72v212.992h768.672v-212.992q0-19.104 12.288-30.72t30.048-12.96h42.336q17.76 1.376 30.048 12.96t12.288 30.72v425.984q0 17.76-12.288 30.048t-30.048 12.288h-42.336q-17.76 0-30.048-12.288t-12.288-30.048v-84.64h-768.672v341.344q0 17.76-12.288 30.048t-30.048 12.288h-42.336q-19.104 0-30.72-12.288t-12.96-30.048v-682.656zM188.416 615.936q0 42.336 28 69.632t70.304 27.296 69.632-27.296 27.296-69.632-27.296-70.304-69.632-28-70.304 28-28 70.304zM415.072 546.304q-1.376-12.288 5.472-20.48t19.104-8.192h370.016q12.288 0 16.384 7.52t-2.72 17.056q0 10.912-68.256 83.296t-188.416 83.296q-95.584-9.568-124.928-81.248t-26.624-81.248z" />
<glyph unicode="&#xe949;" glyph-name="search" d="M2.72 16.544q0-32.768 25.248-58.016t58.016-25.248q39.584 0 68.256 28.672l274.432 274.432q45.056-28.672 97.632-43.68t109.92-16.384q165.216 5.472 275.808 115.36t114.688 275.104q-4.096 166.56-114.688 276.48t-275.808 114.016q-166.56-4.096-276.48-114.016t-114.016-276.48q0-57.344 15.712-109.92t44.384-97.632l-274.432-273.056q-28.672-30.048-28.672-68.256v-1.376zM417.792 566.784q2.72 92.832 64.16 154.272t154.272 64.16q91.488-2.72 152.928-64.16t64.16-154.272q-2.72-91.488-64.16-152.928t-152.928-64.16q-92.832 2.72-154.272 64.16t-64.16 152.928z" />
<glyph unicode="&#xe94a;" glyph-name="seat" d="M9.568 917.664q-4.096 17.76 4.096 29.344t25.952 11.616h165.216q17.76 0 33.44-11.616t22.528-29.344l71.008-214.368h385.024q17.76-1.376 30.048-13.664t12.288-30.048v-84.64q0-17.76-12.288-30.048t-30.048-12.288h-327.68l28.672-86.016h554.336q17.76 0 30.048-12.288t12.288-30.048v-170.656q0-17.76-12.288-30.048t-30.048-12.288h-99.68l-146.080-221.184q-10.912-15.008-30.048-25.248t-36.864-10.24h-113.312q-17.76 0-23.2 10.24t4.096 25.248l146.080 221.184h-184.32l-147.456-221.184q-9.568-15.008-28.672-25.248t-36.864-10.24h-114.688q-17.76 0-22.528 10.24t4.768 25.248l146.080 221.184q-17.76 0-33.44 11.616t-22.528 28z" />
<glyph unicode="&#xe94b;" glyph-name="secure" d="M129.696-21.664q0-17.76 12.288-30.048t30.048-12.288h682.656q17.76 0 30.048 12.288t12.288 30.048v555.68q0 17.76-12.288 29.344t-30.048 12.96h-84.64v128.352q-2.72 107.872-75.104 180.224t-181.6 75.104q-109.216-2.72-180.896-75.104t-74.4-180.224v-128.352h-86.016q-17.76-1.376-30.048-12.96t-12.288-29.344v-555.68zM385.024 576.352v128.352q1.376 53.248 37.536 89.44t90.784 36.192 90.784-36.192 37.536-89.44v-128.352h-256.672z" />
<glyph unicode="&#xe94c;" glyph-name="settings" d="M-1.376 386.56q0-10.912 7.52-20.48t19.808-10.912l152.928-28.672q10.912-2.72 14.336-10.24t-3.424-17.056l-87.392-131.072q-6.816-9.568-5.472-21.152t9.568-19.808l83.296-84.64q9.568-8.192 21.152-9.568t21.152 5.472l131.072 87.392q9.568 6.816 17.056 3.424t10.24-14.336l27.296-152.928q2.72-12.288 12.288-19.808t20.48-7.52h118.784q12.288 0 21.152 7.52t11.616 19.808l28.672 152.928q1.376 10.912 9.568 14.336t17.76-3.424l129.696-87.392q9.568-6.816 21.856-5.472t20.48 9.568l84.64 84.64q8.192 8.192 8.864 19.808t-4.768 21.152l-88.736 131.072q-5.472 9.568-2.048 17.056t14.336 10.24l152.928 28.672q10.912 1.376 19.104 10.912t8.192 20.48v120.16q0 10.912-8.192 20.48t-19.104 10.912l-152.928 28.672q-10.912 2.72-14.336 10.24t2.048 17.056l88.736 129.696q5.472 10.912 4.768 22.528t-8.864 19.808l-84.64 84.64q-8.192 8.192-20.48 9.568t-21.856-5.472l-129.696-87.392q-9.568-6.816-17.76-3.424t-9.568 14.336l-28.672 152.928q-2.72 12.288-11.616 19.808t-21.152 7.52h-118.784q-10.912 0-20.48-7.52t-12.288-19.808l-27.296-152.928q-2.72-10.912-10.24-14.336t-17.056 3.424l-131.072 87.392q-9.568 6.816-21.152 5.472t-21.152-9.568l-83.296-84.64q-8.192-8.192-9.568-19.808t5.472-22.528l87.392-129.696q6.816-9.568 3.424-17.056t-14.336-10.24l-152.928-28.672q-12.288-1.376-19.808-10.912t-7.52-20.48v-120.16zM324.96 446.624q2.72 77.824 54.624 130.4t131.072 53.92q77.824-1.376 130.4-53.92t53.92-130.4q-1.376-79.2-53.92-131.072t-130.4-54.624q-79.2 2.72-131.072 54.624t-54.624 131.072z" />
<glyph unicode="&#xe94d;" glyph-name="share" d="M2.72 105.312q1.376-19.104 12.96-30.72t30.72-12.96h937.984q17.76 1.376 30.048 12.96t12.288 30.72v341.344h-126.976v-256.672h-768.672v383.648h128.352v128.352h-212.992q-19.104 0-30.72-12.288t-12.96-30.048v-554.336zM202.080 331.936q19.104 212.992 184.32 285.344t243.040 73.728v113.312q0 17.76 10.24 23.2t25.248-4.096l312.672-208.896q15.008-9.568 15.008-23.2t-15.008-23.2l-312.672-208.896q-15.008-9.568-25.248-4.096t-10.24 23.2v121.504q-55.968-1.376-94.88-3.424t-63.488-4.768q-157.024-27.296-215.040-90.112t-53.92-69.632z" />
<glyph unicode="&#xe94e;" glyph-name="signout" d="M21.856 99.84q0-19.104 12.288-30.72t30.048-12.96h73.728l238.944-118.784q5.472-2.72 10.912-2.72t10.912 2.72q9.568 6.816 9.568 19.104v99.68h214.368q19.104 1.376 30.72 12.96t12.96 30.72v214.368h-114.688v-143.36h-143.36v558.432q0 13.664-12.288 19.104l-189.792 95.584h345.44v-143.36h114.688v215.712q-1.376 17.76-12.96 30.048t-30.72 12.288h-558.432q-17.76 0-30.048-12.288t-12.288-30.048v-816.48zM487.424 457.568q0-13.664 8.864-22.528t21.152-8.864h212.992q12.288 0 21.152-8.864t8.864-21.152v-113.312q0-13.664 6.144-15.712t15.712 6.144l211.616 211.616q8.192 9.568 8.192 21.856t-8.192 21.856l-210.272 210.272q-8.192 6.816-13.664 6.816-8.192 0-8.192-16.384v-111.968q0-13.664-8.864-22.528t-22.528-8.864h-212.992q-12.288 0-21.152-8.864t-8.864-21.152v-98.304z" />
<glyph unicode="&#xe94f;" glyph-name="snacks" d="M1.376 327.84q0-34.144 10.912-45.728t46.432-10.24h921.6q17.76 0 30.048 8.192t10.912 25.952q0 30.048 4.768 60.768t-32.096 47.104q-16.384 6.816-35.488 6.816-31.392 1.376-58.72-27.296-19.104-21.856-41.632-44.384t-47.104-37.536q-27.296-15.008-53.92-11.616t-41.632 22.528q-34.144 47.776-80.544 71.68t-101.024 23.904h-443.744q-64.16 2.72-77.824-11.616t-10.912-78.496zM45.056 493.056h940.704q-8.192 23.2-13.664 44.384t-17.76 36.192q-23.2 31.392-50.528 60.064t-58.72 50.528q-76.448 47.776-159.072 68.256t-168.608 19.104q-40.96 0-80.544-4.096-86.016-8.192-163.84-35.488t-143.36-83.296q-36.864-30.048-58.72-68.256t-25.952-87.392zM46.432 196.768q-9.568-58.72 8.864-81.248t74.4-21.152h765.952q55.968 0 74.4 23.2t6.144 79.2h-929.792z" />
<glyph unicode="&#xe950;" glyph-name="sort" d="M0.672 633.696q-3.424 8.192 8.864 20.48l292.192 292.192q13.664 12.288 30.72 12.288t29.344-12.288l292.192-292.192q12.288-13.664 8.864-21.856t-21.152-8.192h-157.024q-17.76 0-29.344-12.288t-12.96-30.048v-152.928q0-19.104-12.288-30.72t-30.048-12.96h-135.168q-19.104 1.376-30.72 12.96t-12.96 30.72v154.272q0 17.76-12.288 29.344t-30.048 12.96l-157.024-1.376q-17.76 1.376-21.152 9.568zM361.12 260.96q-3.424-8.192 8.864-21.856l292.192-292.192q13.664-12.288 30.72-12.288t29.344 12.288l292.192 292.192q12.288 12.288 8.864 20.48t-21.152 9.568l-157.024-1.376q-17.76 1.376-30.048 12.96t-12.288 29.344v154.272q0 19.104-12.288 30.72t-30.048 12.96h-136.544q-17.76-1.376-29.344-12.96t-12.96-30.72v-152.928q0-17.76-12.288-30.048t-30.048-12.288h-157.024q-17.76 0-21.152-8.192z" />
<glyph unicode="&#xe951;" glyph-name="Speaker" horiz-adv-x="1408" d="M1093.664-64l-34.816 41.792c139.328 111.456 222.912 285.6 222.912 466.72s-76.64 348.288-215.936 459.744l34.816 41.792c153.248-125.376 236.832-306.496 236.832-508.512 0-188.096-90.56-376.16-243.808-501.536zM954.336 444.512c0-104.48-48.768-202.016-125.376-264.704l-34.816 41.792c69.664 55.712 104.48 139.328 104.48 222.912s-34.816 167.168-104.48 222.912l34.816 41.792c83.584-69.664 125.376-160.224 125.376-264.704zM202.016 242.496h-153.248c-27.872 0-48.768 20.896-48.768 48.768v313.472c0 27.872 20.896 48.768 48.768 48.768h153.248l501.536 299.552v-1017.024l-501.536 306.496zM1142.432 444.512c0-146.272-62.688-285.6-181.12-383.136l-34.816 41.792c104.48 83.584 160.224 208.992 160.224 341.344s-55.744 257.728-160.224 341.344l34.816 41.792c111.456-90.56 181.12-236.832 181.12-383.136z" />
<glyph unicode="&#xe952;" glyph-name="sport" d="M0 448l1.376 25.952q2.72 72.352 25.952 139.264t62.816 124.256q49.152 71.008 117.408 121.504t151.552 77.824q72.352 23.2 152.928 23.2 53.248 0 103.776-10.912 91.488-19.104 167.264-66.208t130.4-118.112q76.448-95.584 101.024-218.464 9.568-47.776 9.568-98.304 0-105.12-38.912-196.608t-107.168-162.464q-50.528-50.528-114.016-86.688t-135.84-52.576q-55.968-13.664-116.064-13.664-79.2 0-150.176 23.2-76.448 23.2-139.936 66.912t-111.264 105.12q-51.872 65.536-80.544 146.080t-30.048 170.656zM111.968 448q0-77.824 27.296-146.080t75.104-121.504l83.296 8.192q12.288 0 23.904-6.144t15.712-18.432l40.96-92.832q62.816-23.2 133.792-23.2 43.68 0 84.64 8.192l32.768 102.4q4.096 12.288 14.336 19.808t22.528 7.52l148.832 1.376q46.432 51.872 71.68 118.784t25.248 141.984v21.856l-10.912-8.192q-10.912-6.816-23.904-6.816t-22.528 6.816l-122.88 88.736q-9.568 6.816-13.664 19.104t0 24.576l46.432 143.36q2.72 8.192 8.192 13.664-57.344 49.152-129.696 75.104 1.376-13.664-4.096-36.864t-15.008-31.392l-131.072-75.104q-9.568-5.472-22.528-4.768t-22.528 8.864l-105.12 122.88q-83.296-39.584-140.64-109.216l32.768-148.832q2.72-12.288-2.72-23.904t-16.384-18.432l-103.776-60.064v-1.376zM318.112 427.52q-2.72 10.912 0.672 23.2t12.96 20.48l122.88 88.736q9.568 6.816 22.528 6.816t23.904-6.816l121.504-88.736q9.568-8.192 13.664-20.48t0-23.2l-46.432-144.736q-4.096-10.912-14.336-18.432t-22.528-7.52h-151.552q-10.912 0-21.856 7.52t-15.008 18.432z" />
<glyph unicode="&#xe953;" glyph-name="star" d="M0 542.208q0 17.76 10.24 29.344t19.808 15.712q17.76 6.816 34.144 6.816h286.72q5.472-1.376 13.664 5.472t9.568 12.288l83.296 297.632q4.096 13.664 12.288 27.296 4.096 6.816 14.336 14.336t27.296 7.52 26.624-7.52 13.664-14.336q9.568-13.664 12.288-27.296l83.296-297.632q1.376-5.472 9.568-12.288t13.664-5.472h286.72q12.288 0 25.248-2.72t28-19.104q10.912-12.288 10.912-30.048 0-12.288-4.096-20.48t-9.568-13.664q-8.192-10.912-19.104-17.76l-230.752-151.552q-2.72-1.376-6.144-8.192t-3.424-13.664v-4.096l102.4-297.632q4.096-12.288 4.768-26.624t-10.24-33.44q-6.816-9.568-17.056-14.336t-19.808-4.768h-1.376q-16.384 1.376-26.624 6.816t-18.432 12.288l-237.568 193.888q-4.096 2.72-12.288 2.72t-10.912-2.72l-226.656-192.512q-8.192-6.816-18.432-12.96t-26.624-7.52q-9.568 0-21.152 5.472t-18.432 15.008q-10.912 19.104-10.24 32.768t4.768 25.952l90.112 294.912 1.376 4.096q0 6.816-4.096 14.336t-6.816 8.864l-232.096 152.928q-9.568 6.816-19.104 17.76-5.472 5.472-9.568 13.664t-4.096 20.48z" />
<glyph unicode="&#xe954;" glyph-name="state-up" d="M21.152 164q-4.768 9.568 6.144 24.576l457.376 572.064q10.912 13.664 25.952 13.664t27.296-13.664l457.376-572.064q10.912-15.008 6.144-24.576t-22.528-9.568h-935.264q-17.76 0-22.528 9.568z" />
<glyph unicode="&#xe955;" glyph-name="state" d="M18.432 721.056q4.768 9.568 22.528 9.568h935.264q17.76 0 22.528-9.568t-6.144-23.2l-457.376-572.064q-12.288-15.008-27.296-15.008t-25.952 15.008l-457.376 572.064q-10.912 13.664-6.144 23.2z" />
<glyph unicode="&#xe956;" glyph-name="stop" d="M0 449.376q5.472-217.088 150.176-361.824t361.824-150.176q217.088 5.472 361.824 150.176t150.176 361.824q-5.472 217.088-150.176 361.824t-361.824 150.176q-217.088-5.472-361.824-150.176t-150.176-361.824zM114.688 449.376q4.096 167.936 116.736 279.904t280.576 117.408q167.936-5.472 279.904-117.408t116.064-279.904q-4.096-167.936-116.064-279.904t-279.904-116.064q-167.936 4.096-280.576 116.064t-116.736 279.904zM356.352 319.648q0-12.288 8.192-20.48t20.48-8.192h256.672q10.912 0 19.104 8.192t9.568 20.48v256.672q-1.376 12.288-9.568 20.48t-19.104 8.192h-256.672q-12.288 0-20.48-8.192t-8.192-20.48v-256.672z" />
<glyph unicode="&#xe957;" glyph-name="sun" d="M0 404.32h184.32v84.64h-184.32v-84.64zM47.776 226.816l42.336-73.728 166.56 95.584-42.336 75.104zM47.776 665.088l165.216-95.584 43.68 73.728-166.56 96.928zM218.464 868.512l96.928-166.56 73.728 43.68-95.584 165.216zM219.808 24.736l73.728-43.68 95.584 166.56-73.728 42.336zM270.336 448q2.72-103.776 71.008-172.032t172.032-71.008q102.4 2.72 171.36 71.008t71.68 172.032q-2.72 102.4-71.68 171.36t-171.36 71.68q-103.776-2.72-172.032-71.68t-71.008-171.36zM469.664-65.376h84.64v184.32h-84.64v-184.32zM469.664 759.296h84.64v199.328h-84.64v-199.328zM634.88 147.616l95.584-165.216 75.104 42.336-96.928 166.56zM634.88 744.288l75.104-42.336 95.584 166.56-73.728 42.336zM767.328 250.016l166.56-96.928 42.336 75.104-165.216 95.584zM768.672 643.232l42.336-73.728 166.56 95.584-43.68 73.728zM824.672 404.32h199.328v84.64h-199.328v-84.64z" />
<glyph unicode="&#xe958;" glyph-name="t-rating" d="M1.376 446.624q5.472-217.088 150.176-361.824t361.824-150.176q218.464 5.472 362.496 150.176t149.504 361.824q-5.472 217.088-149.504 361.824t-362.496 150.176q-217.088-5.472-361.824-150.176t-150.176-361.824zM218.464 655.52l1.376 19.104q0 9.568 2.048 18.432l4.096 17.76q0 0 7.52 15.712 6.816 13.664 20.48 17.76 10.912 2.72 27.296 2.72h481.952q12.288 0 19.104-1.376t10.912-4.096q15.008-10.912 15.008-35.488v-17.76l-2.72-19.104-4.096-17.76q-2.72-9.568-5.472-15.008-8.192-15.008-23.2-19.104-9.568-2.72-27.296-2.72h-154.272v-544.768q0-13.664-2.72-21.856t-10.912-15.008-23.2-10.24-38.912-3.424-39.584 3.424-23.904 8.864l-1.376 1.376q-6.816 8.192-9.568 15.712t-2.72 19.808v546.144h-173.408q-13.664 0-20.48 1.376t-12.288 5.472q-9.568 5.472-12.288 17.76-1.376 6.816-1.376 16.384z" />
<glyph unicode="&#xe959;" glyph-name="tag" d="M13.664 311.456q0 17.76 12.288 31.392l438.272 438.272 144.736 2.72q-12.288-24.576-23.2-51.872-12.288-34.144-20.48-69.632-6.816-5.472-12.288-12.288-32.768-34.144-32.768-77.824t32.768-77.152 77.152-33.44 77.152 32.768 33.44 75.104-28 76.448q5.472 17.76 10.912 34.144 12.288 32.768 30.048 60.768t39.584 48.48h25.952q12.288 0 19.808-8.192t8.864-20.48l-9.568-354.976-436.896-438.272q-13.664-12.288-31.392-12.288t-31.392 12.288l-312.672 312.672q-12.288 13.664-12.288 31.392zM587.776 615.936q-6.144-53.248 2.048-99.68v-1.376q1.376-8.192 14.336-11.616t32.096-0.672 30.048 10.24 10.912 15.712l-1.376 1.376h1.376q-6.816 35.488-1.376 77.152t21.152 83.296 38.912 75.776 51.872 57.344q47.776 36.864 83.296 23.2t46.432-73.728q6.816-34.144 1.376-75.776t-20.48-83.968q-6.816-17.76 0.672-33.44t24.576-22.528 33.44 0.672 23.2 23.904q20.48 54.624 26.624 107.168t-2.048 100.352q-9.568 53.248-35.488 89.44t-66.208 51.2-83.968 5.472-86.016-42.336q-38.24-30.048-68.96-73.728t-50.528-96.928-25.952-106.496z" />
<glyph unicode="&#xe95a;" glyph-name="Speaker-A" horiz-adv-x="1408" d="M985.6 444.8c0-105.6-48-201.6-124.8-265.6l-35.2 41.6c70.4 54.4 105.6 140.8 105.6 224s-35.2 166.4-105.6 224l35.2 41.6c83.2-70.4 124.8-160 124.8-265.6zM233.6 243.2h-153.6c-28.8 0-48 22.4-48 48v313.6c0 28.8 22.4 48 48 48h153.6l502.4 300.8v-1017.6l-502.4 307.2zM1174.4 444.8c0-147.2-64-284.8-182.4-384l-32 41.6c105.6 83.2 160 208 160 342.4s-54.4 259.2-160 342.4l32 41.6c112-92.8 182.4-236.8 182.4-384z" />
<glyph unicode="&#xe95b;" glyph-name="Speaker-B" horiz-adv-x="1408" d="M985.6 444.8c0-105.6-48-201.6-124.8-265.6l-35.2 41.6c70.4 54.4 105.6 140.8 105.6 224s-35.2 166.4-105.6 224l35.2 41.6c83.2-70.4 124.8-160 124.8-265.6zM233.6 243.2h-153.6c-28.8 0-48 22.4-48 48v313.6c0 28.8 22.4 48 48 48h153.6l502.4 300.8v-1017.6l-502.4 307.2z" />
<glyph unicode="&#xe95c;" glyph-name="Speaker-mute" horiz-adv-x="1408" d="M233.6 243.2h-153.6c-28.8 0-48 22.4-48 48v313.6c0 28.8 22.4 48 48 48h153.6l502.4 300.8v-1017.6l-502.4 307.2zM1248 617.6c-12.8 12.8-32 12.8-44.8 0l-134.4-134.4-134.4 134.4c-12.8 12.8-32 12.8-44.8 0s-12.8-32 0-44.8l134.4-134.4-134.4-134.4c-12.8-12.8-12.8-32 0-44.8s32-12.8 44.8 0l134.4 134.4 134.4-134.4c12.8-12.8 32-12.8 44.8 0s12.8 32 0 44.8l-134.4 134.4 134.4 134.4c9.6 16 9.6 35.2 0 44.8z" />
<glyph unicode="&#xe95d;" glyph-name="toilets" d="M4.096 442.528q2.72-21.856 23.904-26.624t32.096 14.336q5.472 10.912 8.192 21.856 27.296 88.736 51.872 177.504 4.096 9.568 15.712 12.288t22.528-1.376l-103.776-354.976h69.632v-256.672q-1.376-12.288 1.376-24.576 2.72-17.76 15.008-26.624t29.344-7.52 27.296 11.616 12.96 26.624v277.152h45.056l1.376-255.328q-1.376-13.664 1.376-28t13.664-22.528 27.296-9.568q32.768 0 42.336 30.048 1.376 6.816 1.376 16.384l1.376 10.912v258.048h66.912l-101.024 354.976q9.568 4.096 21.152 1.376t15.712-12.288l51.872-177.504q2.72-10.912 8.192-21.856 10.912-19.104 32.096-14.336t23.904 26.624q1.376 10.912-2.72 21.856-31.392 107.872-64.16 214.368-10.912 35.488-36.864 55.968t-62.816 20.48h-110.592q-38.24 0-70.304-20.48t-44.384-55.968q-32.768-106.496-64.16-212.992-4.096-10.912-2.72-23.2zM159.744 850.080q0-32.096 21.152-53.248t53.248-21.152 53.92 21.152 21.856 53.248-21.856 53.92-53.248 21.856q-32.768 0-53.92-21.856t-21.152-53.92zM506.528-10.752h54.624v927.072h-54.624v-927.072zM614.4 411.136q1.376-13.664 10.24-22.528t21.856-8.864 21.856 8.192 11.616 23.2v221.184h17.76q1.376 0 6.816-2.72t6.816-13.664v-587.104q-1.376-12.288 1.376-24.576 2.72-17.76 15.008-26.624t29.344-7.52 27.296 11.616 12.96 26.624q1.376 10.912 0 21.856v341.344q2.72 6.816 22.528 6.816t23.904-6.816v-341.344q-1.376-13.664 1.376-28t13.664-22.528 27.296-9.568q32.768 0 42.336 30.048 2.72 13.664 2.72 27.296v584.352q0 12.288 6.816 15.712t6.816 2.048l17.76 1.376v-219.808q1.376-15.008 10.24-23.2t22.528-8.192 22.528 8.864 8.864 22.528q2.72 125.6 0 249.856-2.72 38.24-34.144 62.816t-71.008 25.952q-45.056 1.376-101.024 1.376t-101.024-1.376q-38.24-1.376-69.632-25.952t-34.144-62.816q-2.72-124.256-1.376-249.856zM745.472 850.080q0-32.096 21.152-53.248t53.248-21.152 53.92 21.152 21.856 53.248-21.856 53.92-53.248 21.856q-32.768 0-53.92-21.856t-21.152-53.92z" />
<glyph unicode="&#xe95e;" glyph-name="twitter" d="M4.096 118.944q9.568 0 19.104-0.672 145.408 0 216.416 40.288 68.256 38.24 68.256 47.776 0 0.672-0.672 1.376h-4.096q-32.096 0-86.016 20.48-57.344 21.856-95.584 110.592 1.376 0 30.048 4.096t61.44 16.384q-1.376-0.672-3.424-0.672-14.336 0-73.056 30.048-68.256 34.816-94.208 174.080l103.776-25.952q-102.4 84.64-102.4 170.656 0 9.568 1.376 18.432 12.288 93.536 28 93.536h0.672q12.288-17.76 95.584-82.592t155.648-94.88q66.912-23.2 124.256-32.768 50.528-8.192 59.392-8.192h2.048q-1.376 1.376-6.144 25.952-2.72 15.712-2.72 34.816 0 10.912 0.672 22.528 9.568 84.64 61.44 131.744t143.36 47.104q83.296-2.72 116.736-30.048t36.192-35.488q4.096-1.376 9.568-1.376 20.48 0 64.16 19.808 55.968 25.248 64.16 29.344-9.568-51.872-51.2-83.968-34.144-25.952-33.44-30.72 0-1.376 1.376-1.376 21.856 2.72 64.16 16.384l47.776 15.008q-21.856-40.96-55.968-71.008t-43.68-34.144l-1.376-19.104q2.72-13.664 2.72-30.72 0-68.96-39.584-195.936-49.152-158.368-251.232-297.632-173.408-87.392-320.864-87.392-67.584 0-129.024 18.432-184.32 53.92-184.32 73.056 0 1.376 0.672 2.72z" />
<glyph unicode="&#xe95f;" glyph-name="video-expand" horiz-adv-x="1632" d="M161.696 798.304h1293.472v-700.64h-1293.472v700.64zM0 960h53.888v-431.168h-53.888v431.168zM1562.944 960h53.888v-431.168h-53.888v431.168zM1562.944 367.168h53.888v-431.168h-53.888v431.168zM0 367.168h53.888v-431.168h-53.888v431.168zM0-64v53.888h431.168v-53.888h-431.168zM0 906.112v53.888h431.168v-53.888h-431.168zM1185.696 906.112v53.888h431.168v-53.888h-431.168zM1185.696-64v53.888h431.168v-53.888h-431.168z" />
<glyph unicode="&#xe960;" glyph-name="video" d="M0 132.608q0-17.76 12.288-30.048t30.048-12.288h554.336q17.76 0 30.048 12.288t12.288 30.048v86.016h86.016q17.76 0 30.048 12.288t12.288 30.048v299.008q0 17.76-12.288 29.344t-30.048 12.96h-86.016v84.64q0 17.76-12.288 30.048t-30.048 13.664h-158.368l-28.672 57.344q-5.472 10.912-18.432 18.432t-25.248 8.864h-206.176q-12.288-1.376-25.248-8.864t-18.432-18.432l-28.672-57.344h-45.056q-17.76-1.376-30.048-13.664t-12.288-30.048v-554.336zM853.344 203.616v412.32q0 17.76 12.288 30.048t30.048 12.288h84.64q19.104 0 30.72-12.288t12.96-30.048v-412.32q-1.376-17.76-12.96-30.048t-30.72-12.288h-84.64q-17.76 0-30.048 12.288t-12.288 30.048z" />
<glyph unicode="&#xe961;" glyph-name="videoicon" d="M0 960v-1024l1024 512-1024 512z" />
<glyph unicode="&#xe962;" glyph-name="warning" d="M5.472-27.808q21.856-36.192 81.92-37.536h839.68q60.064 1.376 81.92 37.536 10.24 17.056 10.24 37.536 0 23.2-12.96 51.872l-435.552 845.152q-27.296 51.872-63.488 51.872t-63.488-51.872l-435.552-845.152q-12.96-28-12.96-51.872 0-20.48 10.24-37.536zM430.080 114.848q0 32.768 22.528 54.624t54.624 21.856 54.624-21.856 22.528-54.624q0-34.144-23.2-55.968-23.2-20.48-53.92-20.48t-53.92 20.48-23.2 55.968zM430.080 643.232q0 40.96 21.856 64.16t58.72 23.2q27.296 0 40.96-10.24t19.104-22.528q13.664-27.296 13.664-77.824 0-27.296-2.72-55.968l-17.76-206.176q-4.096-39.584-15.008-61.44-13.664-27.296-44.384-27.296t-43.008 27.296q-10.912 20.48-13.664 62.816l-13.664 199.328q-4.096 58.72-4.096 84.64z" />
<glyph unicode="&#xe963;" glyph-name="whatsapp" d="M24.576-64l263.52 90.112q105.12-61.44 232.096-62.816 202.080 5.472 337.248 146.080t140.64 352.256q-5.472 210.272-140.64 351.584t-338.592 146.784q-202.080-5.472-337.248-146.080t-140.64-352.256q1.376-72.352 19.104-137.216t50.528-120.832zM159.744 461.664q4.096 161.12 105.824 267.616t254.624 110.592q152.928-4.096 254.624-111.264t105.824-266.912q-4.096-161.12-105.824-267.616t-254.624-110.592q-111.968 1.376-199.328 62.816l-139.264-46.432 46.432 140.64q-32.768 46.432-50.528 102.4t-17.76 118.784zM285.344 570.88q2.72-46.432 22.528-82.592t26.624-44.384q5.472-12.288 58.016-75.776t141.312-108.544q68.256-28.672 97.632-32.096t43.008 0.672q24.576 5.472 47.776 21.856t31.392 38.24 9.568 37.536-2.72 20.48-24.576 14.336l-39.584 20.48q-28.672 15.008-39.584 19.104-15.008 8.192-28.672-8.192-17.76-27.296-31.392-43.68-12.288-10.912-28.672-4.096-9.568 2.72-34.816 16.384t-58.016 43.68q-27.296 25.952-43.68 50.528t-21.856 34.144-2.72 15.712 6.816 10.24l24.576 28.672q2.72 4.096 5.472 10.912 4.096 12.288-1.376 21.856l-35.488 91.488q-5.472 13.664-11.616 17.76t-14.336 2.72h-12.288q-24.576 0-40.96-15.008-10.912-9.568-25.952-34.144t-16.384-68.256z" />
<glyph unicode="&#xe964;" glyph-name="you-tube" d="M-5.472 408.416q0-64.16 5.472-113.312l4.096-51.872q0-2.72 8.864-38.912t32.096-62.112q31.392-28.672 62.816-35.488t50.528-8.192q75.104-6.816 204.8-8.192l141.984-1.376q9.568-1.376 126.304 0.672t232.8 10.24q16.384 1.376 45.056 7.52t57.344 34.816q23.2 27.296 32.768 62.816t9.568 38.24l4.096 51.872q4.096 49.152 5.472 113.312v79.2q-1.376 64.16-5.472 113.312l-4.096 51.872q0 2.72-9.568 38.912t-32.768 62.112q-28.672 30.048-57.344 36.192t-45.056 6.144q-116.064 8.192-232.096 10.24t-125.6 2.048h-9.568q-38.24 0-143.36-2.048t-204.8-8.864q-16.384 0-45.056-6.816t-58.72-35.488q-23.2-27.296-32.096-62.816t-8.864-38.24l-4.096-51.872q-5.472-49.152-5.472-113.312v-80.544zM400.032 315.552v286.72l277.152-143.36z" />
<glyph unicode="&#xe965;" glyph-name="time" d="M-1.376 448q5.472-217.088 150.176-361.824t361.824-150.176q218.464 5.472 362.496 150.176t149.504 361.824q-5.472 217.088-149.504 361.824t-362.496 150.176q-217.088-5.472-361.824-150.176t-150.176-361.824zM137.888 448q4.096 163.84 111.968 271.712t271.712 111.968q163.84-4.096 271.712-111.968t111.968-271.712q-4.096-163.84-111.968-271.712t-271.712-111.968q-163.84 4.096-271.712 111.968t-111.968 271.712zM423.264 448q1.376 40.96 31.392 66.912l1.376 215.712q0 8.192 5.472 14.336t15.008 6.144h72.352q8.192 0 14.336-6.144t6.144-14.336v-210.272q0-5.472 1.376-9.568 4.096-4.096 8.864-7.52t10.24-3.424l222.56-1.376q8.192 0 14.336-5.472t6.144-15.008v-71.008q0-9.568-6.144-15.008t-14.336-5.472h-238.944q-24.576-24.576-62.112-24.576t-62.112 24.576-25.952 61.44z" />
<glyph unicode="&#xe966;" glyph-name="tick" d="M-1.376 393.376q0 16.384 12.288 28.672l102.4 102.4q12.288 12.288 28.672 12.288t28.672-12.288l166.56-165.216q12.288-12.288 28.672-12.288t28.672 12.288l456.032 456.032q12.288 12.288 28.672 12.288t28.672-10.912l102.4-102.4q12.288-12.288 12.288-28.672t-12.288-28.672l-552.96-554.336q-12.288-12.288-32.096-20.48t-37.536-8.192h-47.776q-17.76 0-37.536 8.192t-32.096 20.48l-259.424 262.144q-12.288 12.288-12.288 28.672z" />
<glyph unicode="&#xe967;" glyph-name="target" d="M0 446.624q5.472-217.088 149.504-361.824t362.496-150.176q217.088 5.472 361.824 150.176t150.176 361.824q-5.472 217.088-150.176 361.824t-361.824 150.176q-218.464-5.472-362.496-150.176t-149.504-361.824zM137.888 446.624q4.096 163.84 112.64 271.712t271.008 111.968q163.84-4.096 272.384-111.968t112.64-271.712q-4.096-163.84-112.64-271.712t-272.384-111.968q-162.464 4.096-271.008 111.968t-112.64 271.712zM357.728 446.624q1.376 65.536 45.056 108.544t109.216 45.728q64.16-2.72 107.872-45.728t45.056-108.544q-1.376-65.536-45.056-108.544t-107.872-44.384q-65.536 1.376-109.216 44.384t-45.056 108.544z" />
<glyph unicode="&#xe968;" glyph-name="up" horiz-adv-x="1725" d="M1724.632 86.905c0 37.726-16.168 75.453-43.116 97.011l-722.189 732.968c-53.895 59.284-145.516 53.895-194.021 0l-722.189-732.968c-53.895-53.895-53.895-145.516 0-204.8v0c53.895-59.284 145.516-53.895 194.021 0l625.179 630.568 619.789-625.179c53.895-59.284 145.516-53.895 194.021 0 32.337 26.947 48.505 64.674 48.505 102.4v0z" />
<glyph unicode="&#xe969;" glyph-name="down" horiz-adv-x="1725" d="M1724.632 809.095c0 37.726-16.168 75.453-43.116 107.789-53.895 53.895-145.516 59.284-194.021 0v0l-625.179-625.179-619.789 625.179c-53.895 53.895-145.516 59.284-194.021 0v0c-53.895-59.284-53.895-150.905 0-204.8l716.8-732.968c53.895-53.895 145.516-59.284 194.021 0v0l722.189 732.968c26.947 21.558 43.116 59.284 43.116 97.011v0z" />
<glyph unicode="&#xe96a;" glyph-name="video-contract" horiz-adv-x="1632" d="M892.8-64v428.8h54.4v-428.8zM899.2 364.8h720v-54.4h-720v54.4zM892.8 528v428.8h54.4v-428.8zM899.2 528v54.4h716.8v-54.4zM675.2 364.8h54.4v-432h-54.4v432zM3.2 364.8h720v-54.4h-720v54.4zM672 960h54.4v-432h-54.4v432zM3.2 582.4h720v-54.4h-720v54.4z" />
<glyph unicode="&#xe96b;" glyph-name="TUI_tour" horiz-adv-x="1056" d="M1007.328 619.776c-46.688-86.72-110.080-163.424-120.064-176.768-13.344-16.672-33.344-23.36-53.376-23.36 0 0 0 0 0 0-20 0-40.032 10.016-53.376 23.36s-76.704 93.408-123.424 180.128h-436.96c53.376-30.016 86.72-86.72 86.72-150.112 0-90.048-120.064-240.16-133.408-256.832-10.016-16.672-26.688-23.36-40.032-23.36 0 0 0 0 0 0-16.672 0-30.016 6.656-40.032 16.672-3.328 6.656-20 23.36-36.704 46.688v-253.504c0-36.704 30.016-70.048 70.048-70.048h867.232c36.704 0 70.048 30.016 70.048 70.048v550.368c-3.328 33.344-26.688 60.032-56.704 66.72zM166.784 76.096c-3.328 0-6.656 0-13.344 0s-13.344 0-20 0-26.688 3.328-40.032 3.328c-13.344 3.328-20 13.344-20 26.688 3.328 13.344 13.344 20 26.688 20 13.344-3.328 23.36-3.328 33.344-3.328s20 0 30.016 0c13.344 0 23.36-10.016 23.36-23.36 3.328-10.016-6.656-23.36-20-23.36zM356.896 119.456c-23.36-10.016-46.688-20-70.048-26.688-3.328 0-3.328 0-6.656 0-10.016 0-20 6.656-23.36 16.672-3.328 13.344 3.328 26.688 16.672 30.016 20 6.656 40.032 13.344 60.032 23.36 10.016 6.656 26.688 0 30.016-10.016 10.016-13.344 3.328-26.688-6.656-33.344zM516.992 219.52c-13.344-6.656-23.36-16.672-36.704-23.36l-23.36-13.344c-3.328-3.328-10.016-3.328-13.344-3.328-6.656 0-16.672 3.328-20 10.016-6.656 10.016-3.328 26.688 6.656 33.344l23.36 13.344c10.016 6.656 23.36 16.672 36.704 23.36 10.016 6.656 26.688 3.328 33.344-6.656 6.656-13.344 3.328-26.688-6.656-33.344zM673.76 302.912c-20-6.656-40.032-16.672-60.032-26.688-3.328-3.328-6.656-3.328-10.016-3.328-10.016 0-16.672 3.328-20 13.344-6.656 10.016 0 26.688 10.016 30.016 23.36 13.344 43.36 20 66.72 30.016 13.344 3.328 26.688-3.328 30.016-13.344s-3.328-23.36-16.672-30.016zM870.56 329.6c-3.328-10.016-13.344-16.672-23.36-16.672-3.328 0-3.328 0-6.656 0-23.36 6.656-43.36 6.656-63.36 10.016-13.344 0-23.36 10.016-23.36 23.36s13.344 23.36 23.36 23.36c23.36 0 50.048-3.328 73.376-10.016 16.672-3.328 23.36-16.672 20-30.016zM1037.344 246.208c-3.328-6.656-13.344-10.016-20-10.016-3.328 0-10.016 0-13.344 3.328-20 13.344-40.032 23.36-56.704 33.344-10.016 6.656-16.672 20-10.016 30.016s20 16.672 30.016 10.016c20-10.016 40.032-23.36 60.032-36.704 13.344-3.328 16.672-20 10.016-30.016zM133.408 593.088c-73.376 0-133.408-56.704-133.408-130.080s113.408-213.472 113.408-213.472c10.016-10.016 26.688-10.016 36.704 0 0 0 113.408 140.096 113.408 213.472s-60.032 130.080-130.080 130.080zM133.408 443.008c-23.36 0-43.36 20-43.36 43.36s20 43.36 43.36 43.36c23.36 0 43.36-20 43.36-43.36 0-26.688-20-43.36-43.36-43.36zM833.888 960c-103.392 0-186.784-83.392-186.784-186.784s160.096-300.192 160.096-300.192c13.344-16.672 36.704-16.672 50.048 0 0 0 160.096 196.8 160.096 300.192s-83.392 186.784-183.456 186.784zM833.888 743.2c-33.344 0-63.36 26.688-63.36 63.36 0 33.344 26.688 63.36 63.36 63.36 33.344 0 63.36-26.688 63.36-63.36-3.328-36.704-30.016-63.36-63.36-63.36z" />
<glyph unicode="&#xe96c;" glyph-name="TUI_Car" d="M1023.309 460.8c-4.57 46.157-33.728 84.992-74.15 103.514l-105.549 235.123c-24.422 55.053-88.243 96.563-148.442 96.563h-369.933c-60.211 0-124.032-41.51-148.454-96.563l-106.56-237.312c-38.042-19.277-70.221-56.909-70.221-101.325v-268.8h0.013c0.179-35.187 25.587-63.667 63.987-63.667v-0.333h38.4v-38.4h0.294c3.302-50.022 44.813-89.6 95.68-89.6 50.842 0 92.365 39.578 95.68 89.6h0.346v38.4h435.2v-38.4h0.282c3.302-50.022 44.826-89.6 95.68-89.6 50.829 0 92.378 39.578 95.68 89.6h0.358v38.4h38.4v0.333c25.6 0 63.731 28.48 63.936 63.667h0.064v268.8h-0.691zM293.798 747.546c3.968 8.986 21.606 20.454 31.437 20.454h369.933c9.818 0 27.456-11.469 31.424-20.454l77.018-171.546h-586.842l77.030 171.546zM255.974 320h-64c-35.354 0-64 28.646-64 64.013s28.646 63.987 64 63.987h64c35.354 0 64-28.621 64-63.987s-28.659-64.013-64-64.013zM831.962 320h-64c-35.354 0-64 28.646-64 64.013s28.646 63.987 64 63.987h64c35.354 0 64-28.621 64-63.987s-28.646-64.013-64-64.013z" />
<glyph unicode="&#xe96d;" glyph-name="TUI_PlaneOutbound2" d="M1005.762 935.852l-5.618 5.618c-24.72 24.72-65.149 24.72-89.868 0l-199.665-199.665-198.026 36.031c-7.371 1.856-15.048 3.559-23.042 5.046l-299.6 55.642c-124.197 23.068-139.931-18.594-36.463-91.076l133.208-93.669-0.241-0.241 198.204-137.694-242.471-242.484-22.941 4.181c-3.775 0.953-7.727 1.856-11.82 2.618l-153.149 28.444c-63.484 11.794-72.774-8.261-19.89-45.309l182.203-111.004 110.801-181.999c37.048-52.884 56.887-43.39 45.093 20.094l-28.431 153.162c-0.763 4.092-1.462 7.842-2.415 11.616l-4.080 22.61 242.585 242.585 137.694-198.191 0.241 0.241 93.44-132.966c72.469-103.468 113.902-87.517 90.847 36.692l-55.655 299.587c-1.487 8.007-2.949 15.429-4.804 22.813l-35.803 197.772 199.665 199.665c24.707 24.72 24.707 65.161 0 89.881z" />
<glyph unicode="&#xe96e;" glyph-name="TUI_Hotel2" d="M960 844.8h-56.589c-17.574 19.597-43.008 32-71.411 32s-53.824-12.403-71.398-32h-497.19c-17.574 19.597-43.008 32-71.411 32s-53.824-12.403-71.398-32h-56.602c-35.341 0-64-28.659-64-64s28.659-64 64-64h56.589c17.574-19.597 43.021-32 71.411-32s53.837 12.403 71.411 32h497.165c17.587-19.597 43.034-32 71.424-32s53.837 12.403 71.411 32h56.589c35.341 0 64 28.659 64 64s-28.659 64-64 64zM411.763 391.501c-3.622 4.941-8 8.589-13.158 10.97s-10.957 3.571-17.382 3.571c-6.618 0-12.518-1.19-17.715-3.571s-9.613-6.042-13.222-10.97c-3.61-4.941-6.374-11.2-8.269-18.778s-2.842-16.525-2.842-26.842c0-10.317 0.947-19.238 2.842-26.778s4.646-13.734 8.269-18.573c3.61-4.851 8.026-8.435 13.222-10.778 5.197-2.33 11.11-3.507 17.715-3.507 9.869 0 18.048 2.662 24.525 8s10.957 12.698 13.427 22.080c2.47 9.382 3.699 19.238 3.699 29.555s-0.947 19.264-2.842 26.842c-1.894 7.578-4.646 13.837-8.269 18.778zM960 664.755h-896c-35.341 0-64-28.659-64-64v-512c0-35.341 28.659-64 64-64h896c35.341 0 64 28.659 64 64v512c0 35.341-28.659 64-64 64zM267.507 265.216c0-2.202-0.218-3.853-0.666-4.954s-1.19-2.099-2.253-2.97c-2.65-1.933-8.333-2.906-17.062-2.906-4.672 0-8.435 0.243-11.302 0.73s-4.915 1.216-6.144 2.176c-1.946 1.587-2.906 4.237-2.906 7.936v70.349h-64.128v-70.349c0-2.202-0.243-3.853-0.73-4.954s-1.254-2.099-2.317-2.97c-2.47-1.933-8.154-2.906-17.062-2.906-9.075 0-14.848 0.973-17.318 2.906-2.022 1.677-3.046 4.314-3.046 7.936v161.818c0 2.202 0.243 3.878 0.73 5.030 0.486 1.139 1.254 2.112 2.317 2.906 2.47 1.933 8.243 2.906 17.318 2.906 8.896 0 14.592-0.973 17.062-2.906 1.062-0.794 1.83-1.766 2.317-2.906 0.486-1.152 0.73-2.816 0.73-5.030v-57.92h64.128v57.92c0 2.202 0.218 3.878 0.666 5.030 0.435 1.139 1.19 2.112 2.253 2.906 1.229 0.973 3.277 1.69 6.144 2.176s6.63 0.73 11.302 0.73c8.73 0 14.413-0.973 17.062-2.906 1.933-1.498 2.906-4.147 2.906-7.936v-161.843zM459.098 306.611c-3.878-11.635-9.459-21.53-16.73-29.683s-16.064-14.413-26.381-18.778c-10.317-4.365-21.901-6.541-34.778-6.541-12.954 0-24.614 2.176-34.97 6.541s-19.174 10.624-26.445 18.778-12.851 18.048-16.73 29.683c-3.878 11.635-5.824 24.73-5.824 39.27s1.933 27.661 5.824 39.334c3.878 11.674 9.434 21.645 16.666 29.888s16.038 14.566 26.445 18.97c10.406 4.403 22.080 6.618 35.034 6.618s24.589-2.202 34.906-6.618c10.317-4.403 19.085-10.739 26.317-18.97 7.232-8.243 12.774-18.202 16.666-29.888 3.878-11.686 5.824-24.794 5.824-39.334 0-14.554-1.946-27.635-5.824-39.27zM615.987 417.805c-0.666-4.237-1.613-7.539-2.842-9.92-1.062-1.946-2.509-3.2-4.365-3.763-1.856-0.576-4.275-0.858-7.27-0.858h-40.333v-138.048c0-2.202-0.218-3.853-0.666-4.954s-1.19-2.099-2.253-2.97c-2.65-1.933-8.333-2.906-17.062-2.906-9.075 0-14.861 0.973-17.318 2.906-2.035 1.498-3.046 4.147-3.046 7.936v138.035h-44.954c-3.968 0-6.656 0.435-8.064 1.318-1.152 0.704-1.894 1.613-2.253 2.714s-0.525 2.752-0.525 4.954c0 3.878 0.333 7.629 0.986 11.238 0.666 3.61 1.613 6.528 2.842 8.73 1.062 1.933 2.509 3.2 4.365 3.763 1.856 0.576 4.275 0.858 7.27 0.858h125.606c2.291 0 4.058-0.115 5.286-0.333s2.202-0.55 2.906-0.986c1.062-0.704 1.766-1.613 2.112-2.714s0.525-2.714 0.525-4.826c0.038-2.547-0.282-5.939-0.947-10.176zM759.974 269.786c-0.666-4.365-1.562-7.603-2.714-9.715-1.152-1.946-2.624-3.2-4.429-3.763-1.805-0.576-4.211-0.858-7.206-0.858h-89.651c-4.493 0-7.936 0.269-10.317 0.794s-4.186 1.28-5.427 2.253c-0.973 0.794-1.766 1.894-2.381 3.302s-0.922 3.264-0.922 5.555v157.594c0 2.291 0.307 4.147 0.922 5.555s1.408 2.56 2.381 3.443c1.229 0.973 3.046 1.69 5.427 2.176s5.824 0.73 10.317 0.73h92.826c2.291 0 4.058-0.115 5.286-0.333s2.202-0.55 2.906-0.986c1.062-0.704 1.766-1.613 2.112-2.714s0.525-2.714 0.525-4.826c0-2.56-0.333-5.952-0.986-10.176s-1.613-7.539-2.842-9.92c-1.062-1.946-2.509-3.2-4.365-3.763-1.856-0.576-4.275-0.858-7.27-0.858h-66.778v-35.699h59.507c2.291 0 4.058-0.115 5.286-0.333s2.202-0.55 2.906-0.986c1.062-0.704 1.766-1.613 2.112-2.714s0.525-2.752 0.525-4.954c0-2.47-0.333-5.824-0.986-10.048-0.666-4.237-1.613-7.539-2.842-9.92-1.062-1.946-2.509-3.2-4.365-3.763-1.856-0.576-4.275-0.858-7.27-0.858h-54.874v-44.954h72.73c2.291 0 4.058-0.115 5.286-0.333s2.202-0.55 2.906-0.986c1.062-0.704 1.766-1.613 2.112-2.714s0.525-2.752 0.525-4.954c0.026-2.496-0.307-5.914-0.973-10.278zM902.246 270.246c-0.666-4.403-1.613-7.795-2.842-10.176-1.062-1.946-2.509-3.2-4.365-3.763-1.856-0.576-4.275-0.858-7.27-0.858h-86.349c-4.493 0-7.936 0.269-10.317 0.794s-4.186 1.28-5.427 2.253c-0.973 0.794-1.766 1.894-2.381 3.302s-0.922 3.264-0.922 5.555v159.706c0 2.202 0.243 3.878 0.73 5.030 0.486 1.139 1.254 2.112 2.317 2.906 2.47 1.933 8.243 2.906 17.318 2.906 8.909 0 14.592-0.973 17.062-2.906 1.062-0.794 1.83-1.766 2.317-2.906 0.486-1.152 0.73-2.816 0.73-5.030v-137.779h69.555c2.291 0 4.032-0.115 5.222-0.333s2.138-0.55 2.842-0.986c1.139-0.704 1.894-1.613 2.253-2.714 0.346-1.101 0.525-2.752 0.525-4.954 0-2.291-0.333-5.645-0.998-10.048z" />
<glyph unicode="&#xe96f;" glyph-name="TUI_Plus2" d="M938.667 533.333h-341.333v341.333c0 46.933-38.4 85.333-85.333 85.333s-85.333-38.4-85.333-85.333v-341.333h-341.333c-46.933 0-85.333-38.4-85.333-85.333s38.4-85.333 85.333-85.333h341.333v-341.333c0-46.933 38.4-85.333 85.333-85.333s85.333 38.4 85.333 85.333v341.333h341.333c46.933 0 85.333 38.4 85.333 85.333s-38.4 85.333-85.333 85.333z" />
<glyph unicode="&#xe970;" glyph-name="TUI_Room2" d="M1024 224v-192c0-35.354-28.659-64-63.987-64-35.354 0-64.013 28.646-64.013 64v128h-768v-128c0-35.354-28.634-64-64-64-35.354 0-64 28.646-64 64v192h0.256c-0.038 0-0.256 0.371-0.256 1.229 0 35.341 28.646 62.771 64 62.771h896.013c35.328 0 63.987-28.646 63.987-64zM256 720c0 35.354 23.744 54.4 59.098 54.4h384c35.366 0 68.902-19.046 68.902-54.4v-48h128v192c0 35.354-28.646 64-64 64h-640c-35.354 0-64-28.646-64-64v-192h128v48zM827.098 608h-640c-106.035 0-187.098-73.165-187.098-179.213v-76.787h1024v76.787c0 106.048-90.867 179.213-196.902 179.213z" />
<glyph unicode="&#xe971;" glyph-name="TUI_CB_pin" d="M867.2 604.8c0 195.2-156.8 355.2-352 355.2s-355.2-160-355.2-355.2c0-54.4 12.8-108.8 35.2-156.8v0l3.2-3.2c9.6-22.4 320-508.8 320-508.8s304 492.8 313.6 515.2l3.2 3.2c22.4 44.8 32 96 32 150.4zM515.2 480c-83.2 0-147.2 67.2-147.2 147.2s67.2 147.2 147.2 147.2c83.2 0 147.2-67.2 147.2-147.2s-64-147.2-147.2-147.2z" />
</font>
</defs>
</svg>
