<?xml version="1.0" standalone="no"?>
<!DOCTYPE svg PUBLIC "-//W3C//DTD SVG 1.1//EN" "http://www.w3.org/Graphics/SVG/1.1/DTD/svg11.dtd" >
<svg xmlns="http://www.w3.org/2000/svg" xmlns:xlink="http://www.w3.org/1999/xlink" version="1.1">
<metadata></metadata>
<defs>
<font id="tui-iconsregular" horiz-adv-x="2048" >
<font-face units-per-em="2048" ascent="2048" descent="0" />
<missing-glyph horiz-adv-x="500" />
<glyph horiz-adv-x="0" />
<glyph horiz-adv-x="682" />
<glyph unicode="!" d="M254 736h270v124h-270v-124zM324 476l62 -108l244 140l-62 110zM324 1118l242 -140l64 108l-244 142zM574 1416l142 -244l108 64l-140 242zM576 180l108 -64l140 244l-108 62zM650 800q4 -152 104 -252t252 -104q150 4 251 104t105 252q-4 150 -105 251t-251 105 q-152 -4 -252 -105t-104 -251zM942 48h124v270h-124v-270zM942 1256h124v292h-124v-292zM1184 360l140 -242l110 62l-142 244zM1184 1234l110 -62l140 244l-108 62zM1378 510l244 -142l62 110l-242 140zM1380 1086l62 -108l244 140l-64 108zM1462 736h292v124h-292v-124z " />
<glyph unicode="&#x22;" d="M252 680q6 -180 123 -305t289 -129h676q172 4 290 129t122 305q-2 138 -79 244t-203 150q-48 160 -177 258t-301 100q-172 -2 -302 -102t-176 -264q-118 -48 -189 -152t-73 -234zM400 680q0 92 54 162t142 96l28 8q92 -2 127 -38t35 -40q2 8 -18 79t-106 101 q38 108 126 172t204 66q130 -2 224 -81t120 -205l4 -20q10 -104 -20 -157t-34 -53q4 -2 63 25t107 111l6 12q66 -34 104 -97t40 -141q-4 -118 -80 -202t-186 -86h-676q-108 2 -185 86t-79 202z" />
<glyph unicode="#" d="M254 674q4 -182 122 -303t290 -125h676q172 4 290 125t122 303q-2 132 -76 234t-196 146q38 24 60 62t24 84q-2 74 -50 121t-120 49q-68 0 -116 -44q-60 44 -133 68t-153 24q-172 -4 -302 -104t-176 -264q-120 -48 -190 -147t-72 -229zM400 672q2 92 55 161t143 93l28 6 q92 -2 127 -38t33 -40q4 8 -17 79t-105 101q36 106 125 171t205 67q130 -4 224 -82t120 -204l4 -20q10 -104 -20 -157t-36 -53q6 -2 65 25t107 111l6 12q64 -34 103 -94t41 -138q-4 -118 -80 -198t-186 -82h-676q-110 2 -186 82t-80 198zM1234 1444l2 -22v-24q6 -8 18 -12 t22 -4h12l8 4l8 10q6 8 10 20t0 20q-8 8 -18 16l-18 14l-16 14l-18 10l-8 -4l-2 -20v-22zM1434 1452q-2 -10 4 -21t14 -19l10 -8l8 -2l12 2q10 2 21 8t15 16q0 10 -2 23t-4 23l-4 22l-4 20l-10 2l-14 -14l-16 -16l-14 -18q-10 -10 -16 -18zM1574 1070q0 -12 3 -23t11 -17 q12 -2 24 -3t24 -1l20 -2l22 2l4 6l-10 20l-12 16l-16 18q-6 12 -14 20q-4 2 -10 2t-12 -2q-12 -4 -20 -10l-10 -8l-4 -6v-12zM1602 1268l2 -8l8 -10q8 -8 18 -14t20 -4q10 6 19 14t19 14l16 14l14 16l-2 8l-20 6l-22 4q-10 2 -22 4l-22 4h-2q-10 -4 -16 -15t-8 -21z" />
<glyph unicode="$" d="M254 680q4 -182 122 -306t290 -130h108v146h-108q-110 4 -186 88t-80 202q2 92 55 162t143 96l28 8q92 -2 127 -38t33 -40q4 8 -17 79t-105 101q36 106 125 171t205 67q130 -2 224 -81t120 -205l4 -20q10 -104 -20 -157t-36 -53q6 -2 65 25t107 111l6 12q64 -34 103 -98 t41 -140q-4 -118 -80 -202t-186 -88h-108v-146h108q172 6 290 130t122 306q-2 136 -79 243t-203 151q-48 160 -177 258t-301 100q-172 -2 -302 -102t-176 -264q-120 -48 -190 -152t-72 -234zM816 160q2 -44 30 -72t71 -28t71 28t30 72q0 16 -5 32t-15 28l-80 106l-82 -106 q-8 -12 -14 -28t-6 -32zM966 408q2 -44 31 -73t72 -29t72 29t29 73q0 18 -5 33t-15 27l-82 110l-82 -108v-2q-8 -12 -14 -27t-6 -33z" />
<glyph unicode="%" d="M252 674q6 -180 123 -301t289 -125h104v144h-104q-108 4 -185 84t-79 198q0 92 54 160t142 94l28 6q92 -2 127 -38t35 -42q2 10 -18 80t-106 102q38 106 126 170t206 66q128 -2 222 -80t120 -204l4 -20q10 -106 -20 -158t-34 -52q4 -4 63 23t107 111l6 12q66 -34 104 -94 t40 -136q-4 -118 -80 -198t-186 -84h-92v-144h92q172 4 290 125t122 301q-2 134 -76 235t-196 147q38 22 61 61t23 85q-2 72 -50 120t-120 50q-68 -2 -114 -44q-62 44 -135 67t-151 23q-174 -2 -304 -102t-176 -264q-118 -48 -189 -148t-73 -230zM810 160q2 -42 30 -71 t72 -29t73 29t29 71q0 18 -5 34t-15 28l-82 110l-82 -110q-8 -12 -14 -28t-6 -34zM960 410q0 -44 29 -73t73 -29t73 29t29 73q0 18 -5 33t-15 29l-82 108l-82 -108q-10 -14 -15 -29t-5 -33zM1234 1422q0 -12 3 -22t15 -13t24 -3h12l6 4l8 10q6 8 11 19t1 21q-8 8 -18 14 l-18 16l-18 12l-18 12l-6 -4l-2 -20v-22v-24zM1432 1454q-2 -12 5 -22t13 -18l10 -8l8 -2l12 2q10 2 21 8t15 16q0 10 -4 24l-2 22l-4 22l-4 20l-8 2q-2 0 -16 -14l-14 -16q-8 -8 -16 -18t-16 -18zM1572 1072q0 -12 3 -24t11 -18q12 -2 24 -2t24 -2h22h20l4 8l-10 18l-12 18 q-8 10 -15 19t-15 19q-4 2 -10 2q-6 -2 -12 -2q-12 -4 -20 -10l-10 -8l-4 -8v-10zM1602 1270l2 -8q0 -2 7 -10t18 -15t21 -5q8 6 18 16l18 14l16 14l16 16l-2 8l-22 6l-20 4l-22 2l-22 4h-2q-10 -2 -16 -13t-8 -21z" />
<glyph unicode="&#x26;" d="M252 800q4 -234 126 -416t324 -272q-2 40 1 84t11 88l96 408q-2 2 -12 34t-10 86q0 84 41 138t103 56q52 -2 76 -34t24 -78q-2 -54 -25 -124t-43 -142q-12 -62 23 -102t97 -42q108 4 172 118t66 280q0 128 -80 207t-232 83q-172 -6 -270 -109t-98 -251q0 -96 50 -146 q10 -12 12 -20t-2 -22l-8 -30q-4 -18 -7 -31t-14 -18t-23 -1q-78 34 -116 111t-36 175q0 170 134 315t400 153q218 -6 345 -132t129 -300q-2 -226 -111 -368t-295 -146q-62 2 -112 29t-72 65l-52 -206q-12 -44 -32 -85t-42 -77q100 -30 212 -30q318 8 530 219t220 531 q-8 320 -220 532t-530 220q-318 -8 -530 -220t-220 -530z" />
<glyph unicode="(" d="M252 798q8 -318 220 -530t530 -220q318 8 530 220t220 530q-8 318 -220 530t-530 220q-318 -8 -530 -220t-220 -530zM422 798q6 246 170 410t410 172q248 -8 412 -172t170 -410q-6 -246 -170 -410t-412 -170q-246 6 -410 170t-170 410zM796 500q0 -26 22 -38q8 -4 20 -4 t22 8l430 294q16 14 16 35t-16 35l-430 294q-10 8 -24 8q-10 0 -18 -4q-22 -12 -22 -38v-590z" />
<glyph unicode=")" d="M254 798q8 -318 220 -530t530 -220q318 8 530 220t220 530q-8 318 -220 530t-530 220q-318 -8 -530 -220t-220 -530zM422 798q6 246 171 410t411 172q246 -8 410 -172t170 -410q-6 -246 -170 -410t-410 -170q-246 6 -411 170t-171 410zM776 608q0 -18 12 -30t30 -12h376 q16 0 28 12t14 30v376q-2 18 -14 30t-28 12h-376q-18 0 -30 -12t-12 -30v-376z" />
<glyph unicode="*" d="M438 110q0 -26 18 -44t44 -18h1000q26 0 44 18t20 44v1042h-334q-24 0 -43 18t-19 44v334h-668q-26 0 -44 -18t-18 -44v-1376zM626 278v146h542v-146h-542zM626 548v146h750v-146h-750zM626 818v146h750v-146h-750zM1230 1256q0 -18 12 -29t30 -13h292l-334 334v-292z " />
<glyph unicode="+" d="M622 796q4 -160 111 -267t267 -111q160 4 267 111t111 267q-4 160 -111 267t-267 111q-160 -4 -267 -111t-111 -267z" />
<glyph unicode="," d="M254 110q0 -26 18 -44t44 -18h208q28 0 45 18t19 44v104h-334v-104zM254 318h334v104h-334v-104zM254 526v730h334v-730h-334zM254 1360h334v124q-2 28 -19 45t-45 19h-208q-26 -2 -44 -19t-18 -45v-124zM650 110q0 -26 18 -44t44 -18h208q26 0 44 18t18 44v104h-332 v-104zM650 318h332v104h-332v-104zM650 526h332v730h-332v-730zM650 1360h332v124q0 28 -18 45t-44 19h-208q-26 -2 -44 -19t-18 -45v-124zM1006 1374l40 -116l312 104l-40 118q-8 24 -30 35t-48 3l-194 -66q-24 -8 -35 -30t-5 -48zM1078 1160l230 -680l312 104l-230 682z M1342 382l32 -98l312 106l-34 96zM1406 188l34 -98q8 -24 30 -35t48 -3l194 64q24 10 35 32t3 46l-32 98z" />
<glyph unicode="-" d="M292 48l386 132q154 -90 340 -92q296 8 494 214t206 516q-8 308 -206 515t-496 215q-296 -8 -494 -214t-206 -516q2 -106 28 -201t74 -177zM490 818q6 236 155 392t373 162q224 -6 373 -163t155 -391q-6 -236 -155 -392t-373 -162q-164 2 -292 92l-204 -68l68 206 q-48 68 -74 150t-26 174zM674 978q4 -68 33 -121t39 -65q8 -18 85 -111t207 -159q100 -42 143 -47t63 1q36 8 70 32t46 56t14 55t-4 30t-36 21l-58 30q-42 22 -58 28q-22 12 -42 -12q-26 -40 -46 -64q-18 -16 -42 -6q-14 4 -51 24t-85 64q-40 38 -64 74t-32 50t-4 23t10 15 l36 42q4 6 8 16q6 18 -2 32l-52 134q-8 20 -17 26t-21 4h-18q-36 0 -60 -22q-16 -14 -38 -50t-24 -100z" />
<glyph unicode="." d="M254 500q2 -110 75 -185t183 -81l864 -2q98 4 162 68t66 160q0 56 -24 103t-66 79l-2 12h2q20 12 24 36t-8 46l-18 30q36 30 62 68l34 -20q22 -12 46 -8t35 24t3 42t-30 36l-38 22q14 40 18 84h48q26 2 44 17t18 38t-18 39t-44 16h-54q-8 40 -26 76l52 30q22 14 30 36 t-3 42t-35 25t-46 -9l-56 -32q-26 28 -56 52l34 58q12 24 8 47t-24 34t-43 4t-35 -31l-36 -60q-34 12 -70 18v70q-2 28 -17 46t-38 18t-39 -18t-16 -46v-70q-36 -6 -70 -18l-36 60q-14 24 -36 31t-42 -4t-25 -34t9 -47l34 -58q-32 -24 -56 -52l-56 32q-24 14 -47 9t-34 -25 t-4 -42t31 -36l50 -30q-16 -36 -24 -76h-54q-28 0 -46 -16t-18 -41t24 -41q-68 -8 -128 -42t-102 -86q-22 4 -44 4q-88 -2 -147 -61t-61 -147q-40 -38 -62 -88t-22 -106zM422 500q2 54 48 84q26 16 36 43t2 55q-2 6 -2 12q0 16 11 28t28 11t25 -7q32 -24 71 -15t57 45 q22 46 63 74t93 30l10 2q58 -2 104 -32q40 -28 64 -72q16 -34 51 -44t66 8t67 17t66 -18t48 -47t18 -68v-6q-2 -28 12 -51t40 -33q34 -16 36 -56q0 -24 -17 -41t-43 -17h-858q-40 2 -68 29t-28 69z" />
<glyph unicode="/" d="M266 1488q-6 26 6 43t38 17h242q26 0 49 -17t33 -43l104 -314h564q26 -2 44 -20t18 -44v-124q0 -26 -18 -44t-44 -18h-480l42 -126h812q26 0 44 -18t18 -44v-250q0 -26 -18 -44t-44 -18h-146l-214 -324q-16 -22 -44 -37t-54 -15h-166q-26 0 -34 15t6 37l214 324h-270 l-216 -324q-14 -22 -42 -37t-54 -15h-168q-26 0 -33 15t7 37l214 324q-26 0 -49 17t-33 41z" />
<glyph unicode="0" d="M256 415q-10 -17 2 -41l136 -268q12 -24 39 -41t55 -17h962q28 0 56 15t44 39l192 276q16 24 8 39t-36 15h-1420q-28 0 -38 -17zM273 646q9 -16 35 -16h438q28 0 46 18t18 46v826q-2 54 -32 10l-500 -846q-14 -22 -5 -38zM1004 694v826q0 26 12 30t28 -16l688 -854 q18 -22 11 -36t-35 -14h-640q-26 0 -44 18t-20 46z" />
<glyph unicode="1" d="M248 1138q8 -106 41 -209t145 -197q114 -90 222 -101t212 5q-6 106 -39 209t-145 197q-116 88 -223 99t-213 -3zM297 165q-1 -23 21 -43l60 -50q22 -18 50 -16t48 22l386 400q20 20 23 42t-13 36q-16 12 -41 10t-47 -18l-464 -344q-22 -16 -23 -39zM882 945 q-30 113 18 263q52 148 144 221t196 119q54 -100 84 -212t-16 -264q-54 -148 -145 -220t-195 -120q-56 100 -86 213zM958 397q6 -81 70 -174t138 -127t150 -48q12 76 6 157t-70 174t-138 127t-148 48q-14 -76 -8 -157zM1046 634q74 -56 163 -95t219 -23q132 22 205 85 t127 139q-74 56 -162 95t-220 21q-130 -22 -203 -84t-129 -138z" />
<glyph unicode="2" d="M252 110v1000l542 438h522q26 0 43 -18t19 -44v-312l374 -376v-688q0 -26 -18 -44t-44 -18h-124v562h-188v-562h-1062q-28 0 -45 18t-19 44zM440 236h292v374h-292v-374zM440 798h292v188h-292v-188zM898 236h292v374h-292v-374zM898 798h292v188h-292v-188zM898 1174 h292v186h-292v-186zM1378 48z" />
<glyph unicode="3" d="M336 110q2 -26 19 -44t45 -18h1208q26 0 44 18t18 44v1000q0 26 -18 44t-44 20h-230v312q0 26 -18 44t-44 18h-624q-28 0 -45 -18t-19 -44v-312h-228q-28 -2 -45 -20t-19 -44v-1000zM524 424v562h958v-188zM816 1174v186h376v-186h-376z" />
<glyph unicode="4" d="M442 986q0 -100 32 -188q28 -80 78 -148l452 -602l452 602q50 68 78 148q32 88 32 188q-6 238 -164 397t-398 165q-238 -6 -397 -165t-165 -397zM818 986q0 80 53 132t133 52t133 -52t53 -132t-53 -133t-133 -55q-80 2 -133 55t-53 133z" />
<glyph unicode="5" d="M256 796q0 70 46 116t116 46t117 -46t49 -116q-2 -70 -49 -117t-117 -47t-116 47t-46 117zM840 796q0 -70 47 -117t117 -47t117 47t47 117t-47 116t-117 48q-70 -2 -117 -48t-47 -116zM1426 796q0 -70 47 -117t117 -47t116 47t46 117t-46 116t-116 48q-70 -2 -117 -48 t-47 -116z" />
<glyph unicode="6" d="M254 1310q6 -98 58 -176t58 -82l352 -442l352 442q8 4 59 82t59 176q-4 130 -73 184t-161 52q-94 -8 -163 -71t-73 -73q-4 10 -73 73t-163 71q-92 2 -161 -52t-71 -184zM258 318q6 -62 65 -135t125 -104t142 -31h4q76 0 142 31t125 104t65 135t-6 120q-54 -8 -107 -24 t-103 -52q-16 52 -48 90t-70 72q-38 -34 -70 -72t-48 -90q-50 36 -103 52t-107 24q-12 -58 -6 -120zM1192 110q0 -26 18 -44t44 -18h436q28 0 45 18t19 44v624q-2 28 -19 45t-45 19h-436q-26 -2 -44 -19t-18 -45v-624zM1339 941q-95 137 195 335q-12 -4 -47 -62t25 -136 q92 -96 69 -153t-111 -127q-36 6 -131 143z" />
<glyph unicode="7" d="M252 298q0 -26 18 -44t44 -18h124v-126q2 -26 19 -44t45 -18h146q26 0 43 18t19 44v126h582v-126q2 -26 19 -44t45 -18h146q26 0 44 18t18 44v126h124q28 0 45 18t19 44v1188q-2 26 -19 44t-45 18h-374h-1000q-26 0 -44 -18t-18 -44v-1188zM438 610v750h188v-124 q0 -26 18 -44t44 -18h626q26 0 44 18t18 44v124h188v-750h-1126zM482 434q0 40 26 66t66 26t66 -26t26 -66t-26 -67t-66 -27t-66 27t-26 67zM1336 434q0 40 26 66t66 26t67 -26t27 -66t-27 -67t-67 -27t-66 27t-26 67z" />
<glyph unicode="8" d="M254 642q0 -50 16 -67t68 -15h1350q26 0 44 12t16 38q0 44 7 89t-47 69q-24 10 -52 10q-46 2 -86 -40q-28 -32 -61 -65t-69 -55q-40 -22 -79 -17t-61 33q-50 70 -118 105t-148 35h-650q-94 4 -114 -17t-16 -115zM318 884h1378q-12 34 -20 65t-26 53q-34 46 -74 88t-86 74 q-112 70 -233 100t-247 28q-60 0 -118 -6q-126 -12 -240 -52t-210 -122q-54 -44 -86 -100t-38 -128zM320 450q-14 -86 13 -119t109 -31h1122q82 0 109 34t9 116h-1362z" />
<glyph unicode="9" d="M254 110v438q0 26 13 56t31 50l476 474q20 20 45 19t43 -19l474 -474q18 -20 30 -50t14 -56v-438q-2 -26 -19 -44t-45 -18h-312v374h-374v-374h-314q-26 0 -43 18t-19 44zM1192 1030q0 -14 9 -23t23 -9h156v188h186v-188h158q12 0 21 9t9 23v218q0 14 -6 29t-16 25 l-236 236q-10 10 -22 10t-22 -10l-238 -236q-10 -10 -16 -25t-6 -29v-218z" />
<glyph unicode=":" d="M252 298q2 -26 19 -44t43 -18v-126q2 -26 20 -44t44 -18h146q26 0 44 18t18 44v126h834v-126q0 -26 18 -44t44 -18h146q26 0 44 18t18 44v126q26 0 44 18t18 44v438q0 26 -18 44t-44 18h-42l-84 500q0 26 -17 44t-45 18h-1000q-26 0 -44 -18t-18 -44l-84 -500h-42 q-26 0 -43 -18t-19 -44v-438zM440 516q0 40 27 67t67 27t66 -27t26 -67t-26 -66t-66 -26t-67 26t-27 66zM564 798l64 376h750l62 -376h-126h-624h-126zM752 402v62q2 28 19 45t43 19h376q26 -2 44 -19t18 -45v-62q0 -26 -18 -44t-44 -18h-376q-26 0 -43 18t-19 44zM1378 516 q0 40 27 67t67 27t66 -27t26 -67t-26 -66t-66 -26t-67 26t-27 66z" />
<glyph unicode=";" d="M354 110v1188q0 26 18 44t44 18h396v126q2 26 19 44t43 18h250q28 0 45 -18t19 -44v-126h400q26 0 44 -18t18 -44v-1188q0 -26 -18 -44t-44 -18h-1172q-26 0 -44 18t-18 44zM542 236h920v938h-170v-126q-2 -26 -19 -44t-43 -18h-460q-26 0 -44 18t-18 44v126h-166v-938z M624 594q0 12 10 22l74 74q10 10 22 10t22 -10l120 -120q10 -10 22 -10t22 10l334 334q8 8 20 8t22 -8l74 -74q8 -10 8 -22t-8 -20l-404 -406q-10 -10 -24 -16t-28 -6h-34q-14 0 -28 6t-24 16l-190 192q-10 8 -10 20z" />
<glyph unicode="&#x3c;" d="M488 877q8 -19 28 -19h978q20 0 28 19t-4 33l-490 538q-8 10 -22 10t-24 -10l-488 -538q-14 -14 -6 -33zM830 132h352v178h-352v-178zM830 422h352v154h-352v-154zM830 680h352v178h-352v-178z" />
<glyph unicode="=" d="M316 578q6 -224 156 -374t374 -156q126 0 225 44t155 124l-84 172q-62 -76 -135 -113t-161 -37q-144 4 -240 100t-100 240q0 84 27 151t87 115l-22 210q-128 -74 -204 -201t-78 -275zM608 1326q0 -28 8 -56q20 -74 82 -122l70 -608l424 -4l210 -414l290 88l-56 186 l-134 -40l-190 374l-370 4l-12 116l248 2l-2 190l-266 -2l-12 76q36 12 66 36q42 32 64 77t22 97q-2 94 -65 157t-157 65q-94 -2 -156 -65t-64 -157z" />
<glyph unicode="&#x3e;" d="M252 788q4 -32 35 -39t47 21q8 16 12 32q40 130 76 260q6 14 23 18t33 -2l-152 -520h102v-376q-2 -18 2 -36q4 -26 22 -39t43 -11t40 17t19 39v32v374h66l2 -374q-2 -20 2 -41t20 -33t40 -14q48 0 62 44q2 10 2 24l2 16v378h98l-148 520q14 6 31 2t23 -18l76 -260 q4 -16 12 -32q16 -28 47 -21t35 39q2 16 -4 32q-46 158 -94 314q-16 52 -54 82t-92 30h-162q-56 0 -103 -30t-65 -82q-48 -156 -94 -312q-6 -16 -4 -34zM480 1385q0 -47 31 -78t78 -31t79 31t32 78t-32 79t-78 32q-48 0 -79 -32t-31 -79zM988 124h80v1358h-80v-1358z M1146 742q2 -20 15 -33t32 -13t32 12t17 34v22v302h26q2 0 10 -4t10 -20v-860q-2 -18 2 -36q4 -26 22 -39t43 -11t40 17t19 39q2 16 0 32v500q4 10 33 10t35 -10v-500q-2 -20 2 -41t20 -33t40 -14q48 0 62 44q4 20 4 40v856q0 18 10 23t10 3l26 2v-322q2 -22 15 -34t33 -12 t33 13t13 33q4 184 0 366q-4 56 -50 92t-104 38q-66 2 -148 2t-148 -2q-56 -2 -102 -38t-50 -92q-4 -182 -2 -366zM1338 1385q0 -47 31 -78t78 -31t79 31t32 78t-32 79t-78 32q-48 0 -79 -32t-31 -79z" />
<glyph unicode="@" d="M252 762q0 -94 8 -166l6 -76q0 -4 13 -57t47 -91q46 -42 92 -52t74 -12q110 -10 300 -12l208 -2q14 -2 185 1t341 15q24 2 66 11t84 51q34 40 48 92t14 56l6 76q6 72 8 166v116q-2 94 -8 166l-6 76q0 4 -14 57t-48 91q-42 44 -84 53t-66 9q-170 12 -340 15t-184 3h-14 q-56 0 -210 -3t-300 -13q-24 0 -66 -10t-86 -52q-34 -40 -47 -92t-13 -56l-6 -76q-8 -72 -8 -166v-118zM846 626v420l406 -210z" />
<glyph unicode="A" d="M436 86v258q0 26 15 55t39 47l474 316q22 16 22 36t-22 36l-474 316q-24 16 -39 44t-15 58v258q0 26 15 35t39 -7l1056 -704q22 -16 22 -36t-22 -36l-1056 -704q-24 -16 -39 -8t-15 36z" />
<glyph unicode="B" d="M228 1278q0 -28 18 -45t44 -19h1376q26 2 44 19t18 45v208q0 26 -18 44t-44 18h-1376q-26 0 -44 -18t-18 -44v-208zM473 512q-7 14 9 34l486 606q16 22 38 22t40 -22l484 -606q16 -20 9 -34t-33 -14h-334v-388q0 -26 -18 -44t-44 -18h-208q-26 0 -44 18t-18 44v388h-334 q-26 0 -33 14z" />
<glyph unicode="C" d="M268 103q32 -53 120 -55h1230q88 2 120 55q15 25 15 55q0 34 -19 76l-638 1238q-40 76 -93 76t-93 -76l-638 -1238q-19 -41 -19 -76q0 -30 15 -55zM890 312q0 48 33 80t80 32t80 -32t33 -80q0 -50 -34 -82q-34 -30 -79 -30t-79 30t-34 82zM890 1086q0 60 32 94t86 34 q40 0 60 -15t28 -33q20 -40 20 -114q0 -40 -4 -82l-26 -302q-6 -58 -22 -90q-20 -40 -65 -40t-63 40q-16 30 -20 92l-20 292q-6 86 -6 124z" />
<glyph unicode="D" d="M254 798q8 -318 220 -530t530 -220q320 8 531 220t219 530q-8 318 -219 530t-531 220q-318 -8 -530 -220t-220 -530zM912 1294q40 36 91 37h3q49 0 88 -33q40 -34 41 -94v-3q0 -58 -39 -95q-38 -34 -91 -34t-94 35q-40 34 -40 90q0 60 41 97zM902 364v476q0 58 29 88 t76 30t75 -31t28 -83v-482h-2q0 -58 -30 -89t-75 -31t-73 33t-28 89z" />
<glyph unicode="E" d="M252 304q0 -20 13 -32t33 -14h1410q18 2 31 14t13 32v854q0 20 -13 33t-31 13h-300l-44 88q-10 16 -28 27t-38 13h-578q-18 -2 -37 -13t-27 -27l-44 -88h-314q-20 0 -33 -13t-13 -33v-854zM650 742q4 150 104 250t250 104q150 -4 250 -104t102 -250q-2 -150 -102 -250 t-250 -104q-150 4 -250 104t-104 250zM798 742q2 88 60 146t146 60q86 -2 144 -60t60 -146q-2 -88 -60 -146t-144 -60q-88 2 -146 60t-60 146z" />
<glyph unicode="F" d="M252 330q0 -26 18 -44t44 -18h812q26 0 44 18t18 44v126h126q26 0 44 18t18 44v438q0 26 -18 43t-44 19h-126v124q0 26 -18 44t-44 20h-232l-42 84q-8 16 -27 27t-37 13h-302q-18 -2 -37 -13t-27 -27l-42 -84h-66q-26 -2 -44 -20t-18 -44v-812zM1502 434v604q0 26 18 44 t44 18h124q28 0 45 -18t19 -44v-604q-2 -26 -19 -44t-45 -18h-124q-26 0 -44 18t-18 44z" />
<glyph unicode="G" d="M252 110q0 -26 18 -44t44 -18h1376q26 0 44 18t18 44v1188q0 26 -18 44t-44 18h-126v-1124h-1124v1124h-126q-26 0 -44 -18t-18 -44v-1188zM544 1236v250q0 26 18 44t44 18h62q28 0 45 -18t19 -44v-250q-2 -26 -19 -44t-45 -18h-62q-26 0 -44 18t-18 44zM564 486 q2 -26 19 -44t45 -18h250q26 0 43 18t19 44v438q-2 26 -19 43t-43 19h-250q-28 -2 -45 -19t-19 -43v-438zM836 1174h332v186h-332v-186zM1064 486q2 -26 19 -44t45 -18h250q26 0 43 18t19 44v438q-2 26 -19 43t-43 19h-250q-28 -2 -45 -19t-19 -43v-438zM1272 1236 q2 -26 19 -44t45 -18h62q26 0 44 18t18 44v250q0 26 -18 44t-44 18h-62q-28 0 -45 -18t-19 -44v-250z" />
<glyph unicode="H" d="M252 798q8 -318 219 -530t531 -220q318 8 530 220t220 530q-8 318 -220 530t-530 220q-320 -8 -531 -220t-219 -530zM454 798q6 240 165 398t397 164q240 -6 399 -164t165 -398q-6 -240 -165 -398t-399 -164q-238 6 -397 164t-165 398zM776 798q2 96 66 159t160 67 q94 -4 158 -67t66 -159q-2 -96 -66 -159t-158 -65q-96 2 -160 65t-66 159z" />
<glyph unicode="I" d="M210 114q0 -28 19 -47t47 -19h264q28 0 47 19t19 47v220q0 28 -19 47t-47 19h-264q-28 0 -47 -19t-19 -47v-220zM210 688q0 -28 19 -47t47 -19h264q28 0 47 19t19 47v220q0 28 -19 47t-47 19h-264q-28 0 -47 -19t-19 -47v-220zM210 1262q0 -28 19 -47t47 -19h264 q28 0 47 19t19 47v220q0 28 -19 47t-47 19h-264q-28 0 -47 -19t-19 -47v-220zM804 114q2 -28 20 -47t46 -19h862q28 0 46 19t20 47v220q-2 28 -20 47t-46 19h-862q-28 0 -46 -19t-20 -47v-220zM804 688v220q2 28 20 47t46 19h862q28 0 46 -19t20 -47v-220q-2 -28 -20 -47 t-46 -19h-862q-28 0 -46 19t-20 47zM804 1262q2 -28 20 -47t46 -19h862q28 0 46 19t20 47v220q-2 28 -20 47t-46 19h-862q-28 0 -46 -19t-20 -47v-220z" />
<glyph unicode="J" d="M286 290q0 -28 18 -45t44 -19h108l350 -174q8 -4 16 -4t16 4q14 10 14 28v146h314q28 2 45 19t19 45v314h-168v-210h-210v818q0 20 -18 28l-278 140h506v-210h168v316q-2 26 -19 44t-45 18h-818q-26 0 -44 -18t-18 -44v-1196zM968 814q0 -20 13 -33t31 -13h312 q18 0 31 -13t13 -31v-166q0 -20 9 -23t23 9l310 310q12 14 12 32t-12 32l-308 308q-12 10 -20 10q-12 0 -12 -24v-164q0 -20 -13 -33t-33 -13h-312q-18 0 -31 -13t-13 -31v-144z" />
<glyph unicode="K" d="M254 493q-4 19 14 39l26 24q20 20 51 31t57 9l148 -12q26 -2 57 9t51 29l220 220q18 20 16 42t-26 36l-574 348q-22 14 -25 36t15 42l26 26q20 18 51 27t57 3l752 -190q26 -6 56 2t50 26l234 234q20 20 49 39t55 29q4 2 38 6h8q31 0 64 -28q29 -35 29 -67v-6 q-3 -35 -7 -37q-10 -26 -29 -56t-39 -50l-232 -232q-20 -20 -28 -50t-2 -58l190 -752q6 -26 -2 -56t-26 -50l-26 -26q-20 -20 -42 -17t-38 25l-346 576q-16 22 -38 25t-42 -15l-218 -220q-20 -20 -31 -51t-9 -59l14 -146q0 -28 -11 -59t-29 -51l-26 -24q-20 -20 -39 -16 t-29 30l-82 222q-10 26 -33 49t-49 33l-222 82q-24 10 -28 29z" />
<glyph unicode="L" d="M253 149q3 35 7 37q10 26 29 56t39 50l232 232q20 20 28 50t2 58l-190 752q-6 26 2 56t26 50l26 26q20 20 42 17t38 -25l346 -576q16 -22 38 -25t42 15l218 220q20 20 31 51t9 59l-12 146q-2 28 9 59t29 51l26 24q20 20 39 16t29 -30l82 -222q10 -26 33 -49t49 -33 l222 -82q24 -10 28 -29t-14 -39l-26 -24q-20 -20 -51 -31t-57 -9l-148 12q-26 2 -57 -9t-51 -29l-220 -220q-18 -20 -16 -42t26 -36l574 -348q22 -14 25 -36t-15 -42l-26 -26q-20 -18 -50 -27t-58 -3l-752 190q-26 6 -56 -2t-50 -26l-234 -234q-20 -20 -49 -39t-55 -29 q-4 -2 -38 -6h-8q-31 0 -64 28q-29 35 -29 67v6z" />
<glyph unicode="M" d="M255 1072q-5 12 13 30l428 428q20 18 45 18t43 -18l428 -428q18 -20 13 -32t-31 -12h-230q-26 0 -43 -18t-19 -44v-224q0 -28 -18 -45t-44 -19h-198q-28 2 -45 19t-19 45v226q0 26 -18 43t-44 19l-230 -2q-26 2 -31 14zM783 526q-5 -12 13 -32l428 -428q20 -18 45 -18 t43 18l428 428q18 18 13 30t-31 14l-230 -2q-26 2 -44 19t-18 43v226q0 28 -18 45t-44 19h-200q-26 -2 -43 -19t-19 -45v-224q0 -26 -18 -44t-44 -18h-230q-26 0 -31 -12z" />
<glyph unicode="N" d="M256 936q0 26 15 43t29 23q26 10 50 10h420q8 -2 20 8t14 18l122 436q6 20 18 40q6 10 21 21t40 11t39 -11t20 -21q14 -20 18 -40l122 -436q2 -8 14 -18t20 -8h420q18 0 37 -4t41 -28q16 -18 16 -44q0 -18 -6 -30t-14 -20q-12 -16 -28 -26l-338 -222q-4 -2 -9 -12t-5 -20 v-6l150 -436q6 -18 7 -39t-15 -49q-10 -14 -25 -21t-29 -7h-2q-24 2 -39 10t-27 18l-348 284q-6 4 -18 4t-16 -4l-332 -282q-12 -10 -27 -19t-39 -11q-14 0 -31 8t-27 22q-16 28 -15 48t7 38l132 432l2 6q0 10 -6 21t-10 13l-340 224q-14 10 -28 26q-8 8 -14 20t-6 30z" />
<glyph unicode="O" d="M254 798q8 -318 220 -530t530 -220q320 8 531 220t219 530q-8 318 -219 530t-531 220q-318 -8 -530 -220t-220 -530zM572 1104l2 28q0 14 3 27l6 26t11 23q10 20 30 26q16 4 40 4h706q18 0 28 -2t16 -6q22 -16 22 -52v-26l-4 -28l-6 -26q-4 -14 -8 -22q-12 -22 -34 -28 q-14 -4 -40 -4h-226v-798q0 -20 -4 -32t-16 -22t-34 -15t-57 -5t-58 5t-35 13l-2 2q-10 12 -14 23t-4 29v800h-254q-20 0 -30 2t-18 8q-14 8 -18 26q-2 10 -2 24z" />
<glyph unicode="P" d="M276 688q18 136 290 157q248 19 305 19h9q-2 8 -66 75t-132 163t-92 182q-7 26 -7 48q0 48 37 72q16 4 31 4q115 0 211 -197q108 -223 116 -259v6q0 46 51 264q51 219 184 219q9 0 19 -1q58 -39 58 -112q0 -75 -61 -187q-121 -221 -147 -253l324 124q119 45 195 45 q102 0 127 -81q-34 -158 -290 -186q-239 -26 -290 -26h-6q4 -4 65 -54t133 -126q84 -90 125 -181q18 -40 18 -72q0 -40 -29 -67q-17 -11 -37 -11q-29 0 -65 22q-62 37 -122 113q-78 106 -130 202t-58 102q2 -13 2 -46q0 -72 -9 -241q-13 -247 -169 -257q-64 16 -70 105 q-1 14 -1 28q0 77 28 163q33 102 64 176t31 80h-1q-9 0 -75 -18q-72 -20 -178 -40q-66 -16 -212 -21h-18q-130 0 -158 67z" />
<glyph unicode="Q" d="M284 110q0 -26 18 -44t44 -18h624q28 0 45 18t19 44v1376q-2 26 -19 44t-45 18h-624q-26 0 -44 -18t-18 -44v-202q0 -26 14 -33t34 9q4 6 77 50t167 50q158 -4 264 -110t110 -264q-4 -160 -110 -266t-264 -110q-94 6 -167 50t-77 50q-20 16 -34 10t-14 -32v-578zM390 986 q0 80 53 132t132 52t132 -52t55 -132q-2 -80 -55 -133t-132 -53t-132 53t-53 133zM1204 1284q-10 -22 1 -45t23 -29t20 -6h6q20 4 52 18l98 46l-16 -52l-48 -162q-14 -46 -18 -64q-4 -22 4 -40q14 -28 40 -38q10 -2 18 -2q20 0 42 10l252 118q28 14 38 37t-1 47t-35 32 t-54 -6l-140 -64l76 248l4 20q2 10 1 22t-5 24q-10 20 -24 28t-24 8q-26 2 -60 -14l-212 -100q-28 -14 -38 -36zM1223 1276q-7 -14 1 -30q10 -22 27 -20t45 14l138 66q-2 -16 -8 -40l-18 -56l-48 -162q-14 -46 -18 -62t2 -28q10 -20 28 -25t46 7l250 118q22 10 29 25t-1 31 t-24 21t-38 -5l-180 -86l88 294q2 12 4 18t1 16t-5 18q-10 22 -30 23t-50 -13l-212 -100q-20 -10 -27 -24zM1242 1268q6 10 16 14l214 100q28 12 36 10h2q6 2 14 -12q2 -4 2 -11v-9l-4 -16l-102 -338l224 104q14 8 22 5t12 -10t0 -14t-18 -15l-252 -118q-18 -8 -30 -6 q-6 2 -14 16q-4 4 -2 14q4 16 18 60l66 218q6 24 8 42l8 40l-174 -82q-30 -14 -40 -14l-4 9t-2 13zM1263 496q7 -16 27 -26l168 -74q12 -6 22 -6q6 0 10 2q16 4 22 19t0 29t-24 22l-100 46l176 78q6 4 12 9t8 13q8 24 -2 36t-32 22l-142 64q-16 8 -31 3t-21 -19t-3 -22 t7 -12q10 -10 30 -18l72 -34l-142 -62l-40 -20t-16 -16q-8 -18 -1 -34zM1272 500q6 -12 24 -20l166 -74q16 -8 26 -5t15 14t0 21t-19 18l-120 54l186 82q6 4 10 6t8 6t6 10q8 14 0 25t-28 19l-142 64q-14 6 -24 3t-16 -16t3 -20t27 -17l92 -40l-24 -12l-138 -62 q-28 -12 -38 -18t-14 -14q-6 -12 0 -24zM1282 504q-4 8 0 16q2 6 10 8l38 18l136 62l26 12l16 10l-110 50q-20 10 -24 14q-2 0 1 9t9 11h4q4 0 12 -4l142 -64q16 -8 24 -16q4 -2 0 -14q-2 -4 -6 -6l-6 -6l-216 -96l142 -64q10 -6 13 -12t0 -12t-9 -8t-18 2l-166 76 q-14 6 -18 14z" />
<glyph unicode="R" d="M256 318q14 0 28 -1q213 0 317 59q100 56 100 70q0 1 -1 2h-6q-47 0 -126 30q-84 32 -140 162q2 0 44 6t90 24q-2 -1 -5 -1q-21 0 -107 44q-100 51 -138 255l152 -38q-150 124 -150 250q0 14 2 27q18 137 41 137h1q18 -26 140 -121t228 -139q98 -34 182 -48 q74 -12 87 -12h3q-2 2 -9 38q-4 23 -4 51q0 16 1 33q14 124 90 193t210 69q122 -4 171 -44t53 -52q6 -2 14 -2q30 0 94 29q82 37 94 43q-14 -76 -75 -123q-50 -38 -49 -45q0 -2 2 -2q32 4 94 24l70 22q-32 -60 -82 -104t-64 -50l-2 -28q4 -20 4 -45q0 -101 -58 -287 q-72 -232 -368 -436q-254 -128 -470 -128q-99 0 -189 27q-270 79 -270 107q0 2 1 4z" />
<glyph unicode="S" d="M642 828v224h156v150v21q0 44 6 97q8 66 44 116t94 81t146 31q146 -2 213 -14t65 -14l-38 -230q-2 2 -40 10t-85 9h-5q-44 0 -75 -18q-33 -19 -35 -63v-176h248l-18 -224h-230v-780h-290v780h-156z" />
<glyph unicode="T" d="M286 334q6 146 139 245t327 103h30q-36 50 -36 102q0 30 12 62h-8q-162 2 -262 98t-104 252q6 142 126 245t288 107h520l-162 -118h-74q42 -40 66 -101t24 -134t-34 -138t-100 -117q-52 -40 -66 -63t-12 -49q2 -20 35 -57t73 -65q90 -62 129 -135t39 -177 q0 -134 -118 -237t-348 -109q-214 2 -347 81t-137 205zM494 384q2 -96 79 -157t197 -63q304 0 306 212q0 22 -6 42q-10 40 -45 72t-91 68l-32 22q-50 14 -102 16h-4q-126 -4 -212 -65t-90 -147zM590 1200q16 -110 80 -184t146 -80h4q58 0 100 46q30 36 42 87q8 34 8 72 q0 19 -2 39q-18 108 -81 181t-145 79h-4q-60 0 -102 -46q-30 -34 -42 -85q-7 -31 -7 -64q0 -22 3 -45zM1280 1196v88h178v178h88v-178h176v-88h-176v-176h-88v176h-178z" />
<glyph unicode="U" d="M450 1112l166 -1002q6 -26 26 -44t48 -18h624q26 0 47 18t27 44l166 1002q4 26 -11 43t-41 19h-312v186h208q26 2 44 19t18 45v62q0 26 -18 44t-44 18h-250l-10 -2l-12 2h-62q-26 0 -44 -18t-18 -44v-312h-500q-26 -2 -41 -19t-11 -43zM668 986h334v-562h-250zM1190 424 v562h146l-84 -562h-62z" />
<glyph unicode="V" d="M420 944q2 -26 19 -44t43 -18h188v-772q2 -26 19 -44t43 -18h64q26 0 44 18t18 44v772h208h-20q26 0 44 18t18 44v542q0 26 -18 44t-44 18h-22q-26 0 -44 -18t-18 -44v-418h-124v418q-2 26 -19 44t-45 18h-20q-26 0 -44 -18t-18 -44v-418h-126v418q0 26 -18 44t-44 18 h-22q-26 0 -43 -18t-19 -44v-542zM1268 1275q96 255 256 273q28 0 45 -18t19 -44v-1376q-2 -26 -19 -44t-45 -18h-62q-26 0 -44 18t-18 44v626q-160 200 -160 385q0 78 28 154z" />
<glyph unicode="W" d="M254 798l2 38q4 106 38 204t92 182q72 104 172 178t222 114q106 34 224 34q78 0 152 -16q134 -28 245 -97t191 -173q112 -140 148 -320q14 -70 14 -144q0 -154 -57 -288t-157 -238q-74 -74 -167 -127t-199 -77q-82 -20 -170 -20q-116 0 -220 34q-112 34 -205 98t-163 154 q-76 96 -118 214t-44 250zM418 798q0 -114 40 -214t110 -178l122 12q18 0 35 -9t23 -27l60 -136q92 -34 196 -34q64 0 124 12l48 150q6 18 21 29t33 11l218 2q68 76 105 174t37 208v32l-16 -12q-16 -10 -35 -10t-33 10l-180 130q-14 10 -20 28t0 36l68 210q4 12 12 20 q-84 72 -190 110q2 -20 -6 -54t-22 -46l-192 -110q-14 -8 -33 -7t-33 13l-154 180q-122 -58 -206 -160l48 -218q4 -18 -4 -35t-24 -27l-152 -88v-2zM720 768q-4 16 1 34t19 30l180 130q14 10 33 10t35 -10l178 -130q14 -12 20 -30t0 -34l-68 -212q-6 -16 -21 -27t-33 -11 h-222q-16 0 -32 11t-22 27z" />
<glyph unicode="X" d="M252 171q0 -5 5 -11t10 -6h9l96 14q4 0 8 -4l46 -102q2 -4 5 -8t11 -6t15 5t7 15l14 104q2 0 4 2t4 2l108 4q6 0 16 6q6 4 5 12t-5 12t-8 6l-96 58q-4 4 -2 6l26 94q2 4 2 9t-5 11t-11 8q-6 0 -10 -2l-8 -6l-76 -66q-2 0 -6 -1t-4 1l-92 60q-4 4 -10 6t-14 -6t-7 -14 t3 -10l46 -98q2 -2 1 -6t-3 -4l-76 -68q-4 -2 -6 -7t-2 -10zM282 788q-30 107 -30 206q0 133 54 253q94 209 310 281q71 20 140 20q97 0 191 -39q161 -67 269 -223q-134 -30 -248 -114t-190 -214q-62 -112 -83 -232q-10 -56 -10 -112q0 -64 13 -128q14 -74 46 -140 q-156 30 -281 146t-181 296zM357 1160q-1 -6 1 -8t4 -2q24 -6 52 -12v-4v-4l-32 -80l-2 -6q0 -4 7 -4t11 4l6 6l68 70l2 4h6h17q26 0 57 4q4 0 10 4l8 4q6 4 9 9t2 6l-3 3q-24 8 -40 32q-2 2 0 6l68 72l4 6q4 4 4 10q-2 6 -8 8t-12 0q-38 -14 -74 -30l-2 1q-2 1 -2 3 q0 48 26 122q4 10 4 20q2 6 -4 0t-10 -12l-10 -14q-44 -82 -68 -142l-2 -2q-4 -6 -6 -6q-30 -14 -68 -36l-6 -6q-4 -4 -10 -12t-7 -14zM824 511q-10 51 -10 102q0 140 76 283q114 188 298 251q76 26 149 26q105 0 205 -53q164 -102 203 -292q10 -51 10 -102q0 -140 -77 -282 q-114 -188 -298 -252q-75 -26 -149 -26q-105 0 -205 54q-164 100 -202 291zM888 176l148 -86q10 20 10 41q0 12 -3 24q-9 33 -40 51q-21 12 -42 12q-11 0 -22 -3q-33 -9 -51 -39zM1290 831q-2 -5 1 -8t7 -5q40 -26 78 -68q4 -4 2 -8l-70 -72q-2 -2 -4 -6t2 -14t15 -16t17 -4 q54 0 102 4l3 -2t3 -4q10 -30 18 -74q6 -35 6 -73v-19q-2 -12 2 -26v-2q2 -8 9 -3t10 13t5 18q28 96 38 170v4q2 6 6 6q42 4 88 18q4 2 8 5t9 12t3 17q0 10 -4 13t-8 3q-42 22 -86 46q-2 2 -4 5t-2 5l8 102q2 4 1 9t-12 9t-16 1t-7 -7l-68 -70q0 -2 -4 -2h-6q-54 22 -114 32 q-8 2 -14 1t-13 -3t-9 -7zM1308 812z" />
<glyph unicode="Y" d="M252 48h190q-38 18 -85 53t-105 93v-146zM252 402q180 -172 292 -172q48 0 83 32q117 106 375 140q258 -34 375 -140q35 -32 83 -32q112 0 292 172v208q-180 -172 -292 -172q-48 0 -83 32q-117 106 -375 140q-258 -34 -375 -140q-35 -32 -83 -32q-112 0 -292 172v-208z M366 1097q-2 -25 14 -45l42 -48q16 -20 41 -22t47 16l236 202l174 -200l-448 -344q35 -10 69 -10q81 0 155 56q106 80 306 96q180 -10 283 -80q100 -68 196 -68h5l-318 346l-360 422q-18 20 -43 22t-45 -16l-332 -284q-20 -18 -22 -43zM616 48h772q-70 38 -157 89t-229 57 q-142 -6 -229 -57t-157 -89zM1286 1046q2 74 51 122t122 48t122 -48t49 -122t-49 -123t-122 -49t-122 49t-51 123zM1562 48h190v146q-58 -58 -105 -93t-85 -53z" />
<glyph unicode="Z" d="M258 558q-8 -26 3 -48t35 -30l228 -78v-292q2 -26 20 -44t44 -18h1104q26 0 44 18t18 44v1000v12q2 22 -9 41t-33 27l-1054 354q-26 8 -48 -3t-32 -35zM474 616l50 148v-164zM662 1174l52 154l456 -154h-508zM712 236v750h854v-404v-346h-854zM796 732q0 40 27 66t66 26 t66 -26t27 -66t-27 -66t-66 -26t-66 26t-27 66zM798 328l162 202l104 -76l194 318l60 -128l140 22v-338h-660z" />
<glyph unicode="[" d="M254 350q0 -26 18 -44t44 -18h126v-178q0 -26 18 -44t44 -18h542q26 0 44 18t18 44v178h584q26 0 43 18t19 44v62q-2 28 -19 45t-43 19h-584v176q0 26 -18 44t-44 18h-542q-26 0 -44 -18t-18 -44v-176h-126q-26 -2 -44 -19t-18 -45v-62zM254 1184q0 -28 18 -45t44 -19 h604v-176q0 -26 18 -44t44 -18h522q26 0 44 18t18 44v176h126q26 2 43 19t19 45v62q-2 26 -19 44t-43 18h-126v178q0 26 -18 44t-44 18h-522q-26 0 -44 -18t-18 -44v-178h-604q-26 0 -44 -18t-18 -44v-62zM628 236v292h292v-292h-292zM1108 1068v292h270v-292h-270z" />
<glyph unicode="\" d="M254 308q2 -28 19 -45t45 -19h62q26 2 44 19t18 45v312h1126v-312q0 -28 18 -45t44 -19h62q26 2 44 19t18 45v624q0 26 -18 44t-44 18h-62q-26 0 -44 -18t-18 -44v-124h-1126v500q0 26 -18 44t-44 18h-62q-28 0 -45 -18t-19 -44v-1000zM530 1038q0 62 41 102t103 40 t102 -40t40 -102t-40 -103t-102 -41t-103 41t-41 103zM862 936q-2 -18 8 -30t28 -12h542q18 0 24 11t-4 25q0 16 -100 122t-276 122q-140 -14 -183 -119t-39 -119z" />
<glyph unicode="]" d="M254 222q2 -74 51 -123t123 -51h1154q74 2 122 51t50 123v1154q-2 72 -50 121t-122 51h-1154q-74 -2 -123 -51t-51 -121v-1154zM428 280v634h130q-14 -54 -16 -114q6 -196 136 -326t326 -136q196 6 326 136t134 326q2 58 -14 114h134v-634q-2 -26 -18 -42t-40 -16h-1040 q-26 0 -42 17t-16 41zM716 800q2 122 84 203t204 85q124 -4 205 -85t83 -203q-4 -122 -85 -204t-203 -84q-122 2 -204 84t-84 204zM1292 1144v172q0 26 17 42t41 18h172q26 -2 42 -19t18 -41v-172q-2 -26 -18 -42t-42 -16h-172q-26 0 -42 17t-16 41z" />
<glyph unicode="_" d="M272 570q0 26 18 46l642 642l212 4q-18 -36 -34 -76q-18 -50 -30 -102q-10 -8 -18 -18q-48 -50 -48 -114t48 -113t113 -49t113 48t49 110t-41 112q8 26 16 50q18 48 44 89t58 71h38q18 0 29 -12t13 -30l-14 -520l-640 -642q-20 -18 -46 -18t-46 18l-458 458 q-18 20 -18 46zM1113 1016q-9 -78 3 -146v-2q2 -12 21 -17t47 -1t44 15t16 23l-2 2h2q-10 52 -2 113t31 122t57 111t76 84q70 54 122 34t68 -108q10 -50 2 -111t-30 -123q-10 -26 1 -49t36 -33t49 1t34 35q30 80 39 157t-3 147q-14 78 -52 131t-97 75t-123 8t-126 -62 q-56 -44 -101 -108t-74 -142t-38 -156z" />
<glyph unicode="a" d="M254 192q0 -26 18 -43t44 -19h1376q26 2 44 19t18 43v210q0 26 -18 44t-44 18h-1376q-26 0 -44 -18t-18 -44v-210zM254 692v210q0 26 18 44t44 18h1376q26 0 44 -18t18 -44v-210q0 -26 -18 -43t-44 -19h-1376q-26 2 -44 19t-18 43zM254 1192q0 -26 18 -43t44 -19h1376 q26 2 44 19t18 43v210q0 26 -18 44t-44 18h-1376q-26 0 -44 -18t-18 -44v-210z" />
<glyph unicode="b" d="M254 424h388q48 72 115 129t147 95q-74 92 -86 214h-2q-130 2 -232 74q-148 -70 -238 -205t-92 -307zM536 1266q2 -116 79 -195t193 -85q28 106 105 181t185 101q-4 118 -83 197t-199 83q-118 -4 -198 -83t-82 -199zM630 48q2 174 92 309t238 203q100 -72 232 -72t232 72 q148 -68 238 -203t92 -309h-1124zM910 892q4 -120 83 -199t199 -83q120 4 199 83t83 199q-4 120 -83 199t-199 81q-120 -2 -199 -81t-83 -199z" />
<glyph unicode="c" d="M252 48q2 230 122 411t318 271q66 -46 144 -71t165 -25t166 25t145 71q198 -90 317 -271t123 -411h-1500zM626 1172q4 -158 110 -264t266 -110q160 4 265 110t109 264q-4 160 -109 266t-265 110q-160 -4 -266 -110t-110 -266z" />
<glyph unicode="d" d="M252 170q0 -48 37 -85t85 -37q58 0 100 42l402 402q66 -42 143 -64t161 -24q242 8 404 169t168 403q-6 244 -168 405t-404 167q-244 -6 -405 -167t-167 -405q0 -84 23 -161t65 -143l-402 -400q-42 -44 -42 -100v-2zM860 976q4 136 94 226t226 94q134 -4 224 -94t94 -226 q-4 -134 -94 -224t-224 -94q-136 4 -226 94t-94 224z" />
<glyph unicode="e" d="M252 310q2 -28 19 -45t45 -19h1374q26 2 44 19t18 45v500h-186v-376h-1126v562h188v188h-312q-28 0 -45 -18t-19 -44v-812zM544 642q28 312 270 418t356 108v166q0 26 15 34t37 -6l458 -306q22 -14 22 -34t-22 -34l-458 -306q-22 -14 -37 -6t-15 34v178q-82 -2 -139 -5 t-93 -7q-230 -40 -315 -132t-79 -102z" />
<glyph unicode="f" d="M252 308v814q0 26 16 36t40 -2l638 -320q24 -10 56 -10t56 10l638 320q24 12 40 2t16 -36v-814q0 -26 -18 -43t-44 -19h-1376q-26 2 -44 19t-18 43zM440 434zM440 434h1124v458l-562 -270l-562 270v-458zM481 1276q-3 -10 17 -26l454 -238q22 -16 50 -16t50 16l462 238 q20 16 17 26t-29 12h-992q-26 -2 -29 -12z" />
<glyph unicode="g" d="M250 308v624q2 28 19 45t45 19h124v500q0 26 18 43t44 19h1000q28 -2 45 -19t19 -43v-500h124q26 -2 44 -19t18 -45v-624q0 -26 -18 -44t-44 -18h-1374q-28 0 -45 18t-19 44zM438 432h1126v376h-64h-1062v-376zM626 996h750v374h-750v-374zM1000 578q2 -26 19 -44t45 -18 h62q26 0 44 18t18 44v62q0 28 -18 45t-44 19h-62q-28 -2 -45 -19t-19 -45v-62zM1272 578v62q0 28 18 45t44 19h62q26 -2 44 -19t18 -45v-62q0 -26 -18 -44t-44 -18h-62q-26 0 -44 18t-18 44z" />
<glyph unicode="h" d="M252 310q2 -28 19 -45t43 -19h1376q26 2 44 19t18 45v812q0 26 -18 44t-44 18h-438v-188h312v-562h-1124v562h312v188h-438q-26 0 -43 -18t-19 -44v-812zM664 838q-26 28 12 32l166 -2q18 2 31 14t13 32v412q0 20 13 33t33 13h142q18 0 31 -13t13 -33v-414q2 -18 14 -31 t32 -13h164q38 -2 12 -32l-306 -306q-14 -12 -32 -12t-32 12z" />
<glyph unicode="i" d="M252 710q0 -16 11 -30t29 -16l224 -42q16 -4 21 -15t-5 -25l-128 -192q-10 -14 -8 -31t14 -29l122 -124q14 -12 31 -14t31 8l192 128q14 10 25 5t15 -21l40 -224q4 -18 18 -29t30 -11h174q18 0 31 11t17 29l42 224q2 16 14 21t26 -5l190 -128q14 -10 32 -8t30 14l124 124 q12 12 13 29t-7 31l-130 192q-8 14 -3 25t21 15l224 42q16 2 28 16t12 30v176q0 16 -12 30t-28 16l-224 42q-16 4 -21 15t3 25l130 190q8 16 7 33t-13 29l-124 124q-12 12 -30 14t-32 -8l-190 -128q-14 -10 -26 -5t-14 21l-42 224q-4 18 -17 29t-31 11h-174q-16 0 -30 -11 t-18 -29l-40 -224q-4 -16 -15 -21t-25 5l-192 128q-14 10 -31 8t-31 -14l-122 -124q-12 -12 -14 -29t8 -33l128 -190q10 -14 5 -25t-21 -15l-224 -42q-18 -2 -29 -16t-11 -30v-176zM730 798q4 114 80 191t192 79q114 -2 191 -79t79 -191q-2 -116 -79 -192t-191 -80 q-116 4 -192 80t-80 192z" />
<glyph unicode="j" d="M252 798q8 -318 220 -530t530 -220q320 8 531 220t219 530q-8 318 -219 530t-531 220q-318 -8 -530 -220t-220 -530zM456 798q6 240 164 398t398 164q240 -6 398 -164t164 -398q-6 -240 -164 -398t-398 -164q-240 6 -398 164t-164 398zM874 798q2 60 46 98l2 316 q0 12 8 21t22 9h106q12 0 21 -9t9 -21v-308q0 -8 2 -14q6 -6 13 -11t15 -5l326 -2q12 0 21 -8t9 -22v-104q0 -14 -9 -22t-21 -8h-350q-36 -36 -91 -36t-91 36t-38 90z" />
<glyph unicode="k" d="M548 110v1372q0 26 14 32t34 -10l840 -670q20 -16 20 -38t-20 -38l-840 -670q-20 -16 -34 -10t-14 32z" />
<glyph unicode="l" d="M550 796q0 22 20 38l840 670q20 16 34 9t14 -33v-1370q0 -26 -14 -33t-34 9l-840 670q-20 18 -20 40z" />
<glyph unicode="m" d="M285 356q-7 14 9 36l670 838q16 20 38 20t40 -20l670 -838q16 -22 9 -36t-33 -14h-1370q-26 0 -33 14z" />
<glyph unicode="n" d="M287 1232q7 14 33 14h1370q26 0 33 -14t-9 -34l-670 -838q-18 -22 -40 -22t-38 22l-670 838q-16 20 -9 34z" />
<glyph unicode="o" d="M257 507q5 5 17 -1l28 -12q126 -46 268 -48q336 10 559 232t231 558q0 136 -44 258q-6 16 -9 26t3 20q12 4 21 0t25 -12q180 -106 288 -285t110 -401q-8 -336 -231 -559t-557 -231q-228 2 -409 113t-285 297l-14 26q-6 14 -1 19z" />
<glyph unicode="p" d="M256 1120l412 -1032q10 -24 34 -34t50 -2l506 202q24 12 34 35t2 49l-414 1032q-10 26 -34 36t-48 0l-506 -202q-26 -12 -36 -35t0 -49zM1045 1279q1 33 13 57l84 170q14 24 38 32t48 -4l488 -244q24 -12 32 -37t-4 -49l-352 -702q-12 -24 -27 -23t-25 25l-286 716 q-10 26 -9 59z" />
<glyph unicode="q" d="M254 798q8 -318 220 -530t530 -220q318 8 530 220t220 530q-8 318 -220 530t-530 220q-318 -8 -530 -220t-220 -530zM680 1036q0 64 40 128t116 106t178 42q92 0 165 -35t113 -96t40 -133q0 -58 -24 -100q-22 -42 -52 -72t-106 -98q-20 -18 -31 -31t-16 -23t-9 -20 l-10 -38q-14 -80 -92 -82q-40 0 -68 27t-28 77q0 56 17 97t45 71t74 70q38 34 54 50t26 33t10 37q0 40 -30 68t-78 28q-58 0 -84 -28q-30 -30 -50 -92q-16 -50 -44 -67t-54 -15q-44 0 -73 30t-29 66zM886 376q0 46 33 79t80 33t79 -33t32 -79q0 -52 -34 -84q-34 -28 -78 -28 t-78 29t-34 83z" />
<glyph unicode="r" d="M254 798q8 318 220 530t530 220q318 -8 530 -220t220 -530q-8 -318 -220 -530t-530 -220q-318 8 -530 220t-220 530zM670 322q2 -38 28 -64t65 -26t64 26t27 64v252h206q178 0 296 90t122 266v2q-2 160 -107 254t-289 96h-318q-40 -2 -66 -27t-28 -65v-868zM854 740v374 h212q104 0 164 -47t62 -139v-2q-2 -84 -61 -135t-165 -51h-212z" />
<glyph unicode="s" d="M252 798q8 -318 220 -530t530 -220q320 8 531 220t219 530q-8 318 -219 530t-531 220q-318 -8 -530 -220t-220 -530zM578 370q0 48 48 66l76 22v262h-48q-32 0 -54 22t-22 54t22 54t54 24h48v136q0 82 24 148t68 110q88 92 250 92q102 0 172 -33t118 -87q26 -24 26 -64 t-25 -65t-65 -25q-24 0 -40 9t-24 19q-34 38 -71 58t-89 20q-68 -2 -110 -42q-46 -50 -48 -144v-132h300q32 -2 54 -24t22 -54t-22 -54t-54 -22h-300v-254h410q34 -2 56 -24t22 -56t-22 -56t-56 -24h-650q-32 2 -51 20t-19 44z" />
<glyph unicode="t" d="M442 568v626q0 26 18 44t44 18h174q-44 18 -70 55t-26 85q2 66 44 108t106 42t107 -42t45 -108q0 -48 -27 -85t-69 -55h154q26 0 43 -18t19 -44v-626q-2 -26 -19 -43t-43 -19h-22v-396q0 -26 -18 -44t-44 -18h-250q-26 0 -44 18t-18 44v396h-42q-26 2 -44 19t-18 43z M1086 568q2 -26 19 -43t45 -19h42v-396q0 -26 18 -44t44 -18h146q26 0 44 18t18 44v396h42q26 2 44 19t18 43v418q0 26 -18 44t-44 18h-96q24 18 38 44t14 58q-2 54 -37 90t-89 36t-90 -36t-38 -90q0 -32 14 -58t38 -44h-108q-28 0 -45 -18t-19 -44v-418z" />
<glyph unicode="u" d="M252 798q8 -318 220 -530t530 -220q318 8 530 220t220 530q-8 318 -220 530t-530 220q-318 -8 -530 -220t-220 -530zM480 1126q0 8 8 13t22 7t32 2q28 0 43 -4t23 -14l188 -292l170 286q6 10 13 15t17 7t30 2t31 -2t16 -6t6 -9t1 -15v-580q0 -12 -1 -16t-6 -8t-16 -7 t-31 -3t-32 3t-16 7t-6 8t-2 14v416l-118 -206l-6 -6l-8 -8q-4 -2 -15 -5t-28 -3t-28 3t-17 5l-8 8l-6 6l-116 194v-402q0 -12 -1 -16t-6 -8t-17 -7t-32 -3t-31 3t-15 7t-6 8t-2 14v532l-26 46q-4 6 -4 14zM1156 900q0 12 13 19t42 7t41 -5t18 -17l112 -240l104 238 q6 12 17 18t39 6q32 0 43 -6t11 -15t-4 -21l-8 -18l-242 -524q-6 -14 -18 -19t-38 -5t-39 6t-13 18q0 8 4 18l86 186l-164 340q-4 8 -4 14z" />
<glyph unicode="v" d="M252 796q6 268 184 447t448 185q264 -6 441 -180t191 -438h204q26 0 32 -13t-14 -31l-328 -328q-20 -20 -45 -20t-45 20l-328 328q-18 18 -13 31t31 13h238q-10 150 -112 249t-252 103q-156 -4 -259 -107t-107 -259q4 -156 107 -259t259 -107q26 0 44 -19t18 -45v-138 q0 -28 -18 -46t-44 -18q-270 6 -448 184t-184 448z" />
<glyph unicode="w" d="M252 694v208q0 26 18 44t44 18h520v522q2 26 19 44t43 18h210q26 0 44 -18t18 -44v-522h520q28 0 45 -18t19 -44v-208q-2 -26 -19 -44t-45 -18h-520v-522q0 -26 -18 -44t-44 -18h-210q-26 0 -43 18t-19 44v522h-520q-26 0 -44 18t-18 44z" />
<glyph unicode="x" d="M252 692v210q0 26 18 43t44 19h1376q26 -2 44 -19t18 -43v-210q0 -26 -18 -44t-44 -18h-1376q-26 0 -44 18t-18 44z" />
<glyph unicode="y" d="M252 257q0 25 18 43l498 498l-498 498q-18 18 -18 43t18 45l146 146q20 18 44 18t44 -18l498 -498l498 498q18 18 43 18t45 -18l146 -146q18 -20 18 -45t-18 -43l-498 -498l498 -498q18 -18 18 -43t-18 -45l-146 -146q-20 -18 -45 -18t-43 18l-498 498l-498 -498 q-20 -18 -44 -18t-44 18l-146 146q-18 20 -18 45z" />
<glyph unicode="z" d="M252 712q0 24 18 42l150 150q18 18 42 18t42 -18l244 -242q18 -18 42 -18t42 18l668 668q18 18 42 18t42 -16l150 -150q18 -18 18 -42t-18 -42l-810 -812q-18 -18 -47 -30t-55 -12h-70q-26 0 -55 12t-47 30l-380 384q-18 18 -18 42z" />
<glyph unicode="{" d="M283 1374q-47 -98 11 -240q150 -372 410 -638q266 -260 638 -410q140 -56 239 -10t153 190q14 44 4 79t-40 67q-48 46 -100 85t-108 73q-92 64 -143 57t-121 -97q-34 -40 -72 -47t-80 9q-136 52 -229 145t-145 229q-18 42 -10 80t48 72q90 70 97 121t-57 143 q-34 56 -73 109t-84 98t-101 45q-22 0 -46 -8q-144 -54 -191 -152z" />
<glyph unicode="|" d="M440 110q0 -26 18 -44t44 -18h1000q26 0 44 18t18 44v814q0 26 -18 43t-44 19h-124v188q-4 158 -110 264t-266 110q-160 -4 -265 -110t-109 -264v-188h-126q-26 -2 -44 -19t-18 -43v-814zM814 986v188q2 78 55 131t133 53t133 -53t55 -131v-188h-376z" />
<glyph unicode="}" d="M365 104q1 -32 69 -52q64 -10 90 26t24 42l40 102q6 -2 64 3t96 17q38 18 79 52t45 38l-256 208q-10 -8 -96 -100t-122 -160q-12 -28 -15 -59t-9 -61q-10 -24 -9 -56zM420 1166q14 -40 18 -44l106 -170l4 -6l24 -32q10 -12 50 -29t82 -47q14 -50 -15 -85t-33 -117h-4v-4 h688v4h2q-6 82 -34 117t-14 85q42 30 82 47t52 29l22 32l4 6l106 170q4 4 18 44t-16 78q-48 44 -81 24t-35 -26l-90 -132q-4 -2 -53 -20t-79 -42h-450q-30 24 -79 42t-53 20l-90 132q0 2 -17 16t-45 16q-24 0 -54 -30q-30 -38 -16 -78zM776 1324q2 -96 65 -159t159 -67 q96 4 159 67t65 159q-2 94 -65 158t-159 66q-96 -2 -159 -66t-65 -158zM1138 332q4 -4 45 -38t79 -52q38 -12 96 -17t64 -3l38 -102q0 -6 26 -42t90 -26q66 20 68 52t-8 56q-6 30 -9 61t-15 59q-36 68 -122 160t-96 100z" />
<glyph unicode="~" d="M470 -2h288l80 674h438l16 126h-442l72 590h354q112 -14 140 -110t24 -110h56l40 330h-1064v-44q116 -16 139 -80t17 -90z" />
<glyph unicode="&#xad;" d="M292 48l386 132q154 -90 340 -92q296 8 494 214t206 516q-8 308 -206 515t-496 215q-296 -8 -494 -214t-206 -516q2 -106 28 -201t74 -177zM490 818q6 236 155 392t373 162q224 -6 373 -163t155 -391q-6 -236 -155 -392t-373 -162q-164 2 -292 92l-204 -68l68 206 q-48 68 -74 150t-26 174zM674 978q4 -68 33 -121t39 -65q8 -18 85 -111t207 -159q100 -42 143 -47t63 1q36 8 70 32t46 56t14 55t-4 30t-36 21l-58 30q-42 22 -58 28q-22 12 -42 -12q-26 -40 -46 -64q-18 -16 -42 -6q-14 4 -51 24t-85 64q-40 38 -64 74t-32 50t-4 23t10 15 l36 42q4 6 8 16q6 18 -2 32l-52 134q-8 20 -17 26t-21 4h-18q-36 0 -60 -22q-16 -14 -38 -50t-24 -100z" />
<glyph unicode="&#x2000;" horiz-adv-x="779" />
<glyph unicode="&#x2001;" horiz-adv-x="1558" />
<glyph unicode="&#x2002;" horiz-adv-x="779" />
<glyph unicode="&#x2003;" horiz-adv-x="1558" />
<glyph unicode="&#x2004;" horiz-adv-x="519" />
<glyph unicode="&#x2005;" horiz-adv-x="389" />
<glyph unicode="&#x2006;" horiz-adv-x="259" />
<glyph unicode="&#x2007;" horiz-adv-x="259" />
<glyph unicode="&#x2008;" horiz-adv-x="194" />
<glyph unicode="&#x2009;" horiz-adv-x="311" />
<glyph unicode="&#x200a;" horiz-adv-x="86" />
<glyph unicode="&#x2010;" d="M292 48l386 132q154 -90 340 -92q296 8 494 214t206 516q-8 308 -206 515t-496 215q-296 -8 -494 -214t-206 -516q2 -106 28 -201t74 -177zM490 818q6 236 155 392t373 162q224 -6 373 -163t155 -391q-6 -236 -155 -392t-373 -162q-164 2 -292 92l-204 -68l68 206 q-48 68 -74 150t-26 174zM674 978q4 -68 33 -121t39 -65q8 -18 85 -111t207 -159q100 -42 143 -47t63 1q36 8 70 32t46 56t14 55t-4 30t-36 21l-58 30q-42 22 -58 28q-22 12 -42 -12q-26 -40 -46 -64q-18 -16 -42 -6q-14 4 -51 24t-85 64q-40 38 -64 74t-32 50t-4 23t10 15 l36 42q4 6 8 16q6 18 -2 32l-52 134q-8 20 -17 26t-21 4h-18q-36 0 -60 -22q-16 -14 -38 -50t-24 -100z" />
<glyph unicode="&#x2011;" d="M292 48l386 132q154 -90 340 -92q296 8 494 214t206 516q-8 308 -206 515t-496 215q-296 -8 -494 -214t-206 -516q2 -106 28 -201t74 -177zM490 818q6 236 155 392t373 162q224 -6 373 -163t155 -391q-6 -236 -155 -392t-373 -162q-164 2 -292 92l-204 -68l68 206 q-48 68 -74 150t-26 174zM674 978q4 -68 33 -121t39 -65q8 -18 85 -111t207 -159q100 -42 143 -47t63 1q36 8 70 32t46 56t14 55t-4 30t-36 21l-58 30q-42 22 -58 28q-22 12 -42 -12q-26 -40 -46 -64q-18 -16 -42 -6q-14 4 -51 24t-85 64q-40 38 -64 74t-32 50t-4 23t10 15 l36 42q4 6 8 16q6 18 -2 32l-52 134q-8 20 -17 26t-21 4h-18q-36 0 -60 -22q-16 -14 -38 -50t-24 -100z" />
<glyph unicode="&#x2012;" d="M292 48l386 132q154 -90 340 -92q296 8 494 214t206 516q-8 308 -206 515t-496 215q-296 -8 -494 -214t-206 -516q2 -106 28 -201t74 -177zM490 818q6 236 155 392t373 162q224 -6 373 -163t155 -391q-6 -236 -155 -392t-373 -162q-164 2 -292 92l-204 -68l68 206 q-48 68 -74 150t-26 174zM674 978q4 -68 33 -121t39 -65q8 -18 85 -111t207 -159q100 -42 143 -47t63 1q36 8 70 32t46 56t14 55t-4 30t-36 21l-58 30q-42 22 -58 28q-22 12 -42 -12q-26 -40 -46 -64q-18 -16 -42 -6q-14 4 -51 24t-85 64q-40 38 -64 74t-32 50t-4 23t10 15 l36 42q4 6 8 16q6 18 -2 32l-52 134q-8 20 -17 26t-21 4h-18q-36 0 -60 -22q-16 -14 -38 -50t-24 -100z" />
<glyph unicode="&#x2013;" horiz-adv-x="1646" d="M292 48l277 132q111 -90 244 -92q213 8 355 214t148 516q-6 308 -148 515t-356 215q-213 -8 -355 -214t-148 -516q2 -106 20.5 -201t52.5 -177zM434 818q4 236 111 392t268 162q161 -6 268 -163t111 -391q-4 -236 -111 -392t-268 -162q-117 2 -209 92l-147 -68l49 206 q-34 68 -53 150t-19 174zM566 978q3 -68 24 -121t28 -65q6 -18 61 -111t149 -159q72 -42 102.5 -47t45.5 1q25 8 49.5 32t33.5 56t10 55t-3 30t-26 21l-41 30q-31 22 -42 28q-16 12 -30 -12q-19 -40 -33 -64q-13 -16 -30 -6q-10 4 -37 24t-61 64q-29 38 -46 74t-23 50t-3 23 t7 15l26 42q3 6 6 16q4 18 -2 32l-37 134q-6 20 -12.5 26t-14.5 4h-13q-26 0 -43 -22q-12 -14 -27.5 -50t-17.5 -100z" />
<glyph unicode="&#x2014;" horiz-adv-x="2670" d="M292 48l554 132q222 -90 489 -92q425 8 709.5 214t295.5 516q-11 308 -295.5 515t-712.5 215q-425 -8 -709.5 -214t-296.5 -516q3 -106 40.5 -201t106.5 -177zM576 818q9 236 223 392t536 162q321 -6 535 -163t223 -391q-9 -236 -223 -392t-535 -162q-236 2 -420 92 l-293 -68l98 206q-69 68 -106.5 150t-37.5 174zM841 978q5 -68 47 -121t56 -65q12 -18 122.5 -111t296.5 -159q144 -42 206 -47t90 1q52 8 101 32t66 56t20 55t-5.5 30t-51.5 21l-84 30q-60 22 -83 28q-32 12 -60 -12q-38 -40 -66 -64q-26 -16 -61 -6q-20 4 -73 24t-122 64 q-58 38 -92.5 74t-45.5 50t-5.5 23t14.5 15l51 42q6 6 12 16q8 18 -3 32l-75 134q-11 20 -24 26t-30 4h-26q-52 0 -86 -22q-23 -14 -55 -50t-34 -100z" />
<glyph unicode="&#x202f;" horiz-adv-x="311" />
<glyph unicode="&#x205f;" horiz-adv-x="389" />
<glyph unicode="&#x25fc;" horiz-adv-x="960" d="M0 0v960h960v-960h-960z" />
</font>
</defs>
</svg>
