<?xml version="1.0" standalone="no"?>
<!DOCTYPE svg PUBLIC "-//W3C//DTD SVG 1.1//EN" "http://www.w3.org/Graphics/SVG/1.1/DTD/svg11.dtd" >
<svg xmlns="http://www.w3.org/2000/svg">
<metadata></metadata>
<defs>
<font id="tuitype_light_latn_wregular" horiz-adv-x="1024" >
<font-face units-per-em="2048" ascent="1638" descent="-410" />
<missing-glyph horiz-adv-x="512" />
<glyph unicode="&#xfb01;" horiz-adv-x="1003" d="M23 807q0 8 1 22.5t5 24.5t8 19.5t8 13.5q8 6 25 6h112v143q0 154 87 249t251 95q80 0 136.5 -15t101.5 -36q25 -12 34 -21.5t9 -19.5q0 -18 -10 -39q-8 -16 -16.5 -28.5t-22.5 -12.5q-12 0 -23 4q-45 23 -86 37.5t-113 14.5q-59 0 -100 -19.5t-66.5 -53.5t-37 -80 t-11.5 -97v-121h478q25 0 37 -3t16 -7q6 -4 10 -11.5t4 -23.5v-811q0 -23 -10 -33q-6 -4 -17.5 -8t-39.5 -4q-29 0 -39.5 4t-16.5 8q-10 10 -10 33v741h-412v-741q0 -23 -10 -33q-6 -4 -17.5 -8t-39.5 -4q-29 0 -39 4t-16 8q-10 10 -11 33v741h-131q-16 0 -22 6t-6 23z" />
<glyph unicode="&#xfb02;" horiz-adv-x="1044" d="M23 807q0 8 1 22.5t5 24.5t8 19.5t8 13.5q8 6 25 6h112v143q0 154 87 249t284 95q106 0 190 -28.5t121 -51.5q27 -16 32 -29.5t5 -37.5v-1196q0 -23 -10 -33q-6 -4 -17.5 -8t-39.5 -4q-29 0 -39.5 3t-16.5 9q-10 10 -10 33v1128q0 37 -43 60q-25 12 -72 25.5t-108 13.5 q-68 0 -112 -19.5t-69.5 -51.5t-37 -74t-11.5 -87v-139h250q16 0 23 -6q6 -6 6 -23q0 -8 -1 -22.5t-5 -24.5q-8 -27 -17 -33q-4 -4 -9 -5t-15 -1h-232v-741q0 -23 -10 -33q-6 -4 -17.5 -8t-39.5 -4q-29 0 -39 4t-16 8q-10 10 -11 33v741h-131q-16 0 -22 6t-6 23z" />
<glyph unicode="&#xfb03;" horiz-adv-x="1558" d="M23 807q0 8 2 22.5t4 24.5q12 27 15 33t26 6h112v143q0 154 87 249t251 95q92 0 175 -27.5t132 -66.5q43 45 104.5 69.5t143.5 24.5q80 0 136.5 -15t101.5 -36q25 -12 34 -21.5t9 -19.5q0 -18 -10 -39q-8 -16 -16.5 -28.5t-22.5 -12.5q-12 0 -23 4q-45 23 -86 37.5 t-113 14.5q-59 0 -100 -19.5t-66.5 -53.5t-37 -80t-11.5 -97v-121h478q25 0 37 -3t16 -7q14 -10 14 -35v-811q0 -25 -10 -33q-6 -4 -18.5 -8t-38.5 -4q-27 0 -38.5 4t-17.5 8q-10 8 -10 33v741h-412v-741q0 -23 -10 -33q-6 -4 -17.5 -8t-39.5 -4q-29 0 -39 4t-16 8 q-10 8 -11 33v741h-422v-741q0 -23 -10 -33q-6 -4 -17.5 -8t-39.5 -4q-29 0 -39 4t-16 8q-10 8 -11 33v741h-131q-16 0 -22 6t-6 23zM315 893h422v143q0 86 27 152q-41 29 -101.5 52.5t-132.5 23.5q-59 0 -100 -19.5t-66.5 -53.5t-37 -80t-11.5 -97v-121z" />
<glyph unicode="&#xfb04;" horiz-adv-x="1599" d="M23 807q0 8 2 22.5t4 24.5q12 27 15 33t26 6h112v143q0 154 87 249t251 95q92 0 174 -27.5t131 -66.5q47 45 116 69.5t167 24.5q106 0 190 -28.5t121 -51.5q27 -16 32 -29.5t5 -37.5v-1196q0 -23 -10 -33q-6 -4 -17.5 -8t-39.5 -4q-29 0 -39.5 3t-16.5 9q-10 10 -10 33 v1128q0 37 -43 60q-25 12 -72 25.5t-108 13.5q-68 0 -112 -19.5t-69.5 -51.5t-37 -74t-11.5 -87v-139h250q16 0 23 -6q6 -6 6 -23q0 -8 -1 -22.5t-5 -24.5q-8 -27 -17 -33q-4 -4 -9 -5t-15 -1h-232v-741q0 -23 -10 -33q-6 -4 -17.5 -8t-39.5 -4q-29 0 -39 4t-16 8 q-10 10 -11 33v741h-422v-741q0 -23 -10 -33q-6 -4 -17.5 -8t-39.5 -4q-29 0 -39 4t-16 8q-10 8 -11 33v741h-131q-16 0 -22 6t-6 23zM315 893h422v143q0 84 25 152q-41 29 -100.5 52.5t-131.5 23.5q-59 0 -100 -19.5t-66.5 -53.5t-37 -80t-11.5 -97v-121z" />
<glyph horiz-adv-x="0" />
<glyph horiz-adv-x="682" />
<glyph horiz-adv-x="0" />
<glyph horiz-adv-x="0" />
<glyph unicode="&#x9;" horiz-adv-x="512" />
<glyph unicode=" "  horiz-adv-x="512" />
<glyph unicode="&#x09;" horiz-adv-x="512" />
<glyph unicode="&#xa0;" horiz-adv-x="512" />
<glyph unicode="!" horiz-adv-x="417" d="M106 86q0 43 30 72.5t73 29.5t72.5 -29.5t29.5 -72.5t-29.5 -72.5t-72.5 -29.5t-73 29.5t-30 72.5zM141 420v915q0 23 11 33q6 4 16 8t39 4t40 -4t17 -8q10 -10 10 -33v-915q0 -23 -10 -33q-6 -4 -17 -8t-40 -4t-39 4t-16 8q-10 10 -11 33z" />
<glyph unicode="&#x22;" horiz-adv-x="710" d="M121 1335q0 25 10 33q6 4 21.5 8t44.5 4t44 -4t21 -8q12 -10 12 -33l-10 -381q0 -23 -10 -32q-6 -4 -17.5 -8.5t-39.5 -4.5q-29 0 -39.5 4.5t-16.5 8.5q-10 10 -10 32zM436 1335q0 25 10 33q6 4 21.5 8t44.5 4t44 -4t22 -8q12 -10 12 -33l-10 -381q0 -23 -11 -32 q-6 -4 -17 -8.5t-40 -4.5t-39 4.5t-16 8.5q-10 10 -11 32z" />
<glyph unicode="#" horiz-adv-x="1183" d="M46 409.5q-5 8.5 3 39.5q6 25 14.5 35t26.5 10h205l80 305h-178h-16.5t-12.5 2q-8 4 -13 12t3 39q6 25 14 35t27 10h202l97 363q6 23 19 27.5t48 4.5t46.5 -5t11.5 -15t-2.5 -19.5t-6.5 -21.5l-88 -334h244l96 363q6 23 19.5 27.5t48.5 4.5t46 -5t11 -15t-2 -19.5 t-6 -21.5l-88 -334h182h16.5t12.5 -2q8 -4 13 -12t-3 -39q-6 -25 -14 -35t-27 -10h-207l-80 -305h181h16t12 -2q8 -4 13.5 -12.5t-2.5 -39.5q-6 -25 -14.5 -35t-26.5 -10h-205l-96 -362q-6 -23 -19.5 -28t-48.5 -5t-46 5t-11 15t2 19.5t6 21.5l88 334h-244l-96 -362 q-6 -23 -19.5 -28t-48.5 -5t-46 5t-11 15t2 19.5t6 21.5l88 334h-180h-16.5t-12.5 2q-8 4 -13 12.5zM420 494h244l79 305h-243z" />
<glyph unicode="$" horiz-adv-x="1071" d="M104 123q0 16 19 51q12 23 20.5 29t18.5 6q14 0 39 -14q57 -35 123.5 -59.5t158.5 -29.5v494l-30 8q-61 16 -121 40t-107 62t-75.5 93t-28.5 135q0 150 96 242t266 104v109q0 18 8.5 25t43.5 7t43 -7t8 -25v-109q53 -4 94 -11t70 -16q29 -10 52 -17t40 -15 q29 -14 35 -23.5t6 -15.5t-4.5 -20.5t-12.5 -28.5q-16 -35 -32 -35q-14 0 -35 8q-8 4 -45 19.5t-68 23.5q-16 4 -40.5 8t-59.5 6v-465l41 -10q84 -23 145.5 -53.5t101.5 -69.5q41 -39 62.5 -90t21.5 -125q0 -168 -97 -260t-275 -108v-123q0 -18 -8.5 -25.5t-42.5 -7.5 q-35 0 -43.5 7t-8.5 26v121q-123 6 -210 38.5t-128 57.5q-27 16 -34 24.5t-7 18.5zM246 948q0 -90 66.5 -140t170.5 -79v438q-109 -8 -173 -67.5t-64 -151.5zM586 111q49 6 92 21t75.5 42t52 65t19.5 91q0 100 -60 155.5t-179 87.5v-462z" />
<glyph unicode="%" horiz-adv-x="1603" d="M68 1071q0 76 22.5 136.5t64.5 103.5t98 66.5t124 23.5t124 -22.5t98 -65.5t64.5 -104.5t22.5 -137.5q0 -74 -22.5 -135.5t-64.5 -104.5t-98.5 -66.5t-123.5 -23.5q-68 0 -124 23.5t-98 66.5t-64.5 103.5t-22.5 136.5zM193 1071q0 -94 45 -161.5t139 -67.5q90 0 137 67.5 t47 161.5q0 96 -45 162.5t-139 66.5q-92 0 -138 -66.5t-46 -162.5zM385 2q0 10 14 39l693 1331q10 18 22 23.5t47 5.5q60 0 60 -23q0 -10 -15 -39l-692 -1331q-10 -18 -22.5 -23t-47.5 -5q-59 0 -59 22zM918 301q0 76 22.5 136.5t64.5 103.5t98 66.5t124 23.5t124 -22.5 t98 -65.5t64.5 -104.5t22.5 -137.5q0 -74 -22.5 -135.5t-64.5 -104.5t-98.5 -66.5t-123.5 -23.5q-68 0 -124 23.5t-98 66.5t-64.5 103.5t-22.5 136.5zM1042 301q0 -94 45.5 -161.5t139.5 -67.5q90 0 137 67.5t47 161.5q0 96 -45 162.5t-139 66.5q-92 0 -138.5 -66.5 t-46.5 -162.5z" />
<glyph unicode="&#x26;" horiz-adv-x="1280" d="M102 365q0 109 65.5 198.5t205.5 184.5q-92 92 -143.5 174t-51.5 172q0 139 92 223t244 84q76 0 137.5 -21.5t105.5 -61.5t67.5 -94.5t23.5 -117.5q0 -100 -62.5 -189.5t-212.5 -189.5l357 -371q18 47 28.5 103.5t10.5 130.5v53q0 43 11 56.5t60 13.5t62.5 -12.5 t13.5 -51.5v-47q0 -106 -23.5 -195.5t-54.5 -140.5l181 -182q25 -25 34 -37t9 -24q0 -20 -17.5 -25.5t-66.5 -5.5q-35 0 -60.5 10t-58.5 39l-109 102q-86 -80 -191.5 -121.5t-217.5 -41.5q-94 0 -175 28.5t-139.5 79.5t-91.5 122t-33 155zM244 360q0 -53 24.5 -99t65.5 -82 t97 -56.5t118 -20.5q86 0 174 36t141 102l-405 415q-98 -59 -156.5 -137t-58.5 -158zM315 1094q0 -59 47.5 -128t120.5 -151q104 70 167 145.5t63 147.5t-55.5 125t-141.5 53t-143.5 -55t-57.5 -137z" />
<glyph unicode="'" horiz-adv-x="395" d="M121 1335q0 25 10 33q6 4 21.5 8t44.5 4t44 -4t21 -8q12 -10 12 -33l-10 -381q0 -23 -10 -32q-6 -4 -17.5 -8.5t-39.5 -4.5q-29 0 -39.5 4.5t-16.5 8.5q-10 10 -10 32z" />
<glyph unicode="(" horiz-adv-x="651" d="M106 485q0 168 33 311.5t88.5 256t129 191.5t157.5 120q10 4 16.5 7t16.5 3q20 0 41 -39q18 -31 18 -53q0 -14 -18 -25q-72 -41 -131.5 -110.5t-103.5 -166.5t-68.5 -221t-24.5 -274t24.5 -273.5t68.5 -222t103.5 -168t131.5 -110.5q18 -10 18 -24q0 -23 -18 -54 q-20 -39 -41 -39q-10 0 -16.5 3.5t-16.5 7.5q-84 41 -157.5 120.5t-129 192.5t-88.5 256t-33 311z" />
<glyph unicode=")" horiz-adv-x="651" d="M45 -313q0 14 18 24q70 41 130.5 110.5t104.5 168t68.5 222.5t24.5 273q0 150 -24.5 274t-68.5 221t-104.5 167t-130.5 110q-18 10 -18 25q0 23 18 53q20 39 41 39q10 0 16.5 -3t16.5 -7q82 -41 157 -120t130 -191.5t88 -256t33 -311.5t-33 -311t-88 -256t-130 -192.5 t-157 -120.5q-10 -4 -16 -7.5t-17 -3.5q-20 0 -41 39q-18 31 -18 54z" />
<glyph unicode="*" horiz-adv-x="854" d="M76 1081q0 4 2 16.5t8 30.5q14 49 43 50q10 0 18.5 -3.5t20.5 -7.5l205 -86l-17 248q-2 14 2 21.5t9 11.5q6 4 17 8t40 4t41 -4t18 -8q4 -4 8.5 -11.5t2.5 -21.5l-15 -248l207 86q12 4 20.5 7.5t18.5 3.5q27 0 43 -50q6 -18 8 -30.5t2 -16.5q0 -27 -28 -34l-240 -68 l160 -197q12 -16 12 -26q0 -18 -39 -47q-31 -25 -53 -25q-20 0 -37 29l-125 198l-127 -198q-16 -29 -37 -29q-23 0 -53 25q-39 29 -39 47q0 10 12 26l160 197l-240 68q-29 8 -28 34z" />
<glyph unicode="+" horiz-adv-x="976" d="M72 633q0 29 4 39t8 14q10 10 33 10h307v332q0 23 10 33q4 4 14.5 8t38.5 4q29 0 40.5 -4t15.5 -8q10 -10 10 -33v-332h307q23 0 33 -10q4 -4 8 -14t4 -39t-4 -38t-8 -13q-10 -10 -33 -11h-307v-327q0 -23 -10 -33q-4 -4 -15.5 -8t-40.5 -4t-39 4t-14 8q-10 10 -10 33 v327h-307q-23 0 -33 11q-4 4 -8 13t-4 38z" />
<glyph unicode="," horiz-adv-x="393" d="M55 -180q0 8 2 18t6 27l72 319q6 25 23.5 34t60.5 9q41 0 56.5 -8t15.5 -20q0 -14 -5 -27.5t-10 -30.5l-98 -311q-8 -25 -23.5 -30t-52.5 -5q-29 0 -38 7.5t-9 17.5z" />
<glyph unicode="-" horiz-adv-x="731" d="M96 408q0 25 4 50t13 38q10 23 47 22h434q23 0 31 -4q10 -8 10 -37q0 -25 -4 -50.5t-13 -37.5q-10 -23 -47 -22h-434q-23 0 -31 4q-10 8 -10 37z" />
<glyph unicode="." horiz-adv-x="397" d="M96 86q0 43 30 72.5t73 29.5t72.5 -29.5t29.5 -72.5t-29.5 -72.5t-72.5 -29.5t-73 29.5t-30 72.5z" />
<glyph unicode="/" horiz-adv-x="602" d="M10 25q0 8 3 19t7 22l449 1277q8 23 22.5 26t45.5 3q35 0 45 -7t10 -17q0 -8 -3 -19.5t-7 -21.5l-449 -1278q-8 -23 -22.5 -26t-44.5 -3q-35 0 -45.5 7t-10.5 18z" />
<glyph unicode="0" horiz-adv-x="1021" d="M90 631q0 160 32 283.5t88 206.5t133 126t169 43q90 0 167 -43t133 -126t88 -206.5t32 -283.5t-32 -282t-88 -204t-133 -123.5t-167 -41.5q-92 0 -169 41.5t-133 123.5t-88 204t-32 282zM236 631q0 -246 71.5 -388.5t204.5 -142.5t203.5 142.5t70.5 388.5q0 123 -17 222 t-52 170t-86 108.5t-119 37.5t-119 -37.5t-86 -108.5t-53 -170t-18 -222z" />
<glyph unicode="1" horiz-adv-x="1011" d="M141 928q0 18 27 43l330 291q31 29 65 28q27 0 37 -10t10 -39v-1204q0 -23 -10 -33q-6 -4 -17.5 -8t-39.5 -4q-29 0 -39 4t-17 8q-10 10 -10 33v1050l-235 -206q-10 -10 -19.5 -16.5t-21.5 -6.5q-20 0 -41 29q-8 10 -13.5 20.5t-5.5 20.5z" />
<glyph unicode="2" horiz-adv-x="985" d="M72 63q0 25 5 42.5t21 33.5l174 178q109 113 181.5 200t116.5 159t62.5 135t18.5 127q0 113 -63.5 171t-159.5 58q-39 0 -68.5 -6t-54 -18.5t-48.5 -30.5t-48 -43q-14 -14 -24.5 -25.5t-26.5 -11.5q-14 0 -27.5 10.5t-24.5 20.5q-10 10 -17 21.5t-7 21.5t8 23.5t31 35.5 q14 16 41.5 38t67.5 41.5t90.5 32.5t111.5 13q76 0 141.5 -21.5t114.5 -65.5t78 -111.5t29 -159.5q0 -78 -26 -154t-66.5 -144.5t-92 -132t-100.5 -116.5q-29 -31 -65.5 -68.5t-71.5 -73.5t-64.5 -67t-46.5 -47h524q16 0 25 -8q4 -4 5 -9.5t1 -19.5q0 -16 -2 -30.5t-4 -22.5 q-6 -27 -16 -33t-29 -6h-643q-27 0 -37 10q-6 6 -10 18.5t-4 34.5z" />
<glyph unicode="3" horiz-adv-x="987" d="M86 1135q0 25 43 55q27 18 57.5 36.5t68.5 32t86 22.5t110 9q68 0 127 -17.5t105 -53t72.5 -90t26.5 -125.5q0 -115 -54 -187t-132 -115q90 -29 148.5 -101.5t58.5 -201.5q0 -135 -59.5 -226t-147.5 -144.5t-187.5 -76t-181.5 -22.5t-102 11q-20 12 -21 55q0 23 5.5 38 t23.5 23q14 4 41 3t59 -1q49 0 121 13.5t139.5 49.5t115.5 99.5t48 165.5q0 117 -70.5 186.5t-211.5 69.5h-53q-25 0 -29 4q-6 4 -6 27q0 20 3 41.5t11 34.5q8 16 35 16h33q121 0 198.5 53t77.5 172q0 92 -62.5 136t-152.5 44q-45 0 -79 -7t-58 -17q-20 -8 -41 -18.5 t-43 -26.5q-16 -12 -31.5 -24.5t-30.5 -12.5q-16 0 -25 10t-18 21q-18 23 -18 39z" />
<glyph unicode="4" horiz-adv-x="972" d="M61 375q0 33 19 61l532 815q16 23 34 31t38 8q16 0 29.5 -3t17.5 -7q10 -10 10 -39v-790h142q16 0 22 -7q6 -6 6 -22q0 -8 -1 -23.5t-5 -25.5t-8 -20.5t-8 -14.5t-9.5 -5t-15.5 -1h-123v-357q0 -23 -10 -32q-6 -4 -17.5 -8.5t-39.5 -4.5q-29 0 -39 4.5t-17 8.5 q-10 10 -10 32v357h-508q-23 0 -28 6q-4 4 -7.5 11t-3.5 26zM223 451h385v598z" />
<glyph unicode="5" horiz-adv-x="987" d="M100 -4q0 23 5.5 38t23.5 23q14 4 35.5 3t58.5 -1q59 0 137 12.5t148 49.5t118 102.5t48 171.5q0 139 -97.5 215t-322.5 76h-27q-29 0 -39 4t-16 8q-10 10 -10 33l22 477q0 35 13 47q6 6 18 10.5t41 4.5h522q16 0 25 -8q4 -4 5 -9.5t1 -19.5q0 -16 -2 -31.5t-4 -23.5 q-6 -27 -17 -33q-10 -6 -28 -6h-455l-14 -334q158 0 260 -32t162.5 -86t84 -125.5t23.5 -151.5q0 -139 -58.5 -231.5t-148.5 -148t-196.5 -78t-202.5 -22.5q-72 0 -92 11q-20 12 -21 55z" />
<glyph unicode="6" horiz-adv-x="976" d="M84 436q0 115 27.5 219.5t70.5 196.5t94.5 170t98.5 136.5t84 95t49 49.5q23 20 38 28t58 8q39 0 45 -2t13 -6q8 -6 8 -16q0 -6 -5.5 -15.5t-23.5 -25.5q-39 -35 -87 -84t-98 -114.5t-99.5 -150.5t-88.5 -192q47 45 111.5 73t146.5 28q141 0 242 -89q61 -53 97 -136.5 t36 -192.5q0 -96 -31.5 -177t-87 -138.5t-130 -89t-160.5 -31.5q-88 0 -163 30.5t-129.5 89t-85 143.5t-30.5 193zM217 408q0 -61 17.5 -119t52.5 -102t86 -69.5t116 -25.5q66 0 116 25.5t85 69.5t53.5 102t18.5 119q0 63 -17.5 120.5t-51.5 100.5t-85 67.5t-119 24.5 q-66 0 -115.5 -25.5t-84.5 -68.5t-53.5 -99.5t-18.5 -119.5z" />
<glyph unicode="7" horiz-adv-x="980" d="M49 1178q0 16 2 30.5t4 22.5q6 27 17 33q8 6 28 6h693q27 0 36 -10q4 -6 8.5 -16.5t4.5 -33.5t-4 -37t-11 -32l-395 -1164q-4 -10 -7 -18t-9 -14t-19.5 -10.5t-40.5 -4.5q-31 0 -43 3.5t-16 7.5q-6 6 -6 16q0 6 2 15.5t6 19.5l401 1149h-620q-16 0 -25 8q-4 4 -5 9t-1 20 z" />
<glyph unicode="8" horiz-adv-x="976" d="M74 356q0 106 51 190.5t156 137.5q-86 51 -125 125t-39 162q0 72 28.5 131t78.5 101t118 64.5t145 22.5q78 0 145.5 -22.5t118 -64.5t79 -101.5t28.5 -130.5q0 -88 -39 -162t-125 -125q104 -53 155.5 -137.5t51.5 -190.5q0 -84 -31.5 -153.5t-87 -118.5t-131.5 -76.5 t-164 -27.5t-163.5 27.5t-131 76.5t-87 118.5t-31.5 153.5zM213 356q0 -117 72.5 -191.5t201.5 -74.5t202 74.5t73 191.5q0 115 -73 190t-202 75t-201.5 -75t-72.5 -190zM246 956q0 -96 64.5 -159.5t176.5 -63.5q113 0 177.5 63.5t64.5 159.5t-64.5 160t-177.5 64 t-177 -63.5t-64 -160.5z" />
<glyph unicode="9" horiz-adv-x="976" d="M76 854q0 96 31.5 177t87 138.5t130 89t160.5 31.5q88 0 163 -30.5t129 -89t85 -143t31 -193.5q0 -115 -27.5 -219.5t-70.5 -196.5t-94.5 -170t-98.5 -136.5t-84 -95t-49 -49.5q-23 -20 -38 -28.5t-58 -8.5q-39 0 -47.5 2t-14.5 7q-8 6 -8 16q0 6 5 15.5t24 25.5 q39 35 88 84t101 114.5t101.5 150.5t86.5 192q-47 -45 -112 -73t-146 -28q-141 0 -242 88q-61 53 -97 137t-36 193zM213 862q0 -66 17.5 -122t51 -99t85 -67.5t118.5 -24.5q63 0 114.5 25.5t86.5 68.5t53.5 99.5t18.5 119.5q0 61 -17.5 118.5t-52.5 101.5t-86 70t-117 26 t-116 -26t-84.5 -70t-53 -101t-18.5 -119z" />
<glyph unicode=":" horiz-adv-x="397" d="M96 86q0 43 30 72.5t73 29.5t72.5 -29.5t29.5 -72.5t-29.5 -72.5t-72.5 -29.5t-73 29.5t-30 72.5zM96 791q0 43 30 72.5t73 29.5t72.5 -29.5t29.5 -72.5t-29.5 -73t-72.5 -30t-73 30t-30 73z" />
<glyph unicode=";" horiz-adv-x="391" d="M55 -180q0 8 2 18t6 27l72 319q6 25 23.5 34t60.5 9q41 0 56.5 -8t15.5 -20q0 -14 -5 -27.5t-10 -30.5l-98 -311q-8 -25 -23.5 -30t-52.5 -5q-29 0 -38 7.5t-9 17.5zM109 791q0 43 29.5 72.5t72.5 29.5t72.5 -29.5t29.5 -72.5t-29.5 -73t-72.5 -30t-72.5 30t-29.5 73z " />
<glyph unicode="&#x3c;" horiz-adv-x="976" d="M70 633q0 37 7 57.5t34 30.5l727 307q16 8 22 9t17 1q14 0 22 -11t8 -52q0 -39 -6 -51.5t-29 -22.5l-643 -268l643 -262q23 -10 29 -22.5t6 -51.5q0 -41 -8 -52.5t-22 -11.5q-10 0 -16.5 1.5t-22.5 9.5l-727 303q-27 10 -34 30.5t-7 55.5z" />
<glyph unicode="=" horiz-adv-x="976" d="M72 473q0 29 4 39t8 14q10 10 33 11h743q23 0 33 -11q4 -4 8 -14t4 -39t-4 -38t-8 -13q-10 -10 -33 -10h-743q-23 0 -33 10q-4 4 -8 13t-4 38zM72 797q0 29 4 39t8 14q10 10 33 10h743q23 0 33 -10q4 -4 8 -14t4 -39t-4 -38t-8 -14q-10 -10 -33 -10h-743q-23 0 -33 10 q-4 4 -8 13.5t-4 38.5z" />
<glyph unicode="&#x3e;" horiz-adv-x="976" d="M70 297q0 39 6 51t28 23l644 262l-644 268q-23 10 -28.5 22.5t-5.5 51.5q0 41 8 52t22 11q10 0 16.5 -1t22.5 -9l727 -307q27 -10 34 -30.5t7 -57.5q0 -35 -7 -55.5t-34 -30.5l-727 -303q-16 -8 -22 -9.5t-17 -1.5q-14 0 -22 11.5t-8 52.5z" />
<glyph unicode="?" horiz-adv-x="905" d="M94 1303q0 10 8.5 21t38.5 22q53 20 99.5 27t117.5 7q92 0 166 -25.5t124 -72.5t77 -111.5t27 -140.5q0 -82 -19.5 -144.5t-59.5 -110.5t-100.5 -83t-142.5 -63v-209q0 -23 -10 -33q-6 -4 -17.5 -8t-40.5 -4t-39 4t-16 8q-10 10 -10 33v260q0 20 12 33q8 8 58 20 q139 37 193 108.5t54 182.5q0 47 -16 90t-48 77t-79 53.5t-111 19.5q-55 0 -92 -7.5t-63 -17.5q-18 -6 -32.5 -13t-27.5 -7q-27 0 -41 41q-10 31 -10 43zM262 86q0 43 30 72.5t73 29.5t72.5 -29.5t29.5 -72.5t-29.5 -72.5t-72.5 -29.5t-73 29.5t-30 72.5z" />
<glyph unicode="@" horiz-adv-x="1607" d="M106 457q0 143 51.5 275t146.5 234.5t229.5 164t302.5 61.5q158 0 281.5 -48t208.5 -131t130 -193.5t45 -235.5q0 -88 -18.5 -162t-59.5 -152q-29 -53 -66.5 -93t-80.5 -65.5t-88 -39t-88 -13.5q-49 0 -81 10.5t-49.5 28t-24.5 38t-9 42.5q-55 -55 -116.5 -87t-151.5 -32 q-63 0 -111.5 23.5t-81.5 62.5t-49 91.5t-16 111.5q0 74 15 135.5t50 132.5q23 45 60.5 89.5t88 77t115 53t140.5 20.5q117 0 185.5 -26.5t84.5 -38.5q10 -8 14 -18.5t0 -33.5l-88 -434q-4 -16 -5 -25.5t-3 -17.5q-2 -10 -2 -22q0 -41 25.5 -51.5t44.5 -10.5q45 0 88 32 t76.5 87t53 129t19.5 158q0 106 -37 195t-106.5 152.5t-168.5 98.5t-224 35q-152 0 -263.5 -53.5t-185.5 -140.5t-109.5 -195.5t-35.5 -218.5q0 -135 41 -247t118.5 -194t190.5 -126t256 -44q78 0 162 15.5t190 54.5q41 14 65.5 26.5t41.5 22.5q18 10 30 10q8 0 18.5 -6 t24.5 -28q10 -16 14.5 -27.5t4.5 -19.5q0 -6 -3 -13.5t-16 -17.5q-12 -10 -35.5 -22.5t-54.5 -26.5q-86 -39 -196.5 -67t-245.5 -28q-197 0 -337 64.5t-230.5 169t-132.5 237t-42 267.5zM551 360q0 -33 7 -64.5t26.5 -57t52.5 -41t82 -15.5t93 28t80 73t60.5 103t36.5 118 l39 190q-33 18 -69.5 29.5t-104.5 11.5q-94 0 -154.5 -48t-97.5 -118q-27 -47 -39 -107.5t-12 -101.5z" />
<glyph unicode="A" horiz-adv-x="1107" d="M10 20q0 12 8 37l447 1286q8 23 22.5 33t63.5 10q51 0 65.5 -10t22.5 -33l451 -1288q8 -25 8 -37q0 -10 -14.5 -18t-57.5 -8q-29 0 -45 4t-23 8q-10 8 -20 37l-121 352h-541l-118 -350q-10 -29 -21 -37q-6 -4 -20.5 -8t-42.5 -4q-37 0 -50.5 8t-13.5 18zM319 516h457 l-229 703z" />
<glyph unicode="B" horiz-adv-x="1214" d="M180 57v1258q0 31 13 43q6 6 18 10t41 4h383q201 0 302 -82t101 -233q0 -127 -49 -199t-129 -113q49 -14 94 -39.5t80 -68.5t55.5 -104.5t20.5 -147.5t-30.5 -156.5t-88 -121t-139.5 -79t-182 -28.5h-418q-29 0 -41 4t-18 10q-12 12 -13 43zM322 129h315q84 0 144.5 20.5 t98.5 56.5t56 85t18 106q0 53 -14 103.5t-53 88.5t-107.5 61.5t-177.5 23.5h-280v-545zM322 803h290q82 0 136.5 17.5t85 49t43 75.5t12.5 95q0 203 -260 203h-307v-440z" />
<glyph unicode="C" horiz-adv-x="1114" d="M106 684q0 172 46.5 305t126 225.5t186 139.5t227.5 47q129 0 205 -21.5t127 -46.5q23 -10 32 -18t9 -23q0 -8 -5 -23.5t-16 -33.5q-23 -43 -43 -43q-16 0 -38.5 13.5t-53.5 25.5q-33 12 -84 24.5t-133 12.5q-98 0 -177 -40t-134 -116t-85 -183.5t-30 -244.5t33 -244.5 t90 -182.5t136 -114t171 -39q125 0 213 35q41 16 64.5 29.5t40.5 13.5q23 0 43 -39q20 -35 20 -53q0 -14 -9 -22.5t-30 -18.5q-12 -6 -41.5 -19.5t-74.5 -26.5t-105.5 -22.5t-132.5 -9.5q-119 0 -223.5 47.5t-183 137.5t-125 223t-46.5 305z" />
<glyph unicode="D" horiz-adv-x="1333" d="M180 57v1258q0 31 13 43q6 6 18 10t41 4h387q133 0 241.5 -44t185.5 -130t119 -213t42 -295t-42 -297t-119 -216t-186.5 -132t-244.5 -45h-383q-29 0 -41 4t-18 10q-12 12 -13 43zM326 129h313q215 0 321.5 148.5t106.5 412.5t-108.5 408.5t-331.5 144.5h-301v-1114z" />
<glyph unicode="E" horiz-adv-x="1036" d="M180 57v1258q0 31 13 43q6 6 18 10t41 4h706q16 0 25 -8q4 -4 5 -9t1 -20q0 -16 -2 -31.5t-4 -23.5q-6 -27 -16 -33t-29 -6h-612v-428h540q16 0 25 -8q4 -4 5 -9t1 -20q0 -16 -2 -31.5t-4 -23.5q-6 -27 -17 -33q-10 -6 -28 -6h-520v-551h643q16 0 24 -8q4 -4 5 -9.5 t1 -19.5q0 -16 -2 -31.5t-4 -23.5q-6 -27 -16 -33t-29 -6h-696q-29 0 -41 4t-18 10q-12 12 -13 43z" />
<glyph unicode="F" horiz-adv-x="978" d="M180 37v1278q0 31 13 43q6 6 18 10t41 4h686q16 0 25 -8q4 -4 5 -9.5t1 -19.5q0 -16 -2 -31.5t-4 -23.5q-6 -27 -17 -33q-10 -6 -28 -6h-592v-428h520q16 0 24 -8q4 -4 5.5 -9t1.5 -20q0 -16 -2.5 -31.5t-4.5 -23.5q-6 -27 -16 -33t-29 -6h-499v-645q0 -25 -13 -33 q-6 -4 -19 -8t-42 -4t-42 4t-20 8q-10 8 -10 33z" />
<glyph unicode="G" horiz-adv-x="1277" d="M106 686q0 172 46.5 305t127 224.5t192.5 138.5t241 47t214 -21.5t132 -44.5q23 -10 32 -18t9 -23q0 -8 -4 -23.5t-15 -35.5q-23 -41 -43 -41q-16 0 -38.5 11.5t-53.5 21.5t-85 25.5t-150 15.5q-217 0 -331 -156t-114 -430q0 -137 35 -245.5t95.5 -183.5t144.5 -114 t182 -39q100 0 164.5 12.5t109.5 30.5v416h-266q-16 0 -24 8q-4 4 -5.5 9.5t-1.5 19.5q0 16 2.5 31.5t4.5 23.5q6 27 16 33q8 6 29 6h319q29 0 41 -4t18 -10q12 -12 13 -43v-516q0 -33 -11.5 -48.5t-44.5 -31.5q-29 -14 -121 -40t-257 -26q-131 0 -242 47.5t-190.5 138.5 t-125 224t-45.5 305z" />
<glyph unicode="H" horiz-adv-x="1337" d="M180 37v1298q0 25 10 33q6 4 19.5 8t42.5 4t42 -4t19 -8q12 -10 13 -33v-526h686v526q0 25 10 33q6 4 19.5 8t41.5 4q29 0 42.5 -4t19.5 -8q12 -10 12 -33v-1298q0 -25 -12 -33q-6 -4 -19.5 -8t-42.5 -4t-42 4t-19 8q-10 8 -10 33v643h-686v-643q0 -25 -13 -33 q-6 -4 -19 -8t-42 -4t-42 4t-20 8q-10 8 -10 33z" />
<glyph unicode="I" horiz-adv-x="505" d="M180 37v1298q0 25 10 33q6 4 19.5 8t42.5 4t42 -4t19 -8q12 -10 13 -33v-1298q0 -25 -13 -33q-6 -4 -19 -8t-42 -4t-42 4t-20 8q-10 8 -10 33z" />
<glyph unicode="J" horiz-adv-x="923" d="M23 86q0 4 2 15.5t18 37.5q16 27 25.5 33t17.5 6q12 0 29 -10q14 -12 39 -25q16 -10 62 -28.5t128 -18.5t134 27t82 74t40 114.5t10 149.5v874q0 23 13 33q6 4 18 8t41 4t42 -4t19 -8q12 -10 13 -33v-903q0 -113 -24.5 -204t-88.5 -154q-45 -45 -113.5 -74t-171.5 -29 q-70 0 -124 10.5t-93 23.5t-63.5 27.5t-34.5 22.5q-12 10 -16 17.5t-4 13.5z" />
<glyph unicode="K" horiz-adv-x="1136" d="M180 37v1298q0 25 10 33q6 4 19.5 8t42.5 4t42 -4t19 -8q12 -10 13 -33v-577l579 588q20 20 42 27t67 7q29 0 42 -1t21 -5q10 -6 10 -16q0 -16 -22 -39l-590 -592l643 -676q19 -19 19 -33q0 -10 -9 -16q-14 -10 -86 -10q-45 0 -68.5 8t-39.5 25l-608 649v-637 q0 -25 -13 -33q-6 -4 -19 -8t-42 -4t-42 4t-20 8q-10 8 -10 33z" />
<glyph unicode="L" horiz-adv-x="980" d="M180 57v1278q0 25 10 33q6 4 19.5 8t42.5 4t42 -4t19 -8q12 -10 13 -33v-1204h614q16 0 25 -8q4 -4 5 -9.5t1 -19.5q0 -16 -2 -31.5t-4 -23.5q-6 -27 -17 -33q-10 -6 -28 -6h-668q-29 0 -41 4t-18 10q-12 12 -13 43z" />
<glyph unicode="M" horiz-adv-x="1511" d="M113 1352q0 12 18.5 20t65.5 8t70.5 -6t37.5 -28l453 -723l422 727q10 16 26.5 23t48.5 7q31 0 44.5 -4t19.5 -8q12 -10 12 -33v-1298q0 -25 -12 -33q-6 -4 -18.5 -8t-40.5 -4q-29 0 -41.5 4t-18.5 8q-10 8 -10 33v1104l-340 -598q-18 -29 -37 -41q-4 -4 -17.5 -7 t-43.5 -3q-31 0 -44.5 3t-17.5 7q-18 12 -37 41l-340 555v-1061q0 -25 -12 -33q-6 -4 -18.5 -8t-40.5 -4q-29 0 -41.5 4t-18.5 8q-10 8 -10 33v1214l-41 60q-8 12 -13 21t-5 20z" />
<glyph unicode="N" horiz-adv-x="1265" d="M113 1352q0 12 14 20t61 8t66.5 -6t34.5 -28l657 -1088v1077q0 25 10 33q6 4 18.5 8t41.5 4t40 -4t17 -8q12 -10 12 -33v-1298q0 -25 -12 -33q-6 -4 -20.5 -8t-42.5 -4q-33 0 -48.5 9t-27.5 30l-629 1040v-1034q0 -25 -12 -33q-6 -4 -18.5 -8t-41.5 -4t-40 4t-17 8 q-10 8 -10 33v1218l-35 56q-8 12 -13 21t-5 20z" />
<glyph unicode="O" horiz-adv-x="1370" d="M106 684q0 172 43.5 305t121 225.5t183 139.5t232.5 47q125 0 231.5 -47t183.5 -139.5t120 -225.5t43 -305t-43 -305t-120 -223t-183.5 -137.5t-231.5 -47.5q-127 0 -232.5 47.5t-183 137.5t-121 223t-43.5 305zM266 684q0 -272 109.5 -429t310.5 -157q98 0 176 41 t132.5 117t82 184.5t27.5 243.5t-27.5 244.5t-82 186.5t-132.5 118t-176 41q-100 0 -178 -41t-132 -118t-82 -186.5t-28 -244.5z" />
<glyph unicode="P" horiz-adv-x="1118" d="M180 37v1278q0 31 13 43q6 6 18 10t41 4h321q231 0 352.5 -92.5t121.5 -278.5q0 -84 -27 -158.5t-84 -130t-149.5 -88t-221.5 -32.5q-68 0 -129 2t-114 4v-561q0 -25 -13 -33q-6 -4 -18 -8t-41 -4t-41 4t-19 8q-10 8 -10 33zM322 723q92 -6 235 -6q166 0 250 75.5 t84 206.5q0 125 -84 186.5t-242 61.5h-243v-524z" />
<glyph unicode="Q" horiz-adv-x="1370" d="M106 684q0 172 43.5 305t121 225.5t183 139.5t232.5 47q125 0 231.5 -47t183.5 -139.5t120 -225.5t43 -305q0 -270 -102.5 -442t-276.5 -236l295 -242q16 -12 20 -20t4 -14q0 -16 -20 -23q-10 -4 -25.5 -5t-46.5 -1q-45 0 -72.5 7t-48.5 26l-264 239q-6 -2 -18.5 -2 h-22.5q-127 0 -232.5 47.5t-183 137.5t-121 223t-43.5 305zM266 684q0 -272 109.5 -429t310.5 -157q98 0 176 41t132.5 117t82 184.5t27.5 243.5t-27.5 244.5t-82 186.5t-132.5 118t-176 41q-100 0 -178 -41t-132 -118t-82 -186.5t-28 -244.5z" />
<glyph unicode="R" horiz-adv-x="1157" d="M180 37v1278q0 31 13 43q6 6 18 10t41 4h334q236 0 344 -95t108 -276q0 -70 -15 -130t-52 -110t-96.5 -89t-147.5 -64l387 -561q10 -16 10 -24q0 -12 -12 -21q-6 -4 -22.5 -7t-55.5 -3q-45 0 -61.5 7t-30.5 28l-371 565q-78 0 -138 1t-111 5v-561q0 -25 -13 -33 q-6 -4 -18 -8t-41 -4t-41 4t-19 8q-10 8 -10 33zM322 725q45 -2 104 -5t119 -3q182 0 260 71.5t78 200.5q0 123 -73 190.5t-232 67.5h-256v-522z" />
<glyph unicode="S" horiz-adv-x="1069" d="M70 123q0 18 24 61q20 37 37 37q6 0 14.5 -2t22.5 -12q74 -47 151.5 -74t192.5 -27q63 0 122.5 13.5t103.5 42t71 76t27 112.5q0 113 -70 171.5t-219 101.5l-98 28q-68 20 -132.5 47t-115.5 68t-82 101.5t-31 148.5q0 178 114.5 281.5t325.5 103.5q84 0 138.5 -10.5 t93.5 -20.5q59 -16 102 -37q31 -14 37 -24.5t6 -16.5q0 -8 -4 -23.5t-12 -31.5q-20 -39 -37 -39q-10 0 -19.5 3t-17.5 7q-10 4 -50 21.5t-75 25.5q-29 6 -65.5 12.5t-96.5 6.5q-147 0 -222 -67.5t-75 -174.5q0 -53 21.5 -91t59.5 -66.5t91.5 -50t118.5 -40.5l113 -32 q84 -25 150.5 -55.5t113.5 -78.5q45 -45 67.5 -102t22.5 -139q0 -203 -123 -304.5t-352 -101.5q-76 0 -138.5 11.5t-113.5 27t-88 33.5t-59 33q-29 18 -37 27.5t-8 19.5z" />
<glyph unicode="T" horiz-adv-x="1056" d="M10 1282q0 10 1 26.5t5 28.5q6 23 17 29q8 6 28 6h955q16 0 24 -8q7 -7 7 -27q0 -10 -1.5 -26.5t-5.5 -28.5q-6 -23 -16 -29t-29 -6h-391v-1210q0 -25 -12 -33q-6 -4 -19.5 -8t-42.5 -4t-42 4t-19 8q-10 8 -10 33v1210h-418q-16 0 -25 8q-6 6 -6 27z" />
<glyph unicode="U" horiz-adv-x="1314" d="M168 422v913q0 25 10 33q6 4 19.5 8t42.5 4t42 -4t19 -8q12 -10 12 -33v-915q0 -154 84 -235t260 -81t260 81t84 235v915q0 25 11 33q6 4 19 8t42 4t42 -4t20 -8q12 -10 12 -33v-913q0 -98 -25.5 -181t-84 -142.5t-151.5 -93.5t-229 -34q-135 0 -228 34t-151.5 93.5 t-84 142.5t-25.5 181z" />
<glyph unicode="V" horiz-adv-x="1107" d="M10 1354q0 10 13.5 19t54.5 9q31 0 47 -4t22 -8q10 -8 21 -37l391 -1143l389 1141q10 29 21 37q6 4 20.5 8t42.5 4q37 0 51.5 -9t14.5 -19t-8 -35l-447 -1286q-8 -23 -22.5 -33t-63.5 -10q-51 0 -65.5 10t-22.5 33l-451 1288q-8 25 -8 35z" />
<glyph unicode="W" horiz-adv-x="1574" d="M10 1350q0 12 13.5 21t54.5 9q31 0 45 -4t20 -8q14 -10 21 -37l301 -1136l264 950l-43 155q-4 18 -7 29.5t-3 18.5q0 12 13 22t54 10q31 0 45.5 -4t20.5 -8q14 -10 22 -43l299 -1130l285 1138q6 27 21 37q6 4 20 7t43 3q37 0 51.5 -7t14.5 -21q0 -12 -9 -43l-342 -1280 q-6 -23 -21 -33t-65 -10q-51 0 -66 10t-22 33l-247 886l-248 -886q-6 -23 -21.5 -33t-64.5 -10q-51 0 -66.5 10t-21.5 33l-353 1280q-4 12 -6 23t-2 18z" />
<glyph unicode="X" horiz-adv-x="1069" d="M23 16q0 4 1 10.5t11 22.5l420 647l-389 613q-10 16 -15.5 25t-5.5 20q0 12 10 18q6 4 20.5 6t43.5 2q35 0 53 -6t29 -22l338 -533l344 533q10 16 25.5 22t49.5 6q45 0 58 -8q10 -6 10 -16q0 -4 -1 -10.5t-11 -22.5l-400 -616l412 -644q10 -16 15.5 -25.5t5.5 -19.5 q0 -12 -11 -18q-6 -4 -21.5 -6t-43.5 -2q-35 0 -55.5 6t-30.5 22l-355 562l-360 -562q-10 -16 -26.5 -22t-51.5 -6q-47 0 -59 8q-6 4 -8 8t-2 8z" />
<glyph unicode="Y" horiz-adv-x="1058" d="M10 1354q0 12 10 18q6 4 19.5 6t42.5 2q35 0 51.5 -6t26.5 -22l372 -631l373 631q10 16 25.5 22t50.5 6q45 0 57 -8q11 -6 11 -16q0 -4 -1 -10.5t-12 -22.5l-438 -733v-553q0 -25 -12 -33q-6 -4 -19.5 -8t-42.5 -4t-42 4t-19 8q-10 8 -10 33v553l-420 719 q-10 16 -16.5 25t-6.5 20z" />
<glyph unicode="Z" horiz-adv-x="962" d="M27 66q0 29 6 47t22 43l697 1085h-684q-16 0 -25 8q-4 4 -5 9.5t-1 19.5q0 16 2 31.5t4 23.5q6 27 16 33q8 6 29 6h784q25 0 37 -12q10 -10 11 -53q0 -29 -6.5 -47.5t-22.5 -42.5l-696 -1086h714q16 0 25 -8q4 -4 5 -9.5t1 -19.5q0 -16 -2 -31.5t-4 -23.5q-6 -27 -16 -33 t-29 -6h-815q-25 0 -37 12q-10 10 -10 54z" />
<glyph unicode="[" horiz-adv-x="585" d="M180 -336v1651q0 31 13 43q6 6 18 10t41 4h248q23 0 30 -8q4 -6 7.5 -15.5t3.5 -33.5q0 -25 -3 -34t-8 -15q-8 -8 -30 -9h-187v-1536h187q23 0 30 -8q4 -6 7.5 -15t3.5 -34t-3 -34t-8 -15q-8 -8 -30 -8h-248q-29 0 -41 4t-18 10q-12 12 -13 43z" />
<glyph unicode="\" horiz-adv-x="602" d="M10 1348q0 10 10.5 17t45.5 7q31 0 45 -3t22 -26l449 -1277q4 -10 7 -21.5t3 -19.5q0 -10 -10.5 -17.5t-44.5 -7.5q-31 0 -45.5 3t-22.5 26l-449 1278q-4 10 -7 21t-3 20z" />
<glyph unicode="]" horiz-adv-x="585" d="M45 -340q0 25 3 35t5 12q4 4 9.5 4h15.5h194v1557h-194h-15.5t-9.5 4q-2 2 -5 12t-3 35q0 27 3 36t5 13q4 4 9.5 4h15.5h258q41 0 51 -4t12 -6q6 -6 7 -29v-1687q0 -23 -7 -29q-2 -2 -12 -6t-51 -4h-258h-15.5t-9.5 4q-2 4 -5 13t-3 36z" />
<glyph unicode="^" horiz-adv-x="972" d="M147 573q0 10 3.5 18.5t9.5 22.5l250 617q10 27 29.5 33t47.5 6q29 0 48.5 -6.5t29.5 -32.5l250 -617q6 -14 9 -22.5t3 -18.5t-10 -17t-49 -7t-52.5 6t-21.5 29l-205 524l-208 -524q-10 -23 -22.5 -29t-51.5 -6t-49.5 7t-10.5 17z" />
<glyph unicode="_" d="M0 -238h1024v-102h-1024v102z" />
<glyph unicode="`" horiz-adv-x="1093" d="M383 1323q0 14 14.5 21.5t53.5 7.5t64.5 -7.5t39.5 -31.5l135 -234q8 -14 13.5 -25.5t5.5 -19.5q0 -10 -10.5 -16t-43.5 -6q-25 0 -36 3t-19 7q-8 6 -15 14t-14 17l-147 200q-20 29 -30.5 44.5t-10.5 25.5z" />
<glyph unicode="a" horiz-adv-x="903" d="M63 246q0 147 84 214.5t238 82.5l252 22v31q0 94 -51 150.5t-168 56.5q-76 0 -132.5 -18.5t-101.5 -45.5q-10 -6 -17 -9t-20 -3q-23 0 -36 39q-8 16 -10.5 24.5t-2.5 16.5q0 10 9.5 19.5t33.5 21.5q59 29 122 47t163 18q178 0 264 -92q41 -41 60.5 -103.5t19.5 -158.5 v-389q0 -41 8 -68.5t13 -40.5q8 -20 8 -30q0 -12 -13.5 -21.5t-25.5 -13.5q-27 -10 -53 -10q-18 0 -31 18q-12 20 -21 49q-4 16 -7 25.5t-7 25.5q-59 -66 -131 -95t-166 -29q-55 0 -106.5 15t-89 47t-61.5 82t-24 122zM199 254q0 -88 47 -127t112 -39q33 0 81 10.5t92 41 t75 86t31 145.5v90l-227 -23q-104 -10 -157.5 -53t-53.5 -131z" />
<glyph unicode="b" horiz-adv-x="1038" d="M143 37v1280q0 29 13 41q4 4 15 7t28 7q16 4 25 6t20 2q18 0 24 -6q8 -6 8 -28v-578q47 72 122 108.5t167 36.5t164 -33.5t120 -93t72.5 -142.5t24.5 -183q0 -111 -27.5 -200t-79 -151.5t-123 -96t-157.5 -33.5q-115 0 -181.5 40.5t-111.5 106.5v-90q0 -23 -10 -33 q-4 -4 -14.5 -8t-38.5 -4q-29 0 -37 4t-12 8q-10 10 -11 33zM266 455q0 -72 15.5 -137.5t48 -114.5t83 -78t119.5 -29q72 0 123.5 30t85 79t49 113.5t15.5 136.5q0 68 -15.5 129t-47 109t-83 76t-124.5 28q-70 0 -121.5 -31t-84 -80t-48 -109.5t-15.5 -121.5z" />
<glyph unicode="c" horiz-adv-x="796" d="M92 446q0 102 29 188.5t82 148t126.5 96t166.5 34.5q68 0 108.5 -10t75.5 -24q47 -18 59.5 -31.5t12.5 -24.5q0 -10 -5.5 -22.5t-9.5 -26.5q-8 -16 -16 -27.5t-25 -11.5q-12 0 -25.5 6.5t-31.5 16.5q-31 14 -62.5 24.5t-84.5 10.5q-59 0 -107.5 -27t-83.5 -74 t-53.5 -109.5t-18.5 -136.5q0 -152 69 -247t189 -95q49 0 81 9.5t61 23.5q23 10 38 20.5t31 10.5t24.5 -11.5t16.5 -25.5q8 -10 14.5 -22.5t6.5 -22.5t-9.5 -20.5t-39.5 -26.5q-41 -23 -95.5 -41t-130.5 -18q-80 0 -151.5 27.5t-125.5 85t-85 145.5t-31 208z" />
<glyph unicode="d" horiz-adv-x="1038" d="M92 444q0 104 25.5 190.5t75 149t121 96t163.5 33.5q188 0 285 -137v541q0 29 12 41q4 4 15.5 8t27.5 8q31 6 45 6q18 0 25 -6q8 -8 8 -28v-1309q0 -23 -10 -33q-4 -4 -12.5 -8t-36.5 -4q-29 0 -39.5 4t-14.5 8q-10 10 -10 33v90q-45 -66 -111.5 -106.5t-181.5 -40.5 q-86 0 -157.5 32.5t-123 93t-79 146.5t-27.5 192zM233 455q0 -72 15.5 -136.5t49.5 -113.5t85 -79t123 -30q70 0 120 29t82.5 78t48 114.5t15.5 137.5q0 61 -15.5 121.5t-48 109.5t-84 80t-120.5 31q-74 0 -125 -28t-83 -76t-47.5 -109.5t-15.5 -128.5z" />
<glyph unicode="e" horiz-adv-x="944" d="M92 449q0 106 29 192t81 146.5t123.5 93t157.5 32.5q180 0 278.5 -117.5t98.5 -326.5q0 -55 -69 -55h-562q10 -141 85 -223t192 -82q53 0 87 6t69 16q27 10 51 22.5t41 12.5q20 0 39 -35q8 -16 13 -26.5t5 -20.5t-7 -20.5t-38 -26.5q-43 -23 -107.5 -40t-156.5 -17 t-167 32.5t-129 94t-84 147.5t-30 195zM229 522h486q-4 133 -67.5 208t-168.5 75q-106 0 -168.5 -74t-81.5 -209z" />
<glyph unicode="f" horiz-adv-x="616" d="M23 807q0 8 1 22.5t5 24.5t8 19.5t8 13.5q8 6 25 6h112v158q0 145 73 237t226 92q55 0 97.5 -8t74.5 -20q35 -12 44.5 -21.5t9.5 -19.5q0 -8 -1 -17.5t-10 -29.5q-10 -23 -17 -29t-17 -6t-27 6t-33 10q-18 6 -45 12.5t-59 6.5q-57 0 -93 -19.5t-55.5 -51.5t-27 -73 t-7.5 -84v-143h250q16 0 23 -6q6 -6 6 -23q0 -8 -1 -22.5t-5 -24.5q-8 -27 -17 -33q-4 -4 -9 -5t-15 -1h-232v-741q0 -23 -10 -33q-6 -4 -17.5 -8t-39.5 -4q-29 0 -39 4t-16 8q-10 10 -11 33v741h-131q-16 0 -22 6t-6 23z" />
<glyph unicode="g" horiz-adv-x="901" d="M70 -150q0 86 44 140.5t126 95.5q-90 49 -90 133q0 39 24.5 78t77.5 63q-68 35 -112 96.5t-44 151.5q0 61 24.5 114.5t71 92.5t112 61.5t149.5 22.5q70 0 123 -13.5t96 -39.5q25 35 64.5 68.5t70.5 50.5q12 6 20.5 10t18.5 4t19 -6t20 -23q20 -33 20 -47q0 -16 -16 -26 q-18 -10 -36.5 -19.5t-35.5 -19.5q-16 -10 -33.5 -23.5t-33.5 -30.5q27 -35 42 -78.5t15 -97.5q0 -61 -25.5 -114.5t-71.5 -92.5t-110.5 -60.5t-142.5 -21.5q-25 0 -52.5 4.5t-50.5 8.5q-29 -10 -51 -33t-22 -53q0 -35 30.5 -56.5t116.5 -37.5l143 -25q164 -29 240 -88 t76 -170q0 -133 -111.5 -204t-308.5 -71t-297 74t-100 182zM199 -129q0 -47 22.5 -80t61.5 -53.5t89 -30.5t103 -10q51 0 99.5 8t86 27.5t60 49.5t22.5 73q0 72 -48 103.5t-124 45.5l-176 33q-6 2 -25.5 4t-29.5 6q-53 -23 -97 -66.5t-44 -109.5zM225 608q0 -86 58.5 -138 t169.5 -52q106 0 165.5 53t59.5 137q0 86 -57.5 139.5t-165.5 53.5q-111 0 -170.5 -53.5t-59.5 -139.5z" />
<glyph unicode="h" d="M143 37v1280q0 29 13 41q10 10 43 16t47 6q16 0 22 -6q8 -8 8 -28v-578q41 63 118 104t175 41q82 0 142.5 -24.5t99.5 -68.5t57.5 -104.5t18.5 -133.5v-545q0 -23 -10 -33q-6 -4 -17.5 -8t-40.5 -4t-39 4t-16 8q-10 10 -10 33v522q0 240 -217 240q-53 0 -101.5 -22.5 t-83.5 -60.5t-55.5 -87t-20.5 -103v-489q0 -23 -10 -33q-6 -4 -17 -8t-40 -4t-39 4t-16 8q-10 10 -11 33z" />
<glyph unicode="i" horiz-adv-x="415" d="M121 1229q0 37 25.5 64.5t60.5 27.5t62.5 -26.5t27.5 -65.5q0 -37 -26.5 -63.5t-61.5 -26.5t-61.5 25.5t-26.5 64.5zM141 37v805q0 29 13 41q4 4 15 8t28 8q31 6 45 6q18 0 24 -6q8 -8 8 -29v-833q0 -23 -10 -33q-6 -4 -17 -8t-40 -4t-39 4t-16 8q-10 10 -11 33z" />
<glyph unicode="j" horiz-adv-x="423" d="M-166 -352q0 16 8 39q4 14 12.5 28.5t24.5 14.5q12 0 22.5 -3t24.5 -8q12 -4 28.5 -6t39.5 -2t57.5 10.5t59.5 45.5q18 27 28.5 68.5t10.5 115.5v891q0 29 12 41q4 4 15 8t28 8q31 6 45 6q18 0 24 -6q8 -8 9 -29v-911q0 -88 -9.5 -138t-31.5 -97q-29 -57 -89.5 -93.5 t-144.5 -36.5q-74 0 -107.5 10.5t-47.5 18.5q-18 10 -19 25zM129 1229q0 37 25.5 64.5t60.5 27.5t62.5 -26.5t27.5 -65.5q0 -37 -26.5 -63.5t-61.5 -26.5t-61.5 25.5t-26.5 64.5z" />
<glyph unicode="k" horiz-adv-x="884" d="M143 37v1280q0 29 13 41q4 4 15 8t28 8q31 6 45 6q18 0 24 -6q8 -8 8 -28v-809l379 335q16 14 31.5 21.5t61.5 7.5q35 0 47 -2t16 -6q8 -6 8 -14q0 -6 -4 -15.5t-20 -23.5l-381 -338l446 -447q16 -16 20.5 -23.5t4.5 -13.5q0 -10 -11 -16q-8 -4 -23 -6t-58 -2 q-41 0 -58.5 8t-32.5 23l-426 440v-428q0 -23 -10 -33q-6 -4 -17 -8t-40 -4t-39 4t-16 8q-10 10 -11 33z" />
<glyph unicode="l" horiz-adv-x="419" d="M143 37v1280q0 29 13 41q4 4 15 8t28 8q31 6 45 6q18 0 24 -6q8 -8 8 -28v-1309q0 -23 -10 -33q-6 -4 -17 -8t-40 -4t-39 4t-16 8q-10 10 -11 33z" />
<glyph unicode="m" horiz-adv-x="1536" d="M143 37v805q0 27 13 39q8 8 43 18q31 6 45 6q18 0 24 -6q8 -8 8 -29v-98q41 61 109 101t158 40q104 0 167.5 -45t96.5 -123q51 82 129 125t166 43q80 0 137 -24.5t92 -67.5t51.5 -101t16.5 -126v-557q0 -23 -10 -33q-6 -4 -17.5 -8t-40.5 -4t-39 4t-16 8q-10 10 -10 33 v532q0 111 -42 170.5t-149 59.5q-49 0 -92 -23.5t-76 -60.5t-51 -84t-18 -96v-498q0 -23 -11 -33q-6 -4 -17 -8t-40 -4t-39 4t-16 8q-10 10 -10 33v532q0 111 -43.5 170.5t-147.5 59.5q-51 0 -94 -23.5t-75 -60.5t-50.5 -84t-18.5 -96v-498q0 -23 -10 -33q-6 -4 -17 -8 t-40 -4t-39 4t-16 8q-10 10 -11 33z" />
<glyph unicode="n" d="M143 37v805q0 29 13 41q4 4 15 8t28 8q31 6 45 6q18 0 24 -6q8 -8 8 -29v-102q41 63 118 104t175 41q82 0 142.5 -24.5t99.5 -68.5t57.5 -104.5t18.5 -133.5v-545q0 -23 -10 -33q-6 -4 -17.5 -8t-40.5 -4t-39 4t-16 8q-10 10 -10 33v522q0 240 -217 240 q-53 0 -101.5 -22.5t-83.5 -60.5t-55.5 -87t-20.5 -103v-489q0 -23 -10 -33q-6 -4 -17 -8t-40 -4t-39 4t-16 8q-10 10 -11 33z" />
<glyph unicode="o" horiz-adv-x="1013" d="M92 446q0 106 31 192.5t86 148t131 94t166 32.5t166 -32.5t131 -94t87 -148t32 -192.5t-32 -192t-87 -147.5t-131 -94t-166 -32.5t-166 32.5t-131 94t-86 147.5t-31 192zM229 446q0 -72 17.5 -135t53.5 -111t87 -77t119 -29t120 29t88 77t53 111t17 135t-17 135.5 t-53 111.5t-88.5 77t-119.5 29q-68 0 -119 -29t-87 -77t-53.5 -111.5t-17.5 -135.5z" />
<glyph unicode="p" horiz-adv-x="1038" d="M143 -348v1190q0 29 13 41q4 4 15 8t28 8q31 6 45 6q18 0 24 -6q8 -8 8 -29v-102q47 72 122 108.5t167 36.5t164 -33.5t120 -93t72.5 -142.5t24.5 -183q0 -111 -27.5 -200t-79 -151.5t-123 -96t-157.5 -33.5q-111 0 -174 35.5t-109 95.5v-459q0 -23 -10 -33q-6 -4 -17 -8 t-40 -4t-39 4t-16 8q-10 10 -11 33zM266 455q0 -72 15.5 -137.5t48 -114.5t83 -78t119.5 -29q72 0 123.5 30t85 79t49 113.5t15.5 136.5q0 68 -15.5 129t-47 109t-83 76t-124.5 28q-70 0 -121.5 -31t-84 -80t-48 -109.5t-15.5 -121.5z" />
<glyph unicode="q" horiz-adv-x="1038" d="M92 444q0 104 25.5 190.5t75 149t121 96t163.5 33.5q98 0 170 -34.5t115 -96.5v74q0 23 10 33q6 4 16.5 8t38.5 4q29 0 40.5 -4t17.5 -8q10 -10 10 -33v-1204q0 -23 -10 -33q-6 -4 -17.5 -8t-40.5 -4t-39 4t-16 8q-10 10 -10 33v459q-45 -59 -109.5 -95t-175.5 -36 q-86 0 -157.5 32.5t-122 93t-78 146.5t-27.5 192zM233 455q0 -72 15.5 -136.5t49.5 -113.5t85 -79t123 -30q70 0 120 29t82.5 78t48 114.5t15.5 137.5q0 61 -15.5 121.5t-48 109.5t-84 80t-120.5 31q-74 0 -125 -28t-83 -76t-47.5 -109.5t-15.5 -128.5z" />
<glyph unicode="r" horiz-adv-x="669" d="M143 37v805q0 29 13 41q4 4 15 8t28 8q31 6 45 6q18 0 24 -6q8 -8 8 -29v-122q4 8 21.5 33.5t48.5 53t75 49t101 21.5q53 0 101 -20q47 -21 47 -41q0 -10 -3 -23.5t-10 -27.5q-8 -16 -17 -28.5t-22 -12.5q-10 0 -22 6t-25 10q-12 4 -30.5 9t-46.5 5q-43 0 -82 -26.5 t-70 -71.5t-48.5 -105.5t-17.5 -127.5v-414q0 -23 -10 -33q-6 -4 -17 -8t-40 -4t-39 4t-16 8q-10 10 -11 33z" />
<glyph unicode="s" horiz-adv-x="784" d="M51 88q0 10 2 17.5t10 23.5q10 16 18.5 27.5t24.5 11.5t35 -9t37 -18q23 -10 78 -28.5t133 -18.5q39 0 77 6t66.5 22.5t46 44.5t17.5 69q0 72 -47 104.5t-143 52.5l-80 17q-53 10 -100.5 28.5t-82 46t-56 68.5t-21.5 98q0 123 87 192.5t232 69.5q72 0 128 -10t114 -33 q29 -10 40 -19t11 -20q0 -8 -2 -18t-8 -27q-4 -10 -12.5 -23t-24.5 -13t-34.5 8t-47.5 16q-25 8 -69 18.5t-103 10.5q-80 0 -131 -34t-51 -105q0 -63 52 -93t128 -47l86 -18q61 -12 111.5 -30.5t86 -47.5t55 -73t19.5 -107q0 -129 -93 -198.5t-247 -69.5q-121 0 -193.5 24.5 t-103.5 40.5q-29 14 -37 23.5t-8 19.5z" />
<glyph unicode="t" horiz-adv-x="638" d="M23 807q0 8 1 22.5t5 24.5t8 19.5t8 13.5q8 6 25 6h112v231q0 29 13 41q4 4 15 8.5t28 8.5q31 6 45 6q18 0 24 -6q8 -8 8 -29v-260h248q16 0 23 -6q6 -6 6 -23q0 -8 -1 -22.5t-5 -24.5q-8 -27 -17 -33q-4 -4 -9 -5t-15 -1h-230v-547q0 -63 29 -99t86 -36q41 0 67.5 8.5 t43.5 18.5q27 14 37 14q8 0 17 -6t19 -27q10 -16 12.5 -24.5t2.5 -18.5q0 -16 -13.5 -25t-29.5 -18q-23 -12 -65 -25t-105 -13q-59 0 -102.5 16t-67.5 39q-35 31 -49.5 81t-14.5 130v532h-131q-16 0 -22 6t-6 23z" />
<glyph unicode="u" d="M137 311v545q0 23 10 33q6 4 17.5 8t40.5 4t39 -4t16 -8q10 -10 10 -33v-522q0 -240 217 -240q53 0 100.5 22.5t83.5 60.5t56.5 87t20.5 103v489q0 23 10 33q6 4 17 8t40 4t39 -4t16 -8q10 -10 11 -33v-819q0 -23 -11 -33q-4 -4 -12 -8t-37 -4t-39 4t-14 8q-10 10 -10 33 v98q-108 -155 -301 -155h-2q-82 0 -142.5 24.5t-99.5 68.5t-57.5 104.5t-18.5 133.5z" />
<glyph unicode="v" horiz-adv-x="827" d="M10 872q0 12 12.5 20.5t51.5 8.5q33 0 47 -4t20 -8q10 -8 27 -51l248 -676l256 690q8 27 22 37q6 4 17.5 8t44.5 4q39 0 50 -8.5t11 -20.5q0 -8 -16 -51l-309 -798q-8 -23 -28 -28t-50 -5q-31 0 -48.5 5t-25.5 25l-320 818q-4 6 -7 17t-3 17z" />
<glyph unicode="w" horiz-adv-x="1259" d="M10 872q0 12 10.5 20.5t49.5 8.5q33 0 46 -4t19 -8q12 -8 25 -51l207 -688l202 552l-34 103q-4 16 -11.5 36.5t-7.5 30.5q0 12 10.5 20.5t48.5 8.5q33 0 47.5 -4t20.5 -8q12 -8 25 -51l217 -682l223 696q10 29 20 37q6 4 17.5 8t42.5 4q39 0 50 -8.5t11 -20.5 q0 -10 -8 -34l-287 -815q-8 -23 -26.5 -28t-48.5 -5q-31 0 -49.5 5t-26.5 28l-178 524l-193 -524q-8 -23 -26.5 -28t-49.5 -5t-49 5t-26 28l-254 788q-4 16 -10.5 35.5t-6.5 25.5z" />
<glyph unicode="x" horiz-adv-x="823" d="M23 18q0 14 18 39l295 404l-266 375q-8 10 -13.5 19t-5.5 19t13.5 18.5t48.5 8.5q41 0 56 -6t26 -18l219 -316l223 316q10 12 24.5 18t53.5 6q35 0 48 -7t13 -17t-6 -19.5t-16 -21.5l-267 -369l295 -410q12 -16 15.5 -24.5t3.5 -14.5q0 -12 -14.5 -19t-51.5 -7t-54 7 t-32 26l-239 342l-246 -349q-10 -14 -26.5 -20t-53.5 -6t-49 8t-12 18z" />
<glyph unicode="y" horiz-adv-x="876" d="M10 870q0 31 72 31q35 0 49 -5t21 -19l303 -654l280 641q10 20 25.5 28.5t56.5 8.5q55 0 55 -31q0 -6 -4 -18t-8 -23l-530 -1200q-10 -23 -22.5 -29t-53.5 -6q-35 0 -48 6.5t-13 20.5q0 6 4 15.5t8 19.5l184 414l-364 759q-4 10 -9.5 20.5t-5.5 20.5z" />
<glyph unicode="z" horiz-adv-x="743" d="M33 59q0 25 5 37.5t19 28.5l498 653h-473q-16 0 -23 6q-6 6 -6 23q0 8 1 22.5t5 24.5t8.5 19.5t8.5 13.5q8 6 24 6h572q27 0 35 -8q4 -4 8 -16.5t4 -34.5q0 -25 -4 -36.5t-10 -21.5l-502 -661h508q16 0 22 -6q6 -7 6 -23q0 -8 -1 -22.5t-5 -24.5q-8 -27 -16 -33 q-4 -4 -9.5 -5t-15.5 -1h-612q-27 0 -35 8q-4 4 -8 16.5t-4 34.5z" />
<glyph unicode="{" horiz-adv-x="649" d="M39 468v15q0 23 2 33q4 12 9 19.5t22 11.5q16 4 34.5 11t34.5 17q55 43 73.5 104.5t18.5 162.5v239q0 117 67 196t189 79h93q20 0 30 -10q4 -6 7.5 -14.5t3.5 -33.5t-2.5 -33t-8.5 -14q-10 -10 -30 -10h-54q-43 0 -70.5 -14.5t-43 -39t-20.5 -56t-5 -66.5v-264 q0 -55 -7 -103.5t-26.5 -88.5t-53.5 -71.5t-89 -54.5q55 -23 89 -54.5t53.5 -71.5t26.5 -88t7 -103v-264q0 -35 5 -67t20.5 -56.5t43 -38.5t70.5 -14h54q20 0 30 -11q6 -6 8.5 -14t2.5 -33t-3.5 -33t-7.5 -14q-10 -10 -30 -10h-93q-123 0 -189.5 79t-66.5 195v240 q0 100 -18 161.5t-74 104.5q-16 10 -34.5 17.5t-34.5 11.5t-22.5 11t-8.5 20q-2 10 -2 17z" />
<glyph unicode="|" horiz-adv-x="419" d="M143 -270v1605q0 23 11 33q6 4 16 8t39 4t40 -4t17 -8q10 -10 10 -33v-1605q0 -23 -10 -33q-6 -4 -17 -8t-40 -4t-39 4t-16 8q-10 10 -11 33z" />
<glyph unicode="}" horiz-adv-x="649" d="M27 -332q0 25 2 33t8 14q10 10 31 11h53q43 0 69.5 14t42 38.5t21.5 56.5t6 67v264q0 55 7 103t26.5 88t53.5 72t89 54q-55 23 -89 54.5t-53.5 71.5t-26.5 88t-7 104v264q0 35 -6 66.5t-21.5 56t-42 39t-69.5 14.5h-53q-20 0 -31 10q-6 6 -8 14.5t-2 32.5q0 25 3 33t7 15 q10 10 31 10h92q123 0 189.5 -79t66.5 -196v-239q0 -100 18.5 -162t73.5 -105q16 -10 34.5 -17t35.5 -11q16 -4 21 -11.5t9 -19.5q2 -10 2 -33v-15t-2 -17q-2 -12 -8 -19.5t-22 -11.5t-35 -11.5t-35 -17.5q-55 -43 -73.5 -104.5t-18.5 -161.5v-240q0 -117 -66.5 -195.5 t-189.5 -78.5h-92q-20 0 -31 10q-4 6 -7 14.5t-3 32.5z" />
<glyph unicode="~" horiz-adv-x="952" d="M86 623q0 45 15.5 92t43 86t66.5 62.5t86 23.5q61 0 102 -20.5t88 -51.5q37 -27 71 -48.5t75 -21.5q29 0 47 12.5t30.5 32t20.5 43t14 48.5q4 10 13.5 18t40.5 8q33 0 45 -7t12 -23q0 -47 -14.5 -93.5t-42 -85.5t-66.5 -62.5t-86 -23.5q-61 0 -102 23.5t-94 54.5 q-35 23 -68 43.5t-74 20.5q-29 0 -47 -12.5t-30.5 -32t-20.5 -43t-14 -48.5q-4 -10 -13.5 -18t-40.5 -8q-33 0 -45 7t-12 24z" />
<glyph unicode="&#xa1;" horiz-adv-x="417" d="M106 1278q0 43 30 72.5t73 29.5t72.5 -29.5t29.5 -72.5t-29.5 -72.5t-72.5 -29.5t-73 29.5t-30 72.5zM143 29v915q0 23 11 33q6 4 17 8t40 4t39 -4t16 -8q10 -10 10 -33v-915q0 -23 -10 -33q-6 -4 -16 -8t-39 -4t-40 4t-17 8q-10 10 -11 33z" />
<glyph unicode="&#xa2;" horiz-adv-x="796" d="M92 672q0 184 89 309t243 152v155q0 18 8 26.5t43 8.5t43 -8t8 -27v-149q53 -4 88 -13.5t66 -21.5q47 -18 59.5 -31.5t12.5 -23.5t-5.5 -22.5t-9.5 -27.5q-8 -16 -16 -27t-25 -11q-12 0 -25.5 6t-31.5 16q-25 10 -51.5 19.5t-61.5 13.5v-684q33 4 56.5 12t46.5 18 t38 20.5t31 10.5t24.5 -11t16.5 -26q8 -10 14.5 -22.5t6.5 -22.5t-9.5 -20t-39.5 -27q-35 -18 -80 -35.5t-105 -21.5v-158q0 -18 -8 -26.5t-43 -8.5t-43 8.5t-8 26.5v160q-70 8 -130.5 41t-105.5 90t-70.5 140t-25.5 192zM229 672q0 -129 51.5 -219t143.5 -115v670 q-90 -29 -142.5 -120t-52.5 -216z" />
<glyph unicode="&#xa3;" horiz-adv-x="1095" d="M55 27q0 20 8 53q6 23 16.5 36t33.5 13h45l116 502h-86q-20 0 -26 6t-2 25l11 38.5t17 34.5q14 14 48 15h65l41 174q25 100 60.5 178t89 130t125 79.5t167.5 27.5q84 0 145.5 -21.5t90.5 -37.5q18 -10 24.5 -18.5t6.5 -18.5t-2 -20.5t-11 -26.5q-8 -16 -17 -27.5 t-24 -11.5q-14 0 -27.5 7t-31.5 16q-25 10 -64.5 23.5t-107.5 13.5q-76 0 -127 -32t-83 -78t-49.5 -98.5t-27.5 -90.5l-41 -168h402q20 0 26 -7q6 -6 2 -24q-4 -14 -11 -39t-17 -35q-14 -14 -47 -14h-381l-117 -502h633q16 0 24 -8q4 -4 5 -9.5t1 -19.5q0 -16 -2 -30.5 t-4 -22.5q-6 -27 -16 -33t-29 -6h-821q-31 0 -31 27z" />
<glyph unicode="&#xa4;" horiz-adv-x="1212" d="M98 240q0 10 19 28l125 123q-47 63 -75 139t-28 162t28 162t75 139l-125 123q-18 18 -19 29q0 14 31 47q16 16 23.5 21.5t15.5 5.5q12 0 27 -15l131 -127q59 47 129.5 74t150.5 27t150.5 -27t130.5 -74l131 127q14 14 26 15q12 0 39 -27q31 -33 31 -47q0 -10 -18 -29 l-125 -123q47 -63 74.5 -139t27.5 -162t-27.5 -161.5t-74.5 -139.5l125 -123q18 -18 18 -28q0 -14 -31 -47q-27 -27 -39 -27t-26 14l-131 127q-59 -47 -130 -73.5t-151 -26.5t-150.5 26.5t-129.5 73.5l-131 -127q-14 -14 -27 -14q-8 0 -15.5 5t-23.5 22q-31 33 -31 47z M266 692q0 -74 26.5 -139.5t73 -114.5t108 -78.5t132.5 -29.5q70 0 132.5 29.5t108.5 78.5t72.5 114.5t26.5 139.5t-26.5 139.5t-72.5 114.5t-108.5 79t-132.5 30q-72 0 -133 -30t-107.5 -79t-73 -114.5t-26.5 -139.5z" />
<glyph unicode="&#xa5;" horiz-adv-x="1054" d="M8 1243q0 12 10 19q6 4 19.5 6t42.5 2q35 0 51 -6.5t27 -22.5l372 -575l373 575q10 16 25.5 22.5t50.5 6.5q45 0 57 -8q11 -7 11 -17q0 -4 -1.5 -10t-11.5 -23l-336 -518h187q27 0 26 -16q0 -14 -6 -33q-6 -16 -16 -33q-12 -18 -47 -18h-207l-39 -59v-117h289 q27 0 26 -17q0 -14 -6 -32q-6 -16 -16 -33q-12 -18 -47 -19h-246v-280q0 -25 -12 -33q-6 -4 -19.5 -8t-42.5 -4t-42 4t-19 8q-10 8 -10 33v280h-283q-27 0 -27 17q0 14 6 33q4 10 7.5 16t9.5 16q12 18 47 19h240v117l-37 59h-246q-27 0 -27 16q0 14 6 33q4 10 7.5 16.5 t9.5 16.5q12 18 47 18h139l-319 504q-10 16 -16.5 25.5t-6.5 19.5z" />
<glyph unicode="&#xa6;" horiz-adv-x="419" d="M143 -270v647q0 23 11 33q6 4 16 8t39 4t40 -4t17 -8q10 -10 10 -33v-647q0 -23 -10 -33q-6 -4 -17 -8t-40 -4t-39 4t-16 8q-10 10 -11 33zM143 678v657q0 23 11 33q6 4 16 8t39 4t40 -4t17 -8q10 -10 10 -33v-657q0 -23 -10 -33q-6 -4 -17 -8t-40 -4t-39 4t-16 8 q-10 10 -11 33z" />
<glyph unicode="&#xa7;" horiz-adv-x="897" d="M68 -27q0 8 1 17.5t11 29.5q18 41 39 41q6 0 15 -2t32 -12q8 -4 32.5 -15.5t60.5 -23.5t82 -22.5t99 -10.5q43 0 87 8.5t79 28t56.5 52t21.5 81.5q0 82 -56.5 128t-166.5 75l-123 33q-109 29 -181.5 87t-72.5 161q0 35 7 68.5t25.5 64.5t51.5 58.5t86 51.5 q-86 45 -128 99.5t-42 144.5q0 129 95 207t270 78q72 0 132 -12.5t113 -32.5q47 -16 57.5 -27.5t10.5 -19.5t-1 -16.5t-7 -24.5q-16 -43 -37 -43q-10 0 -29 8q-37 16 -108.5 34.5t-153.5 18.5q-41 0 -79 -10t-66.5 -31.5t-46 -52.5t-17.5 -74q0 -37 16.5 -65.5t46 -48 t68.5 -34t84 -24.5l107 -24q61 -14 113.5 -31t92 -45.5t62 -71.5t22.5 -110q0 -90 -40.5 -151.5t-133.5 -104.5q94 -45 134 -100.5t40 -151.5q0 -137 -100 -220t-278 -83q-135 0 -219.5 30.5t-125.5 53.5q-39 23 -38 36zM223 653q0 -55 29 -89t73 -53t98 -28.5t105 -15.5 q31 6 59.5 18.5t51.5 34t37 52t14 73.5q0 74 -59.5 115t-186.5 59q-45 0 -85 -10t-70.5 -29.5t-48 -51.5t-17.5 -75z" />
<glyph unicode="&#xa8;" horiz-adv-x="1077" d="M307 1118q0 41 26.5 68.5t65.5 27.5q41 0 68 -27.5t27 -68.5t-27 -67.5t-68 -26.5q-39 0 -65.5 26.5t-26.5 67.5zM586 1118q0 41 26.5 68.5t65.5 27.5q41 0 67.5 -27.5t26.5 -68.5t-26.5 -67.5t-67.5 -26.5q-39 0 -65.5 26.5t-26.5 67.5z" />
<glyph unicode="&#xa9;" horiz-adv-x="1716" d="M123 700q0 152 58.5 285t157.5 233.5t233.5 158t285.5 57.5q152 0 286 -58.5t233.5 -158t157.5 -233.5t58 -284q0 -152 -58 -284.5t-157.5 -232t-233.5 -157t-286 -57.5t-286 57.5t-233 157t-157.5 232.5t-58.5 284zM252 700q0 -123 47 -234.5t128 -196.5t191.5 -134 t239.5 -49t239.5 49t192.5 134t128 196.5t46 234.5t-46 236t-128 197t-192.5 134t-239.5 50t-240.5 -50t-192.5 -134t-127 -197t-46 -236zM508 700q0 94 26.5 168t74.5 124t115 76t146 26q66 0 107 -7.5t82 -23.5t52 -25.5t11 -25.5q0 -18 -12 -43q-20 -39 -41 -39 q-14 0 -29.5 7t-31.5 13q-12 4 -48 14.5t-90 10.5q-43 0 -81.5 -14.5t-67.5 -46t-46.5 -84t-17.5 -125.5q0 -74 19.5 -125.5t51.5 -83t72 -47t81 -15.5q51 0 82.5 6t48.5 13q12 4 27.5 11t25.5 7q16 0 22.5 -9t14.5 -24q8 -16 13 -27.5t5 -23.5q0 -16 -24 -31 q-31 -16 -72 -26q-35 -10 -68.5 -14.5t-89.5 -4.5q-78 0 -143.5 25.5t-112.5 75t-74.5 122t-27.5 166.5z" />
<glyph unicode="&#xaa;" horiz-adv-x="733" d="M119 893q0 76 31.5 111.5t82.5 54.5q25 10 51.5 12t55.5 6l121 10v9q0 49 -33 75.5t-88 26.5q-37 0 -73 -11t-66 -28q-10 -6 -23 -6q-12 0 -25.5 22.5t-13.5 41.5q0 16 35 34q37 16 76 27.5t98 11.5q104 0 159.5 -55t55.5 -166v-215q0 -20 4 -34.5t8 -24.5 q4 -8 5.5 -11.5t1.5 -9.5q0 -16 -33 -26q-23 -8 -43 -9q-18 0 -29.5 23.5t-15.5 50.5q-39 -45 -82 -61.5t-90 -16.5q-31 0 -61.5 9.5t-54 28t-39 48t-15.5 72.5zM127 541q0 14 6 32q6 16 17 33q12 18 47 19h362q27 -1 27 -17q0 -14 -6 -33q-6 -16 -17 -32q-12 -18 -47 -19 h-362q-27 0 -27 17zM223 905q0 -41 24.5 -59.5t53.5 -18.5q18 0 46 6.5t53.5 21.5t43 44t17.5 72v35l-129 -13q-109 -10 -109 -88z" />
<glyph unicode="&#xab;" horiz-adv-x="985" d="M160 528q0 23 6 37.5t20 32.5l220 283q29 35 45 34q14 0 21 -9t7 -50q0 -39 -3 -57.5t-19 -40.5l-162 -230l162 -229q16 -23 19 -41t3 -57q0 -41 -7 -50.5t-21 -9.5q-16 0 -45 35l-220 283q-14 18 -20 32.5t-6 36.5zM475 528q0 23 6 37.5t21 32.5l219 283q29 35 45 34 q14 0 21.5 -9t7.5 -50q0 -39 -3.5 -57.5t-19.5 -40.5l-162 -230l162 -229q16 -23 19.5 -41t3.5 -57q0 -41 -7.5 -50.5t-21.5 -9.5q-16 0 -45 35l-219 283q-14 18 -20.5 32.5t-6.5 36.5z" />
<glyph unicode="&#xac;" horiz-adv-x="976" d="M72 799q0 33 3 43t5 12q8 6 29 6h759q20 0 29 -6q2 -2 5 -12.5t3 -42.5v-350q0 -20 -6 -29q-2 -2 -12 -5t-41 -3q-37 0 -48.5 4t-13.5 8q-6 6 -6 29v276h-667q-23 0 -29 6q-2 2 -6 13.5t-4 50.5z" />
<glyph unicode="&#xad;" horiz-adv-x="731" d="M96 408q0 25 4 50t13 38q10 23 47 22h434q23 0 31 -4q10 -8 10 -37q0 -25 -4 -50.5t-13 -37.5q-10 -23 -47 -22h-434q-23 0 -31 4q-10 8 -10 37z" />
<glyph unicode="&#xae;" horiz-adv-x="1716" d="M123 700q0 152 58.5 285t157.5 233.5t233.5 158t285.5 57.5q152 0 286 -58.5t233.5 -158t157.5 -233.5t58 -284q0 -152 -58 -284.5t-157.5 -232t-233.5 -157t-286 -57.5t-286 57.5t-233 157t-157.5 232.5t-58.5 284zM252 700q0 -123 47 -234.5t128 -196.5t191.5 -134 t239.5 -49t239.5 49t192.5 134t128 196.5t46 234.5t-46 236t-128 197t-192.5 134t-239.5 50t-240.5 -50t-192.5 -134t-127 -197t-46 -236zM573 371v663q0 14 4.5 20.5t8.5 10.5q10 10 53 10h229q131 0 206 -54t75 -173q0 -61 -33 -113.5t-106 -85.5l168 -246q20 -31 20 -41 t-10 -18q-14 -10 -70 -10q-35 0 -49 7t-22 19l-166 258h-179v-247q0 -20 -12 -27q-10 -4 -19 -7t-34 -3t-37 3t-16 7q-6 6 -8.5 10t-2.5 17zM702 727q35 0 78 -1t74 -1q88 0 124 37t36 94q0 47 -35 81t-113 34h-164v-244z" />
<glyph unicode="&#xaf;" horiz-adv-x="1081" d="M317 1092q4 59 14.5 77.5t35.5 14.5h364q10 0 23 -4q8 -6 8 -27q-1 -53 -17 -80q-4 -8 -11 -10t-23 -2h-363q-18 0 -22 4q-8 6 -9 27z" />
<glyph unicode="&#xb0;" horiz-adv-x="897" d="M168 1102q0 57 22.5 108.5t60.5 89t89 60t109 22.5q57 0 108 -22.5t89 -60t60.5 -89t22.5 -108.5t-22.5 -108.5t-60.5 -89.5t-89 -60.5t-108 -22.5t-108.5 22.5t-89.5 60.5t-60.5 89t-22.5 109zM285 1102q0 -70 47 -121t117 -51t116.5 51t46.5 121t-47 121t-116 51 q-70 0 -117 -51.5t-47 -120.5z" />
<glyph unicode="&#xb1;" horiz-adv-x="976" d="M72 61q0 29 4 39.5t8 14.5q10 10 33 10h743q23 0 33 -10q4 -4 8 -14.5t4 -39.5t-4 -38t-8 -13q-10 -10 -33 -10h-743q-23 0 -33 10q-4 4 -8 13.5t-4 37.5zM72 694q0 29 4 39t8 15q10 10 33 10h307v332q0 23 10 32q4 4 14.5 8.5t38.5 4.5q29 0 40.5 -4.5t15.5 -8.5 q10 -10 10 -32v-332h307q23 0 33 -10q4 -4 8 -14.5t4 -39.5t-4 -38t-8 -13q-10 -10 -33 -10h-307v-328q0 -23 -10 -33q-4 -4 -15.5 -8t-40.5 -4t-39 4t-14 8q-10 10 -10 33v328h-307q-23 0 -33 10q-4 4 -8 13.5t-4 37.5z" />
<glyph unicode="&#xb2;" horiz-adv-x="636" d="M90 694v25.5t10 21.5l136 138q106 109 149 176t43 133q0 53 -31.5 82.5t-79.5 29.5q-39 0 -64.5 -12t-41.5 -28q-14 -10 -28.5 -23.5t-24.5 -13.5t-19.5 6t-19.5 14q-8 8 -15.5 16.5t-7.5 18.5q0 25 29 53q23 23 73 46.5t121 23.5q94 0 162 -52.5t68 -164.5 q0 -47 -14.5 -89t-38 -80t-53 -72t-58.5 -64q-16 -16 -36.5 -36t-40 -38.5t-37 -33.5t-25.5 -23h280q6 0 14.5 -2.5t12.5 -6.5q8 -8 8 -24q0 -12 -2 -26.5t-10 -26.5q-10 -16 -37 -17h-379q-29 0 -36 13.5t-7 35.5z" />
<glyph unicode="&#xb3;" horiz-adv-x="638" d="M70 1294q0 25 36 49q29 18 71 38t124 20q41 0 79 -11.5t66.5 -33t46 -54t17.5 -77.5q0 -55 -24.5 -94t-82.5 -68q121 -57 121 -178q0 -84 -36.5 -137.5t-91 -86t-115 -45t-109.5 -12.5q-20 0 -39.5 1t-30.5 7q-12 8 -15 17.5t-3 23.5q0 31 11 42.5t36 11.5h51q25 0 63 8 t72.5 27.5t59 52t24.5 84.5q0 57 -33.5 93t-111.5 36h-18q-16 0 -22.5 1t-14.5 5q-10 8 -11 30q0 10 2.5 23.5t8.5 24.5q10 16 32 16h19q66 0 105.5 25.5t39.5 80.5q0 45 -30.5 65.5t-77.5 20.5q-41 0 -76 -14t-63 -35q-8 -6 -13.5 -9t-15.5 -3q-12 0 -21.5 9t-15.5 18 q-14 14 -14 28z" />
<glyph unicode="&#xb4;" horiz-adv-x="1093" d="M383 1034q0 8 5 19.5t13 25.5l136 234q14 25 39.5 32t64.5 7t53.5 -7.5t14.5 -21.5q0 -10 -10.5 -25.5t-30.5 -44.5l-148 -200q-6 -8 -13 -16.5t-15 -14.5q-8 -4 -19.5 -7t-36.5 -3q-33 0 -43 6t-10 16z" />
<glyph unicode="&#xb5;" d="M137 -348v1204q0 23 10 33q6 4 17.5 8t40.5 4t39 -4t16 -8q10 -10 10 -33v-522q0 -240 217 -240q53 0 100.5 22.5t83.5 60.5t56.5 87t20.5 103v489q0 23 10 33q6 4 17 8t40 4t39 -4t16 -8q10 -10 11 -33v-819q0 -23 -11 -33q-4 -4 -12 -8t-37 -4t-39 4t-14 8 q-10 10 -10 33v98q-16 -31 -45 -59.5t-65 -50t-77 -33.5t-82 -12q-55 0 -95 12t-66.5 27.5t-40 32t-17.5 22.5v-422q0 -23 -10 -33q-6 -4 -17.5 -8t-39.5 -4q-29 0 -39 4t-17 8q-10 10 -10 33z" />
<glyph unicode="&#xb6;" horiz-adv-x="1206" d="M100 918q0 113 35 202.5t99.5 152t153.5 96.5t200 34h370q29 0 40.5 -4t17.5 -8q10 -10 10 -33v-1653q0 -23 -10 -33q-6 -4 -15.5 -8t-37.5 -4q-29 0 -37 4t-15 8q-10 10 -10 33v1579h-264v-1579q0 -23 -10 -33q-6 -4 -14.5 -8t-37.5 -4t-37 3t-14 9q-10 10 -10 33v741 q-100 8 -178 48.5t-130 102.5t-79 145t-27 176z" />
<glyph unicode="&#xb7;" horiz-adv-x="397" d="M96 631q0 43 30 72.5t73 29.5t72.5 -29.5t29.5 -72.5t-29.5 -73t-72.5 -30t-73 30t-30 73z" />
<glyph unicode="&#xb8;" horiz-adv-x="1101" d="M442 -381q0 8 2 18.5t7 26.5l55 232q6 25 23.5 34t60.5 9q41 0 56.5 -8.5t15.5 -20.5q0 -23 -15 -57l-90 -224q-10 -25 -22.5 -30t-49.5 -5q-29 0 -36 7.5t-7 17.5z" />
<glyph unicode="&#xb9;" horiz-adv-x="651" d="M129 1188q0 8 4 15t19 18l198 159q25 20 43 21q20 0 28.5 -6t8.5 -27v-696q0 -16 -8 -23q-12 -8 -47 -8t-47 8q-8 6 -9 23v559l-102 -88q-16 -14 -22.5 -17.5t-14.5 -3.5q-10 0 -17 6.5t-18 22.5q-16 23 -16 37z" />
<glyph unicode="&#xba;" horiz-adv-x="745" d="M113 1012q0 63 19.5 114.5t55 88t82.5 56t103 19.5q55 0 102 -19.5t82 -56t55.5 -88t20.5 -114.5q0 -61 -19.5 -112.5t-55.5 -88.5t-83 -56.5t-102 -19.5t-102.5 19.5t-82 56.5t-55 88t-20.5 113zM131 541q0 14 6 32q6 16 17 33q12 18 47 19h379q26 -1 26 -17 q0 -14 -6 -33q-6 -16 -16 -32q-12 -18 -47 -19h-379q-27 0 -27 17zM225 1012q0 -76 39 -130.5t109 -54.5q68 0 107.5 53.5t39.5 131.5t-39 132t-108 54q-68 0 -108 -54t-40 -132z" />
<glyph unicode="&#xbb;" horiz-adv-x="985" d="M190 201q0 39 3.5 57t19.5 41l162 229l-162 230q-16 23 -19.5 41t-3.5 57q0 41 7.5 50t21.5 9q16 0 45 -34l219 -283q14 -18 20.5 -32.5t6.5 -37.5t-6 -37t-21 -32l-219 -283q-29 -35 -45 -35q-14 0 -21.5 9.5t-7.5 50.5zM506 201q0 39 3 57t19 41l162 229l-162 230 q-16 23 -19 41t-3 57q0 41 7 50t22 9q16 0 45 -34l219 -283q14 -18 20 -32.5t6 -37.5t-6 -37t-20 -32l-219 -283q-29 -35 -45 -35q-14 0 -21.5 9.5t-7.5 50.5z" />
<glyph unicode="&#xbc;" horiz-adv-x="1607" d="M49 1188q0 8 4 15t19 18l198 159q25 20 43 21q20 0 28.5 -6t8.5 -27v-696q0 -16 -8 -23q-12 -8 -47 -8t-47 8q-8 6 -9 23v559l-102 -88q-16 -14 -22.5 -17.5t-14.5 -3.5q-10 0 -17 6.5t-18 22.5q-16 23 -16 37zM320 -4q0 14 16 45l690 1329q10 18 20.5 24.5t53.5 6.5 q25 0 41 -3.5t16 -13.5q0 -14 -16 -45l-690 -1329q-10 -18 -20.5 -24t-53.5 -6q-25 0 -41 3t-16 13zM852 203q0 27 11 45l366 487q10 14 26.5 20.5t26.5 6.5q51 0 52 -41v-459h84q24 0 24 -20q0 -14 -4 -29.5t-8 -24.5q-4 -12 -13.5 -15t-21.5 -3h-61v-176q0 -14 -9 -23 q-10 -8 -49 -8q-14 0 -28.5 2t-18.5 6q-8 6 -8 23v176h-336q-16 0 -24.5 6t-8.5 27zM992 262h229v313z" />
<glyph unicode="&#xbd;" horiz-adv-x="1607" d="M49 1188q0 8 4 15t19 18l198 159q25 20 43 21q20 0 28.5 -6t8.5 -27v-696q0 -16 -8 -23q-12 -8 -47 -8t-47 8q-8 6 -9 23v559l-102 -88q-16 -14 -22.5 -17.5t-14.5 -3.5q-10 0 -17 6.5t-18 22.5q-16 23 -16 37zM320 -4q0 14 16 45l690 1329q10 18 20.5 24.5t53.5 6.5 q25 0 41 -3.5t16 -13.5q0 -14 -16 -45l-690 -1329q-10 -18 -20.5 -24t-53.5 -6q-25 0 -41 3t-16 13zM977 55v25.5t10 21.5l136 138q106 109 149 176t43 133q0 53 -31.5 82.5t-79.5 29.5q-39 0 -64.5 -12t-41.5 -28q-14 -10 -28.5 -23.5t-24.5 -13.5t-19.5 6t-19.5 14 q-8 8 -15.5 16.5t-7.5 18.5q0 25 29 53q23 23 73 46.5t121 23.5q94 0 162 -52.5t68 -164.5q0 -47 -14.5 -89t-38 -80t-53 -72t-58.5 -64q-16 -16 -36.5 -36t-40 -38.5t-37 -33.5t-25.5 -23h280q6 0 14.5 -2.5t12.5 -6.5q8 -8 8 -24q0 -12 -2 -26.5t-10 -26.5 q-10 -16 -37 -17h-379q-29 0 -36 13.5t-7 35.5z" />
<glyph unicode="&#xbe;" horiz-adv-x="1605" d="M90 1294q0 25 36 49q29 18 71 38t124 20q41 0 79 -11.5t66.5 -33t46 -54t17.5 -77.5q0 -55 -24.5 -94t-82.5 -68q121 -57 121 -178q0 -84 -36.5 -137.5t-91 -86t-115 -45t-109.5 -12.5q-20 0 -39.5 1t-30.5 7q-12 8 -15 17.5t-3 23.5q0 31 11 42.5t36 11.5h51q25 0 63 8 t72.5 27.5t59 52t24.5 84.5q0 57 -33.5 93t-111.5 36h-18q-16 0 -22.5 1t-14.5 5q-10 8 -11 30q0 10 2.5 23.5t8.5 24.5q10 16 32 16h19q66 0 105.5 25.5t39.5 80.5q0 45 -30.5 65.5t-77.5 20.5q-41 0 -76 -14t-63 -35q-8 -6 -13.5 -9t-15.5 -3q-12 0 -21.5 9t-15.5 18 q-14 14 -14 28zM402 -4q0 14 16 45l690 1329q10 18 20.5 24.5t53.5 6.5q25 0 41 -3.5t16 -13.5q0 -14 -16 -45l-690 -1329q-10 -18 -20.5 -24t-53.5 -6q-25 0 -41 3t-16 13zM934 203q0 27 11 45l366 487q10 14 26.5 20.5t26.5 6.5q51 0 52 -41v-459h84q24 0 24 -20 q0 -14 -4 -29.5t-8 -24.5q-4 -12 -13.5 -15t-21.5 -3h-61v-176q0 -14 -9 -23q-10 -8 -49 -8q-14 0 -28.5 2t-18.5 6q-8 6 -8 23v176h-336q-16 0 -24.5 6t-8.5 27zM1074 262h229v313z" />
<glyph unicode="&#xbf;" horiz-adv-x="905" d="M154 334q0 82 19.5 144.5t59 109.5t100 83t142.5 64v209q0 23 10 33q6 4 17.5 8t40.5 4t39 -4t16 -8q10 -10 10 -33v-260q0 -20 -12 -33q-8 -8 -57 -20q-139 -37 -193.5 -108.5t-54.5 -182.5q0 -47 16.5 -90t48 -77t78.5 -53.5t111 -19.5q55 0 92 7.5t63 17.5q18 6 33 13 t27 7q27 0 41 -41q10 -31 10 -43q0 -10 -8 -21t-39 -22q-53 -20 -99.5 -27t-117.5 -7q-92 0 -166 25.5t-124 72.5t-76.5 110.5t-26.5 141.5zM438 1278q0 43 30 72.5t73 29.5t72.5 -29.5t29.5 -72.5t-29.5 -72.5t-72.5 -29.5t-73 29.5t-30 72.5z" />
<glyph unicode="&#xc0;" horiz-adv-x="1107" d="M10 20q0 12 8 37l447 1286q8 23 22.5 33t63.5 10q51 0 65.5 -10t22.5 -33l451 -1288q8 -25 8 -37q0 -10 -14.5 -18t-57.5 -8q-29 0 -45 4t-23 8q-10 8 -20 37l-121 352h-541l-118 -350q-10 -29 -21 -37q-6 -4 -20.5 -8t-42.5 -4q-37 0 -50.5 8t-13.5 18zM319 516h457 l-229 703zM336 1774q0 14 14.5 21.5t53.5 7.5t64.5 -7.5t39.5 -31.5l135 -234q8 -14 13.5 -25.5t5.5 -19.5q0 -10 -10.5 -16t-43.5 -6q-25 0 -36 3t-19 7q-8 6 -15 14t-14 17l-147 200q-20 29 -30.5 44.5t-10.5 25.5z" />
<glyph unicode="&#xc1;" horiz-adv-x="1107" d="M10 20q0 12 8 37l447 1286q8 23 22.5 33t63.5 10q51 0 65.5 -10t22.5 -33l451 -1288q8 -25 8 -37q0 -10 -14.5 -18t-57.5 -8q-29 0 -45 4t-23 8q-10 8 -20 37l-121 352h-541l-118 -350q-10 -29 -21 -37q-6 -4 -20.5 -8t-42.5 -4q-37 0 -50.5 8t-13.5 18zM319 516h457 l-229 703zM526 1485q0 8 5 19.5t13 25.5l136 234q14 25 39.5 32t64.5 7t53.5 -7.5t14.5 -21.5q0 -10 -10.5 -25.5t-30.5 -44.5l-148 -200q-6 -8 -13 -16.5t-15 -14.5q-8 -4 -19.5 -7t-36.5 -3q-33 0 -43 6t-10 16z" />
<glyph unicode="&#xc2;" horiz-adv-x="1107" d="M10 20q0 12 8 37l447 1286q8 23 22.5 33t63.5 10q51 0 65.5 -10t22.5 -33l451 -1288q8 -25 8 -37q0 -10 -14.5 -18t-57.5 -8q-29 0 -45 4t-23 8q-10 8 -20 37l-121 352h-541l-118 -350q-10 -29 -21 -37q-6 -4 -20.5 -8t-42.5 -4q-37 0 -50.5 8t-13.5 18zM274 1485 q0 8 6.5 17.5t24.5 31.5l180 217q23 29 40.5 40.5t47.5 11.5q31 0 48.5 -11.5t40.5 -40.5l180 -217q18 -23 24 -32t6 -17q0 -12 -13 -17t-48 -5q-31 0 -46 6t-32 22l-160 181l-159 -181q-16 -16 -31.5 -22t-46.5 -6q-35 0 -48.5 5t-13.5 17zM319 516h457l-229 703z" />
<glyph unicode="&#xc3;" horiz-adv-x="1107" d="M10 20q0 12 8 37l447 1286q8 23 22.5 33t63.5 10q51 0 65.5 -10t22.5 -33l451 -1288q8 -25 8 -37q0 -10 -14.5 -18t-57.5 -8q-29 0 -45 4t-23 8q-10 8 -20 37l-121 352h-541l-118 -350q-10 -29 -21 -37q-6 -4 -20.5 -8t-42.5 -4q-37 0 -50.5 8t-13.5 18zM291 1485 q-8 6 0 37q20 80 61 122t111 42q39 0 67.5 -12.5t55.5 -26.5t54.5 -28.5t57.5 -14.5q35 0 54 29q6 10 11 20t11 21q8 12 27 12h49q10 0 18 -6t0 -37q-20 -80 -61 -122t-111 -42q-35 0 -64.5 11.5t-58.5 27.5q-27 14 -53.5 28.5t-58.5 14.5q-18 0 -31.5 -9t-22.5 -20 q-6 -10 -11 -20t-11 -21q-8 -12 -27 -12h-49q-10 0 -18 6zM319 516h457l-229 703z" />
<glyph unicode="&#xc4;" horiz-adv-x="1107" d="M10 20q0 12 8 37l447 1286q8 23 22.5 33t63.5 10q51 0 65.5 -10t22.5 -33l451 -1288q8 -25 8 -37q0 -10 -14.5 -18t-57.5 -8q-29 0 -45 4t-23 8q-10 8 -20 37l-121 352h-541l-118 -350q-10 -29 -21 -37q-6 -4 -20.5 -8t-42.5 -4q-37 0 -50.5 8t-13.5 18zM319 516h457 l-229 703zM354 1569q0 41 26.5 68.5t65.5 27.5q41 0 68 -27.5t27 -68.5t-27 -67.5t-68 -26.5q-39 0 -65.5 26.5t-26.5 67.5zM633 1569q0 41 26.5 68.5t65.5 27.5q41 0 67.5 -27.5t26.5 -68.5t-26.5 -67.5t-67.5 -26.5q-39 0 -65.5 26.5t-26.5 67.5z" />
<glyph unicode="&#xc5;" horiz-adv-x="1107" d="M10 20q0 12 8 37l447 1286q8 23 22.5 33t63.5 10q51 0 65.5 -10t22.5 -33l451 -1288q8 -25 8 -37q0 -10 -14.5 -18t-57.5 -8q-29 0 -45 4t-23 8q-10 8 -20 37l-121 352h-541l-118 -350q-10 -29 -21 -37q-6 -4 -20.5 -8t-42.5 -4q-37 0 -50.5 8t-13.5 18zM319 516h457 l-229 703zM395 1651q0 39 14.5 74t40 60.5t60.5 40t74 14.5t73.5 -14.5t60 -40t40 -60.5t14.5 -74t-14.5 -73.5t-40 -60.5t-60 -40t-73.5 -14t-74 14t-60.5 40t-40 60.5t-14.5 73.5zM485 1651q0 -39 30 -68.5t69 -29.5t68.5 29.5t29.5 68.5t-29.5 68.5t-68.5 29.5t-69 -29.5 t-30 -68.5z" />
<glyph unicode="&#xc6;" horiz-adv-x="1740" d="M0 18q0 6 2 15.5t12 25.5l772 1278q10 16 22.5 25.5t45.5 9.5h809q16 0 25 -8q4 -4 5 -9t1 -20q0 -16 -2 -31.5t-4 -23.5q-6 -27 -17 -33q-10 -6 -29 -6h-612v-428h541q16 0 24 -8q4 -4 5.5 -9t1.5 -20q0 -16 -2.5 -31.5t-4.5 -23.5q-6 -27 -16 -33t-29 -6h-520v-551h643 q16 0 25 -8q4 -4 5 -9.5t1 -19.5q0 -16 -2 -31.5t-4 -23.5q-6 -27 -17 -33q-10 -6 -28 -6h-697q-29 0 -41 4t-18 10q-12 12 -12 43v377h-496l-233 -393q-18 -29 -29 -37q-6 -4 -20.5 -8t-43.5 -4q-37 0 -50 8t-13 18zM463 557h422v707z" />
<glyph unicode="&#xc7;" horiz-adv-x="1114" d="M106 684q0 172 46.5 305t126 225.5t186 139.5t227.5 47q129 0 205 -21.5t127 -46.5q23 -10 32 -18t9 -23q0 -8 -5 -23.5t-16 -33.5q-23 -43 -43 -43q-16 0 -38.5 13.5t-53.5 25.5q-33 12 -84 24.5t-133 12.5q-98 0 -177 -40t-134 -116t-85 -183.5t-30 -244.5t33 -244.5 t90 -182.5t136 -114t171 -39q125 0 213 35q41 16 64.5 29.5t40.5 13.5q23 0 43 -39q20 -35 20 -53q0 -14 -9 -22.5t-30 -18.5q-12 -6 -41.5 -19.5t-74.5 -26.5t-105.5 -22.5t-132.5 -9.5q-119 0 -223.5 47.5t-183 137.5t-125 223t-46.5 305zM544 -381q0 8 2 18.5t7 26.5 l55 232q6 25 23.5 34t60.5 9q41 0 56.5 -8.5t15.5 -20.5q0 -23 -15 -57l-90 -224q-10 -25 -22.5 -30t-49.5 -5q-29 0 -36 7.5t-7 17.5z" />
<glyph unicode="&#xc8;" horiz-adv-x="1036" d="M180 57v1258q0 31 13 43q6 6 18 10t41 4h706q16 0 25 -8q4 -4 5 -9t1 -20q0 -16 -2 -31.5t-4 -23.5q-6 -27 -16 -33t-29 -6h-612v-428h540q16 0 25 -8q4 -4 5 -9t1 -20q0 -16 -2 -31.5t-4 -23.5q-6 -27 -17 -33q-10 -6 -28 -6h-520v-551h643q16 0 24 -8q4 -4 5 -9.5 t1 -19.5q0 -16 -2 -31.5t-4 -23.5q-6 -27 -16 -33t-29 -6h-696q-29 0 -41 4t-18 10q-12 12 -13 43zM393 1774q0 14 14.5 21.5t53.5 7.5t64.5 -7.5t39.5 -31.5l135 -234q8 -14 13.5 -25.5t5.5 -19.5q0 -10 -10.5 -16t-43.5 -6q-25 0 -36 3t-19 7q-8 6 -15 14t-14 17l-147 200 q-20 29 -30.5 44.5t-10.5 25.5z" />
<glyph unicode="&#xc9;" horiz-adv-x="1036" d="M180 57v1258q0 31 13 43q6 6 18 10t41 4h706q16 0 25 -8q4 -4 5 -9t1 -20q0 -16 -2 -31.5t-4 -23.5q-6 -27 -16 -33t-29 -6h-612v-428h540q16 0 25 -8q4 -4 5 -9t1 -20q0 -16 -2 -31.5t-4 -23.5q-6 -27 -17 -33q-10 -6 -28 -6h-520v-551h643q16 0 24 -8q4 -4 5 -9.5 t1 -19.5q0 -16 -2 -31.5t-4 -23.5q-6 -27 -16 -33t-29 -6h-696q-29 0 -41 4t-18 10q-12 12 -13 43zM547 1485q0 8 5 19.5t13 25.5l136 234q14 25 39.5 32t64.5 7t53.5 -7.5t14.5 -21.5q0 -10 -10.5 -25.5t-30.5 -44.5l-148 -200q-6 -8 -13 -16.5t-15 -14.5q-8 -4 -19.5 -7 t-36.5 -3q-33 0 -43 6t-10 16z" />
<glyph unicode="&#xca;" horiz-adv-x="1036" d="M180 57v1258q0 31 13 43q6 6 18 10t41 4h706q16 0 25 -8q4 -4 5 -9t1 -20q0 -16 -2 -31.5t-4 -23.5q-6 -27 -16 -33t-29 -6h-612v-428h540q16 0 25 -8q4 -4 5 -9t1 -20q0 -16 -2 -31.5t-4 -23.5q-6 -27 -17 -33q-10 -6 -28 -6h-520v-551h643q16 0 24 -8q4 -4 5 -9.5 t1 -19.5q0 -16 -2 -31.5t-4 -23.5q-6 -27 -16 -33t-29 -6h-696q-29 0 -41 4t-18 10q-12 12 -13 43zM305 1485q0 8 6.5 17.5t24.5 31.5l180 217q23 29 40.5 40.5t47.5 11.5q31 0 48.5 -11.5t40.5 -40.5l180 -217q18 -23 24 -32t6 -17q0 -12 -13 -17t-48 -5q-31 0 -46 6 t-32 22l-160 181l-159 -181q-16 -16 -31.5 -22t-46.5 -6q-35 0 -48.5 5t-13.5 17z" />
<glyph unicode="&#xcb;" horiz-adv-x="1036" d="M180 57v1258q0 31 13 43q6 6 18 10t41 4h706q16 0 25 -8q4 -4 5 -9t1 -20q0 -16 -2 -31.5t-4 -23.5q-6 -27 -16 -33t-29 -6h-612v-428h540q16 0 25 -8q4 -4 5 -9t1 -20q0 -16 -2 -31.5t-4 -23.5q-6 -27 -17 -33q-10 -6 -28 -6h-520v-551h643q16 0 24 -8q4 -4 5 -9.5 t1 -19.5q0 -16 -2 -31.5t-4 -23.5q-6 -27 -16 -33t-29 -6h-696q-29 0 -41 4t-18 10q-12 12 -13 43zM379 1569q0 41 26.5 68.5t65.5 27.5q41 0 68 -27.5t27 -68.5t-27 -67.5t-68 -26.5q-39 0 -65.5 26.5t-26.5 67.5zM658 1569q0 41 26.5 68.5t65.5 27.5q41 0 67.5 -27.5 t26.5 -68.5t-26.5 -67.5t-67.5 -26.5q-39 0 -65.5 26.5t-26.5 67.5z" />
<glyph unicode="&#xcc;" horiz-adv-x="505" d="M25 1774q0 14 14.5 21.5t53.5 7.5t64.5 -7.5t39.5 -31.5l135 -234q8 -14 13.5 -25.5t5.5 -19.5q0 -10 -10.5 -16t-43.5 -6q-25 0 -36 3t-19 7q-8 6 -15 14t-14 17l-147 200q-20 29 -30.5 44.5t-10.5 25.5zM180 37v1298q0 25 10 33q6 4 19.5 8t42.5 4t42 -4t19 -8 q12 -10 13 -33v-1298q0 -25 -13 -33q-6 -4 -19 -8t-42 -4t-42 4t-20 8q-10 8 -10 33z" />
<glyph unicode="&#xcd;" horiz-adv-x="505" d="M180 37v1298q0 25 10 33q6 4 19.5 8t42.5 4t42 -4t19 -8q12 -10 13 -33v-1298q0 -25 -13 -33q-6 -4 -19 -8t-42 -4t-42 4t-20 8q-10 8 -10 33zM201 1485q0 8 5 19.5t13 25.5l136 234q14 25 39.5 32t64.5 7t53.5 -7.5t14.5 -21.5q0 -10 -10.5 -25.5t-30.5 -44.5l-148 -200 q-6 -8 -13 -16.5t-15 -14.5q-8 -4 -19.5 -7t-36.5 -3q-33 0 -43 6t-10 16z" />
<glyph unicode="&#xce;" horiz-adv-x="505" d="M-37 1485q0 8 6.5 17.5t24.5 31.5l180 217q23 29 40.5 40.5t47.5 11.5q31 0 48.5 -11.5t40.5 -40.5l180 -217q18 -23 24 -32t6 -17q0 -12 -13 -17t-48 -5q-31 0 -46 6t-32 22l-160 181l-159 -181q-16 -16 -31.5 -22t-46.5 -6q-35 0 -48.5 5t-13.5 17zM180 37v1298 q0 25 10 33q6 4 19.5 8t42.5 4t42 -4t19 -8q12 -10 13 -33v-1298q0 -25 -13 -33q-6 -4 -19 -8t-42 -4t-42 4t-20 8q-10 8 -10 33z" />
<glyph unicode="&#xcf;" horiz-adv-x="505" d="M35 1569q0 41 26.5 68.5t65.5 27.5q41 0 68 -27.5t27 -68.5t-27 -67.5t-68 -26.5q-39 0 -65.5 26.5t-26.5 67.5zM180 37v1298q0 25 10 33q6 4 19.5 8t42.5 4t42 -4t19 -8q12 -10 13 -33v-1298q0 -25 -13 -33q-6 -4 -19 -8t-42 -4t-42 4t-20 8q-10 8 -10 33zM314 1569 q0 41 26.5 68.5t65.5 27.5q41 0 67.5 -27.5t26.5 -68.5t-26.5 -67.5t-67.5 -26.5q-39 0 -65.5 26.5t-26.5 67.5z" />
<glyph unicode="&#xd0;" horiz-adv-x="1318" d="M23 676q0 14 1 24.5t3 20.5q6 35 18 43q4 4 9 6t16 2h96v543q0 31 12 43q6 6 18.5 10t41.5 4h387q133 0 241.5 -44t185 -130t118.5 -213t42 -295t-42 -297t-118.5 -216t-186 -132t-244.5 -45h-383q-29 0 -41.5 4t-18.5 10q-12 12 -12 43v588h-115q-14 0 -22 8q-6 6 -6 23 zM311 129h314q215 0 321.5 148.5t106.5 412.5t-108.5 408.5t-332.5 144.5h-301v-471h254q14 0 23 -8q6 -6 6 -23q0 -14 -1 -24t-3 -21q-6 -35 -19 -43q-4 -4 -9 -6t-15 -2h-236v-516z" />
<glyph unicode="&#xd1;" horiz-adv-x="1265" d="M113 1352q0 12 14 20t61 8t66.5 -6t34.5 -28l657 -1088v1077q0 25 10 33q6 4 18.5 8t41.5 4t40 -4t17 -8q12 -10 12 -33v-1298q0 -25 -12 -33q-6 -4 -20.5 -8t-42.5 -4q-33 0 -48.5 9t-27.5 30l-629 1040v-1034q0 -25 -12 -33q-6 -4 -18.5 -8t-41.5 -4t-40 4t-17 8 q-10 8 -10 33v1218l-35 56q-8 12 -13 21t-5 20zM365 1485q-8 6 0 37q20 80 61 122t111 42q39 0 67.5 -12.5t55.5 -26.5t54.5 -28.5t57.5 -14.5q35 0 54 29q6 10 11 20t11 21q8 12 27 12h49q10 0 18 -6t0 -37q-20 -80 -61 -122t-111 -42q-35 0 -64.5 11.5t-58.5 27.5 q-27 14 -53.5 28.5t-58.5 14.5q-18 0 -31.5 -9t-22.5 -20q-6 -10 -11 -20t-11 -21q-8 -12 -27 -12h-49q-10 0 -18 6z" />
<glyph unicode="&#xd2;" horiz-adv-x="1370" d="M106 684q0 172 43.5 305t121 225.5t183 139.5t232.5 47q125 0 231.5 -47t183.5 -139.5t120 -225.5t43 -305t-43 -305t-120 -223t-183.5 -137.5t-231.5 -47.5q-127 0 -232.5 47.5t-183 137.5t-121 223t-43.5 305zM266 684q0 -272 109.5 -429t310.5 -157q98 0 176 41 t132.5 117t82 184.5t27.5 243.5t-27.5 244.5t-82 186.5t-132.5 118t-176 41q-100 0 -178 -41t-132 -118t-82 -186.5t-28 -244.5zM506 1774q0 14 14.5 21.5t53.5 7.5t64.5 -7.5t39.5 -31.5l135 -234q8 -14 13.5 -25.5t5.5 -19.5q0 -10 -10.5 -16t-43.5 -6q-25 0 -36 3t-19 7 q-8 6 -15 14t-14 17l-147 200q-20 29 -30.5 44.5t-10.5 25.5z" />
<glyph unicode="&#xd3;" horiz-adv-x="1370" d="M106 684q0 172 43.5 305t121 225.5t183 139.5t232.5 47q125 0 231.5 -47t183.5 -139.5t120 -225.5t43 -305t-43 -305t-120 -223t-183.5 -137.5t-231.5 -47.5q-127 0 -232.5 47.5t-183 137.5t-121 223t-43.5 305zM266 684q0 -272 109.5 -429t310.5 -157q98 0 176 41 t132.5 117t82 184.5t27.5 243.5t-27.5 244.5t-82 186.5t-132.5 118t-176 41q-100 0 -178 -41t-132 -118t-82 -186.5t-28 -244.5zM629 1485q0 8 5 19.5t13 25.5l136 234q14 25 39.5 32t64.5 7t53.5 -7.5t14.5 -21.5q0 -10 -10.5 -25.5t-30.5 -44.5l-148 -200q-6 -8 -13 -16.5 t-15 -14.5q-8 -4 -19.5 -7t-36.5 -3q-33 0 -43 6t-10 16z" />
<glyph unicode="&#xd4;" horiz-adv-x="1370" d="M106 684q0 172 43.5 305t121 225.5t183 139.5t232.5 47q125 0 231.5 -47t183.5 -139.5t120 -225.5t43 -305t-43 -305t-120 -223t-183.5 -137.5t-231.5 -47.5q-127 0 -232.5 47.5t-183 137.5t-121 223t-43.5 305zM266 684q0 -272 109.5 -429t310.5 -157q98 0 176 41 t132.5 117t82 184.5t27.5 243.5t-27.5 244.5t-82 186.5t-132.5 118t-176 41q-100 0 -178 -41t-132 -118t-82 -186.5t-28 -244.5zM407 1485q0 8 6.5 17.5t24.5 31.5l180 217q23 29 40.5 40.5t47.5 11.5q31 0 48.5 -11.5t40.5 -40.5l180 -217q18 -23 24 -32t6 -17 q0 -12 -13 -17t-48 -5q-31 0 -46 6t-32 22l-160 181l-159 -181q-16 -16 -31.5 -22t-46.5 -6q-35 0 -48.5 5t-13.5 17z" />
<glyph unicode="&#xd5;" horiz-adv-x="1370" d="M106 684q0 172 43.5 305t121 225.5t183 139.5t232.5 47q125 0 231.5 -47t183.5 -139.5t120 -225.5t43 -305t-43 -305t-120 -223t-183.5 -137.5t-231.5 -47.5q-127 0 -232.5 47.5t-183 137.5t-121 223t-43.5 305zM266 684q0 -272 109.5 -429t310.5 -157q98 0 176 41 t132.5 117t82 184.5t27.5 243.5t-27.5 244.5t-82 186.5t-132.5 118t-176 41q-100 0 -178 -41t-132 -118t-82 -186.5t-28 -244.5zM428 1485q-8 6 0 37q20 80 61 122t111 42q39 0 67.5 -12.5t55.5 -26.5t54.5 -28.5t57.5 -14.5q35 0 54 29q6 10 11 20t11 21q8 12 27 12h49 q10 0 18 -6t0 -37q-20 -80 -61 -122t-111 -42q-35 0 -64.5 11.5t-58.5 27.5q-27 14 -53.5 28.5t-58.5 14.5q-18 0 -31.5 -9t-22.5 -20q-6 -10 -11 -20t-11 -21q-8 -12 -27 -12h-49q-10 0 -18 6z" />
<glyph unicode="&#xd6;" horiz-adv-x="1370" d="M106 684q0 172 43.5 305t121 225.5t183 139.5t232.5 47q125 0 231.5 -47t183.5 -139.5t120 -225.5t43 -305t-43 -305t-120 -223t-183.5 -137.5t-231.5 -47.5q-127 0 -232.5 47.5t-183 137.5t-121 223t-43.5 305zM266 684q0 -272 109.5 -429t310.5 -157q98 0 176 41 t132.5 117t82 184.5t27.5 243.5t-27.5 244.5t-82 186.5t-132.5 118t-176 41q-100 0 -178 -41t-132 -118t-82 -186.5t-28 -244.5zM481 1569q0 41 26.5 68.5t65.5 27.5q41 0 68 -27.5t27 -68.5t-27 -67.5t-68 -26.5q-39 0 -65.5 26.5t-26.5 67.5zM760 1569q0 41 26.5 68.5 t65.5 27.5q41 0 67.5 -27.5t26.5 -68.5t-26.5 -67.5t-67.5 -26.5q-39 0 -65.5 26.5t-26.5 67.5z" />
<glyph unicode="&#xd7;" horiz-adv-x="997" d="M188 383q0 12 17 31l209 223l-209 221q-16 18 -17 31q0 10 6.5 20.5t22.5 26.5q18 18 27.5 22.5t17.5 4.5t14.5 -3.5t16.5 -13.5l207 -219l205 219q10 10 16 13.5t14 3.5t17.5 -4.5t27.5 -22.5q16 -16 22.5 -26.5t6.5 -20.5q0 -12 -16 -31l-209 -221l209 -223 q16 -19 16 -31q0 -10 -6 -20.5t-23 -26.5q-18 -18 -27.5 -22.5t-17.5 -4.5t-14 3t-16 14l-205 219l-207 -219q-10 -10 -16.5 -13.5t-14.5 -3.5t-17 4t-28 23q-16 16 -22.5 26.5t-6.5 20.5z" />
<glyph unicode="&#xd8;" horiz-adv-x="1366" d="M82 -6q0 10 3 14t9 15l139 178q-61 88 -95 208.5t-34 274.5q0 172 43 305t121 225.5t183.5 139.5t232.5 47q223 0 375 -146l94 123q10 12 25.5 17.5t50.5 5.5q55 0 55 -23q0 -10 -3 -14t-9 -14l-139 -181q61 -90 95 -210.5t34 -274.5q0 -172 -43 -305t-120 -223 t-183.5 -137.5t-231.5 -47.5q-223 0 -377 144l-94 -121q-10 -12 -24.5 -17.5t-49.5 -5.5q-57 0 -57 23zM264 684q0 -215 68 -356l639 817q-53 61 -124 95t-163 34q-100 0 -178 -41t-132.5 -118t-82 -186.5t-27.5 -244.5zM395 229q53 -63 125 -97t164 -34q98 0 176 41 t132.5 117t82 184.5t27.5 243.5q0 213 -70 358z" />
<glyph unicode="&#xd9;" horiz-adv-x="1314" d="M168 422v913q0 25 10 33q6 4 19.5 8t42.5 4t42 -4t19 -8q12 -10 12 -33v-915q0 -154 84 -235t260 -81t260 81t84 235v915q0 25 11 33q6 4 19 8t42 4t42 -4t20 -8q12 -10 12 -33v-913q0 -98 -25.5 -181t-84 -142.5t-151.5 -93.5t-229 -34q-135 0 -228 34t-151.5 93.5 t-84 142.5t-25.5 181zM444 1774q0 14 14.5 21.5t53.5 7.5t64.5 -7.5t39.5 -31.5l135 -234q8 -14 13.5 -25.5t5.5 -19.5q0 -10 -10.5 -16t-43.5 -6q-25 0 -36 3t-19 7q-8 6 -15 14t-14 17l-147 200q-20 29 -30.5 44.5t-10.5 25.5z" />
<glyph unicode="&#xda;" horiz-adv-x="1314" d="M168 422v913q0 25 10 33q6 4 19.5 8t42.5 4t42 -4t19 -8q12 -10 12 -33v-915q0 -154 84 -235t260 -81t260 81t84 235v915q0 25 11 33q6 4 19 8t42 4t42 -4t20 -8q12 -10 12 -33v-913q0 -98 -25.5 -181t-84 -142.5t-151.5 -93.5t-229 -34q-135 0 -228 34t-151.5 93.5 t-84 142.5t-25.5 181zM608 1485q0 8 5 19.5t13 25.5l136 234q14 25 39.5 32t64.5 7t53.5 -7.5t14.5 -21.5q0 -10 -10.5 -25.5t-30.5 -44.5l-148 -200q-6 -8 -13 -16.5t-15 -14.5q-8 -4 -19.5 -7t-36.5 -3q-33 0 -43 6t-10 16z" />
<glyph unicode="&#xdb;" horiz-adv-x="1314" d="M168 422v913q0 25 10 33q6 4 19.5 8t42.5 4t42 -4t19 -8q12 -10 12 -33v-915q0 -154 84 -235t260 -81t260 81t84 235v915q0 25 11 33q6 4 19 8t42 4t42 -4t20 -8q12 -10 12 -33v-913q0 -98 -25.5 -181t-84 -142.5t-151.5 -93.5t-229 -34q-135 0 -228 34t-151.5 93.5 t-84 142.5t-25.5 181zM366 1485q0 8 6.5 17.5t24.5 31.5l180 217q23 29 40.5 40.5t47.5 11.5q31 0 48.5 -11.5t40.5 -40.5l180 -217q18 -23 24 -32t6 -17q0 -12 -13 -17t-48 -5q-31 0 -46 6t-32 22l-160 181l-159 -181q-16 -16 -31.5 -22t-46.5 -6q-35 0 -48.5 5t-13.5 17z " />
<glyph unicode="&#xdc;" horiz-adv-x="1314" d="M168 422v913q0 25 10 33q6 4 19.5 8t42.5 4t42 -4t19 -8q12 -10 12 -33v-915q0 -154 84 -235t260 -81t260 81t84 235v915q0 25 11 33q6 4 19 8t42 4t42 -4t20 -8q12 -10 12 -33v-913q0 -98 -25.5 -181t-84 -142.5t-151.5 -93.5t-229 -34q-135 0 -228 34t-151.5 93.5 t-84 142.5t-25.5 181zM434 1569q0 41 26.5 68.5t65.5 27.5q41 0 68 -27.5t27 -68.5t-27 -67.5t-68 -26.5q-39 0 -65.5 26.5t-26.5 67.5zM713 1569q0 41 26.5 68.5t65.5 27.5q41 0 67.5 -27.5t26.5 -68.5t-26.5 -67.5t-67.5 -26.5q-39 0 -65.5 26.5t-26.5 67.5z" />
<glyph unicode="&#xdd;" horiz-adv-x="1058" d="M10 1354q0 12 10 18q6 4 19.5 6t42.5 2q35 0 51.5 -6t26.5 -22l372 -631l373 631q10 16 25.5 22t50.5 6q45 0 57 -8q11 -6 11 -16q0 -4 -1 -10.5t-12 -22.5l-438 -733v-553q0 -25 -12 -33q-6 -4 -19.5 -8t-42.5 -4t-42 4t-19 8q-10 8 -10 33v553l-420 719 q-10 16 -16.5 25t-6.5 20zM526 1485q0 8 5 19.5t13 25.5l136 234q14 25 39.5 32t64.5 7t53.5 -7.5t14.5 -21.5q0 -10 -10.5 -25.5t-30.5 -44.5l-148 -200q-6 -8 -13 -16.5t-15 -14.5q-8 -4 -19.5 -7t-36.5 -3q-33 0 -43 6t-10 16z" />
<glyph unicode="&#xde;" horiz-adv-x="1118" d="M180 37v1298q0 25 10 33q6 4 18.5 8t41.5 4t41 -4t18 -8q12 -10 13 -33v-217h251q231 0 352.5 -92t121.5 -278q0 -84 -27 -159t-84 -130.5t-149.5 -88t-221.5 -32.5q-68 0 -129 2t-114 4v-307q0 -25 -13 -33q-6 -4 -18 -8t-41 -4t-41 4t-19 8q-10 8 -10 33zM322 469 q92 -6 235 -6q166 0 250 75.5t84 206.5q0 125 -84 186.5t-242 61.5h-243v-524z" />
<glyph unicode="&#xdf;" horiz-adv-x="1112" d="M143 29v1022q0 150 77 239.5t247 89.5q84 0 142.5 -24.5t94 -61.5t52 -81t16.5 -83q0 -59 -16.5 -111t-46.5 -104q-10 -14 -17.5 -25t-15.5 -22q-14 -23 -26.5 -38t-22.5 -31q-25 -35 -25 -72q0 -33 23.5 -54.5t52.5 -37.5t64.5 -31.5t70.5 -36.5q37 -20 75 -42.5 t68 -55.5q29 -29 46.5 -71.5t17.5 -108.5q0 -61 -18.5 -117.5t-58.5 -99.5t-102.5 -67.5t-152.5 -24.5q-55 0 -115.5 14t-97.5 35q-29 14 -49 29.5t-20 31.5q0 12 3 21.5t9 19.5q8 14 18 25.5t23 11.5q14 0 32.5 -11.5t43.5 -21.5q29 -12 67.5 -25.5t75.5 -13.5 q104 0 154.5 55.5t50.5 124.5q0 47 -20.5 82t-52.5 61.5t-71 45t-75 35.5q-41 18 -78 35.5t-64.5 41t-43 54.5t-15.5 74q0 41 12 71.5t33 63.5q8 12 15 23t16 24q35 51 63.5 103t28.5 118q0 84 -47 123t-111 39q-113 0 -155 -60.5t-42 -173.5v-1005q0 -35 -21.5 -37 t-47.5 -2q-27 0 -45.5 3t-18.5 34z" />
<glyph unicode="&#xe0;" horiz-adv-x="903" d="M63 246q0 147 84 214.5t238 82.5l252 22v31q0 94 -51 150.5t-168 56.5q-76 0 -132.5 -18.5t-101.5 -45.5q-10 -6 -17 -9t-20 -3q-23 0 -36 39q-8 16 -10.5 24.5t-2.5 16.5q0 10 9.5 19.5t33.5 21.5q59 29 122 47t163 18q178 0 264 -92q41 -41 60.5 -103.5t19.5 -158.5 v-389q0 -41 8 -68.5t13 -40.5q8 -20 8 -30q0 -12 -13.5 -21.5t-25.5 -13.5q-27 -10 -53 -10q-18 0 -31 18q-12 20 -21 49q-4 16 -7 25.5t-7 25.5q-59 -66 -131 -95t-166 -29q-55 0 -106.5 15t-89 47t-61.5 82t-24 122zM199 254q0 -88 47 -127t112 -39q33 0 81 10.5t92 41 t75 86t31 145.5v90l-227 -23q-104 -10 -157.5 -53t-53.5 -131zM244 1323q0 14 14.5 21.5t53.5 7.5t64.5 -7.5t39.5 -31.5l135 -234q8 -14 13.5 -25.5t5.5 -19.5q0 -10 -10.5 -16t-43.5 -6q-25 0 -36 3t-19 7q-8 6 -15 14t-14 17l-147 200q-20 29 -30.5 44.5t-10.5 25.5z" />
<glyph unicode="&#xe1;" horiz-adv-x="903" d="M63 246q0 147 84 214.5t238 82.5l252 22v31q0 94 -51 150.5t-168 56.5q-76 0 -132.5 -18.5t-101.5 -45.5q-10 -6 -17 -9t-20 -3q-23 0 -36 39q-8 16 -10.5 24.5t-2.5 16.5q0 10 9.5 19.5t33.5 21.5q59 29 122 47t163 18q178 0 264 -92q41 -41 60.5 -103.5t19.5 -158.5 v-389q0 -41 8 -68.5t13 -40.5q8 -20 8 -30q0 -12 -13.5 -21.5t-25.5 -13.5q-27 -10 -53 -10q-18 0 -31 18q-12 20 -21 49q-4 16 -7 25.5t-7 25.5q-59 -66 -131 -95t-166 -29q-55 0 -106.5 15t-89 47t-61.5 82t-24 122zM199 254q0 -88 47 -127t112 -39q33 0 81 10.5t92 41 t75 86t31 145.5v90l-227 -23q-104 -10 -157.5 -53t-53.5 -131zM399 1034q0 8 5 19.5t13 25.5l136 234q14 25 39.5 32t64.5 7t53.5 -7.5t14.5 -21.5q0 -10 -10.5 -25.5t-30.5 -44.5l-148 -200q-6 -8 -13 -16.5t-15 -14.5q-8 -4 -19.5 -7t-36.5 -3q-33 0 -43 6t-10 16z" />
<glyph unicode="&#xe2;" horiz-adv-x="903" d="M63 246q0 147 84 214.5t238 82.5l252 22v31q0 94 -51 150.5t-168 56.5q-76 0 -132.5 -18.5t-101.5 -45.5q-10 -6 -17 -9t-20 -3q-23 0 -36 39q-8 16 -10.5 24.5t-2.5 16.5q0 10 9.5 19.5t33.5 21.5q59 29 122 47t163 18q178 0 264 -92q41 -41 60.5 -103.5t19.5 -158.5 v-389q0 -41 8 -68.5t13 -40.5q8 -20 8 -30q0 -12 -13.5 -21.5t-25.5 -13.5q-27 -10 -53 -10q-18 0 -31 18q-12 20 -21 49q-4 16 -7 25.5t-7 25.5q-59 -66 -131 -95t-166 -29q-55 0 -106.5 15t-89 47t-61.5 82t-24 122zM167 1034q0 8 6.5 17.5t24.5 31.5l180 217 q23 29 40.5 40.5t47.5 11.5q31 0 48.5 -11.5t40.5 -40.5l180 -217q18 -23 24 -32t6 -17q0 -12 -13 -17t-48 -5q-31 0 -46 6t-32 22l-160 181l-159 -181q-16 -16 -31.5 -22t-46.5 -6q-35 0 -48.5 5t-13.5 17zM199 254q0 -88 47 -127t112 -39q33 0 81 10.5t92 41t75 86 t31 145.5v90l-227 -23q-104 -10 -157.5 -53t-53.5 -131z" />
<glyph unicode="&#xe3;" horiz-adv-x="903" d="M63 246q0 147 84 214.5t238 82.5l252 22v31q0 94 -51 150.5t-168 56.5q-76 0 -132.5 -18.5t-101.5 -45.5q-10 -6 -17 -9t-20 -3q-23 0 -36 39q-8 16 -10.5 24.5t-2.5 16.5q0 10 9.5 19.5t33.5 21.5q59 29 122 47t163 18q178 0 264 -92q41 -41 60.5 -103.5t19.5 -158.5 v-389q0 -41 8 -68.5t13 -40.5q8 -20 8 -30q0 -12 -13.5 -21.5t-25.5 -13.5q-27 -10 -53 -10q-18 0 -31 18q-12 20 -21 49q-4 16 -7 25.5t-7 25.5q-59 -66 -131 -95t-166 -29q-55 0 -106.5 15t-89 47t-61.5 82t-24 122zM174 1034q-8 6 0 37q20 80 61 122t111 42 q39 0 67.5 -12.5t55.5 -26.5t54.5 -28.5t57.5 -14.5q35 0 54 29q6 10 11 20t11 21q8 12 27 12h49q10 0 18 -6t0 -37q-20 -80 -61 -122t-111 -42q-35 0 -64.5 11.5t-58.5 27.5q-27 14 -53.5 28.5t-58.5 14.5q-18 0 -31.5 -9t-22.5 -20q-6 -10 -11 -20t-11 -21q-8 -12 -27 -12 h-49q-10 0 -18 6zM199 254q0 -88 47 -127t112 -39q33 0 81 10.5t92 41t75 86t31 145.5v90l-227 -23q-104 -10 -157.5 -53t-53.5 -131z" />
<glyph unicode="&#xe4;" horiz-adv-x="903" d="M63 246q0 147 84 214.5t238 82.5l252 22v31q0 94 -51 150.5t-168 56.5q-76 0 -132.5 -18.5t-101.5 -45.5q-10 -6 -17 -9t-20 -3q-23 0 -36 39q-8 16 -10.5 24.5t-2.5 16.5q0 10 9.5 19.5t33.5 21.5q59 29 122 47t163 18q178 0 264 -92q41 -41 60.5 -103.5t19.5 -158.5 v-389q0 -41 8 -68.5t13 -40.5q8 -20 8 -30q0 -12 -13.5 -21.5t-25.5 -13.5q-27 -10 -53 -10q-18 0 -31 18q-12 20 -21 49q-4 16 -7 25.5t-7 25.5q-59 -66 -131 -95t-166 -29q-55 0 -106.5 15t-89 47t-61.5 82t-24 122zM199 254q0 -88 47 -127t112 -39q33 0 81 10.5t92 41 t75 86t31 145.5v90l-227 -23q-104 -10 -157.5 -53t-53.5 -131zM237 1118q0 41 26.5 68.5t65.5 27.5q41 0 68 -27.5t27 -68.5t-27 -67.5t-68 -26.5q-39 0 -65.5 26.5t-26.5 67.5zM516 1118q0 41 26.5 68.5t65.5 27.5q41 0 67.5 -27.5t26.5 -68.5t-26.5 -67.5t-67.5 -26.5 q-39 0 -65.5 26.5t-26.5 67.5z" />
<glyph unicode="&#xe5;" horiz-adv-x="903" d="M63 246q0 147 84 214.5t238 82.5l252 22v31q0 94 -51 150.5t-168 56.5q-76 0 -132.5 -18.5t-101.5 -45.5q-10 -6 -17 -9t-20 -3q-23 0 -36 39q-8 16 -10.5 24.5t-2.5 16.5q0 10 9.5 19.5t33.5 21.5q59 29 122 47t163 18q178 0 264 -92q41 -41 60.5 -103.5t19.5 -158.5 v-389q0 -41 8 -68.5t13 -40.5q8 -20 8 -30q0 -12 -13.5 -21.5t-25.5 -13.5q-27 -10 -53 -10q-18 0 -31 18q-12 20 -21 49q-4 16 -7 25.5t-7 25.5q-59 -66 -131 -95t-166 -29q-55 0 -106.5 15t-89 47t-61.5 82t-24 122zM199 254q0 -88 47 -127t112 -39q33 0 81 10.5t92 41 t75 86t31 145.5v90l-227 -23q-104 -10 -157.5 -53t-53.5 -131zM291 1200q0 39 14.5 74t40 60.5t60.5 40t74 14.5t73.5 -14.5t60 -40t40 -60.5t14.5 -74t-14.5 -73.5t-40 -60.5t-60 -40t-73.5 -14t-74 14t-60.5 40t-40 60.5t-14.5 73.5zM381 1200q0 -39 30 -68.5t69 -29.5 t68.5 29.5t29.5 68.5t-29.5 68.5t-68.5 29.5t-69 -29.5t-30 -68.5z" />
<glyph unicode="&#xe6;" horiz-adv-x="1484" d="M63 246q0 147 84 214.5t238 82.5l252 22v31q0 94 -51 150.5t-168 56.5q-76 0 -132.5 -18.5t-101.5 -45.5q-10 -6 -17 -9t-20 -3q-23 0 -36 39q-8 16 -10.5 24.5t-2.5 16.5q0 10 9.5 19.5t33.5 21.5q59 29 122 47t163 18q45 0 90 -7t85 -24.5t74 -47t54 -74.5 q53 78 128 115.5t167 37.5q180 0 278.5 -117.5t98.5 -326.5q0 -55 -70 -55h-561q10 -141 85 -223t192 -82q53 0 86.5 6t68.5 16q27 10 51.5 22.5t40.5 12.5q20 0 39 -35q8 -16 13.5 -26.5t5.5 -20.5t-7.5 -20.5t-37.5 -26.5q-43 -23 -107.5 -40t-157.5 -17q-111 0 -197.5 47 t-137.5 133q-53 -86 -146.5 -133t-198.5 -47q-61 0 -115 15t-95 47t-65 82t-24 122zM199 254q0 -88 49 -127t117 -39q33 0 80 10.5t90 41t72.5 86t29.5 145.5v90l-227 -23q-104 -10 -157.5 -53t-53.5 -131zM770 522h485q-4 133 -67.5 208t-167.5 75q-106 0 -169 -74 t-81 -209z" />
<glyph unicode="&#xe7;" horiz-adv-x="796" d="M92 446q0 102 29 188.5t82 148t126.5 96t166.5 34.5q68 0 108.5 -10t75.5 -24q47 -18 59.5 -31.5t12.5 -24.5q0 -10 -5.5 -22.5t-9.5 -26.5q-8 -16 -16 -27.5t-25 -11.5q-12 0 -25.5 6.5t-31.5 16.5q-31 14 -62.5 24.5t-84.5 10.5q-59 0 -107.5 -27t-83.5 -74 t-53.5 -109.5t-18.5 -136.5q0 -152 69 -247t189 -95q49 0 81 9.5t61 23.5q23 10 38 20.5t31 10.5t24.5 -11.5t16.5 -25.5q8 -10 14.5 -22.5t6.5 -22.5t-9.5 -20.5t-39.5 -26.5q-41 -23 -95.5 -41t-130.5 -18q-80 0 -151.5 27.5t-125.5 85t-85 145.5t-31 208zM362 -381 q0 8 2 18.5t7 26.5l55 232q6 25 23.5 34t60.5 9q41 0 56.5 -8.5t15.5 -20.5q0 -23 -15 -57l-90 -224q-10 -25 -22.5 -30t-49.5 -5q-29 0 -36 7.5t-7 17.5z" />
<glyph unicode="&#xe8;" horiz-adv-x="944" d="M92 449q0 106 29 192t81 146.5t123.5 93t157.5 32.5q180 0 278.5 -117.5t98.5 -326.5q0 -55 -69 -55h-562q10 -141 85 -223t192 -82q53 0 87 6t69 16q27 10 51 22.5t41 12.5q20 0 39 -35q8 -16 13 -26.5t5 -20.5t-7 -20.5t-38 -26.5q-43 -23 -107.5 -40t-156.5 -17 t-167 32.5t-129 94t-84 147.5t-30 195zM229 522h486q-4 133 -67.5 208t-168.5 75q-106 0 -168.5 -74t-81.5 -209zM295 1323q0 14 14.5 21.5t53.5 7.5t64.5 -7.5t39.5 -31.5l135 -234q8 -14 13.5 -25.5t5.5 -19.5q0 -10 -10.5 -16t-43.5 -6q-25 0 -36 3t-19 7q-8 6 -15 14 t-14 17l-147 200q-20 29 -30.5 44.5t-10.5 25.5z" />
<glyph unicode="&#xe9;" horiz-adv-x="944" d="M92 449q0 106 29 192t81 146.5t123.5 93t157.5 32.5q180 0 278.5 -117.5t98.5 -326.5q0 -55 -69 -55h-562q10 -141 85 -223t192 -82q53 0 87 6t69 16q27 10 51 22.5t41 12.5q20 0 39 -35q8 -16 13 -26.5t5 -20.5t-7 -20.5t-38 -26.5q-43 -23 -107.5 -40t-156.5 -17 t-167 32.5t-129 94t-84 147.5t-30 195zM229 522h486q-4 133 -67.5 208t-168.5 75q-106 0 -168.5 -74t-81.5 -209zM444 1034q0 8 5 19.5t13 25.5l136 234q14 25 39.5 32t64.5 7t53.5 -7.5t14.5 -21.5q0 -10 -10.5 -25.5t-30.5 -44.5l-148 -200q-6 -8 -13 -16.5t-15 -14.5 q-8 -4 -19.5 -7t-36.5 -3q-33 0 -43 6t-10 16z" />
<glyph unicode="&#xea;" horiz-adv-x="944" d="M92 449q0 106 29 192t81 146.5t123.5 93t157.5 32.5q180 0 278.5 -117.5t98.5 -326.5q0 -55 -69 -55h-562q10 -141 85 -223t192 -82q53 0 87 6t69 16q27 10 51 22.5t41 12.5q20 0 39 -35q8 -16 13 -26.5t5 -20.5t-7 -20.5t-38 -26.5q-43 -23 -107.5 -40t-156.5 -17 t-167 32.5t-129 94t-84 147.5t-30 195zM217 1034q0 8 6.5 17.5t24.5 31.5l180 217q23 29 40.5 40.5t47.5 11.5q31 0 48.5 -11.5t40.5 -40.5l180 -217q18 -23 24 -32t6 -17q0 -12 -13 -17t-48 -5q-31 0 -46 6t-32 22l-160 181l-159 -181q-16 -16 -31.5 -22t-46.5 -6 q-35 0 -48.5 5t-13.5 17zM229 522h486q-4 133 -67.5 208t-168.5 75q-106 0 -168.5 -74t-81.5 -209z" />
<glyph unicode="&#xeb;" horiz-adv-x="944" d="M92 449q0 106 29 192t81 146.5t123.5 93t157.5 32.5q180 0 278.5 -117.5t98.5 -326.5q0 -55 -69 -55h-562q10 -141 85 -223t192 -82q53 0 87 6t69 16q27 10 51 22.5t41 12.5q20 0 39 -35q8 -16 13 -26.5t5 -20.5t-7 -20.5t-38 -26.5q-43 -23 -107.5 -40t-156.5 -17 t-167 32.5t-129 94t-84 147.5t-30 195zM229 522h486q-4 133 -67.5 208t-168.5 75q-106 0 -168.5 -74t-81.5 -209zM301 1118q0 41 26.5 68.5t65.5 27.5q41 0 68 -27.5t27 -68.5t-27 -67.5t-68 -26.5q-39 0 -65.5 26.5t-26.5 67.5zM580 1118q0 41 26.5 68.5t65.5 27.5 q41 0 67.5 -27.5t26.5 -68.5t-26.5 -67.5t-67.5 -26.5q-39 0 -65.5 26.5t-26.5 67.5z" />
<glyph unicode="&#xec;" horiz-adv-x="419" d="M-12 1323q0 14 14.5 21.5t53.5 7.5t64.5 -7.5t39.5 -31.5l135 -234q8 -14 13.5 -25.5t5.5 -19.5q0 -10 -10.5 -16t-43.5 -6q-25 0 -36 3t-19 7q-8 6 -15 14t-14 17l-147 200q-20 29 -30.5 44.5t-10.5 25.5zM143 37v805q0 29 13 41q4 4 15 8t28 8q31 6 45 6q18 0 24 -6 q8 -8 8 -29v-833q0 -23 -10 -33q-6 -4 -17 -8t-40 -4t-39 4t-16 8q-10 10 -11 33z" />
<glyph unicode="&#xed;" horiz-adv-x="419" d="M143 37v805q0 29 13 41q4 4 15 8t28 8q31 6 45 6q18 0 24 -6q8 -8 8 -29v-833q0 -23 -10 -33q-6 -4 -17 -8t-40 -4t-39 4t-16 8q-10 10 -11 33zM160 1034q0 8 5 19.5t13 25.5l136 234q14 25 39.5 32t64.5 7t53.5 -7.5t14.5 -21.5q0 -10 -10.5 -25.5t-30.5 -44.5 l-148 -200q-6 -8 -13 -16.5t-15 -14.5q-8 -4 -19.5 -7t-36.5 -3q-33 0 -43 6t-10 16z" />
<glyph unicode="&#xee;" horiz-adv-x="419" d="M-76 1034q0 8 6.5 17.5t24.5 31.5l180 217q23 29 40.5 40.5t47.5 11.5q31 0 48.5 -11.5t40.5 -40.5l180 -217q18 -23 24 -32t6 -17q0 -12 -13 -17t-48 -5q-31 0 -46 6t-32 22l-160 181l-159 -181q-16 -16 -31.5 -22t-46.5 -6q-35 0 -48.5 5t-13.5 17zM143 37v805 q0 29 13 41q4 4 15 8t28 8q31 6 45 6q18 0 24 -6q8 -8 8 -29v-833q0 -23 -10 -33q-6 -4 -17 -8t-40 -4t-39 4t-16 8q-10 10 -11 33z" />
<glyph unicode="&#xef;" horiz-adv-x="419" d="M-4 1118q0 41 26.5 68.5t65.5 27.5q41 0 68 -27.5t27 -68.5t-27 -67.5t-68 -26.5q-39 0 -65.5 26.5t-26.5 67.5zM143 37v805q0 29 13 41q4 4 15 8t28 8q31 6 45 6q18 0 24 -6q8 -8 8 -29v-833q0 -23 -10 -33q-6 -4 -17 -8t-40 -4t-39 4t-16 8q-10 10 -11 33zM275 1118 q0 41 26.5 68.5t65.5 27.5q41 0 67.5 -27.5t26.5 -68.5t-26.5 -67.5t-67.5 -26.5q-39 0 -65.5 26.5t-26.5 67.5z" />
<glyph unicode="&#xf0;" horiz-adv-x="995" d="M84 440q0 113 31.5 197t85 141.5t124 86t148.5 28.5q76 0 146.5 -25.5t113.5 -72.5q-16 68 -42.5 142.5t-72.5 145.5l-153 -63q-12 -4 -20.5 -7t-18.5 -3q-18 0 -33 32q-8 23 -8 33q0 14 23 25l153 63q-47 57 -104 103q-23 18 -29 27.5t-6 19.5q0 14 16 37q16 20 23.5 25 t19.5 5q10 0 25.5 -8t32.5 -18q70 -43 147 -140l133 56q12 4 20.5 7t18.5 3q18 0 33 -33q8 -23 8 -33q0 -14 -22 -24l-136 -55q35 -55 68 -127q53 -117 77.5 -244t24.5 -240q0 -137 -32.5 -239.5t-88 -170t-131 -101t-161.5 -33.5t-162 32.5t-131 92t-88 145.5t-33 190z M221 434q0 -72 18.5 -134t53.5 -108.5t87 -74t118 -27.5t117 27.5t86.5 74t54 108.5t18.5 134q0 70 -18.5 133.5t-54 110.5t-87 75.5t-116.5 28.5q-66 0 -117 -28.5t-87 -75.5t-54.5 -110.5t-18.5 -133.5z" />
<glyph unicode="&#xf1;" d="M143 37v805q0 29 13 41q4 4 15 8t28 8q31 6 45 6q18 0 24 -6q8 -8 8 -29v-102q41 63 118 104t175 41q82 0 142.5 -24.5t99.5 -68.5t57.5 -104.5t18.5 -133.5v-545q0 -23 -10 -33q-6 -4 -17.5 -8t-40.5 -4t-39 4t-16 8q-10 10 -10 33v522q0 240 -217 240 q-53 0 -101.5 -22.5t-83.5 -60.5t-55.5 -87t-20.5 -103v-489q0 -23 -10 -33q-6 -4 -17 -8t-40 -4t-39 4t-16 8q-10 10 -11 33zM264 1034q-8 6 0 37q20 80 61 122t111 42q39 0 67.5 -12.5t55.5 -26.5t54.5 -28.5t57.5 -14.5q35 0 54 29q6 10 11 20t11 21q8 12 27 12h49 q10 0 18 -6t0 -37q-20 -80 -61 -122t-111 -42q-35 0 -64.5 11.5t-58.5 27.5q-27 14 -53.5 28.5t-58.5 14.5q-18 0 -31.5 -9t-22.5 -20q-6 -10 -11 -20t-11 -21q-8 -12 -27 -12h-49q-10 0 -18 6z" />
<glyph unicode="&#xf2;" horiz-adv-x="1013" d="M92 446q0 106 31 192.5t86 148t131 94t166 32.5t166 -32.5t131 -94t87 -148t32 -192.5t-32 -192t-87 -147.5t-131 -94t-166 -32.5t-166 32.5t-131 94t-86 147.5t-31 192zM229 446q0 -72 17.5 -135t53.5 -111t87 -77t119 -29t120 29t88 77t53 111t17 135t-17 135.5 t-53 111.5t-88.5 77t-119.5 29q-68 0 -119 -29t-87 -77t-53.5 -111.5t-17.5 -135.5zM344 1323q0 14 14.5 21.5t53.5 7.5t64.5 -7.5t39.5 -31.5l135 -234q8 -14 13.5 -25.5t5.5 -19.5q0 -10 -10.5 -16t-43.5 -6q-25 0 -36 3t-19 7q-8 6 -15 14t-14 17l-147 200 q-20 29 -30.5 44.5t-10.5 25.5z" />
<glyph unicode="&#xf3;" horiz-adv-x="1013" d="M92 446q0 106 31 192.5t86 148t131 94t166 32.5t166 -32.5t131 -94t87 -148t32 -192.5t-32 -192t-87 -147.5t-131 -94t-166 -32.5t-166 32.5t-131 94t-86 147.5t-31 192zM229 446q0 -72 17.5 -135t53.5 -111t87 -77t119 -29t120 29t88 77t53 111t17 135t-17 135.5 t-53 111.5t-88.5 77t-119.5 29q-68 0 -119 -29t-87 -77t-53.5 -111.5t-17.5 -135.5zM444 1034q0 8 5 19.5t13 25.5l136 234q14 25 39.5 32t64.5 7t53.5 -7.5t14.5 -21.5q0 -10 -10.5 -25.5t-30.5 -44.5l-148 -200q-6 -8 -13 -16.5t-15 -14.5q-8 -4 -19.5 -7t-36.5 -3 q-33 0 -43 6t-10 16z" />
<glyph unicode="&#xf4;" horiz-adv-x="1013" d="M92 446q0 106 31 192.5t86 148t131 94t166 32.5t166 -32.5t131 -94t87 -148t32 -192.5t-32 -192t-87 -147.5t-131 -94t-166 -32.5t-166 32.5t-131 94t-86 147.5t-31 192zM227 1034q0 8 6.5 17.5t24.5 31.5l180 217q23 29 40.5 40.5t47.5 11.5q31 0 48.5 -11.5t40.5 -40.5 l180 -217q18 -23 24 -32t6 -17q0 -12 -13 -17t-48 -5q-31 0 -46 6t-32 22l-160 181l-159 -181q-16 -16 -31.5 -22t-46.5 -6q-35 0 -48.5 5t-13.5 17zM229 446q0 -72 17.5 -135t53.5 -111t87 -77t119 -29t120 29t88 77t53 111t17 135t-17 135.5t-53 111.5t-88.5 77t-119.5 29 q-68 0 -119 -29t-87 -77t-53.5 -111.5t-17.5 -135.5z" />
<glyph unicode="&#xf5;" horiz-adv-x="1013" d="M92 446q0 106 31 192.5t86 148t131 94t166 32.5t166 -32.5t131 -94t87 -148t32 -192.5t-32 -192t-87 -147.5t-131 -94t-166 -32.5t-166 32.5t-131 94t-86 147.5t-31 192zM229 446q0 -72 17.5 -135t53.5 -111t87 -77t119 -29t120 29t88 77t53 111t17 135t-17 135.5 t-53 111.5t-88.5 77t-119.5 29q-68 0 -119 -29t-87 -77t-53.5 -111.5t-17.5 -135.5zM246 1034q-8 6 0 37q20 80 61 122t111 42q39 0 67.5 -12.5t55.5 -26.5t54.5 -28.5t57.5 -14.5q35 0 54 29q6 10 11 20t11 21q8 12 27 12h49q10 0 18 -6t0 -37q-20 -80 -61 -122t-111 -42 q-35 0 -64.5 11.5t-58.5 27.5q-27 14 -53.5 28.5t-58.5 14.5q-18 0 -31.5 -9t-22.5 -20q-6 -10 -11 -20t-11 -21q-8 -12 -27 -12h-49q-10 0 -18 6z" />
<glyph unicode="&#xf6;" horiz-adv-x="1013" d="M92 446q0 106 31 192.5t86 148t131 94t166 32.5t166 -32.5t131 -94t87 -148t32 -192.5t-32 -192t-87 -147.5t-131 -94t-166 -32.5t-166 32.5t-131 94t-86 147.5t-31 192zM229 446q0 -72 17.5 -135t53.5 -111t87 -77t119 -29t120 29t88 77t53 111t17 135t-17 135.5 t-53 111.5t-88.5 77t-119.5 29q-68 0 -119 -29t-87 -77t-53.5 -111.5t-17.5 -135.5zM305 1118q0 41 26.5 68.5t65.5 27.5q41 0 68 -27.5t27 -68.5t-27 -67.5t-68 -26.5q-39 0 -65.5 26.5t-26.5 67.5zM584 1118q0 41 26.5 68.5t65.5 27.5q41 0 67.5 -27.5t26.5 -68.5 t-26.5 -67.5t-67.5 -26.5q-39 0 -65.5 26.5t-26.5 67.5z" />
<glyph unicode="&#xf7;" horiz-adv-x="976" d="M72 633q0 29 4 39t8 14q10 10 33 10h743q23 0 33 -10q4 -4 8 -14t4 -39t-4 -38t-8 -13q-10 -10 -33 -11h-743q-23 0 -33 11q-4 4 -8 13t-4 38zM383 301q0 43 30.5 76t71.5 33t74 -33t33 -76q0 -41 -33 -72.5t-74 -31.5t-71.5 31.5t-30.5 72.5zM383 965q0 41 30.5 73.5 t71.5 32.5t74 -32.5t33 -73.5q0 -43 -33 -75t-74 -32t-71.5 32t-30.5 75z" />
<glyph unicode="&#xf8;" horiz-adv-x="1013" d="M92 446q0 106 31 192.5t86 148t131 94t166 32.5q143 0 248 -82l49 60q10 12 21.5 17t43.5 5q29 0 38 -6t9 -16q0 -8 -3 -14.5t-15 -22.5l-76 -90q47 -59 74 -139.5t27 -178.5q0 -106 -32 -192t-87 -147.5t-131 -94t-166 -32.5q-147 0 -256 90l-39 -47 q-10 -12 -21.5 -17.5t-42.5 -5.5q-29 0 -39 6t-10 17q0 8 3 14t18 22l65 80q-92 121 -92 307zM229 446q0 -115 43 -200l404 489q-68 63 -170 64q-68 0 -119 -29t-87 -77t-53.5 -111.5t-17.5 -135.5zM328 166q72 -72 178 -72q68 0 120 29t88 77t53 111t17 135q0 123 -49 213z " />
<glyph unicode="&#xf9;" d="M137 311v545q0 23 10 33q6 4 17.5 8t40.5 4t39 -4t16 -8q10 -10 10 -33v-522q0 -240 217 -240q53 0 100.5 22.5t83.5 60.5t56.5 87t20.5 103v489q0 23 10 33q6 4 17 8t40 4t39 -4t16 -8q10 -10 11 -33v-819q0 -23 -11 -33q-4 -4 -12 -8t-37 -4t-39 4t-14 8q-10 10 -10 33 v98q-109 -156 -303 -155q-82 0 -142.5 24.5t-99.5 68.5t-57.5 104.5t-18.5 133.5zM326 1323q0 14 14.5 21.5t53.5 7.5t64.5 -7.5t39.5 -31.5l135 -234q8 -14 13.5 -25.5t5.5 -19.5q0 -10 -10.5 -16t-43.5 -6q-25 0 -36 3t-19 7q-8 6 -15 14t-14 17l-147 200 q-20 29 -30.5 44.5t-10.5 25.5z" />
<glyph unicode="&#xfa;" d="M137 311v545q0 23 10 33q6 4 17.5 8t40.5 4t39 -4t16 -8q10 -10 10 -33v-522q0 -240 217 -240q53 0 100.5 22.5t83.5 60.5t56.5 87t20.5 103v489q0 23 10 33q6 4 17 8t40 4t39 -4t16 -8q10 -10 11 -33v-819q0 -23 -11 -33q-4 -4 -12 -8t-37 -4t-39 4t-14 8q-10 10 -10 33 v98q-109 -156 -303 -155q-82 0 -142.5 24.5t-99.5 68.5t-57.5 104.5t-18.5 133.5zM473 1034q0 8 5 19.5t13 25.5l136 234q14 25 39.5 32t64.5 7t53.5 -7.5t14.5 -21.5q0 -10 -10.5 -25.5t-30.5 -44.5l-148 -200q-6 -8 -13 -16.5t-15 -14.5q-8 -4 -19.5 -7t-36.5 -3 q-33 0 -43 6t-10 16z" />
<glyph unicode="&#xfb;" d="M137 311v545q0 23 10 33q6 4 17.5 8t40.5 4t39 -4t16 -8q10 -10 10 -33v-522q0 -240 217 -240q53 0 100.5 22.5t83.5 60.5t56.5 87t20.5 103v489q0 23 10 33q6 4 17 8t40 4t39 -4t16 -8q10 -10 11 -33v-819q0 -23 -11 -33q-4 -4 -12 -8t-37 -4t-39 4t-14 8q-10 10 -10 33 v98q-109 -156 -303 -155q-82 0 -142.5 24.5t-99.5 68.5t-57.5 104.5t-18.5 133.5zM225 1034q0 8 6.5 17.5t24.5 31.5l180 217q23 29 40.5 40.5t47.5 11.5q31 0 48.5 -11.5t40.5 -40.5l180 -217q18 -23 24 -32t6 -17q0 -12 -13 -17t-48 -5q-31 0 -46 6t-32 22l-160 181 l-159 -181q-16 -16 -31.5 -22t-46.5 -6q-35 0 -48.5 5t-13.5 17z" />
<glyph unicode="&#xfc;" d="M137 311v545q0 23 10 33q6 4 17.5 8t40.5 4t39 -4t16 -8q10 -10 10 -33v-522q0 -240 217 -240q53 0 100.5 22.5t83.5 60.5t56.5 87t20.5 103v489q0 23 10 33q6 4 17 8t40 4t39 -4t16 -8q10 -10 11 -33v-819q0 -23 -11 -33q-4 -4 -12 -8t-37 -4t-39 4t-14 8q-10 10 -10 33 v98q-109 -156 -303 -155q-82 0 -142.5 24.5t-99.5 68.5t-57.5 104.5t-18.5 133.5zM291 1118q0 41 26.5 68.5t65.5 27.5q41 0 68 -27.5t27 -68.5t-27 -67.5t-68 -26.5q-39 0 -65.5 26.5t-26.5 67.5zM570 1118q0 41 26.5 68.5t65.5 27.5q41 0 67.5 -27.5t26.5 -68.5 t-26.5 -67.5t-67.5 -26.5q-39 0 -65.5 26.5t-26.5 67.5z" />
<glyph unicode="&#xfd;" horiz-adv-x="878" d="M10 870q0 31 72 31q35 0 49 -5t21 -19l303 -654l280 641q10 20 25.5 28.5t56.5 8.5q55 0 55 -31q0 -6 -4 -18t-8 -23l-530 -1200q-10 -23 -22.5 -29t-53.5 -6q-35 0 -48 6.5t-13 20.5q0 6 4 15.5t8 19.5l184 414l-364 759q-4 10 -9.5 20.5t-5.5 20.5zM465 1034 q0 8 5 19.5t13 25.5l136 234q14 25 39.5 32t64.5 7t53.5 -7.5t14.5 -21.5q0 -10 -10.5 -25.5t-30.5 -44.5l-148 -200q-6 -8 -13 -16.5t-15 -14.5q-8 -4 -19.5 -7t-36.5 -3q-33 0 -43 6t-10 16z" />
<glyph unicode="&#xfe;" horiz-adv-x="1021" d="M143 -348v1665q0 29 13 41q4 4 15 8t28 8q31 6 45 6q18 0 24 -6q8 -8 8 -28v-572q47 70 122 104.5t167 34.5t164 -33.5t120 -93t72.5 -142.5t24.5 -183q0 -111 -27.5 -200t-79 -151.5t-123 -96t-157.5 -33.5q-111 0 -174 35.5t-109 95.5v-459q0 -23 -10 -33q-6 -4 -17 -8 t-40 -4t-39 4t-16 8q-10 10 -11 33zM266 455q0 -72 15.5 -137.5t48 -114.5t83 -78t119.5 -29q72 0 123.5 30t85 79t49 113.5t15.5 136.5q0 68 -15.5 129t-47 109t-83 76t-124.5 28q-70 0 -121.5 -31t-84 -80t-48 -109.5t-15.5 -121.5z" />
<glyph unicode="&#xff;" horiz-adv-x="878" d="M10 870q0 31 72 31q35 0 49 -5t21 -19l303 -654l280 641q10 20 25.5 28.5t56.5 8.5q55 0 55 -31q0 -6 -4 -18t-8 -23l-530 -1200q-10 -23 -22.5 -29t-53.5 -6q-35 0 -48 6.5t-13 20.5q0 6 4 15.5t8 19.5l184 414l-364 759q-4 10 -9.5 20.5t-5.5 20.5zM227 1118 q0 41 26.5 68.5t65.5 27.5q41 0 68 -27.5t27 -68.5t-27 -67.5t-68 -26.5q-39 0 -65.5 26.5t-26.5 67.5zM506 1118q0 41 26.5 68.5t65.5 27.5q41 0 67.5 -27.5t26.5 -68.5t-26.5 -67.5t-67.5 -26.5q-39 0 -65.5 26.5t-26.5 67.5z" />
<glyph unicode="&#x152;" horiz-adv-x="1947" d="M106 684q0 172 42 305t119 225.5t181.5 139.5t231.5 47q51 0 106.5 -9.5t108.5 -33t103.5 -66.5t93.5 -110v133q0 31 12 43q6 6 18.5 10t40.5 4h707q16 0 24 -8q4 -4 5.5 -9t1.5 -20q0 -16 -2.5 -31.5t-4.5 -23.5q-6 -27 -16 -33t-29 -6h-612v-428h541q16 0 24 -8 q4 -4 5 -9t1 -20q0 -16 -2 -31.5t-4 -23.5q-6 -27 -16 -33t-29 -6h-520v-551h643q16 0 25 -8q4 -4 5 -9.5t1 -19.5q0 -16 -2 -31.5t-4 -23.5q-6 -27 -17 -33q-10 -6 -28 -6h-697q-29 0 -41 4t-18 10q-12 12 -12 43v127q-80 -111 -176.5 -162t-235.5 -51q-127 0 -231.5 47.5 t-181.5 137.5t-119 223t-42 305zM266 684q0 -272 106.5 -428t307.5 -156q199 0 305.5 156t106.5 428q0 135 -28 244.5t-80 185.5t-129 117t-175 41q-201 0 -307.5 -158t-106.5 -430z" />
<glyph unicode="&#x153;" horiz-adv-x="1632" d="M92 446q0 106 31 192.5t86 148t131 94t166 32.5q111 0 199 -50t143 -150q51 100 134 150t189 50q180 0 278.5 -117.5t98.5 -326.5q0 -55 -69 -55h-561q10 -141 84.5 -223t191.5 -82q53 0 87 6t69 16q27 10 51 22.5t41 12.5q20 0 39 -35q8 -16 13 -26.5t5 -20.5t-7 -20.5 t-38 -26.5q-43 -23 -107.5 -40t-156.5 -17q-113 0 -200 50t-140 152q-57 -100 -145.5 -151t-198.5 -51q-90 0 -166 32.5t-131 94t-86 147.5t-31 192zM229 446q0 -72 17.5 -135t53.5 -111t87 -77t119 -29t120 29t88 77t53 111t17 135t-17 135.5t-53 111.5t-88.5 77t-119.5 29 q-68 0 -119 -29t-87 -77t-53.5 -111.5t-17.5 -135.5zM918 522h485q-4 133 -67.5 208t-168.5 75q-106 0 -168.5 -74t-80.5 -209z" />
<glyph unicode="&#x178;" horiz-adv-x="1058" d="M10 1354q0 12 10 18q6 4 19.5 6t42.5 2q35 0 51.5 -6t26.5 -22l372 -631l373 631q10 16 25.5 22t50.5 6q45 0 57 -8q11 -6 11 -16q0 -4 -1 -10.5t-12 -22.5l-438 -733v-553q0 -25 -12 -33q-6 -4 -19.5 -8t-42.5 -4t-42 4t-19 8q-10 8 -10 33v553l-420 719 q-10 16 -16.5 25t-6.5 20zM327 1569q0 41 26.5 68.5t65.5 27.5q41 0 68 -27.5t27 -68.5t-27 -67.5t-68 -26.5q-39 0 -65.5 26.5t-26.5 67.5zM606 1569q0 41 26.5 68.5t65.5 27.5q41 0 67.5 -27.5t26.5 -68.5t-26.5 -67.5t-67.5 -26.5q-39 0 -65.5 26.5t-26.5 67.5z" />
<glyph unicode="&#x2c6;" horiz-adv-x="1064" d="M233 1034q0 8 6.5 17.5t24.5 31.5l180 217q23 29 40.5 40.5t47.5 11.5q31 0 48.5 -11.5t40.5 -40.5l180 -217q18 -23 24 -32t6 -17q0 -12 -13 -17t-48 -5q-31 0 -46 6t-32 22l-160 181l-159 -181q-16 -16 -31.5 -22t-46.5 -6q-35 0 -48.5 5t-13.5 17z" />
<glyph unicode="&#x2dc;" horiz-adv-x="1064" d="M244 1034q-8 6 0 37q20 80 61 122t111 42q39 0 67.5 -12.5t55.5 -26.5t54.5 -28.5t57.5 -14.5q35 0 54 29q6 10 11 20t11 21q8 12 27 12h49q10 0 18 -6t0 -37q-20 -80 -61 -122t-111 -42q-35 0 -64.5 11.5t-58.5 27.5q-27 14 -53.5 28.5t-58.5 14.5q-18 0 -31.5 -9 t-22.5 -20q-6 -10 -11 -20t-11 -21q-8 -12 -27 -12h-49q-10 0 -18 6z" />
<glyph unicode="&#x2000;" horiz-adv-x="920" />
<glyph unicode="&#x2001;" horiz-adv-x="1840" />
<glyph unicode="&#x2002;" horiz-adv-x="920" />
<glyph unicode="&#x2003;" horiz-adv-x="1840" />
<glyph unicode="&#x2004;" horiz-adv-x="613" />
<glyph unicode="&#x2005;" horiz-adv-x="460" />
<glyph unicode="&#x2006;" horiz-adv-x="306" />
<glyph unicode="&#x2007;" horiz-adv-x="306" />
<glyph unicode="&#x2008;" horiz-adv-x="230" />
<glyph unicode="&#x2009;" horiz-adv-x="368" />
<glyph unicode="&#x200a;" horiz-adv-x="102" />
<glyph unicode="&#x2010;" horiz-adv-x="731" d="M96 408q0 25 4 50t13 38q10 23 47 22h434q23 0 31 -4q10 -8 10 -37q0 -25 -4 -50.5t-13 -37.5q-10 -23 -47 -22h-434q-23 0 -31 4q-10 8 -10 37z" />
<glyph unicode="&#x2011;" horiz-adv-x="731" d="M96 408q0 25 4 50t13 38q10 23 47 22h434q23 0 31 -4q10 -8 10 -37q0 -25 -4 -50.5t-13 -37.5q-10 -23 -47 -22h-434q-23 0 -31 4q-10 8 -10 37z" />
<glyph unicode="&#x2012;" horiz-adv-x="731" d="M96 408q0 25 4 50t13 38q10 23 47 22h434q23 0 31 -4q10 -8 10 -37q0 -25 -4 -50.5t-13 -37.5q-10 -23 -47 -22h-434q-23 0 -31 4q-10 8 -10 37z" />
<glyph unicode="&#x2013;" d="M16 414q0 8 1 21.5t6 25.5q4 10 8 19t8 14q8 6 24 6h914q16 0 22 -6q7 -7 7 -23q0 -8 -1 -21.5t-6 -25.5q-4 -10 -8 -19.5t-8 -13.5t-9 -5t-16 -1h-913q-16 0 -22 6t-7 23z" />
<glyph unicode="&#x2014;" horiz-adv-x="2048" d="M16 414q0 8 1 21.5t6 25.5q4 10 8 19t8 14q8 6 24 6h1938q16 0 22 -6q7 -7 7 -23q0 -8 -1 -21.5t-6 -25.5q-4 -10 -8 -19.5t-8 -13.5t-9 -5t-16 -1h-1937q-16 0 -22 6t-7 23z" />
<glyph unicode="&#x2018;" horiz-adv-x="393" d="M102 977q0 14 5.5 27.5t9.5 29.5l98 312q8 25 23.5 29.5t52.5 4.5q29 0 38 -7t9 -17q0 -8 -2 -18.5t-6 -26.5l-72 -320q-6 -25 -23.5 -34t-60.5 -9q-41 0 -56.5 8.5t-15.5 20.5z" />
<glyph unicode="&#x2019;" horiz-adv-x="393" d="M55 973q0 8 2 18t6 27l72 319q6 25 23.5 34t60.5 9q41 0 56.5 -8t15.5 -20q0 -14 -5 -27.5t-10 -30.5l-98 -311q-8 -25 -23.5 -30t-52.5 -5q-29 0 -38 7.5t-9 17.5z" />
<glyph unicode="&#x201a;" horiz-adv-x="393" d="M55 -180q0 8 2 18t6 27l72 319q6 25 23.5 34t60.5 9q41 0 56.5 -8t15.5 -20q0 -14 -5 -27.5t-10 -30.5l-98 -311q-8 -25 -23.5 -30t-52.5 -5q-29 0 -38 7.5t-9 17.5z" />
<glyph unicode="&#x201c;" horiz-adv-x="708" d="M102 977q0 14 5.5 27.5t9.5 29.5l98 312q8 25 23.5 29.5t52.5 4.5q29 0 38 -7t9 -17q0 -8 -2 -18.5t-6 -26.5l-72 -320q-6 -25 -23.5 -34t-60.5 -9q-41 0 -56.5 8.5t-15.5 20.5zM418 977q0 14 5 27.5t9 29.5l98 312q8 25 23.5 29.5t52.5 4.5q29 0 38 -7t9 -17 q0 -8 -2 -18.5t-6 -26.5l-72 -320q-6 -25 -23.5 -34t-60.5 -9q-41 0 -56 8.5t-15 20.5z" />
<glyph unicode="&#x201d;" horiz-adv-x="708" d="M55 973q0 8 2 18t6 27l72 319q6 25 23.5 34t60.5 9q41 0 56.5 -8t15.5 -20q0 -14 -5 -27.5t-10 -30.5l-98 -311q-8 -25 -23.5 -30t-52.5 -5q-29 0 -38 7.5t-9 17.5zM371 973q0 8 2 18t6 27l72 319q6 25 23.5 34t60.5 9q41 0 56 -8t15 -20q0 -14 -5 -27.5t-9 -30.5 l-98 -311q-8 -25 -23.5 -30t-52.5 -5q-29 0 -38 7.5t-9 17.5z" />
<glyph unicode="&#x201e;" horiz-adv-x="708" d="M55 -180q0 8 2 18t6 27l72 319q6 25 23.5 34t60.5 9q41 0 56.5 -8t15.5 -20q0 -14 -5 -27.5t-10 -30.5l-98 -311q-8 -25 -23.5 -30t-52.5 -5q-29 0 -38 7.5t-9 17.5zM371 -180q0 8 2 18t6 27l72 319q6 25 23.5 34t60.5 9q41 0 56 -8t15 -20q0 -14 -5 -27.5t-9 -30.5 l-98 -311q-8 -25 -23.5 -30t-52.5 -5q-29 0 -38 7.5t-9 17.5z" />
<glyph unicode="&#x2022;" d="M190 659q0 68 26 126.5t69 101.5t101 68.5t126 25.5t126 -25.5t101 -68.5t69 -101.5t26 -126.5t-26 -126t-69 -101t-101 -68.5t-126 -25.5t-126 25.5t-101 68.5t-69 101.5t-26 125.5z" />
<glyph unicode="&#x2026;" horiz-adv-x="1196" d="M102 86q0 43 30 72.5t73 29.5t72.5 -29.5t29.5 -72.5t-29.5 -72.5t-72.5 -29.5t-73 29.5t-30 72.5zM496 86q0 43 29.5 72.5t72.5 29.5t72.5 -29.5t29.5 -72.5t-29.5 -72.5t-72.5 -29.5t-72.5 29.5t-29.5 72.5zM889 86q0 43 29.5 72.5t72.5 29.5t73 -29.5t30 -72.5 t-30 -72.5t-73 -29.5t-72.5 29.5t-29.5 72.5z" />
<glyph unicode="&#x202f;" horiz-adv-x="368" />
<glyph unicode="&#x2039;" horiz-adv-x="684" d="M160 528q0 23 6 37.5t20 32.5l220 283q29 35 45 34q14 0 21 -9t7 -50q0 -39 -3 -57.5t-19 -40.5l-162 -230l162 -229q16 -23 19 -41t3 -57q0 -41 -7 -50.5t-21 -9.5q-16 0 -45 35l-220 283q-14 18 -20 32.5t-6 36.5z" />
<glyph unicode="&#x203a;" horiz-adv-x="684" d="M207 201q0 39 3 57t19 41l162 229l-162 230q-16 23 -19 41t-3 57q0 41 7 50t22 9q16 0 45 -34l219 -283q14 -18 20 -32.5t6 -37.5t-6 -37t-20 -32l-219 -283q-29 -35 -45 -35q-14 0 -21.5 9.5t-7.5 50.5z" />
<glyph unicode="&#x205f;" horiz-adv-x="460" />
<glyph unicode="&#x20ac;" horiz-adv-x="1138" d="M74 471q4 16 9 32.5t13 28.5q12 18 49 19h80q-2 18 -3 38.5t-1 43.5q0 33 2 64.5t6 62.5h-125q-23 0 -28 8q-6 8 -2 27q4 16 9 32.5t13 28.5q12 18 49 18h109q51 188 182 302t324 114q129 0 208 -26.5t103 -38.5q27 -14 27 -31q0 -8 -1 -17.5t-12 -29.5q-23 -43 -36 -43 q-10 0 -24.5 5t-33.5 13q-12 4 -30.5 12.5t-47.5 16.5q-27 8 -65.5 13t-85.5 5q-76 0 -135.5 -23.5t-103.5 -63.5t-74.5 -93t-49.5 -115h566q23 0 28 -8q6 -8 2 -26q-4 -16 -9 -32.5t-13 -29.5q-12 -18 -49 -18h-551q-4 -33 -6 -64.5t-2 -62.5q0 -20 1 -41t3 -41h530 q23 0 29 -8t2 -27q-4 -16 -9.5 -32.5t-13.5 -28.5q-12 -18 -49 -19h-471q43 -166 145.5 -250t229.5 -84q68 0 112 10.5t74 20.5q33 10 47.5 17.5t24.5 11.5q20 10 31 10q8 0 19 -7t24 -30q10 -18 14 -27.5t4 -19.5q0 -8 -6 -15t-25 -18q-33 -18 -114.5 -46.5t-216.5 -28.5 q-90 0 -171 30.5t-147.5 89t-116 143.5t-73.5 193h-138q-23 0 -28 8q-6 8 -2 27z" />
<glyph unicode="&#x2122;" horiz-adv-x="1804" d="M90 1319q0 37 14 65q10 16 41 17h527q20 0 30 -6q9 -5 9 -25q0 -37 -15 -65q-10 -16 -41 -17h-194v-612q0 -20 -12 -27l-17.5 -7t-32.5 -3t-36 3t-15 7q-6 6 -8 10.5t-2 16.5v612h-209q-23 0 -31 6q-8 4 -8 25zM807 1380q0 8 8 15q10 10 72 10q37 0 53 -5t23 -16 l219 -364l196 352q8 12 17 21q6 4 18 8t39 4q53 0 64 -10q4 -4 6 -7.5t2 -17.5v-696q0 -18 -13 -25q-10 -4 -17 -7t-32 -3t-37 3t-16 7q-6 6 -8 10.5t-2 14.5v545l-150 -293q-10 -14 -20 -19.5t-47 -5.5t-47.5 5t-18.5 20l-149 262v-514q0 -18 -13 -25q-10 -4 -19 -7t-34 -3 t-35 3t-14 7q-6 6 -8 10.5t-2 14.5v635l-19 37q-6 10 -11 18t-5 16z" />
<glyph unicode="&#x25fc;" horiz-adv-x="901" d="M0 0v901h901v-901h-901z" />
</font>
</defs>
</svg>
