<?xml version="1.0" standalone="no"?>
<!DOCTYPE svg PUBLIC "-//W3C//DTD SVG 1.1//EN" "http://www.w3.org/Graphics/SVG/1.1/DTD/svg11.dtd" >
<svg xmlns="http://www.w3.org/2000/svg">
<metadata></metadata>
<defs>
<font id="tui-iconsregular" horiz-adv-x="2048" >
<font-face units-per-em="2048" ascent="1638" descent="-410" />
<missing-glyph horiz-adv-x="500" />
<glyph horiz-adv-x="0" />
<glyph unicode="&#xd;" />
<glyph unicode="!" d="M254 736h270v124h-270v-124zM324 476l62 -108l244 140l-62 110zM324 1118l242 -140l64 108l-244 142zM574 1416l142 -244l108 64l-140 242zM576 180l108 -64l140 244l-108 62zM650 800q0 -148 104 -252t252 -104t252 104t104 252t-104 252t-252 104t-252 -104t-104 -252z M942 48h124v270h-124v-270zM942 1256h124v292h-124v-292zM1184 360l140 -242l110 62l-142 244zM1184 1234l110 -62l140 244l-108 62zM1378 510l244 -142l62 110l-242 140zM1380 1086l62 -108l244 140l-64 108zM1462 736h292v124h-292v-124z" />
<glyph unicode="&#x22;" d="M252 680q0 -176 122 -305t290 -129h676q168 0 290 129t122 305q0 134 -79 243t-203 151q-46 158 -178 258t-300 100t-301 -102t-177 -264q-118 -46 -190 -152t-72 -234zM400 680q0 90 54 162t142 96l28 8q36 0 65 -7t46 -19t29 -24t16 -20l4 -8q0 6 -1 16t-8 38t-19 51 t-36 45t-58 30q36 106 127 172t203 66q84 0 157 -37t123 -102t64 -147l4 -20q8 -62 -5 -114t-31 -74l-20 -22q6 2 14 4t31 12t43 23t44 39t40 58l6 12q64 -34 104 -98t40 -140t-37 -142t-98 -106t-131 -40h-676q-106 0 -185 87t-79 201z" />
<glyph unicode="#" d="M254 674q0 -176 122 -302t290 -126h676q168 0 290 126t122 302q0 130 -75 233t-197 147q84 50 84 146q0 72 -50 121t-120 49q-66 0 -116 -44q-128 92 -286 92q-168 0 -302 -103t-176 -265q-118 -46 -190 -148t-72 -228zM400 672q0 90 55 160t143 94l28 6q36 2 65 -6 t46 -20t29 -24t16 -20l4 -8q0 6 -1 16t-8 38t-19 51t-37 45t-57 30q36 106 127 172t203 66q84 0 157 -37t122 -102t65 -147l4 -20q6 -42 2 -75t-13 -59t-19 -43t-18 -25l-8 -8q6 0 14 2t30 12t43 24t45 40t40 58q2 2 6 12q66 -34 105 -95t39 -136t-37 -140t-98 -103 t-131 -38h-676q-106 0 -186 83t-80 197zM1234 1444q0 -2 2 -22v-13v-11q4 -8 18 -12q12 -4 22 -4h12l8 4q4 4 8 10q6 8 10 20q4 14 0 20q-2 4 -9 9t-9 7q-14 12 -18 14q-4 4 -16 14l-18 10l-8 -4q-2 -8 -2 -20v-22zM1434 1452q-2 -8 4 -22q6 -10 14 -18l10 -8l8 -2q4 0 10 2 q12 2 22 8q14 8 16 16q0 2 -2 11t-2 13q-2 18 -2 22q-2 8 -4 22l-4 20l-10 2q-6 -4 -14 -14l-16 -16q-2 -4 -14 -18l-8 -8t-8 -10zM1574 1070q0 -10 2 -22q6 -14 12 -18q4 -2 12 -2h12q18 -2 24 -2q12 -2 20 -2l22 2l4 6l-10 20q-8 10 -12 16q-4 4 -16 18q-2 2 -6 10t-8 10 t-10 2q-4 0 -12 -2q-10 -4 -20 -10l-10 -8l-4 -6v-12zM1602 1268l2 -8q4 -4 8 -10q8 -8 18 -14q12 -6 20 -4q4 0 10 6t10 8q14 12 18 14q4 4 16 14l14 16l-2 8l-20 5t-22 5q-4 2 -22 4q-4 0 -10 2l-12 2h-2q-8 -2 -16 -16q-6 -10 -8 -20z" />
<glyph unicode="$" d="M254 680q0 -176 122 -306t290 -130h108v146h-108q-52 0 -101 24t-85 63t-58 93t-22 110q0 90 55 162t141 96l30 8q26 0 48 -4t38 -11t29 -15t21 -17t14 -16t8 -11l2 -4q0 6 -1 16t-8 38t-19 51t-37 45t-57 30q36 106 127 172t203 66q126 0 223 -81t121 -205l4 -20 q8 -62 -6 -114t-32 -74l-18 -22q6 2 14 4t30 11t43 23t45 40t40 58q2 2 6 12q42 -22 75 -59t51 -83t18 -96q0 -116 -80 -203t-186 -87h-108v-146h108q168 0 290 130t122 306q0 134 -79 243t-203 151q-46 158 -178 258t-300 100t-302 -102t-176 -264q-118 -46 -190 -152 t-72 -234zM816 160q0 -42 30 -72t72 -30q26 0 49 14t37 37t14 51q0 16 -6 32q-4 14 -14 28l-80 106l-82 -106q-8 -14 -14 -28q-6 -16 -6 -32zM966 408q0 -42 30 -72t72 -30t72 30t30 72q0 18 -4 34q-6 14 -16 26v2l-82 108l-82 -108v-2q-8 -12 -14 -26q-6 -16 -6 -34z" />
<glyph unicode="%" d="M252 674q0 -176 122 -301t290 -125h104v144h-104q-106 0 -185 84t-79 198q0 90 54 160t142 94l28 6q26 0 49 -4t38 -11t29 -15t22 -17t13 -16t7 -11l4 -6q-2 6 -3 17t-8 39t-19 50t-36 45t-58 31q36 106 127 171t205 65q126 0 223 -80t119 -204l4 -20q10 -62 -4 -115 t-32 -75l-18 -20q4 0 12 2t31 12t43 23t44 39t40 58l6 12q44 -22 76 -56t50 -79t18 -95q0 -74 -37 -140t-98 -104t-131 -38h-92v-144h92q168 0 290 125t122 301q0 130 -75 234t-197 148q84 50 84 146q0 70 -50 120t-120 50q-66 0 -114 -44q-130 90 -286 90q-170 0 -303 -102 t-177 -264q-78 -30 -137 -86t-92 -132t-33 -160zM810 160q0 -28 14 -51t37 -37t51 -14q42 0 72 30t30 72q0 18 -6 36q-4 14 -14 26l-82 110l-82 -110q-8 -12 -14 -26q-6 -18 -6 -36zM960 410q0 -42 30 -72t72 -30q28 0 51 14t37 37t14 51q0 18 -6 34q-4 14 -14 28l-82 108 l-82 -108q-10 -14 -14 -28q-6 -16 -6 -34zM1234 1446q0 -6 2 -22q0 -4 -1 -13t1 -11q4 -8 16 -12t24 -4h12l6 4q4 4 8 10q6 8 10 20q6 14 2 20q-2 4 -9 8t-9 6q-16 14 -18 16l-18 12l-18 12l-6 -4q-2 -8 -2 -20q-2 -14 0 -22zM1432 1454q-2 -8 6 -22q6 -10 12 -18l10 -8 l8 -2q4 0 12 2q10 2 22 8q12 8 14 16q2 2 0 11t-4 11v11t-2 13q0 2 -4 22l-4 20l-8 2q-8 -6 -16 -14q-12 -12 -14 -16q-2 -2 -16 -18q0 -2 -4 -6l-7 -7zM1572 1072q0 -12 2 -24q6 -14 12 -18h12h12q18 -4 24 -4h22h20l4 8q-4 8 -10 18q-8 14 -12 18q-2 4 -16 18q-2 2 -6 10 t-8 10t-10 2q-4 0 -12 -2q-10 -4 -20 -10l-10 -8l-4 -8v-10zM1602 1270l2 -8q0 -2 8 -10q6 -8 16 -14q14 -8 22 -6q4 2 10 8l8 8q14 10 18 14q6 4 16 14l16 16l-2 8q-8 2 -21 5t-21 5l-22 2q-4 0 -11 2t-11 2h-2q-8 0 -16 -14q-6 -12 -8 -20z" />
<glyph unicode="(" d="M252 798q0 -204 101 -377t274 -273t376 -100t376 100t273 273t100 377t-100 377t-273 273t-377 100q-152 0 -291 -59t-239 -160t-160 -240t-60 -291zM422 798q0 240 170 411t410 171t411 -171t171 -411q0 -158 -78 -292t-212 -211t-292 -77q-240 0 -410 170t-170 410z M796 500q0 -26 22 -38q8 -4 20 -4t22 6l430 296q18 14 18 36t-18 34l-430 294q-10 8 -24 8q-10 0 -18 -4q-22 -12 -22 -38v-590z" />
<glyph unicode=")" d="M254 798q0 -204 100 -377t273 -273t376 -100t376 100t274 273t101 377t-101 377t-274 273t-376 100t-376 -101t-273 -273t-100 -376zM422 798q0 240 171 411t411 171t410 -171t170 -411t-170 -410t-410 -170t-411 170t-171 410zM776 608q0 -12 5 -21t15 -15t22 -6h376 q16 0 29 13t13 29v376q0 18 -13 30t-29 12h-376q-12 0 -22 -6t-15 -15t-5 -21v-376z" />
<glyph unicode="*" d="M438 110q0 -26 18 -44t44 -18h1000q26 0 45 18t19 44v1042h-42h-292q-22 0 -42 19t-20 43v292v42h-668q-26 0 -44 -18t-18 -44v-1376zM626 278v146h542v-146h-542zM626 548v146h750v-146h-750zM626 818v146h750v-146h-750zM1230 1256q0 -16 12 -29t30 -13h292l-334 334 v-292z" />
<glyph unicode="+" d="M622 796q0 -156 111 -267t267 -111q78 0 148 30t120 81t80 121t30 146q0 156 -111 267t-267 111t-267 -111t-111 -267z" />
<glyph unicode="," d="M254 110q0 -12 5 -24t13 -20t20 -13t24 -5h208q26 0 45 18t19 44v104h-334v-104zM254 318h334v104h-334v-104zM254 526v730h334v-730h-334zM254 1360h334v124q0 10 -4 20t-9 18t-13 13t-18 9t-20 4h-208q-16 0 -31 -9t-23 -23t-8 -32v-124zM650 110q0 -16 8 -31t23 -23 t31 -8h208q26 0 44 18t18 44v104h-332v-104zM650 318h332v104h-332v-104zM650 526h332v730h-332v-730zM650 1360h332v124q0 26 -18 45t-44 19h-208q-26 0 -44 -19t-18 -45v-124zM1006 1374l40 -116l312 104l-40 118q-8 24 -31 35t-47 3l-194 -66q-24 -8 -36 -30t-4 -48z M1078 1160l230 -680l312 104l-230 682zM1342 382l32 -98l312 106l-34 96zM1406 188l34 -98q8 -24 31 -35t47 -3l194 64q24 8 35 31t3 47l-32 98z" />
<glyph unicode="." d="M254 500q0 -108 75 -186t183 -80h4h8h842q2 -2 5 -2h5q46 0 89 18t73 49t48 73t18 88q0 54 -24 102t-66 80v8q-2 2 -2 4h2q20 12 24 36t-8 46l-18 30q34 30 62 68l34 -20q22 -12 46 -8t35 24t3 43t-30 35l-38 22q14 42 18 84h48q26 0 45 16t19 39t-19 39t-45 16h-54 q-2 10 -5 20t-6 19t-7 19t-8 18l52 30q22 12 30 36t-3 43t-35 24t-46 -9l-56 -32q-10 10 -18 19t-18 17l-20 16l34 58q12 22 8 46t-24 36t-43 4t-35 -32l-36 -60q-34 12 -70 18v70q0 10 -2 18t-6 15t-9 13t-11 10t-13 6t-15 2q-22 0 -38 -19t-16 -45v-70q-36 -6 -70 -18 l-36 60q-12 24 -36 32t-43 -4t-24 -36t9 -46l34 -58q-32 -24 -56 -52l-56 32q-22 14 -46 9t-36 -24t-4 -43t32 -36l50 -30q-4 -8 -7 -18t-7 -19t-6 -19l-4 -20h-54q-28 0 -46 -16t-18 -38q0 -26 24 -44q-142 -18 -230 -128q-22 4 -44 4q-86 0 -147 -61t-61 -147 q-14 -12 -25 -26t-21 -30t-17 -32t-12 -34t-7 -36t-2 -36zM422 500q0 56 48 84q26 16 36 43t2 55l-2 12q0 16 12 28t28 12q14 0 24 -8q16 -12 34 -16t37 0t34 16t23 30t21 34t28 28t32 22t36 15t39 5q2 0 5 1t5 1q14 0 28 -2t27 -7l26 -10t23 -13q42 -28 64 -72 q16 -34 51 -44t67 8q30 18 66 18q74 0 114 -66q6 -10 10 -21t6 -23t2 -24v-6q-2 -28 12 -51t40 -33q36 -16 36 -56q0 -42 -40 -56q-10 -2 -20 -2h-2h-6h-848h-2q-40 0 -68 29t-28 69z" />
<glyph unicode="/" d="M266 1488q-8 26 5 43t39 17h242q12 0 25 -5t24 -13t20 -19t13 -23l104 -316h564q26 0 44 -18t18 -44v-124q0 -26 -18 -44t-44 -18h-480l42 -126h812q26 0 44 -18t18 -44v-250q0 -26 -18 -44t-44 -18h-146l-214 -324q-14 -22 -43 -37t-55 -15h-166q-26 0 -34 15t6 37 l214 324h-270l-216 -324q-6 -10 -17 -20t-25 -17t-28 -11t-26 -4h-168q-24 0 -33 15t7 37l214 324q-26 0 -50 17t-32 41z" />
<glyph unicode="0" d="M257 415q-11 -17 1 -41l136 -268q12 -24 39 -41t55 -17h962q26 0 56 16t44 38l192 276q6 8 8 15t2 13t-3 11t-7 8t-11 5t-17 2h-1420q-26 0 -37 -17zM269 663q-1 -11 4 -18t14 -11t21 -4h438q26 0 45 19t19 45v826q0 26 -9 29t-23 -19l-500 -846q-8 -10 -9 -21zM1004 694 v826q0 18 6 26t15 5t19 -17l688 -854q18 -22 11 -36t-35 -14h-640q-26 0 -45 19t-19 45z" />
<glyph unicode="1" d="M248 1138q8 -70 15 -109t25 -97t54 -107t91 -93t110 -69t116 -31t100 -5t109 9q-6 56 -10 86t-17 80t-30 84t-50 77t-77 79q-72 58 -150 83t-144 21t-142 -8zM297 158q1 -6 3 -12t7 -12t11 -12l60 -50q22 -18 51 -16t47 22l386 400q10 10 15 21t7 21t-1 20t-11 16 q-6 4 -14 7t-17 3t-19 -2t-20 -6t-18 -10l-464 -344q-6 -4 -11 -10t-8 -12t-4 -12t0 -12zM871 1071q5 65 29 137q20 60 50 108t58 79t74 63t74 47t84 43q34 -68 50 -106t33 -102t13 -129t-28 -139q-14 -36 -29 -69t-35 -60t-38 -49t-44 -43t-44 -34t-50 -31t-49 -27l-51 -27 q-34 68 -50 107t-34 103t-13 129zM957 474q-1 -28 2 -74t20 -90t48 -89t65 -76t76 -50t70 -27t78 -20q8 68 10 107t-14 102t-58 123q-26 36 -55 64t-54 44t-61 30t-57 20t-61 16q-8 -52 -9 -80zM1046 634q30 -20 45 -31t44 -28t49 -26t51 -20t59 -14t63 -3t71 4q52 8 97 26 t75 35t63 50t50 53t47 60l-39 27t-38 25t-42 24t-42 19t-48 15t-51 9t-58 4t-64 -7q-64 -8 -114 -29t-91 -57t-64 -62t-63 -74z" />
<glyph unicode="2" d="M252 110v1000l542 438h522q24 0 43 -18t19 -44v-314l374 -374v-688q0 -26 -18 -44t-44 -18h-124v562h-188v-562h-62h-64h-124h-62h-126h-62h-126h-436q-26 0 -45 18t-19 44zM440 236h292v374h-292v-374zM440 798h292v188h-292v-188zM898 236h292v374h-292v-374zM898 798 h292v188h-292v-188zM898 1172h292v188h-292v-188zM1378 48z" />
<glyph unicode="3" d="M336 110q0 -26 19 -44t45 -18h1208q26 0 44 18t18 44v1000q0 26 -18 44t-44 18h-230v314q0 26 -18 44t-44 18h-624q-26 0 -45 -18t-19 -44v-314h-228q-26 0 -45 -18t-19 -44v-1000zM524 424v562h958v-188zM816 1172v188h376v-188h-376z" />
<glyph unicode="4" d="M442 986q0 -98 32 -188q28 -80 78 -148l2 -2l450 -600l450 600l2 2q12 16 23 34t21 37t19 38t15 39q12 30 19 60t10 62t3 66q0 232 -164 397t-397 165t-398 -165t-165 -397zM816 986q0 78 55 132t133 54t133 -54t55 -132t-55 -133t-133 -55t-133 55t-55 133z" />
<glyph unicode="5" d="M254 795q0 69 48 117t117 48t117 -48t48 -116q0 -24 -6 -45t-17 -39t-26 -33t-33 -26t-39 -17t-45 -6q-68 0 -116 48t-48 117zM840 795q0 -69 48 -117t116 -48t116 48t48 118q0 18 -4 37t-12 35t-19 30t-26 26t-31 20t-34 12t-38 4q-68 0 -116 -48t-48 -117zM1424 796 q0 -20 5 -39t13 -35t19 -30t25 -25t30 -19t35 -13t39 -5q68 0 116 48t48 117t-48 117t-116 48q-34 0 -65 -13t-53 -35t-35 -53t-13 -63z" />
<glyph unicode="6" d="M254 1310q0 -56 29 -120t59 -102l28 -36l352 -442l352 442q4 4 12 14t29 40t36 59t28 70t13 75q0 122 -67 179t-167 57q-54 0 -113 -36t-91 -72l-32 -36q-4 6 -13 16t-35 35t-53 44t-64 34t-71 15q-64 0 -114 -21t-84 -76t-34 -139zM255 356q-1 -30 14 -79t53 -95 q60 -70 125 -102t143 -32h2h2q156 2 268 134q38 46 53 95t14 79t-9 82q-144 -28 -210 -76q-10 34 -31 65t-38 49t-49 48q-32 -30 -49 -48t-38 -49t-31 -65q-66 48 -210 76q-8 -52 -9 -82zM1192 110q0 -26 18 -44t44 -18h436q14 0 25 5t20 13t14 20t5 24v624q0 18 -9 32 t-23 23t-32 9h-436q-26 0 -44 -19t-18 -45v-624zM1327 981q-11 45 2 89t64 99t141 107q-6 -4 -13 -12t-22 -30t-21 -44t1 -53t33 -59q36 -38 53 -70t21 -54t-14 -50t-35 -45t-57 -53q-6 -6 -10 -8q-8 4 -20 12t-42 37t-50 59t-31 75z" />
<glyph unicode="7" d="M252 298q0 -26 18 -44t44 -18h124v-126q0 -26 19 -44t45 -18h146q24 0 43 18t19 44v126h582v-126q0 -26 19 -44t45 -18h146q24 0 43 18t19 44v126h124q26 0 45 18t19 44v1188q0 26 -19 44t-45 18h-374h-626h-374q-26 0 -44 -18t-18 -44v-1188zM438 610v750h188v-124 q0 -26 18 -45t44 -19h626q26 0 44 19t18 45v124h188v-750h-1126zM480 433q0 39 28 67t67 28t66 -28t27 -67t-27 -66t-66 -27t-67 27t-28 66zM1334 433q0 39 28 67t67 28t66 -28t27 -67t-27 -66t-66 -27t-67 27t-28 66z" />
<glyph unicode="8" d="M254 642q0 -36 7 -53t23 -23t54 -6h660h490h200t46 12t14 38q-2 16 4 55t-1 65t-43 38q-26 10 -52 10q-50 0 -86 -40q-82 -92 -130 -120q-26 -14 -54 -17t-50 6t-36 27q-98 140 -266 140h-650q-56 0 -76 -1t-36 -17t-17 -36t-1 -78zM317 377q1 -29 16 -46t40 -24t69 -7 h1122q82 0 108 34t10 116h-1362q-4 -44 -3 -73zM318 884h1378q-6 14 -13 41t-14 46t-19 31q-98 120 -160 162q-204 130 -480 128q-58 0 -118 -6q-278 -28 -450 -174q-114 -96 -124 -228z" />
<glyph unicode="9" d="M254 110v438q0 16 6 37t16 39t22 30l476 474q18 20 44 19t44 -19l474 -474q18 -18 31 -49t13 -57v-438q0 -26 -19 -44t-45 -18h-312v374h-374v-374h-314q-12 0 -23 5t-20 13t-14 20t-5 24zM1192 1030q0 -8 4 -16t11 -12t17 -4h156v188h186v-188h158q12 0 21 9t9 23v218 q0 32 -22 54l-236 236q-10 10 -23 10t-21 -10l-238 -236q-10 -10 -16 -25t-6 -29v-218z" />
<glyph unicode=":" d="M252 298q0 -26 19 -44t43 -18v-126q0 -26 19 -44t45 -18h146q26 0 44 18t18 44v126h834v-126q0 -26 18 -44t44 -18h146q26 0 44 18t18 44v126q26 0 44 18t18 44v438q0 26 -18 44t-44 18h-42l-84 500q0 26 -18 44t-44 18h-1000q-26 0 -44 -18t-18 -44l-84 -500h-42 q-24 0 -43 -18t-19 -44v-438zM440 517q0 39 27 66t67 27q26 0 47 -12t34 -34t13 -47t-13 -47t-34 -34t-47 -12q-40 0 -67 27t-27 66zM564 798l64 374h750l62 -374h-126h-624h-126zM752 402v62q0 10 3 20t9 18t14 13t17 9t19 4h376q16 0 31 -9t23 -23t8 -32v-62q0 -10 -3 -20 t-9 -17t-13 -13t-17 -9t-20 -3h-376q-24 0 -43 18t-19 44zM1378 516q0 26 12 48t34 34t48 12q38 0 65 -27t27 -67q0 -24 -12 -46t-34 -34t-46 -12q-40 0 -67 27t-27 65z" />
<glyph unicode=";" d="M354 110v1188q0 26 18 44t44 18h354h42v126q0 26 19 44t43 18h250q26 0 45 -18t19 -44v-126h42h358q26 0 44 -18t18 -44v-1188q0 -26 -18 -44t-44 -18h-1172q-26 0 -44 18t-18 44zM542 236h920v936h-170v-124q0 -26 -19 -44t-43 -18h-460q-24 0 -43 18t-19 44v124h-166 v-936zM634 574q-22 20 0 42l74 74q10 10 22 10t22 -10l120 -120q6 -6 14 -8t16 0t14 8l334 334q20 20 42 0l74 -74q22 -22 0 -42l-404 -406q-22 -22 -52 -22h-34q-30 0 -52 22z" />
<glyph unicode="&#x3c;" d="M488 877q8 -19 28 -19h978q22 0 30 19t-6 33l-490 538q-8 10 -23 10t-23 -10l-488 -538q-14 -14 -6 -33zM830 132h352v178h-352v-178zM830 422h352v154h-352v-154zM830 680h352v178h-352v-178z" />
<glyph unicode="=" d="M316 578q0 -218 156 -374t374 -156q124 0 224 45t156 123l-84 172q-124 -150 -296 -150q-140 0 -240 100t-100 240q0 178 114 266l-22 210q-126 -72 -204 -202t-78 -274zM608 1326q0 -28 8 -56q18 -76 82 -122l70 -608l424 -4l210 -414l290 88l-56 186l-134 -40l-190 374 l-370 4l-12 116l248 2l-2 190l-266 -2l-12 76q36 12 66 36q86 66 86 174q0 92 -65 157t-156 65t-156 -65t-65 -157z" />
<glyph unicode="&#x3e;" d="M252 788q4 -32 36 -40q30 -6 46 22q6 10 12 32q52 174 76 260q4 14 22 18t34 -2q-152 -518 -152 -520h102v-376q0 -26 2 -38q10 -52 66 -48q52 4 58 56v32v374h66v-374q0 -24 4 -40q10 -46 60 -48t62 44l4 40v378h98l-148 520q10 4 21 4t20 -6t13 -14q26 -90 76 -260 q8 -22 12 -32q16 -28 46 -22q32 6 36 40q2 14 -4 32q-82 276 -94 314q-10 34 -31 59t-50 39t-65 14h-164q-54 0 -102 -31t-64 -81q-20 -66 -94 -312q-6 -18 -4 -34zM480 1386q0 -46 32 -78t78 -32t78 32t32 78t-32 78t-78 32t-78 -32t-32 -78zM988 124h80v1358h-80v-1358z M1146 742q0 -20 14 -33t34 -13q12 0 22 6t17 16t7 24q2 2 2 22v274v28h26q20 -2 20 -24v-860q0 -26 2 -38q10 -52 66 -48q52 4 58 56v32v500q0 6 17 9t33 0t16 -9q0 -362 2 -500q0 -24 2 -40q10 -46 60 -48t62 44q4 14 4 40v856q0 6 1 12t5 8t7 4t5 2h2l26 2v-300v-22 q2 -14 8 -24t17 -16t23 -6q20 0 33 13t13 33q2 284 0 366q-2 52 -49 90t-105 40q-68 2 -148 2q-88 0 -148 -2q-36 0 -70 -18t-58 -47t-24 -65q-2 -80 -2 -366zM1338 1386q0 -46 32 -78t78 -32t78 32t32 78t-32 78t-78 32t-78 -32t-32 -78z" />
<glyph unicode="A" d="M436 86v258q0 26 16 55t38 47l474 316q16 10 21 23t0 26t-21 23l-474 316q-22 14 -38 44t-16 58v258q0 26 16 35q6 3 12 3q12 0 26 -10l1056 -704q16 -10 21 -23q2 -6 2.5 -12.5t-2.5 -13.5q-5 -13 -21 -23l-1056 -704q-16 -10 -28 -10t-19 10t-7 28z" />
<glyph unicode="B" d="M228 1278q0 -26 18 -45t44 -19h1376q26 0 44 19t18 45v208q0 26 -18 44t-44 18h-1376q-26 0 -44 -18t-18 -44v-208zM473 512q-2 4 -2 9q0 11 11 25l486 606q16 22 38 22t40 -22l484 -606q11 -14 11 -25q0 -5 -2 -9q-7 -14 -33 -14h-334v-388q0 -26 -18 -44t-44 -18h-208 q-26 0 -44 18t-18 44v388h-334q-26 0 -33 14z" />
<glyph unicode="C" d="M254 141q6 -41 42 -67t92 -26h1230q86 0 120 55q16 26 16 57q0 34 -20 74l-638 1238q-38 76 -93 76t-93 -76l-638 -1238q-19 -42 -19 -76q0 -9 1 -17zM890 312q0 48 33 80t79 32q24 0 44 -8t36 -24q34 -32 34 -80q0 -52 -34 -82q-8 -6 -15 -11t-14 -8t-15 -5t-17 -4 t-17 -2q-16 0 -29 4t-26 10t-25 16q-34 30 -34 82zM890 1086q0 30 8 53t24 41t38 26t48 8q36 0 57 -14t31 -34q20 -40 20 -114q0 -42 -4 -82l-26 -302q-6 -58 -22 -90q-18 -40 -64 -40q-16 0 -28 5t-21 14t-15 21q-16 32 -20 92l-20 292q-4 44 -5 75t-1 49z" />
<glyph unicode="D" d="M254 798q0 -204 101 -377t273 -273t376 -100q154 0 293 59t239 160t159 240t59 291q0 76 -15 151t-43 141t-69 127t-92 111t-111 91t-127 70t-141 44t-152 15q-204 0 -376 -100t-273 -273t-101 -377zM872 1202q0 54 38 94q22 18 45 27t47 9q54 0 90 -34q20 -18 31 -42 t11 -54v-5q0 -54 -38 -91q-36 -34 -92 -34q-12 0 -25 2t-25 7t-23 11t-21 14q-20 18 -29 42t-9 54zM902 364v476q0 58 30 88q28 30 75 30t75 -30q28 -34 28 -84v-482h-2q0 -56 -28 -90q-32 -30 -76 -30q-48 0 -74 34q-28 30 -28 88z" />
<glyph unicode="E" d="M252 304q0 -18 13 -32t33 -14h1410q4 0 9 2l10 4t9 5t7 7t5 8t3 9t1 11v854q0 20 -13 33t-31 13h-300h-1t-1 2l-42 86q-8 16 -28 28t-38 12h-578q-12 0 -25 -6t-24 -15t-15 -19l-44 -86v-2h-314q-10 0 -18 -4t-14 -10t-10 -14t-4 -18v-854zM650 742q0 146 103 250 t250 104t250 -104t103 -250t-103 -250t-250 -104t-250 104t-103 250zM798 742q0 56 27 103t75 75t104 28q42 0 80 -17t65 -44t43 -65t16 -80q0 -56 -27 -103t-74 -75t-103 -28q-86 0 -146 60t-60 146z" />
<glyph unicode="F" d="M252 330q0 -26 18 -44t44 -18h812q26 0 44 18t18 44v62v64h126q26 0 44 18t18 44v438q0 24 -18 43t-44 19h-126v62v62q0 26 -18 45t-44 19h-232l-42 84q-4 8 -11 15t-16 12t-19 9t-18 4h-302q-12 0 -25 -6t-23 -15t-16 -19l-42 -84h-66q-26 0 -44 -19t-18 -45v-812z M1502 434v604q0 26 18 44t44 18h124q26 0 45 -18t19 -44v-604q0 -26 -19 -44t-45 -18h-124q-26 0 -44 18t-18 44z" />
<glyph unicode="G" d="M252 110q0 -26 18 -44t44 -18h1376q26 0 44 18t18 44v1188q0 26 -18 44t-44 18h-126v-188v-936h-1124v936v188h-126q-26 0 -44 -18t-18 -44v-1188zM544 1236v250q0 26 18 44t44 18h62q26 0 45 -18t19 -44v-250q0 -26 -19 -45t-45 -19h-62q-26 0 -44 19t-18 45zM564 486 q0 -26 19 -44t45 -18h250q24 0 43 18t19 44v438q0 24 -19 43t-43 19h-250q-26 0 -45 -19t-19 -43v-438zM836 1172h332v188h-332v-188zM1064 486q0 -26 19 -44t45 -18h250q24 0 43 18t19 44v438q0 24 -19 43t-43 19h-250q-26 0 -45 -19t-19 -43v-438zM1272 1236q0 -26 19 -45 t45 -19h62q26 0 44 19t18 45v250q0 26 -18 44t-44 18h-62q-26 0 -45 -18t-19 -44v-250z" />
<glyph unicode="H" d="M252 798q0 -204 100 -377t273 -273t377 -100q152 0 291 59t239 160t160 240t60 291q0 204 -101 377t-274 273t-375 100q-298 0 -514 -204q-214 -200 -234 -492q-2 -28 -2 -54zM454 798q0 114 45 218t120 180t179 120t218 44q154 0 283 -75t205 -205t76 -282 q0 -232 -165 -397t-398 -165t-398 165t-165 397zM776 798q0 94 66 160t159 66t159 -66t66 -160t-66 -160t-159 -66t-159 66t-66 160z" />
<glyph unicode="I" d="M210 114q0 -14 5 -26t14 -21t21 -14t26 -5h264q28 0 47 19t19 47v220q0 28 -19 47t-47 19h-264q-28 0 -47 -19t-19 -47v-220zM210 688q0 -28 19 -47t47 -19h264q28 0 47 19t19 47v220q0 18 -9 33t-24 24t-33 9h-264q-28 0 -47 -19t-19 -47v-220zM210 1262q0 -18 8 -34 t24 -24t34 -8h264q28 0 47 19t19 47v220q0 28 -19 47t-47 19h-264q-28 0 -47 -19t-19 -47v-220zM804 114q0 -46 44 -62q12 -4 22 -4h862q18 0 33 9t24 24t9 33v220q0 28 -20 47t-46 19h-862q-26 0 -46 -19t-20 -47v-220zM804 688v220q0 18 9 33t24 24t33 9h862q6 0 14 -2 t14 -5t12 -7t11 -10t8 -13t5 -14t2 -15v-220q0 -28 -20 -47t-46 -19h-862q-26 0 -46 19t-20 47zM804 1262q0 -28 20 -47t46 -19h862q8 0 17 2t16 6t13 10t10 14t7 16t3 18v220q0 28 -20 47t-46 19h-862q-18 0 -33 -9t-24 -24t-9 -33v-220z" />
<glyph unicode="J" d="M286 290q0 -18 8 -32t23 -23t31 -9h108l350 -174q6 -4 14 -4q10 0 18 4q14 10 14 28v146h314q14 0 25 5t20 14t14 20t5 25v314h-168v-210h-210v818q0 20 -18 28l-278 140h506v-210h168v316q0 12 -5 24t-14 20t-20 13t-25 5h-818q-26 0 -44 -18t-18 -44v-1196zM968 814 q0 -20 13 -33t31 -13h312q18 0 31 -13t13 -31v-166q0 -20 10 -24q2 -1 5 -1q8 0 17 11l310 310q12 12 12 31t-12 33l-308 308q-12 10 -20 10q-12 0 -12 -24v-164q0 -12 -6 -23t-16 -17t-24 -6h-312q-18 0 -31 -13t-13 -33v-142z" />
<glyph unicode="K" d="M254 492q-1 4 -1 7q0 16 15 33l26 24q18 20 50 31t58 9l148 -12q26 -4 58 8t50 30l220 220q18 18 15 41t-25 37l-574 348q-22 14 -25 37t15 41l26 26q20 18 51 27t57 3l752 -190q8 -2 17 -3t19 0t20 4t19 7t17 9t14 11l234 234q18 18 49 38t55 30l44 6q38 -2 66 -28 q20 -22 26 -49q4 -16 4 -29q0 -9 -2 -16l-6 -16q-22 -60 -68 -106l-232 -232q-20 -18 -28 -50t-2 -58l190 -752q8 -26 -1 -57t-27 -49l-26 -26q-20 -20 -43 -17t-37 25l-346 576q-14 22 -37 25t-43 -15l-218 -220q-8 -8 -15 -18t-12 -22t-8 -24t-5 -24t0 -22l14 -146 q0 -18 -4 -38t-14 -39t-22 -33l-26 -24q-8 -8 -16 -12t-15 -4t-14 3t-13 10t-10 17l-82 222q-8 24 -33 48t-49 34l-222 82q-24 8 -28 28z" />
<glyph unicode="L" d="M253 140q0 5 -0.5 9.5t0.5 8.5q1 8 3 14t3 10l1 4q22 60 68 106l232 232q20 18 28 50t2 58l-190 752q-8 26 1 57t27 49l26 26q20 20 43 17t37 -25l346 -576q14 -22 37 -25t43 15l218 220q6 6 12 14t11 18t8 20l6 20t4 19t-1 19l-12 146q-4 26 8 58t30 52l26 24 q10 10 20 14q7 3 13 3q3 0 6 -1q9 -2 17 -10t12 -20l82 -222q8 -24 33 -48t49 -34l222 -82q24 -8 28 -28q1 -4 1 -7q0 -16 -15 -33l-26 -24q-12 -14 -31 -23t-40 -14t-37 -3l-148 12q-26 4 -58 -8t-50 -30l-220 -220q-18 -18 -15 -41t25 -37l574 -348q22 -14 25 -37t-15 -41 l-26 -26q-20 -18 -51 -27t-57 -3l-752 190q-12 4 -27 3t-29 -5t-28 -11t-22 -15l-234 -234q-18 -18 -49 -38t-55 -30q-2 0 -4 -1t-10 -3t-15 -2t-18 1t-21 3t-21 9t-21 16t-16 20t-9 22t-4 21z" />
<glyph unicode="M" d="M255 1071q-1 3 -1 6q0 11 14 25l428 428q6 6 13 10t15 6t16 2t16 -2t15 -6t13 -10l428 -428q20 -18 14 -31t-32 -13h-230q-16 0 -30 -8t-23 -23t-9 -31v-224q0 -26 -18 -45t-44 -19h-198q-26 0 -45 19t-19 45v226q0 4 -1 10t-3 11l-4 10t-6 9t-8 7t-9 6t-10 5t-10 3 t-11 1l-230 -2q-26 0 -31 13zM783 525q-1 -3 -1 -6q0 -11 14 -25l428 -428q18 -18 44 -18t44 18l428 428q14 14 14 25q0 3 -1 6q-5 13 -31 13l-230 -2q-16 0 -30 9t-23 23t-9 30v226q0 26 -18 45t-44 19h-200q-24 0 -43 -19t-19 -45v-224q0 -26 -18 -44t-44 -18h-230 q-26 0 -31 -13z" />
<glyph unicode="N" d="M256 936q0 26 16 44q10 14 28 22q20 8 50 10h420h6t8 2t8 6q10 8 12 18l122 436q8 24 18 40q22 34 60 34t60 -34q6 -8 10 -18t8 -22l122 -436q2 -10 13 -19t21 -7h420q10 0 19 -1t17 -5q8 -2 14 -4t14 -8t14 -14q4 -2 6 -6t3 -7t3 -7t3 -8t1 -8v-8q0 -6 -1 -13t-3 -12 t-5 -10t-5 -8t-6 -7q-4 -6 -9 -10t-9 -8t-10 -8l-338 -222q-2 -2 -6 -7t-6 -12t-2 -13v-6l150 -436q2 -6 3 -12t2 -14t1 -16q0 -26 -14 -46q-8 -12 -24 -20t-30 -8h-2q-30 2 -66 28l-348 284q-2 2 -4 3t-6 1h-8q-10 2 -16 -4l-332 -282q-36 -28 -66 -30h-4q-35 0 -54 30 q-14 20 -14 46q0 18 6 40l132 432q2 2 2 6q0 10 -6 21t-10 13l-340 224q-18 12 -28 26q-20 22 -20 50z" />
<glyph unicode="O" d="M254 798q0 -204 101 -377t273 -273t376 -100t377 100t273 273t100 377t-100 377t-273 273t-377 100t-376 -100t-273 -273t-101 -377zM572 1104q0 14 2 28l4 28q0 6 2 12l4 12q0 8 3 14t7 10q4 10 12 17t18 9q8 2 18 3t22 1h706h8h7h6t7 -2l16 -6q22 -16 22 -52v-26 q0 -6 -1 -10t-2 -9t-1 -9q-2 -14 -6 -26l-4 -12t-4 -10q-6 -12 -15 -18t-19 -10q-14 -4 -40 -4h-226v-798q0 -20 -4 -32t-16 -22q-6 -4 -15 -8t-21 -6q-10 -2 -24 -4t-32 -2q-8 0 -14 1t-12 1h-11t-10 1t-9 1q-8 2 -15 4t-12 5t-9 5l-2 2q-6 6 -9 12t-7 12q-2 10 -2 28v800 h-254q-20 0 -30 2t-18 8q-14 8 -18 26v6t-1 9t-1 9z" />
<glyph unicode="P" d="M276 688q-1 6 -1 13q0 57 83 93q92 40 208 50t215 14t99 6q2 2 -34 40q-110 118 -164 198q-46 64 -72 124t-26 110t36 68q20 11 40 11q30 0 62 -23q54 -38 98 -109t80 -146t56 -131l22 -54l24 162q68 332 198 332h6q12 -2 26 -6q56 -18 60 -82v-14q0 -58 -29 -127 q-33 -77 -74 -151t-74 -126l-33 -52q2 -2 166 64q253 101 373 101q105 0 107 -77q0 -46 -31 -81t-83 -56t-114 -36t-125 -22t-114 -10t-84 -4t-34 -2t28 -24t79 -68t90 -89q42 -46 73 -91t52 -89q18 -38 18 -72v-9q-3 -37 -29 -59q-16 -11 -36 -11q-28 0 -65 21 q-63 36 -123 114q-28 36 -57 82t-51 83t-40 70t-28 51t-12 18l2 -61q1 -17 0 -37q0 -48 -3 -107q-5 -83 -19 -164t-54 -133q-34 -44 -83 -44q-9 0 -19 2q-62 10 -70 105q-2 18 -2 36q0 77 28 155q18 58 44 122t40 98t12 36l-13 -3q-13 -3 -38 -9t-54 -13t-70 -17t-79 -16 q-38 -8 -89 -13t-121 -7h-15q-60 0 -106 14q-51 16 -57 52z" />
<glyph unicode="Q" d="M284 110q0 -26 18 -44t44 -18h624q26 0 45 18t19 44v1376q0 26 -19 44t-45 18h-624q-26 0 -44 -18t-18 -44v-202q0 -26 14 -33t34 9q14 12 38 28t88 44t118 28q154 0 264 -110t110 -265t-110 -265t-264 -110q-54 0 -114 25t-96 51l-34 24q-20 18 -34 11t-14 -33v-578z M388 986q0 78 55 132t132 54t132 -54t55 -132t-55 -133t-132 -55t-132 55t-55 133zM1204 1284q-5 -10 -5 -21q0 -13 7 -27q14 -32 42 -32h3h3q10 2 23 6t29 12l98 46q-6 -22 -16 -52q-8 -28 -22 -74q-4 -12 -8 -27t-8 -28t-10 -33q-4 -16 -8 -28t-6 -21t-4 -15 q-2 -10 -1 -21t5 -19q12 -30 40 -38q8 -2 18 -2q20 0 42 10l252 118q28 14 38 36q5 12 5 24t-5 24q-6 12 -15 20t-21 12t-26 3t-28 -9l-140 -64l68 224q2 6 4 13t4 11q2 6 3 11t1 9q2 10 2 22q-2 12 -6 24q-16 34 -48 36h-6q-24 0 -54 -14l-212 -100q-8 -4 -14 -8t-10 -8 t-8 -9t-6 -11zM1220 1261q0 -7 4 -15q10 -22 27 -20t45 14l138 66q-2 -18 -8 -40q-4 -12 -8 -26t-10 -30q-4 -16 -9 -34t-13 -40q-10 -34 -26 -88q-8 -22 -12 -38l-6 -24t-1 -15t3 -13q10 -20 28 -26q6 0 11 -1t10 0t11 3t14 6l250 118q12 4 19 11t11 13q3 7 3 14q0 9 -5 18 q-8 16 -24 20q-8 4 -17 2t-21 -6l-180 -86l80 270q6 16 8 24q2 10 4 17t1 17t-5 18q-4 10 -12 16t-18 6h-5q-19 0 -45 -12l-212 -100q-10 -4 -17 -10t-10 -14t-3 -15zM1242 1254q-1 4 -1 7.5t1 6.5q4 8 16 14l214 100q22 10 36 10h2q8 0 14 -12q2 -4 2 -10v-10l-5 -15 t-7 -25l-94 -314l224 104q6 4 12 5t10 1q8 -4 12 -12q1 -3 1 -6t-1 -6q-4 -8 -18 -16l-252 -118q-18 -8 -30 -6q-10 4 -14 16q-4 4 -2 14q4 16 18 60q4 12 7 24t7 23t7 21t5 20q2 6 4 11t3 11t3 11l4 10t3 10t3 10t2 11q12 36 18 56q2 12 5 23t3 19l8 40l-174 -82 q-26 -12 -40 -14zM1262 496q2 -4 5 -8t6 -7t8 -5t9 -6l168 -74q6 -4 12 -5t10 -1h6t4 2q16 4 23 19t0 29t-25 22l-100 46l150 66q10 4 16 6l10 6l12 8q6 6 8 14q5 9 5 17q0 10 -7 19q-10 12 -32 22l-142 64q-11 5 -20 5q-5 0 -10 -1q-16 -6 -22 -20q-10 -22 4 -34 q10 -10 30 -18l72 -34h-2l-2 -2q-8 -2 -17 -6t-19 -10q-14 -6 -46 -20q-30 -12 -56 -24q-14 -6 -24 -11l-14 -7q-8 -4 -12 -9t-6 -9q-5 -10 -5 -20q0 -7 3 -14zM1272 500q6 -12 24 -20l166 -74q11 -5 19 -5q4 0 7 1q4 2 8 5t6 9q6 10 1 20t-19 18l-120 54l170 76l16 6 q6 2 10 5t8 7t6 10q4 6 4 13t-4 11q-8 12 -28 20l-142 64q-10 4 -19 4h-5q-4 -2 -6 -4l-5 -5t-3 -5q-8 -16 1 -23t27 -17l92 -40q-8 -6 -24 -12l-16 -8l-20 -10q-4 0 -8 -3t-9 -4t-10 -4t-9 -5t-10 -4q-8 -4 -17 -7t-19 -8t-20 -9q-28 -12 -38 -18t-14 -14q-2 -7 -2 -13 t2 -11zM1280 512q0 4 2 9t10 7q4 4 13 8t24 11t29 13t26 10q24 12 46 22q22 8 36 16l26 12l16 10l-110 50q-16 8 -24 14v12q4 6 10 8h1h3q4 0 12 -4l142 -64q16 -8 24 -16q2 -3 2 -6.5t-2 -7.5q-2 -2 -3 -4t-3 -2q-2 -4 -6 -6l-10 -4q-6 -4 -14 -8l-192 -84l142 -64 q10 -6 14 -12v-12l-10 -8q-2 -1 -5 -1q-5 0 -13 3l-166 76q-8 4 -12 7t-6 7t-2 8z" />
<glyph unicode="R" d="M256 318q23 -1 46 -1q63 0 121 8q79 11 130 31t87 41t51 36t9 15q-18 2 -25 3t-31 4t-38 8t-38 14t-40 24t-36 34t-36 46t-28 59q72 6 134 30q-4 2 -12 3t-31 8t-45 18t-49 34t-49 53t-40 77t-24 105l152 -38q-148 101 -148 261q0 26 4 53q10 78 34 98q2 4 4 2 q6 -12 69 -65t152 -114t147 -81q20 -8 42 -15t42 -12t41 -10t39 -8t35 -6t30 -5t23 -3t14 -1h6q-2 6 -5 18t-6 44t-1 60q14 124 91 193t209 69q30 0 57 -3t47 -10t38 -15t29 -16t22 -17t16 -16t9 -13t6 -6q4 -4 13 -4q40 0 189 74q-2 -66 -108 -152q-20 -18 -14 -18 q16 0 56 12t74 24l34 10q-18 -36 -52 -73t-60 -57t-34 -24l-2 -28q2 -22 2 -47t-2 -53q-4 -56 -27 -147t-66 -175t-128 -179t-201 -167q-205 -125 -443 -125q-126 0 -261 35q-158 40 -220 90q-7 6 -7 8t3 2z" />
<glyph unicode="S" d="M642 828v224h156v70v70v10q0 46 2 78t14 79t34 77q84 112 240 112q88 0 157 -7t95 -13l26 -8l-38 -230q-66 20 -126 20q-50 0 -82 -20t-32 -62v-26v-80v-70h248l-18 -224h-230v-780h-290v780h-156z" />
<glyph unicode="T" d="M286 334q0 70 38 134t101 111t149 75t178 28h15h15q-36 48 -36 102q0 30 12 62h-4h-4q-78 0 -146 26t-116 72t-76 111t-28 141q0 138 126 245t288 107h520l-162 -118h-74q92 -84 92 -238q0 -70 -36 -135t-100 -117q-52 -40 -65 -61t-13 -51q0 -12 16 -34t42 -46t50 -42 q136 -96 160 -224q8 -40 8 -88q0 -138 -124 -242t-342 -104q-210 0 -347 81t-137 205zM494 384q0 -62 36 -112t100 -79t140 -29q152 0 229 53t77 159q0 22 -6 42q-4 14 -9 26t-16 24t-20 21t-27 23t-29 22t-35 24l-13 9t-19 13q-16 4 -33 8t-35 6t-34 2h-4q-122 0 -212 -64 t-90 -148zM590 1200q10 -70 43 -130t82 -96t101 -38h4q58 0 100 46q30 36 42 87q8 34 8 72q0 19 -2 39q-14 106 -80 182t-146 78h-4q-20 0 -38 -5t-34 -16t-30 -25q-49 -57 -49 -146q0 -23 3 -48zM1280 1196v88h178v178h88v-178h176v-88h-176v-176h-88v176h-178z" />
<glyph unicode="U" d="M450 1112l166 -1002q4 -26 26 -44t48 -18h624q26 0 47 18t27 44l166 1002v8q0 12 -4 22q-6 14 -19 22t-29 8h-312v188h208q26 0 44 19t18 45v62q0 26 -18 44t-44 18h-250q-4 0 -10 -2q-6 2 -12 2h-62q-26 0 -44 -18t-18 -44v-314h-500q-12 0 -23 -4t-18 -13t-10 -20 q-2 -7 -2 -14q0 -4 1 -9zM668 986h334v-562h-250zM1190 424v562h146l-84 -562h-62z" />
<glyph unicode="V" d="M420 944q0 -26 19 -44t43 -18h22h166v-772q0 -26 19 -44t43 -18h64q26 0 44 18t18 44v772h166h42h-20q26 0 44 18t18 44v542q0 26 -18 44t-44 18h-22q-26 0 -44 -18t-18 -44v-418h-124v418q0 26 -19 44t-45 18h-20q-26 0 -44 -18t-18 -44v-418h-126v418q0 26 -18 44 t-44 18h-22q-24 0 -43 -18t-19 -44v-542zM1246 1177q16 101 59 187t103 135t116 49q26 0 45 -18t19 -44v-626v-124v-626q0 -26 -19 -44t-45 -18h-62q-26 0 -44 18t-18 44v626q-96 102 -133 221q-26 83 -26 157q0 33 5 63z" />
<glyph unicode="W" d="M254 798q0 18 2 38q10 212 130 386q148 214 394 292q54 16 110 25t114 9q26 0 52 -2t51 -5t49 -9q132 -26 244 -96t192 -174q20 -22 36 -47t30 -50t27 -52t23 -55t18 -57t14 -59q14 -72 14 -144q0 -150 -56 -286t-158 -240q-154 -156 -366 -204q-84 -20 -170 -20 q-114 0 -220 34q-110 32 -204 97t-164 155q-162 204 -162 464zM418 798q0 -224 150 -392l122 12q18 0 35 -10t23 -26l60 -136q30 -12 62 -19t66 -11t68 -4q62 0 124 12l48 150q2 12 11 21t20 14t23 5l218 2q68 78 105 176t37 206v32l-16 -12q-14 -10 -34 -10t-34 10 l-180 130q-8 6 -14 17t-8 23t2 24l68 210q2 10 12 20q-86 74 -190 110q0 -12 -3 -33t-10 -41t-15 -26l-192 -110q-14 -10 -34 -8t-32 14l-154 180q-122 -56 -206 -160l2 -2l46 -216q4 -16 -4 -35t-24 -27l-152 -88v-2zM720 768q-3 7 -3 15q0 9 4 20q7 19 19 29l180 128 q8 8 21 10q6 1 12.5 1t12.5 -1q12 -2 22 -10l178 -128q14 -10 20 -29q3 -10 3 -18.5t-3 -16.5l-68 -212q-2 -8 -8 -15t-13 -12t-16 -8t-17 -3h-222q-16 0 -32 11t-22 27z" />
<glyph unicode="X" d="M252 170l4 -10q4 -4 10 -6h10l96 14q2 0 5 -1t3 -3q2 0 2 -2l44 -100q2 -2 3 -4t1 -4q6 -4 10 -6h5q7 0 11 4q6 6 8 16l14 104q2 2 4 2q0 2 1 2h3l108 4l16 6q6 6 6 14q-2 6 -6 10q-2 2 -4 3t-4 3l-94 56q-2 0 -2 2q-4 4 -2 6l26 94q2 6 2 10l-6 12q-4 4 -9 5t-11 -1 q-4 -2 -8 -6l-76 -66q-2 0 -3 -1t-3 -1t-4 2l-92 60q-4 4 -10 4q-8 2 -15 -3t-5 -15v-6t2 -4l46 -98q2 -2 1 -6t-3 -4l-76 -68l-8 -8q-1 -2 -1 -4.5t1 -5.5zM261 1104q25 150 120 266t235 158q69 21 139 21q95 0 190 -39q165 -68 271 -224q-134 -28 -249 -114t-189 -214 q-94 -165 -94 -338q0 -67 14 -134q14 -74 46 -140q-156 28 -283 147t-179 295q-30 108 -30 208q0 55 9 108zM357 1158q0 -3 1 -6q0 -2 4 -2q2 0 6 -1l8 -2t7 -2t7 -2l8 -2l8 -2t8 -1v-4v-4q-32 -78 -32 -80l-2 -6q0 -6 6 -6q2 0 6 2t6 4q2 0 4 2t2 4q38 40 68 70q0 2 1 3 l1 1q4 2 6 0h34t40 4q4 2 10 4l8 4l8 8q4 4 2 6q0 2 -2 4q-26 10 -40 32v6h2q18 20 34 37t32 35q4 4 4 6q4 4 4 10q0 2 -2 5t-4 3q-6 2 -8 1t-6 -1q-48 -18 -74 -30h-2q0 2 -1 2t-1 2q2 54 26 122v2q4 12 4 18q1 3 0 3t-4 -3q-4 -4 -10 -12q-4 -6 -10 -14q-38 -72 -68 -142 l-2 -2q-4 -6 -6 -6q-32 -14 -68 -36l-6 -6q-4 -2 -6 -5l-6 -9q-5 -8 -5 -14zM824 512q-11 54 -11 107q0 142 78 277q107 186 298 251q79 27 152 27q106 0 202 -55q163 -93 202 -291q10 -53 10 -105q0 -143 -78 -279q-107 -186 -297 -252q-78 -27 -152 -27q-105 0 -201 55 q-163 94 -203 292zM888 176l148 -86q10 22 10 44t-11 42t-31 30q-20 12 -42 12q-11 0 -22 -3q-34 -9 -52 -39zM1290 822l8 -4q20 -14 40 -31t38 -37q4 -4 2 -8v-2l-70 -70q0 -2 -2 -4t-2 -4v-4t2 -8q2 -10 14 -16q8 -4 18 -4q68 2 102 4h1q1 0 3 -2t2 -4q24 -74 24 -154v-12 q0 -18 2 -26v-2q1 -5 5 -5q2 0 5 1q4 4 8 14q4 8 6 18q10 30 17 61t12 57t9 52v4t2 4t4 2q14 0 28 3t29 7t31 8l8 4q6 6 10 14q2 8 2 16q0 4 -1 7t-3 5t-4 3t-4 1q-12 6 -86 46q-4 2 -5 5t-1 5q0 12 2 34t4 38t2 30v10q-2 6 -10 10h-10t-6 -2q-4 -2 -8 -6q-36 -38 -68 -70 q0 -2 -4 -3t-6 1q-60 24 -114 32q-8 2 -16 2q-6 -2 -10 -4q-4 0 -6 -2l-4 -4q-1 -2 -1 -4.5t1 -5.5zM1308 812z" />
<glyph unicode="Y" d="M252 48h190q-80 36 -190 146v-146zM252 402q78 -78 139 -118t108 -46q15 -2 29 -2q31 0 58 9q40 13 83 39l86 52t108 46t139 20q66 0 125 -15t98 -38t80 -46t72 -42t71 -24q12 -1 24 -1q28 0 57 8q41 12 98 51t125 107v208q-78 -78 -139 -118t-108 -46q-15 -2 -29 -2 q-31 0 -58 9q-40 13 -83 39l-86 52t-108 46t-139 20t-139 -20t-108 -46l-86 -52t-83 -39q-27 -9 -58 -9q-14 0 -29 2q-47 6 -108 46t-139 118v-208zM367 1081q3 -17 13 -29l42 -48q10 -12 26 -18t32 -3t30 15l236 202l174 -200l-448 -344q42 -13 72 -13q12 0 22 2 q36 7 86 32t92 52t112 48t146 21q84 0 161 -25t123 -55t100 -52q42 -17 80 -17q10 0 20 1l-318 346l-360 422q-18 20 -43 22h-5q-22 0 -40 -16l-48 -40l-284 -244q-14 -12 -19 -27q-3 -9 -3 -20q0 -6 1 -12zM616 48h772q-22 10 -91 54t-138 68t-157 24t-157 -24t-138 -68 t-91 -54zM1286 1045q0 47 23 87t63 63t86 23q72 0 123 -50t51 -122q0 -48 -23 -88t-63 -63t-87 -23t-87 23t-63 63t-23 87zM1562 48h190v146q-110 -110 -190 -146z" />
<glyph unicode="Z" d="M258 558q-3 -10 -3 -20q0 -14 6 -27q11 -23 35 -31l228 -78v-292q0 -26 19 -44t45 -18h1104q12 0 24 5t20 13t13 20t5 24v1000v12v7q0 18 -9 35q-11 20 -33 26l-1054 354q-11 3 -21 3q-14 0 -28 -6q-23 -11 -31 -35zM474 616l50 148v-164zM662 1174l52 154l456 -154h-508 zM712 236v102v198v450h788h66v-404v-346h-120h-430h-304zM796 732q0 26 12 47t34 34t48 13q38 0 65 -27t27 -66t-27 -66t-66 -27t-66 27t-27 65zM798 328l162 202l104 -76l194 318l60 -128l140 22v-338h-660z" />
<glyph unicode="[" d="M254 350q0 -16 8 -31t23 -23t31 -8h126v-178q0 -26 18 -44t44 -18h542q26 0 44 18t18 44v178h584q12 0 23 5t20 13t14 20t5 24v62q0 26 -18 45t-44 19h-584v176q0 26 -18 44t-44 18h-542q-26 0 -44 -18t-18 -44v-176h-126q-16 0 -31 -9t-23 -23t-8 -32v-62zM254 1184 q0 -14 5 -25t13 -20t20 -14t24 -5h604v-176q0 -26 18 -44t44 -18h522q26 0 44 18t18 44v176h126q26 0 44 19t18 45v62q0 26 -18 44t-44 18h-126v178q0 26 -18 44t-44 18h-522q-26 0 -44 -18t-18 -44v-178h-604q-26 0 -44 -18t-18 -44v-62zM628 236v52v188v52h292v-52v-188 v-52h-292zM1108 1068v52v188v52h270v-52v-188v-52h-270z" />
<glyph unicode="\" d="M254 308q0 -26 19 -45t45 -19h62q26 0 44 19t18 45v312h1126v-312q0 -26 18 -45t44 -19h62q26 0 44 19t18 45v312v188v124q0 26 -18 44t-44 18h-62q-26 0 -44 -18t-18 -44v-124h-1126v500q0 24 -18 43t-44 19h-62q-26 0 -45 -19t-19 -43v-500v-188v-312zM530 1038 q0 30 11 56t30 46t46 31t57 11q60 0 102 -42t42 -102q0 -30 -11 -57t-31 -46t-46 -30t-56 -11q-60 0 -102 42t-42 102zM862 936q-2 -18 9 -30t27 -12h542q18 0 24 11t-4 25q-2 4 -5 9t-15 22t-25 33t-34 38t-44 41t-52 38t-59 33t-67 22t-75 8q-40 0 -73 -13t-56 -34 t-40 -47t-27 -51t-16 -46t-8 -34z" />
<glyph unicode="_" d="M271 563q-1 7 0 14t3 14t6 14t10 11l642 642l212 4q-18 -36 -34 -76q-18 -50 -30 -102l-18 -18q-32 -30 -43 -72t0 -83t43 -73q46 -48 113 -48t115 48q46 46 48 110t-42 112q8 28 16 50q38 98 102 160h38q16 0 29 -12t13 -30l-14 -520l-640 -642q-20 -18 -46 -18t-46 18 l-458 458q-6 6 -10 12t-6 13t-3 14zM1116 868q0 -6 6 -10t15 -7t21 -3t26 2q26 4 44 15t16 23l-1 1l-1 1h2q-20 108 28 235t134 195q70 56 122 36t68 -110q20 -106 -28 -234q-6 -16 -4 -33t13 -30t29 -19q46 -18 74 22q6 8 8 14q62 162 36 304q-28 160 -149 206t-249 -54 q-114 -90 -174 -250q-62 -160 -36 -302v-2z" />
<glyph unicode="a" d="M254 192q0 -24 18 -43t44 -19h1376q26 0 44 19t18 43v210q0 26 -18 44t-44 18h-1376q-26 0 -44 -18t-18 -44v-210zM254 692v210q0 12 5 24t13 20t20 13t24 5h1376q26 0 44 -18t18 -44v-210q0 -24 -18 -43t-44 -19h-1376q-26 0 -44 19t-18 43zM254 1192q0 -16 8 -30 t23 -23t31 -9h1376q26 0 44 19t18 43v210q0 26 -18 44t-44 18h-1376q-26 0 -44 -18t-18 -44v-210z" />
<glyph unicode="b" d="M254 424h388q32 48 73 89t88 76t101 59q-76 96 -86 214h-2q-62 0 -122 19t-110 55q-148 -68 -239 -206t-91 -306zM536 1266q0 -114 79 -195t193 -85q26 106 105 182t185 100q0 116 -82 198t-199 82t-199 -82t-82 -200zM630 48q0 168 91 306t239 206q104 -74 232 -74 t232 74q148 -68 239 -206t91 -306h-1124zM910 892q0 -116 83 -199t199 -83q76 0 141 38t103 103t38 141q0 116 -83 198t-199 82t-199 -82t-83 -198z" />
<glyph unicode="c" d="M252 48q0 224 121 408t319 274q140 -98 310 -98t310 98q198 -90 319 -274t121 -408h-1500zM626 1173q0 -155 110 -265t266 -110t265 110t109 265t-109 265t-265 110t-266 -110t-110 -265z" />
<glyph unicode="d" d="M252 170q0 -50 34 -86q36 -36 88 -36q58 0 100 42l402 402q140 -88 304 -88q236 0 404 168t168 405t-168 404t-405 167t-404 -167t-167 -405q0 -164 88 -304l-402 -400q-8 -10 -15 -19t-12 -19t-9 -20t-5 -21t-1 -21v-2zM860 976q0 132 94 226t226 94t225 -94t93 -226 q0 -130 -93 -224t-225 -94t-226 94t-94 224z" />
<glyph unicode="e" d="M252 310q0 -26 19 -45t45 -19h1374q26 0 44 19t18 45v500h-186v-376h-1126v562h188v188h-312q-26 0 -45 -18t-19 -44v-812zM544 642q0 88 29 163t74 126t108 93t120 66t122 42t102 25t71 11v62v104q0 14 4 23t11 12q5 2 12 2h4q9 -1 21 -9l458 -306q6 -2 10 -6t6 -9 l4 -10t2 -9t-2 -9t-4 -9t-6 -8t-10 -8l-458 -306q-22 -14 -37 -6t-15 34v114v64q-138 -2 -232 -12q-86 -12 -159 -39t-115 -60t-71 -64t-39 -51z" />
<glyph unicode="f" d="M252 308v814q0 16 8 27t20 13t28 -6l638 -320q22 -10 55 -10t57 10l638 320q22 12 39 2t17 -36v-814q0 -24 -18 -43t-44 -19h-1376q-26 0 -44 19t-18 43zM440 434zM440 434h1124v458l-562 -270l-562 270v-458zM482 1277q-1 -2 -1 -4q0 -10 17 -23l454 -238q20 -16 50 -16 t50 16l462 238q10 8 14 15q3 6 3 10q0 7 -9 10q-8 3 -20 3h-992q-24 0 -28 -11z" />
<glyph unicode="g" d="M250 308v624q0 26 19 45t45 19h124v500q0 24 18 43t44 19h1000q26 0 45 -19t19 -43v-500h124q46 0 60 -44q2 -10 2 -20v-624q0 -26 -18 -44t-44 -18h-1374q-26 0 -45 18t-19 44zM438 432h1126v376h-64h-124h-750h-126h-62v-376zM626 996h750v374h-750v-374zM1000 578 q0 -26 19 -44t45 -18h62q26 0 44 18t18 44v62q0 26 -18 45t-44 19h-62q-26 0 -45 -19t-19 -45v-62zM1272 578v62q0 26 18 45t44 19h62q26 0 44 -19t18 -45v-62q0 -26 -18 -44t-44 -18h-62q-26 0 -44 18t-18 44z" />
<glyph unicode="h" d="M252 310q0 -26 19 -45t43 -19h1376q16 0 31 9t23 23t8 32v812q0 26 -18 44t-44 18h-438v-188h312v-562h-1124v562h312v188h-438q-24 0 -43 -18t-19 -44v-812zM654 860q4 10 22 10l166 -2q18 0 31 13t13 33v412q0 20 13 33t33 13h142q12 0 22 -6t16 -17t6 -23v-414 q0 -18 13 -31t33 -13h164q18 0 22 -9q1 -2 1 -4q0 -8 -11 -19l-306 -306q-12 -12 -31 -12t-33 12l-306 308q-11 9 -11 17q0 3 1 5z" />
<glyph unicode="i" d="M252 710q0 -16 11 -30t29 -16l224 -42q10 -2 16 -8t6 -14t-6 -18l-128 -192q-10 -12 -8 -30t14 -30l122 -124q12 -12 30 -14t32 8l192 128q12 10 24 5t16 -21l40 -224q2 -8 7 -16t11 -13t14 -8t16 -3h174q18 0 32 12t16 28l42 224q2 16 14 21t26 -5l190 -128q6 -2 11 -4 t10 -3t11 0t11 2t10 4t9 7l124 124q12 10 13 29t-7 31l-130 192q-8 14 -3 26t21 14l224 42q10 2 19 9t15 17t6 20v176q0 10 -6 20t-15 17t-19 9l-224 42q-16 2 -21 14t3 26l130 190q8 14 7 32t-13 30l-124 124q-12 12 -30 14t-32 -8l-190 -128q-14 -10 -26 -5t-14 21 l-42 224q-2 6 -5 12t-7 11t-10 9t-12 6t-14 2h-174q-10 0 -20 -5t-18 -14t-10 -21l-40 -224q-4 -16 -16 -21t-24 5l-192 128q-8 6 -20 7t-23 -2t-19 -11l-122 -124q-12 -12 -14 -30t8 -32l128 -190q6 -10 6 -18t-6 -14t-16 -8l-224 -42q-18 -2 -29 -16t-11 -30v-176z M730 797q0 55 22 105t58 87t86 58t106 21q74 0 136 -36t98 -99t36 -135q0 -138 -112 -220q-72 -50 -158 -52q-56 0 -106 22t-86 58t-58 86t-22 105z" />
<glyph unicode="j" d="M252 798q0 -204 101 -377t273 -273t376 -100t377 100t273 273t100 377q0 152 -59 291t-160 240t-239 160t-292 59q-204 0 -376 -100t-273 -273t-101 -377zM456 799q0 233 164 397t398 164q114 0 218 -44t180 -120t120 -180t44 -218q0 -152 -75 -282t-205 -205t-282 -75 q-234 0 -398 165t-164 398zM874 798q0 60 46 98l2 316q0 12 9 21t21 9h106q12 0 21 -9t9 -21v-308q0 -8 2 -14q4 -2 7 -6t5 -8q8 -2 16 -2l326 -2q12 0 21 -9t9 -21v-104q0 -14 -9 -22t-21 -8h-350q-12 -12 -26 -20t-31 -13t-35 -5q-34 0 -64 17t-47 47t-17 64z" />
<glyph unicode="k" d="M548 110v1372q0 26 14 32q4 2 8 2q11 0 26 -12l840 -670q12 -10 17 -24q2 -7 2.5 -14t-2.5 -14q-5 -14 -17 -24l-840 -670q-12 -12 -24 -12t-18 9t-6 25z" />
<glyph unicode="l" d="M550 795q0 23 20 39l840 670q14 11 25 11q5 0 9 -2q14 -7 14 -33v-1370q0 -26 -14 -33q-4 -2 -9 -2q-11 0 -25 11l-840 670q-20 16 -20 39z" />
<glyph unicode="m" d="M286 378q2 6 8 14l670 838q6 8 14 13t16 6q4 0 8 0.5t9 -0.5q9 -1 17 -6t14 -13l670 -838q10 -14 11 -25v-2q0 -10 -8 -16q-9 -7 -27 -7h-1370q-10 0 -16 2t-11 5t-7 8q-1 3 -1 7t3 14z" />
<glyph unicode="n" d="M287 1232q7 14 33 14h1370q26 0 33 -14q2 -4 2 -9q0 -11 -11 -25l-670 -838q-16 -22 -39 -22t-39 22l-670 838q-11 14 -11 25q0 5 2 9z" />
<glyph unicode="o" d="M256 508q8 2 11 1t16 -7t19 -8q42 -16 86 -26t90 -16t92 -6q216 0 397 106t287 288t106 396q0 132 -44 258q-12 36 -6 46q3 1 7 1q15 0 39 -13q182 -104 290 -287t108 -399t-105 -397t-287 -287t-396 -106q-222 0 -406 112t-288 298q-17 33 -17 43q0 2 1 3z" />
<glyph unicode="p" d="M256 1120l412 -1032q10 -24 34 -35q13 -6 26 -6q12 0 24 5l506 202q12 6 21 15t14 20t5 24t-4 25l-414 1032q-6 16 -20 27t-30 13t-32 -4l-506 -202q-26 -10 -36 -34q-5 -12 -5 -24.5t5 -25.5zM1045 1279q1 35 13 57l84 170q12 24 38 32q10 3 20 3q15 0 28 -7l488 -244 q16 -8 25 -22q10 -16 10 -35q0 -15 -7 -29l-352 -702q-12 -23 -26 -23h-1q-15 1 -25 25l-286 716q-9 22 -9 53v6z" />
<glyph unicode="q" d="M254 798q0 -204 100 -377t273 -273t377 -100t377 100t273 273t100 377q0 298 -204 514q-200 214 -492 234q-26 2 -54 2q-204 0 -377 -100t-273 -273t-100 -377zM680 1036q0 32 10 64t30 64q40 64 116 106t178 42q92 0 164 -34q74 -36 114 -97t40 -133q0 -58 -24 -100 q-22 -42 -54 -74q-6 -6 -17 -16t-24 -22t-29 -26t-34 -32q-20 -18 -32 -32l-7 -7t-5 -7l-4 -8l-8 -20l-10 -38q-14 -82 -92 -82q-14 0 -26 3t-22 9t-20 16q-6 6 -12 14t-9 18t-5 21t-2 23q0 56 18 96q16 42 46 72q26 30 72 70q38 34 56 50q4 6 9 11t9 11l8 12q8 16 8 36 q0 40 -30 68t-78 28q-16 0 -28 -2t-23 -5t-19 -8t-14 -13q-30 -30 -50 -92q-24 -82 -98 -82q-44 0 -72 30q-16 14 -23 31t-7 35zM886 376q0 46 32 80q16 16 36 24t44 8q16 0 30 -4t27 -11t23 -18t18 -23t11 -26t3 -30q0 -52 -34 -84q-34 -28 -78 -28q-22 0 -42 7t-36 21 q-34 30 -34 84z" />
<glyph unicode="r" d="M254 798q0 204 100 377t273 273t377 100q152 0 291 -59t240 -160t160 -240t59 -291q0 -122 -38 -237t-107 -207t-161 -161t-207 -107t-237 -38q-152 0 -291 59t-240 160t-160 240t-59 291zM670 322q0 -24 12 -45t34 -33t48 -12q38 0 64 26t26 64v252h206q182 0 300 94 t118 262v2q0 80 -28 144t-79 110t-125 71t-164 25h-318q-40 0 -67 -27t-27 -65v-868zM854 740v374h212q30 0 56 -4t49 -11t42 -19t34 -27t25 -34t15 -42t5 -49v-2q0 -54 -27 -97t-78 -66t-121 -23h-212z" />
<glyph unicode="s" d="M252 798q0 -204 101 -377t274 -273t376 -100t376 100t273 273t100 377q0 152 -59 291t-159 240t-239 160t-293 59q-202 0 -375 -100t-274 -273t-101 -377zM578 370q0 16 5 29t16 22t27 15l76 22v262h-48q-12 0 -24 3t-21 11t-16 17t-11 21t-4 24q0 32 22 55t54 23h48v136 q0 166 92 258q90 92 250 92q66 0 121 -16t94 -41t75 -63q28 -28 28 -66q0 -24 -12 -44t-33 -32t-47 -12q-40 0 -64 28q-72 78 -160 78q-66 0 -110 -42q-22 -26 -35 -62t-13 -82v-132h300q16 0 30 -6t24 -17t16 -25t6 -30q0 -20 -10 -38t-28 -28t-38 -10h-300v-254h410 q34 0 57 -24t23 -57t-23 -56t-57 -23h-650q-32 0 -51 19t-19 45z" />
<glyph unicode="t" d="M442 568v626q0 26 18 44t44 18h174q-42 18 -69 56t-27 84q0 32 12 60t32 48t48 32t58 12q64 0 108 -44t44 -108q0 -30 -12 -59t-34 -49t-50 -32h154q24 0 43 -18t19 -44v-626q0 -24 -19 -43t-43 -19h-22v-396q0 -26 -18 -44t-44 -18h-250q-26 0 -44 18t-18 44v396h-42 q-26 0 -44 19t-18 43zM1086 568q0 -24 19 -43t45 -19h42v-396q0 -26 18 -44t44 -18h146q26 0 44 18t18 44v396h42q26 0 44 19t18 43v418q0 26 -18 44t-44 18h-96q12 8 22 20t16 24t10 27t4 31q0 26 -10 50t-27 41t-40 27t-49 10q-54 0 -91 -38t-37 -90q0 -30 14 -57t38 -45 h-108q-26 0 -45 -18t-19 -44v-418z" />
<glyph unicode="u" d="M252 798q0 -204 100 -377t273 -273t377 -100t377 100t273 273t100 377t-100 377t-273 273t-377 100t-377 -100t-273 -273t-100 -377zM480 1126q0 8 10 16q6 2 20 4q6 2 14 2h18q28 0 43 -4t23 -14l188 -292l170 286q4 6 7 10t7 6l16 6q4 2 11 2h17h18t14 -2q4 0 7 -1 l6 -2t5 -3t3 -4t2 -5t1 -6v-9v-580q0 -12 -1 -16t-5 -8q-6 -4 -17 -7t-31 -3t-32 3t-16 7t-6 9t-2 13v416l-118 -206q-2 -4 -5 -7t-9 -7q-4 -2 -16 -4q-4 -2 -11 -3t-17 -1q-6 0 -11 1t-9 1t-8 2q-10 2 -16 4l-8 8q-4 2 -6 6l-116 194v-402l-2 -16q0 -4 -6 -8q-4 -4 -16 -7 t-32 -3t-31 3t-15 7l-6 8q-2 4 -2 14v532l-18 32q-6 8 -9 14t-3 14zM1156 900q0 4 1 7t4 6t9 5q6 4 17 6t27 2q12 0 22 -1t16 -5q4 0 7 -3l6 -6t5 -7l112 -240l104 236q4 8 8 12t10 7t15 5t23 2q16 0 27 -2t15 -4q12 -8 12 -18q0 -6 -4 -18q-4 -6 -6 -10t-2 -8l-242 -524 q-4 -8 -8 -13t-10 -7q-12 -4 -36 -4q-14 0 -24 1t-18 5q-12 8 -12 18q0 4 1 8t3 9t4 9t2 8l80 170l-156 322q-4 4 -6 9t-2 9z" />
<glyph unicode="v" d="M252 796q0 262 185 447t447 185q258 0 442 -180t190 -438h204q26 0 32 -13q1 -3 1 -6q0 -11 -15 -25l-328 -328q-8 -10 -20 -15t-24 -5t-24 5t-22 15l-328 328q-18 18 -13 31t31 13h238q-6 148 -112 250t-252 102q-152 0 -259 -107t-107 -259t107 -259t259 -107 q12 0 24 -5t20 -14t13 -21t5 -24v-138q0 -18 -8 -33t-23 -23t-31 -8q-262 0 -447 185t-185 447z" />
<glyph unicode="w" d="M252 694v208q0 12 4 24t13 20t20 13t25 5h520v522q0 26 19 44t43 18h210q26 0 44 -18t18 -44v-522h520q18 0 32 -8t23 -22t9 -32v-208q0 -26 -19 -44t-45 -18h-520v-522q0 -26 -18 -44t-44 -18h-210q-24 0 -43 18t-19 44v522h-520q-18 0 -32 8t-22 22t-8 32z" />
<glyph unicode="x" d="M252 692v210q0 8 2 16t6 15t10 12t13 10t15 7t16 2h1376q26 0 44 -19t18 -43v-210q0 -26 -18 -44t-44 -18h-1376q-12 0 -24 5t-20 13t-13 20t-5 24z" />
<glyph unicode="y" d="M252 256q0 26 18 44l498 498l-498 498q-18 18 -18 44t18 44l146 146q12 12 28 16q8 2 16 2l16 -2q16 -4 28 -16l498 -498l498 498q8 8 20 13t24 5t23 -5t21 -13l146 -146q6 -8 11 -17t6 -18q1 -5 1 -9.5t-1 -9.5q-1 -10 -6 -19t-11 -15l-498 -498l498 -498q12 -12 16 -28 q2 -8 2 -16t-2 -16q-4 -16 -16 -28l-146 -146q-20 -18 -45 -18t-43 18l-498 498l-498 -498q-18 -18 -44 -18t-44 18l-146 146q-18 18 -18 44z" />
<glyph unicode="z" d="M252 713q0 25 18 41l150 150q16 18 41 18t43 -18l244 -242q8 -8 19 -13t23 -5t23 5t19 13l668 668q18 18 43 18t41 -16l150 -150q6 -6 11 -15t6 -18q0 -4 0.5 -8.5t-0.5 -9.5q-1 -9 -5 -18t-12 -15l-810 -812q-16 -16 -46 -29t-56 -13h-70q-6 0 -14 1t-16 3t-16 5t-16 7 t-15 8t-13 9t-12 9l-380 384q-18 18 -18 43z" />
<glyph unicode="{" d="M294 1134q148 -368 410 -638q270 -262 638 -410q284 -116 392 180q28 78 -36 146q-72 72 -208 158q-98 64 -143 57t-121 -97q-62 -72 -152 -38q-132 50 -230 144q-96 98 -144 230q-34 90 38 152q90 76 96 121t-56 143q-86 136 -158 208q-48 46 -100 44q-22 0 -46 -8 q-296 -108 -180 -392z" />
<glyph unicode="|" d="M440 110q0 -16 8 -31t23 -23t31 -8h1000q26 0 44 18t18 44v814q0 24 -18 43t-44 19h-124v186q0 156 -110 266t-266 110t-265 -110t-109 -266v-186h-126q-16 0 -31 -9t-23 -23t-8 -30v-814zM814 986v186q0 78 55 133t133 55t133 -55t55 -133v-186h-376z" />
<glyph unicode="}" d="M365 113q-1 -11 3 -18t11 -16t21 -16t34 -11q38 -10 67 7t39 39l8 22l40 100q116 4 160 22q14 6 31 17t33 23t29 23t23 19l8 8l-256 208q-184 -182 -218 -260q-10 -22 -16 -66t-8 -54q0 -2 -4 -13t-4 -17t-1 -17zM417 1191q1 -27 11 -47l10 -22l106 -170q2 -4 28 -38 q4 -8 54 -31t78 -45q10 -32 -1 -56t-29 -61t-18 -85h-2h-2v-4h200h300h188v4h2q0 48 -18 85t-29 62t-1 55q16 12 34 22t33 18t29 14t24 12t14 10l26 38l106 170q2 4 5 9t9 20t8 30t-2 32t-18 31q-32 30 -58 29t-42 -15l-16 -16l-90 -132q-98 -30 -132 -62h-450 q-14 14 -47 29t-59 23l-26 10l-90 132q-2 4 -7 9t-22 14t-33 7q-28 0 -54 -28q-20 -26 -19 -53zM776 1324q0 -46 18 -88t48 -72t71 -48t87 -18t87 18t72 48t48 72t17 88q0 92 -66 158t-158 66t-158 -66t-66 -158zM1138 332q78 -72 124 -90q18 -8 59 -13t71 -7l30 -2l38 -100 q2 -4 4 -10t12 -21t22 -23t32 -16t46 2q22 6 37 15t22 16t9 21t1 19t-5 21l-4 16q-2 12 -8 55t-16 65q-34 78 -218 260z" />
<glyph unicode="&#x2000;" horiz-adv-x="1024" />
<glyph unicode="&#x2001;" />
<glyph unicode="&#x2002;" horiz-adv-x="1024" />
<glyph unicode="&#x2003;" />
<glyph unicode="&#x2004;" horiz-adv-x="682" />
<glyph unicode="&#x2005;" horiz-adv-x="512" />
<glyph unicode="&#x2006;" horiz-adv-x="341" />
<glyph unicode="&#x2007;" horiz-adv-x="341" />
<glyph unicode="&#x2008;" horiz-adv-x="256" />
<glyph unicode="&#x2009;" horiz-adv-x="409" />
<glyph unicode="&#x200a;" horiz-adv-x="113" />
<glyph unicode="&#x202f;" horiz-adv-x="409" />
<glyph unicode="&#x205f;" horiz-adv-x="512" />
<glyph unicode="&#x25fc;" horiz-adv-x="960" d="M0 0v960h960v-960h-960z" />
</font>
</defs>
</svg>
