<svg xmlns="http://www.w3.org/2000/svg">
<defs>
<font id="PSL-EmpireExtra" horiz-adv-x="0" >
  <font-face 
    font-family="PSL-EmpireExtra"
    font-weight="400"
    font-stretch="normal"
    units-per-em="2048"
    panose-1="2 0 5 6 0 0 0 2 0 3"
    ascent="1638"
    descent="-410"
    x-height="702"
    cap-height="965"
    bbox="-870 -645 1894 1452"
    underline-thickness="51"
    underline-position="-186"
    unicode-range="U+0020-F882"
  />
<missing-glyph horiz-adv-x="1536" 
d="M256 0v1280h1024v-1280h-1024zM299 33h938q10 0 10 10v1194q0 10 -10 10h-938q-10 0 -10 -10v-1194q0 -10 10 -10zM715 -2h-2v0h2h-2v0h2zM768 -2v-2h-2v2h2zM768 -4v2h-2v-2h2zM780 -2v0v0v-2v2h-4v-2v2h2v0h2zM778 -2h2v0h-2zM799 -2h-4v-2h4v2h-2h2v-2h-4v2h4zM799 -2
v0h4v0v-2v2h-4v-2v2zM717 0v-4h-6v4h6zM717 -4v4h-6v-4h6zM731 -2v-2h-2v2h2zM731 -4v2h-2v-2h2zM733 -2v0h2v0v-2v2h-2zM770 -2v-2h2h-2v2zM844 -2v-2h-4v2h4zM844 -4v2h-4v-2h4zM834 -2v-2h2v2v-2h-2v2zM803 -2h4h-2v-2v2h-2zM758 -2h2v-2h-2v2h2v0h-2zM758 -4h2v2h-2v-2z
M766 -2v0h-4v-2v2h4zM762 -2h4v0h-4zM795 -2v-2v2zM725 -4h-4h4zM725 -2v0h-4v-2v2h4v0h-4h4zM678 -2h-4v-2h4h-4v2h4zM727 -2v-2h-2v2h2zM727 -4v2h-2v-2h2zM684 -2v0h-2v-2v2h2zM682 -2h2v0h-2zM682 -2v-2h-4v2h4zM682 -4v2h-4v-2h4zM686 -2v0h4v0v0h-2v-2v2h-2zM784 -2
v-2h2h-2v2zM782 -2v-2h2h-2v2zM754 -4v2h2v-2v2h-2v-2zM815 -2v0h2v-2v2h-4v-2v2h2zM813 -2h2v0h-2zM762 -2v-2v2zM698 -2h-2v-2h2v2h-2h2v-2h-2v2h2zM700 -2v0h2v0v-2v2h-2v-2v2zM705 -2h4h-2v-2v2h-2zM694 -2v-2v2zM692 -2v0h2v-2v2h-4v-2v2h2zM690 -2h2v0h-2zM831 -2v0h3
v-2v2h-5v-2v2h2zM829 -2h2v0h-2zM836 -4h4h-4zM836 -2h4h-4zM836 -2h4h-4zM750 -4h2h-2zM752 -2v0v0v-2v2h-2v-2v2v0h2zM750 -2h2v0h-2zM829 -4h-4h4zM825 -2h4h-4zM825 -2h4h-4zM809 -2h2v-2h-2h2v2h-2zM809 -2h2h-2v0zM821 -2h4v-2h-4h4v2h-4zM821 -2h4h-4v0zM817 -4h4h-4
zM817 -2h4h-4zM817 -2h4h-4zM793 -2v0v0v-2v2h-2v-2v2h2zM791 -2h2v0h-2zM745 -4h3h-3zM745 -2h3h-3zM745 -2h3h-3zM739 -2v-2h4v2v-2h-4v2zM741 -2v-2v2z" />
    <glyph glyph-name="trademark" unicode="&#x3b;&#x3b;Trademark&#x3b;&#x3b;" horiz-adv-x="1993" 
d="M121 1165h801q30 0 30 -28q0 -33 -30 -33h-371v-506q0 -14 -31 -14t-31 14v506h-368q-33 0 -33 33q0 28 33 28zM1833 618v459l-342 -485q-10 -10 -29 -10q-18 0 -28 10l-340 485v-459q0 -34 -31 -34q-33 0 -33 34v521q0 28 31 28q18 0 39 -12l362 -510l363 510
q20 12 41 12q28 0 28 -28v-521q0 -34 -30 -34q-31 0 -31 34z" />
    <glyph glyph-name="multiply" unicode="&#x3b;&#x3b;Multiply&#x3b;&#x3b;" horiz-adv-x="1083" 
d="M803 270l-262 260l-260 -260q-13 -12 -23 -12t-22 12q-11 11 -11 23q0 10 11 20l262 262l-262 261q-11 10 -11 20q0 12 11 23q12 12 22 12t23 -12l260 -261l262 261q10 12 20 12q13 0 23 -12q10 -11 10 -23q0 -10 -10 -20l-260 -261l260 -262q10 -10 10 -20
q0 -12 -10 -23q-10 -12 -23 -12q-10 0 -20 12z" />
    <glyph glyph-name="divide" unicode="&#x3b;&#x3b;Divide&#x3b;&#x3b;" horiz-adv-x="1292" 
d="M246 606h801q30 0 30 -31q0 -30 -30 -30h-801q-31 0 -31 30q0 31 31 31zM639 362q14 0 27.5 -7t20.5 -20t7 -28q0 -14 -6 -27.5t-20.5 -20.5t-28.5 -7q-12 0 -25.5 7t-20.5 20.5t-7 27.5q0 15 7 28t20.5 20t25.5 7zM639 920q14 0 27.5 -7.5t20.5 -20.5t7 -28
q0 -12 -6 -25.5t-20.5 -20.5t-28.5 -7q-12 0 -25.5 7t-20.5 20.5t-7 25.5q0 15 7 28t20.5 20.5t25.5 7.5z" />
    <glyph glyph-name="fi" unicode="fi" horiz-adv-x="951" 
d="M542 799q-16 2 -30.5 3t-28.5 1q-41 0 -62.5 -11.5t-21.5 -58.5v-31h135v-149h-135v-553h-223v553h-107v149h107q0 76 13.5 126.5t44 81t79.5 43t121 12.5q29 0 54.5 -1t53.5 -3v-162zM614 788v177h221v-177h-221zM614 0v702h221v-702h-221z" />
    <glyph glyph-name="fl" unicode="fl" horiz-adv-x="948" 
d="M542 799q-16 2 -30.5 3t-28.5 1q-41 0 -62.5 -11.5t-21.5 -58.5v-31h135v-149h-135v-553h-223v553h-107v149h107q0 76 13.5 126.5t44 81t79.5 43t121 12.5q29 0 54.5 -1t53.5 -3v-162zM614 -2v967h221v-967h-221z" />
    <glyph glyph-name="ffi" unicode="ffi" horiz-adv-x="1507" 
d="M542 799q-16 2 -30.5 3t-28.5 1q-41 0 -62.5 -11.5t-21.5 -58.5v-31h135v-149h-135v-553h-223v553h-107v149h107q0 76 13.5 126.5t44 81t79.5 43t121 12.5q29 0 54.5 -1t53.5 -3v-162zM1092 799q-16 2 -30.5 3t-28.5 1q-41 0 -62.5 -11.5t-21.5 -58.5v-31h135v-149h-135
v-553h-223v553h-107v149h107q0 76 13.5 126.5t44 81t79.5 43t121 12.5q29 0 54.5 -1t53.5 -3v-162zM1164 788v177h221v-177h-221zM1164 0v702h221v-702h-221z" />
    <glyph glyph-name="ffl" unicode="ffl" horiz-adv-x="1488" 
d="M542 799q-16 2 -30.5 3t-28.5 1q-41 0 -62.5 -11.5t-21.5 -58.5v-31h135v-149h-135v-553h-223v553h-107v149h107q0 76 13.5 126.5t44 81t79.5 43t121 12.5q29 0 54.5 -1t53.5 -3v-162zM1092 799q-16 2 -30.5 3t-28.5 1q-41 0 -62.5 -11.5t-21.5 -58.5v-31h135v-149h-135
v-553h-223v553h-107v149h107q0 76 13.5 126.5t44 81t79.5 43t121 12.5q29 0 54.5 -1t53.5 -3v-162zM1164 -2v967h221v-967h-221z" />
    <glyph glyph-name="Rulakkhangyao" unicode="&#xc4;&#xd2;" horiz-adv-x="1321" 
d="M502 -246v797q0 72 -36 103.5t-93 31.5q-41 0 -78 -21.5t-49 -72.5l61 -55q-20 -13 -40.5 -34.5t-20.5 -56.5v-292h73v-154h-278v434q0 35 22.5 62.5t49.5 40.5l-78 57q4 41 25.5 84t62.5 78t102.5 57.5t147.5 22.5q92 0 156.5 -24t103.5 -62.5t56.5 -90t17.5 -108.5
v-797h-205zM1018 -246v703q0 43 -8.5 79.5t-28 64.5t-53 43t-84.5 15h-72v160h180q133 0 202 -81t69 -203v-781h-205z" />
    <glyph glyph-name="Lulakkhangyao" unicode="&#xc6;&#xd2;" horiz-adv-x="1395" 
d="M1095 -246v703q0 43 -8.5 79.5t-28 64.5t-53 43t-84.5 15h-72v160h180q133 0 202 -81t69 -203v-781h-205zM567 -246v797q0 72 -35.5 103.5t-93.5 31.5q-41 0 -77.5 -21.5t-49.5 -72.5l62 -55q-21 -13 -41.5 -34.5t-20.5 -56.5v-446h-266v154h61v280q0 35 22.5 62.5
t49.5 40.5l-78 57q4 41 25.5 84t62.5 78t102.5 57.5t147.5 22.5q92 0 156.5 -24t103.5 -62.5t56.5 -90t17.5 -108.5v-797h-205z" />
    <glyph glyph-name=".notdef" horiz-adv-x="1536" 
d="M256 0v1280h1024v-1280h-1024zM299 33h938q10 0 10 10v1194q0 10 -10 10h-938q-10 0 -10 -10v-1194q0 -10 10 -10zM715 -2h-2v0h2h-2v0h2zM768 -2v-2h-2v2h2zM768 -4v2h-2v-2h2zM780 -2v0v0v-2v2h-4v-2v2h2v0h2zM778 -2h2v0h-2zM799 -2h-4v-2h4v2h-2h2v-2h-4v2h4zM799 -2
v0h4v0v-2v2h-4v-2v2zM717 0v-4h-6v4h6zM717 -4v4h-6v-4h6zM731 -2v-2h-2v2h2zM731 -4v2h-2v-2h2zM733 -2v0h2v0v-2v2h-2zM770 -2v-2h2h-2v2zM844 -2v-2h-4v2h4zM844 -4v2h-4v-2h4zM834 -2v-2h2v2v-2h-2v2zM803 -2h4h-2v-2v2h-2zM758 -2h2v-2h-2v2h2v0h-2zM758 -4h2v2h-2v-2z
M766 -2v0h-4v-2v2h4zM762 -2h4v0h-4zM795 -2v-2v2zM725 -4h-4h4zM725 -2v0h-4v-2v2h4v0h-4h4zM678 -2h-4v-2h4h-4v2h4zM727 -2v-2h-2v2h2zM727 -4v2h-2v-2h2zM684 -2v0h-2v-2v2h2zM682 -2h2v0h-2zM682 -2v-2h-4v2h4zM682 -4v2h-4v-2h4zM686 -2v0h4v0v0h-2v-2v2h-2zM784 -2
v-2h2h-2v2zM782 -2v-2h2h-2v2zM754 -4v2h2v-2v2h-2v-2zM815 -2v0h2v-2v2h-4v-2v2h2zM813 -2h2v0h-2zM762 -2v-2v2zM698 -2h-2v-2h2v2h-2h2v-2h-2v2h2zM700 -2v0h2v0v-2v2h-2v-2v2zM705 -2h4h-2v-2v2h-2zM694 -2v-2v2zM692 -2v0h2v-2v2h-4v-2v2h2zM690 -2h2v0h-2zM831 -2v0h3
v-2v2h-5v-2v2h2zM829 -2h2v0h-2zM836 -4h4h-4zM836 -2h4h-4zM836 -2h4h-4zM750 -4h2h-2zM752 -2v0v0v-2v2h-2v-2v2v0h2zM750 -2h2v0h-2zM829 -4h-4h4zM825 -2h4h-4zM825 -2h4h-4zM809 -2h2v-2h-2h2v2h-2zM809 -2h2h-2v0zM821 -2h4v-2h-4h4v2h-4zM821 -2h4h-4v0zM817 -4h4h-4
zM817 -2h4h-4zM817 -2h4h-4zM793 -2v0v0v-2v2h-2v-2v2h2zM791 -2h2v0h-2zM745 -4h3h-3zM745 -2h3h-3zM745 -2h3h-3zM739 -2v-2h4v2v-2h-4v2zM741 -2v-2v2z" />
    <glyph glyph-name=".null" 
 />
    <glyph glyph-name="nonmarkingreturn" horiz-adv-x="580" 
 />
    <glyph glyph-name="space" unicode=" " horiz-adv-x="690" 
 />
    <glyph glyph-name="exclam" unicode="!" horiz-adv-x="387" 
d="M248 319h-107l-61 406v240h229v-240zM72 0v252h243v-252h-243z" />
    <glyph glyph-name="quotedbl" unicode="&#x22;" horiz-adv-x="655" 
d="M385 479v486h188v-486h-188zM82 479v486h188v-486h-188z" />
    <glyph glyph-name="numbersign" unicode="#" horiz-adv-x="745" 
d="M592 547l-17 -148h78v-143h-98l-35 -256h-149l32 256h-106l-35 -256h-149l32 256h-94v143h115l20 148h-98v143h117l35 252h149l-33 -252h105l37 252h149l-35 -252h82v-143h-102zM336 547l-19 -148h107l20 148h-108z" />
    <glyph glyph-name="dollar" unicode="$" horiz-adv-x="868" 
d="M842 297q0 -84 -31 -143.5t-82 -97.5t-117.5 -56t-138.5 -20v-121h-61v121q-78 2 -147.5 22.5t-122 61t-84 104t-31.5 151.5h243q4 -73 41 -106t101 -41v213q-19 4 -40.5 10t-43.5 13q-49 14 -98.5 34.5t-88.5 53t-63.5 79t-24.5 111.5q0 78 32 134.5t83 92t115.5 53
t128.5 19.5v123h61v-125q66 -4 126 -23.5t107.5 -58.5t76 -96t28.5 -135h-244q4 51 -24.5 77.5t-69.5 36.5v-182q23 -6 47.5 -12t50.5 -15q52 -14 100 -34.5t86 -53t61.5 -79t23.5 -111.5zM412 791q-39 -3 -76 -20t-37 -69q0 -32 30.5 -50.5t82.5 -33.5v173zM596 268
q0 39 -34 61.5t-89 39.5v-195q43 4 83 24.5t40 69.5z" />
    <glyph glyph-name="percent" unicode="%" horiz-adv-x="1133" 
d="M1096 248q0 -58 -12.5 -106t-40 -82.5t-69.5 -53t-102 -18.5q-59 0 -102 19.5t-70.5 54t-41 83t-13.5 103.5q2 110 56.5 184t170.5 74q117 0 170.5 -70.5t53.5 -187.5zM369 -37h-129l528 1016h131zM487 694q0 -57 -12 -104t-39.5 -82t-69.5 -53.5t-104 -18.5
q-59 0 -101 18.5t-70 53.5t-41 83t-13 103q0 111 54 185.5t171 74.5t171 -71.5t54 -188.5zM942 248q0 20 -1 45.5t-7 49.5t-20.5 40t-41.5 16q-26 0 -40.5 -16t-21.5 -40t-8 -49.5t-1 -45.5q0 -21 1 -46.5t8 -49t21.5 -40t40.5 -16.5q27 0 41.5 16.5t20.5 40t7 49t1 46.5z
M334 694q0 21 -1 46.5t-8.5 49t-21.5 40t-41 16.5q-26 0 -40.5 -16.5t-21.5 -40t-8.5 -49t-1.5 -46.5q0 -20 1.5 -45.5t8.5 -49.5t21.5 -40t40.5 -16q27 0 41 16t21.5 40t8.5 49.5t1 45.5z" />
    <glyph glyph-name="ampersand" unicode="&#x26;" horiz-adv-x="948" 
d="M692 0l-65 82q-62 -53 -126.5 -77.5t-142.5 -24.5q-63 0 -120.5 20t-100.5 59t-68.5 93.5t-25.5 121.5q0 52 17.5 95t47 77.5t68.5 61.5t80 47q-35 41 -58.5 86t-23.5 100q0 56 22.5 101t59.5 76.5t85 49t99 17.5q54 0 102 -17.5t85 -50t58.5 -78.5t21.5 -104
q0 -86 -45.5 -144.5t-114.5 -94.5l96 -121q29 45 35 96h192q-6 -65 -33.5 -126.5t-72.5 -108.5l197 -236h-269zM524 750q0 34 -22.5 53.5t-57.5 19.5q-28 0 -50.5 -20.5t-22.5 -50.5q0 -41 22.5 -67t42.5 -54q37 20 62.5 47t25.5 72zM367 403q-35 -16 -71 -48.5t-36 -78.5
q0 -51 38 -80.5t85 -29.5q33 0 65.5 21.5t57.5 48.5z" />
    <glyph glyph-name="quotesingle" unicode="'" horiz-adv-x="387" 
d="M98 479v486h191v-486h-191z" />
    <glyph glyph-name="parenleft" unicode="(" horiz-adv-x="420" 
d="M211 -236q-41 82 -70.5 154t-50 143.5t-31 147.5t-12.5 162q2 90 12.5 166.5t31 148.5t50 144.5t70.5 154.5h188q-65 -141 -106 -295.5t-37 -318.5q-4 -158 37 -311.5t106 -295.5h-188z" />
    <glyph glyph-name="parenright" unicode=")" horiz-adv-x="420" 
d="M375 371q-2 -86 -12.5 -162t-31 -147.5t-51 -143.5t-71.5 -154h-189q66 142 108 295.5t38 311.5q4 164 -38 318.5t-108 295.5h189q41 -82 71.5 -154.5t51 -144.5t31 -148.5t12.5 -166.5z" />
    <glyph glyph-name="asterisk" unicode="*" horiz-adv-x="600" 
d="M401 674l105 -139l-107 -80l-102 145l-100 -145l-105 80l107 139l-166 51l43 127l157 -59v172h134v-172l155 59l43 -127z" />
    <glyph glyph-name="plus" unicode="+" horiz-adv-x="819" 
d="M492 258v-256h-166v256h-254v166h254v254h166v-254h256v-166h-256z" />
    <glyph glyph-name="comma" unicode="," horiz-adv-x="342" 
d="M281 27q0 -66 -22.5 -110t-55.5 -71.5t-71 -41t-71 -15.5v96q48 13 69.5 40.5t27.5 74.5h-97v209h220v-182z" />
    <glyph glyph-name="hyphen" unicode="-" horiz-adv-x="530" 
d="M61 281v174h408v-174h-408z" />
    <glyph glyph-name="period" unicode="." horiz-adv-x="342" 
d="M61 0v209h220v-209h-220z" />
    <glyph glyph-name="slash" unicode="/" horiz-adv-x="535" 
d="M193 -20h-205l354 1005h205z" />
    <glyph glyph-name="zero" unicode="0" horiz-adv-x="819" 
d="M774 471q0 -94 -20.5 -181t-64.5 -154.5t-114.5 -107.5t-171.5 -40q-98 0 -166.5 40t-111.5 107.5t-62.5 154.5t-19.5 181t19.5 181t62.5 154.5t111.5 107.5t166.5 40q101 0 171.5 -40t114.5 -107.5t64.5 -154.5t20.5 -181zM559 471q0 47 -3 98.5t-16.5 96.5t-44 73.5
t-85.5 28.5q-54 0 -83.5 -28.5t-45 -73.5t-18.5 -96.5t-3 -98.5q0 -45 3 -97t18.5 -97.5t45 -74t83.5 -28.5q55 0 85.5 28.5t44 74t16.5 97.5t3 97z" />
    <glyph glyph-name="one" unicode="1" horiz-adv-x="819" 
d="M354 0v578h-221v170q49 0 96 9t85 31.5t62.5 60.5t26.5 93h185v-942h-234z" />
    <glyph glyph-name="two" unicode="2" horiz-adv-x="819" 
d="M37 0q2 92 40 173t103 140q60 54 123.5 92.5t116.5 73.5t86 72t33 84q0 55 -32 87t-85 32q-45 0 -75 -15.5t-47 -41t-24.5 -60.5t-7.5 -74h-209q-4 88 19.5 160t71 123t116 79.5t154.5 28.5q67 0 128.5 -18t109 -55t75 -93.5t27.5 -132.5q0 -67 -21.5 -115t-57.5 -86
t-83 -69t-96 -63q-27 -17 -47.5 -31.5t-39 -27.5t-37 -29.5t-40.5 -38.5h432v-195h-733z" />
    <glyph glyph-name="three" unicode="3" horiz-adv-x="819" 
d="M776 291q0 -80 -31.5 -137.5t-84 -94t-119 -54t-133.5 -17.5q-80 0 -151 21.5t-122 65.5t-79.5 110.5t-24.5 156.5h209q-2 -168 166 -168q57 0 102 27.5t45 89.5q0 78 -47 103.5t-115 25.5q-16 0 -29.5 -1t-29.5 -3v159q16 3 29.5 0.5t29.5 -2.5q25 0 51.5 4.5t48 15.5
t35 30.5t13.5 50.5q0 45 -38 69.5t-93 24.5q-68 0 -106 -35t-36 -98h-209q2 78 30 138.5t74 100t109.5 60t137.5 20.5q59 0 119.5 -14t109.5 -45t80 -80t31 -121q0 -63 -33 -118.5t-94 -65.5v-4q77 -21 116 -76t39 -139z" />
    <glyph glyph-name="four" unicode="4" horiz-adv-x="819" 
d="M659 209v-209h-223v209h-401v215l409 518h215v-539h119v-194h-119zM442 709h-2l-229 -306h231v306z" />
    <glyph glyph-name="five" unicode="5" horiz-adv-x="819" 
d="M768 336q0 -86 -28.5 -151.5t-78 -109.5t-118 -65.5t-148.5 -21.5q-76 0 -141.5 15t-114.5 51t-78.5 94.5t-33.5 144.5h221q0 -29 13 -50.5t34.5 -37t48.5 -23.5t51 -8q66 0 109 41t43 111q0 69 -38 112t-106 43q-47 0 -82.5 -14t-64.5 -57h-201l90 532h576v-194h-406
l-32 -173h2q34 35 79.5 51.5t98.5 16.5q141 0 223 -80t82 -227z" />
    <glyph glyph-name="six" unicode="6" horiz-adv-x="819" 
d="M774 336q0 -84 -28.5 -149.5t-79 -109.5t-117 -66.5t-139.5 -22.5q-101 0 -171.5 41t-113.5 107.5t-62.5 152.5t-19.5 176q0 98 23.5 187t72.5 157t125 106.5t180 38.5q123 0 210 -63.5t108 -192.5h-207q-12 54 -47 72q-16 10 -31.5 12t-32.5 2q-49 0 -81.5 -22.5
t-54 -56t-33 -75.5t-13.5 -83h2q35 59 92.5 78.5t122.5 19.5q62 0 116 -24.5t94 -66.5t62.5 -98.5t22.5 -119.5zM565 319q0 66 -40 112t-113 46q-66 0 -105 -46t-39 -112q0 -59 39 -102t105 -43q69 0 111 43t42 102z" />
    <glyph glyph-name="seven" unicode="7" horiz-adv-x="819" 
d="M739 758q-14 -13 -38.5 -42.5t-51 -70.5t-54.5 -90t-50 -102q-58 -125 -77 -243t-19 -210h-240q2 41 9 94t21.5 112.5t37 122t53.5 124.5q22 55 50 102t54.5 84t47 61.5t30.5 30.5v2h-436v209h663v-184z" />
    <glyph glyph-name="eight" unicode="8" horiz-adv-x="819" 
d="M784 276q0 -77 -32.5 -131.5t-86 -89.5t-120 -51t-133.5 -16q-68 0 -135.5 14t-122 48t-88 89.5t-33.5 136.5q0 84 49 146.5t129 77.5v4q-68 16 -102.5 69.5t-34.5 120.5q0 70 31.5 119t81 81t109.5 46t118 14q57 0 116.5 -14t108.5 -46t80 -81t31 -119q0 -65 -37 -120.5
t-99 -69.5v-4q78 -17 124 -75t46 -149zM551 678q0 57 -43 81.5t-96 24.5q-56 0 -98 -23.5t-42 -82.5q0 -64 43 -87.5t97 -23.5q49 0 94 24.5t45 86.5zM561 289q0 65 -44 100t-105 35q-60 0 -108 -33t-48 -102q0 -70 48 -100.5t108 -30.5q57 0 103 29.5t46 101.5z" />
    <glyph glyph-name="nine" unicode="9" horiz-adv-x="819" 
d="M774 494q0 -103 -21.5 -195t-68.5 -160.5t-124 -109.5t-185 -41q-125 0 -210 62.5t-110 193.5h209q4 -23 16.5 -39.5t28.5 -26.5q33 -20 78 -20t77 19.5t52.5 53t29.5 76.5t11 88h-2q-31 -53 -88 -76.5t-117 -23.5q-67 0 -124.5 24.5t-97.5 67.5t-62.5 101.5t-22.5 125.5
q0 76 28.5 138.5t77 107.5t112 69.5t134.5 24.5q101 0 172.5 -36.5t117.5 -99t67.5 -146.5t21.5 -178zM553 618q0 64 -41 107t-113 43q-65 0 -106 -44t-41 -103q0 -66 39 -112t108 -46q72 0 113 45t41 110z" />
    <glyph glyph-name="colon" unicode=":" horiz-adv-x="342" 
d="M61 487v209h220v-209h-220zM61 0v209h220v-209h-220z" />
    <glyph glyph-name="semicolon" unicode=";" horiz-adv-x="342" 
d="M61 487v209h220v-209h-220zM281 27q0 -66 -22.5 -110t-55.5 -71.5t-71 -41t-71 -15.5v96q48 13 69.5 40.5t27.5 74.5h-97v209h220v-182z" />
    <glyph glyph-name="less" unicode="&#x3c;" horiz-adv-x="758" 
d="M51 246v192l656 256v-207l-396 -143v-4l396 -143v-207z" />
    <glyph glyph-name="equal" unicode="=" horiz-adv-x="819" 
d="M72 428v166h676v-166h-676zM72 88v166h676v-166h-676z" />
    <glyph glyph-name="greater" unicode="&#x3e;" horiz-adv-x="758" 
d="M51 -10v207l395 143v4l-395 143v207l656 -256v-192z" />
    <glyph glyph-name="question" unicode="?" horiz-adv-x="754" 
d="M711 709q0 -50 -11.5 -84.5t-32 -62t-50 -49t-66.5 -46.5q-51 -35 -68.5 -61.5t-17.5 -86.5h-209v68q0 78 35 119t74 67q41 29 72.5 56.5t31.5 79.5q0 39 -25.5 60.5t-60.5 21.5q-55 0 -82 -32t-31 -85v-25h-231q4 160 97 248t247 88q61 0 120.5 -16.5t105.5 -51t74 -86
t28 -122.5zM238 0v252h245v-252h-245z" />
    <glyph glyph-name="at" unicode="@" horiz-adv-x="1069" 
d="M1026 567q0 -114 -40 -187t-94 -115t-109.5 -57t-86.5 -15q-73 0 -75 65h-5q-18 -27 -58 -47.5t-83 -20.5t-82 19.5t-68.5 52.5t-48 76t-18.5 92q0 57 19.5 111.5t54.5 97.5t84 68.5t108 25.5q51 0 93 -19.5t83 -74.5l15 82h108l-59 -315q-2 -13 -3 -28.5t1 -28.5
t7 -23.5t17 -10.5q23 0 47.5 12.5t46 39t36 68.5t14.5 100q0 86 -29 150.5t-81 109.5t-122.5 67.5t-154.5 22.5t-158 -32t-128 -86t-86 -128t-32 -158t32 -157.5t86 -128t128 -86t158 -31.5q90 0 156.5 25.5t117.5 64.5h133q-76 -90 -178 -139t-229 -49q-105 0 -196 39.5
t-158.5 107.5t-107.5 159t-40 195q0 105 40 196t107.5 158.5t158.5 107.5t196 40q104 0 192 -32.5t152.5 -89t101.5 -132.5t37 -162zM666 483q0 54 -33 88.5t-88 34.5q-31 0 -57.5 -13t-46 -34.5t-31 -49.5t-11.5 -58q0 -54 29 -88.5t86 -34.5q70 0 111 46t41 109z" />
    <glyph glyph-name="A" unicode="A" horiz-adv-x="924" 
d="M682 0l-57 172h-328l-59 -172h-250l350 965h248l350 -965h-254zM463 698h-2l-107 -338h211z" />
    <glyph glyph-name="B" unicode="B" horiz-adv-x="948" 
d="M897 301q0 -86 -28.5 -144.5t-78 -93t-115 -49t-140.5 -14.5h-451v965h438q62 2 122.5 -7.5t108.5 -37t77.5 -74.5t29.5 -123q0 -66 -33.5 -116t-89.5 -79q74 -22 117 -83.5t43 -143.5zM616 678q0 53 -30.5 72.5t-69.5 19.5h-188v-184h188q33 0 66.5 19.5t33.5 72.5z
M653 309q0 66 -37.5 90.5t-93.5 24.5h-194v-223h194q60 0 95.5 24.5t35.5 83.5z" />
    <glyph glyph-name="C" unicode="C" horiz-adv-x="995" 
d="M950 375q-6 -94 -39.5 -167t-90 -124t-132.5 -77.5t-166 -26.5q-106 0 -192 38.5t-147.5 107.5t-94.5 161t-33 196q0 105 33 196t94.5 159.5t147.5 107.5t192 39q76 0 151 -24.5t136 -70.5t100 -114.5t41 -154.5h-245q-11 71 -61 110t-128 39q-57 0 -99 -24.5
t-68.5 -64.5t-39 -92t-12.5 -106q0 -53 12.5 -105t39 -92t68.5 -64.5t99 -24.5q86 0 133 47t56 131h245z" />
    <glyph glyph-name="D" unicode="D" horiz-adv-x="995" 
d="M946 487q0 -239 -123 -363t-336 -124h-403v965h403q215 0 337 -127t122 -351zM700 487q0 134 -65.5 198.5t-192.5 64.5h-114v-533h114q140 4 199 65.5t59 204.5z" />
    <glyph glyph-name="E" unicode="E" horiz-adv-x="897" 
d="M84 0v965h745v-201h-501v-170h458v-195h-458v-182h514v-217h-758z" />
    <glyph glyph-name="F" unicode="F" horiz-adv-x="801" 
d="M328 764v-197h385v-196h-385v-371h-244v965h688v-201h-444z" />
    <glyph glyph-name="G" unicode="G" horiz-adv-x="1020" 
d="M791 0l-15 104q-49 -69 -122.5 -96.5t-139.5 -27.5q-106 0 -192 38.5t-147.5 107.5t-94.5 161t-33 196q0 105 33 196t94.5 159.5t147.5 107.5t192 39q74 0 145.5 -20.5t131 -63.5t100.5 -108.5t49 -155.5h-246q-4 61 -57 97t-127 36q-57 0 -99 -24.5t-68 -64.5t-38 -92
t-12 -106q0 -53 12 -105t38 -92t68 -64.5t99 -24.5q90 0 147.5 39.5t67.5 105.5h-170v186h393v-528h-157z" />
    <glyph glyph-name="H" unicode="H" horiz-adv-x="971" 
d="M645 0v397h-319v-397h-244v965h244v-351h319v351h246v-965h-246z" />
    <glyph glyph-name="I" unicode="I" horiz-adv-x="414" 
d="M84 0v965h244v-965h-244z" />
    <glyph glyph-name="J" unicode="J" horiz-adv-x="776" 
d="M692 305q0 -325 -327 -325q-93 0 -156.5 26.5t-102 73.5t-55 114.5t-16.5 147.5v41h231v-88q0 -98 94 -98q43 0 66 27.5t23 97.5v643h243v-660z" />
    <glyph glyph-name="K" unicode="K" horiz-adv-x="971" 
d="M680 0l-252 406l-100 -109v-297h-244v965h244v-371l307 371h305l-348 -379l389 -586h-301z" />
    <glyph glyph-name="L" unicode="L" horiz-adv-x="801" 
d="M84 0v965h244v-748h436v-217h-680z" />
    <glyph glyph-name="M" unicode="M" horiz-adv-x="1214" 
d="M899 0v733h-4l-197 -733h-184l-197 733h-4v-733h-227v965h358l162 -643h2l160 643h360v-965h-229z" />
    <glyph glyph-name="N" unicode="N" horiz-adv-x="971" 
d="M637 0l-324 602h-4v-602h-227v965h250l325 -594h2v594h230v-965h-252z" />
    <glyph glyph-name="O" unicode="O" horiz-adv-x="1020" 
d="M971 483q0 -104 -31 -196t-89 -161t-144 -107.5t-197 -38.5t-197 38.5t-145 107.5t-90 161t-31 196q0 105 31 196t90 159.5t145 107.5t197 39t197 -39t144 -107.5t89 -159.5t31 -196zM727 483q0 54 -11 106t-38 92t-68 64.5t-100 24.5q-57 0 -99 -24.5t-68 -64.5t-38 -92
t-12 -106q0 -53 12 -105t38 -92t68 -64.5t99 -24.5q59 0 100 24.5t68 64.5t38 92t11 105z" />
    <glyph glyph-name="P" unicode="P" horiz-adv-x="897" 
d="M866 653q0 -178 -91 -254.5t-247 -76.5h-200v-322h-244v965h444q66 0 126.5 -16.5t107.5 -53.5t75.5 -96.5t28.5 -145.5zM623 637q0 68 -38 97.5t-93 29.5h-164v-248h164q57 0 94 27.5t37 93.5z" />
    <glyph glyph-name="Q" unicode="Q" horiz-adv-x="1020" 
d="M971 483q0 -104 -29 -194t-88 -158l113 -113l-111 -118l-129 131q-96 -51 -217 -51q-111 0 -197 38.5t-145 107.5t-90 161t-31 196q0 105 31 196t90 159.5t145 107.5t197 39t197 -39t144 -107.5t89 -159.5t31 -196zM727 483q0 54 -11 106t-38 92t-68 64.5t-100 24.5
q-57 0 -99 -24.5t-68 -64.5t-38 -92t-12 -106q0 -53 12 -105t38 -92t68 -64.5t99 -24.5h26.5t22.5 4l-74 75l109 117l92 -92q23 39 32 86t9 96z" />
    <glyph glyph-name="R" unicode="R" horiz-adv-x="948" 
d="M678 0q-8 12 -13.5 33.5t-8.5 45t-5 44t-2 31.5q-2 36 -8 72t-20.5 63.5t-40 45t-68.5 17.5h-184v-352h-244v965h477q62 0 121 -15.5t105.5 -47.5t74 -83t27.5 -125q0 -78 -37 -145.5t-109 -97.5v-2q37 -9 61.5 -33.5t40 -57t24 -69.5t10.5 -72q2 -14 3 -46t5 -65.5
t11 -63.5t20 -42h-240zM645 659q0 54 -36 79.5t-87 25.5h-194v-217h204q113 0 113 112z" />
    <glyph glyph-name="S" unicode="S" horiz-adv-x="874" 
d="M844 303q0 -92 -35 -154.5t-92.5 -99.5t-130 -53t-150.5 -16q-80 0 -152.5 19t-129 60t-90 106.5t-33.5 158.5h243q5 -86 52 -118t125 -32q55 0 102 22.5t47 75.5q0 33 -22.5 53.5t-60.5 35t-86 26.5t-99 27q-49 14 -98.5 34.5t-88.5 52t-63.5 78t-24.5 113.5
q0 80 35 135.5t90.5 90t123 51t132.5 16.5q72 0 138.5 -17.5t120 -55.5t86 -97t32.5 -141h-246q2 33 -10 55.5t-33.5 35.5t-49 19.5t-56.5 6.5q-41 0 -80 -17.5t-39 -64.5q0 -27 23.5 -45.5t61.5 -32t86 -24.5t99 -25q52 -15 101 -35.5t87 -53t61.5 -78.5t23.5 -112z" />
    <glyph glyph-name="T" unicode="T" horiz-adv-x="850" 
d="M547 750v-750h-246v750h-276v215h802v-215h-280z" />
    <glyph glyph-name="U" unicode="U" horiz-adv-x="971" 
d="M893 399q0 -211 -97.5 -315t-310.5 -104t-310 104t-97 315v566h244v-582q0 -92 35.5 -139t127.5 -47q90 0 127 47t37 139v582h244v-566z" />
    <glyph glyph-name="V" unicode="V" horiz-adv-x="850" 
d="M561 0h-280l-295 965h254l184 -717h2l184 717h254z" />
    <glyph glyph-name="W" unicode="W" horiz-adv-x="1264" 
d="M1006 0h-244l-131 666h-2l-129 -666h-248l-252 965h244l131 -705h4l137 705h232l137 -705h2l133 705h244z" />
    <glyph glyph-name="X" unicode="X" horiz-adv-x="924" 
d="M637 0l-176 322l-191 -322h-280l332 506l-304 459h285l158 -299l168 299h276l-301 -459l330 -506h-297z" />
    <glyph glyph-name="Y" unicode="Y" horiz-adv-x="874" 
d="M561 360v-360h-246v360l-342 605h279l184 -392l189 392h274z" />
    <glyph glyph-name="Z" unicode="Z" horiz-adv-x="874" 
d="M33 0v205l477 545h-451v215h768v-195l-493 -553h508v-217h-809z" />
    <glyph glyph-name="bracketleft" unicode="[" horiz-adv-x="485" 
d="M92 -236v1221h385v-194h-180v-832h180v-195h-385z" />
    <glyph glyph-name="backslash" unicode="\" horiz-adv-x="535" 
d="M342 -20l-354 1005h205l354 -1005h-205z" />
    <glyph glyph-name="bracketright" unicode="]" horiz-adv-x="485" 
d="M10 -236v195h176v832h-176v194h385v-1221h-385z" />
    <glyph glyph-name="asciicircum" unicode="^" horiz-adv-x="786" 
d="M514 449l-121 321l-123 -321h-209l213 493h238l213 -493h-211z" />
    <glyph glyph-name="underscore" unicode="_" horiz-adv-x="1516" 
d="M0 -205v123h1516v-123h-1516z" />
    <glyph glyph-name="grave" unicode="`" horiz-adv-x="387" 
d="M162 776l-207 203h235l127 -203h-155z" />
    <glyph glyph-name="a" unicode="a" horiz-adv-x="776" 
d="M506 0q-10 29 -10 66q-45 -48 -104.5 -67t-121.5 -19q-49 0 -91 13t-73.5 38.5t-50 65.5t-18.5 96q0 86 41 130t100.5 65.5t128 28.5t125.5 19q31 4 46.5 17.5t15.5 46.5q0 20 -10.5 33.5t-27 22.5t-36 13t-35.5 4q-96 0 -111 -88h-208q4 70 31.5 115t72.5 74
q47 26 102.5 36.5t114.5 10.5q62 0 119 -8t101 -34t71 -72t27 -120v-307q0 -45 3 -92t23 -88h-225zM492 328q-25 -17 -64 -22t-74 -15q-41 -10 -67.5 -29.5t-26.5 -60.5t27.5 -60.5t66.5 -19.5q80 0 111 49t27 158z" />
    <glyph glyph-name="b" unicode="b" horiz-adv-x="827" 
d="M780 367q0 -74 -17.5 -144.5t-54 -124t-94 -86t-137.5 -32.5q-121 0 -186 102h-2v-82h-213v965h221v-340h2q70 96 197 96q71 0 125.5 -29.5t89 -79t52 -114t17.5 -131.5zM559 358q0 33 -7 67t-22.5 60.5t-41 44t-62.5 17.5q-23 0 -47.5 -9.5t-44 -31t-31.5 -57t-12 -91.5
q0 -92 28.5 -147t106.5 -55q37 0 62.5 18.5t41 47t22.5 64.5t7 72z" />
    <glyph glyph-name="c" unicode="c" horiz-adv-x="776" 
d="M741 276q-8 -69 -36.5 -124.5t-73.5 -94.5t-104.5 -58t-127.5 -19q-75 0 -142 25.5t-114 73.5t-74.5 114.5t-27.5 146.5q0 84 24.5 153.5t71.5 121t113.5 79t148.5 27.5q64 0 121.5 -17.5t103.5 -51.5t75.5 -86t35.5 -122h-217q-2 45 -34.5 74t-73.5 29
q-48 0 -76.5 -18.5t-44 -48t-20.5 -66.5t-5 -74q0 -35 7.5 -67.5t23.5 -59.5t40.5 -42t61.5 -15q60 0 89.5 31.5t37.5 88.5h217z" />
    <glyph glyph-name="d" unicode="d" horiz-adv-x="827" 
d="M537 0v82h-2q-66 -102 -189 -102q-80 0 -137 32.5t-95 86t-55.5 124t-17.5 144.5q0 67 18.5 131.5t54.5 114t90 79t126 29.5q125 0 192 -94h4v338h224v-965h-213zM535 352q0 37 -7.5 73t-24 62.5t-41 43t-61.5 16.5q-39 0 -65.5 -17.5t-41.5 -44t-22.5 -60.5t-7.5 -67
q0 -36 7.5 -72t22.5 -64.5t41.5 -47t65.5 -18.5q41 0 67 18.5t41 46t20.5 63t5.5 68.5z" />
    <glyph glyph-name="e" unicode="e" horiz-adv-x="801" 
d="M264 295q4 -72 43 -116t111 -44q41 0 75.5 19.5t51.5 58.5h209q-17 -61 -50.5 -105.5t-78.5 -73t-99.5 -41.5t-109.5 -13q-168 0 -271.5 97t-103.5 275q0 80 29.5 147.5t80 117t117 77t142.5 27.5q92 0 159.5 -33t112.5 -91t65.5 -135t16.5 -167h-500zM543 424
q-4 59 -40 101t-93 42q-60 0 -98 -40t-48 -103h279z" />
    <glyph glyph-name="f" unicode="f" horiz-adv-x="485" 
d="M489 799q-16 2 -30.5 3t-28.5 1q-41 0 -62.5 -11.5t-21.5 -58.5v-31h135v-149h-135v-553h-223v553h-107v149h107q0 76 13.5 126.5t44 81t79.5 43t121 12.5q29 0 54.5 -1t53.5 -3v-162z" />
    <glyph glyph-name="g" unicode="g" horiz-adv-x="801" 
d="M733 86q0 -43 -8 -100.5t-42 -108.5t-102.5 -87t-187.5 -36q-59 0 -115.5 8.5t-101.5 33t-75.5 68.5t-41.5 113h224q4 -22 12 -36.5t24 -22.5q27 -16 82 -16q39 0 62.5 13t36 35.5t15.5 52.5t3 63v67h-4q-29 -49 -77 -75.5t-103 -26.5q-76 0 -132.5 26.5t-93 72.5
t-55 110.5t-18.5 138.5q0 70 19.5 132t57.5 108.5t94 74t128 27.5q125 0 182 -107h2v88h215v-616zM522 369q0 34 -7 66t-22.5 56.5t-41 40t-64.5 15.5q-37 0 -61.5 -15.5t-40 -40t-21.5 -56.5t-6 -64q0 -62 29.5 -114t99.5 -52q72 0 103.5 49t31.5 115z" />
    <glyph glyph-name="h" unicode="h" horiz-adv-x="827" 
d="M530 0v340v70.5t-9 61.5t-32.5 44t-68.5 16q-66 0 -94.5 -46t-28.5 -103v-383h-221v965h221v-359h2q27 53 87 84t120 31q86 0 135 -27.5t74.5 -69.5t32 -89.5t6.5 -83.5v-451h-224z" />
    <glyph glyph-name="i" unicode="i" horiz-adv-x="387" 
d="M84 788v177h221v-177h-221zM84 0v702h221v-702h-221z" />
    <glyph glyph-name="j" unicode="j" horiz-adv-x="387" 
d="M84 788v177h221v-177h-221zM305 0q0 -133 -54 -184.5t-171 -51.5h-113v187h45q35 2 53.5 15.5t18.5 49.5v686h221v-702z" />
    <glyph glyph-name="k" unicode="k" horiz-adv-x="776" 
d="M522 0l-166 283l-59 -58v-225h-221v965h221v-498l203 235h260l-250 -266l281 -436h-269z" />
    <glyph glyph-name="l" unicode="l" horiz-adv-x="387" 
d="M84 0v965h221v-965h-221z" />
    <glyph glyph-name="m" unicode="m" horiz-adv-x="1214" 
d="M915 0v412q0 57 -23.5 88.5t-68.5 31.5q-71 0 -87.5 -51t-16.5 -137v-344h-223v399q0 62 -18.5 97.5t-65.5 35.5q-60 0 -87.5 -40.5t-27.5 -149.5v-342h-221v702h217v-96h2q29 53 81 84t113 31q64 0 117 -23.5t82 -89.5q41 56 92 84.5t119 28.5q82 0 130 -28.5t72.5 -73
t32 -97.5t7.5 -102v-420h-226z" />
    <glyph glyph-name="n" unicode="n" horiz-adv-x="827" 
d="M530 0v340v70.5t-9 61.5t-32.5 44t-68.5 16q-66 0 -94.5 -46t-28.5 -103v-383h-221v702h217v-96h2q29 53 90 84t121 31q86 0 135 -27.5t74.5 -69.5t32 -89.5t6.5 -83.5v-451h-224z" />
    <glyph glyph-name="o" unicode="o" horiz-adv-x="801" 
d="M760 350q0 -80 -26.5 -147.5t-74 -116.5t-114 -77.5t-146.5 -28.5t-145.5 28.5t-112.5 77.5t-73.5 116.5t-26.5 147.5t26.5 147.5t73.5 117t112.5 78t145.5 28.5t146.5 -28.5t114 -78t74 -117t26.5 -147.5zM537 350q0 33 -7.5 68t-24 63.5t-42 47t-64.5 18.5t-64.5 -18.5
t-40.5 -47t-22.5 -63.5t-7.5 -68t7.5 -67.5t22.5 -63.5t40.5 -46t64.5 -17t64.5 17t42 46t24 63.5t7.5 67.5z" />
    <glyph glyph-name="p" unicode="p" horiz-adv-x="827" 
d="M780 336q0 -68 -17.5 -132.5t-52 -114.5t-89 -79.5t-125.5 -29.5q-125 0 -197 96h-2v-312h-221v938h213v-81h2q65 100 186 100q80 0 137.5 -33t94 -86t54 -122.5t17.5 -143.5zM559 358q0 33 -7 67t-22.5 60.5t-41 44t-62.5 17.5q-23 0 -47.5 -9.5t-44 -31t-31.5 -57
t-12 -91.5q0 -92 28.5 -147t106.5 -55q37 0 62.5 18.5t41 47t22.5 64.5t7 72z" />
    <glyph glyph-name="q" unicode="q" horiz-adv-x="827" 
d="M526 -236v314h-4q-67 -98 -192 -98q-72 0 -126 29.5t-90 79.5t-54.5 114.5t-18.5 132.5q0 74 17.5 143.5t55.5 122.5t95 86t137 33q123 0 189 -100h2v81h213v-938h-224zM535 344q0 35 -6.5 72t-21.5 65.5t-41 47t-65 18.5t-65.5 -18.5t-41.5 -47t-22.5 -65.5t-7.5 -72
q0 -33 7.5 -66.5t22.5 -61.5t40.5 -44t62.5 -16q23 0 47.5 9t44 30.5t33 57.5t13.5 91z" />
    <glyph glyph-name="r" unicode="r" horiz-adv-x="559" 
d="M559 500q-22 6 -42.5 10t-43.5 4q-82 0 -125 -50t-43 -116v-348h-221v702h213v-124h4q25 67 79 102t126 35q29 0 53 -6v-209z" />
    <glyph glyph-name="s" unicode="s" horiz-adv-x="729" 
d="M694 229q0 -69 -29.5 -117.5t-75.5 -78t-104.5 -41.5t-117.5 -12q-60 0 -118.5 11t-105.5 40.5t-76.5 78t-31.5 121.5h213q0 -51 37 -77q30 -25 82 -25q34 0 70 16.5t36 57.5q0 20 -11 32.5t-28.5 20.5t-36 13t-32.5 7q-54 15 -110 26t-102.5 32.5t-76 61.5t-29.5 110
q0 63 29.5 105t76 66.5t101.5 34t104 9.5q56 0 110 -9.5t99 -35t74 -69.5t31 -111h-207q0 41 -29 59q-24 18 -71 18q-13 0 -29.5 -1t-30.5 -7t-24.5 -16t-10.5 -29q0 -24 24.5 -39.5t62.5 -27t82 -18.5t83 -15q51 -10 85 -32.5t53.5 -50.5t26.5 -56.5t7 -51.5z" />
    <glyph glyph-name="t" unicode="t" horiz-adv-x="510" 
d="M485 0q-30 -2 -61 -4t-59 -2q-72 0 -119 11t-74 40t-37 76t-10 119v313h-113v149h113v211h223v-211h137v-149h-137v-320q0 -40 21.5 -53.5t58.5 -13.5q12 0 26.5 1t30.5 1v-168z" />
    <glyph glyph-name="u" unicode="u" horiz-adv-x="827" 
d="M535 0v96h-3q-30 -53 -88.5 -84.5t-117.5 -31.5q-74 0 -122 21.5t-78 60t-41 94t-11 125.5v421h223v-407q0 -72 28.5 -99.5t82.5 -27.5q18 0 38.5 7t39 24.5t30.5 48.5t12 78v376h224v-702h-217z" />
    <glyph glyph-name="v" unicode="v" horiz-adv-x="702" 
d="M481 0h-258l-227 702h233l125 -464h2l125 464h226z" />
    <glyph glyph-name="w" unicode="w" horiz-adv-x="1092" 
d="M881 0h-228l-106 467h-2l-109 -467h-223l-213 702h227l113 -454h2l96 454h213l101 -454h2l112 454h226z" />
    <glyph glyph-name="x" unicode="x" horiz-adv-x="702" 
d="M467 0l-117 203l-114 -203h-246l237 369l-217 333h246l98 -167l95 167h237l-213 -331l240 -371h-246z" />
    <glyph glyph-name="y" unicode="y" horiz-adv-x="702" 
d="M444 -61q-20 -60 -45.5 -93.5t-59.5 -52t-78 -24t-99 -5.5h-107v187h78q39 0 64.5 21.5t25.5 58.5q0 14 -7 38.5t-16.5 52.5t-19.5 52.5t-14 38.5l-176 489h237l129 -458h2l129 458h228z" />
    <glyph glyph-name="z" unicode="z" horiz-adv-x="702" 
d="M31 0v178l336 348h-312v176h596v-176l-340 -350h367v-176h-647z" />
    <glyph glyph-name="braceleft" unicode="{" horiz-adv-x="485" 
d="M311 -236q-71 0 -123.5 46.5t-52.5 154.5v234q0 32 -14.5 50.5t-32.5 28t-37.5 12.5t-32.5 3v162q13 0 32.5 2t37.5 11t32.5 25.5t14.5 45.5v254q0 55 14.5 92t38 59.5t55 31.5t68.5 9h156v-162h-53q-47 0 -58.5 -29.5t-11.5 -58.5v-221q0 -39 -16.5 -63.5t-39 -39
t-49 -20.5t-46.5 -8v-4q20 -2 46.5 -6t49 -17.5t39 -41t16.5 -76.5v-224q0 -28 11.5 -58t58.5 -30h53v-162h-156z" />
    <glyph glyph-name="bar" unicode="|" horiz-adv-x="375" 
d="M92 -20v1005h189v-1005h-189z" />
    <glyph glyph-name="braceright" unicode="}" horiz-adv-x="485" 
d="M467 293q-12 0 -31.5 -3t-39 -12.5t-33 -28t-13.5 -50.5v-234q0 -108 -52 -154.5t-126 -46.5h-154v162h54q24 0 38.5 8.5t20.5 21.5t8 28.5t2 29.5v224q0 49 16.5 76.5t39 41t49 17.5t47.5 6v4q-21 2 -47.5 8t-49 20.5t-39 39t-16.5 63.5v221q0 15 -2 30t-8 28.5
t-20.5 21.5t-38.5 8h-54v162h154q74 0 126 -42t52 -150v-254q0 -29 13.5 -45.5t33 -25.5t39 -11t31.5 -2v-162z" />
    <glyph glyph-name="asciitilde" unicode="~" horiz-adv-x="705" 
d="M653 315q-28 -43 -64 -79.5t-97 -36.5q-35 0 -69 13t-65 32q-30 18 -68 32.5t-83 14.5q-43 0 -68.5 -32t-42.5 -66l-45 176q21 43 58.5 79.5t103.5 36.5q33 0 71 -13t74 -30q37 -16 72 -32.5t64 -16.5q38 0 65 31t49 68z" />
    <glyph glyph-name="thothannobasethai" horiz-adv-x="727" 
d="M727 881q0 -33 -39 -73t-115 -50q60 -53 87.5 -138t25.5 -192q-4 -197 -73.5 -312.5t-217.5 -115.5h-250l-41 256q-6 43 -21 61.5t-63 18.5v149h175q45 0 64.5 -23.5t25.5 -64.5l41 -243h30q50 0 87.5 63.5t37.5 210.5q0 141 -32.5 199.5t-110.5 58.5q-57 0 -88 -37
t-35 -74h-211q6 43 26.5 88.5t60.5 84t102.5 63.5t148.5 25q31 0 59.5 -3.5t53.5 -11.5q16 10 26.5 25.5t12.5 34.5h233z" />
    <glyph glyph-name="thothannobasethai" unicode="&#xf700;" horiz-adv-x="727" 
d="M727 881q0 -33 -39 -73t-115 -50q60 -53 87.5 -138t25.5 -192q-4 -197 -73.5 -312.5t-217.5 -115.5h-250l-41 256q-6 43 -21 61.5t-63 18.5v149h175q45 0 64.5 -23.5t25.5 -64.5l41 -243h30q50 0 87.5 63.5t37.5 210.5q0 141 -32.5 199.5t-110.5 58.5q-57 0 -88 -37
t-35 -74h-211q6 43 26.5 88.5t60.5 84t102.5 63.5t148.5 25q31 0 59.5 -3.5t53.5 -11.5q16 10 26.5 25.5t12.5 34.5h233z" />
    <glyph glyph-name="thothannobasethai" unicode="&#x20ac;" horiz-adv-x="727" 
d="M727 881q0 -33 -39 -73t-115 -50q60 -53 87.5 -138t25.5 -192q-4 -197 -73.5 -312.5t-217.5 -115.5h-250l-41 256q-6 43 -21 61.5t-63 18.5v149h175q45 0 64.5 -23.5t25.5 -64.5l41 -243h30q50 0 87.5 63.5t37.5 210.5q0 141 -32.5 199.5t-110.5 58.5q-57 0 -88 -37
t-35 -74h-211q6 43 26.5 88.5t60.5 84t102.5 63.5t148.5 25q31 0 59.5 -3.5t53.5 -11.5q16 10 26.5 25.5t12.5 34.5h233z" />
    <glyph glyph-name="saraileftthai" 
d="M-870 922v122h583v-122h-583z" />
    <glyph glyph-name="saraileftthai" unicode="&#xf701;" 
d="M-870 922v122h583v-122h-583z" />
    <glyph glyph-name="saraiileftthai" 
d="M-870 922v122h378v103h205v-225h-583z" />
    <glyph glyph-name="saraiileftthai" unicode="&#xf702;" 
d="M-870 922v122h378v103h205v-225h-583z" />
    <glyph glyph-name="saraiileftthai" unicode="&#x201a;" 
d="M-870 922v122h378v103h205v-225h-583z" />
    <glyph glyph-name="saraueleftthai" 
d="M-260 1038q0 -47 -33 -81.5t-96 -34.5h-481v122h352q2 48 34.5 79.5t94.5 31.5q63 0 96 -35t33 -82z" />
    <glyph glyph-name="saraueleftthai" unicode="&#xf703;" 
d="M-260 1038q0 -47 -33 -81.5t-96 -34.5h-481v122h352q2 48 34.5 79.5t94.5 31.5q63 0 96 -35t33 -82z" />
    <glyph glyph-name="saraueleftthai" unicode="&#x192;" 
d="M-260 1038q0 -47 -33 -81.5t-96 -34.5h-481v122h352q2 48 34.5 79.5t94.5 31.5q63 0 96 -35t33 -82z" />
    <glyph glyph-name="saraueeleftthai" 
d="M-870 922v122h194v103h123v-103h61v103h205v-225h-583z" />
    <glyph glyph-name="saraueeleftthai" unicode="&#xf704;" 
d="M-870 922v122h194v103h123v-103h61v103h205v-225h-583z" />
    <glyph glyph-name="saraueeleftthai" unicode="&#x201e;" 
d="M-870 922v122h194v103h123v-103h61v103h205v-225h-583z" />
    <glyph glyph-name="ellipsis" unicode="&#x85;" horiz-adv-x="1311" 
d="M969 0v252h245v-252h-245zM535 0v252h241v-252h-241zM98 0v252h244v-252h-244z" />
    <glyph glyph-name="ellipsis" unicode="&#x2026;" horiz-adv-x="1311" 
d="M969 0v252h245v-252h-245zM535 0v252h241v-252h-241zM98 0v252h244v-252h-244z" />
    <glyph glyph-name="maieklowleftthai" 
d="M-512 911v205h205v-205h-205z" />
    <glyph glyph-name="maieklowleftthai" unicode="&#xf705;" 
d="M-512 911v205h205v-205h-205z" />
    <glyph glyph-name="maieklowleftthai" unicode="&#x2020;" 
d="M-512 911v205h205v-205h-205z" />
    <glyph glyph-name="maitholowleftthai" 
d="M-606 922v53q0 22 -5 35.5t-36 13.5h-21v133h142q71 0 98 -27.5t27 -68.5v-17h217v-122h-422z" />
    <glyph glyph-name="maitholowleftthai" unicode="&#xf706;" 
d="M-606 922v53q0 22 -5 35.5t-36 13.5h-21v133h142q71 0 98 -27.5t27 -68.5v-17h217v-122h-422z" />
    <glyph glyph-name="maitholowleftthai" unicode="&#x2021;" 
d="M-606 922v53q0 22 -5 35.5t-36 13.5h-21v133h142q71 0 98 -27.5t27 -68.5v-17h217v-122h-422z" />
    <glyph glyph-name="maitrilowleftthai" 
d="M-502 918v100l-76 -57l-73 57v-100h-174v81q0 68 35.5 105t113.5 37h25l73 -58l74 58h27q149 0 149 -105v-12h64v-106h-238z" />
    <glyph glyph-name="maitrilowleftthai" unicode="&#xf707;" 
d="M-502 918v100l-76 -57l-73 57v-100h-174v81q0 68 35.5 105t113.5 37h25l73 -58l74 58h27q149 0 149 -105v-12h64v-106h-238z" />
    <glyph glyph-name="maitrilowleftthai" unicode="&#xf08d;" 
d="M-502 918v100l-76 -57l-73 57v-100h-174v81q0 68 35.5 105t113.5 37h25l73 -58l74 58h27q149 0 149 -105v-12h64v-106h-238z" />
    <glyph glyph-name="maitrilowleftthai" unicode="&#x2c6;" 
d="M-502 918v100l-76 -57l-73 57v-100h-174v81q0 68 35.5 105t113.5 37h25l73 -58l74 58h27q149 0 149 -105v-12h64v-106h-238z" />
    <glyph glyph-name="maichattawalowleftthai" 
d="M-379 993v-71h-184v71h-92v92h92v72h184v-72h92v-92h-92z" />
    <glyph glyph-name="maichattawalowleftthai" unicode="&#xf708;" 
d="M-379 993v-71h-184v71h-92v92h92v72h184v-72h92v-92h-92z" />
    <glyph glyph-name="maichattawalowleftthai" unicode="&#x2030;" 
d="M-379 993v-71h-184v71h-92v92h92v72h184v-72h92v-92h-92z" />
    <glyph glyph-name="thanthakhatlowleftthai" 
d="M-236 1069q-36 0 -49.5 -15.5t-13.5 -43.5v-23h-205v57q0 93 55.5 120.5t153.5 27.5h98v-123h-39z" />
    <glyph glyph-name="thanthakhatlowleftthai" unicode="&#xf709;" 
d="M-236 1069q-36 0 -49.5 -15.5t-13.5 -43.5v-23h-205v57q0 93 55.5 120.5t153.5 27.5h98v-123h-39z" />
    <glyph glyph-name="thanthakhatlowleftthai" unicode="&#x160;" 
d="M-236 1069q-36 0 -49.5 -15.5t-13.5 -43.5v-23h-205v57q0 93 55.5 120.5t153.5 27.5h98v-123h-39z" />
    <glyph glyph-name="maieklowrightthai" 
d="M-246 922v204h205v-204h-205z" />
    <glyph glyph-name="maieklowrightthai" unicode="&#xf70a;" 
d="M-246 922v204h205v-204h-205z" />
    <glyph glyph-name="maieklowrightthai" unicode="&#x2039;" 
d="M-246 922v204h205v-204h-205z" />
    <glyph glyph-name="maitholowrightthai" 
d="M-369 922v53q0 22 -5 35.5t-36 13.5h-20v123h141q70 0 97.5 -25.5t27.5 -66.5v-11h217v-122h-422z" />
    <glyph glyph-name="maitholowrightthai" unicode="&#xf70b;" 
d="M-369 922v53q0 22 -5 35.5t-36 13.5h-20v123h141q70 0 97.5 -25.5t27.5 -66.5v-11h217v-122h-422z" />
    <glyph glyph-name="maitholowrightthai" unicode="&#x152;" 
d="M-369 922v53q0 22 -5 35.5t-36 13.5h-20v123h141q70 0 97.5 -25.5t27.5 -66.5v-11h217v-122h-422z" />
    <glyph glyph-name="maitrilowrightthai" 
d="M-305 922v100l-76 -57l-74 57v-100h-174v82q0 67 36 104t114 37h24l74 -58l74 58h26q150 0 150 -105v-12h84v-106h-258z" />
    <glyph glyph-name="maitrilowrightthai" unicode="&#xf70c;" 
d="M-305 922v100l-76 -57l-74 57v-100h-174v82q0 67 36 104t114 37h24l74 -58l74 58h26q150 0 150 -105v-12h84v-106h-258z" />
    <glyph glyph-name="maichattawalowrightthai" 
d="M-133 993v-71h-184v71h-93v92h93v72h184v-72h92v-92h-92z" />
    <glyph glyph-name="maichattawalowrightthai" unicode="&#xf70d;" 
d="M-133 993v-71h-184v71h-93v92h93v72h184v-72h92v-92h-92z" />
    <glyph glyph-name="maichattawalowrightthai" unicode="&#x17d;" 
d="M-133 993v-71h-184v71h-93v92h93v72h184v-72h92v-92h-92z" />
    <glyph glyph-name="thanthakhatlowrightthai" 
d="M-80 1004q-37 0 -50 -15.5t-13 -44.5v-22h-205v57q0 92 55 119.5t154 27.5h98v-122h-39z" />
    <glyph glyph-name="thanthakhatlowrightthai" unicode="&#xf70e;" 
d="M-80 1004q-37 0 -50 -15.5t-13 -44.5v-22h-205v57q0 92 55 119.5t154 27.5h98v-122h-39z" />
    <glyph glyph-name="yoyingnobasethai" horiz-adv-x="1188" 
d="M1147 307q0 -65 -14.5 -121.5t-50 -97.5t-96 -64.5t-155.5 -23.5h-329v154h303q72 0 104.5 29.5t32.5 70.5v25q-29 -29 -80 -50.5t-112 -21.5q-45 0 -90.5 11t-80 39t-56 72t-21.5 109v113q0 72 -36 103.5t-93 31.5q-41 0 -78 -21.5t-49 -72.5l61 -55
q-20 -13 -40.5 -34.5t-20.5 -56.5v-292h73v-154h-278v434q0 35 22.5 62.5t49.5 40.5l-78 57q4 41 25.5 84t62.5 78t102.5 57.5t147.5 22.5q92 0 156.5 -24t103.5 -62.5t56.5 -90t17.5 -108.5v-90q0 -64 34.5 -85.5t73.5 -21.5q45 0 86 31t41 92v340h205v-510z" />
    <glyph glyph-name="yoyingnobasethai" unicode="&#xf70f;" horiz-adv-x="1188" 
d="M1147 307q0 -65 -14.5 -121.5t-50 -97.5t-96 -64.5t-155.5 -23.5h-329v154h303q72 0 104.5 29.5t32.5 70.5v25q-29 -29 -80 -50.5t-112 -21.5q-45 0 -90.5 11t-80 39t-56 72t-21.5 109v113q0 72 -36 103.5t-93 31.5q-41 0 -78 -21.5t-49 -72.5l61 -55
q-20 -13 -40.5 -34.5t-20.5 -56.5v-292h73v-154h-278v434q0 35 22.5 62.5t49.5 40.5l-78 57q4 41 25.5 84t62.5 78t102.5 57.5t147.5 22.5q92 0 156.5 -24t103.5 -62.5t56.5 -90t17.5 -108.5v-90q0 -64 34.5 -85.5t73.5 -21.5q45 0 86 31t41 92v340h205v-510z" />
    <glyph glyph-name="quoteleft" horiz-adv-x="367" 
d="M74 545v182q0 66 22.5 110t55 71.5t70.5 41t71 15.5v-97q-47 -12 -68.5 -39.5t-27.5 -74.5h96v-209h-219z" />
    <glyph glyph-name="quoteleft" unicode="&#x2018;" horiz-adv-x="367" 
d="M74 545v182q0 66 22.5 110t55 71.5t70.5 41t71 15.5v-97q-47 -12 -68.5 -39.5t-27.5 -74.5h96v-209h-219z" />
    <glyph glyph-name="quoteright" horiz-adv-x="367" 
d="M293 782q0 -65 -22.5 -109t-55.5 -72t-71 -40t-70 -16v96q47 12 68.5 40t27.5 75h-96v209h219v-183z" />
    <glyph glyph-name="quoteright" unicode="&#x2019;" horiz-adv-x="367" 
d="M293 782q0 -65 -22.5 -109t-55.5 -72t-71 -40t-70 -16v96q47 12 68.5 40t27.5 75h-96v209h219v-183z" />
    <glyph glyph-name="quotedblleft" horiz-adv-x="668" 
d="M375 545v182q0 66 22.5 110t55 71.5t70.5 41t71 15.5v-97q-47 -12 -68.5 -39.5t-27.5 -74.5h96v-209h-219zM74 545v182q0 66 22.5 110t55 71.5t70.5 41t71 15.5v-97q-47 -12 -68.5 -39.5t-27.5 -74.5h96v-209h-219z" />
    <glyph glyph-name="quotedblleft" unicode="&#x201c;" horiz-adv-x="668" 
d="M375 545v182q0 66 22.5 110t55 71.5t70.5 41t71 15.5v-97q-47 -12 -68.5 -39.5t-27.5 -74.5h96v-209h-219zM74 545v182q0 66 22.5 110t55 71.5t70.5 41t71 15.5v-97q-47 -12 -68.5 -39.5t-27.5 -74.5h96v-209h-219z" />
    <glyph glyph-name="quotedblright" horiz-adv-x="668" 
d="M594 782q0 -65 -22.5 -109t-55.5 -72t-70.5 -40t-70.5 -16v96q47 12 68.5 40t27.5 75h-96v209h219v-183zM293 782q0 -65 -22.5 -109t-55.5 -72t-71 -40t-70 -16v96q47 12 68.5 40t27.5 75h-96v209h219v-183z" />
    <glyph glyph-name="quotedblright" unicode="&#x201d;" horiz-adv-x="668" 
d="M594 782q0 -65 -22.5 -109t-55.5 -72t-70.5 -40t-70.5 -16v96q47 12 68.5 40t27.5 75h-96v209h219v-183zM293 782q0 -65 -22.5 -109t-55.5 -72t-71 -40t-70 -16v96q47 12 68.5 40t27.5 75h-96v209h219v-183z" />
    <glyph glyph-name="bullet" horiz-adv-x="717" 
d="M666 410q0 -64 -25 -120.5t-65.5 -97t-97 -65.5t-120.5 -25q-63 0 -119.5 25t-97.5 65.5t-65.5 97t-24.5 120.5q0 63 24.5 119.5t65.5 97.5t97.5 65.5t119.5 24.5q64 0 120.5 -24.5t97 -65.5t65.5 -97.5t25 -119.5z" />
    <glyph glyph-name="bullet" unicode="&#x2022;" horiz-adv-x="717" 
d="M666 410q0 -64 -25 -120.5t-65.5 -97t-97 -65.5t-120.5 -25q-63 0 -119.5 25t-97.5 65.5t-65.5 97t-24.5 120.5q0 63 24.5 119.5t65.5 97.5t97.5 65.5t119.5 24.5q64 0 120.5 -24.5t97 -65.5t65.5 -97.5t25 -119.5z" />
    <glyph glyph-name="endash" horiz-adv-x="819" 
d="M72 258v166h676v-166h-676z" />
    <glyph glyph-name="endash" unicode="&#x2013;" horiz-adv-x="819" 
d="M72 258v166h676v-166h-676z" />
    <glyph glyph-name="emdash" horiz-adv-x="1638" 
d="M72 258v166h1495v-166h-1495z" />
    <glyph glyph-name="emdash" unicode="&#x2014;" horiz-adv-x="1638" 
d="M72 258v166h1495v-166h-1495z" />
    <glyph glyph-name="maihanakatleftthai" 
d="M-594 922v204h205v-82h440v-122h-645z" />
    <glyph glyph-name="maihanakatleftthai" unicode="&#xf710;" 
d="M-594 922v204h205v-82h440v-122h-645z" />
    <glyph glyph-name="maihanakatleftthai" unicode="&#x2dc;" 
d="M-594 922v204h205v-82h440v-122h-645z" />
    <glyph glyph-name="nikhahitleftthai" 
d="M-240 1036q0 -53 -37.5 -89t-111.5 -36t-112 36t-38 89q0 54 38 89.5t112 35.5t111.5 -35.5t37.5 -89.5z" />
    <glyph glyph-name="nikhahitleftthai" unicode="&#xf711;" 
d="M-240 1036q0 -53 -37.5 -89t-111.5 -36t-112 36t-38 89q0 54 38 89.5t112 35.5t111.5 -35.5t37.5 -89.5z" />
    <glyph glyph-name="nikhahitleftthai" unicode="&#x2122;" 
d="M-240 1036q0 -53 -37.5 -89t-111.5 -36t-112 36t-38 89q0 54 38 89.5t112 35.5t111.5 -35.5t37.5 -89.5z" />
    <glyph glyph-name="maitaikhuleftthai" 
d="M-420 922l-80 59l-84 -59h-217v90q0 73 46 124.5t157 51.5h311v-94h-258q-45 0 -63.5 -18.5t-18.5 -43.5v-14h33l94 61l94 -61h119v-96h-133z" />
    <glyph glyph-name="maitaikhuleftthai" unicode="&#xf712;" 
d="M-420 922l-80 59l-84 -59h-217v90q0 73 46 124.5t157 51.5h311v-94h-258q-45 0 -63.5 -18.5t-18.5 -43.5v-14h33l94 61l94 -61h119v-96h-133z" />
    <glyph glyph-name="maitaikhuleftthai" unicode="&#x161;" 
d="M-420 922l-80 59l-84 -59h-217v90q0 73 46 124.5t157 51.5h311v-94h-258q-45 0 -63.5 -18.5t-18.5 -43.5v-14h33l94 61l94 -61h119v-96h-133z" />
    <glyph glyph-name="maiekupperleftthai" 
d="M-492 1198v164h205v-164h-205z" />
    <glyph glyph-name="maiekupperleftthai" unicode="&#xf713;" 
d="M-492 1198v164h205v-164h-205z" />
    <glyph glyph-name="maiekupperleftthai" unicode="&#x203a;" 
d="M-492 1198v164h205v-164h-205z" />
    <glyph glyph-name="maithoupperleftthai" 
d="M-510 1198v49q0 21 -4 32t-33 11h-18v111h127q61 0 86.5 -22.5t25.5 -59.5v-10h195v-111h-379z" />
    <glyph glyph-name="maithoupperleftthai" unicode="&#xf714;" 
d="M-510 1198v49q0 21 -4 32t-33 11h-18v111h127q61 0 86.5 -22.5t25.5 -59.5v-10h195v-111h-379z" />
    <glyph glyph-name="maithoupperleftthai" unicode="&#x153;" 
d="M-510 1198v49q0 21 -4 32t-33 11h-18v111h127q61 0 86.5 -22.5t25.5 -59.5v-10h195v-111h-379z" />
    <glyph glyph-name="maitriupperleftthai" 
d="M-283 1198v92l-67 -53l-66 53v-92h-157v74q0 59 32.5 93t102.5 34h22l66 -51l65 51h25q135 0 135 -94v-11h76v-96h-234z" />
    <glyph glyph-name="maitriupperleftthai" unicode="&#xf715;" 
d="M-283 1198v92l-67 -53l-66 53v-92h-157v74q0 59 32.5 93t102.5 34h22l66 -51l65 51h25q135 0 135 -94v-11h76v-96h-234z" />
    <glyph glyph-name="maichattawaupperleftthai" 
d="M-307 1260v-62h-164v62h-68v81h68v62h164v-62h67v-81h-67z" />
    <glyph glyph-name="maichattawaupperleftthai" unicode="&#xf716;" 
d="M-307 1260v-62h-164v62h-68v81h68v62h164v-62h67v-81h-67z" />
    <glyph glyph-name="maichattawaupperleftthai" unicode="&#x17e;" 
d="M-307 1260v-62h-164v62h-68v81h68v62h164v-62h67v-81h-67z" />
    <glyph glyph-name="thanthakhatupperleftthai" 
d="M-322 1180q-34 0 -45.5 -13.5t-11.5 -40.5v-20h-184v51q0 41 12 67.5t37 41t59.5 19.5t79.5 5h88v-110h-35z" />
    <glyph glyph-name="thanthakhatupperleftthai" unicode="&#xf717;" 
d="M-322 1180q-34 0 -45.5 -13.5t-11.5 -40.5v-20h-184v51q0 41 12 67.5t37 41t59.5 19.5t79.5 5h88v-110h-35z" />
    <glyph glyph-name="thanthakhatupperleftthai" unicode="&#x178;" 
d="M-322 1180q-34 0 -45.5 -13.5t-11.5 -40.5v-20h-184v51q0 41 12 67.5t37 41t59.5 19.5t79.5 5h88v-110h-35z" />
    <glyph glyph-name="uni00A0" unicode="&#xa0;" horiz-adv-x="926" 
 />
    <glyph glyph-name="uni00A0" unicode="&#xe00;" horiz-adv-x="926" 
 />
    <glyph glyph-name="kokaithai" unicode="&#xa1;" horiz-adv-x="748" 
d="M502 0v559q0 66 -38 96.5t-91 30.5q-54 0 -90.5 -30.5t-36.5 -96.5v-559h-205v557q0 55 18.5 105.5t58.5 89.5t103.5 61.5t151.5 22.5t151.5 -22.5t103.5 -61.5t59.5 -89.5t19.5 -105.5v-557h-205z" />
    <glyph glyph-name="kokaithai" unicode="&#xe01;" horiz-adv-x="748" 
d="M502 0v559q0 66 -38 96.5t-91 30.5q-54 0 -90.5 -30.5t-36.5 -96.5v-559h-205v557q0 55 18.5 105.5t58.5 89.5t103.5 61.5t151.5 22.5t151.5 -22.5t103.5 -61.5t59.5 -89.5t19.5 -105.5v-557h-205z" />
    <glyph glyph-name="khokhaithai" unicode="&#xa2;" horiz-adv-x="707" 
d="M666 242q0 -111 -77 -184.5t-237 -73.5q-159 0 -235 73.5t-76 184.5v219q0 47 16.5 69.5t35 36t33.5 23.5t15 35q-2 34 -29.5 43.5t-70.5 7.5v143h147q25 0 52.5 -7t51 -22.5t39 -40t17.5 -59.5q4 -59 -11 -90t-35.5 -50.5t-38 -40t-17.5 -56.5v-195q0 -65 29.5 -95
t76.5 -30t78 30t31 95v561h205v-577z" />
    <glyph glyph-name="khokhaithai" unicode="&#xe02;" horiz-adv-x="707" 
d="M666 242q0 -111 -77 -184.5t-237 -73.5q-159 0 -235 73.5t-76 184.5v219q0 47 16.5 69.5t35 36t33.5 23.5t15 35q-2 34 -29.5 43.5t-70.5 7.5v143h147q25 0 52.5 -7t51 -22.5t39 -40t17.5 -59.5q4 -59 -11 -90t-35.5 -50.5t-38 -40t-17.5 -56.5v-195q0 -65 29.5 -95
t76.5 -30t78 30t31 95v561h205v-577z" />
    <glyph glyph-name="khokhuatthai" unicode="&#xa3;" horiz-adv-x="707" 
d="M666 242q0 -111 -77 -184.5t-237 -73.5q-159 0 -235 73.5t-76 184.5v215q0 43 16.5 62.5t37 33.5t36.5 30.5t16 51.5h-127v184h91l75 -61l72 61h100v-145q0 -62 -17 -91.5t-38.5 -48t-39 -37t-17.5 -61.5v-178q0 -65 29.5 -95t76.5 -30t78 30t31 95v561h205v-577z" />
    <glyph glyph-name="khokhuatthai" unicode="&#xe03;" horiz-adv-x="707" 
d="M666 242q0 -111 -77 -184.5t-237 -73.5q-159 0 -235 73.5t-76 184.5v215q0 43 16.5 62.5t37 33.5t36.5 30.5t16 51.5h-127v184h91l75 -61l72 61h100v-145q0 -62 -17 -91.5t-38.5 -48t-39 -37t-17.5 -61.5v-178q0 -65 29.5 -95t76.5 -30t78 30t31 95v561h205v-577z" />
    <glyph glyph-name="khokhwaithai" unicode="&#xa4;" horiz-adv-x="748" 
d="M502 0v561q0 66 -38 95.5t-91 29.5q-51 0 -89 -29.5t-38 -95.5v-86h155v-186h-155v-289h-205v557q0 55 18.5 105.5t58.5 89.5t103.5 61.5t151.5 22.5t151.5 -22.5t103.5 -61.5t59.5 -89.5t19.5 -105.5v-557h-205z" />
    <glyph glyph-name="khokhwaithai" unicode="&#xe04;" horiz-adv-x="748" 
d="M502 0v561q0 66 -38 95.5t-91 29.5q-51 0 -89 -29.5t-38 -95.5v-86h155v-186h-155v-289h-205v557q0 55 18.5 105.5t58.5 89.5t103.5 61.5t151.5 22.5t151.5 -22.5t103.5 -61.5t59.5 -89.5t19.5 -105.5v-557h-205z" />
    <glyph glyph-name="khokhonthai" unicode="&#xa5;" horiz-adv-x="748" 
d="M502 0v561q0 51 -37 88l-92 -74l-88 72q-39 -33 -39 -86v-98h155v-184h-155v-279h-205v584q0 47 15.5 91t44 77.5t68.5 56t91 27.5l113 -99l114 99q50 -5 90.5 -27.5t69.5 -56t44.5 -77.5t15.5 -91v-584h-205z" />
    <glyph glyph-name="khokhonthai" unicode="&#xe05;" horiz-adv-x="748" 
d="M502 0v561q0 51 -37 88l-92 -74l-88 72q-39 -33 -39 -86v-98h155v-184h-155v-279h-205v584q0 47 15.5 91t44 77.5t68.5 56t91 27.5l113 -99l114 99q50 -5 90.5 -27.5t69.5 -56t44.5 -77.5t15.5 -91v-584h-205z" />
    <glyph glyph-name="khorakhangthai" unicode="&#xa6;" horiz-adv-x="748" 
d="M707 215q0 -100 -56.5 -162.5t-167.5 -62.5q-86 0 -139 29.5t-98 82.5v-102h-205v457q0 43 16.5 62.5t37 33.5t36.5 30.5t16 51.5h-127v184h80l76 -61l72 61h110v-145q0 -62 -17 -91.5t-38.5 -48t-39 -37t-17.5 -61.5v-147q0 -27 9 -53.5t27.5 -48t47 -36t65.5 -14.5
q58 0 82.5 33t24.5 92v557h205v-604z" />
    <glyph glyph-name="khorakhangthai" unicode="&#xe06;" horiz-adv-x="748" 
d="M707 215q0 -100 -56.5 -162.5t-167.5 -62.5q-86 0 -139 29.5t-98 82.5v-102h-205v457q0 43 16.5 62.5t37 33.5t36.5 30.5t16 51.5h-127v184h80l76 -61l72 61h110v-145q0 -62 -17 -91.5t-38.5 -48t-39 -37t-17.5 -61.5v-147q0 -27 9 -53.5t27.5 -48t47 -36t65.5 -14.5
q58 0 82.5 33t24.5 92v557h205v-604z" />
    <glyph glyph-name="ngonguthai" unicode="&#xa7;" horiz-adv-x="727" 
d="M696 440q0 -98 -16 -179t-50 -139.5t-86 -90t-124 -31.5h-297l-119 819h209l96 -665h56q20 0 42.5 15t41 49t31 87t12.5 131q0 129 -51.5 186.5t-118.5 53.5v143h84q77 0 132.5 -29.5t90.5 -82t51 -121t16 -146.5z" />
    <glyph glyph-name="ngonguthai" unicode="&#xe07;" horiz-adv-x="727" 
d="M696 440q0 -98 -16 -179t-50 -139.5t-86 -90t-124 -31.5h-297l-119 819h209l96 -665h56q20 0 42.5 15t41 49t31 87t12.5 131q0 129 -51.5 186.5t-118.5 53.5v143h84q77 0 132.5 -29.5t90.5 -82t51 -121t16 -146.5z" />
    <glyph glyph-name="chochanthai" unicode="&#xa8;" horiz-adv-x="717" 
d="M686 428q-4 -197 -73.5 -312.5t-217.5 -115.5h-250l-41 256q-6 43 -21 61.5t-63 18.5v149h175q45 0 64.5 -23.5t25.5 -64.5l41 -243h30q50 0 87.5 63.5t37.5 210.5q0 141 -32.5 199.5t-110.5 58.5q-57 0 -88 -37t-35 -74h-211q6 43 26.5 88.5t60.5 84t102.5 63.5
t148.5 25q92 0 157.5 -31t107.5 -85t61.5 -129t17.5 -163z" />
    <glyph glyph-name="chochanthai" unicode="&#xe08;" horiz-adv-x="717" 
d="M686 428q-4 -197 -73.5 -312.5t-217.5 -115.5h-250l-41 256q-6 43 -21 61.5t-63 18.5v149h175q45 0 64.5 -23.5t25.5 -64.5l41 -243h30q50 0 87.5 63.5t37.5 210.5q0 141 -32.5 199.5t-110.5 58.5q-57 0 -88 -37t-35 -74h-211q6 43 26.5 88.5t60.5 84t102.5 63.5
t148.5 25q92 0 157.5 -31t107.5 -85t61.5 -129t17.5 -163z" />
    <glyph glyph-name="chochingthai" unicode="&#xa9;" horiz-adv-x="727" 
d="M481 0v92q-32 -47 -84.5 -74.5t-124.5 -27.5q-102 0 -166.5 52t-64.5 169v59q0 33 -4 56.5t-37 23.5v127h170q45 0 60.5 -21.5t15.5 -60.5v-131q0 -71 28.5 -100t85.5 -25q43 4 82 46t39 112v258q0 66 -35.5 98.5t-91.5 32.5q-47 0 -80.5 -29.5t-44.5 -81.5h-209
q7 52 28.5 99t61.5 83t100 57.5t140 21.5q90 0 153.5 -20.5t104.5 -57.5t59.5 -87t18.5 -110v-561h-205z" />
    <glyph glyph-name="chochingthai" unicode="&#xe09;" horiz-adv-x="727" 
d="M481 0v92q-32 -47 -84.5 -74.5t-124.5 -27.5q-102 0 -166.5 52t-64.5 169v59q0 33 -4 56.5t-37 23.5v127h170q45 0 60.5 -21.5t15.5 -60.5v-131q0 -71 28.5 -100t85.5 -25q43 4 82 46t39 112v258q0 66 -35.5 98.5t-91.5 32.5q-47 0 -80.5 -29.5t-44.5 -81.5h-209
q7 52 28.5 99t61.5 83t100 57.5t140 21.5q90 0 153.5 -20.5t104.5 -57.5t59.5 -87t18.5 -110v-561h-205z" />
    <glyph glyph-name="chochangthai" unicode="&#xaa;" horiz-adv-x="727" 
d="M694 301q0 -84 -25.5 -142.5t-69.5 -95t-102.5 -52t-123.5 -15.5l-332 4v819h205v-665h61q35 0 65.5 7t55.5 26.5t39 52t14 84.5q0 86 -48 128t-128 44v153q33 0 64.5 6.5t56.5 22.5t40 46t15 77v18h205v-8q0 -88 -38 -149.5t-120 -88.5v-4q27 -12 56.5 -33.5t54.5 -55.5
t40 -79t15 -100z" />
    <glyph glyph-name="chochangthai" unicode="&#xe0a;" horiz-adv-x="727" 
d="M694 301q0 -84 -25.5 -142.5t-69.5 -95t-102.5 -52t-123.5 -15.5l-332 4v819h205v-665h61q35 0 65.5 7t55.5 26.5t39 52t14 84.5q0 86 -48 128t-128 44v153q33 0 64.5 6.5t56.5 22.5t40 46t15 77v18h205v-8q0 -88 -38 -149.5t-120 -88.5v-4q27 -12 56.5 -33.5t54.5 -55.5
t40 -79t15 -100z" />
    <glyph glyph-name="sosothai" unicode="&#xab;" horiz-adv-x="733" 
d="M702 301q0 -84 -25.5 -142.5t-69.5 -95t-102.5 -52t-123.5 -15.5l-330 4v459q0 41 12.5 61.5t27.5 35.5t27.5 30.5t12.5 48.5h-111v184h82l70 -61l66 61h100v-145q0 -51 -12.5 -76t-27.5 -41t-28.5 -34.5t-13.5 -57.5v-311h59q35 0 66 7t55.5 26.5t38.5 52t14 84.5
q0 86 -29.5 128t-105.5 44v153q66 0 100.5 29t34.5 123v18h205v-8q0 -88 -38 -150.5t-109 -87.5v-4q55 -24 105 -90.5t50 -177.5z" />
    <glyph glyph-name="sosothai" unicode="&#xe0b;" horiz-adv-x="733" 
d="M702 301q0 -84 -25.5 -142.5t-69.5 -95t-102.5 -52t-123.5 -15.5l-330 4v459q0 41 12.5 61.5t27.5 35.5t27.5 30.5t12.5 48.5h-111v184h82l70 -61l66 61h100v-145q0 -51 -12.5 -76t-27.5 -41t-28.5 -34.5t-13.5 -57.5v-311h59q35 0 66 7t55.5 26.5t38.5 52t14 84.5
q0 86 -29.5 128t-105.5 44v153q66 0 100.5 29t34.5 123v18h205v-8q0 -88 -38 -150.5t-109 -87.5v-4q55 -24 105 -90.5t50 -177.5z" />
    <glyph glyph-name="chochoethai" unicode="&#xac;" horiz-adv-x="1188" 
d="M1147 227q0 -108 -57.5 -172.5t-165.5 -64.5q-56 0 -113 26.5t-104 85.5v-102h-205v551q0 72 -36 103.5t-93 31.5q-41 0 -78 -21.5t-49 -72.5l61 -55q-20 -13 -40.5 -34.5t-20.5 -56.5v-292h73v-154h-278v434q0 35 22.5 62.5t49.5 40.5l-78 57q4 41 25.5 84t62.5 78
t102.5 57.5t147.5 22.5q92 0 156.5 -24t103.5 -62.5t56.5 -90t17.5 -108.5v-262q0 -68 39.5 -110t84.5 -42q60 0 85.5 36t25.5 89v557h205v-592z" />
    <glyph glyph-name="chochoethai" unicode="&#xe0c;" horiz-adv-x="1188" 
d="M1147 227q0 -108 -57.5 -172.5t-165.5 -64.5q-56 0 -113 26.5t-104 85.5v-102h-205v551q0 72 -36 103.5t-93 31.5q-41 0 -78 -21.5t-49 -72.5l61 -55q-20 -13 -40.5 -34.5t-20.5 -56.5v-292h73v-154h-278v434q0 35 22.5 62.5t49.5 40.5l-78 57q4 41 25.5 84t62.5 78
t102.5 57.5t147.5 22.5q92 0 156.5 -24t103.5 -62.5t56.5 -90t17.5 -108.5v-262q0 -68 39.5 -110t84.5 -42q60 0 85.5 36t25.5 89v557h205v-592z" />
    <glyph glyph-name="yoyingthai" unicode="&#xad;" horiz-adv-x="1188" 
d="M1147 63q0 -65 -14.5 -121.5t-50 -97.5t-96 -64.5t-155.5 -23.5h-329v168h303q72 0 104.5 31t32.5 76v30q-29 -28 -75 -49.5t-107 -21.5q-117 0 -187.5 58t-70.5 190v313q0 72 -36 103.5t-93 31.5q-41 0 -78 -21.5t-49 -72.5l61 -55q-20 -13 -40.5 -34.5t-20.5 -56.5
v-292h73v-154h-278v434q0 35 22.5 62.5t49.5 40.5l-78 57q4 41 25.5 84t62.5 78t102.5 57.5t147.5 22.5q92 0 156.5 -24t103.5 -62.5t56.5 -90t17.5 -108.5v-291q0 -63 31.5 -93t84.5 -30q54 0 86.5 30t32.5 93v557h205v-754z" />
    <glyph glyph-name="yoyingthai" unicode="&#xe0d;" horiz-adv-x="1188" 
d="M1147 63q0 -65 -14.5 -121.5t-50 -97.5t-96 -64.5t-155.5 -23.5h-329v168h303q72 0 104.5 31t32.5 76v30q-29 -28 -75 -49.5t-107 -21.5q-117 0 -187.5 58t-70.5 190v313q0 72 -36 103.5t-93 31.5q-41 0 -78 -21.5t-49 -72.5l61 -55q-20 -13 -40.5 -34.5t-20.5 -56.5
v-292h73v-154h-278v434q0 35 22.5 62.5t49.5 40.5l-78 57q4 41 25.5 84t62.5 78t102.5 57.5t147.5 22.5q92 0 156.5 -24t103.5 -62.5t56.5 -90t17.5 -108.5v-291q0 -63 31.5 -93t84.5 -30q54 0 86.5 30t32.5 93v557h205v-754z" />
    <glyph glyph-name="yoyingthai" unicode="&#xde;" horiz-adv-x="1188" 
d="M1147 63q0 -65 -14.5 -121.5t-50 -97.5t-96 -64.5t-155.5 -23.5h-329v168h303q72 0 104.5 31t32.5 76v30q-29 -28 -75 -49.5t-107 -21.5q-117 0 -187.5 58t-70.5 190v313q0 72 -36 103.5t-93 31.5q-41 0 -78 -21.5t-49 -72.5l61 -55q-20 -13 -40.5 -34.5t-20.5 -56.5
v-292h73v-154h-278v434q0 35 22.5 62.5t49.5 40.5l-78 57q4 41 25.5 84t62.5 78t102.5 57.5t147.5 22.5q92 0 156.5 -24t103.5 -62.5t56.5 -90t17.5 -108.5v-291q0 -63 31.5 -93t84.5 -30q54 0 86.5 30t32.5 93v557h205v-754z" />
    <glyph glyph-name="dochadathai" unicode="&#xae;" horiz-adv-x="768" 
d="M444 -307l-110 82l-111 -82h-162v170h179l94 65l94 -65h94v688q0 72 -35.5 103.5t-93.5 31.5q-41 0 -77.5 -21.5t-49.5 -72.5l62 -55q-21 -13 -41.5 -34.5t-20.5 -56.5v-446h-266v154h61v280q0 35 22.5 62.5t49.5 40.5l-78 57q4 41 25.5 84t62.5 78t102.5 57.5
t147.5 22.5q92 0 156.5 -24t103.5 -62.5t56.5 -90t17.5 -108.5v-858h-283z" />
    <glyph glyph-name="dochadathai" unicode="&#xe0e;" horiz-adv-x="768" 
d="M444 -307l-110 82l-111 -82h-162v170h179l94 65l94 -65h94v688q0 72 -35.5 103.5t-93.5 31.5q-41 0 -77.5 -21.5t-49.5 -72.5l62 -55q-21 -13 -41.5 -34.5t-20.5 -56.5v-446h-266v154h61v280q0 35 22.5 62.5t49.5 40.5l-78 57q4 41 25.5 84t62.5 78t102.5 57.5
t147.5 22.5q92 0 156.5 -24t103.5 -62.5t56.5 -90t17.5 -108.5v-858h-283z" />
    <glyph glyph-name="topatakthai" unicode="&#xaf;" horiz-adv-x="768" 
d="M487 -307l-92 78l-108 -78h-226v235h205v-94l127 92l129 -92v717q0 72 -35.5 103.5t-93.5 31.5q-41 0 -77.5 -21.5t-49.5 -72.5l62 -55q-21 -13 -41.5 -34.5t-20.5 -56.5v-446h-266v154h61v280q0 35 22.5 62.5t49.5 40.5l-78 57q4 41 25.5 84t62.5 78t102.5 57.5
t147.5 22.5q92 0 156.5 -24t103.5 -62.5t56.5 -90t17.5 -108.5v-858h-240z" />
    <glyph glyph-name="topatakthai" unicode="&#xe0f;" horiz-adv-x="768" 
d="M487 -307l-92 78l-108 -78h-226v235h205v-94l127 92l129 -92v717q0 72 -35.5 103.5t-93.5 31.5q-41 0 -77.5 -21.5t-49.5 -72.5l62 -55q-21 -13 -41.5 -34.5t-20.5 -56.5v-446h-266v154h61v280q0 35 22.5 62.5t49.5 40.5l-78 57q4 41 25.5 84t62.5 78t102.5 57.5
t147.5 22.5q92 0 156.5 -24t103.5 -62.5t56.5 -90t17.5 -108.5v-858h-240z" />
    <glyph glyph-name="thothanthai" unicode="&#xb0;" horiz-adv-x="727" 
d="M727 881q0 -33 -39 -73t-115 -50q60 -53 87.5 -138t25.5 -192q-4 -197 -73.5 -312.5t-217.5 -115.5h-250l-41 256q-6 43 -21 61.5t-63 18.5v149h175q45 0 64.5 -23.5t25.5 -64.5l41 -243h30q50 0 87.5 63.5t37.5 210.5q0 141 -32.5 199.5t-110.5 58.5q-57 0 -88 -37
t-35 -74h-211q6 43 26.5 88.5t60.5 84t102.5 63.5t148.5 25q31 0 59.5 -3.5t53.5 -11.5q16 10 26.5 25.5t12.5 34.5h233zM424 -307l-111 82l-110 -82h-162v170h178l94 65l95 -65h53v63h205v-233h-242z" />
    <glyph glyph-name="thothanthai" unicode="&#xe10;" horiz-adv-x="727" 
d="M727 881q0 -33 -39 -73t-115 -50q60 -53 87.5 -138t25.5 -192q-4 -197 -73.5 -312.5t-217.5 -115.5h-250l-41 256q-6 43 -21 61.5t-63 18.5v149h175q45 0 64.5 -23.5t25.5 -64.5l41 -243h30q50 0 87.5 63.5t37.5 210.5q0 141 -32.5 199.5t-110.5 58.5q-57 0 -88 -37
t-35 -74h-211q6 43 26.5 88.5t60.5 84t102.5 63.5t148.5 25q31 0 59.5 -3.5t53.5 -11.5q16 10 26.5 25.5t12.5 34.5h233zM424 -307l-111 82l-110 -82h-162v170h178l94 65l95 -65h53v63h205v-233h-242z" />
    <glyph glyph-name="thonangmonthothai" unicode="&#xb1;" horiz-adv-x="758" 
d="M512 0v578l-246 -578h-215v463q0 39 13.5 58.5t30 33.5t29.5 30.5t13 49.5h-114v184h79l70 -61l66 61h110v-145q0 -45 -14.5 -69.5t-31.5 -43t-31.5 -37t-14.5 -55.5v-47q0 -12 -1 -38t-3 -50q-2 -29 -6 -64h4l41 148l180 401h113q59 0 96 -38t37 -117v-664h-205z" />
    <glyph glyph-name="thonangmonthothai" unicode="&#xe11;" horiz-adv-x="758" 
d="M512 0v578l-246 -578h-215v463q0 39 13.5 58.5t30 33.5t29.5 30.5t13 49.5h-114v184h79l70 -61l66 61h110v-145q0 -45 -14.5 -69.5t-31.5 -43t-31.5 -37t-14.5 -55.5v-47q0 -12 -1 -38t-3 -50q-2 -29 -6 -64h4l41 148l180 401h113q59 0 96 -38t37 -117v-664h-205z" />
    <glyph glyph-name="thophuthaothai" unicode="&#xb2;" horiz-adv-x="1198" 
d="M1157 227q0 -108 -57.5 -172.5t-165.5 -64.5q-55 0 -112.5 26.5t-104.5 85.5v-102h-205v647l-113 -108l-110 104q-23 -16 -42.5 -74.5t-19.5 -167.5q0 -71 11.5 -118t34 -75t56 -38t77.5 -10v-160l-123 -4q-68 -2 -117 26.5t-81 83t-48.5 129t-16.5 166.5
q0 197 61.5 312.5t174.5 111.5l53 -2l92 -92l88 88h228v-530q0 -68 40 -110t85 -42q59 0 84.5 36t25.5 89v557h205v-592z" />
    <glyph glyph-name="thophuthaothai" unicode="&#xe12;" horiz-adv-x="1198" 
d="M1157 227q0 -108 -57.5 -172.5t-165.5 -64.5q-55 0 -112.5 26.5t-104.5 85.5v-102h-205v647l-113 -108l-110 104q-23 -16 -42.5 -74.5t-19.5 -167.5q0 -71 11.5 -118t34 -75t56 -38t77.5 -10v-160l-123 -4q-68 -2 -117 26.5t-81 83t-48.5 129t-16.5 166.5
q0 197 61.5 312.5t174.5 111.5l53 -2l92 -92l88 88h228v-530q0 -68 40 -110t85 -42q59 0 84.5 36t25.5 89v557h205v-592z" />
    <glyph glyph-name="nonenthai" unicode="&#xb3;" horiz-adv-x="1188" 
d="M942 0v102q-47 -59 -104.5 -85.5t-112.5 -26.5q-109 0 -166 64.5t-57 172.5v324q0 72 -36 103.5t-93 31.5q-41 0 -78 -21.5t-49 -72.5l61 -55q-20 -13 -40.5 -34.5t-20.5 -56.5v-292h73v-154h-278v434q0 35 22.5 62.5t49.5 40.5l-78 57q4 41 25.5 84t62.5 78t102.5 57.5
t147.5 22.5q92 0 156.5 -24t103.5 -62.5t56.5 -90t17.5 -108.5v-289q0 -53 25.5 -89t84.5 -36q45 0 85 42t40 110v528h205v-817h-205z" />
    <glyph glyph-name="nonenthai" unicode="&#xe13;" horiz-adv-x="1188" 
d="M942 0v102q-47 -59 -104.5 -85.5t-112.5 -26.5q-109 0 -166 64.5t-57 172.5v324q0 72 -36 103.5t-93 31.5q-41 0 -78 -21.5t-49 -72.5l61 -55q-20 -13 -40.5 -34.5t-20.5 -56.5v-292h73v-154h-278v434q0 35 22.5 62.5t49.5 40.5l-78 57q4 41 25.5 84t62.5 78t102.5 57.5
t147.5 22.5q92 0 156.5 -24t103.5 -62.5t56.5 -90t17.5 -108.5v-289q0 -53 25.5 -89t84.5 -36q45 0 85 42t40 110v528h205v-817h-205z" />
    <glyph glyph-name="dodekthai" unicode="&#xb4;" horiz-adv-x="758" 
d="M512 0v655l-98 2q-88 2 -137.5 -65.5t-49.5 -192.5q0 -141 43 -191t136 -48v-160l-123 -2q-64 0 -113 28.5t-82 81t-50.5 125t-17.5 160.5q0 78 18.5 155t58.5 138.5t102.5 98t150.5 36.5l367 -2v-819h-205z" />
    <glyph glyph-name="dodekthai" unicode="&#xe14;" horiz-adv-x="758" 
d="M512 0v655l-98 2q-88 2 -137.5 -65.5t-49.5 -192.5q0 -141 43 -191t136 -48v-160l-123 -2q-64 0 -113 28.5t-82 81t-50.5 125t-17.5 160.5q0 78 18.5 155t58.5 138.5t102.5 98t150.5 36.5l367 -2v-819h-205z" />
    <glyph glyph-name="totaothai" unicode="&#xb5;" horiz-adv-x="758" 
d="M512 0v647l-113 -108l-110 104q-23 -16 -42.5 -74.5t-19.5 -167.5q0 -71 11.5 -118t34 -75t56 -38t77.5 -10v-160l-123 -4q-68 -2 -117 26.5t-81 83t-48.5 129t-16.5 166.5q0 197 61.5 312.5t174.5 111.5l53 -2l92 -92l88 88h228v-819h-205z" />
    <glyph glyph-name="totaothai" unicode="&#xe15;" horiz-adv-x="758" 
d="M512 0v647l-113 -108l-110 104q-23 -16 -42.5 -74.5t-19.5 -167.5q0 -71 11.5 -118t34 -75t56 -38t77.5 -10v-160l-123 -4q-68 -2 -117 26.5t-81 83t-48.5 129t-16.5 166.5q0 197 61.5 312.5t174.5 111.5l53 -2l92 -92l88 88h228v-819h-205z" />
    <glyph glyph-name="thothungthai" unicode="&#xb6;" horiz-adv-x="748" 
d="M502 0v551q0 72 -36 103.5t-93 31.5q-41 0 -78 -21.5t-49 -72.5l61 -55q-20 -13 -40.5 -34.5t-20.5 -56.5v-292h73v-154h-278v434q0 35 22.5 62.5t49.5 40.5l-78 57q4 41 25.5 84t62.5 78t102.5 57.5t147.5 22.5q92 0 156.5 -24t103.5 -62.5t56.5 -90t17.5 -108.5v-551
h-205z" />
    <glyph glyph-name="thothungthai" unicode="&#xe16;" horiz-adv-x="748" 
d="M502 0v551q0 72 -36 103.5t-93 31.5q-41 0 -78 -21.5t-49 -72.5l61 -55q-20 -13 -40.5 -34.5t-20.5 -56.5v-292h73v-154h-278v434q0 35 22.5 62.5t49.5 40.5l-78 57q4 41 25.5 84t62.5 78t102.5 57.5t147.5 22.5q92 0 156.5 -24t103.5 -62.5t56.5 -90t17.5 -108.5v-551
h-205z" />
    <glyph glyph-name="thothahanthai" unicode="&#xb7;" horiz-adv-x="748" 
d="M502 0v557q0 59 -24.5 92t-82.5 33q-37 0 -65.5 -14.5t-47 -36t-27.5 -48t-9 -53.5v-530h-205v819h205v-102q45 53 98 82.5t139 29.5q111 0 167.5 -62t56.5 -163v-604h-205z" />
    <glyph glyph-name="thothahanthai" unicode="&#xe17;" horiz-adv-x="748" 
d="M502 0v557q0 59 -24.5 92t-82.5 33q-37 0 -65.5 -14.5t-47 -36t-27.5 -48t-9 -53.5v-530h-205v819h205v-102q45 53 98 82.5t139 29.5q111 0 167.5 -62t56.5 -163v-604h-205z" />
    <glyph glyph-name="thothongthai" unicode="&#xb8;" horiz-adv-x="737" 
d="M496 575q0 50 -43 80.5t-97 30.5q-49 0 -86 -22.5t-37 -59.5q0 -31 34 -45t86.5 -22.5t111.5 -18.5t111.5 -33.5t86 -66.5t33.5 -119v-299h-655v346h205v-192h246v108q0 51 -34 73.5t-86.5 34t-111.5 18.5t-111.5 24.5t-86 55.5t-33.5 110q0 53 23.5 100t66.5 82
t105.5 55.5t140.5 20.5q167 0 253.5 -75t86.5 -186h-209z" />
    <glyph glyph-name="thothongthai" unicode="&#xe18;" horiz-adv-x="737" 
d="M496 575q0 50 -43 80.5t-97 30.5q-49 0 -86 -22.5t-37 -59.5q0 -31 34 -45t86.5 -22.5t111.5 -18.5t111.5 -33.5t86 -66.5t33.5 -119v-299h-655v346h205v-192h246v108q0 51 -34 73.5t-86.5 34t-111.5 18.5t-111.5 24.5t-86 55.5t-33.5 110q0 53 23.5 100t66.5 82
t105.5 55.5t140.5 20.5q167 0 253.5 -75t86.5 -186h-209z" />
    <glyph glyph-name="nonuthai" unicode="&#xb9;" horiz-adv-x="748" 
d="M502 0v102q-45 -53 -98.5 -82.5t-139.5 -29.5q-110 0 -166.5 62.5t-56.5 162.5v604h205v-557q0 -59 24.5 -92t81.5 -33q37 0 65.5 14.5t47 36t28 48t9.5 53.5v530h205v-819h-205z" />
    <glyph glyph-name="nonuthai" unicode="&#xe19;" horiz-adv-x="748" 
d="M502 0v102q-45 -53 -98.5 -82.5t-139.5 -29.5q-110 0 -166.5 62.5t-56.5 162.5v604h205v-557q0 -59 24.5 -92t81.5 -33q37 0 65.5 14.5t47 36t28 48t9.5 53.5v530h205v-819h-205z" />
    <glyph glyph-name="bobaimaithai" unicode="&#xba;" horiz-adv-x="748" 
d="M707 262q0 -55 -19.5 -105.5t-59.5 -89t-103.5 -61t-151.5 -22.5t-151.5 22.5t-103.5 61t-58.5 89t-18.5 105.5v557h205v-559q0 -65 36.5 -96t90.5 -31q55 0 92 31t37 96v559h205v-557z" />
    <glyph glyph-name="bobaimaithai" unicode="&#xe1a;" horiz-adv-x="748" 
d="M707 262q0 -55 -19.5 -105.5t-59.5 -89t-103.5 -61t-151.5 -22.5t-151.5 22.5t-103.5 61t-58.5 89t-18.5 105.5v557h205v-559q0 -65 36.5 -96t90.5 -31q55 0 92 31t37 96v559h205v-557z" />
    <glyph glyph-name="poplathai" unicode="&#xbb;" horiz-adv-x="748" 
d="M707 262q0 -55 -19.5 -105.5t-59.5 -89t-103.5 -61t-151.5 -22.5t-151.5 22.5t-103.5 61t-58.5 89t-18.5 105.5v557h205v-559q0 -65 36.5 -96t90.5 -31q55 0 92 31t37 96v764h205v-762z" />
    <glyph glyph-name="poplathai" unicode="&#xe1b;" horiz-adv-x="748" 
d="M707 262q0 -55 -19.5 -105.5t-59.5 -89t-103.5 -61t-151.5 -22.5t-151.5 22.5t-103.5 61t-58.5 89t-18.5 105.5v557h205v-559q0 -65 36.5 -96t90.5 -31q55 0 92 31t37 96v764h205v-762z" />
    <glyph glyph-name="phophungthai" unicode="&#xbc;" horiz-adv-x="905" 
d="M791 0h-211l-117 500l-6 94h-4l-7 -94l-116 -500h-215l-119 819h280v-121h-73l28 -204q5 -29 6 -70t3 -78q2 -43 2 -90h4l24 160l107 403h155l107 -403l25 -160h4q0 47 2 90q2 37 3 78t5 70l47 325h184z" />
    <glyph glyph-name="phophungthai" unicode="&#xe1c;" horiz-adv-x="905" 
d="M791 0h-211l-117 500l-6 94h-4l-7 -94l-116 -500h-215l-119 819h280v-121h-73l28 -204q5 -29 6 -70t3 -78q2 -43 2 -90h4l24 160l107 403h155l107 -403l25 -160h4q0 47 2 90q2 37 3 78t5 70l47 325h184z" />
    <glyph glyph-name="fofathai" unicode="&#xbd;" horiz-adv-x="905" 
d="M791 0h-211l-117 500l-6 94h-4l-7 -94l-116 -500h-215l-119 819h280v-121h-73l28 -204q5 -29 6 -70t3 -78q2 -43 2 -90h4l24 160l107 403h155l107 -403l25 -160h4q0 47 2 90q2 37 3 78t5 70l78 530h184z" />
    <glyph glyph-name="fofathai" unicode="&#xe1d;" horiz-adv-x="905" 
d="M791 0h-211l-117 500l-6 94h-4l-7 -94l-116 -500h-215l-119 819h280v-121h-73l28 -204q5 -29 6 -70t3 -78q2 -43 2 -90h4l24 160l107 403h155l107 -403l25 -160h4q0 47 2 90q2 37 3 78t5 70l78 530h184z" />
    <glyph glyph-name="phophanthai" unicode="&#xbe;" horiz-adv-x="905" 
d="M791 0h-211l-117 500l-6 94h-4l-7 -94l-116 -500h-215l-119 819h188l47 -325q5 -29 6 -70t3 -78q2 -43 2 -90h4l24 160l107 403h155l107 -403l25 -160h4q0 47 2 90q2 37 3 78t5 70l47 325h184z" />
    <glyph glyph-name="phophanthai" unicode="&#xe1e;" horiz-adv-x="905" 
d="M791 0h-211l-117 500l-6 94h-4l-7 -94l-116 -500h-215l-119 819h188l47 -325q5 -29 6 -70t3 -78q2 -43 2 -90h4l24 160l107 403h155l107 -403l25 -160h4q0 47 2 90q2 37 3 78t5 70l47 325h184z" />
    <glyph glyph-name="fofanthai" unicode="&#xbf;" horiz-adv-x="905" 
d="M791 0h-211l-117 500l-6 94h-4l-7 -94l-116 -500h-215l-119 819h188l47 -325q5 -29 6 -70t3 -78q2 -43 2 -90h4l24 160l107 403h155l107 -403l25 -160h4q0 47 2 90q2 37 3 78t5 70l78 530h184z" />
    <glyph glyph-name="fofanthai" unicode="&#xe1f;" horiz-adv-x="905" 
d="M791 0h-211l-117 500l-6 94h-4l-7 -94l-116 -500h-215l-119 819h188l47 -325q5 -29 6 -70t3 -78q2 -43 2 -90h4l24 160l107 403h155l107 -403l25 -160h4q0 47 2 90q2 37 3 78t5 70l78 530h184z" />
    <glyph glyph-name="phosamphaothai" unicode="&#xc0;" horiz-adv-x="768" 
d="M522 0v551q0 72 -35.5 103.5t-93.5 31.5q-41 0 -77.5 -21.5t-49.5 -72.5l62 -55q-21 -13 -41.5 -34.5t-20.5 -56.5v-446h-266v154h61v280q0 35 22.5 62.5t49.5 40.5l-78 57q4 41 25.5 84t62.5 78t102.5 57.5t147.5 22.5q92 0 156.5 -24t103.5 -62.5t56.5 -90t17.5 -108.5
v-551h-205z" />
    <glyph glyph-name="phosamphaothai" unicode="&#xe20;" horiz-adv-x="768" 
d="M522 0v551q0 72 -35.5 103.5t-93.5 31.5q-41 0 -77.5 -21.5t-49.5 -72.5l62 -55q-21 -13 -41.5 -34.5t-20.5 -56.5v-446h-266v154h61v280q0 35 22.5 62.5t49.5 40.5l-78 57q4 41 25.5 84t62.5 78t102.5 57.5t147.5 22.5q92 0 156.5 -24t103.5 -62.5t56.5 -90t17.5 -108.5
v-551h-205z" />
    <glyph glyph-name="momathai" unicode="&#xc1;" horiz-adv-x="748" 
d="M707 215q0 -100 -56.5 -162.5t-167.5 -62.5q-86 0 -139 29.5t-98 82.5v-102h-205v819h205v-530q0 -27 9 -53.5t27.5 -48t47 -36t65.5 -14.5q58 0 82.5 33t24.5 92v557h205v-604z" />
    <glyph glyph-name="momathai" unicode="&#xe21;" horiz-adv-x="748" 
d="M707 215q0 -100 -56.5 -162.5t-167.5 -62.5q-86 0 -139 29.5t-98 82.5v-102h-205v819h205v-530q0 -27 9 -53.5t27.5 -48t47 -36t65.5 -14.5q58 0 82.5 33t24.5 92v557h205v-604z" />
    <glyph glyph-name="yoyakthai" unicode="&#xc2;" horiz-adv-x="748" 
d="M299 -4q-147 -2 -213 60.5t-66 172.5q0 47 14.5 84t37 62.5t49 42t51.5 24.5v4q-20 5 -43 18t-42 34.5t-32.5 53.5t-13.5 73q0 86 59.5 142t169.5 54l111 -2v-151q-59 6 -94 -12.5t-35 -61.5q0 -25 12 -40t30.5 -23.5t41 -9.5t45.5 1v-160h-4q-55 7 -93 -22t-38 -82
q0 -68 44 -89.5t103 -18.5l109 4v665h205v-819z" />
    <glyph glyph-name="yoyakthai" unicode="&#xe22;" horiz-adv-x="748" 
d="M299 -4q-147 -2 -213 60.5t-66 172.5q0 47 14.5 84t37 62.5t49 42t51.5 24.5v4q-20 5 -43 18t-42 34.5t-32.5 53.5t-13.5 73q0 86 59.5 142t169.5 54l111 -2v-151q-59 6 -94 -12.5t-35 -61.5q0 -25 12 -40t30.5 -23.5t41 -9.5t45.5 1v-160h-4q-55 7 -93 -22t-38 -82
q0 -68 44 -89.5t103 -18.5l109 4v665h205v-819z" />
    <glyph glyph-name="roruathai" unicode="&#xc3;" horiz-adv-x="733" 
d="M702 252q0 -127 -83.5 -197.5t-258.5 -70.5q-172 0 -250.5 73.5t-78.5 202.5h207q0 -37 12 -60.5t31.5 -39t43 -21.5t46.5 -6q51 0 89 25.5t38 72.5q0 45 -34 66.5t-85 35t-110.5 25t-111 36t-85 68.5t-33.5 122q0 53 23.5 99t66.5 80t103.5 53.5t136.5 19.5
q86 0 149.5 -21.5t103.5 -57.5t59 -83t19 -99h-204q0 58 -41 84.5t-88 26.5q-45 0 -84 -23.5t-39 -64.5q0 -35 33.5 -52.5t85 -29.5t110.5 -25.5t110.5 -40t85 -73.5t33.5 -125z" />
    <glyph glyph-name="roruathai" unicode="&#xe23;" horiz-adv-x="733" 
d="M702 252q0 -127 -83.5 -197.5t-258.5 -70.5q-172 0 -250.5 73.5t-78.5 202.5h207q0 -37 12 -60.5t31.5 -39t43 -21.5t46.5 -6q51 0 89 25.5t38 72.5q0 45 -34 66.5t-85 35t-110.5 25t-111 36t-85 68.5t-33.5 122q0 53 23.5 99t66.5 80t103.5 53.5t136.5 19.5
q86 0 149.5 -21.5t103.5 -57.5t59 -83t19 -99h-204q0 58 -41 84.5t-88 26.5q-45 0 -84 -23.5t-39 -64.5q0 -35 33.5 -52.5t85 -29.5t110.5 -25.5t110.5 -40t85 -73.5t33.5 -125z" />
    <glyph glyph-name="ruthai" unicode="&#xc4;" horiz-adv-x="748" 
d="M502 -246v797q0 72 -36 103.5t-93 31.5q-41 0 -78 -21.5t-49 -72.5l61 -55q-20 -13 -40.5 -34.5t-20.5 -56.5v-292h73v-154h-278v434q0 35 22.5 62.5t49.5 40.5l-78 57q4 41 25.5 84t62.5 78t102.5 57.5t147.5 22.5q92 0 156.5 -24t103.5 -62.5t56.5 -90t17.5 -108.5
v-797h-205z" />
    <glyph glyph-name="ruthai" unicode="&#xe24;" horiz-adv-x="748" 
d="M502 -246v797q0 72 -36 103.5t-93 31.5q-41 0 -78 -21.5t-49 -72.5l61 -55q-20 -13 -40.5 -34.5t-20.5 -56.5v-292h73v-154h-278v434q0 35 22.5 62.5t49.5 40.5l-78 57q4 41 25.5 84t62.5 78t102.5 57.5t147.5 22.5q92 0 156.5 -24t103.5 -62.5t56.5 -90t17.5 -108.5
v-797h-205z" />
    <glyph glyph-name="lolingthai" unicode="&#xc5;" horiz-adv-x="741" 
d="M496 0v264q0 64 -39 101.5t-99 37.5q-59 0 -96 -36.5t-39 -96.5q-2 -61 39 -92t96 -18v-160l-63 -4q-70 -4 -122 14.5t-86 56t-50.5 90t-16.5 115.5q0 56 19.5 104t52.5 85t76 60.5t90 29.5q72 10 137.5 -3t100.5 -48v78q0 59 -38 83.5t-89 24.5q-47 0 -86 -27.5
t-39 -83.5h-209q0 117 84 189t246 72q174 0 254.5 -70t80.5 -186v-580h-204z" />
    <glyph glyph-name="lolingthai" unicode="&#xe25;" horiz-adv-x="741" 
d="M496 0v264q0 64 -39 101.5t-99 37.5q-59 0 -96 -36.5t-39 -96.5q-2 -61 39 -92t96 -18v-160l-63 -4q-70 -4 -122 14.5t-86 56t-50.5 90t-16.5 115.5q0 56 19.5 104t52.5 85t76 60.5t90 29.5q72 10 137.5 -3t100.5 -48v78q0 59 -38 83.5t-89 24.5q-47 0 -86 -27.5
t-39 -83.5h-209q0 117 84 189t246 72q174 0 254.5 -70t80.5 -186v-580h-204z" />
    <glyph glyph-name="luthai" unicode="&#xc6;" horiz-adv-x="768" 
d="M522 -246v797q0 72 -35.5 103.5t-93.5 31.5q-41 0 -77.5 -21.5t-49.5 -72.5l62 -55q-21 -13 -41.5 -34.5t-20.5 -56.5v-446h-266v154h61v280q0 35 22.5 62.5t49.5 40.5l-78 57q4 41 25.5 84t62.5 78t102.5 57.5t147.5 22.5q92 0 156.5 -24t103.5 -62.5t56.5 -90
t17.5 -108.5v-797h-205z" />
    <glyph glyph-name="luthai" unicode="&#xe26;" horiz-adv-x="768" 
d="M522 -246v797q0 72 -35.5 103.5t-93.5 31.5q-41 0 -77.5 -21.5t-49.5 -72.5l62 -55q-21 -13 -41.5 -34.5t-20.5 -56.5v-446h-266v154h61v280q0 35 22.5 62.5t49.5 40.5l-78 57q4 41 25.5 84t62.5 78t102.5 57.5t147.5 22.5q92 0 156.5 -24t103.5 -62.5t56.5 -90
t17.5 -108.5v-797h-205z" />
    <glyph glyph-name="wowaenthai" unicode="&#xc7;" horiz-adv-x="719" 
d="M692 410q0 -211 -81 -318.5t-263 -107.5q-174 0 -251 79.5t-77 202.5h213q0 -67 34 -100t81 -33q31 0 54.5 9.5t41 39t26.5 83.5t9 145q0 88 -11 142t-29.5 84t-43 40t-51.5 10q-53 0 -82 -39t-29 -94h-213q0 57 20.5 108.5t61.5 90.5t102.5 61.5t143.5 22.5
q94 0 159.5 -29t106.5 -84t59.5 -134t18.5 -179z" />
    <glyph glyph-name="wowaenthai" unicode="&#xe27;" horiz-adv-x="719" 
d="M692 410q0 -211 -81 -318.5t-263 -107.5q-174 0 -251 79.5t-77 202.5h213q0 -67 34 -100t81 -33q31 0 54.5 9.5t41 39t26.5 83.5t9 145q0 88 -11 142t-29.5 84t-43 40t-51.5 10q-53 0 -82 -39t-29 -94h-213q0 57 20.5 108.5t61.5 90.5t102.5 61.5t143.5 22.5
q94 0 159.5 -29t106.5 -84t59.5 -134t18.5 -179z" />
    <glyph glyph-name="sosalathai" unicode="&#xc8;" horiz-adv-x="748" 
d="M502 0v555q0 66 -38 95.5t-91 29.5q-51 0 -89 -29.5t-38 -95.5v-80h155v-186h-155v-289h-205v557q0 55 19.5 104.5t59.5 85t103.5 57t149.5 21.5q37 0 73.5 -7t55.5 -17v80h205v-881h-205z" />
    <glyph glyph-name="sosalathai" unicode="&#xe28;" horiz-adv-x="748" 
d="M502 0v555q0 66 -38 95.5t-91 29.5q-51 0 -89 -29.5t-38 -95.5v-80h155v-186h-155v-289h-205v557q0 55 19.5 104.5t59.5 85t103.5 57t149.5 21.5q37 0 73.5 -7t55.5 -17v80h205v-881h-205z" />
    <glyph glyph-name="sorusithai" unicode="&#xc9;" horiz-adv-x="748" 
d="M707 262q0 -55 -19.5 -105.5t-59.5 -89t-103.5 -61t-151.5 -22.5t-151.5 22.5t-103.5 61t-58.5 89t-18.5 105.5v557h205v-559q0 -65 36.5 -96t90.5 -31q55 0 92 31t37 96v139q-17 -28 -44.5 -45.5t-60.5 -17.5q-47 0 -82.5 36t-35.5 83t35.5 82.5t82.5 35.5
q33 0 60.5 -17t44.5 -46v309h205v-557z" />
    <glyph glyph-name="sorusithai" unicode="&#xe29;" horiz-adv-x="748" 
d="M707 262q0 -55 -19.5 -105.5t-59.5 -89t-103.5 -61t-151.5 -22.5t-151.5 22.5t-103.5 61t-58.5 89t-18.5 105.5v557h205v-559q0 -65 36.5 -96t90.5 -31q55 0 92 31t37 96v139q-17 -28 -44.5 -45.5t-60.5 -17.5q-47 0 -82.5 36t-35.5 83t35.5 82.5t82.5 35.5
q33 0 60.5 -17t44.5 -46v309h205v-557z" />
    <glyph glyph-name="sosuathai" unicode="&#xca;" horiz-adv-x="741" 
d="M496 0v264q0 64 -39 101.5t-99 37.5q-59 0 -96 -36.5t-39 -96.5q-2 -61 39 -92t96 -18v-160l-63 -4q-70 -4 -122 14.5t-86 56t-50.5 90t-16.5 115.5q0 56 19.5 104t52.5 85t76 60.5t90 29.5q72 10 137.5 -3t100.5 -48v78q0 59 -38 81.5t-89 22.5q-47 0 -86 -25.5
t-39 -81.5h-209q0 117 85 183.5t245 66.5q36 0 71 -5t60 -13v74h204v-881h-204z" />
    <glyph glyph-name="sosuathai" unicode="&#xe2a;" horiz-adv-x="741" 
d="M496 0v264q0 64 -39 101.5t-99 37.5q-59 0 -96 -36.5t-39 -96.5q-2 -61 39 -92t96 -18v-160l-63 -4q-70 -4 -122 14.5t-86 56t-50.5 90t-16.5 115.5q0 56 19.5 104t52.5 85t76 60.5t90 29.5q72 10 137.5 -3t100.5 -48v78q0 59 -38 81.5t-89 22.5q-47 0 -86 -25.5
t-39 -81.5h-209q0 117 85 183.5t245 66.5q36 0 71 -5t60 -13v74h204v-881h-204z" />
    <glyph glyph-name="hohipthai" unicode="&#xcb;" horiz-adv-x="748" 
d="M358 649v170h349v-170h-349zM502 0v377q0 59 -24.5 92t-82.5 33q-37 0 -65.5 -17.5t-47 -43t-27.5 -55.5t-9 -56v-330h-205v819h205v-282q39 41 98 76.5t139 35.5q111 0 167.5 -62.5t56.5 -162.5v-424h-205z" />
    <glyph glyph-name="hohipthai" unicode="&#xe2b;" horiz-adv-x="748" 
d="M358 649v170h349v-170h-349zM502 0v377q0 59 -24.5 92t-82.5 33q-37 0 -65.5 -17.5t-47 -43t-27.5 -55.5t-9 -56v-330h-205v819h205v-282q39 41 98 76.5t139 35.5q111 0 167.5 -62.5t56.5 -162.5v-424h-205z" />
    <glyph glyph-name="lochulathai" unicode="&#xcc;" horiz-adv-x="905" 
d="M934 969q-8 -56 -35 -93.5t-92 -48.5q45 -10 68.5 -52t15.5 -89l-100 -686h-211l-117 500l-6 94h-4l-7 -94l-116 -500h-215l-119 819h188l47 -325q5 -29 6 -70t3 -78q2 -43 2 -90h4l24 160l107 403h155l107 -403l25 -160h4q-2 47 0 90q2 37 4 78t6 70l22 147
q7 39 -3.5 73t-65.5 42l18 123q53 0 71.5 27.5t27.5 76.5l6 41h188z" />
    <glyph glyph-name="lochulathai" unicode="&#xe2c;" horiz-adv-x="905" 
d="M934 969q-8 -56 -35 -93.5t-92 -48.5q45 -10 68.5 -52t15.5 -89l-100 -686h-211l-117 500l-6 94h-4l-7 -94l-116 -500h-215l-119 819h188l47 -325q5 -29 6 -70t3 -78q2 -43 2 -90h4l24 160l107 403h155l107 -403l25 -160h4q-2 47 0 90q2 37 4 78t6 70l22 147
q7 39 -3.5 73t-65.5 42l18 123q53 0 71.5 27.5t27.5 76.5l6 41h188z" />
    <glyph glyph-name="oangthai" unicode="&#xcd;" horiz-adv-x="774" 
d="M754 410q0 -97 -19.5 -175.5t-62.5 -134t-113 -86t-172 -30.5t-172 30.5t-113 86t-62.5 134t-19.5 175.5q0 14 1.5 38.5t3.5 36.5h354v-151h-141q0 -111 42 -153t107 -42q33 0 61.5 10.5t49 40t33 82t12.5 138.5q0 82 -13.5 134t-36 82.5t-52 42t-64.5 11.5
q-62 0 -98.5 -42t-36.5 -93h-209q6 123 96 207t258 84q100 0 170 -31t114 -86t63.5 -134t19.5 -175z" />
    <glyph glyph-name="oangthai" unicode="&#xe2d;" horiz-adv-x="774" 
d="M754 410q0 -97 -19.5 -175.5t-62.5 -134t-113 -86t-172 -30.5t-172 30.5t-113 86t-62.5 134t-19.5 175.5q0 14 1.5 38.5t3.5 36.5h354v-151h-141q0 -111 42 -153t107 -42q33 0 61.5 10.5t49 40t33 82t12.5 138.5q0 82 -13.5 134t-36 82.5t-52 42t-64.5 11.5
q-62 0 -98.5 -42t-36.5 -93h-209q6 123 96 207t258 84q100 0 170 -31t114 -86t63.5 -134t19.5 -175z" />
    <glyph glyph-name="honokhukthai" unicode="&#xce;" horiz-adv-x="774" 
d="M778 881q0 -31 -36.5 -70t-108.5 -53q65 -53 93 -142.5t28 -205.5q0 -97 -19.5 -175.5t-62.5 -134t-113 -86t-172 -30.5t-172 30.5t-113 86t-62.5 134t-19.5 175.5q0 14 1.5 38.5t3.5 36.5h354v-151h-141q0 -109 40.5 -152t108.5 -43q33 0 61.5 10.5t49 40t33 82
t12.5 138.5q0 82 -13.5 134t-36 82.5t-52 42t-64.5 11.5q-62 0 -98.5 -42t-36.5 -93h-209q6 123 96 207t258 84q72 0 121 -15q14 10 24.5 26.5t12.5 33.5h233z" />
    <glyph glyph-name="honokhukthai" unicode="&#xe2e;" horiz-adv-x="774" 
d="M778 881q0 -31 -36.5 -70t-108.5 -53q65 -53 93 -142.5t28 -205.5q0 -97 -19.5 -175.5t-62.5 -134t-113 -86t-172 -30.5t-172 30.5t-113 86t-62.5 134t-19.5 175.5q0 14 1.5 38.5t3.5 36.5h354v-151h-141q0 -109 40.5 -152t108.5 -43q33 0 61.5 10.5t49 40t33 82
t12.5 138.5q0 82 -13.5 134t-36 82.5t-52 42t-64.5 11.5q-62 0 -98.5 -42t-36.5 -93h-209q6 123 96 207t258 84q72 0 121 -15q14 10 24.5 26.5t12.5 33.5h233z" />
    <glyph glyph-name="paiyannoithai" unicode="&#xcf;" horiz-adv-x="696" 
d="M451 0v578q-13 -17 -32.5 -36.5t-46 -36t-59 -27.5t-73.5 -11q-97 0 -158.5 50t-61.5 145q0 69 48.5 116t124.5 45l73 -2v-133q-16 2 -30.5 -8t-14.5 -27q0 -20 21.5 -31.5t48.5 -11.5q69 2 114.5 50.5t45.5 158.5h204v-819h-204z" />
    <glyph glyph-name="paiyannoithai" unicode="&#xe2f;" horiz-adv-x="696" 
d="M451 0v578q-13 -17 -32.5 -36.5t-46 -36t-59 -27.5t-73.5 -11q-97 0 -158.5 50t-61.5 145q0 69 48.5 116t124.5 45l73 -2v-133q-16 2 -30.5 -8t-14.5 -27q0 -20 21.5 -31.5t48.5 -11.5q69 2 114.5 50.5t45.5 158.5h204v-819h-204z" />
    <glyph glyph-name="saraathai" unicode="&#xd0;" horiz-adv-x="420" 
d="M31 508v229h194v-75h174v-154h-368zM31 82v229h194v-75h174v-154h-368z" />
    <glyph glyph-name="saraathai" unicode="&#xe30;" horiz-adv-x="420" 
d="M31 508v229h194v-75h174v-154h-368zM31 82v229h194v-75h174v-154h-368z" />
    <glyph glyph-name="maihanakatthai" unicode="&#xd1;" 
d="M-455 922v204h205v-82h359v-122h-564z" />
    <glyph glyph-name="maihanakatthai" unicode="&#xe31;" 
d="M-455 922v204h205v-82h359v-122h-564z" />
    <glyph glyph-name="saraaathai" unicode="&#xd2;" horiz-adv-x="492" 
d="M246 0v457q0 43 -8.5 79.5t-28 64.5t-53 43t-84.5 15h-72v160h180q133 0 202 -81t69 -203v-535h-205z" />
    <glyph glyph-name="saraaathai" unicode="&#xe32;" horiz-adv-x="492" 
d="M246 0v457q0 43 -8.5 79.5t-28 64.5t-53 43t-84.5 15h-72v160h180q133 0 202 -81t69 -203v-535h-205z" />
    <glyph glyph-name="saraamthai" unicode="&#xd3;" horiz-adv-x="602" 
d="M-211 1010q0 -54 -38 -89.5t-111 -35.5q-74 0 -112 35.5t-38 89.5q0 53 38 89t112 36q73 0 111 -36t38 -89zM246 0v457q0 43 -8.5 79.5t-28 64.5t-53 43t-84.5 15h-72v160h180q133 0 202 -81t69 -203v-535h-205z" />
    <glyph glyph-name="saraamthai" unicode="&#xe33;" horiz-adv-x="602" 
d="M-211 1010q0 -54 -38 -89.5t-111 -35.5q-74 0 -112 35.5t-38 89.5q0 53 38 89t112 36q73 0 111 -36t38 -89zM246 0v457q0 43 -8.5 79.5t-28 64.5t-53 43t-84.5 15h-72v160h180q133 0 202 -81t69 -203v-535h-205z" />
    <glyph glyph-name="saraithai" unicode="&#xd4;" 
d="M-666 922v122h625v-122h-625z" />
    <glyph glyph-name="saraithai" unicode="&#xe34;" 
d="M-666 922v122h625v-122h-625z" />
    <glyph glyph-name="saraiithai" unicode="&#xd5;" 
d="M-666 922v122h420v103h205v-225h-625z" />
    <glyph glyph-name="saraiithai" unicode="&#xe35;" 
d="M-666 922v122h420v103h205v-225h-625z" />
    <glyph glyph-name="sarauethai" unicode="&#xd6;" 
d="M-14 1038q0 -47 -33 -81.5t-96 -34.5h-523v122h394q2 48 34.5 79.5t94.5 31.5q63 0 96 -35t33 -82z" />
    <glyph glyph-name="sarauethai" unicode="&#xe36;" 
d="M-14 1038q0 -47 -33 -81.5t-96 -34.5h-523v122h394q2 48 34.5 79.5t94.5 31.5q63 0 96 -35t33 -82z" />
    <glyph glyph-name="saraueethai" unicode="&#xd7;" 
d="M-666 922v122h236v103h123v-103h61v103h205v-225h-625z" />
    <glyph glyph-name="saraueethai" unicode="&#xe37;" 
d="M-666 922v122h236v103h123v-103h61v103h205v-225h-625z" />
    <glyph glyph-name="sarauthai" unicode="&#xd8;" 
d="M-246 -328v150h-71v117h276v-267h-205z" />
    <glyph glyph-name="sarauthai" unicode="&#xe38;" 
d="M-246 -328v150h-71v117h276v-267h-205z" />
    <glyph glyph-name="sarauuthai" unicode="&#xd9;" 
d="M-92 -168q0 -84 -56.5 -127t-189.5 -43q-139 0 -192.5 41t-53.5 119h-39v117h224v-113q0 -25 14 -34t37 -9q20 0 35.5 9t15.5 34v113h205v-107z" />
    <glyph glyph-name="sarauuthai" unicode="&#xe39;" 
d="M-92 -168q0 -84 -56.5 -127t-189.5 -43q-139 0 -192.5 41t-53.5 119h-39v117h224v-113q0 -25 14 -34t37 -9q20 0 35.5 9t15.5 34v113h205v-107z" />
    <glyph glyph-name="phinthuthai" unicode="&#xda;" 
d="M-246 -264v203h205v-203h-205z" />
    <glyph glyph-name="phinthuthai" unicode="&#xe3a;" 
d="M-246 -264v203h205v-203h-205z" />
    <glyph glyph-name="PU2005.003" unicode="&#xdb;" 
 />
    <glyph glyph-name="PU2005.003" unicode="&#xe3b;" 
 />
    <glyph glyph-name="PU2005.002" unicode="&#xdc;" 
 />
    <glyph glyph-name="PU2005.002" unicode="&#xe3c;" 
 />
    <glyph glyph-name="PU2005.001" unicode="&#xdd;" 
 />
    <glyph glyph-name="PU2005.001" unicode="&#xe3d;" 
 />
    <glyph glyph-name="bahtthai" unicode="&#xdf;" horiz-adv-x="948" 
d="M897 301q0 -86 -28.5 -144.5t-78 -93t-115 -49t-140.5 -14.5h-41v-141h-62v141h-348v965h348v143h62v-143h28q62 2 122.5 -7.5t108.5 -37t77.5 -74.5t29.5 -123q0 -66 -33.5 -116t-89.5 -79q74 -22 117 -83.5t43 -143.5zM616 678q0 53 -30.5 72.5t-69.5 19.5h-22v-184h22
q33 0 66.5 19.5t33.5 72.5zM432 770h-104v-184h104v184zM653 309q0 66 -37.5 90.5t-93.5 24.5h-28v-223h28q60 0 95.5 24.5t35.5 83.5zM432 424h-104v-223h104v223z" />
    <glyph glyph-name="bahtthai" unicode="&#xe3f;" horiz-adv-x="948" 
d="M897 301q0 -86 -28.5 -144.5t-78 -93t-115 -49t-140.5 -14.5h-41v-141h-62v141h-348v965h348v143h62v-143h28q62 2 122.5 -7.5t108.5 -37t77.5 -74.5t29.5 -123q0 -66 -33.5 -116t-89.5 -79q74 -22 117 -83.5t43 -143.5zM616 678q0 53 -30.5 72.5t-69.5 19.5h-22v-184h22
q33 0 66.5 19.5t33.5 72.5zM432 770h-104v-184h104v184zM653 309q0 66 -37.5 90.5t-93.5 24.5h-28v-223h28q60 0 95.5 24.5t35.5 83.5zM432 424h-104v-223h104v223z" />
    <glyph glyph-name="saraethai" unicode="&#xe0;" horiz-adv-x="328" 
d="M61 0v819h205v-819h-205z" />
    <glyph glyph-name="saraethai" unicode="&#xe40;" horiz-adv-x="328" 
d="M61 0v819h205v-819h-205z" />
    <glyph glyph-name="saraaethai" unicode="&#xe1;" horiz-adv-x="614" 
d="M348 0v819h205v-819h-205zM61 0v819h205v-819h-205z" />
    <glyph glyph-name="saraaethai" unicode="&#xe41;" horiz-adv-x="614" 
d="M348 0v819h205v-819h-205zM61 0v819h205v-819h-205z" />
    <glyph glyph-name="saraothai" unicode="&#xe2;" horiz-adv-x="369" 
d="M526 1098q-41 -11 -106 -11q-39 0 -70 3.5t-53.5 4.5t-34.5 -3.5t-12 -20.5q0 -24 18.5 -44.5t18.5 -63.5v-963h-205v948q0 35 -7 58.5t-16.5 42t-17.5 36t-10 41.5q-4 60 43 97t119 37q36 0 64 -5.5t53.5 -11.5l51 -12t60.5 -8t59.5 -1t44.5 5v-129z" />
    <glyph glyph-name="saraothai" unicode="&#xe42;" horiz-adv-x="369" 
d="M526 1098q-41 -11 -106 -11q-39 0 -70 3.5t-53.5 4.5t-34.5 -3.5t-12 -20.5q0 -24 18.5 -44.5t18.5 -63.5v-963h-205v948q0 35 -7 58.5t-16.5 42t-17.5 36t-10 41.5q-4 60 43 97t119 37q36 0 64 -5.5t53.5 -11.5l51 -12t60.5 -8t59.5 -1t44.5 5v-129z" />
    <glyph glyph-name="saraaimaimuanthai" unicode="&#xe3;" horiz-adv-x="369" 
d="M373 1120q2 -49 -11.5 -76.5t-30 -48t-30.5 -42t-14 -56.5v-897h-205v918q0 34 14.5 54.5t31.5 36t31.5 33t14.5 43.5q0 23 -13.5 39.5t-45.5 16.5h-4q-31 0 -46.5 -16.5t-15.5 -39.5q0 -8 4 -20q2 -6 2 -10h-176q-2 10 -4 18t-2 17.5v19.5q0 78 60.5 119t164.5 41h54
q116 0 167.5 -41t53.5 -109z" />
    <glyph glyph-name="saraaimaimuanthai" unicode="&#xe43;" horiz-adv-x="369" 
d="M373 1120q2 -49 -11.5 -76.5t-30 -48t-30.5 -42t-14 -56.5v-897h-205v918q0 34 14.5 54.5t31.5 36t31.5 33t14.5 43.5q0 23 -13.5 39.5t-45.5 16.5h-4q-31 0 -46.5 -16.5t-15.5 -39.5q0 -8 4 -20q2 -6 2 -10h-176q-2 10 -4 18t-2 17.5v19.5q0 78 60.5 119t164.5 41h54
q116 0 167.5 -41t53.5 -109z" />
    <glyph glyph-name="saraaimaimalaithai" unicode="&#xe4;" horiz-adv-x="369" 
d="M332 1157q0 -27 -7.5 -46t-15.5 -35.5t-15 -36t-7 -48.5v-991h-205v993q0 23 6 34t12 20.5t12.5 17.5t6.5 20q0 15 -10.5 18t-30 2t-46 -4t-59.5 -3q-30 0 -66 8t-54 18v127q22 -8 58 -16t71 -8q28 0 48.5 5t43 11t49.5 11.5t65 5.5q72 0 108 -31t36 -72z" />
    <glyph glyph-name="saraaimaimalaithai" unicode="&#xe44;" horiz-adv-x="369" 
d="M332 1157q0 -27 -7.5 -46t-15.5 -35.5t-15 -36t-7 -48.5v-991h-205v993q0 23 6 34t12 20.5t12.5 17.5t6.5 20q0 15 -10.5 18t-30 2t-46 -4t-59.5 -3q-30 0 -66 8t-54 18v127q22 -8 58 -16t71 -8q28 0 48.5 5t43 11t49.5 11.5t65 5.5q72 0 108 -31t36 -72z" />
    <glyph glyph-name="lakkhangyaothai" unicode="&#xe5;" horiz-adv-x="492" 
d="M246 -246v703q0 43 -8.5 79.5t-28 64.5t-53 43t-84.5 15h-72v160h180q133 0 202 -81t69 -203v-781h-205z" />
    <glyph glyph-name="lakkhangyaothai" unicode="&#xe45;" horiz-adv-x="492" 
d="M246 -246v703q0 43 -8.5 79.5t-28 64.5t-53 43t-84.5 15h-72v160h180q133 0 202 -81t69 -203v-781h-205z" />
    <glyph glyph-name="maiyamokthai" unicode="&#xe6;" horiz-adv-x="717" 
d="M471 -246v912l-104 -105l-99 90q-16 0 -28.5 -15t-12.5 -50q0 -37 18.5 -55.5t57.5 -12.5v-151l-33 -5q-120 -16 -185 38.5t-65 179.5q0 45 10.5 88t35 76.5t66.5 54t104 20.5h32l103 -90l98 90h207v-1065h-205z" />
    <glyph glyph-name="maiyamokthai" unicode="&#xe46;" horiz-adv-x="717" 
d="M471 -246v912l-104 -105l-99 90q-16 0 -28.5 -15t-12.5 -50q0 -37 18.5 -55.5t57.5 -12.5v-151l-33 -5q-120 -16 -185 38.5t-65 179.5q0 45 10.5 88t35 76.5t66.5 54t104 20.5h32l103 -90l98 90h207v-1065h-205z" />
    <glyph glyph-name="maitaikhuthai" unicode="&#xe7;" 
d="M-248 922l-80 59l-84 -59h-217v90q0 73 46 124.5t157 51.5h311v-94h-258q-45 0 -63.5 -18.5t-18.5 -43.5v-14h33l94 61l95 -61h118v-96h-133z" />
    <glyph glyph-name="maitaikhuthai" unicode="&#xe47;" 
d="M-248 922l-80 59l-84 -59h-217v90q0 73 46 124.5t157 51.5h311v-94h-258q-45 0 -63.5 -18.5t-18.5 -43.5v-14h33l94 61l95 -61h118v-96h-133z" />
    <glyph glyph-name="maiekthai" unicode="&#xe8;" 
d="M-246 1198v164h205v-164h-205z" />
    <glyph glyph-name="maiekthai" unicode="&#xe48;" 
d="M-246 1198v164h205v-164h-205z" />
    <glyph glyph-name="maithothai" unicode="&#xe9;" 
d="M-344 1198v49q0 21 -4 32t-33 11h-18v111h127q61 0 86.5 -22.5t25.5 -59.5v-10h195v-111h-379z" />
    <glyph glyph-name="maithothai" unicode="&#xe49;" 
d="M-344 1198v49q0 21 -4 32t-33 11h-18v111h127q61 0 86.5 -22.5t25.5 -59.5v-10h195v-111h-379z" />
    <glyph glyph-name="maitrithai" unicode="&#xea;" 
d="M-143 1198v92l-68 -53l-65 53v-92h-158v74q0 59 32.5 93t102.5 34h23l65 -51l66 51h24q135 0 135 -94v-11h76v-96h-233z" />
    <glyph glyph-name="maitrithai" unicode="&#xe4a;" 
d="M-143 1198v92l-68 -53l-65 53v-92h-158v74q0 59 32.5 93t102.5 34h23l65 -51l66 51h24q135 0 135 -94v-11h76v-96h-233z" />
    <glyph glyph-name="maichattawathai" unicode="&#xeb;" 
d="M-61 1260v-62h-164v62h-68v81h68v62h164v-62h67v-81h-67z" />
    <glyph glyph-name="maichattawathai" unicode="&#xe4b;" 
d="M-61 1260v-62h-164v62h-68v81h68v62h164v-62h67v-81h-67z" />
    <glyph glyph-name="thanthakhatthai" unicode="&#xec;" 
d="M-76 1180q-35 0 -46 -13.5t-11 -40.5v-20h-184v51q0 41 12 67.5t36.5 41t59.5 19.5t80 5h88v-110h-35z" />
    <glyph glyph-name="thanthakhatthai" unicode="&#xe4c;" 
d="M-76 1180q-35 0 -46 -13.5t-11 -40.5v-20h-184v51q0 41 12 67.5t36.5 41t59.5 19.5t80 5h88v-110h-35z" />
    <glyph glyph-name="nikhahitthai" unicode="&#xed;" 
d="M6 1036q0 -53 -38 -89t-111 -36q-74 0 -112 36t-38 89q0 54 38 89.5t112 35.5q73 0 111 -35.5t38 -89.5z" />
    <glyph glyph-name="nikhahitthai" unicode="&#xe4d;" 
d="M6 1036q0 -53 -38 -89t-111 -36q-74 0 -112 36t-38 89q0 54 38 89.5t112 35.5q73 0 111 -35.5t38 -89.5z" />
    <glyph glyph-name="yamakkanthai" unicode="&#xee;" 
d="M-326 1233q-30 24 -30 59q0 72 92 119q78 41 153 41q66 0 127 -20q23 -9 23 -29q0 -33 -31 -33q-6 0 -10 2q-53 19 -109 19q-47 0 -108 -27q-76 -33 -76 -72q0 -14 78 -43q22 -8 22 -28q0 -31 -30 -31q-4 0 -11.5 1t-11.5 1q-37 0 -80 -33t-43 -59q0 -33 29 -53.5
t72 -20.5q82 0 116 61q11 17 27 17q33 0 33 -31q0 -6 -4 -14q-54 -94 -172 -94q-60 0 -107 30q-55 39 -55 105q0 82 106 133z" />
    <glyph glyph-name="yamakkanthai" unicode="&#xe4e;" 
d="M-326 1233q-30 24 -30 59q0 72 92 119q78 41 153 41q66 0 127 -20q23 -9 23 -29q0 -33 -31 -33q-6 0 -10 2q-53 19 -109 19q-47 0 -108 -27q-76 -33 -76 -72q0 -14 78 -43q22 -8 22 -28q0 -31 -30 -31q-4 0 -11.5 1t-11.5 1q-37 0 -80 -33t-43 -59q0 -33 29 -53.5
t72 -20.5q82 0 116 61q11 17 27 17q33 0 33 -31q0 -6 -4 -14q-54 -94 -172 -94q-60 0 -107 30q-55 39 -55 105q0 82 106 133z" />
    <glyph glyph-name="fongmanthai" unicode="&#xef;" horiz-adv-x="942" 
d="M891 410q0 -86 -33 -163t-90 -134.5t-134 -90t-163 -32.5t-163 32.5t-134 90t-90 134.5t-33 163t33 162.5t90 134t134 90t163 32.5t163 -32.5t134 -90t90 -134t33 -162.5zM829 410q0 73 -28.5 138.5t-76.5 114t-113.5 77t-139.5 28.5t-139.5 -28.5t-113.5 -77t-76.5 -114
t-28.5 -138.5q0 -74 28.5 -139.5t76.5 -113.5t113.5 -77t139.5 -29t139.5 29t113.5 77t76.5 113.5t28.5 139.5zM727 410q0 -54 -20.5 -100t-55.5 -80.5t-81 -55t-99 -20.5t-99 20.5t-81 55t-55.5 80.5t-20.5 100q0 53 20.5 99t55.5 81t81 55.5t99 20.5t99 -20.5t81 -55.5
t55.5 -81t20.5 -99z" />
    <glyph glyph-name="fongmanthai" unicode="&#xe4f;" horiz-adv-x="942" 
d="M891 410q0 -86 -33 -163t-90 -134.5t-134 -90t-163 -32.5t-163 32.5t-134 90t-90 134.5t-33 163t33 162.5t90 134t134 90t163 32.5t163 -32.5t134 -90t90 -134t33 -162.5zM829 410q0 73 -28.5 138.5t-76.5 114t-113.5 77t-139.5 28.5t-139.5 -28.5t-113.5 -77t-76.5 -114
t-28.5 -138.5q0 -74 28.5 -139.5t76.5 -113.5t113.5 -77t139.5 -29t139.5 29t113.5 77t76.5 113.5t28.5 139.5zM727 410q0 -54 -20.5 -100t-55.5 -80.5t-81 -55t-99 -20.5t-99 20.5t-81 55t-55.5 80.5t-20.5 100q0 53 20.5 99t55.5 81t81 55.5t99 20.5t99 -20.5t81 -55.5
t55.5 -81t20.5 -99z" />
    <glyph glyph-name="zerothai" unicode="&#xf0;" horiz-adv-x="696" 
d="M676 307q0 -67 -20.5 -124.5t-61.5 -100.5t-102.5 -67.5t-143.5 -24.5t-143.5 24.5t-102.5 67.5t-61.5 100.5t-20.5 124.5q0 68 20.5 125t61.5 100t102.5 68t143.5 25t143.5 -25t102.5 -68t61.5 -100t20.5 -125zM498 307q0 70 -39 117t-111 47t-110.5 -47t-38.5 -117
q0 -69 38.5 -116.5t110.5 -47.5t111 47.5t39 116.5z" />
    <glyph glyph-name="zerothai" unicode="&#xe50;" horiz-adv-x="696" 
d="M676 307q0 -67 -20.5 -124.5t-61.5 -100.5t-102.5 -67.5t-143.5 -24.5t-143.5 24.5t-102.5 67.5t-61.5 100.5t-20.5 124.5q0 68 20.5 125t61.5 100t102.5 68t143.5 25t143.5 -25t102.5 -68t61.5 -100t20.5 -125zM498 307q0 70 -39 117t-111 47t-110.5 -47t-38.5 -117
q0 -69 38.5 -116.5t110.5 -47.5t111 47.5t39 116.5z" />
    <glyph glyph-name="onethai" unicode="&#xf1;" horiz-adv-x="696" 
d="M676 303q-4 -153 -110.5 -237t-276.5 -86q-47 -3 -86 1.5t-68 8.5q-33 6 -57 10l-41 150q35 -11 72 -19q32 -8 74 -13t85 -1q113 8 170.5 61t59.5 125q2 78 -41 121t-121 43q-60 0 -98.5 -23.5t-38.5 -64.5q0 -35 35.5 -51.5t93.5 2.5v-150l-29 -4q-57 -8 -108.5 -2
t-89.5 30.5t-59.5 67.5t-21.5 109q0 59 26 104t69 76t101 47.5t124 16.5q172 0 256 -88t80 -234z" />
    <glyph glyph-name="onethai" unicode="&#xe51;" horiz-adv-x="696" 
d="M676 303q-4 -153 -110.5 -237t-276.5 -86q-47 -3 -86 1.5t-68 8.5q-33 6 -57 10l-41 150q35 -11 72 -19q32 -8 74 -13t85 -1q113 8 170.5 61t59.5 125q2 78 -41 121t-121 43q-60 0 -98.5 -23.5t-38.5 -64.5q0 -35 35.5 -51.5t93.5 2.5v-150l-29 -4q-57 -8 -108.5 -2
t-89.5 30.5t-59.5 67.5t-21.5 109q0 59 26 104t69 76t101 47.5t124 16.5q172 0 256 -88t80 -234z" />
    <glyph glyph-name="twothai" unicode="&#xf2;" horiz-adv-x="918" 
d="M41 0v598q0 47 -16.5 83t-44.5 62l149 86q33 -22 58.5 -61t25.5 -96v-533h492v334l-99 -98l-92 92q-27 0 -48.5 -19.5t-19.5 -66.5q3 -47 29.5 -61.5t67.5 -10.5v-129l-35 -2q-129 -8 -179 37t-55 158q-4 129 48.5 185t138.5 56h59l88 -88l82 88h187v-614h-836z" />
    <glyph glyph-name="twothai" unicode="&#xe52;" horiz-adv-x="918" 
d="M41 0v598q0 47 -16.5 83t-44.5 62l149 86q33 -22 58.5 -61t25.5 -96v-533h492v334l-99 -98l-92 92q-27 0 -48.5 -19.5t-19.5 -66.5q3 -47 29.5 -61.5t67.5 -10.5v-129l-35 -2q-129 -8 -179 37t-55 158q-4 129 48.5 185t138.5 56h59l88 -88l82 88h187v-614h-836z" />
    <glyph glyph-name="threethai" unicode="&#xf3;" horiz-adv-x="711" 
d="M492 0v459l-111 -101l-113 101q-20 0 -40.5 -36t-20.5 -124q0 -51 9 -82t26.5 -46t40 -18t47.5 -1v-154l-54 -2q-77 -4 -127.5 18.5t-79 62.5t-39 96t-10.5 124q0 162 57.5 239.5t149.5 77.5h49l105 -88l94 88h195v-614h-178z" />
    <glyph glyph-name="threethai" unicode="&#xe53;" horiz-adv-x="711" 
d="M492 0v459l-111 -101l-113 101q-20 0 -40.5 -36t-20.5 -124q0 -51 9 -82t26.5 -46t40 -18t47.5 -1v-154l-54 -2q-77 -4 -127.5 18.5t-79 62.5t-39 96t-10.5 124q0 162 57.5 239.5t149.5 77.5h49l105 -88l94 88h195v-614h-178z" />
    <glyph glyph-name="fourthai" unicode="&#xf4;" horiz-adv-x="737" 
d="M403 455q-104 0 -154 -42t-50 -118q0 -86 50 -114.5t148 -30.5q-28 16 -44.5 43.5t-16.5 62.5q0 53 36 88t87 35t87 -35t36 -88q0 -35 -16.5 -62.5t-45.5 -43.5h176v-150h-370q-142 0 -224 67.5t-82 221.5q0 147 87.5 231t240.5 84h191v215h178v-364h-314z" />
    <glyph glyph-name="fourthai" unicode="&#xe54;" horiz-adv-x="737" 
d="M403 455q-104 0 -154 -42t-50 -118q0 -86 50 -114.5t148 -30.5q-28 16 -44.5 43.5t-16.5 62.5q0 53 36 88t87 35t87 -35t36 -88q0 -35 -16.5 -62.5t-45.5 -43.5h176v-150h-370q-142 0 -224 67.5t-82 221.5q0 147 87.5 231t240.5 84h191v215h178v-364h-314z" />
    <glyph glyph-name="fivethai" unicode="&#xf5;" horiz-adv-x="758" 
d="M403 455q-104 0 -154 -42t-50 -118q0 -86 50 -114.5t148 -30.5q-28 16 -44.5 43.5t-16.5 62.5q0 53 36 88t87 35t87 -35t36 -88q0 -35 -16.5 -62.5t-45.5 -43.5h176v-150h-370q-142 0 -224 67.5t-82 221.5q0 129 69 211t192 100q-48 31 -48 90q0 47 37 83t99 36
q61 0 98 -36t37 -83q0 -51 -41 -86h96v215h178v-364h-334z" />
    <glyph glyph-name="fivethai" unicode="&#xe55;" horiz-adv-x="758" 
d="M403 455q-104 0 -154 -42t-50 -118q0 -86 50 -114.5t148 -30.5q-28 16 -44.5 43.5t-16.5 62.5q0 53 36 88t87 35t87 -35t36 -88q0 -35 -16.5 -62.5t-45.5 -43.5h176v-150h-370q-142 0 -224 67.5t-82 221.5q0 129 69 211t192 100q-48 31 -48 90q0 47 37 83t99 36
q61 0 98 -36t37 -83q0 -51 -41 -86h96v215h178v-364h-334z" />
    <glyph glyph-name="sixthai" unicode="&#xf6;" horiz-adv-x="696" 
d="M676 303q0 -172 -87 -242.5t-239 -70.5q-143 0 -223 57t-86 195h180q6 -62 44 -86.5t91 -24.5q62 0 102 43t40 129q0 74 -37 119t-109 47q-53 2 -84.5 -19.5t-46.5 -41.5h-180v190q0 47 -16.5 83t-44.5 62l149 86q33 -22 58.5 -62t25.5 -95v-148q23 37 74 64.5t108 27.5
q78 0 131.5 -22.5t86 -64.5t48 -99t15.5 -127z" />
    <glyph glyph-name="sixthai" unicode="&#xe56;" horiz-adv-x="696" 
d="M676 303q0 -172 -87 -242.5t-239 -70.5q-143 0 -223 57t-86 195h180q6 -62 44 -86.5t91 -24.5q62 0 102 43t40 129q0 74 -37 119t-109 47q-53 2 -84.5 -19.5t-46.5 -41.5h-180v190q0 47 -16.5 83t-44.5 62l149 86q33 -22 58.5 -62t25.5 -95v-148q23 37 74 64.5t108 27.5
q78 0 131.5 -22.5t86 -64.5t48 -99t15.5 -127z" />
    <glyph glyph-name="seventhai" unicode="&#xf7;" horiz-adv-x="961" 
d="M981 745q-27 -24 -44 -57t-17 -80v-387q0 -117 -59.5 -169t-174.5 -52h-194v459l-111 -101l-113 101q-20 0 -40.5 -36t-20.5 -124q0 -51 9 -82t26.5 -46t40 -18t47.5 -1v-154l-54 -2q-77 -4 -127.5 18.5t-79 62.5t-39 96t-10.5 124q0 162 57.5 239.5t149.5 77.5h49
l105 -88l94 88h195v-462q45 0 63.5 26.5t18.5 77.5v393q0 76 29.5 118t60.5 62z" />
    <glyph glyph-name="seventhai" unicode="&#xe57;" horiz-adv-x="961" 
d="M981 745q-27 -24 -44 -57t-17 -80v-387q0 -117 -59.5 -169t-174.5 -52h-194v459l-111 -101l-113 101q-20 0 -40.5 -36t-20.5 -124q0 -51 9 -82t26.5 -46t40 -18t47.5 -1v-154l-54 -2q-77 -4 -127.5 18.5t-79 62.5t-39 96t-10.5 124q0 162 57.5 239.5t149.5 77.5h49
l105 -88l94 88h195v-462q45 0 63.5 26.5t18.5 77.5v393q0 76 29.5 118t60.5 62z" />
    <glyph glyph-name="eightthai" unicode="&#xf8;" horiz-adv-x="711" 
d="M475 0l-113 106l-94 -106h-61q-74 0 -130.5 73.5t-56.5 227.5q0 68 15.5 123t49.5 95t89 62.5t135 22.5h183v215h178v-364h-308q-86 0 -124.5 -38t-38.5 -116q0 -39 7 -63.5t16 -39t20.5 -19.5t19.5 -7l103 102l127 -110v137h178v-301h-195z" />
    <glyph glyph-name="eightthai" unicode="&#xe58;" horiz-adv-x="711" 
d="M475 0l-113 106l-94 -106h-61q-74 0 -130.5 73.5t-56.5 227.5q0 68 15.5 123t49.5 95t89 62.5t135 22.5h183v215h178v-364h-308q-86 0 -124.5 -38t-38.5 -116q0 -39 7 -63.5t16 -39t20.5 -19.5t19.5 -7l103 102l127 -110v137h178v-301h-195z" />
    <glyph glyph-name="ninethai" unicode="&#xf9;" horiz-adv-x="803" 
d="M844 741q-29 -20 -45.5 -51t-16.5 -78v-157h-159q-29 0 -46.5 -22.5t-24.5 -55.5t-6 -69t11 -60l96 -248h-176l-172 455q-22 0 -41.5 -6.5t-34 -22.5t-22.5 -47t-8 -78q0 -98 30.5 -127t100.5 -24v-152l-54 -2q-79 -4 -129.5 18.5t-78 62.5t-38 97t-10.5 125
q0 156 58.5 231.5t187.5 75.5h156l39 -98l10 22q16 35 40 55.5t69 20.5h24v72q0 59 30 98t71 53z" />
    <glyph glyph-name="ninethai" unicode="&#xe59;" horiz-adv-x="803" 
d="M844 741q-29 -20 -45.5 -51t-16.5 -78v-157h-159q-29 0 -46.5 -22.5t-24.5 -55.5t-6 -69t11 -60l96 -248h-176l-172 455q-22 0 -41.5 -6.5t-34 -22.5t-22.5 -47t-8 -78q0 -98 30.5 -127t100.5 -24v-152l-54 -2q-79 -4 -129.5 18.5t-78 62.5t-38 97t-10.5 125
q0 156 58.5 231.5t187.5 75.5h156l39 -98l10 22q16 35 40 55.5t69 20.5h24v72q0 59 30 98t71 53z" />
    <glyph glyph-name="angkhankhuthai" unicode="&#xfa;" horiz-adv-x="897" 
d="M487 0v684q0 14 -6 26.5t-22 10.5q-19 -2 -26 -17.5t-12 -42t-12.5 -63.5t-25.5 -80q-8 -20 -25.5 -48t-43 -50.5t-59.5 -36.5t-75 -10q-78 8 -108.5 56t-26.5 101q4 60 43 98t96 40q23 0 37.5 -2t24.5 -7q10 -4 18 -8v-86q0 -2 -16.5 9.5t-50.5 7.5q-25 -2 -40.5 -20.5
t-19.5 -40t3 -42t26 -28.5q53 -23 97 -1.5t79 119.5q23 66 28 122.5t40 94.5q18 23 44.5 28t59.5 5h90v-819h-117zM680 0v817h117v-817h-117z" />
    <glyph glyph-name="angkhankhuthai" unicode="&#xe5a;" horiz-adv-x="897" 
d="M487 0v684q0 14 -6 26.5t-22 10.5q-19 -2 -26 -17.5t-12 -42t-12.5 -63.5t-25.5 -80q-8 -20 -25.5 -48t-43 -50.5t-59.5 -36.5t-75 -10q-78 8 -108.5 56t-26.5 101q4 60 43 98t96 40q23 0 37.5 -2t24.5 -7q10 -4 18 -8v-86q0 -2 -16.5 9.5t-50.5 7.5q-25 -2 -40.5 -20.5
t-19.5 -40t3 -42t26 -28.5q53 -23 97 -1.5t79 119.5q23 66 28 122.5t40 94.5q18 23 44.5 28t59.5 5h90v-819h-117zM680 0v817h117v-817h-117z" />
    <glyph glyph-name="khomutthai" unicode="&#xfb;" horiz-adv-x="1352" 
d="M424 393q-33 -43 -80 -43q-43 0 -70 37q-24 33 -24 78t25.5 79t68.5 34q31 0 53 -21q0 61 -28.5 97t-71.5 36q-57 0 -98 -61q-45 -72 -41 -195q4 -125 57 -196q49 -68 123 -68q88 0 151 100q70 115 66 308q-2 36 29 36q18 0 28 -24l74 -164l43 137q10 27 31 27
q20 0 28 -27l41 -112q48 114 66 114q16 0 70 -112q49 88 63 88q16 0 64 -70q20 41 38 41h95q30 0 30 -31q0 -30 -30 -30h-74q-35 -76 -51 -76q-17 0 -68 74q-53 -99 -69 -99q-19 0 -66 103q-51 -129 -76 -129q-12 0 -22 26l-37 105q-49 -156 -74 -156q-12 0 -24 27l-56 123
q-20 -166 -102 -259q-74 -84 -168 -84q-96 0 -164 84q-74 91 -80 242q0 156 62 244q57 74 141 74q68 0 115 -50q51 -53 51 -139q6 -106 -39 -168zM301 465q0 -16 5 -29.5t15.5 -20.5t20.5 -7q12 0 22.5 7t15.5 20.5t5 29.5q0 14 -5 28.5t-15.5 21.5t-22.5 7q-10 0 -20.5 -7
t-15.5 -21.5t-5 -28.5z" />
    <glyph glyph-name="khomutthai" unicode="&#xe5b;" horiz-adv-x="1352" 
d="M424 393q-33 -43 -80 -43q-43 0 -70 37q-24 33 -24 78t25.5 79t68.5 34q31 0 53 -21q0 61 -28.5 97t-71.5 36q-57 0 -98 -61q-45 -72 -41 -195q4 -125 57 -196q49 -68 123 -68q88 0 151 100q70 115 66 308q-2 36 29 36q18 0 28 -24l74 -164l43 137q10 27 31 27
q20 0 28 -27l41 -112q48 114 66 114q16 0 70 -112q49 88 63 88q16 0 64 -70q20 41 38 41h95q30 0 30 -31q0 -30 -30 -30h-74q-35 -76 -51 -76q-17 0 -68 74q-53 -99 -69 -99q-19 0 -66 103q-51 -129 -76 -129q-12 0 -22 26l-37 105q-49 -156 -74 -156q-12 0 -24 27l-56 123
q-20 -166 -102 -259q-74 -84 -168 -84q-96 0 -164 84q-74 91 -80 242q0 156 62 244q57 74 141 74q68 0 115 -50q51 -53 51 -139q6 -106 -39 -168zM301 465q0 -16 5 -29.5t15.5 -20.5t20.5 -7q12 0 22.5 7t15.5 20.5t5 29.5q0 14 -5 28.5t-15.5 21.5t-22.5 7q-10 0 -20.5 -7
t-15.5 -21.5t-5 -28.5z" />
    <glyph glyph-name="saraulowthai" unicode="&#xfc;" 
d="M-246 -635v150h-71v116h276v-266h-205z" />
    <glyph glyph-name="saraulowthai" unicode="&#xf718;" 
d="M-246 -635v150h-71v116h276v-266h-205z" />
    <glyph glyph-name="sarauulowthai" unicode="&#xfd;" 
d="M-92 -475q0 -84 -56.5 -127t-189.5 -43q-139 0 -192.5 41t-53.5 119h-39v116h224v-112q0 -25 14 -34t37 -9q20 0 35.5 9t15.5 34v112h205v-106z" />
    <glyph glyph-name="sarauulowthai" unicode="&#xf719;" 
d="M-92 -475q0 -84 -56.5 -127t-189.5 -43q-139 0 -192.5 41t-53.5 119h-39v116h224v-112q0 -25 14 -34t37 -9q20 0 35.5 9t15.5 34v112h205v-106z" />
    <glyph glyph-name="phinthulowthai" unicode="&#xfe;" 
d="M-246 -571v202h205v-202h-205z" />
    <glyph glyph-name="phinthulowthai" unicode="&#xf71a;" 
d="M-246 -571v202h205v-202h-205z" />
    <glyph glyph-name="Naipol" unicode="&#xff;" horiz-adv-x="1942" 
 />
    <glyph glyph-name="dochadathai.short" unicode="&#x12a;" horiz-adv-x="864" 
d="M494 -281l-110 82l-111 -82h-162v170h179l94 65l94 -65h94v662q0 72 -35.5 103.5t-93.5 31.5q-41 0 -77.5 -21.5t-49.5 -72.5l62 -55q-21 -13 -41.5 -34.5t-20.5 -56.5v-446h-266v154h61v280q0 35 22.5 62.5t49.5 40.5l-78 57q4 41 25.5 84t62.5 78t102.5 57.5
t147.5 22.5q92 0 156.5 -24t103.5 -62.5t56.5 -90t17.5 -108.5v-832h-283z" />
    <glyph glyph-name="dochadathai.short" unicode="&#xf71b;" horiz-adv-x="864" 
d="M494 -281l-110 82l-111 -82h-162v170h179l94 65l94 -65h94v662q0 72 -35.5 103.5t-93.5 31.5q-41 0 -77.5 -21.5t-49.5 -72.5l62 -55q-21 -13 -41.5 -34.5t-20.5 -56.5v-446h-266v154h61v280q0 35 22.5 62.5t49.5 40.5l-78 57q4 41 25.5 84t62.5 78t102.5 57.5
t147.5 22.5q92 0 156.5 -24t103.5 -62.5t56.5 -90t17.5 -108.5v-832h-283z" />
    <glyph glyph-name="topatakthai.short" unicode="&#x12b;" horiz-adv-x="864" 
d="M547 -286l-92 78l-108 -78h-226v235h205v-94l127 92l129 -92v696q0 72 -35.5 103.5t-93.5 31.5q-41 0 -77.5 -21.5t-49.5 -72.5l62 -55q-21 -13 -41.5 -34.5t-20.5 -56.5v-446h-266v154h61v280q0 35 22.5 62.5t49.5 40.5l-78 57q4 41 25.5 84t62.5 78t102.5 57.5
t147.5 22.5q92 0 156.5 -24t103.5 -62.5t56.5 -90t17.5 -108.5v-837h-240z" />
    <glyph glyph-name="topatakthai.short" unicode="&#xf71c;" horiz-adv-x="864" 
d="M547 -286l-92 78l-108 -78h-226v235h205v-94l127 92l129 -92v696q0 72 -35.5 103.5t-93.5 31.5q-41 0 -77.5 -21.5t-49.5 -72.5l62 -55q-21 -13 -41.5 -34.5t-20.5 -56.5v-446h-266v154h61v280q0 35 22.5 62.5t49.5 40.5l-78 57q4 41 25.5 84t62.5 78t102.5 57.5
t147.5 22.5q92 0 156.5 -24t103.5 -62.5t56.5 -90t17.5 -108.5v-837h-240z" />
    <glyph glyph-name="PU2005" unicode="&#xe3e;" 
 />
    <glyph glyph-name="ZWSP" unicode="&#x200b;" 
 />
    <glyph glyph-name="uni25CC" unicode="&#x25cc;" horiz-adv-x="1372" 
d="M426 221l-162 -53l58 162q43 -64 104 -109zM608 1020l78 154l76 -152q-37 4 -72 4q-41 0 -82 -6zM756 141l-70 -141l-72 141q37 -6 76 -6q35 0 66 6zM1128 657l146 -73l-144 -68q7 33 7 66q0 39 -9 75zM252 512l-152 78l152 74q-6 -41 -6 -82q0 -37 6 -70zM332 848
l-45 158l153 -56q-63 -41 -108 -102zM1044 309l41 -141l-139 47q58 41 98 94zM942 950l166 56l-57 -160q-45 61 -109 104z" />
    <glyph glyph-name="lochula.short" unicode="&#xf71d;" horiz-adv-x="1024" 
d="M974 969q-8 -56 -35 -93.5t-92 -48.5q45 -10 68.5 -52t15.5 -89l-100 -686h-211l-117 500l-6 94h-4l-7 -94l-116 -500h-215l-119 819h188l47 -325q5 -29 6 -70t3 -78q2 -43 2 -90h4l24 160l107 403h155l107 -403l25 -160h4q-2 47 0 90q2 37 4 78t6 70l22 147
q7 39 -3.5 73t-65.5 42l18 123q53 0 71.5 27.5t27.5 76.5l6 41h188z" />
    <glyph glyph-name="saraamthaileft" horiz-adv-x="629" 
d="M-308 1010q0 -54 -38 -89.5t-111 -35.5q-74 0 -112 35.5t-38 89.5q0 53 38 89t112 36q73 0 111 -36t38 -89zM246 0v457q0 43 -8.5 79.5t-28 64.5t-53 43t-84.5 15h-72v160h180q133 0 202 -81t69 -203v-535h-205z" />
    <glyph glyph-name="yamakkanleftthai" 
d="M-524 1233q-31 24 -31 59q0 72 90 119q78 41 156 41q63 0 127 -20q20 -9 20 -29q0 -33 -31 -33q-4 0 -10 2q-53 19 -106 19q-47 0 -111 -27q-74 -33 -74 -72q0 -14 76 -43q25 -8 25 -28q0 -31 -33 -31q-2 0 -9 1t-11 1q-39 0 -81 -33t-42 -59q0 -33 28.5 -53.5
t69.5 -20.5q84 0 119 61q8 17 24 17q33 0 33 -31q0 -6 -4 -14q-53 -94 -172 -94q-59 0 -107 30q-55 39 -55 105q0 82 109 133z" />
    </font>
</defs>
</svg>
