<?xml version="1.0" standalone="no"?>
<!DOCTYPE svg PUBLIC "-//W3C//DTD SVG 1.1//EN" "http://www.w3.org/Graphics/SVG/1.1/DTD/svg11.dtd" >
<svg xmlns="http://www.w3.org/2000/svg" xmlns:xlink="http://www.w3.org/1999/xlink" version="1.1">
<metadata>
Created by FontForge 20170731 at Wed Dec  2 10:29:29 2015
 By Aleksey,,,
Copyright (c) 2015, Cadson Demak (info@cadsondemak.com)
</metadata>
<defs>
<font id="Kanit-SemiBold" horiz-adv-x="0" >
  <font-face 
    font-family="Kanit SemiBold"
    font-weight="600"
    font-stretch="normal"
    units-per-em="1000"
    panose-1="0 0 7 0 0 0 0 0 0 0"
    ascent="750"
    descent="-250"
    x-height="474"
    cap-height="644"
    bbox="-635 -370 1270 1100"
    underline-thickness="50"
    underline-position="-150"
    unicode-range="U+000D-FB02"
  />
<missing-glyph horiz-adv-x="474" 
d="M31 714h411v-714h-411v714zM391 51v612h-309v-612h309z" />
    <glyph glyph-name="fi" unicode="fi" horiz-adv-x="564" 
d="M74 352h-63v122h63v37q0 51 25 92.5t72.5 65.5t112.5 24q82 0 133 -20v-114q-11 6 -34.5 9.5t-43.5 3.5q-57 0 -80.5 -15.5t-23.5 -49.5v-33h278v-474h-161v352h-117v-352h-161v352z" />
    <glyph glyph-name="fl" unicode="fl" horiz-adv-x="564" 
d="M74 352h-63v122h63v37q0 78 51 128.5t141 50.5q62 0 117 -17h130v-673h-161v352h-117v-352h-161v352zM352 474v92q-12 3 -27 4.5t-26 0.5q-64 -1 -64 -64v-33h117z" />
    <glyph glyph-name="ru_lakkhangyaothai" unicode="&#xe24;&#xe45;" horiz-adv-x="917" 
d="M809.5 499.5q53.5 -50.5 53.5 -156.5v-503h-161v486q0 54 -21 78.5t-75 24.5q-16 0 -50 -4q17 -43 17 -100v-485h-161v484q0 57 -27 81t-90 24q-38 0 -71.5 -11t-54.5 -28v-11l108 -31v-85q-36 -10 -50 -29.5t-14 -58.5v-28q0 -18 8.5 -26t25.5 -8h47v-113h-138
q-47 0 -75.5 29t-28.5 76v66q0 100 75 125l-96 27v136q49 39 119.5 65t153.5 26q106 0 170 -34q31 15 76.5 24.5t89.5 9.5q116 0 169.5 -50.5z" />
    <glyph glyph-name="lu_lakkhangyaothai" unicode="&#xe26;&#xe45;" horiz-adv-x="950" 
d="M842.5 499.5q53.5 -50.5 53.5 -156.5v-503h-161v486q0 54 -21 78.5t-75 24.5q-16 0 -50 -4q17 -45 17 -100v-485h-162v484q0 57 -25.5 81t-85.5 24q-37 0 -70.5 -11t-55.5 -28v-11l108 -31v-85q-33 -11 -43 -30t-10 -61v-46q0 -126 -126 -126h-100v113h29q18 0 25 8t7 26
v28q0 47 14.5 76.5t54.5 44.5l-97 27v136q50 39 120 65t153 26q104 0 166 -34q31 15 76 24.5t89 9.5q116 0 169.5 -50.5z" />
    <glyph glyph-name=".notdef" horiz-adv-x="474" 
d="M31 714h411v-714h-411v714zM391 51v612h-309v-612h309z" />
    <glyph glyph-name=".null" horiz-adv-x="500" 
 />
    <glyph glyph-name="nonmarkingreturn" unicode="&#xd;" horiz-adv-x="400" 
 />
    <glyph glyph-name="space" unicode=" " horiz-adv-x="350" 
 />
    <glyph glyph-name="exclam" unicode="!" horiz-adv-x="231" 
d="M35 475v169h161v-169l-6 -299h-149zM31 116h169v-116h-169v116z" />
    <glyph glyph-name="quotedbl" unicode="&#x22;" horiz-adv-x="382" 
d="M31 644h134l-15 -213h-119v213zM217 644h134l-15 -213h-119v213z" />
    <glyph glyph-name="numbersign" unicode="#" horiz-adv-x="708" 
d="M100 157h-69v105h102l37 119h-97v106h131l49 157h139l-50 -157h131l49 157h139l-50 -157h66v-106h-99l-38 -119h95v-105h-128l-49 -157h-138l49 157h-131l-49 -157h-138zM402 262l37 119h-130l-38 -119h131z" />
    <glyph glyph-name="dollar" unicode="$" horiz-adv-x="555" 
d="M232 -9q-115 3 -183 34v119q41 -17 89 -28t94 -12v175l-12 4q-101 28 -142 70t-41 116q0 78 49.5 124.5t145.5 57.5v79h99v-77q93 -6 149 -26v-119q-75 27 -149 30v-166q105 -30 146 -77t41 -119q0 -73 -47 -120.5t-140 -60.5v-81h-99v77zM232 532q-58 -13 -58 -63
q0 -26 12.5 -40.5t45.5 -27.5v131zM368 133.5q12 15.5 12 42.5q0 26 -11 42t-38 29v-136q25 7 37 22.5z" />
    <glyph glyph-name="percent" unicode="%" horiz-adv-x="757" 
d="M69.5 389q-38.5 40 -38.5 106q0 75 38 117t110 42t110.5 -42t38.5 -117q0 -66 -38.5 -106t-110.5 -40q-71 0 -109.5 40zM470 644h153l-338 -644h-152zM238 498q0 35 -14 51.5t-45 16.5q-30 0 -44 -16.5t-14 -51.5q0 -61 58 -61q59 0 59 61zM467.5 29.5
q-38.5 39.5 -38.5 105.5q0 75 38 117t110 42t110.5 -42t38.5 -117q0 -66 -38.5 -105.5t-110.5 -39.5q-71 0 -109.5 39.5zM636 138q0 35 -14 51.5t-45 16.5q-30 0 -44 -16.5t-14 -51.5q0 -61 58 -61q59 0 59 61z" />
    <glyph glyph-name="ampersand" unicode="&#x26;" horiz-adv-x="677" 
d="M486 52q-37 -30 -90 -46t-117 -16q-75 0 -131 21.5t-86.5 61.5t-30.5 93q0 64 33.5 110t101.5 83q-36 36 -53 66.5t-17 70.5q0 70 51.5 114t137.5 44q87 0 138.5 -43t51.5 -115q0 -48 -21 -84.5t-67 -71.5l106 -109q12 23 12 57v18h121v-23q0 -38 -12 -75t-31 -64l69 -69
l-100 -90zM331.5 443.5q14.5 17.5 14.5 44.5t-15 43t-44 16q-31 0 -46 -16.5t-15 -42.5q0 -22 14 -41.5t43 -41.5q34 21 48.5 38.5zM388 138l-123 126q-41 -18 -60 -39.5t-19 -54.5t25.5 -51.5t67.5 -18.5q69 0 109 38z" />
    <glyph glyph-name="quotesingle" unicode="'" horiz-adv-x="196" 
d="M31 644h134l-15 -213h-119v213z" />
    <glyph glyph-name="parenleft" unicode="(" horiz-adv-x="355" 
d="M63.5 88.5q-32.5 98.5 -32.5 214.5q0 115 32.5 213.5t96.5 161.5h183q-148 -134 -148 -375t148 -375h-183q-64 62 -96.5 160.5z" />
    <glyph glyph-name="parenright" unicode=")" horiz-adv-x="355" 
d="M159 303q0 242 -148 375h184q64 -63 96 -161.5t32 -213.5q0 -116 -32 -214.5t-96 -160.5h-184q148 133 148 375z" />
    <glyph glyph-name="asterisk" unicode="*" horiz-adv-x="440" 
d="M56 367l81 85l-106 44l48 98l86 -46l-5 96h120l-5 -96l86 46l47 -98l-106 -44l81 -85l-92 -67l-71 97l-72 -97z" />
    <glyph glyph-name="plus" unicode="+" horiz-adv-x="457" 
d="M166 215h-135v125h135v129h126v-129h134v-125h-134v-127h-126v127z" />
    <glyph glyph-name="comma" unicode="," horiz-adv-x="231" 
d="M63 93h137l-54 -213h-115z" />
    <glyph glyph-name="hyphen" unicode="-" horiz-adv-x="457" 
d="M31 340h395v-125h-395v125z" />
    <glyph glyph-name="period" unicode="." horiz-adv-x="191" 
d="M31 118h129v-118h-129v118z" />
    <glyph glyph-name="slash" unicode="/" horiz-adv-x="461" 
d="M265 662h165l-234 -662h-165z" />
    <glyph glyph-name="zero" unicode="0" horiz-adv-x="661" 
d="M101.5 66.5q-70.5 84.5 -70.5 251.5q0 166 70.5 251t228.5 85t229 -85t71 -251q0 -167 -71 -251.5t-229 -84.5t-228.5 84.5zM434 168.5q31 48.5 31 149.5t-31 149.5t-104 48.5t-104 -48.5t-31 -149.5t31 -149.5t104 -48.5t104 48.5z" />
    <glyph glyph-name="one" unicode="1" horiz-adv-x="349" 
d="M137 496l-106 -17v135l267 40v-654h-161v496z" />
    <glyph glyph-name="two" unicode="2" horiz-adv-x="517" 
d="M31 75q24 50 62 91.5t100 97.5l21 19q45 41 64 60.5t28.5 40.5t9.5 50q0 82 -106 82q-74 0 -157 -33v139q40 15 92.5 23.5t103.5 8.5q112 0 171.5 -57t59.5 -160q0 -55 -25.5 -97.5t-82.5 -92.5l-17 -15q-43 -37 -67 -60t-41 -48h239v-124h-455v75z" />
    <glyph glyph-name="three" unicode="3" horiz-adv-x="529" 
d="M125.5 -0.5q-60.5 9.5 -94.5 23.5v134q39 -18 85.5 -26.5t90.5 -8.5q65 0 95.5 17.5t30.5 61.5q0 35 -26 51t-77 16h-105l11 113h87q51 0 74 16.5t23 53.5q0 36 -28 53.5t-88 17.5q-43 0 -86.5 -9.5t-76.5 -24.5v132q36 15 88.5 24.5t104.5 9.5q80 0 136.5 -23.5
t85.5 -64.5t29 -95q0 -48 -20 -87t-59 -59q45 -16 68 -51.5t23 -87.5q0 -98 -71.5 -147t-193.5 -49q-46 0 -106.5 9.5z" />
    <glyph glyph-name="four" unicode="4" horiz-adv-x="547" 
d="M314 128h-303v107l323 409h141v-386h60v-130h-60v-128h-161v128zM341 252v215l-175 -215h175z" />
    <glyph glyph-name="five" unicode="5" horiz-adv-x="521" 
d="M125.5 -1.5q-55.5 8.5 -91.5 23.5v134q34 -15 83 -24t87 -9q63 0 92 19.5t29 64.5q0 42 -21.5 60t-77.5 18h-195v81l17 278h400l-12 -124h-250l-7 -117h84q115 0 170.5 -51t55.5 -151q0 -98 -66 -154.5t-194 -56.5q-48 0 -103.5 8.5z" />
    <glyph glyph-name="six" unicode="6" horiz-adv-x="583" 
d="M96 54q-65 64 -65 193v131q0 80 35.5 142.5t102 98t156.5 35.5q51 0 89.5 -6t74.5 -20v-131q-63 27 -151 27q-75 0 -115.5 -31t-40.5 -82v-25q28 19 68.5 30t76.5 11q225 0 225 -215q0 -103 -63.5 -162.5t-195.5 -59.5t-197 64zM379 132.5q29 26.5 29 73.5q0 51 -26 76.5
t-86 25.5q-56 0 -114 -36v-54q0 -57 28 -84.5t84 -27.5t85 26.5z" />
    <glyph glyph-name="seven" unicode="7" horiz-adv-x="498" 
d="M297 520h-276v124h455v-96l-232 -548h-168z" />
    <glyph glyph-name="eight" unicode="8" horiz-adv-x="603" 
d="M97.5 38q-66.5 48 -66.5 145q0 50 25 91t69 59q-39 20 -58.5 53.5t-19.5 74.5q0 91 62.5 142t191.5 51q131 0 192.5 -50.5t61.5 -142.5q0 -43 -19.5 -78.5t-60.5 -55.5q97 -40 97 -144q0 -97 -67 -145t-204 -48t-203.5 48zM384.5 404q17.5 19 17.5 54q0 38 -25 56.5
t-76 18.5t-76 -18t-25 -57q0 -60 65 -73l61 -12q41 12 58.5 31zM389.5 128q28.5 18 28.5 58q0 34 -18.5 51t-62.5 26l-73 15q-40 -9 -60 -29t-20 -58q0 -43 28.5 -62t88.5 -19t88.5 18z" />
    <glyph glyph-name="nine" unicode="9" horiz-adv-x="583" 
d="M167.5 -4.5q-38.5 5.5 -73.5 18.5v131q65 -26 151 -26q75 0 115.5 31t40.5 82v25q-28 -19 -68.5 -30t-76.5 -11q-225 0 -225 215q0 103 63.5 163t195.5 60q133 0 197.5 -64t64.5 -193v-131q0 -81 -35.5 -143.5t-102 -97.5t-156.5 -35q-52 0 -90.5 5.5zM345 345
q30 10 56 27v53q0 57 -28 84.5t-84 27.5t-85 -26.5t-29 -73.5q0 -51 25.5 -76.5t86.5 -25.5q28 0 58 10z" />
    <glyph glyph-name="colon" unicode=":" horiz-adv-x="191" 
d="M31 440h128v-120h-128v120zM31 140h128v-120h-128v120z" />
    <glyph glyph-name="semicolon" unicode=";" horiz-adv-x="231" 
d="M68 440h129v-120h-129v120zM63 93h137l-54 -213h-115z" />
    <glyph glyph-name="less" unicode="&#x3c;" horiz-adv-x="540" 
d="M31 241v133l478 213v-150l-307 -129l307 -130v-151z" />
    <glyph glyph-name="equal" unicode="=" horiz-adv-x="455" 
d="M31 420h392v-112h-392v112zM31 245h392v-113h-392v113z" />
    <glyph glyph-name="greater" unicode="&#x3e;" horiz-adv-x="540" 
d="M31 178l306 130l-306 129v150l478 -213v-133l-478 -214v151z" />
    <glyph glyph-name="question" unicode="?" horiz-adv-x="498" 
d="M134 196q0 37 15 64t46 56q6 5 42 36q34 27 50 46t16 46q0 39 -27.5 55.5t-91.5 16.5q-41 0 -82 -10.5t-71 -26.5v135q38 19 89 29.5t109 10.5q115 0 176.5 -50t61.5 -139q0 -53 -21 -87.5t-69 -73.5l-19 -16q-37 -29 -52.5 -49t-15.5 -49v-13h-156v19zM127 116h169v-116
h-169v116z" />
    <glyph glyph-name="at" unicode="@" horiz-adv-x="758" 
d="M127.5 -51q-96.5 81 -96.5 239q0 107 45 183t127.5 115t194.5 39q103 0 177 -33.5t112.5 -96t38.5 -147.5q0 -97 -50.5 -147.5t-150.5 -50.5h-36q-54 -43 -144 -43q-57 0 -92.5 30t-35.5 83q0 55 36 85t109 30h96v19q0 31 -18.5 44.5t-67.5 13.5q-58 0 -117 -19v65
q26 11 63.5 17t77.5 6q81 0 118 -33t37 -106v-111q32 0 48.5 28t16.5 89q0 186 -218 186q-127 0 -192 -60.5t-65 -187.5q0 -119 63.5 -173t181.5 -54q110 0 173 19v-92q-76 -18 -171 -18q-164 0 -260.5 81zM458 113v59h-78q-37 0 -52.5 -12.5t-15.5 -38.5q0 -24 14.5 -34.5
t45.5 -10.5q55 0 86 37z" />
    <glyph glyph-name="A" unicode="A" horiz-adv-x="728" 
d="M277 644h174l246 -644h-168l-58 146h-215l-57 -146h-168zM449 265l-86 224l-85 -224h171z" />
    <glyph glyph-name="B" unicode="B" horiz-adv-x="641" 
d="M51 644h340q96 0 146 -45.5t50 -130.5q0 -49 -19 -84.5t-52 -54.5q47 -17 70.5 -49.5t23.5 -90.5q0 -92 -54 -140.5t-155 -48.5h-350v644zM343 382q80 0 80 72q0 38 -20 56t-68 18h-123v-146h131zM359 115q45 0 66 18.5t21 63.5q0 38 -21.5 56t-71.5 18h-141v-156h147z
" />
    <glyph glyph-name="C" unicode="C" horiz-adv-x="603" 
d="M120.5 76q-89.5 86 -89.5 241q0 163 87 250t258 87q56 0 102.5 -8.5t92.5 -24.5v-141q-87 36 -183 36q-100 0 -146.5 -48t-46.5 -151q0 -97 48.5 -143.5t146.5 -46.5q97 0 182 35v-142q-88 -30 -195 -30q-167 0 -256.5 86z" />
    <glyph glyph-name="D" unicode="D" horiz-adv-x="663" 
d="M51 644h279q151 0 226.5 -77t75.5 -249q0 -163 -75.5 -240.5t-226.5 -77.5h-279v644zM308 124q56 0 90 16t52 58t18 120q0 79 -16.5 122.5t-51 61.5t-92.5 18h-96v-396h96z" />
    <glyph glyph-name="E" unicode="E" horiz-adv-x="552" 
d="M51 644h475v-124h-314v-135h277v-126h-277v-135h314v-124h-475v644z" />
    <glyph glyph-name="F" unicode="F" horiz-adv-x="530" 
d="M51 644h468v-124h-307v-135h270v-126h-270v-259h-161v644z" />
    <glyph glyph-name="G" unicode="G" horiz-adv-x="647" 
d="M118.5 74q-87.5 84 -87.5 239q0 163 90 252t261 89q113 0 197 -28v-138q-76 28 -185 28q-104 0 -151.5 -49t-47.5 -154q0 -95 44.5 -140.5t133.5 -45.5q58 0 108 16v122h-139v101h274v-319q-39 -25 -100 -41t-144 -16q-166 0 -253.5 84z" />
    <glyph glyph-name="H" unicode="H" horiz-adv-x="676" 
d="M51 644h161v-255h252v255h161v-644h-161v255h-252v-255h-161v644z" />
    <glyph glyph-name="I" unicode="I" horiz-adv-x="263" 
d="M51 644h161v-644h-161v644z" />
    <glyph glyph-name="J" unicode="J" horiz-adv-x="441" 
d="M11 13v135q48 -21 115 -21q58 0 83 23.5t25 78.5v415h161v-445q0 -102 -60 -155.5t-176 -53.5q-86 0 -148 23z" />
    <glyph glyph-name="K" unicode="K" horiz-adv-x="663" 
d="M51 644h161v-250l222 250h184l-230 -263l244 -381h-172l-172 278l-76 -83v-195h-161v644z" />
    <glyph glyph-name="L" unicode="L" horiz-adv-x="527" 
d="M51 644h161v-520h304v-124h-465v644z" />
    <glyph glyph-name="M" unicode="M" horiz-adv-x="768" 
d="M51 644h159l175 -357l174 357h158v-644h-161v370l-127 -260h-89l-128 260v-370h-161v644z" />
    <glyph glyph-name="N" unicode="N" horiz-adv-x="676" 
d="M51 644h138l274 -385v385h162v-644h-139l-274 384v-384h-161v644z" />
    <glyph glyph-name="O" unicode="O" horiz-adv-x="704" 
d="M112 71q-81 81 -81 248q0 175 80 255t241 80q160 0 240.5 -80t80.5 -255q0 -167 -81 -248t-240 -81t-240 81zM470.5 173.5q37.5 46.5 37.5 145.5q0 107 -37 152t-119 45q-83 0 -120 -45t-37 -152q0 -99 37.5 -145.5t119.5 -46.5q81 0 118.5 46.5z" />
    <glyph glyph-name="P" unicode="P" horiz-adv-x="606" 
d="M51 644h317q111 0 168.5 -63.5t57.5 -166.5q0 -66 -28 -117t-80.5 -79.5t-121.5 -28.5h-152v-189h-161v644zM328 313q50 0 76 27.5t26 74.5q0 51 -24 78t-73 27h-121v-207h116z" />
    <glyph glyph-name="Q" unicode="Q" horiz-adv-x="704" 
d="M356.5 -154q-38.5 18 -54 54t-16.5 94q-255 31 -255 325q0 175 80 255t241 80q160 0 240.5 -80t80.5 -255q0 -288 -244 -323q0 -32 11 -44.5t40 -12.5q31 0 63 8v-109q-14 -4 -38.5 -7t-42.5 -3q-67 0 -105.5 18zM470.5 173.5q37.5 46.5 37.5 145.5q0 107 -37 152
t-119 45q-83 0 -120 -45t-37 -152q0 -99 37.5 -145.5t119.5 -46.5q81 0 118.5 46.5z" />
    <glyph glyph-name="R" unicode="R" horiz-adv-x="626" 
d="M51 644h322q111 0 166.5 -58.5t55.5 -162.5q0 -65 -32.5 -114t-90.5 -73q13 -11 21.5 -24t19.5 -38l76 -174h-168l-72 164q-9 22 -23 31t-40 9h-74v-204h-161v644zM331 328q48 0 74 24t26 71q0 97 -93 97h-126v-192h119z" />
    <glyph glyph-name="S" unicode="S" horiz-adv-x="555" 
d="M136.5 -0.5q-55.5 9.5 -95.5 27.5v137q45 -20 98 -31.5t101 -11.5q65 0 92 11.5t27 47.5q0 25 -14 39.5t-42.5 25t-93.5 29.5q-67 20 -105.5 44.5t-55.5 59t-17 86.5q0 93 66.5 141.5t194.5 48.5q53 0 106.5 -8t88.5 -20v-138q-83 33 -171 33q-61 0 -91 -11.5t-30 -44.5
q0 -21 12 -33.5t38.5 -22t83.5 -24.5q77 -21 119.5 -50t59 -66.5t16.5 -88.5q0 -88 -68 -139t-200 -51q-64 0 -119.5 9.5z" />
    <glyph glyph-name="T" unicode="T" horiz-adv-x="561" 
d="M200 520h-189v124h539v-124h-189v-520h-161v520z" />
    <glyph glyph-name="U" unicode="U" horiz-adv-x="684" 
d="M125.5 56.5q-79.5 66.5 -79.5 188.5v399h161v-384q0 -67 34.5 -100t100.5 -33t100.5 33t34.5 100v384h161v-399q0 -122 -79.5 -188.5t-216.5 -66.5t-216.5 66.5z" />
    <glyph glyph-name="V" unicode="V" horiz-adv-x="728" 
d="M31 644h168l164 -460l165 460h169l-246 -644h-174z" />
    <glyph glyph-name="W" unicode="W" horiz-adv-x="883" 
d="M31 644h158l85 -388l88 297v91h132l111 -389l89 389h158l-149 -644h-149l-108 372l-116 -372h-149z" />
    <glyph glyph-name="X" unicode="X" horiz-adv-x="727" 
d="M266 324l-228 320h192l133 -192l134 192h192l-228 -320l235 -324h-194l-139 195l-138 -195h-194z" />
    <glyph glyph-name="Y" unicode="Y" horiz-adv-x="686" 
d="M262 237l-231 407h168l144 -267l144 267h168l-231 -407v-237h-162v237z" />
    <glyph glyph-name="Z" unicode="Z" horiz-adv-x="578" 
d="M31 82l302 434h-287v128h498v-90l-299 -430h305v-124h-519v82z" />
    <glyph glyph-name="bracketleft" unicode="[" horiz-adv-x="367" 
d="M31 706h309l5 -124h-153v-557h154l-5 -124h-310v805z" />
    <glyph glyph-name="backslash" unicode="\" horiz-adv-x="482" 
d="M31 662h168l252 -716h-167z" />
    <glyph glyph-name="bracketright" unicode="]" horiz-adv-x="367" 
d="M21 25h154v557h-153l5 124h309v-805h-310z" />
    <glyph glyph-name="asciicircum" unicode="^" horiz-adv-x="510" 
d="M195 624h112l171 -247h-149l-75 130l-73 -130h-150z" />
    <glyph glyph-name="underscore" unicode="_" horiz-adv-x="525" 
d="M31 0h463v-125h-463v125z" />
    <glyph glyph-name="grave" unicode="`" horiz-adv-x="280" 
d="M32 718h131l84 -196h-123z" />
    <glyph glyph-name="a" unicode="a" horiz-adv-x="561" 
d="M78.5 28.5q-47.5 38.5 -47.5 110.5q0 74 50.5 115t147.5 41h132v11q0 37 -24.5 52t-89.5 15q-81 0 -159 -25v104q36 14 87 23t105 9q113 0 174 -46t61 -142v-296h-141l-8 40q-55 -50 -167 -50q-73 0 -120.5 38.5zM361 135v67h-114q-36 0 -53.5 -14t-17.5 -43
q0 -56 74 -56q72 0 111 46z" />
    <glyph glyph-name="b" unicode="b" horiz-adv-x="598" 
d="M265 2.5q-36 12.5 -66 37.5l-8 -40h-140v674h161v-222q55 32 131 32q108 0 166 -59t58 -184t-58 -188t-161 -63q-47 0 -83 12.5zM379 139q24 32 24 101q0 68 -24 97t-77 29q-57 0 -90 -30v-193q36 -36 90 -36q53 0 77 32z" />
    <glyph glyph-name="c" unicode="c" horiz-adv-x="501" 
d="M101.5 53q-70.5 63 -70.5 184q0 122 73 184.5t200 62.5q52 0 90.5 -7.5t74.5 -24.5v-114q-56 27 -131 27q-73 0 -108 -29t-35 -99q0 -67 34 -97.5t108 -30.5q73 0 133 30v-119q-69 -30 -169 -30q-129 0 -199.5 63z" />
    <glyph glyph-name="d" unicode="d" horiz-adv-x="598" 
d="M86 43.5q-55 53.5 -55 176.5q0 84 29.5 143.5t82 90t121.5 30.5t122 -32v222h161v-674h-139l-9 40q-30 -25 -66 -37.5t-83 -12.5q-109 0 -164 53.5zM386 143v192q-34 31 -87 31q-51 0 -77.5 -38.5t-26.5 -108.5q0 -65 24 -88.5t77 -23.5t90 36z" />
    <glyph glyph-name="e" unicode="e" horiz-adv-x="547" 
d="M104.5 53q-73.5 63 -73.5 184q0 116 63.5 181.5t184.5 65.5q111 0 174 -58t63 -156v-85h-336q11 -46 50 -65t112 -19q39 0 79.5 7t67.5 18v-105q-68 -31 -184 -31q-127 0 -200.5 63zM376 278v21q0 76 -92 76q-57 0 -80.5 -23t-23.5 -74h196z" />
    <glyph glyph-name="f" unicode="f" horiz-adv-x="358" 
d="M74 352h-63v122h63v39q0 80 45 128.5t130 48.5q64 0 117 -21v-108q-31 11 -60 11q-39 0 -55 -14.5t-16 -47.5v-36h117l-7 -122h-110v-352h-161v352z" />
    <glyph glyph-name="g" unicode="g" horiz-adv-x="563" 
d="M140.5 -169q-58.5 7 -93.5 19v110q38 -13 93.5 -20t105.5 -7q63 0 92.5 6.5t29.5 22.5q0 14 -12 19t-47 5h-131q-64 0 -99.5 23t-35.5 67q0 31 19 57.5t54 39.5q-42 21 -62.5 53.5t-20.5 80.5q0 91 58.5 134t175.5 43q22 0 51.5 -3.5t45.5 -6.5h182l-4 -100h-69
q25 -25 25 -74q0 -71 -45.5 -112t-133.5 -41q-22 0 -58 4q-63 -7 -63 -34q0 -11 9 -15.5t29 -4.5h121q73 0 113.5 -34t40.5 -97q0 -70 -64.5 -106t-191.5 -36q-56 0 -114.5 7zM340.5 253.5q20.5 17.5 20.5 60.5t-21 61.5t-72 18.5q-49 0 -70.5 -18.5t-21.5 -61.5
q0 -41 20.5 -59.5t71.5 -18.5q52 0 72.5 17.5z" />
    <glyph glyph-name="h" unicode="h" horiz-adv-x="595" 
d="M51 674h161v-235q28 20 68 32.5t85 12.5q95 0 139.5 -45t44.5 -138v-301h-161v290q0 41 -17.5 58t-60.5 17q-26 0 -53 -12t-45 -30v-323h-161v674z" />
    <glyph glyph-name="i" unicode="i" horiz-adv-x="334" 
d="M108 670h175v-121h-175v121zM121 355h-70l14 119h217v-474h-161v355z" />
    <glyph glyph-name="j" unicode="j" horiz-adv-x="333" 
d="M107 670h175v-121h-175v121zM-9 -214v109q30 -10 60 -10q36 0 53 14.5t17 45.5v410h-70l14 119h217v-543q0 -76 -43.5 -120.5t-129.5 -44.5q-71 0 -118 20z" />
    <glyph glyph-name="k" unicode="k" horiz-adv-x="592" 
d="M51 674h161v-352l155 152h183l-190 -197l201 -277h-171l-131 192l-47 -46v-146h-161v674z" />
    <glyph glyph-name="l" unicode="l" horiz-adv-x="308" 
d="M85 24q-34 34 -34 109v541h161v-525q0 -23 9 -31.5t29 -8.5q27 0 48 7v-109q-24 -9 -46.5 -13t-54.5 -4q-78 0 -112 34z" />
    <glyph glyph-name="m" unicode="m" horiz-adv-x="859" 
d="M51 474h149l5 -42q72 52 158 52q46 0 73.5 -14t43.5 -41q36 26 77.5 40.5t94.5 14.5q82 0 121.5 -43t39.5 -131v-310h-159v291q0 39 -16.5 56.5t-53.5 17.5q-24 0 -45.5 -9.5t-36.5 -26.5q3 -15 3 -45v-284h-150v293q0 38 -13 55t-47 17q-42 0 -87 -43v-322h-157v474z
" />
    <glyph glyph-name="n" unicode="n" horiz-adv-x="595" 
d="M51 474h150l5 -41q31 22 75.5 36.5t91.5 14.5q91 0 133.5 -44t42.5 -136v-304h-161v291q0 40 -17.5 57t-60.5 17q-26 0 -53 -12t-45 -30v-323h-161v474z" />
    <glyph glyph-name="o" unicode="o" horiz-adv-x="597" 
d="M31 237q0 120 66.5 183.5t200.5 63.5q135 0 201.5 -63t66.5 -184q0 -247 -268 -247q-267 0 -267 247zM378 144q24 28 24 93t-24.5 93t-79.5 28t-79 -28.5t-24 -92.5q0 -65 24 -93t79 -28q56 0 80 28z" />
    <glyph glyph-name="p" unicode="p" horiz-adv-x="598" 
d="M51 474h140l8 -41q62 51 149 51q219 0 219 -237q0 -126 -60 -191.5t-167 -65.5q-75 0 -128 31v-237h-161v690zM376.5 144q26.5 36 26.5 106q0 66 -23.5 91t-77.5 25q-51 0 -90 -36v-192q20 -15 39.5 -22.5t47.5 -7.5q51 0 77.5 36z" />
    <glyph glyph-name="q" unicode="q" horiz-adv-x="641" 
d="M422.5 -206q-36.5 36 -36.5 112v115q-53 -31 -128 -31q-110 0 -168.5 56t-58.5 179q0 83 29.5 141.5t79.5 88t112 29.5q46 0 80.5 -13t66.5 -38l9 41h139v-551q0 -26 10 -36.5t35 -10.5q22 0 43 8v-109q-23 -9 -45 -13t-55 -4q-76 0 -112.5 36zM346.5 115.5
q20.5 7.5 39.5 22.5v192q-20 18 -41 27t-47 9q-103 0 -103 -138q0 -68 25 -94t78 -26q28 0 48.5 7.5z" />
    <glyph glyph-name="r" unicode="r" horiz-adv-x="389" 
d="M51 474h153l5 -44q32 19 78 34.5t91 19.5v-121q-42 -5 -90 -17.5t-76 -26.5v-319h-161v474z" />
    <glyph glyph-name="s" unicode="s" horiz-adv-x="479" 
d="M120 -2q-51 8 -82 20v123q34 -14 79.5 -22.5t83.5 -8.5q47 0 64.5 4.5t17.5 21.5q0 14 -17 23t-60 22l-43 14q-70 24 -101 55.5t-31 88.5q0 145 220 145q43 0 87 -6.5t74 -16.5v-121q-27 12 -62.5 18.5t-66.5 6.5q-44 0 -66 -5t-22 -21q0 -14 14 -20.5t54 -18.5
q20 -5 41 -12q56 -17 87 -36.5t44 -46.5t13 -68q0 -72 -56.5 -109.5t-164.5 -37.5q-56 0 -107 8z" />
    <glyph glyph-name="t" unicode="t" horiz-adv-x="374" 
d="M117.5 34q-42.5 44 -42.5 125v193h-64v122h64v99l161 43v-142h115l-7 -122h-108v-182q0 -34 16 -47.5t52 -13.5q29 0 59 10v-109q-47 -20 -117 -20q-86 0 -128.5 44z" />
    <glyph glyph-name="u" unicode="u" horiz-adv-x="595" 
d="M92.5 37.5q-46.5 47.5 -46.5 138.5v298h161v-289q0 -40 19 -58.5t59 -18.5q28 0 54 11.5t44 30.5v324h161v-474h-150l-5 40q-67 -50 -165 -50q-85 0 -131.5 47.5z" />
    <glyph glyph-name="v" unicode="v" horiz-adv-x="607" 
d="M31 474h168l104 -308l105 308h168l-187 -474h-171z" />
    <glyph glyph-name="w" unicode="w" horiz-adv-x="770" 
d="M31 474h158l64 -272l67 207v65h121l78 -272l62 272h158l-125 -474h-146l-81 246l-83 -246h-148z" />
    <glyph glyph-name="x" unicode="x" horiz-adv-x="603" 
d="M213 241l-175 233h175l88 -119l88 119h175l-175 -233l182 -241h-176l-94 125l-94 -125h-176z" />
    <glyph glyph-name="y" unicode="y" horiz-adv-x="627" 
d="M129.5 -172.5q-25.5 3.5 -49.5 13.5v112q28 -10 61 -10q40 0 61 14t42 52l-213 465h169l125 -301l123 301h168l-181 -435q-44 -106 -100 -160.5t-143 -54.5q-37 0 -62.5 3.5z" />
    <glyph glyph-name="z" unicode="z" horiz-adv-x="492" 
d="M31 86l219 260h-211v128h415v-94l-214 -256h221v-124h-430v86z" />
    <glyph glyph-name="braceleft" unicode="{" horiz-adv-x="320" 
d="M99 -74q-29 30 -29 97v147q0 38 -13.5 57.5t-45.5 23.5v94q35 5 47 26t12 69v133q0 67 29 97.5t100 30.5h99v-124h-25q-24 0 -33 -11.5t-9 -37.5v-136q0 -31 -13 -56t-38 -38q25 -14 38 -38.5t13 -55.5v-136q0 -26 9 -37t33 -11h25v-124h-99q-71 0 -100 30z" />
    <glyph glyph-name="bar" unicode="|" horiz-adv-x="224" 
d="M31 735h161v-855h-161v855z" />
    <glyph glyph-name="braceright" unicode="}" horiz-adv-x="320" 
d="M21 20h25q24 0 33 11t9 37v136q0 31 13 55.5t38 38.5q-25 13 -38 38t-13 56v136q0 26 -9 37.5t-33 11.5h-25v124h99q71 0 100 -30.5t29 -97.5v-133q0 -48 12 -69t47 -26v-94q-32 -4 -45.5 -23.5t-13.5 -57.5v-147q0 -67 -29 -97t-100 -30h-99v124z" />
    <glyph glyph-name="asciitilde" unicode="~" horiz-adv-x="542" 
d="M336 205.5q-27 8.5 -66 25.5q-40 17 -66 25t-54 8q-38 0 -66.5 -13.5t-52.5 -44.5v150q17 23 49.5 37t69.5 14q30 0 57.5 -8.5t69.5 -26.5q39 -16 63.5 -24t51.5 -8q39 0 66.5 13.5t51.5 43.5v-150q-17 -24 -48.5 -37t-69.5 -13q-29 0 -56 8.5z" />
    <glyph glyph-name="uni00A0" unicode="&#xa0;" horiz-adv-x="350" 
 />
    <glyph glyph-name="exclamdown" unicode="&#xa1;" horiz-adv-x="231" 
d="M31 584h169v-116h-169v116zM35 109l6 299h149l6 -299v-169h-161v169z" />
    <glyph glyph-name="cent" unicode="&#xa2;" horiz-adv-x="501" 
d="M256 -8q-107 10 -163 72t-56 173q0 110 58 171.5t161 72.5v79h99v-78q54 -5 104 -28v-97q-48 22 -104 25v-290q61 5 105 27v-100q-45 -20 -105 -26v-79h-99v78zM256 374q-41 -13 -61.5 -45.5t-20.5 -91.5q0 -57 20 -90.5t62 -46.5v274z" />
    <glyph glyph-name="sterling" unicode="&#xa3;" horiz-adv-x="489" 
d="M31 121h23q23 0 35.5 14t12.5 38v103h-64v122h64v76q0 82 50 131t135 49q75 0 129 -24v-107q-27 13 -76 13q-39 0 -58 -17t-19 -52v-69h151l-7 -122h-144v-94q0 -22 -5 -36t-17 -25h217v-121h-427v121z" />
    <glyph glyph-name="currency" unicode="&#xa4;" horiz-adv-x="570" 
d="M31 128l78 57q-21 37 -21 84q0 46 21 82l-77 59l70 86l81 -65q44 30 101 30q59 0 102 -31l83 65l70 -85l-79 -59q22 -38 22 -82q0 -42 -22 -83l78 -60l-69 -84l-83 63q-44 -30 -101 -30t-101 30l-82 -64zM341.5 211.5q23.5 23.5 23.5 57.5t-23.5 57.5t-57.5 23.5
t-56.5 -23.5t-22.5 -57.5t22.5 -57.5t56.5 -23.5t57.5 23.5z" />
    <glyph glyph-name="yen" unicode="&#xa5;" horiz-adv-x="686" 
d="M262 75h-139v92h139v48h-139v92h99l-191 337h168l144 -267l144 267h168l-192 -337h100v-92h-139v-48h139v-92h-139v-75h-162v75z" />
    <glyph glyph-name="brokenbar" unicode="&#xa6;" horiz-adv-x="224" 
d="M31 735h161v-342h-161v342zM31 221h161v-341h-161v341z" />
    <glyph glyph-name="section" unicode="&#xa7;" horiz-adv-x="555" 
d="M136.5 -0.5q-55.5 9.5 -95.5 27.5v135q45 -20 98.5 -32t100.5 -12q61 0 89.5 13t28.5 49q0 23 -16 38.5t-44.5 26t-88.5 28.5q-98 31 -138 69.5t-40 102.5q0 41 21 71q-20 30 -20 73q0 85 65 130.5t195 45.5q46 0 102.5 -8.5t92.5 -19.5v-135q-87 33 -175 33
q-49 0 -83 -11t-34 -47q0 -21 12.5 -34.5t40.5 -24t81 -23.5q79 -20 121 -43.5t58 -53.5t16 -75q0 -19 -6 -42t-15 -35q21 -33 21 -71q0 -91 -68 -138t-200 -47q-64 0 -119.5 9.5zM403 327q0 22 -30.5 40t-96.5 35q-36 10 -66 22.5t-42 24.5q-3 -6 -3 -18q0 -22 28.5 -37.5
t92.5 -32.5q39 -11 70.5 -25.5t42.5 -27.5q4 9 4 19z" />
    <glyph glyph-name="dieresis" unicode="&#xa8;" horiz-adv-x="391" 
d="M31 666h123v-114h-123v114zM236 666h124v-114h-124v114z" />
    <glyph glyph-name="copyright" unicode="&#xa9;" horiz-adv-x="726" 
d="M196.5 34.5q-76.5 44.5 -121 121t-44.5 166.5t44.5 166.5t121 121t166.5 44.5t166.5 -44.5t121 -121t44.5 -166.5t-44.5 -166.5t-121 -121t-166.5 -44.5t-166.5 44.5zM486 107q55 32 87 88t32 127q0 70 -32 126.5t-87 88t-123 31.5t-123 -31.5t-87 -88t-32 -126.5
q0 -71 32 -127t87 -88t123 -32t123 32zM218 171.5q-55 55.5 -55 150.5q0 65 26.5 111.5t73 70.5t104.5 24q40 0 70 -9.5t58 -27.5v-76q-47 27 -101 27q-55 0 -90 -29t-35 -91q0 -121 121 -121q28 0 56 8t50 23v-80q-56 -36 -132 -36q-91 0 -146 55.5z" />
    <glyph glyph-name="ordfeminine" unicode="&#xaa;" horiz-adv-x="336" 
d="M57 400.5q-26 20.5 -26 61.5q0 89 109 89h73v4q0 18 -13 25.5t-48 7.5q-44 0 -88 -14v62q20 8 50 13t58 5q62 0 97.5 -26t35.5 -79v-163h-83l-5 21q-18 -14 -40 -20.5t-53 -6.5q-41 0 -67 20.5zM213 465v31h-51q-24 0 -34 -6.5t-10 -23.5q0 -15 9.5 -21.5t28.5 -6.5
q39 0 57 27z" />
    <glyph glyph-name="guillemotleft" unicode="&#xab;" horiz-adv-x="657" 
d="M31 254v61l266 196l61 -90l-184 -137l184 -137l-61 -89zM298 254v61l266 196l62 -90l-185 -137l185 -137l-62 -89z" />
    <glyph glyph-name="logicalnot" unicode="&#xac;" horiz-adv-x="510" 
d="M353 254h-322v124h447v-251h-125v127z" />
    <glyph glyph-name="uni00AD" unicode="&#xad;" horiz-adv-x="457" 
d="M31 340h395v-125h-395v125z" />
    <glyph glyph-name="registered" unicode="&#xae;" horiz-adv-x="726" 
d="M196.5 34.5q-76.5 44.5 -121 121t-44.5 166.5t44.5 166.5t121 121t166.5 44.5t166.5 -44.5t121 -121t44.5 -166.5t-44.5 -166.5t-121 -121t-166.5 -44.5t-166.5 44.5zM486 107q55 32 87 88t32 127q0 70 -32 126.5t-87 88t-123 31.5t-123 -31.5t-87 -88t-32 -126.5
q0 -71 32 -127t87 -88t123 -32t123 32zM220 508h187q62 0 94 -33t32 -90q0 -42 -19.5 -70.5t-56.5 -40.5q8 -6 12.5 -14t10.5 -22l39 -100h-86l-37 102q-4 13 -13 17t-29 4h-46v-123h-88v370zM363 328q42 0 62 11t20 46q0 31 -15.5 43.5t-48.5 12.5h-73v-113h55z" />
    <glyph glyph-name="macron" unicode="&#xaf;" horiz-adv-x="360" 
d="M21 656h318v-97h-318v97z" />
    <glyph glyph-name="degree" unicode="&#xb0;" horiz-adv-x="306" 
d="M66 525.5q-36 33.5 -36 86.5q0 54 35.5 87t86.5 33q53 0 88.5 -33t35.5 -87t-36 -87t-88 -33q-50 0 -86 33.5zM182.5 582q12.5 12 12.5 30q0 17 -12.5 29t-30.5 12q-17 0 -29.5 -12t-12.5 -29q0 -18 12.5 -30t29.5 -12q18 0 30.5 12z" />
    <glyph glyph-name="plusminus" unicode="&#xb1;" horiz-adv-x="462" 
d="M168 291h-135v124h135v129h126v-129h135v-124h-135v-127h-126v127zM33 124h396v-124h-396v124z" />
    <glyph glyph-name="uni00B2" unicode="&#xb2;" horiz-adv-x="304" 
d="M31 418q12 17 24.5 29t26 22.5t18.5 14.5q6 5 25 20t24.5 22.5t5.5 16.5q0 15 -11 21.5t-36 6.5q-32 0 -71 -16v80q19 7 51 13t62 6q57 0 89 -24t32 -62q0 -26 -9.5 -43.5t-34.5 -40.5l-19 -16q-10 -7 -21 -18h86v-80h-242v48z" />
    <glyph glyph-name="uni00B3" unicode="&#xb3;" horiz-adv-x="308" 
d="M79.5 366q-33.5 4 -48.5 10v69q33 -15 77 -15q29 0 41.5 5.5t12.5 18.5q0 25 -46 25h-44l5 59h37q42 0 42 26q0 20 -49 20q-40 0 -72 -15v70q17 6 47 10.5t56 4.5q68 0 100.5 -22.5t32.5 -60.5q0 -44 -33 -63q39 -13 39 -59q0 -87 -139 -87q-25 0 -58.5 4z" />
    <glyph glyph-name="acute" unicode="&#xb4;" horiz-adv-x="280" 
d="M116 718h131l-92 -196h-123z" />
    <glyph glyph-name="paragraph" unicode="&#xb6;" horiz-adv-x="652" 
d="M263 253q-105 0 -168.5 54t-63.5 170q0 118 70 175.5t186 57.5h344v-787h-152v663h-65v-663h-151v330z" />
    <glyph glyph-name="periodcentered" unicode="&#xb7;" horiz-adv-x="191" 
d="M31 345h129v-118h-129v118z" />
    <glyph glyph-name="cedilla" unicode="&#xb8;" horiz-adv-x="283" 
d="M62 -237.5q-25 2.5 -36 5.5v71q29 -8 60 -8q42 0 59 7t17 28t-15.5 27.5t-50.5 6.5h-53l29 100h95l-15 -43q55 0 82 -24.5t27 -68.5q0 -51 -38.5 -77.5t-117.5 -26.5q-18 0 -43 2.5z" />
    <glyph glyph-name="uni00B9" unicode="&#xb9;" horiz-adv-x="208" 
d="M83 546l-63 -12v85l177 35v-284h-114v176z" />
    <glyph glyph-name="ordmasculine" unicode="&#xba;" horiz-adv-x="360" 
d="M31 517q0 137 148 137q150 0 150 -137t-150 -137q-148 0 -148 137zM220.5 465q12.5 16 12.5 52q0 35 -12.5 51t-41.5 16q-28 0 -40.5 -16t-12.5 -51q0 -36 12.5 -52t40.5 -16q29 0 41.5 16z" />
    <glyph glyph-name="guillemotright" unicode="&#xbb;" horiz-adv-x="657" 
d="M31 147l184 137l-184 137l61 90l266 -196v-61l-266 -196zM298 147l185 137l-185 137l62 90l266 -196v-61l-266 -196z" />
    <glyph glyph-name="onequarter" unicode="&#xbc;" horiz-adv-x="669" 
d="M94 546l-63 -12v85l177 35v-284h-114v176zM421 644h153l-338 -644h-152zM499 46h-134v70l133 168h110v-164h30v-74h-30v-46h-109v46zM526 120v81l-62 -81h62z" />
    <glyph glyph-name="onehalf" unicode="&#xbd;" horiz-adv-x="684" 
d="M94 546l-63 -12v85l177 35v-284h-114v176zM421 644h153l-338 -644h-152zM400 48q12 17 24 28t25.5 22t19.5 16q8 6 26.5 20.5t24 22t5.5 16.5q0 15 -11.5 21.5t-35.5 6.5q-33 0 -72 -16v80q20 7 52 13t62 6q57 0 88.5 -24t31.5 -62q0 -26 -9.5 -43.5t-34.5 -40.5l-17 -15
l-22 -19h85v-80h-242v48z" />
    <glyph glyph-name="threequarters" unicode="&#xbe;" horiz-adv-x="685" 
d="M79.5 366q-33.5 4 -48.5 10v69q33 -15 77 -15q29 0 41.5 5.5t12.5 18.5q0 25 -46 25h-44l5 59h37q42 0 42 26q0 20 -49 20q-40 0 -72 -15v70q17 6 47 10.5t56 4.5q68 0 100.5 -22.5t32.5 -60.5q0 -44 -33 -63q39 -13 39 -59q0 -87 -139 -87q-25 0 -58.5 4zM437 644h153
l-338 -644h-152zM504 46h-134v70l133 168h110v-164h30v-74h-30v-46h-109v46zM531 120v81l-62 -81h62z" />
    <glyph glyph-name="questiondown" unicode="&#xbf;" horiz-adv-x="498" 
d="M202 584h169v-116h-169v116zM92.5 -20q-61.5 50 -61.5 139q0 53 21 87.5t69 73.5l19 16q37 29 52.5 49t15.5 49v13h156v-19q0 -37 -15 -64t-46 -56q-6 -5 -42 -36q-34 -27 -50 -46t-16 -46q0 -39 27.5 -55.5t91.5 -16.5q41 0 82 10.5t71 26.5v-135q-38 -19 -89 -29.5
t-109 -10.5q-115 0 -176.5 50z" />
    <glyph glyph-name="Agrave" unicode="&#xc0;" horiz-adv-x="728" 
d="M207 884h132l84 -196h-123zM277 644h174l246 -644h-168l-58 146h-215l-57 -146h-168zM449 265l-86 224l-85 -224h171z" />
    <glyph glyph-name="Aacute" unicode="&#xc1;" horiz-adv-x="728" 
d="M381 884h132l-92 -196h-124zM277 644h174l246 -644h-168l-58 146h-215l-57 -146h-168zM449 265l-86 224l-85 -224h171z" />
    <glyph glyph-name="Acircumflex" unicode="&#xc2;" horiz-adv-x="728" 
d="M313 874h100l145 -187h-120l-75 104l-72 -104h-123zM277 644h174l246 -644h-168l-58 146h-215l-57 -146h-168zM449 265l-86 224l-85 -224h171z" />
    <glyph glyph-name="Atilde" unicode="&#xc3;" horiz-adv-x="728" 
d="M411.5 695.5q-21.5 5.5 -50.5 16.5q-25 9 -43 14t-35 5q-56 0 -94 -38v107q15 14 39.5 23t51.5 9q22 0 40 -5t49 -16q28 -10 45.5 -15t36.5 -5q29 0 51.5 10.5t35.5 28.5v-108q-10 -14 -33 -23t-51 -9q-21 0 -42.5 5.5zM277 644h174l246 -644h-168l-58 146h-215l-57 -146
h-168zM449 265l-86 224l-85 -224h171z" />
    <glyph glyph-name="Adieresis" unicode="&#xc4;" horiz-adv-x="728" 
d="M201 822h118v-109h-118v109zM407 822h118v-109h-118v109zM277 644h174l246 -644h-168l-58 146h-215l-57 -146h-168zM449 265l-86 224l-85 -224h171z" />
    <glyph glyph-name="Aring" unicode="&#xc5;" horiz-adv-x="728" 
d="M697 0h-168l-58 146h-215l-57 -146h-168l239 625q-38 35 -38 92q0 55 35.5 90.5t95.5 35.5q61 0 96.5 -35.5t35.5 -90.5q0 -27 -9.5 -51t-27.5 -40zM321.5 757q-15.5 -16 -15.5 -40t15.5 -39.5t41.5 -15.5q27 0 42.5 15.5t15.5 39.5t-15.5 40t-42.5 16q-26 0 -41.5 -16z
M449 265l-86 224l-85 -224h171z" />
    <glyph glyph-name="AE" unicode="&#xc6;" horiz-adv-x="854" 
d="M277 644h546v-124h-261v-135h224v-126h-224v-135h261v-124h-421v147h-142l-57 -147h-172zM402 272v248h-12l-93 -248h105z" />
    <glyph glyph-name="Ccedilla" unicode="&#xc7;" horiz-adv-x="603" 
d="M417 -9l-12 -34q55 0 82 -24.5t27 -68.5q0 -50 -39 -77t-118 -27q-18 0 -43 2.5t-36 5.5v71q29 -8 60 -8q43 0 59.5 7t16.5 28t-15.5 27.5t-49.5 6.5h-54l27 93q-142 13 -216.5 97.5t-74.5 226.5q0 163 87 250t258 87q56 0 102.5 -8.5t92.5 -24.5v-141q-87 36 -183 36
q-100 0 -146.5 -48t-46.5 -151q0 -97 48.5 -143.5t146.5 -46.5q97 0 182 35v-142q-71 -25 -155 -29z" />
    <glyph glyph-name="Egrave" unicode="&#xc8;" horiz-adv-x="552" 
d="M150 884h132l84 -196h-123zM51 644h475v-124h-314v-135h277v-126h-277v-135h314v-124h-475v644z" />
    <glyph glyph-name="Eacute" unicode="&#xc9;" horiz-adv-x="552" 
d="M295 884h132l-92 -196h-124zM51 644h475v-124h-314v-135h277v-126h-277v-135h314v-124h-475v644z" />
    <glyph glyph-name="Ecircumflex" unicode="&#xca;" horiz-adv-x="552" 
d="M238 874h100l145 -187h-120l-75 104l-72 -104h-123zM51 644h475v-124h-314v-135h277v-126h-277v-135h314v-124h-475v644z" />
    <glyph glyph-name="Edieresis" unicode="&#xcb;" horiz-adv-x="552" 
d="M130 823h118v-109h-118v109zM336 823h118v-109h-118v109zM51 644h475v-124h-314v-135h277v-126h-277v-135h314v-124h-475v644z" />
    <glyph glyph-name="Igrave" unicode="&#xcc;" horiz-adv-x="263" 
d="M-22 884h132l84 -196h-123zM51 644h161v-644h-161v644z" />
    <glyph glyph-name="Iacute" unicode="&#xcd;" horiz-adv-x="264" 
d="M151 884h132l-92 -196h-124zM51 644h161v-644h-161v644z" />
    <glyph glyph-name="Icircumflex" unicode="&#xce;" horiz-adv-x="264" 
d="M81 874h100l145 -187h-120l-75 104l-72 -104h-123zM51 644h161v-644h-161v644z" />
    <glyph glyph-name="Idieresis" unicode="&#xcf;" horiz-adv-x="263" 
d="M-30 829h118v-109h-118v109zM176 829h118v-109h-118v109zM51 644h161v-644h-161v644z" />
    <glyph glyph-name="Eth" unicode="&#xd0;" horiz-adv-x="707" 
d="M94 257h-73v117h73v270h279q151 0 226.5 -77t75.5 -249q0 -163 -75.5 -240.5t-226.5 -77.5h-279v257zM351 124q56 0 90 16t52 58t18 120q0 79 -16.5 122.5t-51 61.5t-92.5 18h-96v-146h126v-117h-126v-133h96z" />
    <glyph glyph-name="Ntilde" unicode="&#xd1;" horiz-adv-x="676" 
d="M394.5 703.5q-21.5 5.5 -50.5 16.5q-25 9 -43 14t-35 5q-56 0 -94 -38v107q15 14 39.5 23t51.5 9q22 0 40 -5t49 -16q28 -10 45.5 -15t36.5 -5q29 0 51.5 10.5t35.5 28.5v-108q-10 -14 -33 -23t-51 -9q-21 0 -42.5 5.5zM51 644h138l274 -385v385h162v-644h-139l-274 384
v-384h-161v644z" />
    <glyph glyph-name="Ograve" unicode="&#xd2;" horiz-adv-x="704" 
d="M203 884h132l84 -196h-123zM112 71q-81 81 -81 248q0 175 80 255t241 80q160 0 240.5 -80t80.5 -255q0 -167 -81 -248t-240 -81t-240 81zM470.5 173.5q37.5 46.5 37.5 145.5q0 107 -37 152t-119 45q-83 0 -120 -45t-37 -152q0 -99 37.5 -145.5t119.5 -46.5
q81 0 118.5 46.5z" />
    <glyph glyph-name="Oacute" unicode="&#xd3;" horiz-adv-x="704" 
d="M363 884h132l-92 -196h-124zM112 71q-81 81 -81 248q0 175 80 255t241 80q160 0 240.5 -80t80.5 -255q0 -167 -81 -248t-240 -81t-240 81zM470.5 173.5q37.5 46.5 37.5 145.5q0 107 -37 152t-119 45q-83 0 -120 -45t-37 -152q0 -99 37.5 -145.5t119.5 -46.5
q81 0 118.5 46.5z" />
    <glyph glyph-name="Ocircumflex" unicode="&#xd4;" horiz-adv-x="704" 
d="M302 874h100l145 -187h-120l-75 104l-72 -104h-123zM112 71q-81 81 -81 248q0 175 80 255t241 80q160 0 240.5 -80t80.5 -255q0 -167 -81 -248t-240 -81t-240 81zM470.5 173.5q37.5 46.5 37.5 145.5q0 107 -37 152t-119 45q-83 0 -120 -45t-37 -152q0 -99 37.5 -145.5
t119.5 -46.5q81 0 118.5 46.5z" />
    <glyph glyph-name="Otilde" unicode="&#xd5;" horiz-adv-x="704" 
d="M400.5 715.5q-21.5 5.5 -50.5 16.5q-25 9 -43 14t-35 5q-56 0 -94 -38v107q15 14 39.5 23t51.5 9q22 0 40 -5t49 -16q28 -10 45.5 -15t36.5 -5q29 0 51.5 10.5t35.5 28.5v-108q-10 -14 -33 -23t-51 -9q-21 0 -42.5 5.5zM112 71q-81 81 -81 248q0 175 80 255t241 80
q160 0 240.5 -80t80.5 -255q0 -167 -81 -248t-240 -81t-240 81zM470.5 173.5q37.5 46.5 37.5 145.5q0 107 -37 152t-119 45q-83 0 -120 -45t-37 -152q0 -99 37.5 -145.5t119.5 -46.5q81 0 118.5 46.5z" />
    <glyph glyph-name="Odieresis" unicode="&#xd6;" horiz-adv-x="704" 
d="M190 823h118v-109h-118v109zM396 823h118v-109h-118v109zM112 71q-81 81 -81 248q0 175 80 255t241 80q160 0 240.5 -80t80.5 -255q0 -167 -81 -248t-240 -81t-240 81zM470.5 173.5q37.5 46.5 37.5 145.5q0 107 -37 152t-119 45q-83 0 -120 -45t-37 -152
q0 -99 37.5 -145.5t119.5 -46.5q81 0 118.5 46.5z" />
    <glyph glyph-name="multiply" unicode="&#xd7;" horiz-adv-x="422" 
d="M212 171l-98 -96l-80 79l98 97l-101 101l79 79l99 -102l102 101l79 -79l-101 -102l101 -101l-77 -78z" />
    <glyph glyph-name="Oslash" unicode="&#xd8;" horiz-adv-x="704" 
d="M184 21q-153 68 -153 298q0 175 80 255t241 80q36 0 76 -5l17 44h89l-25 -65q81 -32 122.5 -108t41.5 -201q0 -167 -81 -248t-240 -81q-41 0 -88 7l-19 -50h-89zM376 515l-24 1q-83 0 -120 -45t-37 -152q0 -109 45 -154zM470.5 173.5q37.5 46.5 37.5 145.5q0 64 -13 105
t-41 63l-138 -358q22 -2 36 -2q81 0 118.5 46.5z" />
    <glyph glyph-name="Ugrave" unicode="&#xd9;" horiz-adv-x="684" 
d="M196 884h132l84 -196h-123zM125.5 56.5q-79.5 66.5 -79.5 188.5v399h161v-384q0 -67 34.5 -100t100.5 -33t100.5 33t34.5 100v384h161v-399q0 -122 -79.5 -188.5t-216.5 -66.5t-216.5 66.5z" />
    <glyph glyph-name="Uacute" unicode="&#xda;" horiz-adv-x="684" 
d="M361 884h132l-92 -196h-124zM125.5 56.5q-79.5 66.5 -79.5 188.5v399h161v-384q0 -67 34.5 -100t100.5 -33t100.5 33t34.5 100v384h161v-399q0 -122 -79.5 -188.5t-216.5 -66.5t-216.5 66.5z" />
    <glyph glyph-name="Ucircumflex" unicode="&#xdb;" horiz-adv-x="684" 
d="M292 874h100l145 -187h-120l-75 104l-72 -104h-123zM125.5 56.5q-79.5 66.5 -79.5 188.5v399h161v-384q0 -67 34.5 -100t100.5 -33t100.5 33t34.5 100v384h161v-399q0 -122 -79.5 -188.5t-216.5 -66.5t-216.5 66.5z" />
    <glyph glyph-name="Udieresis" unicode="&#xdc;" horiz-adv-x="684" 
d="M180 823h118v-109h-118v109zM386 823h118v-109h-118v109zM125.5 56.5q-79.5 66.5 -79.5 188.5v399h161v-384q0 -67 34.5 -100t100.5 -33t100.5 33t34.5 100v384h161v-399q0 -122 -79.5 -188.5t-216.5 -66.5t-216.5 66.5z" />
    <glyph glyph-name="Yacute" unicode="&#xdd;" horiz-adv-x="686" 
d="M359 884h132l-92 -196h-124zM262 237l-231 407h168l144 -267l144 267h168l-231 -407v-237h-162v237z" />
    <glyph glyph-name="Thorn" unicode="&#xde;" horiz-adv-x="606" 
d="M51 644h161v-97h156q111 0 168.5 -62.5t57.5 -164.5q0 -66 -28 -117t-80.5 -79.5t-121.5 -28.5h-152v-95h-161v644zM328 219q50 0 76 27t26 74q0 103 -97 103h-121v-204h116z" />
    <glyph glyph-name="germandbls" unicode="&#xdf;" horiz-adv-x="640" 
d="M256 12v129q44 -19 103 -19q40 0 63 19.5t23 56.5q0 43 -23 61.5t-73 18.5h-68v117h61q43 0 61.5 21t18.5 64q0 38 -22.5 60t-80.5 22q-57 0 -84.5 -28.5t-27.5 -91.5v-442h-161v448q0 76 33.5 133t94.5 88t142 31q86 0 147 -30t92 -79.5t31 -107.5q0 -51 -19.5 -89
t-52.5 -56q44 -17 69.5 -55.5t25.5 -93.5q0 -94 -56 -146.5t-157 -52.5q-82 0 -140 22z" />
    <glyph glyph-name="agrave" unicode="&#xe0;" horiz-adv-x="561" 
d="M141 718h132l84 -196h-123zM78.5 28.5q-47.5 38.5 -47.5 110.5q0 74 50.5 115t147.5 41h132v11q0 37 -24.5 52t-89.5 15q-81 0 -159 -25v104q36 14 87 23t105 9q113 0 174 -46t61 -142v-296h-141l-8 40q-55 -50 -167 -50q-73 0 -120.5 38.5zM361 135v67h-114
q-36 0 -53.5 -14t-17.5 -43q0 -56 74 -56q72 0 111 46z" />
    <glyph glyph-name="aacute" unicode="&#xe1;" horiz-adv-x="561" 
d="M305 718h132l-92 -196h-124zM78.5 28.5q-47.5 38.5 -47.5 110.5q0 74 50.5 115t147.5 41h132v11q0 37 -24.5 52t-89.5 15q-81 0 -159 -25v104q36 14 87 23t105 9q113 0 174 -46t61 -142v-296h-141l-8 40q-55 -50 -167 -50q-73 0 -120.5 38.5zM361 135v67h-114
q-36 0 -53.5 -14t-17.5 -43q0 -56 74 -56q72 0 111 46z" />
    <glyph glyph-name="acircumflex" unicode="&#xe2;" horiz-adv-x="561" 
d="M243 708h100l145 -187h-120l-75 104l-72 -104h-123zM78.5 28.5q-47.5 38.5 -47.5 110.5q0 74 50.5 115t147.5 41h132v11q0 37 -24.5 52t-89.5 15q-81 0 -159 -25v104q36 14 87 23t105 9q113 0 174 -46t61 -142v-296h-141l-8 40q-55 -50 -167 -50q-73 0 -120.5 38.5z
M361 135v67h-114q-36 0 -53.5 -14t-17.5 -43q0 -56 74 -56q72 0 111 46z" />
    <glyph glyph-name="atilde" unicode="&#xe3;" horiz-adv-x="561" 
d="M347.5 537.5q-21.5 5.5 -50.5 16.5q-25 9 -43 14t-35 5q-56 0 -94 -38v107q15 14 39.5 23t51.5 9q22 0 40 -5t49 -16q28 -10 45.5 -15t36.5 -5q29 0 51.5 10.5t35.5 28.5v-108q-10 -14 -33 -23t-51 -9q-21 0 -42.5 5.5zM78.5 28.5q-47.5 38.5 -47.5 110.5q0 74 50.5 115
t147.5 41h132v11q0 37 -24.5 52t-89.5 15q-81 0 -159 -25v104q36 14 87 23t105 9q113 0 174 -46t61 -142v-296h-141l-8 40q-55 -50 -167 -50q-73 0 -120.5 38.5zM361 135v67h-114q-36 0 -53.5 -14t-17.5 -43q0 -56 74 -56q72 0 111 46z" />
    <glyph glyph-name="adieresis" unicode="&#xe4;" horiz-adv-x="561" 
d="M137 657h118v-109h-118v109zM343 657h118v-109h-118v109zM78.5 28.5q-47.5 38.5 -47.5 110.5q0 74 50.5 115t147.5 41h132v11q0 37 -24.5 52t-89.5 15q-81 0 -159 -25v104q36 14 87 23t105 9q113 0 174 -46t61 -142v-296h-141l-8 40q-55 -50 -167 -50q-73 0 -120.5 38.5z
M361 135v67h-114q-36 0 -53.5 -14t-17.5 -43q0 -56 74 -56q72 0 111 46z" />
    <glyph glyph-name="aring" unicode="&#xe5;" horiz-adv-x="561" 
d="M204.5 556.5q-35.5 35.5 -35.5 89.5q0 55 35.5 90.5t95.5 35.5q61 0 96.5 -35.5t35.5 -90.5q0 -54 -35.5 -89.5t-96.5 -35.5q-60 0 -95.5 35.5zM342.5 606.5q15.5 15.5 15.5 39.5t-15.5 40t-42.5 16q-26 0 -41.5 -16t-15.5 -40t15.5 -39.5t41.5 -15.5q27 0 42.5 15.5z
M78.5 28.5q-47.5 38.5 -47.5 110.5q0 74 50.5 115t147.5 41h132v11q0 37 -24.5 52t-89.5 15q-81 0 -159 -25v104q36 14 87 23t105 9q113 0 174 -46t61 -142v-296h-141l-8 40q-55 -50 -167 -50q-73 0 -120.5 38.5zM361 135v67h-114q-36 0 -53.5 -14t-17.5 -43q0 -56 74 -56
q72 0 111 46z" />
    <glyph glyph-name="ae" unicode="&#xe6;" horiz-adv-x="882" 
d="M81.5 28q-50.5 38 -50.5 111q0 74 50.5 115t147.5 41h132v11q0 37 -24.5 52t-89.5 15q-81 0 -159 -25v104q36 14 87 23t105 9q108 0 167 -46q30 22 73 34t94 12q111 0 174 -58t63 -156v-85h-336q11 -46 50.5 -66t111.5 -20q38 0 78.5 7t68.5 18v-103q-68 -31 -184 -31
q-58 0 -110 19t-83 54q-46 -36 -98 -54.5t-137 -18.5q-80 0 -130.5 38zM711 278v21q0 76 -92 76q-57 0 -80.5 -23t-23.5 -74h196zM361 131v71h-114q-36 0 -53.5 -14t-17.5 -43q0 -56 74 -56q69 0 111 42z" />
    <glyph glyph-name="ccedilla" unicode="&#xe7;" horiz-adv-x="501" 
d="M334 -9l-12 -34q55 0 82 -24.5t27 -68.5q0 -50 -39 -77t-118 -27q-17 0 -42.5 2.5t-36.5 5.5v71q29 -8 60 -8q43 0 59.5 7t16.5 28t-15.5 27.5t-49.5 6.5h-54l27 94q-100 14 -154 75.5t-54 167.5q0 122 73 184.5t200 62.5q52 0 90.5 -7.5t74.5 -24.5v-114q-56 27 -131 27
q-73 0 -108 -29t-35 -99q0 -67 34 -97.5t108 -30.5q73 0 133 30v-119q-61 -26 -136 -29z" />
    <glyph glyph-name="egrave" unicode="&#xe8;" horiz-adv-x="547" 
d="M127 718h132l84 -196h-123zM104.5 53q-73.5 63 -73.5 184q0 116 63.5 181.5t184.5 65.5q111 0 174 -58t63 -156v-85h-336q11 -46 50 -65t112 -19q39 0 79.5 7t67.5 18v-105q-68 -31 -184 -31q-127 0 -200.5 63zM376 278v21q0 76 -92 76q-57 0 -80.5 -23t-23.5 -74h196z
" />
    <glyph glyph-name="eacute" unicode="&#xe9;" horiz-adv-x="547" 
d="M304 718h132l-92 -196h-124zM104.5 53q-73.5 63 -73.5 184q0 116 63.5 181.5t184.5 65.5q111 0 174 -58t63 -156v-85h-336q11 -46 50 -65t112 -19q39 0 79.5 7t67.5 18v-105q-68 -31 -184 -31q-127 0 -200.5 63zM376 278v21q0 76 -92 76q-57 0 -80.5 -23t-23.5 -74h196z
" />
    <glyph glyph-name="ecircumflex" unicode="&#xea;" horiz-adv-x="547" 
d="M231 708h100l145 -187h-120l-75 104l-72 -104h-123zM104.5 53q-73.5 63 -73.5 184q0 116 63.5 181.5t184.5 65.5q111 0 174 -58t63 -156v-85h-336q11 -46 50 -65t112 -19q39 0 79.5 7t67.5 18v-105q-68 -31 -184 -31q-127 0 -200.5 63zM376 278v21q0 76 -92 76
q-57 0 -80.5 -23t-23.5 -74h196z" />
    <glyph glyph-name="edieresis" unicode="&#xeb;" horiz-adv-x="547" 
d="M119 657h118v-109h-118v109zM325 657h118v-109h-118v109zM104.5 53q-73.5 63 -73.5 184q0 116 63.5 181.5t184.5 65.5q111 0 174 -58t63 -156v-85h-336q11 -46 50 -65t112 -19q39 0 79.5 7t67.5 18v-105q-68 -31 -184 -31q-127 0 -200.5 63zM376 278v21q0 76 -92 76
q-57 0 -80.5 -23t-23.5 -74h196z" />
    <glyph glyph-name="igrave" unicode="&#xec;" horiz-adv-x="334" 
d="M41 718h132l84 -196h-123zM121 355h-70l14 119h217v-474h-161v355z" />
    <glyph glyph-name="iacute" unicode="&#xed;" horiz-adv-x="334" 
d="M204 718h132l-92 -196h-124zM121 355h-70l14 119h217v-474h-161v355z" />
    <glyph glyph-name="icircumflex" unicode="&#xee;" horiz-adv-x="334" 
d="M123 708h100l145 -187h-120l-75 104l-72 -104h-123zM121 355h-70l14 119h217v-474h-161v355z" />
    <glyph glyph-name="idieresis" unicode="&#xef;" horiz-adv-x="334" 
d="M8 657h118v-109h-118v109zM214 657h118v-109h-118v109zM121 355h-70l14 119h217v-474h-161v355z" />
    <glyph glyph-name="eth" unicode="&#xf0;" horiz-adv-x="572" 
d="M94 44.5q-63 54.5 -63 155.5t58.5 152.5t168.5 51.5q39 0 78 -11t65 -29v29q0 61 -17 96l-113 -49v59l75 32q-32 20 -84 20q-76 0 -145 -29v105q72 27 171 27q122 0 190 -66l87 38v-59l-53 -23q40 -67 40 -174v-123q0 -129 -65 -193t-197 -64q-133 0 -196 54.5z
M373.5 124q27.5 28 27.5 88v56q-51 36 -113 36q-60 0 -86.5 -26.5t-26.5 -77.5q0 -50 29 -77t85 -27q57 0 84.5 28z" />
    <glyph glyph-name="ntilde" unicode="&#xf1;" horiz-adv-x="595" 
d="M349.5 537.5q-21.5 5.5 -50.5 16.5q-25 9 -43 14t-35 5q-56 0 -94 -38v107q15 14 39.5 23t51.5 9q22 0 40 -5t49 -16q28 -10 45.5 -15t36.5 -5q29 0 51.5 10.5t35.5 28.5v-108q-10 -14 -33 -23t-51 -9q-21 0 -42.5 5.5zM51 474h150l5 -41q31 22 75.5 36.5t91.5 14.5
q91 0 133.5 -44t42.5 -136v-304h-161v291q0 40 -17.5 57t-60.5 17q-26 0 -53 -12t-45 -30v-323h-161v474z" />
    <glyph glyph-name="ograve" unicode="&#xf2;" horiz-adv-x="597" 
d="M145 718h132l84 -196h-123zM31 237q0 120 66.5 183.5t200.5 63.5q135 0 201.5 -63t66.5 -184q0 -247 -268 -247q-267 0 -267 247zM378 144q24 28 24 93t-24.5 93t-79.5 28t-79 -28.5t-24 -92.5q0 -65 24 -93t79 -28q56 0 80 28z" />
    <glyph glyph-name="oacute" unicode="&#xf3;" horiz-adv-x="597" 
d="M309 718h132l-92 -196h-124zM31 237q0 120 66.5 183.5t200.5 63.5q135 0 201.5 -63t66.5 -184q0 -247 -268 -247q-267 0 -267 247zM378 144q24 28 24 93t-24.5 93t-79.5 28t-79 -28.5t-24 -92.5q0 -65 24 -93t79 -28q56 0 80 28z" />
    <glyph glyph-name="ocircumflex" unicode="&#xf4;" horiz-adv-x="597" 
d="M248 708h100l145 -187h-120l-75 104l-72 -104h-123zM31 237q0 120 66.5 183.5t200.5 63.5q135 0 201.5 -63t66.5 -184q0 -247 -268 -247q-267 0 -267 247zM378 144q24 28 24 93t-24.5 93t-79.5 28t-79 -28.5t-24 -92.5q0 -65 24 -93t79 -28q56 0 80 28z" />
    <glyph glyph-name="otilde" unicode="&#xf5;" horiz-adv-x="597" 
d="M346.5 549.5q-21.5 5.5 -50.5 16.5q-25 9 -43 14t-35 5q-56 0 -94 -38v107q15 14 39.5 23t51.5 9q22 0 40 -5t49 -16q28 -10 45.5 -15t36.5 -5q29 0 51.5 10.5t35.5 28.5v-108q-10 -14 -33 -23t-51 -9q-21 0 -42.5 5.5zM31 237q0 120 66.5 183.5t200.5 63.5
q135 0 201.5 -63t66.5 -184q0 -247 -268 -247q-267 0 -267 247zM378 144q24 28 24 93t-24.5 93t-79.5 28t-79 -28.5t-24 -92.5q0 -65 24 -93t79 -28q56 0 80 28z" />
    <glyph glyph-name="odieresis" unicode="&#xf6;" horiz-adv-x="597" 
d="M136 657h118v-109h-118v109zM342 657h118v-109h-118v109zM31 237q0 120 66.5 183.5t200.5 63.5q135 0 201.5 -63t66.5 -184q0 -247 -268 -247q-267 0 -267 247zM378 144q24 28 24 93t-24.5 93t-79.5 28t-79 -28.5t-24 -92.5q0 -65 24 -93t79 -28q56 0 80 28z" />
    <glyph glyph-name="divide" unicode="&#xf7;" horiz-adv-x="457" 
d="M170 510h118v-106h-118v106zM31 340h395v-125h-395v125zM170 154h118v-106h-118v106z" />
    <glyph glyph-name="oslash" unicode="&#xf8;" horiz-adv-x="597" 
d="M165 11q-134 50 -134 226q0 120 66.5 183.5t200.5 63.5q25 0 49 -3l18 47h87l-25 -64q139 -52 139 -227q0 -247 -268 -247q-28 0 -54 3l-17 -46h-86zM300 361h-2q-57 0 -82.5 -29t-25.5 -95q0 -67 26 -96zM298 113q57 0 83 29t26 95q0 68 -30 98l-86 -222h7z" />
    <glyph glyph-name="ugrave" unicode="&#xf9;" horiz-adv-x="595" 
d="M156 718h132l84 -196h-123zM92.5 37.5q-46.5 47.5 -46.5 138.5v298h161v-289q0 -40 19 -58.5t59 -18.5q28 0 54 11.5t44 30.5v324h161v-474h-150l-5 40q-67 -50 -165 -50q-85 0 -131.5 47.5z" />
    <glyph glyph-name="uacute" unicode="&#xfa;" horiz-adv-x="595" 
d="M299 718h132l-92 -196h-124zM92.5 37.5q-46.5 47.5 -46.5 138.5v298h161v-289q0 -40 19 -58.5t59 -18.5q28 0 54 11.5t44 30.5v324h161v-474h-150l-5 40q-67 -50 -165 -50q-85 0 -131.5 47.5z" />
    <glyph glyph-name="ucircumflex" unicode="&#xfb;" horiz-adv-x="595" 
d="M244 708h100l145 -187h-120l-75 104l-72 -104h-123zM92.5 37.5q-46.5 47.5 -46.5 138.5v298h161v-289q0 -40 19 -58.5t59 -18.5q28 0 54 11.5t44 30.5v324h161v-474h-150l-5 40q-67 -50 -165 -50q-85 0 -131.5 47.5z" />
    <glyph glyph-name="udieresis" unicode="&#xfc;" horiz-adv-x="595" 
d="M133 657h118v-109h-118v109zM339 657h118v-109h-118v109zM92.5 37.5q-46.5 47.5 -46.5 138.5v298h161v-289q0 -40 19 -58.5t59 -18.5q28 0 54 11.5t44 30.5v324h161v-474h-150l-5 40q-67 -50 -165 -50q-85 0 -131.5 47.5z" />
    <glyph glyph-name="yacute" unicode="&#xfd;" horiz-adv-x="627" 
d="M339 718h132l-92 -196h-124zM129.5 -172.5q-25.5 3.5 -49.5 13.5v112q28 -10 61 -10q40 0 61 14t42 52l-213 465h169l125 -301l123 301h168l-181 -435q-44 -106 -100 -160.5t-143 -54.5q-37 0 -62.5 3.5z" />
    <glyph glyph-name="thorn" unicode="&#xfe;" horiz-adv-x="598" 
d="M51 700h161v-248q52 32 131 32q107 0 165.5 -61t58.5 -186q0 -124 -59 -185.5t-168 -61.5q-75 0 -128 31v-237h-161v916zM377 139.5q26 31.5 26 100.5q0 67 -24 96.5t-77 29.5q-51 0 -90 -36v-192q20 -15 39.5 -22.5t47.5 -7.5q52 0 78 31.5z" />
    <glyph glyph-name="ydieresis" unicode="&#xff;" horiz-adv-x="627" 
d="M164 674h118v-109h-118v109zM370 674h118v-109h-118v109zM129.5 -172.5q-25.5 3.5 -49.5 13.5v112q28 -10 61 -10q40 0 61 14t42 52l-213 465h169l125 -301l123 301h168l-181 -435q-44 -106 -100 -160.5t-143 -54.5q-37 0 -62.5 3.5z" />
    <glyph glyph-name="Amacron" unicode="&#x100;" horiz-adv-x="728" 
d="M204 801h318v-97h-318v97zM277 644h174l246 -644h-168l-58 146h-215l-57 -146h-168zM449 265l-86 224l-85 -224h171z" />
    <glyph glyph-name="amacron" unicode="&#x101;" horiz-adv-x="561" 
d="M145 635h318v-97h-318v97zM78.5 28.5q-47.5 38.5 -47.5 110.5q0 74 50.5 115t147.5 41h132v11q0 37 -24.5 52t-89.5 15q-81 0 -159 -25v104q36 14 87 23t105 9q113 0 174 -46t61 -142v-296h-141l-8 40q-55 -50 -167 -50q-73 0 -120.5 38.5zM361 135v67h-114
q-36 0 -53.5 -14t-17.5 -43q0 -56 74 -56q72 0 111 46z" />
    <glyph glyph-name="Abreve" unicode="&#x102;" horiz-adv-x="728" 
d="M237 733.5q-47 45.5 -47 126.5h106q0 -37 16.5 -59.5t50.5 -22.5q35 0 52 22.5t17 59.5h106q0 -81 -48 -126.5t-127 -45.5t-126 45.5zM277 644h174l246 -644h-168l-58 146h-215l-57 -146h-168zM449 265l-86 224l-85 -224h171z" />
    <glyph glyph-name="abreve" unicode="&#x103;" horiz-adv-x="561" 
d="M176 567.5q-47 45.5 -47 126.5h106q0 -37 16.5 -59.5t50.5 -22.5q35 0 52 22.5t17 59.5h106q0 -81 -48 -126.5t-127 -45.5t-126 45.5zM78.5 28.5q-47.5 38.5 -47.5 110.5q0 74 50.5 115t147.5 41h132v11q0 37 -24.5 52t-89.5 15q-81 0 -159 -25v104q36 14 87 23t105 9
q113 0 174 -46t61 -142v-296h-141l-8 40q-55 -50 -167 -50q-73 0 -120.5 38.5zM361 135v67h-114q-36 0 -53.5 -14t-17.5 -43q0 -56 74 -56q72 0 111 46z" />
    <glyph glyph-name="Aogonek" unicode="&#x104;" horiz-adv-x="728" 
d="M633 -135q13 0 27 3t23 8v-81q-15 -6 -41 -10.5t-53 -4.5q-54 0 -88.5 24t-34.5 70q0 37 19.5 70t53.5 56h-10l-58 146h-215l-57 -146h-168l246 644h174l246 -644h-45q-63 -48 -63 -97q0 -38 44 -38zM449 265l-86 224l-85 -224h171z" />
    <glyph glyph-name="aogonek" unicode="&#x105;" horiz-adv-x="566" 
d="M495 -132q14 3 23 8v-81q-15 -6 -41 -10.5t-53 -4.5q-54 0 -88.5 24t-34.5 70q0 37 19.5 70t53.5 56l-8 40q-55 -50 -167 -50q-73 0 -120.5 38.5t-47.5 110.5q0 74 50.5 115t147.5 41h132v11q0 37 -24.5 52t-89.5 15q-81 0 -159 -25v104q36 14 87 23t105 9q113 0 174 -46
t61 -142v-296h-28q-63 -48 -63 -97q0 -38 44 -38q13 0 27 3zM361 202h-114q-36 0 -53.5 -14t-17.5 -43q0 -56 74 -56q72 0 111 46v67z" />
    <glyph glyph-name="Cacute" unicode="&#x106;" horiz-adv-x="603" 
d="M383 884h132l-92 -196h-124zM120.5 76q-89.5 86 -89.5 241q0 163 87 250t258 87q56 0 102.5 -8.5t92.5 -24.5v-141q-87 36 -183 36q-100 0 -146.5 -48t-46.5 -151q0 -97 48.5 -143.5t146.5 -46.5q97 0 182 35v-142q-88 -30 -195 -30q-167 0 -256.5 86z" />
    <glyph glyph-name="cacute" unicode="&#x107;" horiz-adv-x="501" 
d="M304 718h132l-92 -196h-124zM101.5 53q-70.5 63 -70.5 184q0 122 73 184.5t200 62.5q52 0 90.5 -7.5t74.5 -24.5v-114q-56 27 -131 27q-73 0 -108 -29t-35 -99q0 -67 34 -97.5t108 -30.5q73 0 133 30v-119q-69 -30 -169 -30q-129 0 -199.5 63z" />
    <glyph glyph-name="Ccircumflex" unicode="&#x108;" horiz-adv-x="603" 
d="M295 874h100l145 -187h-120l-75 104l-72 -104h-123zM120.5 76q-89.5 86 -89.5 241q0 163 87 250t258 87q56 0 102.5 -8.5t92.5 -24.5v-141q-87 36 -183 36q-100 0 -146.5 -48t-46.5 -151q0 -97 48.5 -143.5t146.5 -46.5q97 0 182 35v-142q-88 -30 -195 -30
q-167 0 -256.5 86z" />
    <glyph glyph-name="ccircumflex" unicode="&#x109;" horiz-adv-x="501" 
d="M222 708h100l145 -187h-120l-75 104l-72 -104h-123zM101.5 53q-70.5 63 -70.5 184q0 122 73 184.5t200 62.5q52 0 90.5 -7.5t74.5 -24.5v-114q-56 27 -131 27q-73 0 -108 -29t-35 -99q0 -67 34 -97.5t108 -30.5q73 0 133 30v-119q-69 -30 -169 -30q-129 0 -199.5 63z" />
    <glyph glyph-name="Cdotaccent" unicode="&#x10a;" horiz-adv-x="603" 
d="M300 823h117v-109h-117v109zM120.5 76q-89.5 86 -89.5 241q0 163 87 250t258 87q56 0 102.5 -8.5t92.5 -24.5v-141q-87 36 -183 36q-100 0 -146.5 -48t-46.5 -151q0 -97 48.5 -143.5t146.5 -46.5q97 0 182 35v-142q-88 -30 -195 -30q-167 0 -256.5 86z" />
    <glyph glyph-name="cdotaccent" unicode="&#x10b;" horiz-adv-x="501" 
d="M221 657h117v-109h-117v109zM101.5 53q-70.5 63 -70.5 184q0 122 73 184.5t200 62.5q52 0 90.5 -7.5t74.5 -24.5v-114q-56 27 -131 27q-73 0 -108 -29t-35 -99q0 -67 34 -97.5t108 -30.5q73 0 133 30v-119q-69 -30 -169 -30q-129 0 -199.5 63z" />
    <glyph glyph-name="Ccaron" unicode="&#x10c;" horiz-adv-x="603" 
d="M172 874h123l72 -104l75 104h120l-145 -187h-100zM120.5 76q-89.5 86 -89.5 241q0 163 87 250t258 87q56 0 102.5 -8.5t92.5 -24.5v-141q-87 36 -183 36q-100 0 -146.5 -48t-46.5 -151q0 -97 48.5 -143.5t146.5 -46.5q97 0 182 35v-142q-88 -30 -195 -30
q-167 0 -256.5 86z" />
    <glyph glyph-name="ccaron" unicode="&#x10d;" horiz-adv-x="502" 
d="M81 708h123l72 -104l75 104h120l-145 -187h-100zM101.5 53q-70.5 63 -70.5 184q0 122 73 184.5t200 62.5q52 0 90.5 -7.5t74.5 -24.5v-114q-56 27 -131 27q-73 0 -108 -29t-35 -99q0 -67 34 -97.5t108 -30.5q73 0 133 30v-119q-69 -30 -169 -30q-129 0 -199.5 63z" />
    <glyph glyph-name="Dcaron" unicode="&#x10e;" horiz-adv-x="663" 
d="M106 885h123l72 -104l75 104h120l-145 -187h-100zM51 644h279q151 0 226.5 -77t75.5 -249q0 -163 -75.5 -240.5t-226.5 -77.5h-279v644zM308 124q56 0 90 16t52 58t18 120q0 79 -16.5 122.5t-51 61.5t-92.5 18h-96v-396h96z" />
    <glyph glyph-name="dcaron" unicode="&#x10f;" horiz-adv-x="696" 
d="M662 702h134l-98 -209h-126zM89.5 50q-58.5 60 -58.5 183q0 124 62 187.5t164 63.5q76 0 129 -32v222h161v-674h-139l-9 40q-30 -25 -66 -37.5t-83 -12.5q-102 0 -160.5 60zM386 143v192q-34 31 -87 31q-52 0 -78 -32.5t-26 -101.5q0 -67 24.5 -96t76.5 -29q53 0 90 36z
" />
    <glyph glyph-name="Dcroat" unicode="&#x110;" horiz-adv-x="697" 
d="M84 257h-73v117h73v270h279q151 0 226.5 -77t75.5 -249q0 -163 -75.5 -240.5t-226.5 -77.5h-279v257zM341 124q56 0 90 16t52 58t18 120q0 79 -16.5 122.5t-51 61.5t-92.5 18h-96v-146h126v-117h-126v-133h96z" />
    <glyph glyph-name="dcroat" unicode="&#x111;" horiz-adv-x="599" 
d="M89.5 50q-58.5 60 -58.5 183q0 124 62 187.5t164 63.5q76 0 129 -32v69h-138v102h138v51h161v-51h41v-102h-41v-521h-139l-9 40q-30 -25 -66 -37.5t-83 -12.5q-102 0 -160.5 60zM386 143v192q-34 31 -87 31q-52 0 -78 -32.5t-26 -101.5q0 -67 24.5 -96t76.5 -29
q53 0 90 36z" />
    <glyph glyph-name="Emacron" unicode="&#x112;" horiz-adv-x="552" 
d="M121 820h318v-97h-318v97zM51 644h475v-124h-314v-135h277v-126h-277v-135h314v-124h-475v644z" />
    <glyph glyph-name="emacron" unicode="&#x113;" horiz-adv-x="547" 
d="M126 654h318v-97h-318v97zM104.5 53q-73.5 63 -73.5 184q0 116 63.5 181.5t184.5 65.5q111 0 174 -58t63 -156v-85h-336q11 -46 50 -65t112 -19q39 0 79.5 7t67.5 18v-105q-68 -31 -184 -31q-127 0 -200.5 63zM376 278v21q0 76 -92 76q-57 0 -80.5 -23t-23.5 -74h196z
" />
    <glyph glyph-name="Ebreve" unicode="&#x114;" horiz-adv-x="552" 
d="M167 733.5q-47 45.5 -47 126.5h106q0 -37 16.5 -59.5t50.5 -22.5q35 0 52 22.5t17 59.5h106q0 -81 -48 -126.5t-127 -45.5t-126 45.5zM51 644h475v-124h-314v-135h277v-126h-277v-135h314v-124h-475v644z" />
    <glyph glyph-name="ebreve" unicode="&#x115;" horiz-adv-x="547" 
d="M158 567.5q-47 45.5 -47 126.5h106q0 -37 16.5 -59.5t50.5 -22.5q35 0 52 22.5t17 59.5h106q0 -81 -48 -126.5t-127 -45.5t-126 45.5zM104.5 53q-73.5 63 -73.5 184q0 116 63.5 181.5t184.5 65.5q111 0 174 -58t63 -156v-85h-336q11 -46 50 -65t112 -19q39 0 79.5 7
t67.5 18v-105q-68 -31 -184 -31q-127 0 -200.5 63zM376 278v21q0 76 -92 76q-57 0 -80.5 -23t-23.5 -74h196z" />
    <glyph glyph-name="Edotaccent" unicode="&#x116;" horiz-adv-x="552" 
d="M229 823h117v-109h-117v109zM51 644h475v-124h-314v-135h277v-126h-277v-135h314v-124h-475v644z" />
    <glyph glyph-name="edotaccent" unicode="&#x117;" horiz-adv-x="547" 
d="M224 657h117v-109h-117v109zM104.5 53q-73.5 63 -73.5 184q0 116 63.5 181.5t184.5 65.5q111 0 174 -58t63 -156v-85h-336q11 -46 50 -65t112 -19q39 0 79.5 7t67.5 18v-105q-68 -31 -184 -31q-127 0 -200.5 63zM376 278v21q0 76 -92 76q-57 0 -80.5 -23t-23.5 -74h196z
" />
    <glyph glyph-name="Eogonek" unicode="&#x118;" horiz-adv-x="552" 
d="M212 520v-135h277v-126h-277v-135h314v-124h-39q-63 -48 -63 -97q0 -38 44 -38q13 0 27 3t23 8v-81q-15 -6 -41 -10.5t-53 -4.5q-54 0 -88.5 24t-34.5 70q0 37 19.5 70t53.5 56h-323v644h475v-124h-314z" />
    <glyph glyph-name="eogonek" unicode="&#x119;" horiz-adv-x="547" 
d="M516 185h-336q11 -46 50 -65t112 -19q39 0 79.5 7t67.5 18v-105q-30 -14 -75 -22q-61 -47 -61 -96q0 -38 44 -38q13 0 27 3t23 8v-81q-15 -6 -41 -10.5t-53 -4.5q-54 0 -88.5 24t-34.5 70q0 33 16 63t44 53q-121 4 -190 67t-69 180q0 116 63.5 181.5t184.5 65.5
q111 0 174 -58t63 -156v-85zM376 299q0 76 -92 76q-57 0 -80.5 -23t-23.5 -74h196v21z" />
    <glyph glyph-name="Ecaron" unicode="&#x11a;" horiz-adv-x="552" 
d="M101 874h123l72 -104l75 104h120l-145 -187h-100zM51 644h475v-124h-314v-135h277v-126h-277v-135h314v-124h-475v644z" />
    <glyph glyph-name="ecaron" unicode="&#x11b;" horiz-adv-x="547" 
d="M94 708h123l72 -104l75 104h120l-145 -187h-100zM104.5 53q-73.5 63 -73.5 184q0 116 63.5 181.5t184.5 65.5q111 0 174 -58t63 -156v-85h-336q11 -46 50 -65t112 -19q39 0 79.5 7t67.5 18v-105q-68 -31 -184 -31q-127 0 -200.5 63zM376 278v21q0 76 -92 76
q-57 0 -80.5 -23t-23.5 -74h196z" />
    <glyph glyph-name="Gcircumflex" unicode="&#x11c;" horiz-adv-x="647" 
d="M311 874h100l145 -187h-120l-75 104l-72 -104h-123zM118.5 74q-87.5 84 -87.5 239q0 163 90 252t261 89q113 0 197 -28v-138q-76 28 -185 28q-104 0 -151.5 -49t-47.5 -154q0 -95 44.5 -140.5t133.5 -45.5q58 0 108 16v122h-139v101h274v-319q-39 -25 -100 -41t-144 -16
q-166 0 -253.5 84z" />
    <glyph glyph-name="gcircumflex" unicode="&#x11d;" horiz-adv-x="563" 
d="M231 708h100l145 -187h-120l-75 104l-72 -104h-123zM140.5 -169q-58.5 7 -93.5 19v110q38 -13 93.5 -20t105.5 -7q63 0 92.5 6.5t29.5 22.5q0 14 -12 19t-47 5h-131q-64 0 -99.5 23t-35.5 67q0 31 19 57.5t54 39.5q-42 21 -62.5 53.5t-20.5 80.5q0 91 58.5 134t175.5 43
q22 0 51.5 -3.5t45.5 -6.5h182l-4 -100h-69q25 -25 25 -74q0 -71 -45.5 -112t-133.5 -41q-22 0 -58 4q-63 -7 -63 -34q0 -11 9 -15.5t29 -4.5h121q73 0 113.5 -34t40.5 -97q0 -70 -64.5 -106t-191.5 -36q-56 0 -114.5 7zM340.5 253.5q20.5 17.5 20.5 60.5t-21 61.5t-72 18.5
q-49 0 -70.5 -18.5t-21.5 -61.5q0 -41 20.5 -59.5t71.5 -18.5q52 0 72.5 17.5z" />
    <glyph glyph-name="Gbreve" unicode="&#x11e;" horiz-adv-x="647" 
d="M246 733.5q-47 45.5 -47 126.5h106q0 -37 16.5 -59.5t50.5 -22.5q35 0 52 22.5t17 59.5h106q0 -81 -48 -126.5t-127 -45.5t-126 45.5zM118.5 74q-87.5 84 -87.5 239q0 163 90 252t261 89q113 0 197 -28v-138q-76 28 -185 28q-104 0 -151.5 -49t-47.5 -154
q0 -95 44.5 -140.5t133.5 -45.5q58 0 108 16v122h-139v101h274v-319q-39 -25 -100 -41t-144 -16q-166 0 -253.5 84z" />
    <glyph glyph-name="gbreve" unicode="&#x11f;" horiz-adv-x="563" 
d="M151 567.5q-47 45.5 -47 126.5h106q0 -37 16.5 -59.5t50.5 -22.5q35 0 52 22.5t17 59.5h106q0 -81 -48 -126.5t-127 -45.5t-126 45.5zM140.5 -169q-58.5 7 -93.5 19v110q38 -13 93.5 -20t105.5 -7q63 0 92.5 6.5t29.5 22.5q0 14 -12 19t-47 5h-131q-64 0 -99.5 23
t-35.5 67q0 31 19 57.5t54 39.5q-42 21 -62.5 53.5t-20.5 80.5q0 91 58.5 134t175.5 43q22 0 51.5 -3.5t45.5 -6.5h182l-4 -100h-69q25 -25 25 -74q0 -71 -45.5 -112t-133.5 -41q-22 0 -58 4q-63 -7 -63 -34q0 -11 9 -15.5t29 -4.5h121q73 0 113.5 -34t40.5 -97
q0 -70 -64.5 -106t-191.5 -36q-56 0 -114.5 7zM340.5 253.5q20.5 17.5 20.5 60.5t-21 61.5t-72 18.5q-49 0 -70.5 -18.5t-21.5 -61.5q0 -41 20.5 -59.5t71.5 -18.5q52 0 72.5 17.5z" />
    <glyph glyph-name="Gdotaccent" unicode="&#x120;" horiz-adv-x="647" 
d="M321 823h117v-109h-117v109zM118.5 74q-87.5 84 -87.5 239q0 163 90 252t261 89q113 0 197 -28v-138q-76 28 -185 28q-104 0 -151.5 -49t-47.5 -154q0 -95 44.5 -140.5t133.5 -45.5q58 0 108 16v122h-139v101h274v-319q-39 -25 -100 -41t-144 -16q-166 0 -253.5 84z" />
    <glyph glyph-name="gdotaccent" unicode="&#x121;" horiz-adv-x="563" 
d="M211 644h117v-109h-117v109zM140.5 -169q-58.5 7 -93.5 19v110q38 -13 93.5 -20t105.5 -7q63 0 92.5 6.5t29.5 22.5q0 14 -12 19t-47 5h-131q-64 0 -99.5 23t-35.5 67q0 31 19 57.5t54 39.5q-42 21 -62.5 53.5t-20.5 80.5q0 91 58.5 134t175.5 43q22 0 51.5 -3.5
t45.5 -6.5h182l-4 -100h-69q25 -25 25 -74q0 -71 -45.5 -112t-133.5 -41q-22 0 -58 4q-63 -7 -63 -34q0 -11 9 -15.5t29 -4.5h121q73 0 113.5 -34t40.5 -97q0 -70 -64.5 -106t-191.5 -36q-56 0 -114.5 7zM340.5 253.5q20.5 17.5 20.5 60.5t-21 61.5t-72 18.5
q-49 0 -70.5 -18.5t-21.5 -61.5q0 -41 20.5 -59.5t71.5 -18.5q52 0 72.5 17.5z" />
    <glyph glyph-name="Gcommaaccent" unicode="&#x122;" horiz-adv-x="647" 
d="M118.5 74q-87.5 84 -87.5 239q0 163 90 252t261 89q113 0 197 -28v-138q-76 28 -185 28q-104 0 -151.5 -49t-47.5 -154q0 -95 44.5 -140.5t133.5 -45.5q58 0 108 16v122h-139v101h274v-319q-39 -25 -100 -41t-144 -16q-166 0 -253.5 84zM319 -37h129l-53 -213h-109z" />
    <glyph glyph-name="gcommaaccent" unicode="&#x123;" horiz-adv-x="563" 
d="M261 735h109l-33 -213h-129zM140.5 -169q-58.5 7 -93.5 19v110q38 -13 93.5 -20t105.5 -7q63 0 92.5 6.5t29.5 22.5q0 14 -12 19t-47 5h-131q-64 0 -99.5 23t-35.5 67q0 31 19 57.5t54 39.5q-42 21 -62.5 53.5t-20.5 80.5q0 91 58.5 134t175.5 43q22 0 51.5 -3.5
t45.5 -6.5h182l-4 -100h-69q25 -25 25 -74q0 -71 -45.5 -112t-133.5 -41q-22 0 -58 4q-63 -7 -63 -34q0 -11 9 -15.5t29 -4.5h121q73 0 113.5 -34t40.5 -97q0 -70 -64.5 -106t-191.5 -36q-56 0 -114.5 7zM340.5 253.5q20.5 17.5 20.5 60.5t-21 61.5t-72 18.5
q-49 0 -70.5 -18.5t-21.5 -61.5q0 -41 20.5 -59.5t71.5 -18.5q52 0 72.5 17.5z" />
    <glyph glyph-name="Hcircumflex" unicode="&#x124;" horiz-adv-x="676" 
d="M287 874h100l145 -187h-120l-75 104l-72 -104h-123zM51 644h161v-255h252v255h161v-644h-161v255h-252v-255h-161v644z" />
    <glyph glyph-name="hcircumflex" unicode="&#x125;" horiz-adv-x="595" 
d="M199 893h100l145 -187h-120l-75 104l-72 -104h-123zM51 674h161v-235q28 20 68 32.5t85 12.5q95 0 139.5 -45t44.5 -138v-301h-161v290q0 41 -17.5 58t-60.5 17q-26 0 -53 -12t-45 -30v-323h-161v674z" />
    <glyph glyph-name="Hbar" unicode="&#x126;" horiz-adv-x="677" 
d="M51 454h-41v115h41v75h161v-75h252v75h161v-75h41v-115h-41v-454h-161v255h-252v-255h-161v454zM464 389v65h-252v-65h252z" />
    <glyph glyph-name="hbar" unicode="&#x127;" horiz-adv-x="595" 
d="M51 523h-45v101h45v50h161v-50h123v-101h-123v-84q28 20 68 32.5t85 12.5q95 0 139.5 -45t44.5 -138v-301h-162v290q0 41 -17 58t-60 17q-26 0 -53 -12t-45 -30v-323h-161v523z" />
    <glyph glyph-name="Itilde" unicode="&#x128;" horiz-adv-x="264" 
d="M179.5 710.5q-21.5 5.5 -50.5 16.5q-25 9 -43 14t-35 5q-56 0 -94 -38v107q15 14 39.5 23t51.5 9q22 0 40 -5t49 -16q28 -10 45.5 -15t36.5 -5q29 0 51.5 10.5t35.5 28.5v-108q-10 -14 -33 -23t-51 -9q-21 0 -42.5 5.5zM51 644h161v-644h-161v644z" />
    <glyph glyph-name="itilde" unicode="&#x129;" horiz-adv-x="334" 
d="M214.5 543.5q-21.5 5.5 -50.5 16.5q-25 9 -43 14t-35 5q-56 0 -94 -38v107q15 14 39.5 23t51.5 9q22 0 40 -5t49 -16q28 -10 45.5 -15t36.5 -5q29 0 51.5 10.5t35.5 28.5v-108q-10 -14 -33 -23t-51 -9q-21 0 -42.5 5.5zM121 355h-70l14 119h217v-474h-161v355z" />
    <glyph glyph-name="Imacron" unicode="&#x12a;" horiz-adv-x="264" 
d="M-27 820h318v-97h-318v97zM51 644h161v-644h-161v644z" />
    <glyph glyph-name="imacron" unicode="&#x12b;" horiz-adv-x="334" 
d="M9 671h318v-97h-318v97zM121 355h-70l14 119h217v-474h-161v355z" />
    <glyph glyph-name="Ibreve" unicode="&#x12c;" horiz-adv-x="264" 
d="M5 750.5q-47 45.5 -47 126.5h106q0 -37 16.5 -59.5t50.5 -22.5q35 0 52 22.5t17 59.5h106q0 -81 -48 -126.5t-127 -45.5t-126 45.5zM51 644h161v-644h-161v644z" />
    <glyph glyph-name="ibreve" unicode="&#x12d;" horiz-adv-x="334" 
d="M44 567.5q-47 45.5 -47 126.5h106q0 -37 16.5 -59.5t50.5 -22.5q35 0 52 22.5t17 59.5h106q0 -81 -48 -126.5t-127 -45.5t-126 45.5zM121 355h-70l14 119h217v-474h-161v355z" />
    <glyph glyph-name="Iogonek" unicode="&#x12e;" horiz-adv-x="264" 
d="M198 -132q14 3 23 8v-81q-15 -6 -41 -10.5t-53 -4.5q-54 0 -88.5 24t-34.5 70q0 37 19.5 70t53.5 56h-26v644h161v-644h-22q-63 -48 -63 -97q0 -38 44 -38q13 0 27 3z" />
    <glyph glyph-name="iogonek" unicode="&#x12f;" horiz-adv-x="334" 
d="M283 549h-175v121h175v-121zM268 -132q14 3 23 8v-81q-15 -6 -41 -10.5t-53 -4.5q-54 0 -88.5 24t-34.5 70q0 37 19.5 70t53.5 56h-26v355h-70l14 119h217v-474h-22q-63 -48 -63 -97q0 -38 44 -38q13 0 27 3z" />
    <glyph glyph-name="Idotaccent" unicode="&#x130;" horiz-adv-x="263" 
d="M73 829h117v-109h-117v109zM51 644h161v-644h-161v644z" />
    <glyph glyph-name="dotlessi" unicode="&#x131;" horiz-adv-x="334" 
d="M121 355h-70l14 119h217v-474h-161v355z" />
    <glyph glyph-name="IJ" unicode="&#x132;" horiz-adv-x="696" 
d="M51 644h161v-644h-161v644zM265 13v135q48 -21 115 -21q58 0 83 23.5t25 78.5v415h161v-445q0 -102 -60 -155.5t-176 -53.5q-86 0 -148 23z" />
    <glyph glyph-name="ij" unicode="&#x133;" horiz-adv-x="603" 
d="M108 670h175v-121h-175v121zM377 670h175v-121h-175v121zM121 355h-70l14 119h217v-474h-161v355zM261 -214v109q30 -10 60 -10q36 0 53 14.5t17 45.5v410h-70l14 119h217v-543q0 -76 -43.5 -120.5t-129.5 -44.5q-71 0 -118 20z" />
    <glyph glyph-name="Jcircumflex" unicode="&#x134;" horiz-adv-x="441" 
d="M259 874h100l145 -187h-120l-75 104l-72 -104h-123zM11 13v135q48 -21 115 -21q58 0 83 23.5t25 78.5v415h161v-445q0 -102 -60 -155.5t-176 -53.5q-86 0 -148 23z" />
    <glyph glyph-name="jcircumflex" unicode="&#x135;" horiz-adv-x="332" 
d="M131 708h100l145 -187h-120l-75 104l-72 -104h-123zM-10 -214v109q30 -10 60 -10q36 0 53 14.5t17 45.5v410h-70l14 119h217v-543q0 -76 -43.5 -120.5t-129.5 -44.5q-71 0 -118 20z" />
    <glyph glyph-name="Kcommaaccent" unicode="&#x136;" horiz-adv-x="663" 
d="M51 644h161v-250l222 250h184l-230 -263l244 -381h-172l-172 278l-76 -83v-195h-161v644zM272 -37h129l-53 -213h-109z" />
    <glyph glyph-name="kcommaaccent" unicode="&#x137;" horiz-adv-x="592" 
d="M51 674h161v-352l155 152h183l-190 -197l201 -277h-171l-131 192l-47 -46v-146h-161v674zM220 -37h129l-53 -213h-109z" />
    <glyph glyph-name="kgreenlandic" unicode="&#x138;" horiz-adv-x="592" 
d="M51 474h161v-167l155 167h183l-190 -209l201 -265h-171l-130 180l-48 -50v-130h-161v474z" />
    <glyph glyph-name="Lacute" unicode="&#x139;" horiz-adv-x="527" 
d="M152 884h132l-92 -196h-124zM51 644h161v-520h304v-124h-465v644z" />
    <glyph glyph-name="lacute" unicode="&#x13a;" horiz-adv-x="308" 
d="M153 937h132l-92 -196h-124zM85 24q-34 34 -34 109v541h161v-525q0 -23 9 -31.5t29 -8.5q27 0 48 7v-109q-24 -9 -46.5 -13t-54.5 -4q-78 0 -112 34z" />
    <glyph glyph-name="Lcommaaccent" unicode="&#x13b;" horiz-adv-x="527" 
d="M51 644h161v-520h304v-124h-465v644zM235 -37h129l-53 -213h-109z" />
    <glyph glyph-name="lcommaaccent" unicode="&#x13c;" horiz-adv-x="308" 
d="M85 24q-34 34 -34 109v541h161v-525q0 -23 9 -31.5t29 -8.5q27 0 48 7v-109q-24 -9 -46.5 -13t-54.5 -4q-78 0 -112 34zM129 -37h129l-53 -213h-109z" />
    <glyph glyph-name="Lcaron" unicode="&#x13d;" horiz-adv-x="527" 
d="M339 808h129l-53 -213h-109zM51 644h161v-520h304v-124h-465v644z" />
    <glyph glyph-name="lcaron" unicode="&#x13e;" horiz-adv-x="308" 
d="M287 883h129l-53 -213h-109zM85 24q-34 34 -34 109v541h161v-525q0 -23 9 -31.5t29 -8.5q27 0 48 7v-109q-24 -9 -46.5 -13t-54.5 -4q-78 0 -112 34z" />
    <glyph glyph-name="Ldot" unicode="&#x13f;" horiz-adv-x="527" 
d="M51 644h161v-520h304v-124h-465v644zM336 393h118v-109h-118v109z" />
    <glyph glyph-name="ldot" unicode="&#x140;" horiz-adv-x="367" 
d="M85 24q-34 34 -34 109v541h161v-525q0 -23 9 -31.5t29 -8.5q27 0 48 7v-109q-24 -9 -46.5 -13t-54.5 -4q-78 0 -112 34zM284 397h118v-109h-118v109z" />
    <glyph glyph-name="Lslash" unicode="&#x141;" horiz-adv-x="527" 
d="M51 249l-78 -34v115l78 34v280h161v-210l106 47v-115l-106 -47v-195h304v-124h-465v249z" />
    <glyph glyph-name="lslash" unicode="&#x142;" horiz-adv-x="308" 
d="M85 24q-34 34 -34 109v125l-82 -36v115l82 36v301h161v-231l84 37v-115l-84 -37v-179q0 -23 9 -31.5t29 -8.5q27 0 48 7v-109q-24 -9 -46.5 -13t-54.5 -4q-78 0 -112 34z" />
    <glyph glyph-name="Nacute" unicode="&#x143;" horiz-adv-x="676" 
d="M343 884h132l-92 -196h-124zM51 644h138l274 -385v385h162v-644h-139l-274 384v-384h-161v644z" />
    <glyph glyph-name="nacute" unicode="&#x144;" horiz-adv-x="595" 
d="M297 718h132l-92 -196h-124zM51 474h150l5 -41q31 22 75.5 36.5t91.5 14.5q91 0 133.5 -44t42.5 -136v-304h-161v291q0 40 -17.5 57t-60.5 17q-26 0 -53 -12t-45 -30v-323h-161v474z" />
    <glyph glyph-name="Ncommaaccent" unicode="&#x145;" horiz-adv-x="676" 
d="M51 644h138l274 -385v385h162v-644h-139l-274 384v-384h-161v644zM283 -37h129l-53 -213h-109z" />
    <glyph glyph-name="ncommaaccent" unicode="&#x146;" horiz-adv-x="595" 
d="M51 474h150l5 -41q31 22 75.5 36.5t91.5 14.5q91 0 133.5 -44t42.5 -136v-304h-161v291q0 40 -17.5 57t-60.5 17q-26 0 -53 -12t-45 -30v-323h-161v474zM246 -37h129l-53 -213h-109z" />
    <glyph glyph-name="Ncaron" unicode="&#x147;" horiz-adv-x="676" 
d="M143 874h123l72 -104l75 104h120l-145 -187h-100zM51 644h138l274 -385v385h162v-644h-139l-274 384v-384h-161v644z" />
    <glyph glyph-name="ncaron" unicode="&#x148;" horiz-adv-x="595" 
d="M91 708h123l72 -104l75 104h120l-145 -187h-100zM51 474h150l5 -41q31 22 75.5 36.5t91.5 14.5q91 0 133.5 -44t42.5 -136v-304h-161v291q0 40 -17.5 57t-60.5 17q-26 0 -53 -12t-45 -30v-323h-161v474z" />
    <glyph glyph-name="napostrophe" unicode="&#x149;" horiz-adv-x="691" 
d="M13 644h129l-53 -213h-109zM147 474h150l5 -41q31 22 75.5 36.5t91.5 14.5q91 0 133.5 -44t42.5 -136v-304h-161v291q0 40 -17.5 57t-60.5 17q-26 0 -53 -12t-45 -30v-323h-161v474z" />
    <glyph glyph-name="Eng" unicode="&#x14a;" horiz-adv-x="676" 
d="M333 -214v107q30 -10 60 -10q36 0 53 15t17 47v87l-251 352v-384h-161v644h138l274 -385v385h162v-713q0 -76 -44 -120.5t-130 -44.5q-71 0 -118 20z" />
    <glyph glyph-name="eng" unicode="&#x14b;" horiz-adv-x="595" 
d="M257 -214v107q30 -10 60 -10q36 0 53 15t17 47v346q0 40 -17 57t-60 17q-26 0 -53 -12t-45 -30v-323h-161v474h150l5 -41q31 22 75.5 36.5t91.5 14.5q91 0 133.5 -44t42.5 -136v-373q0 -76 -44 -120.5t-130 -44.5q-71 0 -118 20z" />
    <glyph glyph-name="Omacron" unicode="&#x14c;" horiz-adv-x="704" 
d="M190 821h318v-97h-318v97zM112 71q-81 81 -81 248q0 175 80 255t241 80q160 0 240.5 -80t80.5 -255q0 -167 -81 -248t-240 -81t-240 81zM470.5 173.5q37.5 46.5 37.5 145.5q0 107 -37 152t-119 45q-83 0 -120 -45t-37 -152q0 -99 37.5 -145.5t119.5 -46.5
q81 0 118.5 46.5z" />
    <glyph glyph-name="omacron" unicode="&#x14d;" horiz-adv-x="597" 
d="M136 654h318v-97h-318v97zM31 237q0 120 66.5 183.5t200.5 63.5q135 0 201.5 -63t66.5 -184q0 -247 -268 -247q-267 0 -267 247zM378 144q24 28 24 93t-24.5 93t-79.5 28t-79 -28.5t-24 -92.5q0 -65 24 -93t79 -28q56 0 80 28z" />
    <glyph glyph-name="Obreve" unicode="&#x14e;" horiz-adv-x="704" 
d="M225 733.5q-47 45.5 -47 126.5h106q0 -37 16.5 -59.5t50.5 -22.5q35 0 52 22.5t17 59.5h106q0 -81 -48 -126.5t-127 -45.5t-126 45.5zM112 71q-81 81 -81 248q0 175 80 255t241 80q160 0 240.5 -80t80.5 -255q0 -167 -81 -248t-240 -81t-240 81zM470.5 173.5
q37.5 46.5 37.5 145.5q0 107 -37 152t-119 45q-83 0 -120 -45t-37 -152q0 -99 37.5 -145.5t119.5 -46.5q81 0 118.5 46.5z" />
    <glyph glyph-name="obreve" unicode="&#x14f;" horiz-adv-x="597" 
d="M172 567.5q-47 45.5 -47 126.5h106q0 -37 16.5 -59.5t50.5 -22.5q35 0 52 22.5t17 59.5h106q0 -81 -48 -126.5t-127 -45.5t-126 45.5zM31 237q0 120 66.5 183.5t200.5 63.5q135 0 201.5 -63t66.5 -184q0 -247 -268 -247q-267 0 -267 247zM378 144q24 28 24 93t-24.5 93
t-79.5 28t-79 -28.5t-24 -92.5q0 -65 24 -93t79 -28q56 0 80 28z" />
    <glyph glyph-name="Ohungarumlaut" unicode="&#x150;" horiz-adv-x="704" 
d="M230 868h139l-97 -180h-124zM461 868h139l-97 -180h-124zM112 71q-81 81 -81 248q0 175 80 255t241 80q160 0 240.5 -80t80.5 -255q0 -167 -81 -248t-240 -81t-240 81zM470.5 173.5q37.5 46.5 37.5 145.5q0 107 -37 152t-119 45q-83 0 -120 -45t-37 -152
q0 -99 37.5 -145.5t119.5 -46.5q81 0 118.5 46.5z" />
    <glyph glyph-name="ohungarumlaut" unicode="&#x151;" horiz-adv-x="597" 
d="M184 701h139l-97 -180h-124zM415 701h139l-97 -180h-124zM31 237q0 120 66.5 183.5t200.5 63.5q135 0 201.5 -63t66.5 -184q0 -247 -268 -247q-267 0 -267 247zM378 144q24 28 24 93t-24.5 93t-79.5 28t-79 -28.5t-24 -92.5q0 -65 24 -93t79 -28q56 0 80 28z" />
    <glyph glyph-name="OE" unicode="&#x152;" horiz-adv-x="1015" 
d="M670 520v-135h277v-126h-277v-1v-134h314v-124h-475v16q-67 -26 -157 -26q-159 0 -240 81t-81 248q0 175 80 255t241 80q93 0 157 -26v16h475v-124h-314zM470.5 173.5q37.5 46.5 37.5 145.5q0 107 -37 152t-119 45q-83 0 -120 -45t-37 -152q0 -99 37.5 -145.5
t119.5 -46.5q81 0 118.5 46.5z" />
    <glyph glyph-name="oe" unicode="&#x153;" horiz-adv-x="931" 
d="M900 185h-336q11 -46 50 -65t112 -19q39 0 79.5 7t67.5 18v-105q-68 -31 -184 -31q-124 0 -194 58q-67 -58 -197 -58q-267 0 -267 247q0 120 66.5 183.5t200.5 63.5q125 0 192 -55q64 55 173 55q111 0 174 -58t63 -156v-85zM760 299q0 76 -92 76q-57 0 -80.5 -23
t-23.5 -74h196v21zM378 144q24 28 24 93t-24.5 93t-79.5 28t-79 -28.5t-24 -92.5q0 -65 24 -93t79 -28q56 0 80 28z" />
    <glyph glyph-name="Racute" unicode="&#x154;" horiz-adv-x="626" 
d="M291 884h132l-92 -196h-124zM51 644h322q111 0 166.5 -58.5t55.5 -162.5q0 -65 -32.5 -114t-90.5 -73q13 -11 21.5 -24t19.5 -38l76 -174h-168l-72 164q-9 22 -23 31t-40 9h-74v-204h-161v644zM331 328q48 0 74 24t26 71q0 97 -93 97h-126v-192h119z" />
    <glyph glyph-name="racute" unicode="&#x155;" horiz-adv-x="389" 
d="M165 718h132l-92 -196h-124zM51 474h153l5 -44q32 19 78 34.5t91 19.5v-121q-42 -5 -90 -17.5t-76 -26.5v-319h-161v474z" />
    <glyph glyph-name="Rcommaaccent" unicode="&#x156;" horiz-adv-x="626" 
d="M51 644h322q111 0 166.5 -58.5t55.5 -162.5q0 -65 -32.5 -114t-90.5 -73q13 -11 21.5 -24t19.5 -38l76 -174h-168l-72 164q-9 22 -23 31t-40 9h-74v-204h-161v644zM331 328q48 0 74 24t26 71q0 97 -93 97h-126v-192h119zM240 -37h129l-53 -213h-109z" />
    <glyph glyph-name="rcommaaccent" unicode="&#x157;" horiz-adv-x="389" 
d="M51 474h153l5 -44q32 19 78 34.5t91 19.5v-121q-42 -5 -90 -17.5t-76 -26.5v-319h-161v474zM67 -37h129l-53 -213h-109z" />
    <glyph glyph-name="Rcaron" unicode="&#x158;" horiz-adv-x="626" 
d="M88 875h123l72 -104l75 104h120l-145 -187h-100zM51 644h322q111 0 166.5 -58.5t55.5 -162.5q0 -65 -32.5 -114t-90.5 -73q13 -11 21.5 -24t19.5 -38l76 -174h-168l-72 164q-9 22 -23 31t-40 9h-74v-204h-161v644zM331 328q48 0 74 24t26 71q0 97 -93 97h-126v-192h119z
" />
    <glyph glyph-name="rcaron" unicode="&#x159;" horiz-adv-x="389" 
d="M-47 708h123l72 -104l75 104h120l-145 -187h-100zM51 474h153l5 -44q32 19 78 34.5t91 19.5v-121q-42 -5 -90 -17.5t-76 -26.5v-319h-161v474z" />
    <glyph glyph-name="Sacute" unicode="&#x15a;" horiz-adv-x="555" 
d="M286 885h132l-92 -196h-124zM136.5 -0.5q-55.5 9.5 -95.5 27.5v137q45 -20 98 -31.5t101 -11.5q65 0 92 11.5t27 47.5q0 25 -14 39.5t-42.5 25t-93.5 29.5q-67 20 -105.5 44.5t-55.5 59t-17 86.5q0 93 66.5 141.5t194.5 48.5q53 0 106.5 -8t88.5 -20v-138q-83 33 -171 33
q-61 0 -91 -11.5t-30 -44.5q0 -21 12 -33.5t38.5 -22t83.5 -24.5q77 -21 119.5 -50t59 -66.5t16.5 -88.5q0 -88 -68 -139t-200 -51q-64 0 -119.5 9.5z" />
    <glyph glyph-name="sacute" unicode="&#x15b;" horiz-adv-x="479" 
d="M246 718h132l-92 -196h-124zM120 -2q-51 8 -82 20v123q34 -14 79.5 -22.5t83.5 -8.5q47 0 64.5 4.5t17.5 21.5q0 14 -17 23t-60 22l-43 14q-70 24 -101 55.5t-31 88.5q0 145 220 145q43 0 87 -6.5t74 -16.5v-121q-27 12 -62.5 18.5t-66.5 6.5q-44 0 -66 -5t-22 -21
q0 -14 14 -20.5t54 -18.5q20 -5 41 -12q56 -17 87 -36.5t44 -46.5t13 -68q0 -72 -56.5 -109.5t-164.5 -37.5q-56 0 -107 8z" />
    <glyph glyph-name="Scircumflex" unicode="&#x15c;" horiz-adv-x="555" 
d="M216 876h100l145 -187h-120l-75 104l-72 -104h-123zM136.5 -0.5q-55.5 9.5 -95.5 27.5v137q45 -20 98 -31.5t101 -11.5q65 0 92 11.5t27 47.5q0 25 -14 39.5t-42.5 25t-93.5 29.5q-67 20 -105.5 44.5t-55.5 59t-17 86.5q0 93 66.5 141.5t194.5 48.5q53 0 106.5 -8
t88.5 -20v-138q-83 33 -171 33q-61 0 -91 -11.5t-30 -44.5q0 -21 12 -33.5t38.5 -22t83.5 -24.5q77 -21 119.5 -50t59 -66.5t16.5 -88.5q0 -88 -68 -139t-200 -51q-64 0 -119.5 9.5z" />
    <glyph glyph-name="scircumflex" unicode="&#x15d;" horiz-adv-x="479" 
d="M187 709h100l145 -187h-120l-75 104l-72 -104h-123zM120 -2q-51 8 -82 20v123q34 -14 79.5 -22.5t83.5 -8.5q47 0 64.5 4.5t17.5 21.5q0 14 -17 23t-60 22l-43 14q-70 24 -101 55.5t-31 88.5q0 145 220 145q43 0 87 -6.5t74 -16.5v-121q-27 12 -62.5 18.5t-66.5 6.5
q-44 0 -66 -5t-22 -21q0 -14 14 -20.5t54 -18.5q20 -5 41 -12q56 -17 87 -36.5t44 -46.5t13 -68q0 -72 -56.5 -109.5t-164.5 -37.5q-56 0 -107 8z" />
    <glyph glyph-name="Scedilla" unicode="&#x15e;" horiz-adv-x="555" 
d="M470.5 53q-53.5 -49 -157.5 -60l-12 -36q55 0 82 -24.5t27 -68.5q0 -50 -39 -77t-118 -27q-17 0 -42.5 2.5t-36.5 5.5v71q29 -8 60 -8q43 0 59.5 7t16.5 28t-15.5 27.5t-49.5 6.5h-54l26 91q-105 5 -176 36v137q45 -20 98 -31.5t101 -11.5q65 0 92 11.5t27 47.5
q0 25 -14 39.5t-42.5 25t-93.5 29.5q-67 20 -105.5 44.5t-55.5 59t-17 86.5q0 93 66.5 141.5t194.5 48.5q53 0 106.5 -8t88.5 -20v-138q-83 33 -171 33q-61 0 -91 -11.5t-30 -44.5q0 -21 12 -33.5t38.5 -22t83.5 -24.5q77 -21 119.5 -50t59 -66.5t16.5 -88.5
q0 -78 -53.5 -127z" />
    <glyph glyph-name="scedilla" unicode="&#x15f;" horiz-adv-x="479" 
d="M405 38q-43 -37 -127 -46l-12 -35q55 0 82 -24.5t27 -68.5q0 -50 -39 -77t-118 -27q-17 0 -42.5 2.5t-36.5 5.5v71q29 -8 60 -8q43 0 59.5 7t16.5 28t-15.5 27.5t-49.5 6.5h-54l26 91q-93 6 -144 27v123q34 -14 79.5 -22.5t83.5 -8.5q47 0 64.5 4.5t17.5 21.5
q0 14 -17 23t-60 22l-43 14q-70 24 -101 55.5t-31 88.5q0 145 220 145q43 0 87 -6.5t74 -16.5v-121q-27 12 -62.5 18.5t-66.5 6.5q-44 0 -66 -5t-22 -21q0 -14 14 -20.5t54 -18.5q20 -5 41 -12q56 -17 87 -36.5t44 -46.5t13 -68q0 -62 -43 -99z" />
    <glyph glyph-name="Scaron" unicode="&#x160;" horiz-adv-x="555" 
d="M81 875h123l72 -104l75 104h120l-145 -187h-100zM136.5 -0.5q-55.5 9.5 -95.5 27.5v137q45 -20 98 -31.5t101 -11.5q65 0 92 11.5t27 47.5q0 25 -14 39.5t-42.5 25t-93.5 29.5q-67 20 -105.5 44.5t-55.5 59t-17 86.5q0 93 66.5 141.5t194.5 48.5q53 0 106.5 -8t88.5 -20
v-138q-83 33 -171 33q-61 0 -91 -11.5t-30 -44.5q0 -21 12 -33.5t38.5 -22t83.5 -24.5q77 -21 119.5 -50t59 -66.5t16.5 -88.5q0 -88 -68 -139t-200 -51q-64 0 -119.5 9.5z" />
    <glyph glyph-name="scaron" unicode="&#x161;" horiz-adv-x="479" 
d="M51 708h123l72 -104l75 104h120l-145 -187h-100zM120 -2q-51 8 -82 20v123q34 -14 79.5 -22.5t83.5 -8.5q47 0 64.5 4.5t17.5 21.5q0 14 -17 23t-60 22l-43 14q-70 24 -101 55.5t-31 88.5q0 145 220 145q43 0 87 -6.5t74 -16.5v-121q-27 12 -62.5 18.5t-66.5 6.5
q-44 0 -66 -5t-22 -21q0 -14 14 -20.5t54 -18.5q20 -5 41 -12q56 -17 87 -36.5t44 -46.5t13 -68q0 -72 -56.5 -109.5t-164.5 -37.5q-56 0 -107 8z" />
    <glyph glyph-name="uni0162" unicode="&#x162;" horiz-adv-x="561" 
d="M327 0l-15 -43q55 0 82 -24.5t27 -68.5q0 -50 -39 -77t-118 -27q-17 0 -42.5 2.5t-36.5 5.5v71q29 -8 60 -8q43 0 59.5 7t16.5 28t-15.5 27.5t-49.5 6.5h-54l29 100h-31v520h-189v124h539v-124h-189v-520h-34z" />
    <glyph glyph-name="uni0163" unicode="&#x163;" horiz-adv-x="389" 
d="M359 -67.5q27 -24.5 27 -68.5q0 -50 -39 -77t-118 -27q-17 0 -42.5 2.5t-36.5 5.5v71q29 -8 60 -8q43 0 59.5 7t16.5 28t-15.5 27.5t-49.5 6.5h-54l27 95q-60 12 -89.5 54t-29.5 110v193h-64v122h64v99l161 43v-142h115l-7 -122h-108v-182q0 -34 16 -47.5t52 -13.5
q29 0 59 10v-109q-33 -14 -74 -18l-12 -35q55 0 82 -24.5z" />
    <glyph glyph-name="Tcaron" unicode="&#x164;" horiz-adv-x="561" 
d="M85 875h123l72 -104l75 104h120l-145 -187h-100zM200 520h-189v124h539v-124h-189v-520h-161v520z" />
    <glyph glyph-name="tcaron" unicode="&#x165;" horiz-adv-x="505" 
d="M361 771h129l-53 -213h-109zM117.5 34q-42.5 44 -42.5 125v193h-64v122h64v99l161 43v-142h115l-7 -122h-108v-182q0 -34 16 -47.5t52 -13.5q29 0 59 10v-109q-47 -20 -117 -20q-86 0 -128.5 44z" />
    <glyph glyph-name="Tbar" unicode="&#x166;" horiz-adv-x="561" 
d="M200 279h-109v113h109v128h-189v124h539v-124h-189v-128h106v-113h-106v-279h-161v279z" />
    <glyph glyph-name="tbar" unicode="&#x167;" horiz-adv-x="374" 
d="M117.5 34q-42.5 44 -42.5 125v32h-64v99h64v62h-64v122h64v99l162 43v-142h114l-7 -122h-107v-62h115v-99h-115v-21q0 -34 16 -47.5t51 -13.5q29 0 59 10v-109q-47 -20 -117 -20q-86 0 -128.5 44z" />
    <glyph glyph-name="Utilde" unicode="&#x168;" horiz-adv-x="684" 
d="M389.5 703.5q-21.5 5.5 -50.5 16.5q-25 9 -43 14t-35 5q-56 0 -94 -38v107q15 14 39.5 23t51.5 9q22 0 40 -5t49 -16q28 -10 45.5 -15t36.5 -5q29 0 51.5 10.5t35.5 28.5v-108q-10 -14 -33 -23t-51 -9q-21 0 -42.5 5.5zM125.5 56.5q-79.5 66.5 -79.5 188.5v399h161v-384
q0 -67 34.5 -100t100.5 -33t100.5 33t34.5 100v384h161v-399q0 -122 -79.5 -188.5t-216.5 -66.5t-216.5 66.5z" />
    <glyph glyph-name="utilde" unicode="&#x169;" horiz-adv-x="595" 
d="M345.5 537.5q-21.5 5.5 -50.5 16.5q-25 9 -43 14t-35 5q-56 0 -94 -38v107q15 14 39.5 23t51.5 9q22 0 40 -5t49 -16q28 -10 45.5 -15t36.5 -5q29 0 51.5 10.5t35.5 28.5v-108q-10 -14 -33 -23t-51 -9q-21 0 -42.5 5.5zM92.5 37.5q-46.5 47.5 -46.5 138.5v298h161v-289
q0 -40 19 -58.5t59 -18.5q28 0 54 11.5t44 30.5v324h161v-474h-150l-5 40q-67 -50 -165 -50q-85 0 -131.5 47.5z" />
    <glyph glyph-name="Umacron" unicode="&#x16a;" horiz-adv-x="684" 
d="M182 820h318v-97h-318v97zM125.5 56.5q-79.5 66.5 -79.5 188.5v399h161v-384q0 -67 34.5 -100t100.5 -33t100.5 33t34.5 100v384h161v-399q0 -122 -79.5 -188.5t-216.5 -66.5t-216.5 66.5z" />
    <glyph glyph-name="umacron" unicode="&#x16b;" horiz-adv-x="595" 
d="M138 654h318v-97h-318v97zM92.5 37.5q-46.5 47.5 -46.5 138.5v298h161v-289q0 -40 19 -58.5t59 -18.5q28 0 54 11.5t44 30.5v324h161v-474h-150l-5 40q-67 -50 -165 -50q-85 0 -131.5 47.5z" />
    <glyph glyph-name="Ubreve" unicode="&#x16c;" horiz-adv-x="684" 
d="M212 733.5q-47 45.5 -47 126.5h106q0 -37 16.5 -59.5t50.5 -22.5q35 0 52 22.5t17 59.5h106q0 -81 -48 -126.5t-127 -45.5t-126 45.5zM125.5 56.5q-79.5 66.5 -79.5 188.5v399h161v-384q0 -67 34.5 -100t100.5 -33t100.5 33t34.5 100v384h161v-399q0 -122 -79.5 -188.5
t-216.5 -66.5t-216.5 66.5z" />
    <glyph glyph-name="ubreve" unicode="&#x16d;" horiz-adv-x="595" 
d="M173 567.5q-47 45.5 -47 126.5h106q0 -37 16.5 -59.5t50.5 -22.5q35 0 52 22.5t17 59.5h106q0 -81 -48 -126.5t-127 -45.5t-126 45.5zM92.5 37.5q-46.5 47.5 -46.5 138.5v298h161v-289q0 -40 19 -58.5t59 -18.5q28 0 54 11.5t44 30.5v324h161v-474h-150l-5 40
q-67 -50 -165 -50q-85 0 -131.5 47.5z" />
    <glyph glyph-name="Uring" unicode="&#x16e;" horiz-adv-x="684" 
d="M245.5 722.5q-35.5 35.5 -35.5 89.5q0 55 35.5 90.5t95.5 35.5q61 0 96.5 -35.5t35.5 -90.5q0 -54 -35.5 -89.5t-96.5 -35.5q-60 0 -95.5 35.5zM383.5 772.5q15.5 15.5 15.5 39.5t-15.5 40t-42.5 16q-26 0 -41.5 -16t-15.5 -40t15.5 -39.5t41.5 -15.5q27 0 42.5 15.5z
M125.5 56.5q-79.5 66.5 -79.5 188.5v399h161v-384q0 -67 34.5 -100t100.5 -33t100.5 33t34.5 100v384h161v-399q0 -122 -79.5 -188.5t-216.5 -66.5t-216.5 66.5z" />
    <glyph glyph-name="uring" unicode="&#x16f;" horiz-adv-x="595" 
d="M199.5 556.5q-35.5 35.5 -35.5 89.5q0 55 35.5 90.5t95.5 35.5q61 0 96.5 -35.5t35.5 -90.5q0 -54 -35.5 -89.5t-96.5 -35.5q-60 0 -95.5 35.5zM337.5 606.5q15.5 15.5 15.5 39.5t-15.5 40t-42.5 16q-26 0 -41.5 -16t-15.5 -40t15.5 -39.5t41.5 -15.5q27 0 42.5 15.5z
M92.5 37.5q-46.5 47.5 -46.5 138.5v298h161v-289q0 -40 19 -58.5t59 -18.5q28 0 54 11.5t44 30.5v324h161v-474h-150l-5 40q-67 -50 -165 -50q-85 0 -131.5 47.5z" />
    <glyph glyph-name="Uhungarumlaut" unicode="&#x170;" horiz-adv-x="684" 
d="M224 867h139l-97 -180h-124zM455 867h139l-97 -180h-124zM125.5 56.5q-79.5 66.5 -79.5 188.5v399h161v-384q0 -67 34.5 -100t100.5 -33t100.5 33t34.5 100v384h161v-399q0 -122 -79.5 -188.5t-216.5 -66.5t-216.5 66.5z" />
    <glyph glyph-name="uhungarumlaut" unicode="&#x171;" horiz-adv-x="595" 
d="M165 701h139l-97 -180h-124zM396 701h139l-97 -180h-124zM92.5 37.5q-46.5 47.5 -46.5 138.5v298h161v-289q0 -40 19 -58.5t59 -18.5q28 0 54 11.5t44 30.5v324h161v-474h-150l-5 40q-67 -50 -165 -50q-85 0 -131.5 47.5z" />
    <glyph glyph-name="Uogonek" unicode="&#x172;" horiz-adv-x="684" 
d="M638 644v-399q0 -102 -56.5 -166t-157.5 -82q-59 -46 -59 -94q0 -38 44 -38q13 0 27 3t23 8v-81q-15 -6 -41 -10.5t-53 -4.5q-54 0 -88.5 24t-34.5 70q0 34 16 64.5t45 52.5q-120 10 -188.5 75.5t-68.5 178.5v399h161v-384q0 -67 34.5 -100t100.5 -33t100.5 33t34.5 100
v384h161z" />
    <glyph glyph-name="uogonek" unicode="&#x173;" horiz-adv-x="595" 
d="M444 -97q0 -38 44 -38q13 0 27 3t23 8v-81q-15 -6 -41 -10.5t-53 -4.5q-54 0 -88.5 24t-34.5 70q0 37 19.5 70t53.5 56l-5 40q-67 -50 -165 -50q-85 0 -131.5 47.5t-46.5 138.5v298h161v-289q0 -40 19 -58.5t59 -18.5q28 0 54 11.5t44 30.5v324h161v-474h-37
q-63 -48 -63 -97z" />
    <glyph glyph-name="Wcircumflex" unicode="&#x174;" horiz-adv-x="883" 
d="M396 875h100l145 -187h-120l-75 104l-72 -104h-123zM31 644h158l85 -388l88 297v91h132l111 -389l89 389h158l-149 -644h-149l-108 372l-116 -372h-149z" />
    <glyph glyph-name="wcircumflex" unicode="&#x175;" horiz-adv-x="770" 
d="M337 708h100l145 -187h-120l-75 104l-72 -104h-123zM31 474h158l64 -272l67 207v65h121l78 -272l62 272h158l-125 -474h-146l-81 246l-83 -246h-148z" />
    <glyph glyph-name="Ycircumflex" unicode="&#x176;" horiz-adv-x="686" 
d="M293 875h100l145 -187h-120l-75 104l-72 -104h-123zM262 237l-231 407h168l144 -267l144 267h168l-231 -407v-237h-162v237z" />
    <glyph glyph-name="ycircumflex" unicode="&#x177;" horiz-adv-x="627" 
d="M275 708h100l145 -187h-120l-75 104l-72 -104h-123zM129.5 -172.5q-25.5 3.5 -49.5 13.5v112q28 -10 61 -10q40 0 61 14t42 52l-213 465h169l125 -301l123 301h168l-181 -435q-44 -106 -100 -160.5t-143 -54.5q-37 0 -62.5 3.5z" />
    <glyph glyph-name="Ydieresis" unicode="&#x178;" horiz-adv-x="686" 
d="M182 823h118v-109h-118v109zM388 823h118v-109h-118v109zM262 237l-231 407h168l144 -267l144 267h168l-231 -407v-237h-162v237z" />
    <glyph glyph-name="Zacute" unicode="&#x179;" horiz-adv-x="578" 
d="M308 884h132l-92 -196h-124zM31 82l302 434h-287v128h498v-90l-299 -430h305v-124h-519v82z" />
    <glyph glyph-name="zacute" unicode="&#x17a;" horiz-adv-x="492" 
d="M263 718h132l-92 -196h-124zM31 86l219 260h-211v128h415v-94l-214 -256h221v-124h-430v86z" />
    <glyph glyph-name="Zdotaccent" unicode="&#x17b;" horiz-adv-x="578" 
d="M240 823h117v-109h-117v109zM31 82l302 434h-287v128h498v-90l-299 -430h305v-124h-519v82z" />
    <glyph glyph-name="zdotaccent" unicode="&#x17c;" horiz-adv-x="492" 
d="M191 657h117v-109h-117v109zM31 86l219 260h-211v128h415v-94l-214 -256h221v-124h-430v86z" />
    <glyph glyph-name="Zcaron" unicode="&#x17d;" horiz-adv-x="578" 
d="M112 875h123l72 -104l75 104h120l-145 -187h-100zM31 82l302 434h-287v128h498v-90l-299 -430h305v-124h-519v82z" />
    <glyph glyph-name="zcaron" unicode="&#x17e;" horiz-adv-x="492" 
d="M47 708h123l72 -104l75 104h120l-145 -187h-100zM31 86l219 260h-211v128h415v-94l-214 -256h221v-124h-430v86z" />
    <glyph glyph-name="uni018F" unicode="&#x18f;" horiz-adv-x="684" 
d="M109 64.5q-78 74.5 -78 206.5v118h471q-5 57 -29.5 89t-72.5 45.5t-128 13.5q-47 0 -108 -12t-98 -28v114q50 19 113.5 31t127.5 12q167 0 256.5 -89t89.5 -252q0 -153 -79 -238t-241 -85q-146 0 -224 74.5zM461 143.5q41 43.5 41 131.5h-329v-40q0 -63 42 -99t118 -36
q87 0 128 43.5z" />
    <glyph glyph-name="florin" unicode="&#x192;" horiz-adv-x="514" 
d="M-94 -102l23 107q28 -11 57 -11q38 0 58 14.5t28 53.5l60 290h-63l26 122h63l8 39q17 82 72.5 129.5t140.5 47.5q65 0 113 -21l-23 -108q-28 11 -57 11q-39 0 -58 -14.5t-26 -47.5l-8 -36h116l-33 -122h-109l-62 -299q-18 -85 -71 -130.5t-142 -45.5q-68 0 -113 21z" />
    <glyph glyph-name="Ohorn" unicode="&#x1a0;" horiz-adv-x="785" 
d="M112 71q-81 81 -81 248q0 175 80 255t241 80q146 0 224 -69q49 2 69.5 24.5t20.5 78.5h115q0 -95 -32 -141.5t-103 -60.5q27 -66 27 -167q0 -167 -81 -248t-240 -81t-240 81zM470.5 173.5q37.5 46.5 37.5 145.5q0 107 -37 152t-119 45q-83 0 -120 -45t-37 -152
q0 -99 37.5 -145.5t119.5 -46.5q81 0 118.5 46.5z" />
    <glyph glyph-name="ohorn" unicode="&#x1a1;" horiz-adv-x="707" 
d="M31 237q0 120 66.5 183.5t200.5 63.5q125 0 193 -57q55 0 76 24.5t21 84.5h115q0 -100 -35 -149t-113 -62q11 -41 11 -88q0 -247 -268 -247q-267 0 -267 247zM378 144q24 28 24 93t-24.5 93t-79.5 28t-79 -28.5t-24 -92.5q0 -65 24 -93t79 -28q56 0 80 28z" />
    <glyph glyph-name="Uhorn" unicode="&#x1af;" horiz-adv-x="854" 
d="M125.5 56.5q-79.5 66.5 -79.5 188.5v399h161v-384q0 -67 34.5 -100t100.5 -33q65 0 99.5 33t34.5 100v384h162v-59q49 2 69.5 24.5t20.5 78.5h115q0 -78 -20.5 -123t-65 -65t-119.5 -21v-234q0 -122 -80 -188.5t-216 -66.5q-137 0 -216.5 66.5z" />
    <glyph glyph-name="uhorn" unicode="&#x1b0;" horiz-adv-x="745" 
d="M92.5 37.5q-46.5 47.5 -46.5 138.5v298h161v-289q0 -40 19 -58.5t59 -18.5q28 0 53.5 11.5t43.5 30.5v324h162v-46q43 4 60 28.5t17 79.5h115q0 -76 -19.5 -122t-61.5 -67.5t-111 -25.5v-321h-151l-5 40q-67 -50 -164 -50q-85 0 -131.5 47.5z" />
    <glyph glyph-name="uni01CD" unicode="&#x1cd;" horiz-adv-x="728" 
d="M168 875h123l72 -104l75 104h120l-145 -187h-100zM277 644h174l246 -644h-168l-58 146h-215l-57 -146h-168zM449 265l-86 224l-85 -224h171z" />
    <glyph glyph-name="uni01CE" unicode="&#x1ce;" horiz-adv-x="561" 
d="M92 708h123l72 -104l75 104h120l-145 -187h-100zM78.5 28.5q-47.5 38.5 -47.5 110.5q0 74 50.5 115t147.5 41h132v11q0 37 -24.5 52t-89.5 15q-81 0 -159 -25v104q36 14 87 23t105 9q113 0 174 -46t61 -142v-296h-141l-8 40q-55 -50 -167 -50q-73 0 -120.5 38.5zM361 135
v67h-114q-36 0 -53.5 -14t-17.5 -43q0 -56 74 -56q72 0 111 46z" />
    <glyph glyph-name="uni01CF" unicode="&#x1cf;" horiz-adv-x="264" 
d="M-64 875h123l72 -104l75 104h120l-145 -187h-100zM51 644h161v-644h-161v644z" />
    <glyph glyph-name="uni01D0" unicode="&#x1d0;" horiz-adv-x="334" 
d="M-21 708h123l72 -104l75 104h120l-145 -187h-100zM121 355h-70l14 119h217v-474h-161v355z" />
    <glyph glyph-name="uni01D1" unicode="&#x1d1;" horiz-adv-x="704" 
d="M156 875h123l72 -104l75 104h120l-145 -187h-100zM112 71q-81 81 -81 248q0 175 80 255t241 80q160 0 240.5 -80t80.5 -255q0 -167 -81 -248t-240 -81t-240 81zM470.5 173.5q37.5 46.5 37.5 145.5q0 107 -37 152t-119 45q-83 0 -120 -45t-37 -152q0 -99 37.5 -145.5
t119.5 -46.5q81 0 118.5 46.5z" />
    <glyph glyph-name="uni01D2" unicode="&#x1d2;" horiz-adv-x="597" 
d="M103 708h123l72 -104l75 104h120l-145 -187h-100zM31 237q0 120 66.5 183.5t200.5 63.5q135 0 201.5 -63t66.5 -184q0 -247 -268 -247q-267 0 -267 247zM378 144q24 28 24 93t-24.5 93t-79.5 28t-79 -28.5t-24 -92.5q0 -65 24 -93t79 -28q56 0 80 28z" />
    <glyph glyph-name="uni01D3" unicode="&#x1d3;" horiz-adv-x="684" 
d="M146 875h123l72 -104l75 104h120l-145 -187h-100zM125.5 56.5q-79.5 66.5 -79.5 188.5v399h161v-384q0 -67 34.5 -100t100.5 -33t100.5 33t34.5 100v384h161v-399q0 -122 -79.5 -188.5t-216.5 -66.5t-216.5 66.5z" />
    <glyph glyph-name="uni01D4" unicode="&#x1d4;" horiz-adv-x="595" 
d="M101 708h123l72 -104l75 104h120l-145 -187h-100zM92.5 37.5q-46.5 47.5 -46.5 138.5v298h161v-289q0 -40 19 -58.5t59 -18.5q28 0 54 11.5t44 30.5v324h161v-474h-150l-5 40q-67 -50 -165 -50q-85 0 -131.5 47.5z" />
    <glyph glyph-name="uni01D5" unicode="&#x1d5;" horiz-adv-x="684" 
d="M182 941h318v-97h-318v97zM180 797h118v-109h-118v109zM386 797h118v-109h-118v109zM125.5 56.5q-79.5 66.5 -79.5 188.5v399h161v-384q0 -67 34.5 -100t100.5 -33t100.5 33t34.5 100v384h161v-399q0 -122 -79.5 -188.5t-216.5 -66.5t-216.5 66.5z" />
    <glyph glyph-name="uni01D6" unicode="&#x1d6;" horiz-adv-x="595" 
d="M138 781h318v-97h-318v97zM135 639h118v-109h-118v109zM341 639h118v-109h-118v109zM92.5 37.5q-46.5 47.5 -46.5 138.5v298h161v-289q0 -40 19 -58.5t59 -18.5q28 0 54 11.5t44 30.5v324h161v-474h-150l-5 40q-67 -50 -165 -50q-85 0 -131.5 47.5z" />
    <glyph glyph-name="uni01D7" unicode="&#x1d7;" horiz-adv-x="684" 
d="M342 948h121l-68 -133h-111zM181 792h114v-103h-114v103zM389 792h114v-103h-114v103zM125.5 56.5q-79.5 66.5 -79.5 188.5v399h161v-384q0 -67 34.5 -100t100.5 -33t100.5 33t34.5 100v384h161v-399q0 -122 -79.5 -188.5t-216.5 -66.5t-216.5 66.5z" />
    <glyph glyph-name="uni01D8" unicode="&#x1d8;" horiz-adv-x="595" 
d="M288 789h121l-68 -133h-111zM127 633h114v-103h-114v103zM335 633h114v-103h-114v103zM92.5 37.5q-46.5 47.5 -46.5 138.5v298h161v-289q0 -40 19 -58.5t59 -18.5q28 0 54 11.5t44 30.5v324h161v-474h-150l-5 40q-67 -50 -165 -50q-85 0 -131.5 47.5z" />
    <glyph glyph-name="uni01D9" unicode="&#x1d9;" horiz-adv-x="684" 
d="M167 939h119l57 -73l58 73h116l-119 -127h-111zM180 791h114v-103h-114v103zM388 791h114v-103h-114v103zM125.5 56.5q-79.5 66.5 -79.5 188.5v399h161v-384q0 -67 34.5 -100t100.5 -33t100.5 33t34.5 100v384h161v-399q0 -122 -79.5 -188.5t-216.5 -66.5t-216.5 66.5z
" />
    <glyph glyph-name="uni01DA" unicode="&#x1da;" horiz-adv-x="595" 
d="M122 774h119l57 -73l58 73h116l-119 -127h-111zM135 626h114v-103h-114v103zM343 626h114v-103h-114v103zM92.5 37.5q-46.5 47.5 -46.5 138.5v298h161v-289q0 -40 19 -58.5t59 -18.5q28 0 54 11.5t44 30.5v324h161v-474h-150l-5 40q-67 -50 -165 -50q-85 0 -131.5 47.5z
" />
    <glyph glyph-name="uni01DB" unicode="&#x1db;" horiz-adv-x="684" 
d="M221 947h121l58 -133h-111zM181 791h114v-103h-114v103zM389 791h114v-103h-114v103zM125.5 56.5q-79.5 66.5 -79.5 188.5v399h161v-384q0 -67 34.5 -100t100.5 -33t100.5 33t34.5 100v384h161v-399q0 -122 -79.5 -188.5t-216.5 -66.5t-216.5 66.5z" />
    <glyph glyph-name="uni01DC" unicode="&#x1dc;" horiz-adv-x="595" 
d="M178 789h121l58 -133h-111zM138 633h114v-103h-114v103zM346 633h114v-103h-114v103zM92.5 37.5q-46.5 47.5 -46.5 138.5v298h161v-289q0 -40 19 -58.5t59 -18.5q28 0 54 11.5t44 30.5v324h161v-474h-150l-5 40q-67 -50 -165 -50q-85 0 -131.5 47.5z" />
    <glyph glyph-name="Gcaron" unicode="&#x1e6;" horiz-adv-x="647" 
d="M174 875h123l72 -104l75 104h120l-145 -187h-100zM118.5 74q-87.5 84 -87.5 239q0 163 90 252t261 89q113 0 197 -28v-138q-76 28 -185 28q-104 0 -151.5 -49t-47.5 -154q0 -95 44.5 -140.5t133.5 -45.5q58 0 108 16v122h-139v101h274v-319q-39 -25 -100 -41t-144 -16
q-166 0 -253.5 84z" />
    <glyph glyph-name="gcaron" unicode="&#x1e7;" horiz-adv-x="563" 
d="M97 709h123l72 -104l75 104h120l-145 -187h-100zM140.5 -169q-58.5 7 -93.5 19v110q38 -13 93.5 -20t105.5 -7q63 0 92.5 6.5t29.5 22.5q0 14 -12 19t-47 5h-131q-64 0 -99.5 23t-35.5 67q0 31 19 57.5t54 39.5q-42 21 -62.5 53.5t-20.5 80.5q0 91 58.5 134t175.5 43
q22 0 51.5 -3.5t45.5 -6.5h182l-4 -100h-69q25 -25 25 -74q0 -71 -45.5 -112t-133.5 -41q-22 0 -58 4q-63 -7 -63 -34q0 -11 9 -15.5t29 -4.5h121q73 0 113.5 -34t40.5 -97q0 -70 -64.5 -106t-191.5 -36q-56 0 -114.5 7zM340.5 253.5q20.5 17.5 20.5 60.5t-21 61.5t-72 18.5
q-49 0 -70.5 -18.5t-21.5 -61.5q0 -41 20.5 -59.5t71.5 -18.5q52 0 72.5 17.5z" />
    <glyph glyph-name="Aringacute" unicode="&#x1fa;" horiz-adv-x="728" 
d="M415 867h-124l84 186h132zM697 0h-168l-58 146h-215l-57 -146h-168l239 625q-38 35 -38 92q0 55 35.5 90.5t95.5 35.5q61 0 96.5 -35.5t35.5 -90.5q0 -27 -9.5 -51t-27.5 -40zM321.5 757q-15.5 -16 -15.5 -40t15.5 -39.5t41.5 -15.5q27 0 42.5 15.5t15.5 39.5t-15.5 40
t-42.5 16q-26 0 -41.5 -16zM449 265l-86 224l-85 -224h171z" />
    <glyph glyph-name="aringacute" unicode="&#x1fb;" horiz-adv-x="561" 
d="M308 951h132l-92 -156h-124zM204.5 556.5q-35.5 35.5 -35.5 89.5q0 55 35.5 90.5t95.5 35.5q61 0 96.5 -35.5t35.5 -90.5q0 -54 -35.5 -89.5t-96.5 -35.5q-60 0 -95.5 35.5zM342.5 606.5q15.5 15.5 15.5 39.5t-15.5 40t-42.5 16q-26 0 -41.5 -16t-15.5 -40t15.5 -39.5
t41.5 -15.5q27 0 42.5 15.5zM78.5 28.5q-47.5 38.5 -47.5 110.5q0 74 50.5 115t147.5 41h132v11q0 37 -24.5 52t-89.5 15q-81 0 -159 -25v104q36 14 87 23t105 9q113 0 174 -46t61 -142v-296h-141l-8 40q-55 -50 -167 -50q-73 0 -120.5 38.5zM361 135v67h-114
q-36 0 -53.5 -14t-17.5 -43q0 -56 74 -56q72 0 111 46z" />
    <glyph glyph-name="AEacute" unicode="&#x1fc;" horiz-adv-x="854" 
d="M502 884h132l-92 -196h-124zM277 644h546v-124h-261v-135h224v-126h-224v-135h261v-124h-421v147h-142l-57 -147h-172zM402 272v248h-12l-93 -248h105z" />
    <glyph glyph-name="aeacute" unicode="&#x1fd;" horiz-adv-x="882" 
d="M455 718h132l-92 -196h-124zM81.5 28q-50.5 38 -50.5 111q0 74 50.5 115t147.5 41h132v11q0 37 -24.5 52t-89.5 15q-81 0 -159 -25v104q36 14 87 23t105 9q108 0 167 -46q30 22 73 34t94 12q111 0 174 -58t63 -156v-85h-336q11 -46 50.5 -66t111.5 -20q38 0 78.5 7
t68.5 18v-103q-68 -31 -184 -31q-58 0 -110 19t-83 54q-46 -36 -98 -54.5t-137 -18.5q-80 0 -130.5 38zM711 278v21q0 76 -92 76q-57 0 -80.5 -23t-23.5 -74h196zM361 131v71h-114q-36 0 -53.5 -14t-17.5 -43q0 -56 74 -56q69 0 111 42z" />
    <glyph glyph-name="Oslashacute" unicode="&#x1fe;" horiz-adv-x="704" 
d="M341 884h132l-92 -196h-124zM184 21q-153 68 -153 298q0 175 80 255t241 80q36 0 76 -5l17 44h89l-25 -65q81 -32 122.5 -108t41.5 -201q0 -167 -81 -248t-240 -81q-41 0 -88 7l-19 -50h-89zM376 515l-24 1q-83 0 -120 -45t-37 -152q0 -109 45 -154zM470.5 173.5
q37.5 46.5 37.5 145.5q0 64 -13 105t-41 63l-138 -358q22 -2 36 -2q81 0 118.5 46.5z" />
    <glyph glyph-name="oslashacute" unicode="&#x1ff;" horiz-adv-x="597" 
d="M279 718h132l-92 -196h-124zM165 11q-134 50 -134 226q0 120 66.5 183.5t200.5 63.5q25 0 49 -3l18 47h87l-25 -64q139 -52 139 -227q0 -247 -268 -247q-28 0 -54 3l-17 -46h-86zM300 361h-2q-57 0 -82.5 -29t-25.5 -95q0 -67 26 -96zM298 113q57 0 83 29t26 95
q0 68 -30 98l-86 -222h7z" />
    <glyph glyph-name="Scommaaccent" unicode="&#x218;" horiz-adv-x="555" 
d="M136.5 -0.5q-55.5 9.5 -95.5 27.5v137q45 -20 98 -31.5t101 -11.5q65 0 92 11.5t27 47.5q0 25 -14 39.5t-42.5 25t-93.5 29.5q-67 20 -105.5 44.5t-55.5 59t-17 86.5q0 93 66.5 141.5t194.5 48.5q53 0 106.5 -8t88.5 -20v-138q-83 33 -171 33q-61 0 -91 -11.5t-30 -44.5
q0 -21 12 -33.5t38.5 -22t83.5 -24.5q77 -21 119.5 -50t59 -66.5t16.5 -88.5q0 -88 -68 -139t-200 -51q-64 0 -119.5 9.5zM217 -45h133l-45 -186h-118z" />
    <glyph glyph-name="scommaaccent" unicode="&#x219;" horiz-adv-x="479" 
d="M120 -2q-51 8 -82 20v123q34 -14 79.5 -22.5t83.5 -8.5q47 0 64.5 4.5t17.5 21.5q0 14 -17 23t-60 22l-43 14q-70 24 -101 55.5t-31 88.5q0 145 220 145q43 0 87 -6.5t74 -16.5v-121q-27 12 -62.5 18.5t-66.5 6.5q-44 0 -66 -5t-22 -21q0 -14 14 -20.5t54 -18.5
q20 -5 41 -12q56 -17 87 -36.5t44 -46.5t13 -68q0 -72 -56.5 -109.5t-164.5 -37.5q-56 0 -107 8zM180 -45h133l-45 -186h-118z" />
    <glyph glyph-name="uni021A" unicode="&#x21a;" horiz-adv-x="561" 
d="M200 520h-189v124h539v-124h-189v-520h-161v520zM220 -45h129l-53 -213h-109z" />
    <glyph glyph-name="uni021B" unicode="&#x21b;" horiz-adv-x="374" 
d="M117.5 34q-42.5 44 -42.5 125v193h-64v122h64v99l161 43v-142h115l-7 -122h-108v-182q0 -34 16 -47.5t52 -13.5q29 0 59 10v-109q-47 -20 -117 -20q-86 0 -128.5 44zM169 -45h129l-53 -213h-109z" />
    <glyph glyph-name="uni0237" unicode="&#x237;" horiz-adv-x="332" 
d="M-10 -214v109q30 -10 60 -10q36 0 53 14.5t17 45.5v410h-70l14 119h217v-543q0 -76 -43.5 -120.5t-129.5 -44.5q-71 0 -118 20z" />
    <glyph glyph-name="uni0251" unicode="&#x251;" horiz-adv-x="599" 
d="M84.5 45.5q-53.5 55.5 -53.5 172.5q0 78 29.5 138.5t82.5 94t123 33.5q38 0 65 -9t55 -28v27h161v-474h-139l-9 40q-59 -50 -155 -50q-106 0 -159.5 55.5zM386 143v190q-16 17 -34 25t-44 8q-57 0 -85 -36t-28 -112q0 -61 24.5 -86t76.5 -25q53 0 90 36z" />
    <glyph glyph-name="uni0259" unicode="&#x259;" horiz-adv-x="547" 
d="M93.5 47.5q-62.5 57.5 -62.5 156.5v84h336q-12 47 -50.5 66t-111.5 19q-39 0 -79.5 -7t-67.5 -18v104q69 32 184 32q127 0 200.5 -63t73.5 -184q0 -116 -63.5 -181.5t-184.5 -65.5q-112 0 -174.5 57.5zM343.5 121.5q23.5 23.5 23.5 74.5h-196v-22q0 -76 92 -76
q57 0 80.5 23.5z" />
    <glyph glyph-name="uni02BB" unicode="&#x2bb;" horiz-adv-x="257" 
d="M105 654h121l-59 -218h-136z" />
    <glyph glyph-name="uni02BC" unicode="&#x2bc;" horiz-adv-x="257" 
d="M90 654h136l-74 -218h-121z" />
    <glyph glyph-name="uni02BE" unicode="&#x2be;" 
d="M-394 548q36 0 55.5 18t19.5 53q0 34 -19.5 51.5t-55.5 17.5v98q83 0 128 -44.5t45 -122.5q0 -79 -45 -124t-128 -45v98z" />
    <glyph glyph-name="uni02BF" unicode="&#x2bf;" 
d="M-349 495q-45 45 -45 124q0 78 45 122.5t128 44.5v-98q-36 0 -55.5 -17.5t-19.5 -51.5q0 -35 19.5 -53t55.5 -18v-98q-83 0 -128 45z" />
    <glyph glyph-name="circumflex" unicode="&#x2c6;" horiz-adv-x="384" 
d="M142 716h100l145 -187h-120l-75 104l-72 -104h-123z" />
    <glyph glyph-name="caron" unicode="&#x2c7;" horiz-adv-x="384" 
d="M-3 716h123l72 -104l75 104h120l-145 -187h-100z" />
    <glyph glyph-name="uni02C8" unicode="&#x2c8;" 
d="M-81 671h104v-194h-104v194z" />
    <glyph glyph-name="uni02C9" unicode="&#x2c9;" 
d="M111 656h318v-97h-318v97z" />
    <glyph glyph-name="uni02CA" unicode="&#x2ca;" 
d="M-53 718h131l-92 -196h-123z" />
    <glyph glyph-name="uni02CB" unicode="&#x2cb;" 
d="M-140 718h131l84 -196h-123z" />
    <glyph glyph-name="uni02CC" unicode="&#x2cc;" 
d="M-81 -41h104v-195h-104v195z" />
    <glyph glyph-name="breve" unicode="&#x2d8;" horiz-adv-x="347" 
d="M46 578.5q-47 45.5 -47 126.5h106q0 -37 16.5 -59.5t50.5 -22.5q35 0 52 22.5t17 59.5h106q0 -81 -48 -126.5t-127 -45.5t-126 45.5z" />
    <glyph glyph-name="dotaccent" unicode="&#x2d9;" horiz-adv-x="145" 
d="M13 664h118v-109h-118v109z" />
    <glyph glyph-name="ring" unicode="&#x2da;" horiz-adv-x="295" 
d="M56.5 555.5q-36.5 34.5 -36.5 87.5t36.5 88t92.5 35q57 0 93 -35t36 -88t-36 -87.5t-93 -34.5q-56 0 -92.5 34.5zM184 609q14 14 14 34t-14 34.5t-35 14.5t-35 -14.5t-14 -34.5t14 -34t35 -14t35 14z" />
    <glyph glyph-name="ogonek" unicode="&#x2db;" horiz-adv-x="246" 
d="M50.5 -196.5q-34.5 23.5 -34.5 70.5q0 37 19.5 70t54.5 56h112q-62 -47 -62 -97q0 -38 44 -38q30 0 49 11v-81q-15 -6 -40.5 -10.5t-52.5 -4.5q-55 0 -89.5 23.5z" />
    <glyph glyph-name="tilde" unicode="&#x2dc;" horiz-adv-x="376" 
d="M234.5 555.5q-21.5 5.5 -50.5 16.5q-25 9 -43 14t-35 5q-57 0 -93 -38v107q14 14 39 23t51 9q22 0 40 -5t49 -16q28 -10 45.5 -15t36.5 -5q29 0 51.5 10.5t35.5 28.5v-108q-10 -14 -33 -23t-51 -9q-21 0 -42.5 5.5z" />
    <glyph glyph-name="hungarumlaut" unicode="&#x2dd;" horiz-adv-x="443" 
d="M79 710h139l-97 -180h-125zM310 710h139l-97 -180h-125z" />
    <glyph glyph-name="gravecomb" unicode="&#x300;" 
d="M-489 718h132l84 -196h-123z" />
    <glyph glyph-name="acutecomb" unicode="&#x301;" 
d="M-371 718h132l-92 -196h-124z" />
    <glyph glyph-name="uni0302" unicode="&#x302;" 
d="M-90 716h100l145 -187h-120l-75 104l-72 -104h-123z" />
    <glyph glyph-name="tildecomb" unicode="&#x303;" 
d="M-299.5 555.5q-21.5 5.5 -50.5 16.5q-25 9 -43 14t-35 5q-56 0 -94 -38v107q15 14 39.5 23t51.5 9q22 0 40 -5t49 -16q28 -10 45.5 -15t36.5 -5q29 0 51.5 10.5t35.5 28.5v-108q-10 -14 -33 -23t-51 -9q-21 0 -42.5 5.5z" />
    <glyph glyph-name="uni0304" unicode="&#x304;" 
d="M-196 656h318v-97h-318v97z" />
    <glyph glyph-name="uni0306" unicode="&#x306;" 
d="M-155 578.5q-47 45.5 -47 126.5h106q0 -37 16.5 -59.5t50.5 -22.5q35 0 52 22.5t17 59.5h106q0 -81 -48 -126.5t-127 -45.5t-126 45.5z" />
    <glyph glyph-name="uni0307" unicode="&#x307;" 
d="M-87 664h117v-109h-117v109z" />
    <glyph glyph-name="uni0308" unicode="&#x308;" 
d="M-167 664h118v-109h-118v109zM39 664h118v-109h-118v109z" />
    <glyph glyph-name="hookabovecomb" unicode="&#x309;" 
d="M-392 585q51 3 70 14t19 32q0 36 -65 36q-31 0 -60 -9v72q40 14 107 14q65 0 100.5 -27t35.5 -72q0 -42 -20 -64t-65 -33v-44h-122v81z" />
    <glyph glyph-name="uni030A" unicode="&#x30a;" 
d="M-124.5 549.5q-35.5 35.5 -35.5 89.5q0 55 35.5 90.5t95.5 35.5q61 0 96.5 -35.5t35.5 -90.5q0 -54 -35.5 -89.5t-96.5 -35.5q-60 0 -95.5 35.5zM13.5 599.5q15.5 15.5 15.5 39.5t-15.5 40t-42.5 16q-26 0 -41.5 -16t-15.5 -40t15.5 -39.5t41.5 -15.5q27 0 42.5 15.5z
" />
    <glyph glyph-name="uni030B" unicode="&#x30b;" 
d="M-181 710h139l-97 -180h-124zM50 710h139l-97 -180h-124z" />
    <glyph glyph-name="uni030C" unicode="&#x30c;" 
d="M-235 716h123l72 -104l75 104h120l-145 -187h-100z" />
    <glyph glyph-name="uni031B" unicode="&#x31b;" 
d="M-143 618q41 0 62.5 10t30 32t8.5 63h115q0 -80 -21.5 -125t-68 -63.5t-126.5 -19.5v103z" />
    <glyph glyph-name="dotbelowcomb" unicode="&#x323;" 
d="M-387 -80h118v-109h-118v109z" />
    <glyph glyph-name="uni0324" unicode="&#x324;" 
d="M-193 -80h119v-109h-119v109zM19 -80h119v-109h-119v109z" />
    <glyph glyph-name="uni0326" unicode="&#x326;" 
d="M-163 -37h129l-53 -213h-109z" />
    <glyph glyph-name="uni0327" unicode="&#x327;" 
d="M-79.5 -237.5q-25.5 2.5 -36.5 5.5v71q29 -8 60 -8q43 0 59.5 7t16.5 28t-15.5 27.5t-49.5 6.5h-54l29 100h96l-15 -43q55 0 82 -24.5t27 -68.5q0 -50 -39 -77t-118 -27q-17 0 -42.5 2.5z" />
    <glyph glyph-name="uni0328" unicode="&#x328;" 
d="M-101.5 -196q-34.5 24 -34.5 70q0 37 19.5 70t53.5 56h113q-63 -48 -63 -97q0 -38 44 -38q13 0 27 3t23 8v-81q-15 -6 -41 -10.5t-53 -4.5q-54 0 -88.5 24z" />
    <glyph glyph-name="uni032E" unicode="&#x32e;" 
d="M-155 -181.5q-47 45.5 -47 126.5h106q0 -37 16.5 -59.5t50.5 -22.5q35 0 52 22.5t17 59.5h106q0 -81 -48 -126.5t-127 -45.5t-126 45.5z" />
    <glyph glyph-name="uni0331" unicode="&#x331;" 
d="M-196 -46h318v-98h-318v98z" />
    <glyph glyph-name="uni0394" unicode="&#x394;" horiz-adv-x="640" 
d="M31 86l220 558h136l222 -559v-85h-578v86zM452 123l-133 338l-135 -338h268z" />
    <glyph glyph-name="uni03A9" unicode="&#x3a9;" horiz-adv-x="752" 
d="M38 122h114q-121 83 -121 245q0 99 40.5 173t118.5 114.5t186 40.5t186 -40.5t118.5 -114.5t40.5 -173q0 -162 -121 -245h114v-122h-297v126q72 42 106 98.5t34 132.5q0 91 -48.5 145.5t-132.5 54.5t-132.5 -54.5t-48.5 -145.5q0 -76 34 -132.5t106 -98.5v-126h-297v122z
" />
    <glyph glyph-name="uni03BC" unicode="&#x3bc;" horiz-adv-x="600" 
d="M51 474h161v-289q0 -40 19 -58.5t59 -18.5q28 0 54 11.5t44 30.5v324h161v-474h-150l-5 40q-59 -50 -142 -50q-22 0 -40 7v-140h-161v617z" />
    <glyph glyph-name="pi" unicode="&#x3c0;" horiz-adv-x="683" 
d="M378 172v178h-133v-350h-161v350h-63v124h580v-124h-62v-168q0 -34 16 -48t51 -14q29 0 59 10v-120q-48 -20 -114 -20q-173 0 -173 182z" />
    <glyph glyph-name="uni0E01" unicode="&#xe01;" horiz-adv-x="627" 
d="M52 171q0 100 75 125l-96 27v136q49 39 119.5 65t153.5 26q135 0 202 -55t67 -170v-325h-161v324q0 57 -27 81t-90 24q-38 0 -71.5 -11t-54.5 -28v-11l108 -31v-85q-36 -10 -50 -31t-14 -63v-169h-161v171z" />
    <glyph glyph-name="uni0E02" unicode="&#xe02;" horiz-adv-x="605" 
d="M107.5 45q-66.5 55 -66.5 153v30q0 34 13.5 60t36.5 57q15 22 21.5 32.5t6.5 21.5q0 14 -7 19.5t-24 5.5h-59l13 116h156q46 0 67 -20.5t21 -63.5q0 -31 -11 -55.5t-32 -58.5q-21 -31 -31 -54t-10 -50v-44q0 -83 93 -83q95 0 95 88v341h161v-339q0 -99 -68.5 -155
t-187.5 -56q-121 0 -187.5 55z" />
    <glyph glyph-name="uni0E03" unicode="&#xe03;" horiz-adv-x="606" 
d="M108.5 40q-65.5 50 -65.5 146v14q0 36 20 69t55 74q23 28 32 41t9 24q0 19 -16 19q-14 0 -23 -11v-40h-92v164h99v-28q37 28 87 28q44 0 66.5 -22t22.5 -65q0 -38 -14 -67t-41 -68q-22 -29 -33 -51t-11 -47v-24q0 -42 23.5 -63.5t68.5 -21.5q95 0 95 88v341h161v-339
q0 -99 -68.5 -155t-187.5 -56q-122 0 -187.5 50z" />
    <glyph glyph-name="uni0E04" unicode="&#xe04;" horiz-adv-x="635" 
d="M51 327q0 108 67 165.5t198 57.5t198 -57.5t67 -165.5v-327h-161v333q0 45 -27.5 70.5t-76.5 25.5q-52 0 -78 -25t-26 -71v-77q17 12 39 19t45 7h59l4 -127h-65q-48 0 -82 -23v-132h-161v327z" />
    <glyph glyph-name="uni0E05" unicode="&#xe05;" horiz-adv-x="635" 
d="M51 387q0 76 36 119.5t108 43.5q35 0 66.5 -12.5t53.5 -38.5q22 26 56 38.5t70 12.5q140 0 140 -163v-387h-161v379q0 26 -7.5 38t-28.5 12q-27 0 -43 -32h-50q-6 16 -14 24t-23 8q-42 0 -42 -50v-123q16 12 38 19t46 7h59l4 -127h-66q-47 0 -81 -23v-132h-161v387z" />
    <glyph glyph-name="uni0E06" unicode="&#xe06;" horiz-adv-x="623" 
d="M204 47l-6 -47h-149v194q0 39 20.5 74t56.5 77q22 27 30.5 39.5t8.5 23.5q0 19 -16 19q-14 0 -23 -11v-40h-92v164h99v-28q37 28 87 28q44 0 66.5 -22t22.5 -65q0 -40 -13.5 -71.5t-39.5 -72.5q-23 -34 -34.5 -60t-11.5 -56v-35q19 -20 50 -33.5t63 -13.5q43 0 64 21
t21 67v341h161v-355q0 -92 -51 -143.5t-138 -51.5q-103 0 -176 57z" />
    <glyph glyph-name="uni0E07" unicode="&#xe07;" horiz-adv-x="571" 
d="M216 -5.5q-34 4.5 -57 12.5l-148 364h157l108 -265q60 3 88.5 47.5t28.5 132.5q0 52 -10.5 80.5t-34 40t-65.5 11.5h-40v122h68q242 0 242 -254q0 -150 -73 -223t-199 -73q-31 0 -65 4.5z" />
    <glyph glyph-name="uni0E08" unicode="&#xe08;" horiz-adv-x="568" 
d="M218.5 -5q-30.5 5 -49.5 12l-67 181h-76l6 122h164l75 -200q106 6 106 164q0 59 -15.5 92.5t-51.5 48t-100 14.5q-39 0 -85.5 -7t-88.5 -19v114q47 15 103.5 24t111.5 9q151 0 218.5 -69t67.5 -207q0 -90 -36 -154t-95.5 -97t-128.5 -33q-28 0 -58.5 5z" />
    <glyph glyph-name="uni0E09" unicode="&#xe09;" horiz-adv-x="601" 
d="M82.5 37.5q-46.5 47.5 -46.5 138.5v124h161v-100q0 -45 19.5 -67t62.5 -22q66 0 107 48v148q0 47 -14.5 73t-48 37.5t-93.5 11.5q-40 0 -98.5 -8.5t-100.5 -20.5v114q49 17 113.5 26.5t126.5 9.5q145 0 210.5 -60.5t65.5 -183.5v-306h-149l-6 48q-73 -58 -179 -58
q-84 0 -130.5 47.5z" />
    <glyph glyph-name="uni0E0A" unicode="&#xe0a;" horiz-adv-x="606" 
d="M108.5 45q-66.5 55 -66.5 153v30q0 34 13.5 60t36.5 57q15 22 21.5 32.5t6.5 21.5q0 14 -7 19.5t-24 5.5h-59l13 116h155q46 0 67 -20.5t21 -63.5q0 -31 -11 -55.5t-32 -58.5q-20 -33 -30 -55t-10 -49v-44q0 -83 93 -83q95 0 95 88v56q0 33 -13 47.5t-40 14.5h-23l9 112
h12q29 0 41.5 15t12.5 52v54h162v-49q0 -49 -14.5 -79t-52.5 -48q38 -19 52.5 -48t14.5 -76v-49q0 -99 -68.5 -155t-187.5 -56q-121 0 -187.5 55z" />
    <glyph glyph-name="uni0E0B" unicode="&#xe0b;" horiz-adv-x="607" 
d="M109.5 40q-65.5 50 -65.5 143v20q0 36 20 68.5t55 72.5q22 26 31.5 39.5t9.5 24.5q0 19 -16 19q-14 0 -23 -11v-40h-92v164h99v-28q37 28 87 28q43 0 65 -23t22 -64q0 -38 -13.5 -67.5t-40.5 -68.5q-22 -32 -32.5 -53t-10.5 -46v-24q0 -41 23.5 -62t68.5 -21q95 0 95 88
v56q0 33 -13 47.5t-40 14.5h-23l9 112h12q29 0 41.5 15t12.5 52v54h162v-49q0 -49 -14.5 -79t-52.5 -48q38 -19 52.5 -48t14.5 -76v-49q0 -99 -68.5 -155t-187.5 -56q-122 0 -187.5 50z" />
    <glyph glyph-name="uni0E0C" unicode="&#xe0c;" horiz-adv-x="958" 
d="M628.5 4.5q-40.5 14.5 -76.5 42.5l-7 -47h-146v324q0 57 -24.5 81t-83.5 24q-37 0 -68.5 -10.5t-53.5 -28.5v-11l108 -31v-85q-36 -10 -50 -29.5t-14 -58.5v-28q0 -18 8.5 -26t25.5 -8h47v-113h-138q-47 0 -75.5 29t-28.5 76v66q0 100 75 125l-96 27v136q50 39 118 65
t151 26q131 0 194.5 -54.5t63.5 -170.5v-167q19 -21 47.5 -34t58.5 -13q42 0 60.5 20.5t18.5 67.5v341h161v-355q0 -93 -48.5 -144t-134.5 -51q-52 0 -92.5 14.5z" />
    <glyph glyph-name="uni0E0D" unicode="&#xe0d;" horiz-adv-x="973" 
d="M560.5 -70.5q-57.5 10.5 -97.5 32.5v114q41 -21 98.5 -32t103.5 -11q66 0 96 12.5t30 36.5q0 17 -12 26q-52 -18 -121 -18q-125 0 -192 54.5t-67 168.5v11q0 57 -24.5 81t-83.5 24q-37 0 -68.5 -10.5t-53.5 -28.5v-11l108 -31v-85q-36 -10 -50 -29.5t-14 -58.5v-28
q0 -18 8.5 -26t25.5 -8h47v-113h-138q-47 0 -75.5 29t-28.5 76v66q0 100 75 125l-96 27v136q50 39 118 65t151 26q131 0 194.5 -54.5t63.5 -170.5v-17q0 -55 23 -76t77 -21q52 0 76 25.5t24 81.5v222h161v-217q0 -93 -46 -151q18 -18 30.5 -45t12.5 -56q0 -75 -65 -113.5
t-181 -38.5q-52 0 -109.5 10.5z" />
    <glyph glyph-name="uni0E0E" unicode="&#xe0e;" horiz-adv-x="660" 
d="M156 -77q75 33 169 33q34 0 67 -6t52 -15v389q0 57 -25.5 81t-85.5 24q-37 0 -70.5 -11t-55.5 -28v-11l108 -31v-85q-33 -11 -43 -30t-10 -61v-46q0 -126 -126 -126h-100v113h29q18 0 25 8t7 26v28q0 47 14.5 76.5t54.5 44.5l-97 27v136q50 39 120 65t153 26
q264 0 264 -225v-519h-154q-55 29 -141 29q-38 0 -81 -9t-74 -24v121z" />
    <glyph glyph-name="uni0E0F" unicode="&#xe0f;" horiz-adv-x="660" 
d="M363 -184q-34 13 -54 34q-29 -44 -98 -44h-98l8 118h65q27 0 41.5 9.5t22.5 31.5h99q6 -22 17.5 -33t32.5 -11q22 0 33.5 12t11.5 34v357q0 57 -25.5 81t-85.5 24q-37 0 -70.5 -11t-55.5 -28v-11l108 -31v-85q-33 -11 -43 -30t-10 -61v-46q0 -126 -126 -126h-100v113h29
q18 0 25 8t7 26v28q0 47 14.5 76.5t54.5 44.5l-97 27v136q50 39 120 65t153 26q264 0 264 -225v-361q0 -74 -44.5 -117.5t-123.5 -43.5q-41 0 -75 13z" />
    <glyph glyph-name="uni0E10" unicode="&#xe10;" horiz-adv-x="610" 
d="M218.5 -5q-30.5 5 -49.5 12l-67 181h-76l6 122h164l75 -200q106 6 106 164q0 59 -15.5 92.5t-51.5 48t-100 14.5q-39 0 -85.5 -7t-88.5 -19v114q47 15 103.5 24t111.5 9q60 0 103 -10h233l-8 -120h-76q34 -60 34 -146q0 -90 -36 -154t-95.5 -97t-128.5 -33q-28 0 -58.5 5
zM279 -200q-33 13 -53 35q-31 -46 -97 -46h-87l8 115h58q27 0 41.5 10t22.5 33h102q11 -46 58 -46q26 0 40 12t14 34v22h129v-22q0 -74 -40.5 -117t-119.5 -43q-43 0 -76 13z" />
    <glyph glyph-name="uni0E11" unicode="&#xe11;" horiz-adv-x="620" 
d="M70 184q0 36 14 68t41 77q18 29 26.5 47t8.5 32q0 19 -16 19q-14 0 -23 -11v-40h-92v164h99v-28q18 13 36.5 20.5t44.5 7.5q41 0 66 -28q23 17 55 27.5t66 10.5q86 0 128 -46.5t42 -138.5v-365h-161v362q0 36 -11.5 51t-41.5 15q-13 0 -27.5 -6t-24.5 -14q0 -26 -7.5 -48
t-24.5 -56q-19 -36 -28 -62t-9 -61v-181h-161v184z" />
    <glyph glyph-name="uni0E12" unicode="&#xe12;" horiz-adv-x="991" 
d="M93 54.5q-62 64.5 -62 200.5q0 144 47.5 219.5t137.5 75.5q39 0 65 -13t45 -38q22 23 56 37t70 14q139 0 139 -155v-237q19 -21 47.5 -34t58.5 -13q42 0 60.5 20.5t18.5 67.5v341h161v-355q0 -93 -48.5 -144t-134.5 -51q-52 0 -92.5 14.5t-76.5 42.5l-7 -47h-145v366
q0 34 -7 48.5t-29 14.5q-16 0 -27.5 -10t-16.5 -29h-60q-10 22 -18.5 30.5t-25.5 8.5q-34 0 -46 -44.5t-12 -129.5q0 -78 25.5 -111t78.5 -33q42 0 65 8v-113q-40 -16 -99 -16q-106 0 -168 64.5z" />
    <glyph glyph-name="uni0E13" unicode="&#xe13;" horiz-adv-x="962" 
d="M448.5 41q-48.5 51 -48.5 144v139q0 57 -25 81t-84 24q-37 0 -68.5 -10.5t-53.5 -28.5v-11l108 -31v-85q-36 -10 -50 -29.5t-14 -58.5v-28q0 -18 8.5 -26t25.5 -8h47v-113h-138q-47 0 -75.5 29t-28.5 76v66q0 100 75 125l-96 27v136q50 39 118 65t151 26
q131 0 194.5 -54.5t63.5 -170.5v-126q0 -46 19.5 -67t61.5 -21q31 0 59.5 13t47.5 34v382h162v-540h-149l-7 47q-34 -28 -75 -42.5t-94 -14.5q-86 0 -134.5 51z" />
    <glyph glyph-name="uni0E14" unicode="&#xe14;" horiz-adv-x="657" 
d="M93 54.5q-62 64.5 -62 200.5q0 143 74 219t219 76q95 0 157.5 -30.5t92 -81t29.5 -111.5v-327h-162v314q0 56 -26.5 85.5t-93.5 29.5q-66 0 -98 -42.5t-32 -131.5q0 -78 25.5 -111t78.5 -33q42 0 65 8v-113q-40 -16 -99 -16q-106 0 -168 64.5z" />
    <glyph glyph-name="uni0E15" unicode="&#xe15;" horiz-adv-x="660" 
d="M93 54.5q-62 64.5 -62 200.5q0 144 49.5 219.5t141.5 75.5q39 0 65.5 -13t45.5 -38q22 23 57.5 37t72.5 14q73 0 108 -41.5t35 -113.5v-395h-162v366q0 33 -8.5 48t-30.5 15q-16 0 -28 -10t-17 -29h-60q-10 21 -19 30t-26 9q-36 0 -50 -45.5t-14 -128.5q0 -78 25.5 -111
t78.5 -33q42 0 65 8v-113q-40 -16 -99 -16q-106 0 -168 64.5z" />
    <glyph glyph-name="uni0E16" unicode="&#xe16;" horiz-adv-x="627" 
d="M80.5 29q-28.5 29 -28.5 76v66q0 100 75 125l-96 27v136q49 39 119.5 65t153.5 26q135 0 202 -55t67 -170v-325h-161v324q0 57 -27 81t-90 24q-38 0 -71.5 -11t-54.5 -28v-11l108 -31v-85q-36 -10 -50 -29.5t-14 -58.5v-28q0 -18 8.5 -26t25.5 -8h47v-113h-138
q-47 0 -75.5 29z" />
    <glyph glyph-name="uni0E17" unicode="&#xe17;" horiz-adv-x="625" 
d="M51 540h149l6 -48q35 27 81 42.5t99 15.5q85 0 135 -51.5t50 -141.5v-357h-162v343q0 45 -20.5 65t-63.5 20q-32 0 -63.5 -13t-49.5 -34v-381h-161v540z" />
    <glyph glyph-name="uni0E18" unicode="&#xe18;" horiz-adv-x="544" 
d="M147 2q-63 12 -107 31v195h144v-107q15 -6 38.5 -9.5t45.5 -3.5q49 0 72.5 14t23.5 47q0 22 -15 35t-41 21t-77 20q5 -1 -33 8q-84 21 -125.5 51t-41.5 92q0 74 62.5 114t187.5 40q61 0 116.5 -7.5t86.5 -17.5v-122q-32 13 -81.5 20.5t-95.5 7.5q-55 0 -87 -6.5
t-32 -27.5q0 -17 23 -27t76 -22q34 -7 64 -15q56 -15 90.5 -34t53 -50t18.5 -81q0 -86 -62 -132t-174 -46q-67 0 -130 12z" />
    <glyph glyph-name="uni0E19" unicode="&#xe19;" horiz-adv-x="625" 
d="M101.5 41.5q-50.5 51.5 -50.5 143.5v355h161v-341q0 -46 20.5 -67t64.5 -21q32 0 62.5 13.5t49.5 33.5v382h162v-540h-149l-7 47q-73 -57 -177 -57q-86 0 -136.5 51.5z" />
    <glyph glyph-name="uni0E1A" unicode="&#xe1a;" horiz-adv-x="639" 
d="M122 49q-71 59 -71 174v317h161v-322q0 -55 26 -81t80 -26t79.5 26t25.5 81v322h162v-317q0 -115 -71 -174t-196 -59t-196 59z" />
    <glyph glyph-name="uni0E1B" unicode="&#xe1b;" horiz-adv-x="639" 
d="M122 49q-71 59 -71 174v317h161v-322q0 -55 26 -81t80 -26t79.5 26t25.5 81v482h162v-477q0 -115 -71 -174t-196 -59t-196 59z" />
    <glyph glyph-name="uni0E1C" unicode="&#xe1c;" horiz-adv-x="650" 
d="M51 440q0 45 23 72.5t66 27.5h139l6 -113h-49q-39 0 -39 -41v-183l99 172h56l98 -172v337h146v-540h-147l-125 227l-126 -227h-147v440z" />
    <glyph glyph-name="uni0E1D" unicode="&#xe1d;" horiz-adv-x="650" 
d="M51 440q0 45 23 72.5t66 27.5h139l6 -113h-49q-39 0 -39 -41v-183l99 172h56l98 -172v497h146v-700h-147l-125 227l-126 -227h-147v440z" />
    <glyph glyph-name="uni0E1E" unicode="&#xe1e;" horiz-adv-x="732" 
d="M21 540h149l66 -319l67 224v95h112l83 -319l65 319h148l-128 -540h-136l-78 276l-85 -276h-136z" />
    <glyph glyph-name="uni0E1F" unicode="&#xe1f;" horiz-adv-x="732" 
d="M21 540h149l66 -319l67 224v95h112l83 -319l89 479h148l-152 -700h-136l-78 276l-85 -276h-136z" />
    <glyph glyph-name="uni0E20" unicode="&#xe20;" horiz-adv-x="660" 
d="M36 113h29q18 0 25 8t7 26v28q0 47 14.5 76.5t54.5 44.5l-97 27v136q50 39 120 65t153 26q264 0 264 -225v-325h-162v324q0 57 -25.5 81t-85.5 24q-37 0 -70.5 -11t-55.5 -28v-11l108 -31v-85q-33 -11 -43 -30t-10 -61v-46q0 -126 -126 -126h-100v113z" />
    <glyph glyph-name="uni0E21" unicode="&#xe21;" horiz-adv-x="625" 
d="M206 47l-6 -47h-149v540h161v-382q19 -20 50 -33.5t63 -13.5q43 0 63.5 21t20.5 67v341h162v-355q0 -92 -51 -143.5t-138 -51.5q-103 0 -176 57z" />
    <glyph glyph-name="uni0E22" unicode="&#xe22;" horiz-adv-x="622" 
d="M102.5 33.5q-72.5 43.5 -72.5 134.5q0 35 15.5 64.5t46.5 47.5q-27 14 -43.5 42.5t-16.5 66.5q0 78 50.5 119.5t138.5 41.5q59 0 99 -15v-114q-27 8 -64 8q-32 0 -48 -10.5t-16 -35.5q0 -27 16.5 -37.5t51.5 -10.5h53l6 -110h-60q-35 0 -52 -14t-17 -43t25 -43t81 -14
q110 0 110 89v340h162v-330q0 -220 -268 -220q-125 0 -197.5 43.5z" />
    <glyph glyph-name="uni0E23" unicode="&#xe23;" horiz-adv-x="503" 
d="M125.5 -2q-53.5 8 -85.5 22v126q36 -16 82 -25.5t85 -9.5q59 0 82 8.5t23 31.5t-19 34.5t-76 31.5l-39 13q-76 27 -111.5 61.5t-35.5 94.5q0 75 59 119.5t173 44.5q46 0 95 -7t82 -17v-125q-31 13 -72.5 20.5t-75.5 7.5q-48 0 -74.5 -9.5t-26.5 -33.5q0 -19 18 -29
t64 -25q8 -3 20 -7t29 -10q59 -22 91 -43t45.5 -49.5t13.5 -73.5q0 -77 -61 -118t-173 -41q-59 0 -112.5 8z" />
    <glyph glyph-name="uni0E24" unicode="&#xe24;" horiz-adv-x="627" 
d="M412 324q0 57 -27 81t-90 24q-38 0 -71.5 -11t-54.5 -28v-11l108 -31v-85q-36 -10 -50 -29.5t-14 -58.5v-28q0 -18 8.5 -26t25.5 -8h47v-113h-138q-47 0 -75.5 29t-28.5 76v66q0 100 75 125l-96 27v136q49 39 119.5 65t153.5 26q135 0 202 -55t67 -170v-485h-161v484z
" />
    <glyph glyph-name="uni0E25" unicode="&#xe25;" horiz-adv-x="602" 
d="M81 31.5q-51 41.5 -51 130.5q0 83 55 127.5t157 44.5h144v20q0 40 -27.5 57.5t-91.5 17.5q-92 0 -182 -28v116q43 15 100.5 24t111.5 9q251 0 251 -216v-334h-162v220h-119q-40 0 -60 -13t-20 -46q0 -32 17.5 -44t59.5 -12q38 0 60 7v-108q-40 -14 -108 -14
q-84 0 -135 41.5z" />
    <glyph glyph-name="uni0E26" unicode="&#xe26;" horiz-adv-x="660" 
d="M444 324q0 57 -25.5 81t-85.5 24q-37 0 -70.5 -11t-55.5 -28v-11l108 -31v-85q-33 -11 -43 -30t-10 -61v-46q0 -126 -126 -126h-100v113h29q18 0 25 8t7 26v28q0 47 14.5 76.5t54.5 44.5l-97 27v136q50 39 120 65t153 26q264 0 264 -225v-485h-162v484z" />
    <glyph glyph-name="uni0E27" unicode="&#xe27;" horiz-adv-x="514" 
d="M23 24v120q33 -15 71 -24t74 -9q85 0 122.5 37t37.5 122q0 84 -37.5 121.5t-121.5 37.5q-76 0 -146 -31v118q82 34 185 34q280 0 280 -280t-281 -280q-110 0 -184 34z" />
    <glyph glyph-name="uni0E28" unicode="&#xe28;" horiz-adv-x="663" 
d="M51 327q0 108 67 165.5t198 57.5q49 0 97 -10h219l-8 -120h-66q23 -33 23 -107v-313h-162v335q0 45 -27 69.5t-76 24.5q-104 0 -104 -94v-79q17 12 39 19t45 7h59l4 -127h-65q-48 0 -82 -23v-132h-161v327z" />
    <glyph glyph-name="uni0E29" unicode="&#xe29;" horiz-adv-x="650" 
d="M122 49q-71 59 -71 174v317h162v-322q0 -55 25.5 -81t79.5 -26t80 26t26 81v53h-101v123h101v146h161v-146h59l-11 -123h-48v-48q0 -115 -71 -174t-196 -59t-196 59z" />
    <glyph glyph-name="uni0E2A" unicode="&#xe2a;" horiz-adv-x="626" 
d="M81 30q-51 40 -51 128q0 83 55.5 129.5t156.5 46.5h145v20q0 40 -28 57.5t-91 17.5q-92 0 -182 -28v116q43 15 100.5 24t110.5 9q49 0 97 -10h201l-8 -120h-59q10 -15 15 -40.5t5 -53.5v-326h-161v220h-119q-41 0 -61 -13t-20 -46q0 -32 18 -44t60 -12q38 0 60 7v-108
q-42 -14 -109 -14q-84 0 -135 40z" />
    <glyph glyph-name="uni0E2B" unicode="&#xe2b;" horiz-adv-x="618" 
d="M51 540h161v-155h112q43 0 60.5 19.5t17.5 60.5v75h162v-79q0 -105 -71 -136q36 -16 52 -46.5t16 -75.5v-203h-162v182q0 44 -17 62t-61 18h-109v-262h-161v540z" />
    <glyph glyph-name="uni0E2C" unicode="&#xe2c;" horiz-adv-x="732" 
d="M21 540h149l67 -324l69 189v95h107l86 -284l42 213q4 19 4 35q0 25 -11.5 35.5t-36.5 10.5h-35l18 104h43q33 0 47.5 12.5t22.5 44.5l6 29h137l-10 -49q-8 -40 -26 -62.5t-50 -30.5q36 -22 36 -75q0 -20 -6 -46l-97 -437h-136l-78 243l-84 -243h-137z" />
    <glyph glyph-name="uni0E2D" unicode="&#xe2d;" horiz-adv-x="593" 
d="M146 2q-62 12 -106 31v286h240l7 -111h-90v-87q31 -10 76 -10q72 0 100.5 35t28.5 121q0 63 -16.5 98t-53 49.5t-99.5 14.5q-45 0 -94.5 -7t-92.5 -21v116q48 15 109 24t117 9q149 0 219.5 -71t70.5 -212q0 -138 -69.5 -207.5t-218.5 -69.5q-66 0 -128 12z" />
    <glyph glyph-name="uni0E2E" unicode="&#xe2e;" horiz-adv-x="633" 
d="M146 2q-62 12 -106 31v286h240l7 -111h-90v-87q31 -10 76 -10q72 0 100.5 35t28.5 121q0 63 -16.5 98t-53 49.5t-99.5 14.5q-45 0 -94.5 -7t-92.5 -21v116q48 15 109 24t117 9q50 0 100 -10h230l-8 -120h-68q36 -67 36 -153q0 -138 -69.5 -207.5t-218.5 -69.5
q-66 0 -128 12z" />
    <glyph glyph-name="uni0E2F" unicode="&#xe2f;" horiz-adv-x="599" 
d="M384 235q-26 -13 -60 -22t-70 -9q-100 0 -157 47.5t-57 138.5q0 82 46 150h154q-40 -68 -40 -130q0 -88 88 -88q58 0 96 29v189h161v-540h-161v235z" />
    <glyph glyph-name="uni0E30" unicode="&#xe30;" horiz-adv-x="324" 
d="M31 474h128v-48h136l-5 -114h-259v162zM31 211h128v-49h136l-5 -113h-259v162z" />
    <glyph glyph-name="uni0E31" unicode="&#xe31;" 
d="M-328 777h126v-67h244l-6 -105h-364v172z" />
    <glyph glyph-name="uni0E32" unicode="&#xe32;" horiz-adv-x="447" 
d="M232 326q0 54 -21 78.5t-75 24.5q-64 0 -132 -27v114q31 15 76.5 24.5t89.5 9.5q116 0 169.5 -50.5t53.5 -156.5v-343h-161v326z" />
    <glyph glyph-name="uni0E33" unicode="&#xe33;" horiz-adv-x="447" 
d="M-225 609.5q-37 34.5 -37 87.5t37 88t92 35q54 0 91 -35t37 -88t-37 -87.5t-91 -34.5q-55 0 -92 34.5zM-104.5 668.5q12.5 12.5 12.5 28.5q0 17 -12.5 29.5t-28.5 12.5q-17 0 -29.5 -12.5t-12.5 -29.5q0 -16 12.5 -28.5t29.5 -12.5q16 0 28.5 12.5zM232 326
q0 54 -21 78.5t-75 24.5q-64 0 -132 -27v114q31 15 76.5 24.5t89.5 9.5q116 0 169.5 -50.5t53.5 -156.5v-343h-161v326z" />
    <glyph glyph-name="uni0E34" unicode="&#xe34;" 
d="M-504 714h449v-109h-457z" />
    <glyph glyph-name="uni0E35" unicode="&#xe35;" 
d="M-504 714h318v78h131v-187h-457z" />
    <glyph glyph-name="uni0E36" unicode="&#xe36;" 
d="M-504 714h251q2 40 29 67t77 27t77 -28t27 -72q0 -46 -29.5 -74.5t-80.5 -28.5h-359zM-118 679q11 11 11 28t-11.5 28.5t-28.5 11.5t-28.5 -11t-11.5 -29q0 -16 11.5 -27.5t28.5 -11.5q18 0 29 11z" />
    <glyph glyph-name="uni0E37" unicode="&#xe37;" 
d="M-504 714h172v78h112v-78h53v78h112v-187h-457z" />
    <glyph glyph-name="uni0E38" unicode="&#xe38;" 
d="M-188 -146h-60l6 101h187v-210h-133v109z" />
    <glyph glyph-name="uni0E39" unicode="&#xe39;" 
d="M-308.5 -242q-38.5 25 -38.5 65v37h-56l6 95h161v-92q0 -30 33 -30q35 0 35 30v92h113v-104q0 -51 -36.5 -84.5t-111.5 -33.5q-67 0 -105.5 25z" />
    <glyph glyph-name="uni0E3A" unicode="&#xe3a;" 
d="M-185.5 -172q-23.5 23 -23.5 56q0 34 23.5 57t56.5 23q34 0 57.5 -23t23.5 -57q0 -33 -23.5 -56t-57.5 -23q-33 0 -56.5 23z" />
    <glyph glyph-name="uni0E3F" unicode="&#xe3f;" horiz-adv-x="641" 
d="M262 0h-211v644h211v86h98v-86h31q96 0 146 -45.5t50 -130.5q0 -49 -19 -84.5t-52 -54.5q47 -17 70.5 -49.5t23.5 -90.5q0 -92 -54 -140.5t-155 -48.5h-41v-86h-98v86zM262 382v146h-50v-146h50zM423 454q0 32 -14.5 50t-48.5 22v-143q63 7 63 71zM262 115v156h-50v-156
h50zM425.5 133.5q20.5 18.5 20.5 63.5q0 36 -20 54.5t-66 19.5v-156q45 0 65.5 18.5z" />
    <glyph glyph-name="uni0E40" unicode="&#xe40;" horiz-adv-x="319" 
d="M80 27.5q-28 27.5 -28 80.5v432h162v-390q0 -37 36 -37h37v-113h-123q-56 0 -84 27.5z" />
    <glyph glyph-name="uni0E41" unicode="&#xe41;" horiz-adv-x="581" 
d="M79 28q-28 28 -28 80v432h161v-390q0 -37 36 -37h33v-113h-119q-55 0 -83 28zM348 27.5q-28 27.5 -28 80.5v432h162v-390q0 -37 36 -37h32v-113h-118q-56 0 -84 27.5z" />
    <glyph glyph-name="uni0E42" unicode="&#xe42;" horiz-adv-x="322" 
d="M109 27.5q-28 27.5 -28 80.5v346q0 56 -23 88.5t-72 47.5v104h337v-114h-135q55 -37 55 -120v-310q0 -37 36 -37h37v-113h-123q-56 0 -84 27.5z" />
    <glyph glyph-name="uni0E43" unicode="&#xe43;" horiz-adv-x="307" 
d="M64 28q-28 28 -28 80v217q0 47 17.5 79.5t49.5 69.5q18 20 27 33.5t9 27.5q0 41 -55 41q-54 0 -103 -30v111q32 19 75.5 29.5t88.5 10.5q78 0 119.5 -30.5t41.5 -90.5q0 -35 -13.5 -61t-40.5 -63q-28 -39 -41.5 -65.5t-13.5 -63.5v-173q0 -37 36 -37h38v-113h-124
q-55 0 -83 28z" />
    <glyph glyph-name="uni0E44" unicode="&#xe44;" horiz-adv-x="314" 
d="M91 28q-28 28 -28 80v338q0 45 15 80t41 54h-133v114h327v-104q-47 -15 -68 -52t-21 -100v-288q0 -37 36 -37h38v-113h-124q-55 0 -83 28z" />
    <glyph glyph-name="uni0E45" unicode="&#xe45;" horiz-adv-x="447" 
d="M232 326q0 54 -21 78.5t-75 24.5q-64 0 -132 -27v114q31 15 76.5 24.5t89.5 9.5q116 0 169.5 -50.5t53.5 -156.5v-503h-161v486z" />
    <glyph glyph-name="uni0E46" unicode="&#xe46;" horiz-adv-x="631" 
d="M415 386q0 22 -7 32.5t-26 10.5q-28 0 -44 -39h-50q-7 20 -15.5 29.5t-23.5 9.5q-41 0 -41 -80q0 -39 17.5 -57t54.5 -18q42 0 65 8v-113q-40 -16 -102 -16q-96 0 -149.5 49.5t-53.5 142.5q0 56 19 102.5t57 74.5t91 28q35 0 60.5 -12t46.5 -39q44 51 122 51
q66 0 103.5 -39.5t37.5 -109.5v-401h-162v386z" />
    <glyph glyph-name="uni0E47" unicode="&#xe47;" 
d="M-468.5 626.5q-36.5 33.5 -36.5 93.5q0 59 38 94.5t106 35.5h258l-7 -85h-236q-55 0 -55 -46q0 -42 45 -42q44 0 44 38v15h89v-15q0 -19 9.5 -27t30.5 -8h62v-85h-73q-26 0 -46 7.5t-29 23.5q-11 -16 -40 -24.5t-59 -8.5q-64 0 -100.5 33.5z" />
    <glyph glyph-name="uni0E48" unicode="&#xe48;" 
d="M-213 763h161v-167h-161v167z" />
    <glyph glyph-name="uni0E49" unicode="&#xe49;" 
d="M-311 687h-78v106h183v-86h212l-6 -107h-311v87z" />
    <glyph glyph-name="uni0E4A" unicode="&#xe4a;" 
d="M-448.5 618q-33.5 28 -33.5 82q0 52 29 82.5t77 30.5q53 0 69 -36h1q9 17 28 26.5t43 9.5q49 0 72 -22.5t23 -60.5v-58h7q10 0 14 5t4 18v112h85v-118q0 -41 -25 -65.5t-68 -24.5h-99v104q0 18 -5 26t-19 8q-15 0 -20.5 -9t-5.5 -26v-12h-64v12q0 35 -25 35
q-28 0 -28 -39q0 -21 11 -29.5t33 -8.5h27v-70h-40q-57 0 -90.5 28z" />
    <glyph glyph-name="uni0E4B" unicode="&#xe4b;" 
d="M-254 639h-58v90h58v48h141v-48h59v-90h-59v-43h-141v43z" />
    <glyph glyph-name="uni0E4C" unicode="&#xe4c;" 
d="M-321 767h312l-5 -106h-183v-62h-124v168z" />
    <glyph glyph-name="uni0E4D" unicode="&#xe4d;" 
d="M-225 609.5q-37 34.5 -37 87.5t37 88t92 35q54 0 91 -35t37 -88t-37 -87.5t-91 -34.5q-55 0 -92 34.5zM-104.5 668.5q12.5 12.5 12.5 28.5q0 17 -12.5 29.5t-28.5 12.5q-17 0 -29.5 -12.5t-12.5 -29.5q0 -16 12.5 -28.5t29.5 -12.5q16 0 28.5 12.5z" />
    <glyph glyph-name="uni0E4E" unicode="&#xe4e;" 
d="M-337 672q0 34 21.5 54t55.5 26q-12 13 -12 39q0 29 28.5 47.5t85.5 18.5q17 0 35.5 -3t30.5 -8v-58q-10 6 -25 9t-27 3q-38 0 -38 -20q0 -10 8.5 -15t29.5 -9v-54q-18 9 -44 9q-47 0 -47 -27q0 -12 10 -17.5t32 -5.5q41 0 62 14v-63q-24 -16 -82 -16q-124 0 -124 76z
" />
    <glyph glyph-name="uni0E4F" unicode="&#xe4f;" horiz-adv-x="594" 
d="M163 25.5q-61 35.5 -96.5 96t-35.5 133.5q0 72 35.5 133t96.5 97t133 36t133 -36t97 -97t36 -133q0 -73 -35.5 -133.5t-97 -96t-133.5 -35.5t-133 35.5zM380.5 109.5q38.5 22.5 61 61.5t22.5 84t-22.5 84t-61 61.5t-84.5 22.5q-45 0 -83.5 -23t-61.5 -61.5t-23 -83.5
t23 -83.5t61.5 -61.5t83.5 -23q46 0 84.5 22.5zM234.5 148.5q-28.5 16.5 -45 45t-16.5 61.5t16.5 61.5t45 45t61.5 16.5q51 0 87 -36t36 -87t-36 -87t-87 -36q-33 0 -61.5 16.5zM330 221.5q14 13.5 14 33.5t-14 33.5t-34 13.5q-19 0 -32.5 -13.5t-13.5 -33.5t13.5 -33.5
t32.5 -13.5q20 0 34 13.5z" />
    <glyph glyph-name="uni0E50" unicode="&#xe50;" horiz-adv-x="608" 
d="M105 52q-74 62 -74 185q0 122 74.5 184.5t198.5 62.5q123 0 197.5 -62.5t74.5 -184.5q0 -123 -73.5 -185t-198.5 -62t-199 62zM394 142q30 30 30 95t-30 95t-90 30t-90.5 -30t-30.5 -95t30.5 -95t90.5 -30t90 30z" />
    <glyph glyph-name="uni0E51" unicode="&#xe51;" horiz-adv-x="632" 
d="M299 17q84 22 117 70.5t33 134.5q0 70 -32 105t-103 35q-68 0 -99.5 -24.5t-31.5 -78.5q0 -46 22 -66.5t67 -20.5q20 0 43 4.5t38 13.5v-109q-46 -27 -120 -27q-97 0 -149.5 52.5t-52.5 151.5q0 110 72.5 168t210.5 58q143 0 215 -67.5t72 -198.5q0 -123 -77.5 -210
t-224.5 -116v125z" />
    <glyph glyph-name="uni0E52" unicode="&#xe52;" horiz-adv-x="717" 
d="M135.5 54q-84.5 64 -84.5 186v300h134v-283q0 -76 43.5 -117t143.5 -41q80 0 120 32.5t40 91.5v114q0 21 -7 30.5t-22 9.5q-18 0 -25 -13t-10 -37h-74q-4 50 -32 50q-19 0 -27.5 -16t-8.5 -52q0 -31 15.5 -44t50.5 -13q31 0 57 9v-89q-35 -16 -83 -16q-72 0 -112 37.5
t-40 116.5q0 90 31 132t91 42q33 0 56 -11t40 -37q37 48 109 48q64 0 94 -35.5t30 -100.5v-116q0 -113 -75.5 -177.5t-217.5 -64.5q-152 0 -236.5 64z" />
    <glyph glyph-name="uni0E53" unicode="&#xe53;" horiz-adv-x="648" 
d="M31 225q0 130 48.5 194.5t131.5 64.5q37 0 64.5 -13t50.5 -40q23 27 55.5 40t67.5 13q67 0 108.5 -38.5t41.5 -103.5v-342h-149v311q0 25 -8.5 35t-29.5 10q-19 0 -28.5 -10.5t-9.5 -30.5v-76h-102v77q0 19 -11 29.5t-28 10.5q-31 0 -45 -31.5t-14 -101.5q0 -64 26 -88
t83 -24q44 0 68 7v-113q-37 -15 -100 -15q-220 0 -220 235z" />
    <glyph glyph-name="uni0E54" unicode="&#xe54;" horiz-adv-x="621" 
d="M94 48q-63 58 -63 174q0 127 83 194.5t245 67.5q86 0 138.5 8.5t94.5 33.5v-117q-72 -40 -225 -40q-96 0 -141 -34.5t-45 -112.5q0 -61 27 -89.5t75 -28.5q13 0 25 4q-7 21 -7 52q0 70 43.5 108t122.5 38q35 0 60.5 -5t50.5 -16v-96q-33 15 -73 15q-35 0 -52 -10t-17 -36
q0 -24 13.5 -33.5t32.5 -11t66 -1.5h62v-112h-95q-75 0 -121 18q-53 -28 -126 -28q-111 0 -174 58z" />
    <glyph glyph-name="uni0E55" unicode="&#xe55;" horiz-adv-x="619" 
d="M31 208q0 80 41.5 137t113.5 79q-24 4 -51 21v109q30 -26 107 -48t125 -22q81 0 132 9t93 33v-117q-72 -40 -225 -40q-90 0 -138 -38.5t-48 -115.5q0 -60 26.5 -85.5t75.5 -25.5q13 0 25 4q-7 21 -7 52q0 70 43.5 108t122.5 38q35 0 60.5 -5t50.5 -16v-96q-33 15 -73 15
q-35 0 -52 -10t-17 -36q0 -24 13.5 -33.5t32.5 -11t66 -1.5h62v-112h-95q-75 0 -121 18q-53 -28 -126 -28q-237 0 -237 218z" />
    <glyph glyph-name="uni0E56" unicode="&#xe56;" horiz-adv-x="641" 
d="M136 37v119q76 -44 175 -44q146 0 146 125q0 61 -30 93t-88 32q-51 0 -85.5 -28.5t-44.5 -80.5h-101l-97 287h136l42 -131q29 35 76 55t103 20q123 0 182.5 -67t59.5 -180q0 -117 -75.5 -182t-209.5 -65q-112 0 -189 47z" />
    <glyph glyph-name="uni0E57" unicode="&#xe57;" horiz-adv-x="848" 
d="M31 225q0 131 46.5 195t127.5 64q39 0 65.5 -12.5t47.5 -40.5q47 53 123 53q70 0 104.5 -36.5t34.5 -104.5v-225h15q39 0 52.5 16t13.5 59v347h136v-324q0 -113 -48 -164.5t-162 -51.5h-139v311q0 25 -8.5 35t-30.5 10q-16 0 -27 -11t-11 -30v-76h-110v76q0 19 -9 30
t-26 11q-31 0 -41.5 -32.5t-10.5 -100.5q0 -46 12 -71t35.5 -34t61.5 -9q48 0 69 8v-111q-37 -16 -101 -16q-220 0 -220 235z" />
    <glyph glyph-name="uni0E58" unicode="&#xe58;" horiz-adv-x="624" 
d="M76.5 50q-45.5 60 -45.5 174q0 128 81 194t239 66q89 0 144 8.5t98 33.5v-117q-73 -40 -239 -40q-67 0 -106 -13.5t-57 -44.5t-18 -87q0 -68 14 -94t44 -26q21 0 34 11t13 30v73h100v-74q0 -19 14 -29.5t33 -10.5q16 0 26.5 4t19.5 13v92h-52l7 91h167v-262
q-26 -27 -58 -39.5t-80 -12.5q-82 0 -125 51q-22 -27 -52 -39t-73 -12q-83 0 -128.5 60z" />
    <glyph glyph-name="uni0E59" unicode="&#xe59;" horiz-adv-x="744" 
d="M83 48.5q-52 58.5 -52 177.5q0 258 187 258q42 0 68 -13.5t41 -40.5q17 26 48 40t68 14q57 0 93 -28t36 -72v-12h5q26 0 34.5 12.5t8.5 53.5v82h113v-54q0 -79 -16.5 -122t-53.5 -61t-105 -18h-78v40q0 33 -7.5 46t-30.5 13q-17 0 -26 -9t-9 -25q0 -12 4 -24l90 -306
h-134l-96 323q-7 22 -17 31.5t-32 9.5q-27 0 -39.5 -33t-12.5 -109q0 -67 18.5 -93.5t58.5 -26.5q24 0 48 7v-112q-29 -7 -73 -7q-87 0 -139 58.5z" />
    <glyph glyph-name="uni0E5A" unicode="&#xe5a;" horiz-adv-x="938" 
d="M384 235q-25 -13 -62 -22t-73 -9q-99 0 -154 47t-55 139q0 82 46 150h154q-40 -68 -40 -130q0 -88 88 -88q58 0 96 29v189h161v-180q23 -38 84 -38q30 0 52 7t41 22v189h162v-540h-162v233q-22 -13 -50 -21t-57 -8q-45 0 -70 18v-222h-161v235z" />
    <glyph glyph-name="uni0E5B" unicode="&#xe5b;" horiz-adv-x="1152" 
d="M107.5 92q-76.5 70 -76.5 196q0 76 27.5 135.5t80.5 93t128 33.5q106 0 163 -49.5t57 -137.5q0 -81 -41 -126t-121 -62v95q35 15 48 34.5t13 54.5q0 44 -28 69t-83 25q-62 0 -94 -43t-32 -116q0 -84 42.5 -128t121.5 -44q106 0 164.5 58.5t58.5 164.5q0 68 -9 123h109
q41 -66 66 -153h2q10 28 18.5 68t9.5 67h76q31 -63 46 -129h2q9 24 16.5 56t9.5 56h66q10 -18 20.5 -50t16.5 -57h2q17 40 16 89h70q2 -27 -4 -53h52l-6 -83h-66q-11 -37 -36 -77h-57q-3 16 -12 42t-17 40h-2q-3 -20 -11.5 -53.5t-17.5 -52.5h-79q-5 28 -16.5 61.5
t-24.5 58.5h-2q-8 -69 -34 -142h-78q-4 36 -14 76t-23 69h-2q-4 -83 -43 -146.5t-107.5 -98t-159.5 -34.5q-129 0 -205.5 70z" />
    <glyph glyph-name="uni1E0C" unicode="&#x1e0c;" horiz-adv-x="663" 
d="M51 644h279q151 0 226.5 -77t75.5 -249q0 -163 -75.5 -240.5t-226.5 -77.5h-279v644zM308 124q56 0 90 16t52 58t18 120q0 79 -16.5 122.5t-51 61.5t-92.5 18h-96v-396h96zM241 -80h118v-109h-118v109z" />
    <glyph glyph-name="uni1E0D" unicode="&#x1e0d;" horiz-adv-x="598" 
d="M86 43.5q-55 53.5 -55 176.5q0 84 29.5 143.5t82 90t121.5 30.5t122 -32v222h161v-674h-139l-9 40q-30 -25 -66 -37.5t-83 -12.5q-109 0 -164 53.5zM386 143v192q-34 31 -87 31q-51 0 -77.5 -38.5t-26.5 -108.5q0 -65 24 -88.5t77 -23.5t90 36zM256 -80h118v-109h-118
v109z" />
    <glyph glyph-name="uni1E0E" unicode="&#x1e0e;" horiz-adv-x="663" 
d="M51 644h279q151 0 226.5 -77t75.5 -249q0 -163 -75.5 -240.5t-226.5 -77.5h-279v644zM308 124q56 0 90 16t52 58t18 120q0 79 -16.5 122.5t-51 61.5t-92.5 18h-96v-396h96zM143 -82h318v-98h-318v98z" />
    <glyph glyph-name="uni1E0F" unicode="&#x1e0f;" horiz-adv-x="598" 
d="M86 43.5q-55 53.5 -55 176.5q0 84 29.5 143.5t82 90t121.5 30.5t122 -32v222h161v-674h-139l-9 40q-30 -25 -66 -37.5t-83 -12.5q-109 0 -164 53.5zM386 143v192q-34 31 -87 31q-51 0 -77.5 -38.5t-26.5 -108.5q0 -65 24 -88.5t77 -23.5t90 36zM147 -82h318v-98h-318v98z
" />
    <glyph glyph-name="uni1E20" unicode="&#x1e20;" horiz-adv-x="647" 
d="M215 814h318v-97h-318v97zM118.5 74q-87.5 84 -87.5 239q0 163 90 252t261 89q113 0 197 -28v-138q-76 28 -185 28q-104 0 -151.5 -49t-47.5 -154q0 -95 44.5 -140.5t133.5 -45.5q58 0 108 16v122h-139v101h274v-319q-39 -25 -100 -41t-144 -16q-166 0 -253.5 84z" />
    <glyph glyph-name="uni1E21" unicode="&#x1e21;" horiz-adv-x="563" 
d="M122 648h318v-97h-318v97zM140.5 -169q-58.5 7 -93.5 19v110q38 -13 93.5 -20t105.5 -7q63 0 92.5 6.5t29.5 22.5q0 14 -12 19t-47 5h-131q-64 0 -99.5 23t-35.5 67q0 31 19 57.5t54 39.5q-42 21 -62.5 53.5t-20.5 80.5q0 91 58.5 134t175.5 43q22 0 51.5 -3.5t45.5 -6.5
h182l-4 -100h-69q25 -25 25 -74q0 -71 -45.5 -112t-133.5 -41q-22 0 -58 4q-63 -7 -63 -34q0 -11 9 -15.5t29 -4.5h121q73 0 113.5 -34t40.5 -97q0 -70 -64.5 -106t-191.5 -36q-56 0 -114.5 7zM340.5 253.5q20.5 17.5 20.5 60.5t-21 61.5t-72 18.5q-49 0 -70.5 -18.5
t-21.5 -61.5q0 -41 20.5 -59.5t71.5 -18.5q52 0 72.5 17.5z" />
    <glyph glyph-name="uni1E24" unicode="&#x1e24;" horiz-adv-x="676" 
d="M51 644h161v-255h252v255h161v-644h-161v255h-252v-255h-161v644zM279 -80h118v-109h-118v109z" />
    <glyph glyph-name="uni1E25" unicode="&#x1e25;" horiz-adv-x="595" 
d="M51 674h161v-235q28 20 68 32.5t85 12.5q95 0 139.5 -45t44.5 -138v-301h-161v290q0 41 -17.5 58t-60.5 17q-26 0 -53 -12t-45 -30v-323h-161v674zM244 -80h118v-109h-118v109z" />
    <glyph glyph-name="uni1E2A" unicode="&#x1e2a;" horiz-adv-x="676" 
d="M51 644h161v-255h252v255h161v-644h-161v255h-252v-255h-161v644zM211 -181.5q-47 45.5 -47 126.5h106q0 -37 16.5 -59.5t50.5 -22.5q35 0 52 22.5t17 59.5h106q0 -81 -48 -126.5t-127 -45.5t-126 45.5z" />
    <glyph glyph-name="uni1E2B" unicode="&#x1e2b;" horiz-adv-x="595" 
d="M51 674h161v-235q28 20 68 32.5t85 12.5q95 0 139.5 -45t44.5 -138v-301h-161v290q0 41 -17.5 58t-60.5 17q-26 0 -53 -12t-45 -30v-323h-161v674zM176 -181.5q-47 45.5 -47 126.5h106q0 -37 16.5 -59.5t50.5 -22.5q35 0 52 22.5t17 59.5h106q0 -81 -48 -126.5
t-127 -45.5t-126 45.5z" />
    <glyph glyph-name="uni1E36" unicode="&#x1e36;" horiz-adv-x="527" 
d="M51 644h161v-520h304v-124h-465v644zM217 -70h118v-109h-118v109z" />
    <glyph glyph-name="uni1E37" unicode="&#x1e37;" horiz-adv-x="308" 
d="M85 24q-34 34 -34 109v541h161v-525q0 -23 9 -31.5t29 -8.5q27 0 48 7v-109q-24 -9 -46.5 -13t-54.5 -4q-78 0 -112 34zM117 -70h118v-109h-118v109z" />
    <glyph glyph-name="uni1E38" unicode="&#x1e38;" horiz-adv-x="527" 
d="M-10 814h318v-97h-318v97zM51 644h161v-520h304v-124h-465v644zM217 -70h118v-109h-118v109z" />
    <glyph glyph-name="uni1E39" unicode="&#x1e39;" horiz-adv-x="308" 
d="M-26 822h318v-97h-318v97zM85 24q-34 34 -34 109v541h161v-525q0 -23 9 -31.5t29 -8.5q27 0 48 7v-109q-24 -9 -46.5 -13t-54.5 -4q-78 0 -112 34zM117 -70h118v-109h-118v109z" />
    <glyph glyph-name="uni1E3A" unicode="&#x1e3a;" horiz-adv-x="527" 
d="M51 644h161v-520h304v-124h-465v644zM120 -70h318v-98h-318v98z" />
    <glyph glyph-name="uni1E3B" unicode="&#x1e3b;" horiz-adv-x="308" 
d="M85 24q-34 34 -34 109v541h161v-525q0 -23 9 -31.5t29 -8.5q27 0 48 7v-109q-24 -9 -46.5 -13t-54.5 -4q-78 0 -112 34zM7 -70h318v-98h-318v98z" />
    <glyph glyph-name="uni1E42" unicode="&#x1e42;" horiz-adv-x="768" 
d="M51 644h159l175 -357l174 357h158v-644h-161v370l-127 -260h-89l-128 260v-370h-161v644zM332 -70h118v-109h-118v109z" />
    <glyph glyph-name="uni1E43" unicode="&#x1e43;" horiz-adv-x="859" 
d="M51 474h149l5 -42q72 52 158 52q46 0 73.5 -14t43.5 -41q36 26 77.5 40.5t94.5 14.5q82 0 121.5 -43t39.5 -131v-310h-159v291q0 39 -16.5 56.5t-53.5 17.5q-24 0 -45.5 -9.5t-36.5 -26.5q3 -15 3 -45v-284h-150v293q0 38 -13 55t-47 17q-42 0 -87 -43v-322h-157v474z
M378 -70h118v-109h-118v109z" />
    <glyph glyph-name="uni1E44" unicode="&#x1e44;" horiz-adv-x="676" 
d="M282 823h117v-109h-117v109zM51 644h138l274 -385v385h162v-644h-139l-274 384v-384h-161v644z" />
    <glyph glyph-name="uni1E45" unicode="&#x1e45;" horiz-adv-x="595" 
d="M242 657h117v-109h-117v109zM51 474h150l5 -41q31 22 75.5 36.5t91.5 14.5q91 0 133.5 -44t42.5 -136v-304h-161v291q0 40 -17.5 57t-60.5 17q-26 0 -53 -12t-45 -30v-323h-161v474z" />
    <glyph glyph-name="uni1E46" unicode="&#x1e46;" horiz-adv-x="676" 
d="M51 644h138l274 -385v385h162v-644h-139l-274 384v-384h-161v644zM280 -70h118v-109h-118v109z" />
    <glyph glyph-name="uni1E47" unicode="&#x1e47;" horiz-adv-x="595" 
d="M51 474h150l5 -41q31 22 75.5 36.5t91.5 14.5q91 0 133.5 -44t42.5 -136v-304h-161v291q0 40 -17.5 57t-60.5 17q-26 0 -53 -12t-45 -30v-323h-161v474zM248 -70h118v-109h-118v109z" />
    <glyph glyph-name="uni1E48" unicode="&#x1e48;" horiz-adv-x="676" 
d="M51 644h138l274 -385v385h162v-644h-139l-274 384v-384h-161v644zM183 -68h318v-98h-318v98z" />
    <glyph glyph-name="uni1E49" unicode="&#x1e49;" horiz-adv-x="595" 
d="M51 474h150l5 -41q31 22 75.5 36.5t91.5 14.5q91 0 133.5 -44t42.5 -136v-304h-161v291q0 40 -17.5 57t-60.5 17q-26 0 -53 -12t-45 -30v-323h-161v474zM145 -68h318v-98h-318v98z" />
    <glyph glyph-name="uni1E5A" unicode="&#x1e5a;" horiz-adv-x="626" 
d="M51 644h322q111 0 166.5 -58.5t55.5 -162.5q0 -65 -32.5 -114t-90.5 -73q13 -11 21.5 -24t19.5 -38l76 -174h-168l-72 164q-9 22 -23 31t-40 9h-74v-204h-161v644zM331 328q48 0 74 24t26 71q0 97 -93 97h-126v-192h119zM245 -70h118v-109h-118v109z" />
    <glyph glyph-name="uni1E5B" unicode="&#x1e5b;" horiz-adv-x="389" 
d="M51 474h153l5 -44q32 19 78 34.5t91 19.5v-121q-42 -5 -90 -17.5t-76 -26.5v-319h-161v474zM66 -70h118v-109h-118v109z" />
    <glyph glyph-name="uni1E5C" unicode="&#x1e5c;" horiz-adv-x="626" 
d="M119 814h318v-97h-318v97zM51 644h322q111 0 166.5 -58.5t55.5 -162.5q0 -65 -32.5 -114t-90.5 -73q13 -11 21.5 -24t19.5 -38l76 -174h-168l-72 164q-9 22 -23 31t-40 9h-74v-204h-161v644zM331 328q48 0 74 24t26 71q0 97 -93 97h-126v-192h119zM245 -70h118v-109h-118
v109z" />
    <glyph glyph-name="uni1E5D" unicode="&#x1e5d;" horiz-adv-x="389" 
d="M8 648h318v-97h-318v97zM51 474h153l5 -44q32 19 78 34.5t91 19.5v-121q-42 -5 -90 -17.5t-76 -26.5v-319h-161v474zM70 -70h118v-109h-118v109z" />
    <glyph glyph-name="uni1E5E" unicode="&#x1e5e;" horiz-adv-x="626" 
d="M51 644h322q111 0 166.5 -58.5t55.5 -162.5q0 -65 -32.5 -114t-90.5 -73q13 -11 21.5 -24t19.5 -38l76 -174h-168l-72 164q-9 22 -23 31t-40 9h-74v-204h-161v644zM331 328q48 0 74 24t26 71q0 97 -93 97h-126v-192h119zM139 -68h318v-98h-318v98z" />
    <glyph glyph-name="uni1E5F" unicode="&#x1e5f;" horiz-adv-x="389" 
d="M51 474h153l5 -44q32 19 78 34.5t91 19.5v-121q-42 -5 -90 -17.5t-76 -26.5v-319h-161v474zM-22 -68h318v-98h-318v98z" />
    <glyph glyph-name="uni1E60" unicode="&#x1e60;" horiz-adv-x="555" 
d="M213 823h117v-109h-117v109zM136.5 -0.5q-55.5 9.5 -95.5 27.5v137q45 -20 98 -31.5t101 -11.5q65 0 92 11.5t27 47.5q0 25 -14 39.5t-42.5 25t-93.5 29.5q-67 20 -105.5 44.5t-55.5 59t-17 86.5q0 93 66.5 141.5t194.5 48.5q53 0 106.5 -8t88.5 -20v-138q-83 33 -171 33
q-61 0 -91 -11.5t-30 -44.5q0 -21 12 -33.5t38.5 -22t83.5 -24.5q77 -21 119.5 -50t59 -66.5t16.5 -88.5q0 -88 -68 -139t-200 -51q-64 0 -119.5 9.5z" />
    <glyph glyph-name="uni1E61" unicode="&#x1e61;" horiz-adv-x="479" 
d="M173 657h117v-109h-117v109zM120 -2q-51 8 -82 20v123q34 -14 79.5 -22.5t83.5 -8.5q47 0 64.5 4.5t17.5 21.5q0 14 -17 23t-60 22l-43 14q-70 24 -101 55.5t-31 88.5q0 145 220 145q43 0 87 -6.5t74 -16.5v-121q-27 12 -62.5 18.5t-66.5 6.5q-44 0 -66 -5t-22 -21
q0 -14 14 -20.5t54 -18.5q20 -5 41 -12q56 -17 87 -36.5t44 -46.5t13 -68q0 -72 -56.5 -109.5t-164.5 -37.5q-56 0 -107 8z" />
    <glyph glyph-name="uni1E62" unicode="&#x1e62;" horiz-adv-x="555" 
d="M136.5 -0.5q-55.5 9.5 -95.5 27.5v137q45 -20 98 -31.5t101 -11.5q65 0 92 11.5t27 47.5q0 25 -14 39.5t-42.5 25t-93.5 29.5q-67 20 -105.5 44.5t-55.5 59t-17 86.5q0 93 66.5 141.5t194.5 48.5q53 0 106.5 -8t88.5 -20v-138q-83 33 -171 33q-61 0 -91 -11.5t-30 -44.5
q0 -21 12 -33.5t38.5 -22t83.5 -24.5q77 -21 119.5 -50t59 -66.5t16.5 -88.5q0 -88 -68 -139t-200 -51q-64 0 -119.5 9.5zM213 -70h118v-109h-118v109z" />
    <glyph glyph-name="uni1E63" unicode="&#x1e63;" horiz-adv-x="479" 
d="M120 -2q-51 8 -82 20v123q34 -14 79.5 -22.5t83.5 -8.5q47 0 64.5 4.5t17.5 21.5q0 14 -17 23t-60 22l-43 14q-70 24 -101 55.5t-31 88.5q0 145 220 145q43 0 87 -6.5t74 -16.5v-121q-27 12 -62.5 18.5t-66.5 6.5q-44 0 -66 -5t-22 -21q0 -14 14 -20.5t54 -18.5
q20 -5 41 -12q56 -17 87 -36.5t44 -46.5t13 -68q0 -72 -56.5 -109.5t-164.5 -37.5q-56 0 -107 8zM188 -70h118v-109h-118v109z" />
    <glyph glyph-name="uni1E6C" unicode="&#x1e6c;" horiz-adv-x="561" 
d="M200 520h-189v124h539v-124h-189v-520h-161v520zM219 -65h118v-109h-118v109z" />
    <glyph glyph-name="uni1E6D" unicode="&#x1e6d;" horiz-adv-x="374" 
d="M117.5 34q-42.5 44 -42.5 125v193h-64v122h64v99l161 43v-142h115l-7 -122h-108v-182q0 -34 16 -47.5t52 -13.5q29 0 59 10v-109q-47 -20 -117 -20q-86 0 -128.5 44zM156 -65h118v-109h-118v109z" />
    <glyph glyph-name="uni1E6E" unicode="&#x1e6e;" horiz-adv-x="561" 
d="M200 520h-189v124h539v-124h-189v-520h-161v520zM120 -63h318v-98h-318v98z" />
    <glyph glyph-name="uni1E6F" unicode="&#x1e6f;" horiz-adv-x="374" 
d="M117.5 34q-42.5 44 -42.5 125v193h-64v122h64v99l161 43v-142h115l-7 -122h-108v-182q0 -34 16 -47.5t52 -13.5q29 0 59 10v-109q-47 -20 -117 -20q-86 0 -128.5 44zM36 -63h318v-98h-318v98z" />
    <glyph glyph-name="Wgrave" unicode="&#x1e80;" horiz-adv-x="883" 
d="M277 884h132l84 -196h-123zM31 644h158l85 -388l88 297v91h132l111 -389l89 389h158l-149 -644h-149l-108 372l-116 -372h-149z" />
    <glyph glyph-name="wgrave" unicode="&#x1e81;" horiz-adv-x="770" 
d="M223 718h132l84 -196h-123zM31 474h158l64 -272l67 207v65h121l78 -272l62 272h158l-125 -474h-146l-81 246l-83 -246h-148z" />
    <glyph glyph-name="Wacute" unicode="&#x1e82;" horiz-adv-x="883" 
d="M449 884h132l-92 -196h-124zM31 644h158l85 -388l88 297v91h132l111 -389l89 389h158l-149 -644h-149l-108 372l-116 -372h-149z" />
    <glyph glyph-name="wacute" unicode="&#x1e83;" horiz-adv-x="770" 
d="M400 718h132l-92 -196h-124zM31 474h158l64 -272l67 207v65h121l78 -272l62 272h158l-125 -474h-146l-81 246l-83 -246h-148z" />
    <glyph glyph-name="Wdieresis" unicode="&#x1e84;" horiz-adv-x="883" 
d="M284 823h118v-109h-118v109zM490 823h118v-109h-118v109zM31 644h158l85 -388l88 297v91h132l111 -389l89 389h158l-149 -644h-149l-108 372l-116 -372h-149z" />
    <glyph glyph-name="wdieresis" unicode="&#x1e85;" horiz-adv-x="770" 
d="M225 658h118v-109h-118v109zM431 658h118v-109h-118v109zM31 474h158l64 -272l67 207v65h121l78 -272l62 272h158l-125 -474h-146l-81 246l-83 -246h-148z" />
    <glyph glyph-name="uni1E8E" unicode="&#x1e8e;" horiz-adv-x="686" 
d="M284 823h117v-109h-117v109zM262 237l-231 407h168l144 -267l144 267h168l-231 -407v-237h-162v237z" />
    <glyph glyph-name="uni1E8F" unicode="&#x1e8f;" horiz-adv-x="627" 
d="M266 658h117v-109h-117v109zM129.5 -172.5q-25.5 3.5 -49.5 13.5v112q28 -10 61 -10q40 0 61 14t42 52l-213 465h169l125 -301l123 301h168l-181 -435q-44 -106 -100 -160.5t-143 -54.5q-37 0 -62.5 3.5z" />
    <glyph glyph-name="uni1E92" unicode="&#x1e92;" horiz-adv-x="578" 
d="M31 82l302 434h-287v128h498v-90l-299 -430h305v-124h-519v82zM239 -70h118v-109h-118v109z" />
    <glyph glyph-name="uni1E93" unicode="&#x1e93;" horiz-adv-x="492" 
d="M31 86l219 260h-211v128h415v-94l-214 -256h221v-124h-430v86zM182 -70h118v-109h-118v109z" />
    <glyph glyph-name="uni1E97" unicode="&#x1e97;" horiz-adv-x="375" 
d="M17 751h118v-109h-118v109zM223 751h118v-109h-118v109zM117.5 34q-42.5 44 -42.5 125v193h-64v122h64v99l161 43v-142h115l-7 -122h-108v-182q0 -34 16 -47.5t52 -13.5q29 0 59 10v-109q-47 -20 -117 -20q-86 0 -128.5 44z" />
    <glyph glyph-name="uni1E9E" unicode="&#x1e9e;" horiz-adv-x="633" 
d="M257 12v124q21 -9 48.5 -14t53.5 -5q84 0 84 69q0 31 -20.5 45t-60.5 14h-83v109l150 101q0 28 -28.5 45.5t-84.5 17.5q-61 0 -89.5 -26.5t-28.5 -79.5v-412h-152v413q0 113 71 177t199 64q132 0 198 -63.5t66 -163.5l-145 -97h22q64 0 104.5 -41.5t40.5 -108.5
q0 -86 -55.5 -138t-149.5 -52q-82 0 -140 22z" />
    <glyph glyph-name="uni1EA0" unicode="&#x1ea0;" horiz-adv-x="728" 
d="M277 644h174l246 -644h-168l-58 146h-215l-57 -146h-168zM449 265l-86 224l-85 -224h171zM304 -70h118v-109h-118v109z" />
    <glyph glyph-name="uni1EA1" unicode="&#x1ea1;" horiz-adv-x="561" 
d="M78.5 28.5q-47.5 38.5 -47.5 110.5q0 74 50.5 115t147.5 41h132v11q0 37 -24.5 52t-89.5 15q-81 0 -159 -25v104q36 14 87 23t105 9q113 0 174 -46t61 -142v-296h-141l-8 40q-55 -50 -167 -50q-73 0 -120.5 38.5zM361 135v67h-114q-36 0 -53.5 -14t-17.5 -43
q0 -56 74 -56q72 0 111 46zM232 -70h118v-109h-118v109z" />
    <glyph glyph-name="uni1EA2" unicode="&#x1ea2;" horiz-adv-x="728" 
d="M303 769q51 3 70 14t19 32q0 36 -65 36q-31 0 -60 -9v72q40 14 107 14q65 0 100.5 -27t35.5 -72q0 -42 -20 -64t-65 -33v-44h-122v81zM277 644h174l246 -644h-168l-58 146h-215l-57 -146h-168zM449 265l-86 224l-85 -224h171z" />
    <glyph glyph-name="uni1EA3" unicode="&#x1ea3;" horiz-adv-x="561" 
d="M222 602q51 3 70 14t19 32q0 36 -65 36q-31 0 -60 -9v72q40 14 107 14q65 0 100.5 -27t35.5 -72q0 -42 -20 -64t-65 -33v-44h-122v81zM78.5 28.5q-47.5 38.5 -47.5 110.5q0 74 50.5 115t147.5 41h132v11q0 37 -24.5 52t-89.5 15q-81 0 -159 -25v104q36 14 87 23t105 9
q113 0 174 -46t61 -142v-296h-141l-8 40q-55 -50 -167 -50q-73 0 -120.5 38.5zM361 135v67h-114q-36 0 -53.5 -14t-17.5 -43q0 -56 74 -56q72 0 111 46z" />
    <glyph glyph-name="uni1EA4" unicode="&#x1ea4;" horiz-adv-x="728" 
d="M541 958h120l-75 -149h-114zM300 832h121l134 -144h-129l-65 80l-65 -80h-130zM277 644h174l246 -644h-168l-58 146h-215l-57 -146h-168zM449 265l-86 224l-85 -224h171z" />
    <glyph glyph-name="uni1EA5" unicode="&#x1ea5;" horiz-adv-x="561" 
d="M472 791h120l-75 -149h-114zM231 665h121l134 -144h-129l-65 80l-65 -80h-130zM78.5 28.5q-47.5 38.5 -47.5 110.5q0 74 50.5 115t147.5 41h132v11q0 37 -24.5 52t-89.5 15q-81 0 -159 -25v104q36 14 87 23t105 9q113 0 174 -46t61 -142v-296h-141l-8 40
q-55 -50 -167 -50q-73 0 -120.5 38.5zM361 135v67h-114q-36 0 -53.5 -14t-17.5 -43q0 -56 74 -56q72 0 111 46z" />
    <glyph glyph-name="uni1EA6" unicode="&#x1ea6;" horiz-adv-x="728" 
d="M64 958h120l69 -149h-114zM304 832h121l134 -144h-130l-65 80l-65 -80h-129zM277 644h174l246 -644h-168l-58 146h-215l-57 -146h-168zM449 265l-86 224l-85 -224h171z" />
    <glyph glyph-name="uni1EA7" unicode="&#x1ea7;" horiz-adv-x="561" 
d="M-6 791h120l69 -149h-114zM234 665h121l134 -144h-130l-65 80l-65 -80h-129zM78.5 28.5q-47.5 38.5 -47.5 110.5q0 74 50.5 115t147.5 41h132v11q0 37 -24.5 52t-89.5 15q-81 0 -159 -25v104q36 14 87 23t105 9q113 0 174 -46t61 -142v-296h-141l-8 40q-55 -50 -167 -50
q-73 0 -120.5 38.5zM361 135v67h-114q-36 0 -53.5 -14t-17.5 -43q0 -56 74 -56q72 0 111 46z" />
    <glyph glyph-name="uni1EA8" unicode="&#x1ea8;" horiz-adv-x="728" 
d="M484 858q42 1 57.5 9t15.5 24q0 25 -43 25q-28 0 -53 -10v67q39 12 91 12q56 0 85.5 -22.5t29.5 -60.5q0 -70 -74 -82v-33h-109v71zM302 832h121l134 -144h-129l-65 80l-65 -80h-130zM277 644h174l246 -644h-168l-58 146h-215l-57 -146h-168zM449 265l-86 224l-85 -224
h171z" />
    <glyph glyph-name="uni1EA9" unicode="&#x1ea9;" horiz-adv-x="564" 
d="M409 691q42 1 57.5 9t15.5 24q0 25 -43 25q-28 0 -53 -10v67q39 12 91 12q56 0 85.5 -22.5t29.5 -60.5q0 -70 -74 -82v-33h-109v71zM227 665h121l134 -144h-129l-65 80l-65 -80h-130zM78.5 28.5q-47.5 38.5 -47.5 110.5q0 74 50.5 115t147.5 41h132v11q0 37 -24.5 52
t-89.5 15q-81 0 -159 -25v104q36 14 87 23t105 9q113 0 174 -46t61 -142v-296h-141l-8 40q-55 -50 -167 -50q-73 0 -120.5 38.5zM361 135v67h-114q-36 0 -53.5 -14t-17.5 -43q0 -56 74 -56q72 0 111 46z" />
    <glyph glyph-name="uni1EAA" unicode="&#x1eaa;" horiz-adv-x="728" 
d="M419.5 852q-19.5 5 -50.5 16q-25 9 -43 14t-35 5q-57 0 -92 -37v91q14 14 38.5 23t50.5 9q21 0 39 -5t49 -16q28 -10 45 -15t36 -5q29 0 51 10.5t35 28.5v-92q-10 -14 -32.5 -23t-50.5 -9q-21 0 -40.5 5zM302 832h121l134 -144h-129l-65 80l-65 -80h-130zM277 644h174
l246 -644h-168l-58 146h-215l-57 -146h-168zM449 265l-86 224l-85 -224h171z" />
    <glyph glyph-name="uni1EAB" unicode="&#x1eab;" horiz-adv-x="561" 
d="M345.5 685q-19.5 5 -50.5 16q-25 9 -43 14t-35 5q-57 0 -92 -37v91q14 14 38.5 23t50.5 9q21 0 39 -5t49 -16q28 -10 45 -15t36 -5q29 0 51 10.5t35 28.5v-92q-10 -14 -32.5 -23t-50.5 -9q-21 0 -40.5 5zM228 665h121l134 -144h-129l-65 80l-65 -80h-130zM78.5 28.5
q-47.5 38.5 -47.5 110.5q0 74 50.5 115t147.5 41h132v11q0 37 -24.5 52t-89.5 15q-81 0 -159 -25v104q36 14 87 23t105 9q113 0 174 -46t61 -142v-296h-141l-8 40q-55 -50 -167 -50q-73 0 -120.5 38.5zM361 135v67h-114q-36 0 -53.5 -14t-17.5 -43q0 -56 74 -56q72 0 111 46
z" />
    <glyph glyph-name="uni1EAC" unicode="&#x1eac;" horiz-adv-x="728" 
d="M313 875h100l145 -187h-120l-75 104l-72 -104h-123zM277 644h174l246 -644h-168l-58 146h-215l-57 -146h-168zM449 265l-86 224l-85 -224h171zM304 -70h118v-109h-118v109z" />
    <glyph glyph-name="uni1EAD" unicode="&#x1ead;" horiz-adv-x="561" 
d="M243 708h100l145 -187h-120l-75 104l-72 -104h-123zM78.5 28.5q-47.5 38.5 -47.5 110.5q0 74 50.5 115t147.5 41h132v11q0 37 -24.5 52t-89.5 15q-81 0 -159 -25v104q36 14 87 23t105 9q113 0 174 -46t61 -142v-296h-141l-8 40q-55 -50 -167 -50q-73 0 -120.5 38.5z
M361 135v67h-114q-36 0 -53.5 -14t-17.5 -43q0 -56 74 -56q72 0 111 46zM235 -70h118v-109h-118v109z" />
    <glyph glyph-name="uni1EAE" unicode="&#x1eae;" horiz-adv-x="728" 
d="M375 986h113l-78 -149h-101zM237 728.5q-47 40.5 -47 123.5h93q0 -39 21 -61t60 -22q38 0 59 22t21 61h92q0 -83 -46.5 -123.5t-125.5 -40.5q-80 0 -127 40.5zM277 644h174l246 -644h-168l-58 146h-215l-57 -146h-168zM449 265l-86 224l-85 -224h171z" />
    <glyph glyph-name="uni1EAF" unicode="&#x1eaf;" horiz-adv-x="561" 
d="M302 820h113l-78 -149h-101zM164 562.5q-47 40.5 -47 123.5h93q0 -39 21 -61t60 -22q38 0 59 22t21 61h92q0 -83 -46.5 -123.5t-125.5 -40.5q-80 0 -127 40.5zM78.5 28.5q-47.5 38.5 -47.5 110.5q0 74 50.5 115t147.5 41h132v11q0 37 -24.5 52t-89.5 15q-81 0 -159 -25
v104q36 14 87 23t105 9q113 0 174 -46t61 -142v-296h-141l-8 40q-55 -50 -167 -50q-73 0 -120.5 38.5zM361 135v67h-114q-36 0 -53.5 -14t-17.5 -43q0 -56 74 -56q72 0 111 46z" />
    <glyph glyph-name="uni1EB0" unicode="&#x1eb0;" horiz-adv-x="728" 
d="M238 986h114l66 -149h-102zM237 728.5q-47 40.5 -47 123.5h93q0 -39 20.5 -61t59.5 -22t60 22t21 61h92q0 -83 -47 -123.5t-126 -40.5t-126 40.5zM277 644h174l246 -644h-168l-58 146h-215l-57 -146h-168zM449 265l-86 224l-85 -224h171z" />
    <glyph glyph-name="uni1EB1" unicode="&#x1eb1;" horiz-adv-x="561" 
d="M167 820h114l66 -149h-102zM166 562.5q-47 40.5 -47 123.5h93q0 -39 20.5 -61t59.5 -22t60 22t21 61h92q0 -83 -47 -123.5t-126 -40.5t-126 40.5zM78.5 28.5q-47.5 38.5 -47.5 110.5q0 74 50.5 115t147.5 41h132v11q0 37 -24.5 52t-89.5 15q-81 0 -159 -25v104
q36 14 87 23t105 9q113 0 174 -46t61 -142v-296h-141l-8 40q-55 -50 -167 -50q-73 0 -120.5 38.5zM361 135v67h-114q-36 0 -53.5 -14t-17.5 -43q0 -56 74 -56q72 0 111 46z" />
    <glyph glyph-name="uni1EB2" unicode="&#x1eb2;" horiz-adv-x="728" 
d="M308 905q42 1 59.5 11t17.5 28q0 17 -11.5 23.5t-37.5 6.5t-52 -11v62q37 13 95 13q52 0 81.5 -23t29.5 -60q0 -34 -17.5 -52.5t-58.5 -27.5v-31h-106v61zM237 728.5q-47 40.5 -47 123.5h93q0 -39 20.5 -61t59.5 -22t60 22t21 61h92q0 -83 -47 -123.5t-126 -40.5
t-126 40.5zM277 644h174l246 -644h-168l-58 146h-215l-57 -146h-168zM449 265l-86 224l-85 -224h171z" />
    <glyph glyph-name="uni1EB3" unicode="&#x1eb3;" horiz-adv-x="561" 
d="M240 739q42 1 59.5 11t17.5 28q0 17 -11.5 23.5t-37.5 6.5t-52 -11v62q37 13 95 13q52 0 81.5 -23t29.5 -60q0 -34 -17.5 -52.5t-58.5 -27.5v-31h-106v61zM169 562.5q-47 40.5 -47 123.5h93q0 -39 20.5 -61t59.5 -22t60 22t21 61h92q0 -83 -47 -123.5t-126 -40.5
t-126 40.5zM78.5 28.5q-47.5 38.5 -47.5 110.5q0 74 50.5 115t147.5 41h132v11q0 37 -24.5 52t-89.5 15q-81 0 -159 -25v104q36 14 87 23t105 9q113 0 174 -46t61 -142v-296h-141l-8 40q-55 -50 -167 -50q-73 0 -120.5 38.5zM361 135v67h-114q-36 0 -53.5 -14t-17.5 -43
q0 -56 74 -56q72 0 111 46z" />
    <glyph glyph-name="uni1EB4" unicode="&#x1eb4;" horiz-adv-x="728" 
d="M412.5 875q-19.5 5 -50.5 16q-25 9 -43 14t-35 5q-57 0 -92 -37v91q14 14 38.5 23t50.5 9q21 0 39 -5t49 -16q28 -10 45 -15t36 -5q29 0 51 10.5t35 28.5v-92q-10 -14 -32.5 -23t-50.5 -9q-21 0 -40.5 5zM237 728.5q-47 40.5 -47 123.5h93q0 -39 20.5 -61t59.5 -22t60 22
t21 61h92q0 -83 -47 -123.5t-126 -40.5t-126 40.5zM277 644h174l246 -644h-168l-58 146h-215l-57 -146h-168zM449 265l-86 224l-85 -224h171z" />
    <glyph glyph-name="uni1EB5" unicode="&#x1eb5;" horiz-adv-x="561" 
d="M348.5 709q-19.5 5 -50.5 16q-25 9 -43 14t-35 5q-57 0 -92 -37v91q14 14 38.5 23t50.5 9q21 0 39 -5t49 -16q28 -10 45 -15t36 -5q29 0 51 10.5t35 28.5v-92q-10 -14 -32.5 -23t-50.5 -9q-21 0 -40.5 5zM173 562.5q-47 40.5 -47 123.5h93q0 -39 20.5 -61t59.5 -22t60 22
t21 61h92q0 -83 -47 -123.5t-126 -40.5t-126 40.5zM78.5 28.5q-47.5 38.5 -47.5 110.5q0 74 50.5 115t147.5 41h132v11q0 37 -24.5 52t-89.5 15q-81 0 -159 -25v104q36 14 87 23t105 9q113 0 174 -46t61 -142v-296h-141l-8 40q-55 -50 -167 -50q-73 0 -120.5 38.5zM361 135
v67h-114q-36 0 -53.5 -14t-17.5 -43q0 -56 74 -56q72 0 111 46z" />
    <glyph glyph-name="uni1EB6" unicode="&#x1eb6;" horiz-adv-x="728" 
d="M236 733.5q-47 45.5 -47 126.5h106q0 -37 16.5 -59.5t50.5 -22.5q35 0 52 22.5t17 59.5h106q0 -81 -48 -126.5t-127 -45.5t-126 45.5zM277 644h174l246 -644h-168l-58 146h-215l-57 -146h-168zM449 265l-86 224l-85 -224h171zM304 -70h118v-109h-118v109z" />
    <glyph glyph-name="uni1EB7" unicode="&#x1eb7;" horiz-adv-x="561" 
d="M173 567.5q-47 45.5 -47 126.5h106q0 -37 16.5 -59.5t50.5 -22.5q35 0 52 22.5t17 59.5h106q0 -81 -48 -126.5t-127 -45.5t-126 45.5zM78.5 28.5q-47.5 38.5 -47.5 110.5q0 74 50.5 115t147.5 41h132v11q0 37 -24.5 52t-89.5 15q-81 0 -159 -25v104q36 14 87 23t105 9
q113 0 174 -46t61 -142v-296h-141l-8 40q-55 -50 -167 -50q-73 0 -120.5 38.5zM361 135v67h-114q-36 0 -53.5 -14t-17.5 -43q0 -56 74 -56q72 0 111 46zM244 -70h118v-109h-118v109z" />
    <glyph glyph-name="uni1EB8" unicode="&#x1eb8;" horiz-adv-x="552" 
d="M51 644h475v-124h-314v-135h277v-126h-277v-135h314v-124h-475v644zM222 -70h118v-109h-118v109z" />
    <glyph glyph-name="uni1EB9" unicode="&#x1eb9;" horiz-adv-x="547" 
d="M104.5 53q-73.5 63 -73.5 184q0 116 63.5 181.5t184.5 65.5q111 0 174 -58t63 -156v-85h-336q11 -46 50 -65t112 -19q39 0 79.5 7t67.5 18v-105q-68 -31 -184 -31q-127 0 -200.5 63zM376 278v21q0 76 -92 76q-57 0 -80.5 -23t-23.5 -74h196zM226 -70h118v-109h-118v109z
" />
    <glyph glyph-name="uni1EBA" unicode="&#x1eba;" horiz-adv-x="552" 
d="M224 769q51 3 70 14t19 32q0 36 -65 36q-31 0 -60 -9v72q40 14 107 14q65 0 100.5 -27t35.5 -72q0 -42 -20 -64t-65 -33v-44h-122v81zM51 644h475v-124h-314v-135h277v-126h-277v-135h314v-124h-475v644z" />
    <glyph glyph-name="uni1EBB" unicode="&#x1ebb;" horiz-adv-x="547" 
d="M221 602q51 3 70 14t19 32q0 36 -65 36q-31 0 -60 -9v72q40 14 107 14q65 0 100.5 -27t35.5 -72q0 -42 -20 -64t-65 -33v-44h-122v81zM104.5 53q-73.5 63 -73.5 184q0 116 63.5 181.5t184.5 65.5q111 0 174 -58t63 -156v-85h-336q11 -46 50 -65t112 -19q39 0 79.5 7
t67.5 18v-105q-68 -31 -184 -31q-127 0 -200.5 63zM376 278v21q0 76 -92 76q-57 0 -80.5 -23t-23.5 -74h196z" />
    <glyph glyph-name="uni1EBC" unicode="&#x1ebc;" horiz-adv-x="552" 
d="M338.5 703.5q-21.5 5.5 -50.5 16.5q-25 9 -43 14t-35 5q-56 0 -94 -38v107q15 14 39.5 23t51.5 9q22 0 40 -5t49 -16q28 -10 45.5 -15t36.5 -5q29 0 51.5 10.5t35.5 28.5v-108q-10 -14 -33 -23t-51 -9q-21 0 -42.5 5.5zM51 644h475v-124h-314v-135h277v-126h-277v-135
h314v-124h-475v644z" />
    <glyph glyph-name="uni1EBD" unicode="&#x1ebd;" horiz-adv-x="547" 
d="M336.5 537.5q-21.5 5.5 -50.5 16.5q-25 9 -43 14t-35 5q-56 0 -94 -38v107q15 14 39.5 23t51.5 9q22 0 40 -5t49 -16q28 -10 45.5 -15t36.5 -5q29 0 51.5 10.5t35.5 28.5v-108q-10 -14 -33 -23t-51 -9q-21 0 -42.5 5.5zM104.5 53q-73.5 63 -73.5 184q0 116 63.5 181.5
t184.5 65.5q111 0 174 -58t63 -156v-85h-336q11 -46 50 -65t112 -19q39 0 79.5 7t67.5 18v-105q-68 -31 -184 -31q-127 0 -200.5 63zM376 278v21q0 76 -92 76q-57 0 -80.5 -23t-23.5 -74h196z" />
    <glyph glyph-name="uni1EBE" unicode="&#x1ebe;" horiz-adv-x="552" 
d="M459 958h120l-75 -149h-114zM218 832h121l134 -144h-129l-65 80l-65 -80h-130zM51 644h475v-124h-314v-135h277v-126h-277v-135h314v-124h-475v644z" />
    <glyph glyph-name="uni1EBF" unicode="&#x1ebf;" horiz-adv-x="547" 
d="M461 791h120l-75 -149h-114zM220 665h121l134 -144h-129l-65 80l-65 -80h-130zM104.5 53q-73.5 63 -73.5 184q0 116 63.5 181.5t184.5 65.5q111 0 174 -58t63 -156v-85h-336q11 -46 50 -65t112 -19q39 0 79.5 7t67.5 18v-105q-68 -31 -184 -31q-127 0 -200.5 63zM376 278
v21q0 76 -92 76q-57 0 -80.5 -23t-23.5 -74h196z" />
    <glyph glyph-name="uni1EC0" unicode="&#x1ec0;" horiz-adv-x="552" 
d="M-14 958h120l69 -149h-114zM226 832h121l134 -144h-130l-65 80l-65 -80h-129zM51 644h475v-124h-314v-135h277v-126h-277v-135h314v-124h-475v644z" />
    <glyph glyph-name="uni1EC1" unicode="&#x1ec1;" horiz-adv-x="547" 
d="M-20 792h120l69 -149h-114zM220 666h121l134 -144h-130l-65 80l-65 -80h-129zM104.5 53q-73.5 63 -73.5 184q0 116 63.5 181.5t184.5 65.5q111 0 174 -58t63 -156v-85h-336q11 -46 50 -65t112 -19q39 0 79.5 7t67.5 18v-105q-68 -31 -184 -31q-127 0 -200.5 63zM376 278
v21q0 76 -92 76q-57 0 -80.5 -23t-23.5 -74h196z" />
    <glyph glyph-name="uni1EC2" unicode="&#x1ec2;" horiz-adv-x="552" 
d="M404 858q42 1 57.5 9t15.5 24q0 25 -43 25q-28 0 -53 -10v67q39 12 91 12q56 0 85.5 -22.5t29.5 -60.5q0 -70 -74 -82v-33h-109v71zM222 832h121l134 -144h-129l-65 80l-65 -80h-130zM51 644h475v-124h-314v-135h277v-126h-277v-135h314v-124h-475v644z" />
    <glyph glyph-name="uni1EC3" unicode="&#x1ec3;" horiz-adv-x="547" 
d="M402 691q42 1 57.5 9t15.5 24q0 25 -43 25q-28 0 -53 -10v67q39 12 91 12q56 0 85.5 -22.5t29.5 -60.5q0 -70 -74 -82v-33h-109v71zM220 665h121l134 -144h-129l-65 80l-65 -80h-130zM104.5 53q-73.5 63 -73.5 184q0 116 63.5 181.5t184.5 65.5q111 0 174 -58t63 -156
v-85h-336q11 -46 50 -65t112 -19q39 0 79.5 7t67.5 18v-105q-68 -31 -184 -31q-127 0 -200.5 63zM376 278v21q0 76 -92 76q-57 0 -80.5 -23t-23.5 -74h196z" />
    <glyph glyph-name="uni1EC4" unicode="&#x1ec4;" horiz-adv-x="552" 
d="M344.5 852q-19.5 5 -50.5 16q-25 9 -43 14t-35 5q-57 0 -92 -37v91q14 14 38.5 23t50.5 9q21 0 39 -5t49 -16q28 -10 45 -15t36 -5q29 0 51 10.5t35 28.5v-92q-10 -14 -32.5 -23t-50.5 -9q-21 0 -40.5 5zM227 832h121l134 -144h-129l-65 80l-65 -80h-130zM51 644h475
v-124h-314v-135h277v-126h-277v-135h314v-124h-475v644z" />
    <glyph glyph-name="uni1EC5" unicode="&#x1ec5;" horiz-adv-x="547" 
d="M339.5 685q-19.5 5 -50.5 16q-25 9 -43 14t-35 5q-57 0 -92 -37v91q14 14 38.5 23t50.5 9q21 0 39 -5t49 -16q28 -10 45 -15t36 -5q29 0 51 10.5t35 28.5v-92q-10 -14 -32.5 -23t-50.5 -9q-21 0 -40.5 5zM222 665h121l134 -144h-129l-65 80l-65 -80h-130zM104.5 53
q-73.5 63 -73.5 184q0 116 63.5 181.5t184.5 65.5q111 0 174 -58t63 -156v-85h-336q11 -46 50 -65t112 -19q39 0 79.5 7t67.5 18v-105q-68 -31 -184 -31q-127 0 -200.5 63zM376 278v21q0 76 -92 76q-57 0 -80.5 -23t-23.5 -74h196z" />
    <glyph glyph-name="uni1EC6" unicode="&#x1ec6;" horiz-adv-x="552" 
d="M231 875h100l145 -187h-120l-75 104l-72 -104h-123zM51 644h475v-124h-314v-135h277v-126h-277v-135h314v-124h-475v644zM223 -70h118v-109h-118v109z" />
    <glyph glyph-name="uni1EC7" unicode="&#x1ec7;" horiz-adv-x="547" 
d="M232 708h100l145 -187h-120l-75 104l-72 -104h-123zM104.5 53q-73.5 63 -73.5 184q0 116 63.5 181.5t184.5 65.5q111 0 174 -58t63 -156v-85h-336q11 -46 50 -65t112 -19q39 0 79.5 7t67.5 18v-105q-68 -31 -184 -31q-127 0 -200.5 63zM376 278v21q0 76 -92 76
q-57 0 -80.5 -23t-23.5 -74h196zM223 -70h118v-109h-118v109z" />
    <glyph glyph-name="uni1EC8" unicode="&#x1ec8;" horiz-adv-x="264" 
d="M66 769q51 3 70 14t19 32q0 36 -65 36q-31 0 -60 -9v72q40 14 107 14q65 0 100.5 -27t35.5 -72q0 -42 -20 -64t-65 -33v-44h-122v81zM51 644h161v-644h-161v644z" />
    <glyph glyph-name="uni1EC9" unicode="&#x1ec9;" horiz-adv-x="334" 
d="M108 602q51 3 70 14t19 32q0 36 -65 36q-31 0 -60 -9v72q40 14 107 14q65 0 100.5 -27t35.5 -72q0 -42 -20 -64t-65 -33v-44h-122v81zM121 355h-70l14 119h217v-474h-161v355z" />
    <glyph glyph-name="uni1ECA" unicode="&#x1eca;" horiz-adv-x="263" 
d="M51 644h161v-644h-161v644zM72 -70h118v-109h-118v109z" />
    <glyph glyph-name="uni1ECB" unicode="&#x1ecb;" horiz-adv-x="334" 
d="M108 670h175v-121h-175v121zM121 355h-70l14 119h217v-474h-161v355zM140 -70h118v-109h-118v109z" />
    <glyph glyph-name="uni1ECC" unicode="&#x1ecc;" horiz-adv-x="704" 
d="M112 71q-81 81 -81 248q0 175 80 255t241 80q160 0 240.5 -80t80.5 -255q0 -167 -81 -248t-240 -81t-240 81zM470.5 173.5q37.5 46.5 37.5 145.5q0 107 -37 152t-119 45q-83 0 -120 -45t-37 -152q0 -99 37.5 -145.5t119.5 -46.5q81 0 118.5 46.5zM293 -70h118v-109h-118
v109z" />
    <glyph glyph-name="uni1ECD" unicode="&#x1ecd;" horiz-adv-x="597" 
d="M31 237q0 120 66.5 183.5t200.5 63.5q135 0 201.5 -63t66.5 -184q0 -247 -268 -247q-267 0 -267 247zM378 144q24 28 24 93t-24.5 93t-79.5 28t-79 -28.5t-24 -92.5q0 -65 24 -93t79 -28q56 0 80 28zM239 -70h118v-109h-118v109z" />
    <glyph glyph-name="uni1ECE" unicode="&#x1ece;" horiz-adv-x="704" 
d="M288 769q51 3 70 14t19 32q0 36 -65 36q-31 0 -60 -9v72q40 14 107 14q65 0 100.5 -27t35.5 -72q0 -42 -20 -64t-65 -33v-44h-122v81zM112 71q-81 81 -81 248q0 175 80 255t241 80q160 0 240.5 -80t80.5 -255q0 -167 -81 -248t-240 -81t-240 81zM470.5 173.5
q37.5 46.5 37.5 145.5q0 107 -37 152t-119 45q-83 0 -120 -45t-37 -152q0 -99 37.5 -145.5t119.5 -46.5q81 0 118.5 46.5z" />
    <glyph glyph-name="uni1ECF" unicode="&#x1ecf;" horiz-adv-x="597" 
d="M232 602q51 3 70 14t19 32q0 36 -65 36q-31 0 -60 -9v72q40 14 107 14q65 0 100.5 -27t35.5 -72q0 -42 -20 -64t-65 -33v-44h-122v81zM31 237q0 120 66.5 183.5t200.5 63.5q135 0 201.5 -63t66.5 -184q0 -247 -268 -247q-267 0 -267 247zM378 144q24 28 24 93t-24.5 93
t-79.5 28t-79 -28.5t-24 -92.5q0 -65 24 -93t79 -28q56 0 80 28z" />
    <glyph glyph-name="uni1ED0" unicode="&#x1ed0;" horiz-adv-x="704" 
d="M531 958h120l-75 -149h-114zM290 832h121l134 -144h-129l-65 80l-65 -80h-130zM112 71q-81 81 -81 248q0 175 80 255t241 80q160 0 240.5 -80t80.5 -255q0 -167 -81 -248t-240 -81t-240 81zM470.5 173.5q37.5 46.5 37.5 145.5q0 107 -37 152t-119 45q-83 0 -120 -45
t-37 -152q0 -99 37.5 -145.5t119.5 -46.5q81 0 118.5 46.5z" />
    <glyph glyph-name="uni1ED1" unicode="&#x1ed1;" horiz-adv-x="597" 
d="M478 791h120l-75 -149h-114zM237 665h121l134 -144h-129l-65 80l-65 -80h-130zM31 237q0 120 66.5 183.5t200.5 63.5q135 0 201.5 -63t66.5 -184q0 -247 -268 -247q-267 0 -267 247zM378 144q24 28 24 93t-24.5 93t-79.5 28t-79 -28.5t-24 -92.5q0 -65 24 -93t79 -28
q56 0 80 28z" />
    <glyph glyph-name="uni1ED2" unicode="&#x1ed2;" horiz-adv-x="704" 
d="M51 958h120l69 -149h-114zM291 832h121l134 -144h-130l-65 80l-65 -80h-129zM112 71q-81 81 -81 248q0 175 80 255t241 80q160 0 240.5 -80t80.5 -255q0 -167 -81 -248t-240 -81t-240 81zM470.5 173.5q37.5 46.5 37.5 145.5q0 107 -37 152t-119 45q-83 0 -120 -45
t-37 -152q0 -99 37.5 -145.5t119.5 -46.5q81 0 118.5 46.5z" />
    <glyph glyph-name="uni1ED3" unicode="&#x1ed3;" horiz-adv-x="597" 
d="M-5 791h120l69 -149h-114zM235 665h121l134 -144h-130l-65 80l-65 -80h-129zM31 237q0 120 66.5 183.5t200.5 63.5q135 0 201.5 -63t66.5 -184q0 -247 -268 -247q-267 0 -267 247zM378 144q24 28 24 93t-24.5 93t-79.5 28t-79 -28.5t-24 -92.5q0 -65 24 -93t79 -28
q56 0 80 28z" />
    <glyph glyph-name="uni1ED4" unicode="&#x1ed4;" horiz-adv-x="704" 
d="M472 858q42 1 57.5 9t15.5 24q0 25 -43 25q-28 0 -53 -10v67q39 12 91 12q56 0 85.5 -22.5t29.5 -60.5q0 -70 -74 -82v-33h-109v71zM290 832h121l134 -144h-129l-65 80l-65 -80h-130zM112 71q-81 81 -81 248q0 175 80 255t241 80q160 0 240.5 -80t80.5 -255
q0 -167 -81 -248t-240 -81t-240 81zM470.5 173.5q37.5 46.5 37.5 145.5q0 107 -37 152t-119 45q-83 0 -120 -45t-37 -152q0 -99 37.5 -145.5t119.5 -46.5q81 0 118.5 46.5z" />
    <glyph glyph-name="uni1ED5" unicode="&#x1ed5;" horiz-adv-x="597" 
d="M417 691q42 1 57.5 9t15.5 24q0 25 -43 25q-28 0 -53 -10v67q39 12 91 12q56 0 85.5 -22.5t29.5 -60.5q0 -70 -74 -82v-33h-109v71zM235 665h121l134 -144h-129l-65 80l-65 -80h-130zM31 237q0 120 66.5 183.5t200.5 63.5q135 0 201.5 -63t66.5 -184q0 -247 -268 -247
q-267 0 -267 247zM378 144q24 28 24 93t-24.5 93t-79.5 28t-79 -28.5t-24 -92.5q0 -65 24 -93t79 -28q56 0 80 28z" />
    <glyph glyph-name="uni1ED6" unicode="&#x1ed6;" horiz-adv-x="704" 
d="M400.5 875q-19.5 5 -50.5 16q-25 9 -43 14t-35 5q-57 0 -92 -37v91q14 14 38.5 23t50.5 9q21 0 39 -5t49 -16q28 -10 45 -15t36 -5q29 0 51 10.5t35 28.5v-92q-10 -14 -32.5 -23t-50.5 -9q-21 0 -40.5 5zM225 728.5q-47 40.5 -47 123.5h93q0 -39 20.5 -61t59.5 -22t60 22
t21 61h92q0 -83 -47 -123.5t-126 -40.5t-126 40.5zM112 71q-81 81 -81 248q0 175 80 255t241 80q160 0 240.5 -80t80.5 -255q0 -167 -81 -248t-240 -81t-240 81zM470.5 173.5q37.5 46.5 37.5 145.5q0 107 -37 152t-119 45q-83 0 -120 -45t-37 -152q0 -99 37.5 -145.5
t119.5 -46.5q81 0 118.5 46.5z" />
    <glyph glyph-name="uni1ED7" unicode="&#x1ed7;" horiz-adv-x="597" 
d="M347.5 709q-19.5 5 -50.5 16q-25 9 -43 14t-35 5q-57 0 -92 -37v91q14 14 38.5 23t50.5 9q21 0 39 -5t49 -16q28 -10 45 -15t36 -5q29 0 51 10.5t35 28.5v-92q-10 -14 -32.5 -23t-50.5 -9q-21 0 -40.5 5zM172 562.5q-47 40.5 -47 123.5h93q0 -39 20.5 -61t59.5 -22t60 22
t21 61h92q0 -83 -47 -123.5t-126 -40.5t-126 40.5zM31 237q0 120 66.5 183.5t200.5 63.5q135 0 201.5 -63t66.5 -184q0 -247 -268 -247q-267 0 -267 247zM378 144q24 28 24 93t-24.5 93t-79.5 28t-79 -28.5t-24 -92.5q0 -65 24 -93t79 -28q56 0 80 28z" />
    <glyph glyph-name="uni1ED8" unicode="&#x1ed8;" horiz-adv-x="704" 
d="M301 876h100l145 -187h-120l-75 104l-72 -104h-123zM112 71q-81 81 -81 248q0 175 80 255t241 80q160 0 240.5 -80t80.5 -255q0 -167 -81 -248t-240 -81t-240 81zM470.5 173.5q37.5 46.5 37.5 145.5q0 107 -37 152t-119 45q-83 0 -120 -45t-37 -152q0 -99 37.5 -145.5
t119.5 -46.5q81 0 118.5 46.5zM292 -70h118v-109h-118v109z" />
    <glyph glyph-name="uni1ED9" unicode="&#x1ed9;" horiz-adv-x="597" 
d="M248 708h100l145 -187h-120l-75 104l-72 -104h-123zM31 237q0 120 66.5 183.5t200.5 63.5q135 0 201.5 -63t66.5 -184q0 -247 -268 -247q-267 0 -267 247zM378 144q24 28 24 93t-24.5 93t-79.5 28t-79 -28.5t-24 -92.5q0 -65 24 -93t79 -28q56 0 80 28zM239 -70h118v-109
h-118v109z" />
    <glyph glyph-name="uni1EDA" unicode="&#x1eda;" horiz-adv-x="785" 
d="M375 884h132l-92 -196h-124zM112 71q-81 81 -81 248q0 175 80 255t241 80q146 0 224 -69q49 2 69.5 24.5t20.5 78.5h115q0 -95 -32 -141.5t-103 -60.5q27 -66 27 -167q0 -167 -81 -248t-240 -81t-240 81zM470.5 173.5q37.5 46.5 37.5 145.5q0 107 -37 152t-119 45
q-83 0 -120 -45t-37 -152q0 -99 37.5 -145.5t119.5 -46.5q81 0 118.5 46.5z" />
    <glyph glyph-name="uni1EDB" unicode="&#x1edb;" horiz-adv-x="707" 
d="M316 718h132l-92 -196h-124zM31 237q0 120 66.5 183.5t200.5 63.5q125 0 193 -57q55 0 76 24.5t21 84.5h115q0 -100 -35 -149t-113 -62q11 -41 11 -88q0 -247 -268 -247q-267 0 -267 247zM378 144q24 28 24 93t-24.5 93t-79.5 28t-79 -28.5t-24 -92.5q0 -65 24 -93
t79 -28q56 0 80 28z" />
    <glyph glyph-name="uni1EDC" unicode="&#x1edc;" horiz-adv-x="785" 
d="M214 884h132l84 -196h-123zM112 71q-81 81 -81 248q0 175 80 255t241 80q146 0 224 -69q49 2 69.5 24.5t20.5 78.5h115q0 -95 -32 -141.5t-103 -60.5q27 -66 27 -167q0 -167 -81 -248t-240 -81t-240 81zM470.5 173.5q37.5 46.5 37.5 145.5q0 107 -37 152t-119 45
q-83 0 -120 -45t-37 -152q0 -99 37.5 -145.5t119.5 -46.5q81 0 118.5 46.5z" />
    <glyph glyph-name="uni1EDD" unicode="&#x1edd;" horiz-adv-x="707" 
d="M152 718h132l84 -196h-123zM31 237q0 120 66.5 183.5t200.5 63.5q125 0 193 -57q55 0 76 24.5t21 84.5h115q0 -100 -35 -149t-113 -62q11 -41 11 -88q0 -247 -268 -247q-267 0 -267 247zM378 144q24 28 24 93t-24.5 93t-79.5 28t-79 -28.5t-24 -92.5q0 -65 24 -93t79 -28
q56 0 80 28z" />
    <glyph glyph-name="uni1EDE" unicode="&#x1ede;" horiz-adv-x="785" 
d="M291 769q51 3 70 14t19 32q0 36 -65 36q-31 0 -60 -9v72q40 14 107 14q65 0 100.5 -27t35.5 -72q0 -42 -20 -64t-65 -33v-44h-122v81zM112 71q-81 81 -81 248q0 175 80 255t241 80q146 0 224 -69q49 2 69.5 24.5t20.5 78.5h115q0 -95 -32 -141.5t-103 -60.5
q27 -66 27 -167q0 -167 -81 -248t-240 -81t-240 81zM470.5 173.5q37.5 46.5 37.5 145.5q0 107 -37 152t-119 45q-83 0 -120 -45t-37 -152q0 -99 37.5 -145.5t119.5 -46.5q81 0 118.5 46.5z" />
    <glyph glyph-name="uni1EDF" unicode="&#x1edf;" horiz-adv-x="707" 
d="M233 602q51 3 70 14t19 32q0 36 -65 36q-31 0 -60 -9v72q40 14 107 14q65 0 100.5 -27t35.5 -72q0 -42 -20 -64t-65 -33v-44h-122v81zM31 237q0 120 66.5 183.5t200.5 63.5q125 0 193 -57q55 0 76 24.5t21 84.5h115q0 -100 -35 -149t-113 -62q11 -41 11 -88
q0 -247 -268 -247q-267 0 -267 247zM378 144q24 28 24 93t-24.5 93t-79.5 28t-79 -28.5t-24 -92.5q0 -65 24 -93t79 -28q56 0 80 28z" />
    <glyph glyph-name="uni1EE0" unicode="&#x1ee0;" horiz-adv-x="785" 
d="M406.5 699.5q-21.5 5.5 -50.5 16.5q-25 9 -43 14t-35 5q-56 0 -94 -38v107q15 14 39.5 23t51.5 9q22 0 40 -5t49 -16q28 -10 45.5 -15t36.5 -5q29 0 51.5 10.5t35.5 28.5v-108q-10 -14 -33 -23t-51 -9q-21 0 -42.5 5.5zM112 71q-81 81 -81 248q0 175 80 255t241 80
q146 0 224 -69q49 2 69.5 24.5t20.5 78.5h115q0 -95 -32 -141.5t-103 -60.5q27 -66 27 -167q0 -167 -81 -248t-240 -81t-240 81zM470.5 173.5q37.5 46.5 37.5 145.5q0 107 -37 152t-119 45q-83 0 -120 -45t-37 -152q0 -99 37.5 -145.5t119.5 -46.5q81 0 118.5 46.5z" />
    <glyph glyph-name="uni1EE1" unicode="&#x1ee1;" horiz-adv-x="707" 
d="M350.5 533.5q-21.5 5.5 -50.5 16.5q-25 9 -43 14t-35 5q-56 0 -94 -38v107q15 14 39.5 23t51.5 9q22 0 40 -5t49 -16q28 -10 45.5 -15t36.5 -5q29 0 51.5 10.5t35.5 28.5v-108q-10 -14 -33 -23t-51 -9q-21 0 -42.5 5.5zM31 237q0 120 66.5 183.5t200.5 63.5
q125 0 193 -57q55 0 76 24.5t21 84.5h115q0 -100 -35 -149t-113 -62q11 -41 11 -88q0 -247 -268 -247q-267 0 -267 247zM378 144q24 28 24 93t-24.5 93t-79.5 28t-79 -28.5t-24 -92.5q0 -65 24 -93t79 -28q56 0 80 28z" />
    <glyph glyph-name="uni1EE2" unicode="&#x1ee2;" horiz-adv-x="785" 
d="M112 71q-81 81 -81 248q0 175 80 255t241 80q146 0 224 -69q49 2 69.5 24.5t20.5 78.5h115q0 -95 -32 -141.5t-103 -60.5q27 -66 27 -167q0 -167 -81 -248t-240 -81t-240 81zM470.5 173.5q37.5 46.5 37.5 145.5q0 107 -37 152t-119 45q-83 0 -120 -45t-37 -152
q0 -99 37.5 -145.5t119.5 -46.5q81 0 118.5 46.5zM294 -70h118v-109h-118v109z" />
    <glyph glyph-name="uni1EE3" unicode="&#x1ee3;" horiz-adv-x="707" 
d="M31 237q0 120 66.5 183.5t200.5 63.5q125 0 193 -57q55 0 76 24.5t21 84.5h115q0 -100 -35 -149t-113 -62q11 -41 11 -88q0 -247 -268 -247q-267 0 -267 247zM378 144q24 28 24 93t-24.5 93t-79.5 28t-79 -28.5t-24 -92.5q0 -65 24 -93t79 -28q56 0 80 28zM243 -70h118
v-109h-118v109z" />
    <glyph glyph-name="uni1EE4" unicode="&#x1ee4;" horiz-adv-x="684" 
d="M125.5 56.5q-79.5 66.5 -79.5 188.5v399h161v-384q0 -67 34.5 -100t100.5 -33t100.5 33t34.5 100v384h161v-399q0 -122 -79.5 -188.5t-216.5 -66.5t-216.5 66.5zM282 -70h118v-109h-118v109z" />
    <glyph glyph-name="uni1EE5" unicode="&#x1ee5;" horiz-adv-x="595" 
d="M92.5 37.5q-46.5 47.5 -46.5 138.5v298h161v-289q0 -40 19 -58.5t59 -18.5q28 0 54 11.5t44 30.5v324h161v-474h-150l-5 40q-67 -50 -165 -50q-85 0 -131.5 47.5zM233 -70h118v-109h-118v109z" />
    <glyph glyph-name="uni1EE6" unicode="&#x1ee6;" horiz-adv-x="684" 
d="M279 769q51 3 70 14t19 32q0 36 -65 36q-31 0 -60 -9v72q40 14 107 14q65 0 100.5 -27t35.5 -72q0 -42 -20 -64t-65 -33v-44h-122v81zM125.5 56.5q-79.5 66.5 -79.5 188.5v399h161v-384q0 -67 34.5 -100t100.5 -33t100.5 33t34.5 100v384h161v-399q0 -122 -79.5 -188.5
t-216.5 -66.5t-216.5 66.5z" />
    <glyph glyph-name="uni1EE7" unicode="&#x1ee7;" horiz-adv-x="595" 
d="M234 602q51 3 70 14t19 32q0 36 -65 36q-31 0 -60 -9v72q40 14 107 14q65 0 100.5 -27t35.5 -72q0 -42 -20 -64t-65 -33v-44h-122v81zM92.5 37.5q-46.5 47.5 -46.5 138.5v298h161v-289q0 -40 19 -58.5t59 -18.5q28 0 54 11.5t44 30.5v324h161v-474h-150l-5 40
q-67 -50 -165 -50q-85 0 -131.5 47.5z" />
    <glyph glyph-name="uni1EE8" unicode="&#x1ee8;" horiz-adv-x="849" 
d="M362 884h132l-92 -196h-124zM125.5 56.5q-79.5 66.5 -79.5 188.5v399h161v-384q0 -67 34.5 -100t100.5 -33q65 0 99.5 33t34.5 100v384h162v-59q49 2 69.5 24.5t20.5 78.5h115q0 -78 -20.5 -123t-65 -65t-119.5 -21v-234q0 -122 -80 -188.5t-216 -66.5
q-137 0 -216.5 66.5z" />
    <glyph glyph-name="uni1EE9" unicode="&#x1ee9;" horiz-adv-x="745" 
d="M310 718h132l-92 -196h-124zM92.5 37.5q-46.5 47.5 -46.5 138.5v298h161v-289q0 -40 19 -58.5t59 -18.5q28 0 53.5 11.5t43.5 30.5v324h162v-46q43 4 60 28.5t17 79.5h115q0 -76 -19.5 -122t-61.5 -67.5t-111 -25.5v-321h-151l-5 40q-67 -50 -164 -50q-85 0 -131.5 47.5z
" />
    <glyph glyph-name="uni1EEA" unicode="&#x1eea;" horiz-adv-x="854" 
d="M195 884h132l84 -196h-123zM125.5 56.5q-79.5 66.5 -79.5 188.5v399h161v-384q0 -67 34.5 -100t100.5 -33q65 0 99.5 33t34.5 100v384h162v-59q49 2 69.5 24.5t20.5 78.5h115q0 -78 -20.5 -123t-65 -65t-119.5 -21v-234q0 -122 -80 -188.5t-216 -66.5q-137 0 -216.5 66.5
z" />
    <glyph glyph-name="uni1EEB" unicode="&#x1eeb;" horiz-adv-x="745" 
d="M132 718h132l84 -196h-123zM92.5 37.5q-46.5 47.5 -46.5 138.5v298h161v-289q0 -40 19 -58.5t59 -18.5q28 0 53.5 11.5t43.5 30.5v324h162v-46q43 4 60 28.5t17 79.5h115q0 -76 -19.5 -122t-61.5 -67.5t-111 -25.5v-321h-151l-5 40q-67 -50 -164 -50q-85 0 -131.5 47.5z
" />
    <glyph glyph-name="uni1EEC" unicode="&#x1eec;" horiz-adv-x="854" 
d="M268 769q51 3 70 14t19 32q0 36 -65 36q-31 0 -60 -9v72q40 14 107 14q65 0 100.5 -27t35.5 -72q0 -42 -20 -64t-65 -33v-44h-122v81zM125.5 56.5q-79.5 66.5 -79.5 188.5v399h161v-384q0 -67 34.5 -100t100.5 -33q65 0 99.5 33t34.5 100v384h162v-59q49 2 69.5 24.5
t20.5 78.5h115q0 -78 -20.5 -123t-65 -65t-119.5 -21v-234q0 -122 -80 -188.5t-216 -66.5q-137 0 -216.5 66.5z" />
    <glyph glyph-name="uni1EED" unicode="&#x1eed;" horiz-adv-x="745" 
d="M221 602q51 3 70 14t19 32q0 36 -65 36q-31 0 -60 -9v72q40 14 107 14q65 0 100.5 -27t35.5 -72q0 -42 -20 -64t-65 -33v-44h-122v81zM92.5 37.5q-46.5 47.5 -46.5 138.5v298h161v-289q0 -40 19 -58.5t59 -18.5q28 0 53.5 11.5t43.5 30.5v324h162v-46q43 4 60 28.5
t17 79.5h115q0 -76 -19.5 -122t-61.5 -67.5t-111 -25.5v-321h-151l-5 40q-67 -50 -164 -50q-85 0 -131.5 47.5z" />
    <glyph glyph-name="uni1EEE" unicode="&#x1eee;" horiz-adv-x="854" 
d="M392.5 699.5q-21.5 5.5 -50.5 16.5q-25 9 -43 14t-35 5q-56 0 -94 -38v107q15 14 39.5 23t51.5 9q22 0 40 -5t49 -16q28 -10 45.5 -15t36.5 -5q29 0 51.5 10.5t35.5 28.5v-108q-10 -14 -33 -23t-51 -9q-21 0 -42.5 5.5zM125.5 56.5q-79.5 66.5 -79.5 188.5v399h161v-384
q0 -67 34.5 -100t100.5 -33q65 0 99.5 33t34.5 100v384h162v-59q49 2 69.5 24.5t20.5 78.5h115q0 -78 -20.5 -123t-65 -65t-119.5 -21v-234q0 -122 -80 -188.5t-216 -66.5q-137 0 -216.5 66.5z" />
    <glyph glyph-name="uni1EEF" unicode="&#x1eef;" horiz-adv-x="745" 
d="M347.5 533.5q-21.5 5.5 -50.5 16.5q-25 9 -43 14t-35 5q-56 0 -94 -38v107q15 14 39.5 23t51.5 9q22 0 40 -5t49 -16q28 -10 45.5 -15t36.5 -5q29 0 51.5 10.5t35.5 28.5v-108q-10 -14 -33 -23t-51 -9q-21 0 -42.5 5.5zM92.5 37.5q-46.5 47.5 -46.5 138.5v298h161v-289
q0 -40 19 -58.5t59 -18.5q28 0 53.5 11.5t43.5 30.5v324h162v-46q43 4 60 28.5t17 79.5h115q0 -76 -19.5 -122t-61.5 -67.5t-111 -25.5v-321h-151l-5 40q-67 -50 -164 -50q-85 0 -131.5 47.5z" />
    <glyph glyph-name="uni1EF0" unicode="&#x1ef0;" horiz-adv-x="854" 
d="M125.5 56.5q-79.5 66.5 -79.5 188.5v399h161v-384q0 -67 34.5 -100t100.5 -33q65 0 99.5 33t34.5 100v384h162v-59q49 2 69.5 24.5t20.5 78.5h115q0 -78 -20.5 -123t-65 -65t-119.5 -21v-234q0 -122 -80 -188.5t-216 -66.5q-137 0 -216.5 66.5zM284 -70h118v-109h-118
v109z" />
    <glyph glyph-name="uni1EF1" unicode="&#x1ef1;" horiz-adv-x="745" 
d="M92.5 37.5q-46.5 47.5 -46.5 138.5v298h161v-289q0 -40 19 -58.5t59 -18.5q28 0 53.5 11.5t43.5 30.5v324h162v-46q43 4 60 28.5t17 79.5h115q0 -76 -19.5 -122t-61.5 -67.5t-111 -25.5v-321h-151l-5 40q-67 -50 -164 -50q-85 0 -131.5 47.5zM237 -70h118v-109h-118v109z
" />
    <glyph glyph-name="Ygrave" unicode="&#x1ef2;" horiz-adv-x="686" 
d="M190 884h132l84 -196h-123zM262 237l-231 407h168l144 -267l144 267h168l-231 -407v-237h-162v237z" />
    <glyph glyph-name="ygrave" unicode="&#x1ef3;" horiz-adv-x="627" 
d="M169 718h132l84 -196h-123zM129.5 -172.5q-25.5 3.5 -49.5 13.5v112q28 -10 61 -10q40 0 61 14t42 52l-213 465h169l125 -301l123 301h168l-181 -435q-44 -106 -100 -160.5t-143 -54.5q-37 0 -62.5 3.5z" />
    <glyph glyph-name="uni1EF4" unicode="&#x1ef4;" horiz-adv-x="686" 
d="M262 237l-231 407h168l144 -267l144 267h168l-231 -407v-237h-162v237zM284 -64h118v-109h-118v109z" />
    <glyph glyph-name="uni1EF5" unicode="&#x1ef5;" horiz-adv-x="627" 
d="M129.5 -172.5q-25.5 3.5 -49.5 13.5v112q28 -10 61 -10q40 0 61 14t42 52l-213 465h169l125 -301l123 301h168l-181 -435q-44 -106 -100 -160.5t-143 -54.5q-37 0 -62.5 3.5zM430 -65h118v-109h-118v109z" />
    <glyph glyph-name="uni1EF6" unicode="&#x1ef6;" horiz-adv-x="686" 
d="M277 769q51 3 70 14t19 32q0 36 -65 36q-31 0 -60 -9v72q40 14 107 14q65 0 100.5 -27t35.5 -72q0 -42 -20 -64t-65 -33v-44h-122v81zM262 237l-231 407h168l144 -267l144 267h168l-231 -407v-237h-162v237z" />
    <glyph glyph-name="uni1EF7" unicode="&#x1ef7;" horiz-adv-x="627" 
d="M264 602q51 3 70 14t19 32q0 36 -65 36q-31 0 -60 -9v72q40 14 107 14q65 0 100.5 -27t35.5 -72q0 -42 -20 -64t-65 -33v-44h-122v81zM129.5 -172.5q-25.5 3.5 -49.5 13.5v112q28 -10 61 -10q40 0 61 14t42 52l-213 465h169l125 -301l123 301h168l-181 -435
q-44 -106 -100 -160.5t-143 -54.5q-37 0 -62.5 3.5z" />
    <glyph glyph-name="uni1EF8" unicode="&#x1ef8;" horiz-adv-x="686" 
d="M390.5 703.5q-21.5 5.5 -50.5 16.5q-25 9 -43 14t-35 5q-56 0 -94 -38v107q15 14 39.5 23t51.5 9q22 0 40 -5t49 -16q28 -10 45.5 -15t36.5 -5q29 0 51.5 10.5t35.5 28.5v-108q-10 -14 -33 -23t-51 -9q-21 0 -42.5 5.5zM262 237l-231 407h168l144 -267l144 267h168
l-231 -407v-237h-162v237z" />
    <glyph glyph-name="uni1EF9" unicode="&#x1ef9;" horiz-adv-x="627" 
d="M372.5 537.5q-21.5 5.5 -50.5 16.5q-25 9 -43 14t-35 5q-56 0 -94 -38v107q15 14 39.5 23t51.5 9q22 0 40 -5t49 -16q28 -10 45.5 -15t36.5 -5q29 0 51.5 10.5t35.5 28.5v-108q-10 -14 -33 -23t-51 -9q-21 0 -42.5 5.5zM129.5 -172.5q-25.5 3.5 -49.5 13.5v112
q28 -10 61 -10q40 0 61 14t42 52l-213 465h169l125 -301l123 301h168l-181 -435q-44 -106 -100 -160.5t-143 -54.5q-37 0 -62.5 3.5z" />
    <glyph glyph-name="uni2007" unicode="&#x2007;" 
 />
    <glyph glyph-name="uni2010" unicode="&#x2010;" horiz-adv-x="490" 
d="M31 340h428v-125h-428v125z" />
    <glyph glyph-name="figuredash" unicode="&#x2012;" horiz-adv-x="583" 
d="M31 340h521v-125h-521v125z" />
    <glyph glyph-name="endash" unicode="&#x2013;" horiz-adv-x="557" 
d="M31 340h495v-125h-495v125z" />
    <glyph glyph-name="emdash" unicode="&#x2014;" horiz-adv-x="820" 
d="M31 340h758v-125h-758v125z" />
    <glyph glyph-name="uni2015" unicode="&#x2015;" horiz-adv-x="863" 
d="M31 340h801v-125h-801v125z" />
    <glyph glyph-name="quoteleft" unicode="&#x2018;" horiz-adv-x="257" 
d="M105 654h121l-59 -218h-136z" />
    <glyph glyph-name="quoteright" unicode="&#x2019;" horiz-adv-x="257" 
d="M90 654h136l-74 -218h-121z" />
    <glyph glyph-name="quotesinglbase" unicode="&#x201a;" horiz-adv-x="257" 
d="M90 33h136l-74 -218h-121z" />
    <glyph glyph-name="quotedblleft" unicode="&#x201c;" horiz-adv-x="412" 
d="M105 654h109l-59 -218h-124zM272 654h108l-58 -218h-124z" />
    <glyph glyph-name="quotedblright" unicode="&#x201d;" horiz-adv-x="412" 
d="M90 654h124l-74 -218h-109zM256 654h124l-74 -218h-108z" />
    <glyph glyph-name="quotedblbase" unicode="&#x201e;" horiz-adv-x="412" 
d="M90 111h124l-74 -217h-109zM256 111h124l-74 -217h-108z" />
    <glyph glyph-name="dagger" unicode="&#x2020;" horiz-adv-x="556" 
d="M202 394l-171 -4v123l171 -4l-7 191h166l-7 -191l171 4v-123l-171 4l4 -394h-160z" />
    <glyph glyph-name="daggerdbl" unicode="&#x2021;" horiz-adv-x="556" 
d="M202 164l-171 -1v119l171 -2l-7 70l7 69l-171 -1v118l171 -2l-7 166h166l-7 -166l171 2v-118l-171 1l7 -69l-7 -70l171 2v-119l-171 1l4 -164h-160z" />
    <glyph glyph-name="bullet" unicode="&#x2022;" horiz-adv-x="325" 
d="M69 194q-38 38 -38 93q0 36 17.5 66.5t47.5 48t66 17.5t66.5 -17.5t48 -48t17.5 -66.5t-17.5 -66t-48 -47.5t-66.5 -17.5q-55 0 -93 38z" />
    <glyph glyph-name="ellipsis" unicode="&#x2026;" horiz-adv-x="602" 
d="M31 118h129v-118h-129v118zM237 118h128v-118h-128v118zM442 118h129v-118h-129v118z" />
    <glyph glyph-name="perthousand" unicode="&#x2030;" horiz-adv-x="1083" 
d="M69.5 389q-38.5 40 -38.5 106q0 75 38 117t110 42t110.5 -42t38.5 -117q0 -66 -38.5 -106t-110.5 -40q-71 0 -109.5 40zM470 644h153l-338 -644h-152zM238 498q0 35 -14 51.5t-45 16.5q-30 0 -44 -16.5t-14 -51.5q0 -61 58 -61q59 0 59 61zM467.5 29.5
q-38.5 39.5 -38.5 105.5q0 75 38 117t110 42t110.5 -42t38.5 -117q0 -66 -38.5 -105.5t-110.5 -39.5q-71 0 -109.5 39.5zM792.5 29.5q-38.5 39.5 -38.5 105.5q0 75 38.5 117t110.5 42t110 -42t38 -117q0 -66 -38.5 -105.5t-109.5 -39.5q-72 0 -110.5 39.5zM636 138
q0 35 -14 51.5t-45 16.5q-30 0 -44 -16.5t-14 -51.5q0 -61 58 -61q59 0 59 61zM962 138q0 35 -14.5 51.5t-44.5 16.5q-31 0 -45 -16.5t-14 -51.5q0 -61 59 -61t59 61z" />
    <glyph glyph-name="minute" unicode="&#x2032;" horiz-adv-x="196" 
d="M31 644h134l-15 -213h-119v213z" />
    <glyph glyph-name="second" unicode="&#x2033;" horiz-adv-x="382" 
d="M31 644h134l-15 -213h-119v213zM217 644h134l-15 -213h-119v213z" />
    <glyph glyph-name="guilsinglleft" unicode="&#x2039;" horiz-adv-x="390" 
d="M31 254v61l266 196l61 -90l-184 -137l184 -137l-61 -89z" />
    <glyph glyph-name="guilsinglright" unicode="&#x203a;" horiz-adv-x="390" 
d="M31 147l184 137l-184 137l61 90l266 -196v-61l-266 -196z" />
    <glyph glyph-name="fraction" unicode="&#x2044;" horiz-adv-x="184" 
d="M168 662h165l-317 -662h-165z" />
    <glyph glyph-name="uni2070" unicode="&#x2070;" horiz-adv-x="365" 
d="M67 399q-38 37 -38 106q0 149 153 149q154 0 154 -149q0 -69 -38.5 -106t-115.5 -37t-115 37zM221.5 456q11.5 15 11.5 49q0 38 -11 54t-40 16q-28 0 -39 -16t-11 -54q0 -34 11 -49t39 -15t39.5 15z" />
    <glyph glyph-name="uni2074" unicode="&#x2074;" horiz-adv-x="295" 
d="M144 416h-133v70l132 168h111v-164h29v-74h-29v-46h-110v46zM172 490v81l-62 -81h62z" />
    <glyph glyph-name="uni2075" unicode="&#x2075;" horiz-adv-x="303" 
d="M74 365.5q-28 3.5 -43 10.5v71q14 -7 34.5 -10.5t39.5 -3.5q30 0 44 7t14 21q0 16 -11 22t-38 6h-82v50l7 105h214l-5 -69h-115l-2 -27h36q53 0 78.5 -22t25.5 -66q0 -45 -35.5 -71.5t-105.5 -26.5q-28 0 -56 3.5z" />
    <glyph glyph-name="uni2076" unicode="&#x2076;" horiz-adv-x="319" 
d="M66 390.5q-35 28.5 -35 84.5v56q0 56 38 89.5t105 33.5q56 0 86 -12v-68q-28 12 -77 12q-30 0 -47.5 -11t-17.5 -28v-5q25 19 65 19q56 0 80.5 -24t24.5 -75q0 -48 -32 -74t-95 -26q-60 0 -95 28.5zM190 434.5q9 8.5 9 26.5t-8 26.5t-30 8.5q-21 0 -43 -15v-16
q0 -20 10 -29.5t32 -9.5q21 0 30 8.5z" />
    <glyph glyph-name="uni2077" unicode="&#x2077;" horiz-adv-x="290" 
d="M147 562h-126v82h248v-62l-92 -212h-114z" />
    <glyph glyph-name="uni2078" unicode="&#x2078;" horiz-adv-x="333" 
d="M67.5 384q-36.5 22 -36.5 63q0 21 10 38t29 27q-32 18 -32 58q0 41 34 62.5t94 21.5t94 -21.5t34 -62.5q0 -40 -32 -61q40 -20 40 -62q0 -41 -37 -63t-99 -22t-98.5 22zM198 547.5q5 6.5 5 20.5q0 27 -37 27t-37 -27q0 -12 5 -18.5t18 -9.5l24 -5q17 6 22 12.5zM210 449
q0 12 -7 18t-24 10l-27 6q-15 -5 -22 -11.5t-7 -21.5q0 -16 10.5 -23t32.5 -7q44 0 44 29z" />
    <glyph glyph-name="uni2079" unicode="&#x2079;" horiz-adv-x="319" 
d="M59 373v68q30 -11 77 -11q30 0 47.5 11t17.5 27v5q-27 -19 -62 -19q-56 0 -82 24.5t-26 75.5q0 47 32.5 73.5t95.5 26.5t96 -28.5t33 -85.5v-56q0 -56 -38 -89t-105 -33q-55 0 -86 11zM201 534v16q0 40 -42 40q-40 0 -40 -36q0 -18 8.5 -26.5t29.5 -8.5q22 0 44 15z" />
    <glyph glyph-name="uni207D" unicode="&#x207d;" horiz-adv-x="224" 
d="M45 422.5q-14 42.5 -14 91.5q0 48 14 90.5t40 71.5h108q-32 -32 -47.5 -73.5t-15.5 -88.5q0 -102 63 -162h-108q-26 28 -40 70.5z" />
    <glyph glyph-name="uni207E" unicode="&#x207e;" horiz-adv-x="224" 
d="M94 514q0 47 -15.5 88.5t-47.5 73.5h108q26 -29 40 -71.5t14 -90.5q0 -49 -14 -91.5t-40 -70.5h-108q63 60 63 162z" />
    <glyph glyph-name="uni207F" unicode="&#x207f;" horiz-adv-x="350" 
d="M36 648h87l2 -22q41 27 101 27q44 0 68.5 -24.5t24.5 -71.5v-171h-93v156q0 22 -9 31t-31 9q-13 0 -30.5 -6.5t-26.5 -15.5v-174h-93v262z" />
    <glyph glyph-name="uni2080" unicode="&#x2080;" horiz-adv-x="365" 
d="M67 -91q-38 37 -38 106q0 149 153 149q154 0 154 -149q0 -69 -38.5 -106t-115.5 -37t-115 37zM221.5 -34q11.5 15 11.5 49q0 38 -11 54t-40 16q-28 0 -39 -16t-11 -54q0 -34 11 -49t39 -15t39.5 15z" />
    <glyph glyph-name="uni2081" unicode="&#x2081;" horiz-adv-x="219" 
d="M83 56l-63 -12v85l177 35v-284h-114v176z" />
    <glyph glyph-name="uni2082" unicode="&#x2082;" horiz-adv-x="304" 
d="M31 -72q12 17 24.5 29t26 22.5t18.5 14.5q6 5 25 20t24.5 22.5t5.5 16.5q0 15 -11 21.5t-36 6.5q-32 0 -71 -16v80q19 7 51 13t62 6q57 0 89 -24t32 -62q0 -26 -9.5 -43.5t-34.5 -40.5l-19 -16q-11 -8 -21 -18h86v-80h-242v48z" />
    <glyph glyph-name="uni2083" unicode="&#x2083;" horiz-adv-x="308" 
d="M79.5 -124q-33.5 4 -48.5 10v69q33 -15 77 -15q29 0 41.5 5.5t12.5 18.5q0 25 -46 25h-44l5 59h37q42 0 42 26q0 20 -49 20q-40 0 -72 -15v70q17 6 47 10.5t56 4.5q68 0 100.5 -22.5t32.5 -60.5q0 -44 -33 -63q39 -13 39 -59q0 -87 -139 -87q-25 0 -58.5 4z" />
    <glyph glyph-name="uni2084" unicode="&#x2084;" horiz-adv-x="295" 
d="M144 -74h-133v70l132 168h111v-164h29v-74h-29v-46h-110v46zM172 0v81l-62 -81h62z" />
    <glyph glyph-name="uni2085" unicode="&#x2085;" horiz-adv-x="303" 
d="M74 -124.5q-28 3.5 -43 10.5v71q14 -7 34.5 -10.5t39.5 -3.5q30 0 44 7t14 21q0 16 -11 22t-38 6h-82v50l7 105h214l-5 -69h-115l-2 -27h36q53 0 78.5 -22t25.5 -66q0 -45 -35.5 -71.5t-105.5 -26.5q-28 0 -56 3.5z" />
    <glyph glyph-name="uni2086" unicode="&#x2086;" horiz-adv-x="319" 
d="M66 -99.5q-35 28.5 -35 84.5v56q0 56 38 89.5t105 33.5q56 0 86 -12v-68q-29 12 -77 12q-30 0 -47.5 -11t-17.5 -28v-5q25 19 65 19q56 0 80.5 -24t24.5 -75q0 -48 -32 -74t-95 -26q-60 0 -95 28.5zM190 -55.5q9 8.5 9 26.5t-8 26.5t-30 8.5q-21 0 -43 -15v-16
q0 -20 10 -29.5t32 -9.5q21 0 30 8.5z" />
    <glyph glyph-name="uni2087" unicode="&#x2087;" horiz-adv-x="290" 
d="M147 72h-126v82h248v-62l-92 -212h-114z" />
    <glyph glyph-name="uni2088" unicode="&#x2088;" horiz-adv-x="333" 
d="M67.5 -106q-36.5 22 -36.5 63q0 21 10 38t29 27q-32 18 -32 58q0 41 34 62.5t94 21.5t94 -21.5t34 -62.5q0 -40 -32 -61q40 -20 40 -62q0 -41 -37 -63t-99 -22t-98.5 22zM198 57.5q5 6.5 5 20.5q0 27 -37 27t-37 -27q0 -12 5 -18.5t18 -9.5l24 -5q17 6 22 12.5zM210 -41
q0 12 -7 18t-24 10l-27 6q-15 -5 -22 -11.5t-7 -21.5q0 -16 10.5 -23t32.5 -7q44 0 44 29z" />
    <glyph glyph-name="uni2089" unicode="&#x2089;" horiz-adv-x="319" 
d="M59 -117v68q30 -11 77 -11q30 0 47.5 11t17.5 27v5q-27 -19 -62 -19q-56 0 -82 24.5t-26 75.5q0 47 32.5 73.5t95.5 26.5t96 -28.5t33 -85.5v-56q0 -56 -38 -89t-105 -33q-55 0 -86 11zM201 44v16q0 40 -42 40q-40 0 -40 -36q0 -18 8.5 -26.5t29.5 -8.5q22 0 44 15z" />
    <glyph glyph-name="uni208D" unicode="&#x208d;" horiz-adv-x="224" 
d="M45 -75.5q-14 42.5 -14 91.5q0 48 14 90.5t40 71.5h108q-32 -32 -47.5 -73.5t-15.5 -88.5q0 -102 63 -162h-108q-26 28 -40 70.5z" />
    <glyph glyph-name="uni208E" unicode="&#x208e;" horiz-adv-x="224" 
d="M94 16q0 47 -15.5 88.5t-47.5 73.5h108q26 -29 40 -71.5t14 -90.5q0 -49 -14 -91.5t-40 -70.5h-108q63 60 63 162z" />
    <glyph glyph-name="colonmonetary" unicode="&#x20a1;" horiz-adv-x="579" 
d="M150 71q-113 67 -113 240q0 279 251 301l15 59h80l-15 -58q26 -2 50 -6l16 64h80l-21 -82q4 -1 8.5 -3t10.5 -4v-118q-37 14 -47 17l-85 -336q65 6 133 33v-119q-42 -14 -80 -21t-83 -8l-15 -61h-80l16 64q-25 3 -49 9l-18 -73h-80zM389 496q-22 3 -47 3h-3l-87 -340
q19 -8 48 -13zM255 484q-43 -18 -62 -60t-19 -113q0 -55 14 -89z" />
    <glyph glyph-name="lira" unicode="&#x20a4;" horiz-adv-x="489" 
d="M31 121h23q26 0 36.5 15t11.5 43h-64v97h64v35h-64v97h64v45q0 93 46 147t139 54q75 0 129 -24v-107q-27 13 -76 13q-46 0 -61.5 -20.5t-15.5 -67.5v-40h151l-6 -97h-145v-35h151l-6 -97h-145q0 -39 -22 -58h217v-121h-427v121z" />
    <glyph glyph-name="uni20A6" unicode="&#x20a6;" horiz-adv-x="682" 
d="M88 162h-57v102h57v76h-57v102h57v202h139l205 -384v384h161v-202h57v-102h-57v-76h57v-102h-57v-162h-139l-204 382v-382h-162v162z" />
    <glyph glyph-name="peseta" unicode="&#x20a7;" horiz-adv-x="1301" 
d="M597.5 34q-42.5 44 -42.5 125v80h-113q-60 -52 -154 -52h-76v-187h-161v644h241q111 0 167.5 -63.5t56.5 -166.5q0 -30 -6 -57h45v117l162 35v-152h114l-3 -118h-111v-70q0 -63 67 -63q29 0 59 10v-106q-47 -20 -116 -20q-87 0 -129.5 44zM254 313q49 0 74.5 27t25.5 74
q0 50 -24.5 77t-73.5 27h-44v-205h42zM943 -2q-51 8 -82 20v123q33 -14 79 -22.5t84 -8.5q47 0 64.5 4.5t17.5 21.5q0 14 -17 23t-61 22l-43 14q-70 24 -101 55.5t-31 88.5q0 145 221 145q42 0 86 -6.5t74 -16.5v-121q-27 12 -62 18.5t-66 6.5q-44 0 -66 -5t-22 -21
q0 -14 14 -20.5t54 -18.5q20 -5 41 -12q56 -17 86.5 -36.5t43.5 -46.5t13 -68q0 -72 -56 -109.5t-165 -37.5q-55 0 -106 8z" />
    <glyph glyph-name="dong" unicode="&#x20ab;" horiz-adv-x="583" 
d="M89.5 50q-58.5 60 -58.5 183q0 124 62 187.5t164 63.5q76 0 129 -32v69h-150v102h150v51h161v-51h30v-102h-30v-521h-139l-9 40q-30 -25 -66 -37.5t-83 -12.5q-102 0 -160.5 60zM386 143v192q-34 31 -87 31q-52 0 -78 -32.5t-26 -101.5q0 -67 24.5 -96t76.5 -29
q53 0 90 36zM70 -47h460v-114h-460v114z" />
    <glyph glyph-name="Euro" unicode="&#x20ac;" horiz-adv-x="583" 
d="M85 198h-64v85h52v61h-52v85h62q23 109 96.5 167t208.5 58q52 0 89.5 -8t83.5 -25v-139q-42 19 -77 26.5t-85 7.5q-65 0 -100 -21t-49 -66h167v-85h-180v-61h180v-85h-164q17 -38 52 -54.5t97 -16.5q47 0 81 7t79 25v-139q-45 -16 -81 -23t-91 -7q-253 0 -305 208z" />
    <glyph glyph-name="uni20B1" unicode="&#x20b1;" horiz-adv-x="623" 
d="M57 331h-35v80h35v24h-35v80h35v129h272q80 0 132 -34.5t74 -94.5h54v-80h-39v-24h39v-80h-55q-24 -61 -78.5 -95t-130.5 -34h-133v-202h-135v331zM386 515q-30 27 -79 27h-120v-27h199zM418 411l1 11q0 8 -1 13h-231v-24h231zM302 304q49 0 81 27h-196v-27h115z" />
    <glyph glyph-name="uni20B2" unicode="&#x20b2;" horiz-adv-x="647" 
d="M315 -7q-135 13 -206.5 96t-71.5 222q0 147 70.5 235t207.5 104v85h99v-82q89 -5 155 -26v-116q-67 24 -155 27v-178h193v-315q-71 -45 -193 -53v-112h-99v113zM315 532q-74 -15 -107.5 -69.5t-33.5 -151.5q0 -176 141 -203v424zM493 124v150h-79v-168q45 6 79 18z" />
    <glyph glyph-name="uni20B5" unicode="&#x20b5;" horiz-adv-x="603" 
d="M292 -3q-124 20 -189.5 103.5t-65.5 215.5q0 141 64.5 226.5t190.5 105.5v87h99v-81q90 -3 171 -32v-118q-81 32 -171 35v-435q92 2 172 34v-119q-77 -26 -172 -29v-110h-99v117zM292 527q-61 -19 -89.5 -71t-28.5 -140q0 -161 118 -200v411z" />
    <glyph glyph-name="uni20B9" unicode="&#x20b9;" horiz-adv-x="456" 
d="M127 153q-13 31 -33.5 43t-62.5 12v94h59q52 0 82 18.5t34 61.5h-174v96h173q-8 34 -35.5 51.5t-69.5 17.5h-69v97h394v-97h-96q29 -23 37 -69h59v-96h-58q-7 -55 -40.5 -90.5t-93.5 -53.5q24 -14 35.5 -30t25.5 -49l67 -159h-168z" />
    <glyph glyph-name="uni20BA" unicode="&#x20ba;" horiz-adv-x="584" 
d="M116 292l-79 -26v72l79 26v66l-79 -26v72l79 26v142h127v-100l168 56v-71l-168 -56v-67l168 56v-71l-168 -56v-241q86 5 130 49.5t44 127.5v55h128v-42q0 -140 -83 -212t-240 -72h-106v292z" />
    <glyph glyph-name="uni20BD" unicode="&#x20bd;" horiz-adv-x="647" 
d="M84 63h-53v117h53v46h-53v120h53v298h305q113 0 169.5 -55.5t56.5 -155.5q0 -98 -63.5 -152.5t-171.5 -54.5h-134v-46h106v-117h-106v-63h-162v63zM349 346q52 0 77.5 20t25.5 65q0 48 -24 70.5t-74 22.5h-108v-178h103z" />
    <glyph glyph-name="uni210A" unicode="&#x210a;" horiz-adv-x="599" 
d="M183 -173q-43 3 -63 7v119q19 -6 50.5 -9.5t55.5 -3.5q87 0 123.5 16t36.5 57v18q-25 -16 -60.5 -25t-72.5 -9q-222 0 -222 223q0 83 29.5 142.5t80.5 90.5t116 31q48 0 81.5 -13t60.5 -38l9 41h139v-431q0 -100 -73.5 -159.5t-221.5 -59.5q-26 0 -69 3zM386 145v185
q-32 36 -87 36t-79.5 -35.5t-24.5 -109.5q0 -62 22.5 -84.5t80.5 -22.5q52 0 88 31z" />
    <glyph glyph-name="uni2113" unicode="&#x2113;" horiz-adv-x="431" 
d="M121.5 36.5q-45.5 46.5 -45.5 125.5v111q-42 -14 -69 -21v123q44 10 69 24v173q0 87 43 132.5t123 45.5q77 0 116.5 -46.5t39.5 -123.5q0 -91 -46.5 -153.5t-126.5 -104.5v-166q0 -27 8.5 -41t28.5 -14q25 0 34 16.5t9 53.5h112q0 -54 -12 -93t-48.5 -63.5t-105.5 -24.5
q-84 0 -129.5 46.5zM260 504.5q17 26.5 17 61.5q0 61 -37 61q-22 0 -30 -15.5t-8 -50.5v-110q41 27 58 53.5z" />
    <glyph glyph-name="uni2117" unicode="&#x2117;" horiz-adv-x="726" 
d="M196.5 34.5q-76.5 44.5 -121 121t-44.5 166.5t44.5 166.5t121 121t166.5 44.5t166.5 -44.5t121 -121t44.5 -166.5t-44.5 -166.5t-121 -121t-166.5 -44.5t-166.5 44.5zM486 107q55 32 87 88t32 127q0 70 -32 126.5t-87 88t-123 31.5t-123 -31.5t-87 -88t-32 -126.5
q0 -71 32 -127t87 -88t123 -32t123 32zM234 509h187q62 0 94.5 -35t32.5 -92t-34 -92.5t-94 -35.5h-97v-119h-89v374zM378 325q43 0 62 11t19 46q0 31 -15.5 43.5t-48.5 12.5h-72v-113h55z" />
    <glyph glyph-name="uni2120" unicode="&#x2120;" horiz-adv-x="662" 
d="M98 364.5q-30 4.5 -47 11.5v73q41 -19 96 -19q21 0 33.5 3t12.5 13q0 8 -8.5 13t-24 10.5t-24.5 8.5q-52 19 -71 37.5t-19 51.5q0 87 131 87q25 0 53.5 -4t45.5 -9v-72q-17 6 -38 10t-37 4q-54 0 -54 -17q0 -8 10 -13.5t26.5 -10.5t24.5 -8q41 -13 63.5 -32t22.5 -56
q0 -44 -37 -65t-94 -21q-35 0 -65 4.5zM312 644h87l76 -139l76 139h87v-282h-93v133l-50 -109h-39l-51 109v-133h-93v282z" />
    <glyph glyph-name="trademark" unicode="&#x2122;" horiz-adv-x="676" 
d="M115 555h-84v89h265v-89h-84v-193h-97v193zM318 644h87l76 -139l76 139h87v-282h-93v133l-50 -109h-39l-51 109v-133h-93v282z" />
    <glyph glyph-name="uni2126" unicode="&#x2126;" horiz-adv-x="752" 
d="M38 122h114q-121 83 -121 245q0 99 40.5 173t118.5 114.5t186 40.5t186 -40.5t118.5 -114.5t40.5 -173q0 -162 -121 -245h114v-122h-297v126q72 42 106 98.5t34 132.5q0 91 -48.5 145.5t-132.5 54.5t-132.5 -54.5t-48.5 -145.5q0 -76 34 -132.5t106 -98.5v-126h-297v122z
" />
    <glyph glyph-name="estimated" unicode="&#x212e;" horiz-adv-x="762" 
d="M205.5 31.5q-81.5 45.5 -128 125t-46.5 176.5q0 109 48 187t127.5 118.5t174.5 40.5q93 0 173 -42t128 -117t48 -170v-17h-555v-221q29 -38 86.5 -62.5t125.5 -24.5q93 0 148 25.5t108 92.5h46q-56 -87 -127 -122t-175 -35q-100 0 -181.5 45.5zM588 373v193
q-31 33 -85.5 54t-122.5 21q-128 0 -205 -74v-194h413z" />
    <glyph glyph-name="uni2153" unicode="&#x2153;" horiz-adv-x="692" 
d="M94 546l-63 -12v85l177 35v-284h-114v176zM421 644h153l-338 -644h-152zM449.5 -4.5q-33.5 4.5 -48.5 10.5v68q38 -15 77 -15q29 0 41.5 5.5t12.5 18.5t-10.5 19t-34.5 6h-44l5 60h36q43 0 43 25q0 21 -50 21q-35 0 -71 -15v69q15 6 45.5 10.5t57.5 4.5q68 0 100.5 -22
t32.5 -60q0 -44 -34 -63q39 -13 39 -60q0 -87 -139 -87q-25 0 -58.5 4.5z" />
    <glyph glyph-name="uni2154" unicode="&#x2154;" horiz-adv-x="726" 
d="M31 418q12 17 24.5 29t26 22.5t18.5 14.5q6 5 25 20t24.5 22.5t5.5 16.5q0 15 -11 21.5t-36 6.5q-32 0 -71 -16v80q19 7 51 13t62 6q57 0 89 -24t32 -62q0 -26 -9.5 -43.5t-34.5 -40.5l-19 -16q-10 -7 -21 -18h86v-80h-242v48zM436 644h153l-338 -644h-152zM465 -5
q-34 4 -49 10v69q34 -15 77 -15q30 0 42 5.5t12 18.5q0 25 -45 25h-44l5 59h36q43 0 43 26q0 20 -50 20q-39 0 -71 -15v70q16 6 46.5 10.5t56.5 4.5q68 0 100.5 -22.5t32.5 -60.5q0 -44 -34 -63q39 -13 39 -59q0 -87 -139 -87q-24 0 -58 4z" />
    <glyph glyph-name="oneeighth" unicode="&#x215b;" horiz-adv-x="691" 
d="M94 546l-63 -12v85l177 35v-284h-114v176zM421 644h153l-338 -644h-152zM414.5 12q-36.5 22 -36.5 63q0 21 10 38t29 27q-32 18 -32 58q0 41 34 62.5t94 21.5t94 -21.5t34 -62.5q0 -40 -32 -61q40 -20 40 -62q0 -41 -37 -63t-99 -22t-98.5 22zM545 175.5q5 6.5 5 20.5
q0 27 -37 27t-37 -27q0 -12 5 -18.5t18 -9.5l24 -5q17 6 22 12.5zM557 77q0 12 -7 18t-24 10l-27 6q-15 -5 -22 -11.5t-7 -21.5q0 -16 10.5 -23t32.5 -7q44 0 44 29z" />
    <glyph glyph-name="threeeighths" unicode="&#x215c;" horiz-adv-x="702" 
d="M79.5 366q-33.5 4 -48.5 10v69q33 -15 77 -15q29 0 41.5 5.5t12.5 18.5q0 25 -46 25h-44l5 59h37q42 0 42 26q0 20 -49 20q-40 0 -72 -15v70q17 6 47 10.5t56 4.5q68 0 100.5 -22.5t32.5 -60.5q0 -44 -33 -63q39 -13 39 -59q0 -87 -139 -87q-25 0 -58.5 4zM425 644h153
l-339 -644h-152zM418 12q-37 22 -37 63q0 21 10.5 38t29.5 27q-32 18 -32 58q0 41 34 62.5t94 21.5t94 -21.5t34 -62.5q0 -40 -33 -61q21 -10 30.5 -25t9.5 -37q0 -41 -36.5 -63t-98.5 -22t-99 22zM548.5 175.5q5.5 6.5 5.5 20.5q0 27 -37 27t-37 -27q0 -12 5 -18.5t18 -9.5
l24 -5q16 6 21.5 12.5zM560 77q0 12 -7 18t-24 10l-26 6q-16 -5 -23 -11.5t-7 -21.5q0 -30 44 -30q43 0 43 29z" />
    <glyph glyph-name="fiveeighths" unicode="&#x215d;" horiz-adv-x="688" 
d="M74 365.5q-28 3.5 -43 10.5v71q14 -7 34.5 -10.5t39.5 -3.5q30 0 44 7t14 21q0 16 -11 22t-38 6h-82v50l7 105h214l-5 -69h-115l-2 -27h36q53 0 78.5 -22t25.5 -66q0 -45 -35.5 -71.5t-105.5 -26.5q-28 0 -56 3.5zM421 644h153l-338 -644h-152zM414.5 12
q-36.5 22 -36.5 63q0 21 10 38t29 27q-32 18 -32 58q0 41 34 62.5t94 21.5t94 -21.5t34 -62.5q0 -40 -32 -61q40 -20 40 -62q0 -41 -37 -63t-99 -22t-98.5 22zM545 175.5q5 6.5 5 20.5q0 27 -37 27t-37 -27q0 -12 5 -18.5t18 -9.5l24 -5q17 6 22 12.5zM557 77q0 12 -7 18
t-24 10l-27 6q-15 -5 -22 -11.5t-7 -21.5q0 -16 10.5 -23t32.5 -7q44 0 44 29z" />
    <glyph glyph-name="seveneighths" unicode="&#x215e;" horiz-adv-x="687" 
d="M157 562h-126v82h248v-62l-92 -212h-114zM416 644h153l-338 -644h-152zM409.5 12q-36.5 22 -36.5 63q0 21 10 38t29 27q-32 18 -32 58q0 41 34 62.5t94 21.5t94 -21.5t34 -62.5q0 -40 -32 -61q40 -20 40 -62q0 -41 -37 -63t-99 -22t-98.5 22zM540 175.5q5 6.5 5 20.5
q0 27 -37 27t-37 -27q0 -12 5 -18.5t18 -9.5l24 -5q17 6 22 12.5zM552 77q0 12 -7 18t-24 10l-27 6q-15 -5 -22 -11.5t-7 -21.5q0 -16 10.5 -23t32.5 -7q44 0 44 29z" />
    <glyph glyph-name="arrowleft" unicode="&#x2190;" horiz-adv-x="733" 
d="M31 244v45l248 199l48 -65l-130 -104h505v-105h-505l130 -104l-48 -65z" />
    <glyph glyph-name="arrowup" unicode="&#x2191;" horiz-adv-x="505" 
d="M199 462l-103 -131l-65 48l198 249h45l200 -249l-65 -48l-105 131v-505h-105v505z" />
    <glyph glyph-name="arrowright" unicode="&#x2192;" horiz-adv-x="733" 
d="M405 110l130 104h-504v105h505l-131 104l48 65l249 -199v-45l-249 -199z" />
    <glyph glyph-name="arrowdown" unicode="&#x2193;" horiz-adv-x="505" 
d="M31 192l65 48l103 -130v504h105v-504l105 130l65 -48l-200 -248h-45z" />
    <glyph glyph-name="partialdiff" unicode="&#x2202;" horiz-adv-x="630" 
d="M88 36.5q-56 46.5 -56 123.5q0 25 6 52q23 106 88.5 158.5t181.5 52.5q36 0 74 -11t62 -30l3 16q4 20 4 43q0 45 -28 69.5t-95 24.5q-95 0 -167 -29l25 118q77 30 177 30q114 0 175 -59t61 -157q0 -33 -8 -73l-25 -118q-28 -132 -102 -194.5t-211 -62.5q-109 0 -165 46.5
zM363.5 131q33.5 29 45.5 88l12 55q-24 18 -49 27.5t-57 9.5q-60 0 -91 -25.5t-43 -79.5q-5 -22 -5 -36q0 -34 23.5 -51t73.5 -17q57 0 90.5 29z" />
    <glyph glyph-name="product" unicode="&#x220f;" horiz-adv-x="635" 
d="M51 706h532v-835h-161v711h-210v-711h-161v835z" />
    <glyph glyph-name="summation" unicode="&#x2211;" horiz-adv-x="537" 
d="M31 -27l218 289l-218 288v94h475v-124h-269l196 -258l-196 -258h269v-124h-475v93z" />
    <glyph glyph-name="minus" unicode="&#x2212;" horiz-adv-x="457" 
d="M31 340h395v-125h-395v125z" />
    <glyph glyph-name="uni2215" unicode="&#x2215;" horiz-adv-x="544" 
d="M348 662h165l-317 -662h-165z" />
    <glyph glyph-name="uni2219" unicode="&#x2219;" horiz-adv-x="192" 
d="M31 362h130v-119h-130v119z" />
    <glyph glyph-name="radical" unicode="&#x221a;" horiz-adv-x="709" 
d="M138 330h-107v125h215l91 -273l182 532h159l-251 -714h-166z" />
    <glyph glyph-name="infinity" unicode="&#x221e;" horiz-adv-x="680" 
d="M76.5 160.5q-45.5 41.5 -45.5 120.5t45.5 120.5t122.5 41.5q44 0 81 -19.5t60 -52.5q23 33 60 52.5t80 19.5q77 0 123 -41.5t46 -120.5t-46 -120.5t-123 -41.5q-43 0 -80 19.5t-60 52.5q-23 -33 -60 -52.5t-81 -19.5q-77 0 -122.5 41.5zM288 280q-30 60 -82 60
q-30 0 -46 -15.5t-16 -43.5t16 -43.5t46 -15.5q52 0 82 58zM520 237.5q16 15.5 16 43.5t-16 43.5t-46 15.5q-54 0 -82 -61q32 -57 82 -57q30 0 46 15.5z" />
    <glyph glyph-name="integral" unicode="&#x222b;" horiz-adv-x="438" 
d="M7 -109v107q31 -11 60 -11q38 0 54.5 14.5t16.5 47.5v464q0 80 45 128.5t130 48.5q64 0 117 -21v-108q-31 11 -60 11q-38 0 -54.5 -14.5t-16.5 -47.5v-464q0 -79 -45 -127.5t-130 -48.5q-68 0 -117 21z" />
    </font>
</defs>
</svg>
