<?xml version="1.0" standalone="no"?>
<!DOCTYPE svg PUBLIC "-//W3C//DTD SVG 1.1//EN" "http://www.w3.org/Graphics/SVG/1.1/DTD/svg11.dtd" >
<svg xmlns="http://www.w3.org/2000/svg" xmlns:xlink="http://www.w3.org/1999/xlink" version="1.1">
<metadata>
Created by FontForge 20170731 at Tue Jul 31 15:39:16 2018
 By Aleksey,,,
Copyright (c) 2018 by Cadson Demak Co.,Ltd.. All rights reserved.
</metadata>
<defs>
<font id="Anakotmai-Light" horiz-adv-x="0" >
  <font-face 
    font-family="Anakotmai Light"
    font-weight="300"
    font-stretch="normal"
    units-per-em="1000"
    panose-1="0 0 4 0 0 0 0 0 0 0"
    ascent="800"
    descent="-200"
    x-height="520"
    cap-height="710"
    bbox="-625 -410 1161 1044"
    underline-thickness="40"
    underline-position="-160"
    unicode-range="U+000D-FB02"
  />
<missing-glyph horiz-adv-x="600" 
 />
    <glyph glyph-name="fi" unicode="fi" horiz-adv-x="678" 
d="M131 476h-98v44h98v57q0 79 34 116t107 37q59 0 109 -25l-15 -40q-42 21 -82 21q-50 0 -73.5 -26t-23.5 -81v-59h176v-45h-176v-475h-56v476zM493.5 641q-12.5 12 -12.5 30t12.5 30t31.5 12t31.5 -12t12.5 -30t-12.5 -30t-31.5 -12t-31.5 12zM497 520h56v-520h-56v520z
" />
    <glyph glyph-name="fl" unicode="fl" horiz-adv-x="695" 
d="M131 476h-98v44h98v57q0 79 34 116t107 37q59 0 109 -25l-15 -40q-42 21 -82 21q-50 0 -73.5 -26t-23.5 -81v-59h176v-45h-176v-475h-56v476zM510 21q-24 27 -24 89v600h56v-596q0 -41 14 -58t48 -17q23 0 46 7l6 -43q-29 -9 -66 -9q-56 0 -80 27z" />
    <glyph glyph-name="uni0E240E45" unicode="&#xe24;&#xe45;" horiz-adv-x="987" 
d="M843 499q48 -51 48 -149v-560h-56v558q0 157 -143 157q-54 0 -93.5 -19.5t-68.5 -61.5q15 -42 15 -95v-539h-56v539q0 86 -47 130.5t-134 44.5q-82 0 -130 -40.5t-49 -115.5h155v-37h-51q-42 -26 -69 -69.5t-27 -96.5q0 -50 25.5 -80t73.5 -30q38 0 68 16l13 -37
q-41 -22 -92 -22q-71 0 -107.5 40t-36.5 102q0 60 27.5 104.5t68.5 72.5h-101v17q0 106 60.5 164t174.5 58q70 0 121.5 -22.5t79.5 -67.5q63 90 189 90q94 0 142 -51z" />
    <glyph glyph-name="uni0E260E45" unicode="&#xe26;&#xe45;" horiz-adv-x="998" 
d="M853.5 499q48.5 -51 48.5 -149v-560h-56v558q0 157 -144 157q-54 0 -94 -20t-68 -62q15 -40 15 -94v-539h-56v539q0 86 -47 130.5t-135 44.5q-82 0 -130.5 -40.5t-49.5 -115.5h155v-37h-64q-24 -15 -33.5 -44t-9.5 -76v-117q0 -41 -17.5 -61t-57.5 -20q-34 0 -65 13
l11 37q20 -7 38 -7t26.5 10.5t8.5 34.5v105q0 90 45 125h-90v17q0 106 60.5 164t174.5 58q71 0 123 -23t80 -68q64 91 190 91q93 0 141.5 -51z" />
    <glyph glyph-name=".notdef" horiz-adv-x="600" 
 />
    <glyph glyph-name=".null" horiz-adv-x="600" 
 />
    <glyph glyph-name="nonmarkingreturn" unicode="&#xd;" horiz-adv-x="280" 
 />
    <glyph glyph-name="space" unicode=" " horiz-adv-x="280" 
 />
    <glyph glyph-name="exclam" unicode="!" horiz-adv-x="320" 
d="M126 710h70l-13 -460h-44zM127 4.5q-13 12.5 -13 32.5t13 33t33 13t33 -13t13 -33t-13 -32.5t-33 -12.5t-33 12.5z" />
    <glyph glyph-name="quotedbl" unicode="&#x22;" horiz-adv-x="414" 
d="M86 710h62l-14 -269h-34zM266 710h62l-14 -269h-34z" />
    <glyph glyph-name="numbersign" unicode="#" horiz-adv-x="788" 
d="M575 454l-43 -205h165l-9 -45h-166l-43 -204h-49l43 204h-219l-43 -204h-49l43 204h-167l9 45h168l43 205h-166l8 45h167l45 211h49l-45 -211h219l45 211h49l-45 -211h166l-8 -45h-167zM526 454h-219l-43 -205h219z" />
    <glyph glyph-name="dollar" unicode="$" horiz-adv-x="565" 
d="M472 53q-57 -49 -165 -53v-94h-33v94q-59 2 -118.5 18t-106.5 41l18 48q93 -53 207 -58v289q-83 24 -129 49t-66 58.5t-20 83.5q0 82 56 129t159 52v76h33v-76q105 -3 183 -39l-18 -46q-79 34 -165 37v-275l2 -1q91 -27 137 -51t64.5 -56.5t18.5 -86.5q0 -90 -57 -139z
M132.5 476q13.5 -23 46.5 -41.5t95 -37.5v264q-75 -4 -115 -37t-40 -91q0 -34 13.5 -57zM427.5 88.5q41.5 35.5 41.5 97.5q0 39 -13 62t-46.5 41t-102.5 39v-279q79 4 120.5 39.5z" />
    <glyph glyph-name="percent" unicode="%" horiz-adv-x="863" 
d="M108 401.5q-40 50.5 -40 132.5q0 81 40 131.5t104 50.5t104 -51t40 -131q0 -81 -40 -132t-104 -51t-104 50.5zM620 710h46l-424 -710h-46zM281.5 428q26.5 41 26.5 106t-26.5 105.5t-69.5 40.5t-69.5 -40.5t-26.5 -105.5t26.5 -106t69.5 -41t69.5 41zM547 45
q-40 51 -40 132q0 80 40 130.5t104 50.5t104 -50.5t40 -130.5q0 -81 -40 -132t-104 -51t-104 51zM720.5 70.5q26.5 40.5 26.5 106.5q0 65 -26.5 105.5t-69.5 40.5t-69.5 -40.5t-26.5 -105.5q0 -66 26.5 -106.5t69.5 -40.5t69.5 40.5z" />
    <glyph glyph-name="ampersand" unicode="&#x26;" horiz-adv-x="700" 
d="M670 3v-3h-67l-81 90q-46 -48 -106 -73.5t-131 -25.5q-104 0 -165 50t-61 135q0 43 15 74.5t55 64.5t119 80q-46 58 -66.5 102.5t-20.5 85.5q0 62 45.5 99t121.5 37t120.5 -37.5t44.5 -101.5q0 -39 -15.5 -69t-51 -60t-100.5 -67l-0.5 -0.5l-0.5 -0.5l36 -40l157 -172
q48 75 65 191h56q-17 -137 -84 -232zM234.5 511q18.5 -37 58.5 -89l9 5q77 43 107 76t30 74q0 45 -30 70.5t-83 25.5q-51 0 -80.5 -25t-29.5 -69q0 -31 18.5 -68zM397.5 62.5q50.5 22.5 88.5 66.5l-173 190l-34 38q-64 -39 -98 -67t-48 -54.5t-14 -60.5q0 -59 47.5 -97
t121.5 -38q59 0 109.5 22.5z" />
    <glyph glyph-name="quotesingle" unicode="'" horiz-adv-x="234" 
d="M86 710h62l-14 -269h-34z" />
    <glyph glyph-name="parenleft" unicode="(" horiz-adv-x="432" 
d="M180 9q-68 128 -68 286q0 159 68 287t201 219l25 -32q-230 -182 -230 -474t230 -474l-25 -32q-133 92 -201 220z" />
    <glyph glyph-name="parenright" unicode=")" horiz-adv-x="432" 
d="M26 -179q230 182 230 474t-230 474l25 32q133 -91 201 -219t68 -287q0 -158 -68 -286t-201 -220z" />
    <glyph glyph-name="asterisk" unicode="*" horiz-adv-x="408" 
d="M190 579l-96 -61l-20 35l100 52l-100 52l21 35l95 -61l-6 112h40l-6 -112l96 61l20 -35l-101 -52l101 -52l-21 -35l-95 61l6 -112h-40z" />
    <glyph glyph-name="plus" unicode="+" horiz-adv-x="640" 
d="M569 238h-223v-217h-52v217h-223v44h223v217h52v-217h223v-44z" />
    <glyph glyph-name="comma" unicode="," horiz-adv-x="306" 
d="M135 105h71l-111 -248h-40z" />
    <glyph glyph-name="hyphen" unicode="-" horiz-adv-x="472" 
d="M60 311h352v-47h-352v47z" />
    <glyph glyph-name="period" unicode="." horiz-adv-x="306" 
d="M120 6.5q-13 12.5 -13 32.5t13 33t33 13t33 -13t13 -33t-13 -32.5t-33 -12.5t-33 12.5z" />
    <glyph glyph-name="slash" unicode="/" horiz-adv-x="530" 
d="M384 740h52l-340 -900h-52z" />
    <glyph glyph-name="zero" unicode="0" horiz-adv-x="690" 
d="M197 34q-62 44 -95.5 126.5t-33.5 194.5t33.5 194.5t95.5 126.5t147 44t148 -44t96.5 -126.5t33.5 -194.5t-33.5 -194.5t-96.5 -126.5t-148 -44t-147 44zM460 76q49 38 75 109.5t26 169.5q0 148 -58 232t-159 84q-66 0 -115 -38t-75 -109t-26 -169t26 -169.5t75 -109.5
t115 -38q67 0 116 38z" />
    <glyph glyph-name="one" unicode="1" horiz-adv-x="447" 
d="M307 710v-710h-60v644l-165 -107l-28 40l205 133h48z" />
    <glyph glyph-name="two" unicode="2" horiz-adv-x="608" 
d="M540 49v-49h-468v49l272 291q50 54 74 98.5t24 94.5q0 65 -43 102t-118 37q-45 0 -87 -14.5t-87 -43.5l-24 46q52 32 101.5 46t101.5 14q102 0 160 -50t58 -138q0 -57 -25.5 -108t-81.5 -111l-246 -264h389z" />
    <glyph glyph-name="three" unicode="3" horiz-adv-x="601" 
d="M487.5 308.5q37.5 -48.5 37.5 -116.5q0 -59 -29 -105t-84 -71.5t-130 -25.5q-107 0 -212 60l20 45q94 -57 190 -57q84 0 134 44t50 114q0 68 -50 110.5t-154 42.5h-59v44h58q93 0 135 39.5t42 99.5q0 65 -42 102.5t-115 37.5q-44 0 -86 -15t-87 -46l-24 44
q54 34 103 49.5t101 15.5q99 0 155.5 -50.5t56.5 -133.5q0 -56 -30 -100.5t-94 -63.5q76 -15 113.5 -63.5z" />
    <glyph glyph-name="four" unicode="4" horiz-adv-x="565" 
d="M535 201v-46h-98v-155h-58v155h-353v36l346 519h65v-509h98zM379 201v437l-290 -437h290z" />
    <glyph glyph-name="five" unicode="5" horiz-adv-x="622" 
d="M442.5 419q53.5 -29 81.5 -80t28 -117q0 -69 -30.5 -121.5t-86 -81.5t-129.5 -29q-58 0 -116.5 18t-110.5 51l22 44q103 -65 198 -65q89 0 141 51.5t52 132.5t-52.5 130.5t-136.5 49.5q-44 0 -83.5 -15.5t-64.5 -43.5l-39 8v359h383v-49h-327v-256q27 22 64.5 32.5
t79.5 10.5q73 0 126.5 -29z" />
    <glyph glyph-name="six" unicode="6" horiz-adv-x="601" 
d="M452.5 423.5q48.5 -29.5 72.5 -79.5t24 -111q0 -72 -27.5 -127t-79 -85.5t-120.5 -30.5q-110 0 -178.5 82t-68.5 257q0 181 77 286t225 105q66 0 132 -23l-16 -46q-61 21 -117 21q-70 0 -124.5 -37.5t-85.5 -110.5t-31 -175v-11q34 58 84.5 86.5t113.5 28.5
q71 0 119.5 -29.5zM445.5 92q46.5 54 46.5 141q0 78 -45.5 126t-123.5 48q-69 0 -115.5 -39.5t-69.5 -101.5q10 -113 58.5 -170.5t126.5 -57.5q76 0 122.5 54z" />
    <glyph glyph-name="seven" unicode="7" horiz-adv-x="497" 
d="M473 710v-45l-280 -665h-64l285 661h-383v49h442z" />
    <glyph glyph-name="eight" unicode="8" horiz-adv-x="601" 
d="M508 297.5q44 -39.5 44 -109.5q0 -91 -67 -144.5t-184 -53.5q-75 0 -132 23t-88.5 65t-31.5 98q0 69 46 119.5t114 71.5q-66 29 -103 69.5t-37 103.5q0 82 63 131t167 49q69 0 120.5 -22t79 -61.5t27.5 -90.5q0 -62 -40.5 -107t-110.5 -72q89 -30 133 -69.5zM177.5 448.5
q47.5 -34.5 152.5 -66.5q6 -2 8 -2q68 31 100 72.5t32 88.5q0 59 -46.5 95.5t-124.5 36.5q-77 0 -123 -35.5t-46 -95.5q0 -59 47.5 -93.5zM441.5 78q50.5 41 50.5 106q0 42 -23.5 69t-61 43.5t-102.5 36.5q-38 12 -57 19q-62 -21 -100.5 -66.5t-38.5 -102.5q0 -67 53 -106.5
t140 -39.5q89 0 139.5 41z" />
    <glyph glyph-name="nine" unicode="9" horiz-adv-x="601" 
d="M475 641q64 -79 64 -248q0 -403 -279 -403q-69 0 -135 23l15 47q60 -22 116 -22q108 0 165.5 85.5t57.5 250.5q-34 -58 -85 -87.5t-113 -29.5q-71 0 -119.5 30.5t-72.5 82t-24 114.5q0 70 28 123.5t80.5 83t122.5 29.5q115 0 179 -79zM407.5 343.5q46.5 40.5 69.5 103.5
q-14 225 -179 225q-80 0 -128 -52t-48 -136q0 -82 45.5 -131.5t123.5 -49.5q70 0 116.5 40.5z" />
    <glyph glyph-name="colon" unicode=":" horiz-adv-x="306" 
d="M120 6.5q-13 12.5 -13 32.5t13 33t33 13t33 -13t13 -33t-13 -32.5t-33 -12.5t-33 12.5zM120 351.5q-13 12.5 -13 32.5t13 33t33 13t33 -13t13 -33t-13 -32.5t-33 -12.5t-33 12.5z" />
    <glyph glyph-name="semicolon" unicode=";" horiz-adv-x="306" 
d="M135 105h71l-111 -248h-40zM134 351.5q-13 12.5 -13 32.5t13 33t33 13t33 -13t13 -33t-13 -32.5t-33 -12.5t-33 12.5z" />
    <glyph glyph-name="less" unicode="&#x3c;" horiz-adv-x="640" 
d="M566 423l-438 -172l438 -172v-47l-499 200v38l499 200v-47z" />
    <glyph glyph-name="equal" unicode="=" horiz-adv-x="640" 
d="M71 178h498v-44h-498v44zM71 384h498v-44h-498v44z" />
    <glyph glyph-name="greater" unicode="&#x3e;" horiz-adv-x="640" 
d="M573 270v-38l-499 -200v47l438 172l-438 172v47z" />
    <glyph glyph-name="question" unicode="?" horiz-adv-x="442" 
d="M173 260q0 65 20 105.5t71 79.5q41 31 57.5 57t16.5 59q0 52 -36 82t-98 30q-33 0 -71 -11.5t-76 -31.5l-18 42q41 23 85 35t84 12q87 0 135.5 -40t48.5 -111q0 -42 -19.5 -75t-66.5 -70q-47 -36 -64 -70t-17 -93v-30h-52v30zM163 6.5q-13 12.5 -13 32.5t13 33t33 13
t33 -13t13 -33t-13 -32.5t-33 -12.5t-33 12.5z" />
    <glyph glyph-name="at" unicode="@" horiz-adv-x="904" 
d="M554 313q1 6 1 17q0 38 -24 58.5t-70 20.5q-63 0 -136 -41l-15 36q33 21 74.5 32.5t84.5 11.5q134 0 134 -111q0 -15 -1 -23l-15 -135q-2 -20 -2 -28q0 -30 12.5 -42.5t41.5 -12.5q46 0 83.5 30t59 82.5t21.5 117.5q0 85 -38 148t-109 97t-167 34q-114 0 -201.5 -47.5
t-136 -133t-48.5 -197.5q0 -150 91.5 -231.5t259.5 -81.5q124 0 221 45l14 -36q-111 -47 -239 -47q-187 0 -289 92t-102 260q0 123 54 217t152 145.5t227 51.5q108 0 187.5 -38t122.5 -108.5t43 -165.5q0 -78 -27.5 -139.5t-76 -96.5t-109.5 -35q-79 0 -93 66
q-29 -32 -70 -49.5t-87 -17.5q-55 0 -86.5 27.5t-31.5 76.5q0 67 68.5 97.5t218.5 30.5zM472.5 116q39.5 19 64.5 50q0 9 1 14l9 77q-122 0 -177 -22t-55 -72q0 -31 20 -48.5t56 -17.5q42 0 81.5 19z" />
    <glyph glyph-name="A" unicode="A" horiz-adv-x="711" 
d="M537 172h-366l-68 -172h-62l285 710h58l286 -710h-65zM519 219l-165 417l-164 -417h329z" />
    <glyph glyph-name="B" unicode="B" horiz-adv-x="705" 
d="M591.5 310.5q42.5 -44.5 42.5 -120.5q0 -94 -59.5 -142t-174.5 -48h-289v710h277q101 0 155.5 -47t54.5 -133q0 -62 -33.5 -103.5t-98.5 -59.5q83 -12 125.5 -56.5zM171 662v-275h201q79 0 122.5 35.5t43.5 100.5q0 68 -41.5 103.5t-120.5 35.5h-205zM573 194
q0 145 -190 145h-212v-291h227q175 0 175 146z" />
    <glyph glyph-name="C" unicode="C" horiz-adv-x="611" 
d="M206 34.5q-78 44.5 -120.5 127t-42.5 193.5t42.5 193.5t120.5 127t183 44.5q60 0 115.5 -17t96.5 -49l-24 -43q-38 29 -85.5 44.5t-99.5 15.5q-87 0 -152 -38.5t-100.5 -110t-35.5 -167.5t35.5 -167.5t100.5 -110t152 -38.5q100 0 185 60l24 -43q-43 -32 -98.5 -49
t-113.5 -17q-105 0 -183 44.5z" />
    <glyph glyph-name="D" unicode="D" horiz-adv-x="739" 
d="M512.5 668q89.5 -42 136.5 -121.5t47 -191.5t-47 -191.5t-136.5 -121.5t-214.5 -42h-187v710h187q125 0 214.5 -42zM547 128.5q88 80.5 88 226.5t-88 226.5t-249 80.5h-128v-614h128q161 0 249 80.5z" />
    <glyph glyph-name="E" unicode="E" horiz-adv-x="586" 
d="M550 48v-48h-439v710h429v-48h-369v-285h349v-47h-349v-282h379z" />
    <glyph glyph-name="F" unicode="F" horiz-adv-x="549" 
d="M171 662v-289h332v-48h-332v-325h-60v710h415v-48h-355z" />
    <glyph glyph-name="G" unicode="G" horiz-adv-x="737" 
d="M672 362v-362h-51v78q-38 -42 -98 -65t-135 -23q-102 0 -180.5 46t-121.5 129t-43 191q0 110 44.5 192.5t126 127t190.5 44.5q73 0 138 -19t115 -55l-29 -42q-97 67 -221 67q-93 0 -161.5 -38t-105 -109t-36.5 -168t35.5 -168.5t101.5 -110t155 -38.5q148 0 222 98v179
h-231v46h285z" />
    <glyph glyph-name="H" unicode="H" horiz-adv-x="756" 
d="M645 710v-710h-60v333h-414v-333h-60v710h60v-329h414v329h60z" />
    <glyph glyph-name="I" unicode="I" horiz-adv-x="320" 
d="M130 710h60v-710h-60v710z" />
    <glyph glyph-name="J" unicode="J" horiz-adv-x="475" 
d="M99.5 1.5q-43.5 9.5 -79.5 27.5l18 44q72 -33 136 -33q75 0 106 35.5t31 120.5v514h60v-509q0 -112 -43 -160.5t-142 -48.5q-43 0 -86.5 9.5z" />
    <glyph glyph-name="K" unicode="K" horiz-adv-x="736" 
d="M344 388l-174 -185v-203h-59v710h59v-431l405 431h74l-265 -280l303 -430h-75z" />
    <glyph glyph-name="L" unicode="L" horiz-adv-x="570" 
d="M536 48v-48h-425v710h60v-662h365z" />
    <glyph glyph-name="M" unicode="M" horiz-adv-x="870" 
d="M759 710v-710h-58v600l-246 -463h-40l-246 461v-598h-58v710h56l268 -503l268 503h56z" />
    <glyph glyph-name="N" unicode="N" horiz-adv-x="770" 
d="M659 710v-710h-53l-439 619v-619h-56v710h56l435 -612v612h57z" />
    <glyph glyph-name="O" unicode="O" horiz-adv-x="780" 
d="M210 36.5q-79 46.5 -123 129.5t-44 189t44 189t123 129.5t180 46.5t180 -46.5t123 -129.5t44 -189t-44 -189t-123 -129.5t-180 -46.5t-180 46.5zM538 79.5q65 40.5 101.5 112.5t36.5 163t-36.5 163t-101.5 112.5t-148 40.5t-148 -40.5t-101.5 -112.5t-36.5 -163
t36.5 -163t101.5 -112.5t148 -40.5t148 40.5z" />
    <glyph glyph-name="P" unicode="P" horiz-adv-x="600" 
d="M522 654q64 -56 64 -156t-64.5 -156.5t-178.5 -56.5h-172v-285h-60v710h232q115 0 179 -56zM482 376.5q49 43.5 49 121.5q0 77 -49 120.5t-137 43.5h-174v-329h174q88 0 137 43.5z" />
    <glyph glyph-name="Q" unicode="Q" horiz-adv-x="772" 
d="M597.5 -79q18.5 -18 36.5 -25t46 -7h18v-45h-21q-42 0 -67.5 8t-48.5 29.5t-57 67.5l-36 49q-40 -8 -78 -8q-101 0 -180 46.5t-123 129.5t-44 189t44 189t123 129.5t180 46.5t180 -46.5t123 -129.5t44 -189q0 -122 -57 -212t-156 -129l26 -35q29 -40 47.5 -58zM140.5 192
q36.5 -72 101.5 -112.5t148 -40.5t148 40.5t101.5 112.5t36.5 163t-36.5 163t-101.5 112.5t-148 40.5t-148 -40.5t-101.5 -112.5t-36.5 -163t36.5 -163z" />
    <glyph glyph-name="R" unicode="R" horiz-adv-x="695" 
d="M671 47v-47h-22q-41 0 -65 8.5t-45 31.5t-51 72l-92 149q-22 35 -38 46t-47 11h-140v-318h-60v710h258q104 0 161.5 -51.5t57.5 -143.5q0 -83 -45 -130.5t-133 -57.5q18 -12 43 -53l80 -129q28 -44 44.5 -64t32 -27t40.5 -7h21zM487.5 399.5q45.5 36.5 45.5 112.5
q0 72 -43 111t-123 39h-196v-299h178q93 0 138.5 36.5z" />
    <glyph glyph-name="S" unicode="S" horiz-adv-x="586" 
d="M168.5 6q-66.5 16 -119.5 45l19 47q110 -59 229 -59q91 0 138.5 37.5t47.5 109.5q0 44 -19 69t-53 39.5t-106 35.5q-5 1 -10 3t-12 4q-83 25 -127.5 45t-70 54.5t-25.5 92.5q0 92 63 141.5t181 49.5q111 0 200 -40l-20 -46q-84 37 -177 37q-92 0 -139.5 -35t-47.5 -101
q0 -44 21.5 -69t58.5 -40t118 -40q90 -27 135 -47t68 -53.5t23 -92.5q0 -100 -62.5 -151.5t-179.5 -51.5q-67 0 -133.5 16z" />
    <glyph glyph-name="T" unicode="T" horiz-adv-x="587" 
d="M263 663h-250v47h561v-47h-251v-663h-60v663z" />
    <glyph glyph-name="U" unicode="U" horiz-adv-x="765" 
d="M233 24q-63 34 -97 97t-34 149v440h60v-445q0 -104 59 -165t161 -61q103 0 162 61t59 165v445h60v-440q0 -86 -34 -149t-97.5 -97t-149.5 -34t-149 34z" />
    <glyph glyph-name="V" unicode="V" horiz-adv-x="693" 
d="M655 710l-283 -710h-55l-279 710h62l244 -638l246 638h65z" />
    <glyph glyph-name="W" unicode="W" horiz-adv-x="1025" 
d="M989 710l-219 -710h-60l-197 622l-197 -622h-61l-219 710h62l192 -622l196 622h53l197 -622l191 622h62z" />
    <glyph glyph-name="X" unicode="X" horiz-adv-x="679" 
d="M304 365l-250 345h71l215 -300l214 300h71l-250 -345l265 -365h-71l-229 320l-230 -320h-71z" />
    <glyph glyph-name="Y" unicode="Y" horiz-adv-x="662" 
d="M360 293v-293h-57v291l-264 419h66l226 -365l226 365h66z" />
    <glyph glyph-name="Z" unicode="Z" horiz-adv-x="651" 
d="M589 49v-49h-539v41l449 620h-419v49h496v-43l-447 -618h460z" />
    <glyph glyph-name="bracketleft" unicode="[" horiz-adv-x="377" 
d="M126 810h226v-41h-172v-959h172v-41h-226v1041z" />
    <glyph glyph-name="backslash" unicode="\" horiz-adv-x="530" 
d="M74 740h52l340 -900h-52z" />
    <glyph glyph-name="bracketright" unicode="]" horiz-adv-x="377" 
d="M25 -231v41h172v959h-172v41h226v-1041h-226z" />
    <glyph glyph-name="asciicircum" unicode="^" horiz-adv-x="595" 
d="M490 167l-192 486l-193 -486h-51l219 543h49l219 -543h-51z" />
    <glyph glyph-name="underscore" unicode="_" horiz-adv-x="598" 
d="M-2 -122h602v-36h-602v36z" />
    <glyph glyph-name="grave" unicode="`" horiz-adv-x="600" 
d="M202 744h73l123 -160h-47z" />
    <glyph glyph-name="a" unicode="a" horiz-adv-x="558" 
d="M546 3q-23 -10 -53 -10q-82 0 -82 86v11q-31 -46 -82.5 -72t-114.5 -26q-80 0 -125 40.5t-45 111.5q0 82 90.5 123t276.5 42v49q0 67 -33.5 97t-109.5 30q-85 0 -177 -53l-19 43q46 26 100 40.5t104 14.5q99 0 145 -41t46 -130v-274q0 -47 38 -47q17 0 35 6zM332.5 63
q49.5 27 78.5 74v133q-113 -3 -180.5 -16.5t-99 -39.5t-31.5 -68q0 -51 32.5 -80.5t89.5 -29.5q61 0 110.5 27z" />
    <glyph glyph-name="b" unicode="b" horiz-adv-x="630" 
d="M465 497q55 -33 85.5 -92.5t30.5 -136.5q0 -82 -30 -145t-84.5 -98t-124.5 -35q-60 0 -107.5 25t-75.5 70v-85h-55v710h56v-264q29 41 75 62.5t103 21.5q72 0 127 -33zM430.5 63q44.5 29 69 81.5t24.5 121.5q0 65 -24 115t-68.5 77t-102.5 27q-56 0 -100 -26.5t-69 -73.5
v-253q26 -47 70 -72.5t99 -25.5q57 0 101.5 29z" />
    <glyph glyph-name="c" unicode="c" horiz-adv-x="514" 
d="M170.5 23.5q-58.5 33.5 -91 95t-32.5 141.5t32 141.5t90.5 95t135.5 33.5q48 0 91.5 -13t77.5 -38l-23 -38q-62 44 -144 44q-60 0 -106.5 -28t-72 -79t-25.5 -118q0 -66 26 -117t72.5 -79.5t106.5 -28.5q83 0 144 43l24 -37q-33 -25 -76.5 -38t-93.5 -13
q-77 0 -135.5 33.5z" />
    <glyph glyph-name="d" unicode="d" horiz-adv-x="628" 
d="M526 710v-710h-55v90q-28 -48 -75.5 -74t-108.5 -26q-70 0 -124 34t-84 95.5t-30 141.5q0 79 32 140t89 95t130 34q108 0 170 -67v247h56zM401.5 60q43.5 26 68.5 74v269q-28 40 -70 61t-95 21q-59 0 -104.5 -28t-70.5 -78.5t-25 -115.5q0 -68 24.5 -120t69.5 -80.5
t104 -28.5q55 0 98.5 26z" />
    <glyph glyph-name="e" unicode="e" horiz-adv-x="566" 
d="M530 249h-427q4 -98 60.5 -156.5t148.5 -58.5q96 0 168 58l25 -37q-37 -31 -88.5 -48t-106.5 -17q-79 0 -138.5 33.5t-92 95t-32.5 143.5q0 80 31 141t87.5 94t131.5 33q109 0 171.5 -68t62.5 -187zM478 290q-1 91 -50 143.5t-132 52.5q-81 0 -134.5 -54.5t-58.5 -141.5
h375z" />
    <glyph glyph-name="f" unicode="f" horiz-adv-x="372" 
d="M131 476h-98v44h98v57q0 79 34 116t107 37q59 0 109 -25l-15 -40q-42 21 -82 21q-50 0 -73.5 -26t-23.5 -81v-59h176v-45h-176v-475h-56v476z" />
    <glyph glyph-name="g" unicode="g" horiz-adv-x="628" 
d="M526 520v-511q0 -111 -56 -165t-170 -54q-49 0 -98.5 11t-89.5 30l18 42q38 -18 80.5 -28t82.5 -10q89 0 133 40.5t44 122.5v81q-30 -38 -75 -58.5t-100 -20.5q-72 0 -128 33t-87 92.5t-31 136.5q0 78 31.5 139t88 95t128.5 34q57 0 102 -21.5t73 -61.5v73h54zM400.5 70
q44.5 25 69.5 71v261q-28 40 -70 61.5t-93 21.5q-59 0 -105 -28t-71.5 -78.5t-25.5 -116.5q0 -64 24.5 -113t69 -76.5t101.5 -27.5q56 0 100.5 25z" />
    <glyph glyph-name="h" unicode="h" horiz-adv-x="637" 
d="M489.5 476q49.5 -54 49.5 -159v-317h-56v320q0 80 -39 122.5t-113 42.5q-62 0 -105.5 -30.5t-65.5 -88.5v-366h-56v710h56v-271q58 91 184 91q96 0 145.5 -54z" />
    <glyph glyph-name="i" unicode="i" horiz-adv-x="306" 
d="M121.5 641q-12.5 12 -12.5 30t12.5 30t31.5 12t31.5 -12t12.5 -30t-12.5 -30t-31.5 -12t-31.5 12zM125 520h56v-520h-56v520z" />
    <glyph glyph-name="j" unicode="j" horiz-adv-x="343" 
d="M158.5 641q-12.5 12 -12.5 30t12.5 30t31.5 12t31.5 -12t12.5 -30t-12.5 -30t-31.5 -12t-31.5 12zM-33 -159l13 43q51 -22 91 -22q49 0 70 25t21 82v551h56v-551q0 -79 -33 -115.5t-104 -36.5q-58 0 -114 24z" />
    <glyph glyph-name="k" unicode="k" horiz-adv-x="565" 
d="M278 280l-118 -121v-159h-56v710h56v-482l286 292h67l-197 -202l213 -318h-66z" />
    <glyph glyph-name="l" unicode="l" horiz-adv-x="323" 
d="M138 21q-24 27 -24 89v600h56v-596q0 -41 14 -58t48 -17q23 0 46 7l6 -43q-29 -9 -66 -9q-56 0 -80 27z" />
    <glyph glyph-name="m" unicode="m" horiz-adv-x="971" 
d="M825 477.5q48 -52.5 48 -152.5v-325h-56v328q0 75 -37.5 115.5t-105.5 40.5q-113 0 -159 -114q2 -24 2 -38v-332h-56v328q0 75 -37 115.5t-106 40.5q-57 0 -97.5 -29t-61.5 -86v-369h-56v520h52v-83q54 93 176 93q65 0 109 -28t63 -81q25 53 72 81t111 28q91 0 139 -52.5
z" />
    <glyph glyph-name="n" unicode="n" horiz-adv-x="635" 
d="M487.5 476q49.5 -54 49.5 -159v-317h-56v320q0 80 -39 122.5t-113 42.5q-61 0 -104 -30t-66 -88v-367h-56v520h52v-87q56 97 187 97q96 0 145.5 -54z" />
    <glyph glyph-name="o" unicode="o" horiz-adv-x="611" 
d="M171.5 24.5q-58.5 34.5 -91.5 96t-33 139.5q0 79 33 140t91.5 95.5t133.5 34.5t134 -34.5t92 -95.5t33 -140t-33 -140t-92 -95.5t-134 -34.5t-133.5 34.5zM410.5 63.5q46.5 28.5 72 79.5t25.5 117t-25.5 117t-72 79.5t-105.5 28.5t-105 -28.5t-71.5 -79.5t-25.5 -117
t25.5 -117t71.5 -79.5t105 -28.5t105.5 28.5z" />
    <glyph glyph-name="p" unicode="p" horiz-adv-x="628" 
d="M463.5 497q54.5 -33 85 -93t30.5 -137q0 -82 -30.5 -144.5t-86 -97.5t-127.5 -35q-55 0 -101 20.5t-76 58.5v-259h-55v710h54v-72q30 39 77 60.5t104 21.5q71 0 125.5 -33zM429.5 62q44.5 29 69 82t24.5 122q0 65 -24.5 115.5t-69 78t-101.5 27.5q-56 0 -100.5 -27
t-69.5 -75v-252q26 -47 70 -73.5t99 -26.5q58 0 102.5 29z" />
    <glyph glyph-name="q" unicode="q" horiz-adv-x="628" 
d="M526 520v-710h-56v262q-30 -40 -74.5 -61t-100.5 -21q-72 0 -128 33.5t-87 95t-31 142.5q0 78 31 139.5t87 95.5t128 34q58 0 102.5 -19t74.5 -55v64h54zM400.5 60.5q44.5 27.5 69.5 75.5v266q-59 85 -165 85q-59 0 -104.5 -29t-70.5 -80.5t-25 -116.5q0 -68 24.5 -120
t68.5 -80t102 -28q56 0 100.5 27.5z" />
    <glyph glyph-name="r" unicode="r" horiz-adv-x="405" 
d="M383 526v-49q-20 3 -41 3q-135 0 -184 -149v-331h-55v520h52v-104q58 114 186 114q25 0 42 -4z" />
    <glyph glyph-name="s" unicode="s" horiz-adv-x="524" 
d="M164 2q-52 12 -94 33l16 42q39 -21 85.5 -32t91.5 -11q67 0 102.5 25.5t35.5 74.5q0 33 -15.5 52.5t-40 30t-71.5 24.5l-21 6q-61 19 -93.5 33.5t-53.5 41.5t-21 72q0 66 47.5 101t140.5 35q91 0 160 -30l-14 -42q-72 29 -147 29q-132 0 -132 -91q0 -30 16 -47.5
t42.5 -28t96.5 -33.5q60 -20 91 -34.5t50 -41t19 -72.5q0 -73 -48 -111t-139 -38q-52 0 -104 12z" />
    <glyph glyph-name="t" unicode="t" horiz-adv-x="373" 
d="M150.5 29q-31.5 35 -31.5 114v333h-98v42h45q35 0 46 11.5t11 46.5v66h52v-122h162v-44h-162v-338q0 -52 21.5 -76t66.5 -24q41 0 83 22l14 -40q-50 -26 -109 -26q-69 0 -100.5 35z" />
    <glyph glyph-name="u" unicode="u" horiz-adv-x="634" 
d="M532 520v-520h-53v85q-57 -95 -187 -95q-94 0 -144 53t-50 160v317h55v-320q0 -81 39.5 -122.5t112.5 -41.5q125 0 171 117v367h56z" />
    <glyph glyph-name="v" unicode="v" horiz-adv-x="521" 
d="M490 520l-200 -520h-59l-200 520h58l171 -455l171 455h59z" />
    <glyph glyph-name="w" unicode="w" horiz-adv-x="824" 
d="M787 520l-170 -520h-64l-141 456l-141 -456h-64l-170 520h56l148 -461l143 461h56l144 -461l147 461h56z" />
    <glyph glyph-name="x" unicode="x" horiz-adv-x="529" 
d="M233 266l-191 254h63l160 -212l159 212h63l-192 -254l201 -266h-63l-168 224l-169 -224h-63z" />
    <glyph glyph-name="y" unicode="y" horiz-adv-x="577" 
d="M547 520l-224 -542q-30 -72 -55 -110t-58 -55.5t-84 -17.5q-47 0 -94 12l8 44q46 -11 84 -11q37 0 61 14t42 43.5t42 86.5l5 13l-221 523h59l189 -458l188 458h58z" />
    <glyph glyph-name="z" unicode="z" horiz-adv-x="505" 
d="M466 45v-45h-412v34l320 441h-303v45h375v-37l-318 -438h338z" />
    <glyph glyph-name="braceleft" unicode="{" horiz-adv-x="376" 
d="M195.5 341q-21.5 -37 -67.5 -51q46 -14 67.5 -51t21.5 -103v-173q0 -81 32.5 -118t103.5 -37h13v-38h-13q-102 0 -146 46.5t-44 153.5v178q0 62 -25.5 92t-80.5 31v38q55 1 80.5 31t25.5 92v178q0 107 44 153.5t146 46.5h13v-38h-13q-71 0 -103.5 -37t-32.5 -118v-173
q0 -66 -21.5 -103z" />
    <glyph glyph-name="bar" unicode="|" horiz-adv-x="368" 
d="M159 750h50v-910h-50v910z" />
    <glyph glyph-name="braceright" unicode="}" horiz-adv-x="376" 
d="M238.5 340q25.5 -30 80.5 -31v-38q-55 -1 -80.5 -31t-25.5 -92v-178q0 -107 -44 -153.5t-146 -46.5h-13v38h13q71 0 103.5 37t32.5 118v173q0 66 21.5 103t67.5 51q-46 14 -67.5 51t-21.5 103v173q0 81 -32.5 118t-103.5 37h-13v38h13q102 0 146 -46.5t44 -153.5v-178
q0 -62 25.5 -92z" />
    <glyph glyph-name="asciitilde" unicode="~" horiz-adv-x="522" 
d="M85 323q27 35 73 35q28 0 53 -12t59 -35q30 -21 50.5 -31t40.5 -10q29 0 46.5 22.5t18.5 65.5h38q0 -66 -26.5 -99.5t-72.5 -33.5q-29 0 -54 12t-60 36q-27 20 -47 30t-41 10q-30 0 -48 -23.5t-19 -66.5h-38q0 65 27 100z" />
    <glyph glyph-name="uni00A0" unicode="&#xa0;" horiz-adv-x="280" 
 />
    <glyph glyph-name="exclamdown" unicode="&#xa1;" horiz-adv-x="320" 
d="M193 517.5q13 -12.5 13 -32.5t-13 -33t-33 -13t-33 13t-13 33t13 32.5t33 12.5t33 -12.5zM183 272l13 -460h-70l13 460h44z" />
    <glyph glyph-name="cent" unicode="&#xa2;" horiz-adv-x="509" 
d="M401.5 14q-42.5 -13 -89.5 -14v-94h-34v95q-69 6 -121.5 40.5t-81 91.5t-28.5 130q0 74 28.5 131t80.5 91t122 40v101h34v-100q45 -1 87 -14t75 -36l-23 -37q-61 42 -139 43v-438q80 2 140 43l24 -37q-32 -23 -74.5 -36zM151 115q48 -59 127 -69v434
q-80 -10 -127.5 -68.5t-47.5 -148.5q0 -89 48 -148z" />
    <glyph glyph-name="sterling" unicode="&#xa3;" horiz-adv-x="608" 
d="M552 48v-47h-507v39q154 23 154 128q0 44 -9 79.5t-26 80.5h-98v44h82q-25 70 -25 135q0 102 63 157t176 55q93 0 188 -46l-20 -46q-43 22 -81.5 33t-81.5 11q-83 0 -133 -45t-50 -122q0 -34 7 -63.5t20 -68.5h239v-44h-223q13 -38 20.5 -74t7.5 -78q0 -44 -20.5 -77.5
t-56.5 -50.5h374z" />
    <glyph glyph-name="currency" unicode="&#xa4;" horiz-adv-x="461" 
d="M344 182l43 -42l-25 -24l-44 43q-37 -25 -88 -25q-50 0 -88 25l-44 -43l-24 24l43 41q-32 37 -32 88t31 87l-42 41l24 24l43 -42q37 26 89 26t89 -26l43 42l25 -24l-43 -41q31 -36 31 -87t-31 -87zM151 193q31 -30 79 -30t79 30t31 76t-31 76t-79 30t-79 -30t-31 -76
t31 -76z" />
    <glyph glyph-name="yen" unicode="&#xa5;" horiz-adv-x="688" 
d="M392 337h221v-37h-240v-102h240v-38h-240v-160h-57v160h-243v38h243v102h-243v37h223l-238 373h66l220 -352l220 352h66z" />
    <glyph glyph-name="brokenbar" unicode="&#xa6;" horiz-adv-x="368" 
d="M159 750h50v-360h-50v360zM159 200h50v-360h-50v360z" />
    <glyph glyph-name="section" unicode="&#xa7;" horiz-adv-x="489" 
d="M419.5 172q14.5 -27 14.5 -68q0 -70 -49 -107t-142 -37q-47 0 -98.5 12t-95.5 32l16 43q41 -20 87 -31.5t90 -11.5q67 0 102.5 25t35.5 72q0 31 -12.5 50t-44 34t-91.5 30q-66 16 -103.5 34.5t-54 44t-16.5 62.5q0 41 22.5 70.5t65.5 43.5q-38 20 -55 46.5t-17 65.5
q0 64 47.5 99.5t133.5 35.5q99 0 163 -30l-14 -42q-79 29 -149 29q-62 0 -94 -22t-32 -65q0 -28 12.5 -45.5t43.5 -32t91 -30.5q69 -19 105 -38.5t51 -45t15 -65.5q0 -38 -19.5 -66t-55.5 -45q33 -20 47.5 -47zM126 320q13 -18 47 -32.5t101 -31.5q31 -9 57 -18q62 23 62 83
q0 31 -12.5 50t-45 33.5t-96.5 32.5q-44 13 -47 14q-39 -7 -59 -28.5t-20 -55.5q0 -29 13 -47z" />
    <glyph glyph-name="dieresis" unicode="&#xa8;" horiz-adv-x="600" 
d="M176.5 607q-12.5 12 -12.5 30t12.5 29.5t31.5 11.5t31 -11.5t12 -29.5t-12 -30t-31 -12t-31.5 12zM361 607q-12 12 -12 30t12 29.5t31 11.5t31.5 -11.5t12.5 -29.5t-12.5 -30t-31.5 -12t-31 12z" />
    <glyph glyph-name="copyright" unicode="&#xa9;" horiz-adv-x="791" 
d="M207.5 38q-83.5 47 -130.5 130t-47 187t47 187t130.5 130t188.5 47t188 -47t130 -130t47 -187t-47 -187t-130 -130t-188 -47t-188.5 47zM563 70q74 42 116 116.5t42 168.5t-42 168.5t-116 116.5t-167 42t-167.5 -42.5t-116.5 -117t-42 -167.5t42 -167.5t116.5 -117
t167.5 -42.5t167 42zM274 221.5q-49 49.5 -49 129.5q0 81 48.5 130.5t128.5 49.5q67 0 113 -34l-16 -30q-42 30 -96 30q-61 0 -98.5 -40.5t-37.5 -105.5t38 -105.5t99 -40.5q55 0 96 29l16 -28q-45 -34 -114 -34q-79 0 -128 49.5z" />
    <glyph glyph-name="ordfeminine" unicode="&#xaa;" horiz-adv-x="398" 
d="M386 352q-15 -6 -37 -6q-29 0 -45 13.5t-18 39.5q-23 -26 -55.5 -40.5t-71.5 -14.5q-53 0 -84 27.5t-31 75.5q0 57 59.5 86t182.5 31v26q0 43 -22 63t-69 20q-58 0 -119 -36l-13 36q31 17 68 27t71 10q69 0 100.5 -27t31.5 -87v-187q0 -28 24 -28q16 0 24 4zM236 396
q31 15 50 41v96q-103 -4 -149 -23.5t-46 -58.5q0 -32 20.5 -51t56.5 -19q37 0 68 15z" />
    <glyph glyph-name="guillemotleft" unicode="&#xab;" horiz-adv-x="615" 
d="M118 266l170 180h56l-170 -180l170 -180h-56zM271 266l170 180h56l-170 -180l170 -180h-56z" />
    <glyph glyph-name="logicalnot" unicode="&#xac;" horiz-adv-x="580" 
d="M481 269h-417v44h466v-222h-49v178z" />
    <glyph glyph-name="uni00AD" unicode="&#xad;" horiz-adv-x="472" 
d="M60 311h352v-47h-352v47z" />
    <glyph glyph-name="registered" unicode="&#xae;" horiz-adv-x="459" 
d="M143.5 416.5q-38.5 20.5 -60 57.5t-21.5 83t21.5 83t60 57.5t86.5 20.5t86 -20.5t59.5 -57.5t21.5 -83t-21.5 -83t-59.5 -57.5t-86 -20.5t-86.5 20.5zM331 457.5q40 39.5 40 99.5q0 61 -39.5 100t-101.5 39t-102 -39t-40 -100t40 -100t102 -39q61 0 101 39.5zM177 638h58
q24 0 38 -12t14 -32q0 -18 -11 -29t-29 -13q8 -5 14 -18l11 -20q6 -10 11.5 -14t14.5 -4h5v-19h-5q-18 0 -27.5 5.5t-17.5 20.5l-19 34q-7 12 -21 12h-13v-72h-23v161zM233 566q31 0 31 28q0 27 -31 27h-33v-55h33z" />
    <glyph glyph-name="macron" unicode="&#xaf;" horiz-adv-x="602" 
d="M108 657h386v-41h-386v41z" />
    <glyph glyph-name="degree" unicode="&#xb0;" horiz-adv-x="402" 
d="M92.5 461.5q-43.5 42.5 -43.5 106.5t43 106t109 42t109 -42t43 -106q0 -65 -43 -107t-109 -42q-65 0 -108.5 42.5zM283.5 485q32.5 33 32.5 83t-32.5 82.5t-82.5 32.5q-49 0 -82 -33t-33 -82q0 -50 32.5 -83t82.5 -33t82.5 33z" />
    <glyph glyph-name="plusminus" unicode="&#xb1;" horiz-adv-x="640" 
d="M569 382v-44h-223v-180h-51v180h-224v44h224v180h51v-180h223zM71 72h498v-44h-498v44z" />
    <glyph glyph-name="uni00B2" unicode="&#xb2;" horiz-adv-x="379" 
d="M311 388v-35h-239v24l132 147q31 34 41 53t10 41q0 30 -21 47t-58 17t-85 -28l-16 33q50 32 106 32q55 0 86.5 -26t31.5 -72q0 -29 -11.5 -53t-40.5 -57l-110 -123h174z" />
    <glyph glyph-name="uni00B3" unicode="&#xb3;" horiz-adv-x="382" 
d="M284.5 510q21.5 -24 21.5 -60q0 -46 -34.5 -74t-92.5 -28q-60 0 -109 26l14 34q44 -23 86 -23q39 0 63 19.5t24 51.5q0 33 -25.5 51t-71.5 18h-27v31h27q41 0 63 16.5t22 47.5q0 28 -20.5 45t-55.5 17q-43 0 -81 -28l-16 33q51 32 104 32t84.5 -25t31.5 -68
q0 -31 -18 -53t-50 -31q39 -8 60.5 -32z" />
    <glyph glyph-name="acute" unicode="&#xb4;" horiz-adv-x="600" 
d="M368 744h73l-149 -160h-47z" />
    <glyph glyph-name="uni00B5" unicode="&#xb5;" horiz-adv-x="632" 
d="M533 520v-520h-55v103q-27 -57 -73.5 -84.5t-105.5 -27.5q-48 0 -85.5 18t-58.5 53v-260h-56v718h56v-318q0 -82 37.5 -123.5t108.5 -41.5q61 0 106.5 31t69.5 86v366h56z" />
    <glyph glyph-name="paragraph" unicode="&#xb6;" horiz-adv-x="600" 
d="M263 352q-44 0 -81 23.5t-58 64.5t-21 90q0 83 54.5 131.5t146.5 48.5h142v-810h-51v769h-82v-769h-50v452z" />
    <glyph glyph-name="periodcentered" unicode="&#xb7;" horiz-adv-x="304" 
d="M119 206.5q-13 12.5 -13 32.5t13 33t33 13t33 -13t13 -33t-13 -32.5t-33 -12.5t-33 12.5z" />
    <glyph glyph-name="cedilla" unicode="&#xb8;" horiz-adv-x="600" 
d="M368 -79.5q25 -21.5 25 -59.5q0 -46 -32.5 -71t-93.5 -25q-40 0 -80 13l9 30q33 -11 70 -11q41 0 63.5 16.5t22.5 45.5q0 26 -16 39.5t-47 13.5q-38 0 -59 -24l-23 10l48 102h37l-35 -65q15 7 41 7q45 0 70 -21.5z" />
    <glyph glyph-name="uni00B9" unicode="&#xb9;" horiz-adv-x="343" 
d="M203 710v-357h-47v306l-81 -52l-21 34l106 69h43z" />
    <glyph glyph-name="ordmasculine" unicode="&#xba;" horiz-adv-x="450" 
d="M133.5 367.5q-40.5 23.5 -63.5 66t-23 95.5q0 54 23 96.5t63.5 66.5t91.5 24t91.5 -24t63.5 -66.5t23 -96.5q0 -53 -23 -95.5t-63.5 -66t-91.5 -23.5t-91.5 23.5zM319 423q37 42 37 106q0 65 -36.5 107t-94.5 42t-94.5 -41.5t-36.5 -107.5q0 -65 36.5 -106.5t94.5 -41.5
q57 0 94 42z" />
    <glyph glyph-name="guillemotright" unicode="&#xbb;" horiz-adv-x="615" 
d="M441 266l-170 180h56l170 -180l-170 -180h-56zM288 266l-170 180h56l170 -180l-170 -180h-56z" />
    <glyph glyph-name="onequarter" unicode="&#xbc;" horiz-adv-x="698" 
d="M604 755l-410 -755h-42l410 755h42zM156 659l-81 -52l-21 34l106 69h43v-357h-47v306zM668 102v-32h-44v-70h-44v70h-180v27l174 264h50v-259h44zM580 102v209l-136 -209h136z" />
    <glyph glyph-name="onehalf" unicode="&#xbd;" horiz-adv-x="771" 
d="M203 710v-357h-47v306l-81 -52l-21 34l106 69h43zM548 755h42l-410 -755h-42zM703 35v-35h-239v24l132 147q31 34 41 53t10 41q0 30 -21 47t-58 17t-85 -28l-16 33q50 32 106 32q55 0 86.5 -26t31.5 -72q0 -29 -11.5 -53t-40.5 -57l-110 -123h174z" />
    <glyph glyph-name="threequarters" unicode="&#xbe;" horiz-adv-x="721" 
d="M624 755l-410 -755h-42l410 755h42zM233 404.5q24 19.5 24 51.5q0 33 -25.5 51t-71.5 18h-27v31h27q41 0 63 16.5t22 47.5q0 28 -20.5 45t-55.5 17q-43 0 -81 -28l-16 33q51 32 104 32t84.5 -25t31.5 -68q0 -31 -18 -53t-50 -31q39 -8 60.5 -32t21.5 -60q0 -46 -34.5 -74
t-92.5 -28q-60 0 -109 26l14 34q44 -23 86 -23q39 0 63 19.5zM691 102v-32h-44v-70h-44v70h-180v27l174 264h50v-259h44zM603 102v209l-136 -209h136z" />
    <glyph glyph-name="questiondown" unicode="&#xbf;" horiz-adv-x="442" 
d="M279 517.5q13 -12.5 13 -32.5t-13 -33t-33 -13t-33 13t-13 33t13 32.5t33 12.5t33 -12.5zM269 264q0 -65 -20 -105.5t-71 -79.5q-41 -31 -57.5 -57t-16.5 -59q0 -52 36 -82t98 -30q33 0 71 11.5t76 31.5l18 -42q-41 -23 -85 -35t-84 -12q-87 0 -135.5 40t-48.5 111
q0 42 19.5 75t66.5 70q47 36 64 70t17 93v30h52v-30z" />
    <glyph glyph-name="Agrave" unicode="&#xc0;" horiz-adv-x="711" 
d="M537 172h-366l-68 -172h-62l285 710h58l286 -710h-65zM519 219l-165 417l-164 -417h329zM189 934h73l123 -160h-47z" />
    <glyph glyph-name="Aacute" unicode="&#xc1;" horiz-adv-x="711" 
d="M537 172h-366l-68 -172h-62l285 710h58l286 -710h-65zM519 219l-165 417l-164 -417h329zM465 934h73l-149 -160h-47z" />
    <glyph glyph-name="Acircumflex" unicode="&#xc2;" horiz-adv-x="711" 
d="M537 172h-366l-68 -172h-62l285 710h58l286 -710h-65zM519 219l-165 417l-164 -417h329zM325 924h59l124 -150h-46l-107 117l-107 -117h-47z" />
    <glyph glyph-name="Atilde" unicode="&#xc3;" horiz-adv-x="711" 
d="M537 172h-366l-68 -172h-62l285 710h58l286 -710h-65zM519 219l-165 417l-164 -417h329zM386.5 803q-18.5 8 -41.5 23q-22 14 -35 20t-30 6q-46 0 -49 -55h-37q2 46 24.5 69.5t59.5 23.5q23 0 42 -8.5t42 -23.5q22 -13 35.5 -19.5t29.5 -6.5q23 0 36.5 14.5t16.5 42.5h35
q-2 -45 -24.5 -69.5t-62.5 -24.5q-23 0 -41.5 8z" />
    <glyph glyph-name="Adieresis" unicode="&#xc4;" horiz-adv-x="711" 
d="M537 172h-366l-68 -172h-62l285 710h58l286 -710h-65zM519 219l-165 417l-164 -417h329zM230.5 797q-12.5 12 -12.5 30t12.5 29.5t31.5 11.5t31 -11.5t12 -29.5t-12 -30t-31 -12t-31.5 12zM415 797q-12 12 -12 30t12 29.5t31 11.5t31.5 -11.5t12.5 -29.5t-12.5 -30
t-31.5 -12t-31 12z" />
    <glyph glyph-name="Aring" unicode="&#xc5;" horiz-adv-x="711" 
d="M537 172h-366l-68 -172h-62l285 710h58l286 -710h-65zM519 219l-165 417l-164 -417h329zM287 795q-26 25 -26 64q0 38 26.5 63t66.5 25q41 0 67.5 -25t26.5 -63q0 -39 -26.5 -64t-67.5 -25t-67 25zM397 816.5q17 16.5 17 42.5t-17 42.5t-43 16.5t-43 -16.5t-17 -42.5
t17 -42.5t43 -16.5t43 16.5z" />
    <glyph glyph-name="AE" unicode="&#xc6;" horiz-adv-x="985" 
d="M949 48v-48h-439v166h-308l-111 -166h-67l483 710h432v-48h-369v-285h349v-47h-349v-282h379zM510 212v414l-277 -414h277z" />
    <glyph glyph-name="Ccedilla" unicode="&#xc7;" horiz-adv-x="611" 
d="M505.5 8q-53.5 -17 -110.5 -18l-30 -55q15 7 41 7q45 0 70 -21.5t25 -59.5q0 -46 -32.5 -71t-93.5 -25q-40 0 -80 13l9 30q33 -11 70 -11q41 0 63.5 16.5t22.5 45.5q0 26 -16 39.5t-47 13.5q-38 0 -59 -24l-23 10l44 93q-97 6 -168 52.5t-109.5 126.5t-38.5 185
q0 111 42.5 193.5t120.5 127t183 44.5q60 0 115.5 -17t96.5 -49l-24 -43q-38 29 -85.5 44.5t-99.5 15.5q-87 0 -152 -38.5t-100.5 -110t-35.5 -167.5t35.5 -167.5t100.5 -110t152 -38.5q100 0 185 60l24 -43q-42 -31 -95.5 -48z" />
    <glyph glyph-name="Egrave" unicode="&#xc8;" horiz-adv-x="586" 
d="M550 48v-48h-439v710h429v-48h-369v-285h349v-47h-349v-282h379zM154 934h73l123 -160h-47z" />
    <glyph glyph-name="Eacute" unicode="&#xc9;" horiz-adv-x="586" 
d="M550 48v-48h-439v710h429v-48h-369v-285h349v-47h-349v-282h379zM430 934h73l-149 -160h-47z" />
    <glyph glyph-name="Ecircumflex" unicode="&#xca;" horiz-adv-x="586" 
d="M550 48v-48h-439v710h429v-48h-369v-285h349v-47h-349v-282h379zM290 924h59l124 -150h-46l-107 117l-107 -117h-47z" />
    <glyph glyph-name="Edieresis" unicode="&#xcb;" horiz-adv-x="586" 
d="M550 48v-48h-439v710h429v-48h-369v-285h349v-47h-349v-282h379zM195.5 797q-12.5 12 -12.5 30t12.5 29.5t31.5 11.5t31 -11.5t12 -29.5t-12 -30t-31 -12t-31.5 12zM380 797q-12 12 -12 30t12 29.5t31 11.5t31.5 -11.5t12.5 -29.5t-12.5 -30t-31.5 -12t-31 12z" />
    <glyph glyph-name="Igrave" unicode="&#xcc;" horiz-adv-x="320" 
d="M130 710h60v-710h-60v710zM-6 934h73l123 -160h-47z" />
    <glyph glyph-name="Iacute" unicode="&#xcd;" horiz-adv-x="320" 
d="M130 710h60v-710h-60v710zM270 934h73l-149 -160h-47z" />
    <glyph glyph-name="Icircumflex" unicode="&#xce;" horiz-adv-x="320" 
d="M130 710h60v-710h-60v710zM130 924h59l124 -150h-46l-107 117l-107 -117h-47z" />
    <glyph glyph-name="Idieresis" unicode="&#xcf;" horiz-adv-x="320" 
d="M130 710h60v-710h-60v710zM35.5 797q-12.5 12 -12.5 30t12.5 29.5t31.5 11.5t31 -11.5t12 -29.5t-12 -30t-31 -12t-31.5 12zM220 797q-12 12 -12 30t12 29.5t31 11.5t31.5 -11.5t12.5 -29.5t-12.5 -30t-31.5 -12t-31 12z" />
    <glyph glyph-name="Eth" unicode="&#xd0;" horiz-adv-x="740" 
d="M513.5 668q89.5 -42 136.5 -121.5t47 -191.5t-47 -191.5t-136.5 -121.5t-214.5 -42h-187v334h-85v47h85v329h187q125 0 214.5 -42zM548 128.5q88 80.5 88 226.5t-88 226.5t-249 80.5h-128v-281h224v-47h-224v-286h128q161 0 249 80.5z" />
    <glyph glyph-name="Ntilde" unicode="&#xd1;" horiz-adv-x="770" 
d="M659 710v-710h-53l-439 619v-619h-56v710h56l435 -612v612h57zM416.5 803q-18.5 8 -41.5 23q-22 14 -35 20t-30 6q-46 0 -49 -55h-37q2 46 24.5 69.5t59.5 23.5q23 0 42 -8.5t42 -23.5q22 -13 35.5 -19.5t29.5 -6.5q23 0 36.5 14.5t16.5 42.5h35q-2 -45 -24.5 -69.5
t-62.5 -24.5q-23 0 -41.5 8z" />
    <glyph glyph-name="Ograve" unicode="&#xd2;" horiz-adv-x="780" 
d="M210 36.5q-79 46.5 -123 129.5t-44 189t44 189t123 129.5t180 46.5t180 -46.5t123 -129.5t44 -189t-44 -189t-123 -129.5t-180 -46.5t-180 46.5zM538 79.5q65 40.5 101.5 112.5t36.5 163t-36.5 163t-101.5 112.5t-148 40.5t-148 -40.5t-101.5 -112.5t-36.5 -163
t36.5 -163t101.5 -112.5t148 -40.5t148 40.5zM224 934h73l123 -160h-47z" />
    <glyph glyph-name="Oacute" unicode="&#xd3;" horiz-adv-x="780" 
d="M210 36.5q-79 46.5 -123 129.5t-44 189t44 189t123 129.5t180 46.5t180 -46.5t123 -129.5t44 -189t-44 -189t-123 -129.5t-180 -46.5t-180 46.5zM538 79.5q65 40.5 101.5 112.5t36.5 163t-36.5 163t-101.5 112.5t-148 40.5t-148 -40.5t-101.5 -112.5t-36.5 -163
t36.5 -163t101.5 -112.5t148 -40.5t148 40.5zM500 934h73l-149 -160h-47z" />
    <glyph glyph-name="Ocircumflex" unicode="&#xd4;" horiz-adv-x="780" 
d="M210 36.5q-79 46.5 -123 129.5t-44 189t44 189t123 129.5t180 46.5t180 -46.5t123 -129.5t44 -189t-44 -189t-123 -129.5t-180 -46.5t-180 46.5zM538 79.5q65 40.5 101.5 112.5t36.5 163t-36.5 163t-101.5 112.5t-148 40.5t-148 -40.5t-101.5 -112.5t-36.5 -163
t36.5 -163t101.5 -112.5t148 -40.5t148 40.5zM360 924h59l124 -150h-46l-107 117l-107 -117h-47z" />
    <glyph glyph-name="Otilde" unicode="&#xd5;" horiz-adv-x="780" 
d="M210 36.5q-79 46.5 -123 129.5t-44 189t44 189t123 129.5t180 46.5t180 -46.5t123 -129.5t44 -189t-44 -189t-123 -129.5t-180 -46.5t-180 46.5zM538 79.5q65 40.5 101.5 112.5t36.5 163t-36.5 163t-101.5 112.5t-148 40.5t-148 -40.5t-101.5 -112.5t-36.5 -163
t36.5 -163t101.5 -112.5t148 -40.5t148 40.5zM421.5 803q-18.5 8 -41.5 23q-22 14 -35 20t-30 6q-46 0 -49 -55h-37q2 46 24.5 69.5t59.5 23.5q23 0 42 -8.5t42 -23.5q22 -13 35.5 -19.5t29.5 -6.5q23 0 36.5 14.5t16.5 42.5h35q-2 -45 -24.5 -69.5t-62.5 -24.5
q-23 0 -41.5 8z" />
    <glyph glyph-name="Odieresis" unicode="&#xd6;" horiz-adv-x="780" 
d="M210 36.5q-79 46.5 -123 129.5t-44 189t44 189t123 129.5t180 46.5t180 -46.5t123 -129.5t44 -189t-44 -189t-123 -129.5t-180 -46.5t-180 46.5zM538 79.5q65 40.5 101.5 112.5t36.5 163t-36.5 163t-101.5 112.5t-148 40.5t-148 -40.5t-101.5 -112.5t-36.5 -163
t36.5 -163t101.5 -112.5t148 -40.5t148 40.5zM265.5 797q-12.5 12 -12.5 30t12.5 29.5t31.5 11.5t31 -11.5t12 -29.5t-12 -30t-31 -12t-31.5 12zM450 797q-12 12 -12 30t12 29.5t31 11.5t31.5 -11.5t12.5 -29.5t-12.5 -30t-31.5 -12t-31 12z" />
    <glyph glyph-name="multiply" unicode="&#xd7;" horiz-adv-x="640" 
d="M474 70l-154 154l-151 -151l-36 36l151 151l-154 154l37 36l154 -153l151 151l36 -36l-151 -151l153 -154z" />
    <glyph glyph-name="Oslash" unicode="&#xd8;" horiz-adv-x="780" 
d="M711 504.5q26 -68.5 26 -149.5q0 -106 -44 -189t-123 -129.5t-180 -46.5q-129 0 -221 75l-63 -75l-31 26l64 77q-46 49 -71 116t-25 146q0 106 44 189t123 129.5t180 46.5q63 0 118 -18.5t98 -52.5l62 73l31 -26l-62 -74q48 -49 74 -117.5zM123 234.5q19 -55.5 53 -97.5
l395 470q-75 64 -181 64q-83 0 -148 -40.5t-101.5 -112.5t-36.5 -163q0 -65 19 -120.5zM538 79.5q65 40.5 101.5 112.5t36.5 163q0 67 -19.5 123.5t-56.5 99.5l-396 -471q37 -33 84.5 -50.5t101.5 -17.5q83 0 148 40.5z" />
    <glyph glyph-name="Ugrave" unicode="&#xd9;" horiz-adv-x="765" 
d="M233 24q-63 34 -97 97t-34 149v440h60v-445q0 -104 59 -165t161 -61q103 0 162 61t59 165v445h60v-440q0 -86 -34 -149t-97.5 -97t-149.5 -34t-149 34zM217 934h73l123 -160h-47z" />
    <glyph glyph-name="Uacute" unicode="&#xda;" horiz-adv-x="765" 
d="M233 24q-63 34 -97 97t-34 149v440h60v-445q0 -104 59 -165t161 -61q103 0 162 61t59 165v445h60v-440q0 -86 -34 -149t-97.5 -97t-149.5 -34t-149 34zM493 934h73l-149 -160h-47z" />
    <glyph glyph-name="Ucircumflex" unicode="&#xdb;" horiz-adv-x="765" 
d="M233 24q-63 34 -97 97t-34 149v440h60v-445q0 -104 59 -165t161 -61q103 0 162 61t59 165v445h60v-440q0 -86 -34 -149t-97.5 -97t-149.5 -34t-149 34zM353 924h59l124 -150h-46l-107 117l-107 -117h-47z" />
    <glyph glyph-name="Udieresis" unicode="&#xdc;" horiz-adv-x="765" 
d="M233 24q-63 34 -97 97t-34 149v440h60v-445q0 -104 59 -165t161 -61q103 0 162 61t59 165v445h60v-440q0 -86 -34 -149t-97.5 -97t-149.5 -34t-149 34zM258.5 797q-12.5 12 -12.5 30t12.5 29.5t31.5 11.5t31 -11.5t12 -29.5t-12 -30t-31 -12t-31.5 12zM443 797
q-12 12 -12 30t12 29.5t31 11.5t31.5 -11.5t12.5 -29.5t-12.5 -30t-31.5 -12t-31 12z" />
    <glyph glyph-name="Yacute" unicode="&#xdd;" horiz-adv-x="662" 
d="M360 293v-293h-57v291l-264 419h66l226 -365l226 365h66zM441 934h73l-149 -160h-47z" />
    <glyph glyph-name="Thorn" unicode="&#xde;" horiz-adv-x="587" 
d="M508.5 531q64.5 -56 64.5 -154t-64.5 -154t-178.5 -56h-159v-167h-60v710h60v-123h159q114 0 178.5 -56zM468 258q49 43 49 119t-49 119t-136 43h-161v-324h161q87 0 136 43z" />
    <glyph glyph-name="germandbls" unicode="&#xdf;" horiz-adv-x="659" 
d="M345 1.5q-46 10.5 -83 28.5l16 42q83 -37 152 -37q59 0 89.5 26.5t30.5 77.5q0 31 -12.5 50t-33.5 31t-64 29q-8 3 -48.5 19t-60 40t-19.5 58q0 28 11.5 46t28.5 29t50 27q27 13 42 23t25.5 27.5t10.5 44.5q0 53 -40 82.5t-110 29.5q-78 0 -116 -34.5t-47 -76t-9 -89.5
v-475h-56v471q0 125 56.5 186.5t171.5 61.5q95 0 150 -41.5t55 -114.5q0 -34 -12 -56t-29 -33.5t-46 -26.5q-48 -24 -63.5 -39t-15.5 -40q0 -20 8 -31t23.5 -19t53.5 -23l24 -9q45 -18 70.5 -34t41 -42.5t15.5 -68.5q0 -72 -44.5 -111t-126.5 -39q-43 0 -89 10.5z" />
    <glyph glyph-name="agrave" unicode="&#xe0;" horiz-adv-x="558" 
d="M546 3q-23 -10 -53 -10q-82 0 -82 86v11q-31 -46 -82.5 -72t-114.5 -26q-80 0 -125 40.5t-45 111.5q0 82 90.5 123t276.5 42v49q0 67 -33.5 97t-109.5 30q-85 0 -177 -53l-19 43q46 26 100 40.5t104 14.5q99 0 145 -41t46 -130v-274q0 -47 38 -47q17 0 35 6zM332.5 63
q49.5 27 78.5 74v133q-113 -3 -180.5 -16.5t-99 -39.5t-31.5 -68q0 -51 32.5 -80.5t89.5 -29.5q61 0 110.5 27zM106 744h73l123 -160h-47z" />
    <glyph glyph-name="aacute" unicode="&#xe1;" horiz-adv-x="558" 
d="M546 3q-23 -10 -53 -10q-82 0 -82 86v11q-31 -46 -82.5 -72t-114.5 -26q-80 0 -125 40.5t-45 111.5q0 82 90.5 123t276.5 42v49q0 67 -33.5 97t-109.5 30q-85 0 -177 -53l-19 43q46 26 100 40.5t104 14.5q99 0 145 -41t46 -130v-274q0 -47 38 -47q17 0 35 6zM332.5 63
q49.5 27 78.5 74v133q-113 -3 -180.5 -16.5t-99 -39.5t-31.5 -68q0 -51 32.5 -80.5t89.5 -29.5q61 0 110.5 27zM382 744h73l-149 -160h-47z" />
    <glyph glyph-name="acircumflex" unicode="&#xe2;" horiz-adv-x="558" 
d="M546 3q-23 -10 -53 -10q-82 0 -82 86v11q-31 -46 -82.5 -72t-114.5 -26q-80 0 -125 40.5t-45 111.5q0 82 90.5 123t276.5 42v49q0 67 -33.5 97t-109.5 30q-85 0 -177 -53l-19 43q46 26 100 40.5t104 14.5q99 0 145 -41t46 -130v-274q0 -47 38 -47q17 0 35 6zM332.5 63
q49.5 27 78.5 74v133q-113 -3 -180.5 -16.5t-99 -39.5t-31.5 -68q0 -51 32.5 -80.5t89.5 -29.5q61 0 110.5 27zM242 734h59l124 -150h-46l-107 117l-107 -117h-47z" />
    <glyph glyph-name="atilde" unicode="&#xe3;" horiz-adv-x="558" 
d="M546 3q-23 -10 -53 -10q-82 0 -82 86v11q-31 -46 -82.5 -72t-114.5 -26q-80 0 -125 40.5t-45 111.5q0 82 90.5 123t276.5 42v49q0 67 -33.5 97t-109.5 30q-85 0 -177 -53l-19 43q46 26 100 40.5t104 14.5q99 0 145 -41t46 -130v-274q0 -47 38 -47q17 0 35 6zM332.5 63
q49.5 27 78.5 74v133q-113 -3 -180.5 -16.5t-99 -39.5t-31.5 -68q0 -51 32.5 -80.5t89.5 -29.5q61 0 110.5 27zM303.5 613q-18.5 8 -41.5 23q-22 14 -35 20t-30 6q-46 0 -49 -55h-37q2 46 24.5 69.5t59.5 23.5q23 0 42 -8.5t42 -23.5q22 -13 35.5 -19.5t29.5 -6.5
q23 0 36.5 14.5t16.5 42.5h35q-2 -45 -24.5 -69.5t-62.5 -24.5q-23 0 -41.5 8z" />
    <glyph glyph-name="adieresis" unicode="&#xe4;" horiz-adv-x="558" 
d="M546 3q-23 -10 -53 -10q-82 0 -82 86v11q-31 -46 -82.5 -72t-114.5 -26q-80 0 -125 40.5t-45 111.5q0 82 90.5 123t276.5 42v49q0 67 -33.5 97t-109.5 30q-85 0 -177 -53l-19 43q46 26 100 40.5t104 14.5q99 0 145 -41t46 -130v-274q0 -47 38 -47q17 0 35 6zM332.5 63
q49.5 27 78.5 74v133q-113 -3 -180.5 -16.5t-99 -39.5t-31.5 -68q0 -51 32.5 -80.5t89.5 -29.5q61 0 110.5 27zM147.5 607q-12.5 12 -12.5 30t12.5 29.5t31.5 11.5t31 -11.5t12 -29.5t-12 -30t-31 -12t-31.5 12zM332 607q-12 12 -12 30t12 29.5t31 11.5t31.5 -11.5
t12.5 -29.5t-12.5 -30t-31.5 -12t-31 12z" />
    <glyph glyph-name="aring" unicode="&#xe5;" horiz-adv-x="558" 
d="M546 3q-23 -10 -53 -10q-82 0 -82 86v11q-31 -46 -82.5 -72t-114.5 -26q-80 0 -125 40.5t-45 111.5q0 82 90.5 123t276.5 42v49q0 67 -33.5 97t-109.5 30q-85 0 -177 -53l-19 43q46 26 100 40.5t104 14.5q99 0 145 -41t46 -130v-274q0 -47 38 -47q17 0 35 6zM332.5 63
q49.5 27 78.5 74v133q-113 -3 -180.5 -16.5t-99 -39.5t-31.5 -68q0 -51 32.5 -80.5t89.5 -29.5q61 0 110.5 27zM204 605q-26 25 -26 64q0 38 26.5 63t66.5 25q41 0 67.5 -25t26.5 -63q0 -39 -26.5 -64t-67.5 -25t-67 25zM314 626.5q17 16.5 17 42.5t-17 42.5t-43 16.5
t-43 -16.5t-17 -42.5t17 -42.5t43 -16.5t43 16.5z" />
    <glyph glyph-name="ae" unicode="&#xe6;" horiz-adv-x="923" 
d="M886 260h-415q0 -69 25.5 -119.5t71.5 -78t106 -27.5q41 0 83.5 14t79.5 44l25 -37q-34 -29 -83.5 -47t-106.5 -18q-75 0 -132.5 33t-88.5 93q-32 -61 -94 -93t-142 -32q-85 0 -128 41t-43 103q0 63 46.5 98t127 49.5t200.5 18.5v55q0 65 -35.5 96t-110.5 31
q-91 0 -181 -53l-19 43q42 25 96 40t112 15q76 0 120.5 -26t59.5 -80q31 51 82.5 78.5t118.5 27.5q68 0 119.5 -30t79.5 -85t28 -128q0 -11 -2 -26zM834 301q0 53 -22 95t-62 65.5t-90 23.5q-77 0 -129 -50.5t-59 -133.5h362zM339 65q55 29 79 82v116q-125 -5 -194 -19.5
t-96.5 -39t-27.5 -64.5q0 -47 31.5 -75.5t92.5 -28.5q60 0 115 29z" />
    <glyph glyph-name="ccedilla" unicode="&#xe7;" horiz-adv-x="514" 
d="M391 -79.5q25 -21.5 25 -59.5q0 -46 -32.5 -71t-93.5 -25q-40 0 -80 13l9 30q33 -11 70 -11q41 0 63.5 16.5t22.5 45.5q0 26 -16 39.5t-47 13.5q-38 0 -59 -24l-23 10l44 94q-68 6 -119.5 41.5t-79.5 93.5t-28 133q0 80 32 141.5t90.5 95t135.5 33.5q48 0 91.5 -13
t77.5 -38l-23 -38q-62 44 -144 44q-60 0 -106.5 -28t-72 -79t-25.5 -118q0 -66 26 -117t72.5 -79.5t106.5 -28.5q83 0 144 43l24 -37q-32 -24 -75 -37t-91 -14l-30 -55q15 7 41 7q45 0 70 -21.5z" />
    <glyph glyph-name="egrave" unicode="&#xe8;" horiz-adv-x="566" 
d="M530 249h-427q4 -98 60.5 -156.5t148.5 -58.5q96 0 168 58l25 -37q-37 -31 -88.5 -48t-106.5 -17q-79 0 -138.5 33.5t-92 95t-32.5 143.5q0 80 31 141t87.5 94t131.5 33q109 0 171.5 -68t62.5 -187zM478 290q-1 91 -50 143.5t-132 52.5q-81 0 -134.5 -54.5t-58.5 -141.5
h375zM130 744h73l123 -160h-47z" />
    <glyph glyph-name="eacute" unicode="&#xe9;" horiz-adv-x="566" 
d="M530 249h-427q4 -98 60.5 -156.5t148.5 -58.5q96 0 168 58l25 -37q-37 -31 -88.5 -48t-106.5 -17q-79 0 -138.5 33.5t-92 95t-32.5 143.5q0 80 31 141t87.5 94t131.5 33q109 0 171.5 -68t62.5 -187zM478 290q-1 91 -50 143.5t-132 52.5q-81 0 -134.5 -54.5t-58.5 -141.5
h375zM406 744h73l-149 -160h-47z" />
    <glyph glyph-name="ecircumflex" unicode="&#xea;" horiz-adv-x="566" 
d="M530 249h-427q4 -98 60.5 -156.5t148.5 -58.5q96 0 168 58l25 -37q-37 -31 -88.5 -48t-106.5 -17q-79 0 -138.5 33.5t-92 95t-32.5 143.5q0 80 31 141t87.5 94t131.5 33q109 0 171.5 -68t62.5 -187zM478 290q-1 91 -50 143.5t-132 52.5q-81 0 -134.5 -54.5t-58.5 -141.5
h375zM266 734h59l124 -150h-46l-107 117l-107 -117h-47z" />
    <glyph glyph-name="edieresis" unicode="&#xeb;" horiz-adv-x="566" 
d="M530 249h-427q4 -98 60.5 -156.5t148.5 -58.5q96 0 168 58l25 -37q-37 -31 -88.5 -48t-106.5 -17q-79 0 -138.5 33.5t-92 95t-32.5 143.5q0 80 31 141t87.5 94t131.5 33q109 0 171.5 -68t62.5 -187zM478 290q-1 91 -50 143.5t-132 52.5q-81 0 -134.5 -54.5t-58.5 -141.5
h375zM171.5 607q-12.5 12 -12.5 30t12.5 29.5t31.5 11.5t31 -11.5t12 -29.5t-12 -30t-31 -12t-31.5 12zM356 607q-12 12 -12 30t12 29.5t31 11.5t31.5 -11.5t12.5 -29.5t-12.5 -30t-31.5 -12t-31 12z" />
    <glyph glyph-name="igrave" unicode="&#xec;" horiz-adv-x="306" 
d="M125 520h56v-520h-56v520zM-13 744h73l123 -160h-47z" />
    <glyph glyph-name="iacute" unicode="&#xed;" horiz-adv-x="306" 
d="M125 520h56v-520h-56v520zM263 744h73l-149 -160h-47z" />
    <glyph glyph-name="icircumflex" unicode="&#xee;" horiz-adv-x="306" 
d="M125 520h56v-520h-56v520zM123 734h59l124 -150h-46l-107 117l-107 -117h-47z" />
    <glyph glyph-name="idieresis" unicode="&#xef;" horiz-adv-x="306" 
d="M125 520h56v-520h-56v520zM28.5 607q-12.5 12 -12.5 30t12.5 29.5t31.5 11.5t31 -11.5t12 -29.5t-12 -30t-31 -12t-31.5 12zM213 607q-12 12 -12 30t12 29.5t31 11.5t31.5 -11.5t12.5 -29.5t-12.5 -30t-31.5 -12t-31 12z" />
    <glyph glyph-name="eth" unicode="&#xf0;" horiz-adv-x="597" 
d="M550 260q0 -79 -32 -140.5t-89 -95t-130 -33.5t-130.5 34.5t-89.5 95t-32 136.5q0 77 31 136.5t87 93t129 33.5q96 0 157 -64q-30 74 -90 159l-174 -46l-8 31l162 43q-26 35 -62 78l42 28q38 -47 71 -92l113 30l9 -31l-103 -27q139 -205 139 -369zM400 64q44 28 68.5 78
t24.5 115t-24.5 115.5t-68.5 78.5t-101 28t-101.5 -28t-69.5 -78.5t-25 -115.5t25 -115t69.5 -78t101.5 -28t101 28z" />
    <glyph glyph-name="ntilde" unicode="&#xf1;" horiz-adv-x="635" 
d="M487.5 476q49.5 -54 49.5 -159v-317h-56v320q0 80 -39 122.5t-113 42.5q-61 0 -104 -30t-66 -88v-367h-56v520h52v-87q56 97 187 97q96 0 145.5 -54zM349.5 613q-18.5 8 -41.5 23q-22 14 -35 20t-30 6q-46 0 -49 -55h-37q2 46 24.5 69.5t59.5 23.5q23 0 42 -8.5t42 -23.5
q22 -13 35.5 -19.5t29.5 -6.5q23 0 36.5 14.5t16.5 42.5h35q-2 -45 -24.5 -69.5t-62.5 -24.5q-23 0 -41.5 8z" />
    <glyph glyph-name="ograve" unicode="&#xf2;" horiz-adv-x="611" 
d="M171.5 24.5q-58.5 34.5 -91.5 96t-33 139.5q0 79 33 140t91.5 95.5t133.5 34.5t134 -34.5t92 -95.5t33 -140t-33 -140t-92 -95.5t-134 -34.5t-133.5 34.5zM410.5 63.5q46.5 28.5 72 79.5t25.5 117t-25.5 117t-72 79.5t-105.5 28.5t-105 -28.5t-71.5 -79.5t-25.5 -117
t25.5 -117t71.5 -79.5t105 -28.5t105.5 28.5zM139 744h73l123 -160h-47z" />
    <glyph glyph-name="oacute" unicode="&#xf3;" horiz-adv-x="611" 
d="M171.5 24.5q-58.5 34.5 -91.5 96t-33 139.5q0 79 33 140t91.5 95.5t133.5 34.5t134 -34.5t92 -95.5t33 -140t-33 -140t-92 -95.5t-134 -34.5t-133.5 34.5zM410.5 63.5q46.5 28.5 72 79.5t25.5 117t-25.5 117t-72 79.5t-105.5 28.5t-105 -28.5t-71.5 -79.5t-25.5 -117
t25.5 -117t71.5 -79.5t105 -28.5t105.5 28.5zM415 744h73l-149 -160h-47z" />
    <glyph glyph-name="ocircumflex" unicode="&#xf4;" horiz-adv-x="611" 
d="M171.5 24.5q-58.5 34.5 -91.5 96t-33 139.5q0 79 33 140t91.5 95.5t133.5 34.5t134 -34.5t92 -95.5t33 -140t-33 -140t-92 -95.5t-134 -34.5t-133.5 34.5zM410.5 63.5q46.5 28.5 72 79.5t25.5 117t-25.5 117t-72 79.5t-105.5 28.5t-105 -28.5t-71.5 -79.5t-25.5 -117
t25.5 -117t71.5 -79.5t105 -28.5t105.5 28.5zM275 734h59l124 -150h-46l-107 117l-107 -117h-47z" />
    <glyph glyph-name="otilde" unicode="&#xf5;" horiz-adv-x="611" 
d="M171.5 24.5q-58.5 34.5 -91.5 96t-33 139.5q0 79 33 140t91.5 95.5t133.5 34.5t134 -34.5t92 -95.5t33 -140t-33 -140t-92 -95.5t-134 -34.5t-133.5 34.5zM410.5 63.5q46.5 28.5 72 79.5t25.5 117t-25.5 117t-72 79.5t-105.5 28.5t-105 -28.5t-71.5 -79.5t-25.5 -117
t25.5 -117t71.5 -79.5t105 -28.5t105.5 28.5zM336.5 613q-18.5 8 -41.5 23q-22 14 -35 20t-30 6q-46 0 -49 -55h-37q2 46 24.5 69.5t59.5 23.5q23 0 42 -8.5t42 -23.5q22 -13 35.5 -19.5t29.5 -6.5q23 0 36.5 14.5t16.5 42.5h35q-2 -45 -24.5 -69.5t-62.5 -24.5
q-23 0 -41.5 8z" />
    <glyph glyph-name="odieresis" unicode="&#xf6;" horiz-adv-x="611" 
d="M171.5 24.5q-58.5 34.5 -91.5 96t-33 139.5q0 79 33 140t91.5 95.5t133.5 34.5t134 -34.5t92 -95.5t33 -140t-33 -140t-92 -95.5t-134 -34.5t-133.5 34.5zM410.5 63.5q46.5 28.5 72 79.5t25.5 117t-25.5 117t-72 79.5t-105.5 28.5t-105 -28.5t-71.5 -79.5t-25.5 -117
t25.5 -117t71.5 -79.5t105 -28.5t105.5 28.5zM180.5 607q-12.5 12 -12.5 30t12.5 29.5t31.5 11.5t31 -11.5t12 -29.5t-12 -30t-31 -12t-31.5 12zM365 607q-12 12 -12 30t12 29.5t31 11.5t31.5 -11.5t12.5 -29.5t-12.5 -30t-31.5 -12t-31 12z" />
    <glyph glyph-name="divide" unicode="&#xf7;" horiz-adv-x="640" 
d="M288 407.5q-13 12.5 -13 31.5t13 31.5t32 12.5t32 -12.5t13 -31.5t-13 -31.5t-32 -12.5t-32 12.5zM71 282h498v-44h-498v44zM288 54q-13 13 -13 32t13 31.5t32 12.5t32 -12.5t13 -31.5t-12.5 -32t-32.5 -13q-19 0 -32 13z" />
    <glyph glyph-name="oslash" unicode="&#xf8;" horiz-adv-x="611" 
d="M543.5 372q20.5 -51 20.5 -112q0 -79 -33 -140t-92 -95.5t-134 -34.5q-96 0 -166 57l-56 -67l-26 22l58 69q-33 36 -50.5 84.5t-17.5 104.5q0 79 33 140t91.5 95.5t133.5 34.5q90 0 155 -48l61 73l25 -23l-60 -72q37 -37 57.5 -88zM148 111l280 333q-52 41 -123 41
q-59 0 -105 -28.5t-71.5 -79.5t-25.5 -117q0 -90 45 -149zM410.5 63.5q46.5 28.5 72 79.5t25.5 117q0 98 -55 161l-282 -336q55 -50 134 -50q59 0 105.5 28.5z" />
    <glyph glyph-name="ugrave" unicode="&#xf9;" horiz-adv-x="634" 
d="M532 520v-520h-53v85q-57 -95 -187 -95q-94 0 -144 53t-50 160v317h55v-320q0 -81 39.5 -122.5t112.5 -41.5q125 0 171 117v367h56zM151 744h73l123 -160h-47z" />
    <glyph glyph-name="uacute" unicode="&#xfa;" horiz-adv-x="634" 
d="M532 520v-520h-53v85q-57 -95 -187 -95q-94 0 -144 53t-50 160v317h55v-320q0 -81 39.5 -122.5t112.5 -41.5q125 0 171 117v367h56zM427 744h73l-149 -160h-47z" />
    <glyph glyph-name="ucircumflex" unicode="&#xfb;" horiz-adv-x="634" 
d="M532 520v-520h-53v85q-57 -95 -187 -95q-94 0 -144 53t-50 160v317h55v-320q0 -81 39.5 -122.5t112.5 -41.5q125 0 171 117v367h56zM287 734h59l124 -150h-46l-107 117l-107 -117h-47z" />
    <glyph glyph-name="udieresis" unicode="&#xfc;" horiz-adv-x="634" 
d="M532 520v-520h-53v85q-57 -95 -187 -95q-94 0 -144 53t-50 160v317h55v-320q0 -81 39.5 -122.5t112.5 -41.5q125 0 171 117v367h56zM192.5 607q-12.5 12 -12.5 30t12.5 29.5t31.5 11.5t31 -11.5t12 -29.5t-12 -30t-31 -12t-31.5 12zM377 607q-12 12 -12 30t12 29.5
t31 11.5t31.5 -11.5t12.5 -29.5t-12.5 -30t-31.5 -12t-31 12z" />
    <glyph glyph-name="yacute" unicode="&#xfd;" horiz-adv-x="577" 
d="M547 520l-224 -542q-30 -72 -55 -110t-58 -55.5t-84 -17.5q-47 0 -94 12l8 44q46 -11 84 -11q37 0 61 14t42 43.5t42 86.5l5 13l-221 523h59l189 -458l188 458h58zM405 744h73l-149 -160h-47z" />
    <glyph glyph-name="thorn" unicode="&#xfe;" horiz-adv-x="628" 
d="M463.5 496q54.5 -33 85 -92.5t30.5 -136.5q0 -81 -30.5 -143.5t-86 -97.5t-127.5 -35q-55 0 -101 20.5t-76 58.5v-260h-55v900h55v-272q29 44 75.5 67.5t104.5 23.5q71 0 125.5 -33zM428.5 63q44.5 29 69.5 82t25 121q0 65 -24.5 115t-69 77.5t-101.5 27.5
q-56 0 -100.5 -27t-69.5 -75v-250q26 -47 70 -73.5t99 -26.5q57 0 101.5 29z" />
    <glyph glyph-name="ydieresis" unicode="&#xff;" horiz-adv-x="577" 
d="M547 520l-224 -542q-30 -72 -55 -110t-58 -55.5t-84 -17.5q-47 0 -94 12l8 44q46 -11 84 -11q37 0 61 14t42 43.5t42 86.5l5 13l-221 523h59l189 -458l188 458h58zM170.5 607q-12.5 12 -12.5 30t12.5 29.5t31.5 11.5t31 -11.5t12 -29.5t-12 -30t-31 -12t-31.5 12z
M355 607q-12 12 -12 30t12 29.5t31 11.5t31.5 -11.5t12.5 -29.5t-12.5 -30t-31.5 -12t-31 12z" />
    <glyph glyph-name="dotlessi" unicode="&#x131;" horiz-adv-x="306" 
d="M125 520h56v-520h-56v520z" />
    <glyph glyph-name="Lslash" unicode="&#x141;" horiz-adv-x="585" 
d="M551 48v-48h-425v311l-106 -50v48l106 50v351h60v-322l256 121v-48l-256 -121v-292h365z" />
    <glyph glyph-name="lslash" unicode="&#x142;" horiz-adv-x="337" 
d="M170 337v-223q0 -41 14 -58t48 -17q23 0 46 7l6 -43q-29 -9 -66 -9q-56 0 -80 27t-24 89v193l-94 -58v44l94 58v363h56v-329l142 88v-44z" />
    <glyph glyph-name="OE" unicode="&#x152;" horiz-adv-x="996" 
d="M960 48v-48h-519q-130 0 -219 43.5t-134 123.5t-45 188t45 188t134 123.5t219 43.5h509v-48h-369v-285h349v-47h-349v-282h379zM521 48v614h-80q-165 0 -251 -82.5t-86 -224.5t86 -224.5t251 -82.5h80z" />
    <glyph glyph-name="oe" unicode="&#x153;" horiz-adv-x="1021" 
d="M985 249h-427q4 -98 61 -156.5t149 -58.5q47 0 90 15t77 43l26 -37q-37 -31 -88 -48t-106 -17q-85 0 -146 41t-88 114q-28 -72 -88.5 -113.5t-141.5 -41.5q-73 0 -131.5 34.5t-91.5 96.5t-33 139q0 78 32.5 139t91 95.5t132.5 34.5q80 0 140.5 -40.5t88.5 -111.5
q26 72 84 112t138 40q107 0 169.5 -68.5t62.5 -185.5zM933 290q0 90 -49 142.5t-133 52.5q-53 0 -96 -24.5t-68.5 -69t-28.5 -101.5h375zM410 63.5q46 28.5 71.5 80t25.5 116.5t-25.5 116t-71.5 79.5t-105 28.5t-105 -28.5t-71.5 -79.5t-25.5 -116t25.5 -116.5t71.5 -80
t105 -28.5t105 28.5z" />
    <glyph glyph-name="Scaron" unicode="&#x160;" horiz-adv-x="586" 
d="M168.5 6q-66.5 16 -119.5 45l19 47q110 -59 229 -59q91 0 138.5 37.5t47.5 109.5q0 44 -19 69t-53 39.5t-106 35.5q-5 1 -10 3t-12 4q-83 25 -127.5 45t-70 54.5t-25.5 92.5q0 92 63 141.5t181 49.5q111 0 200 -40l-20 -46q-84 37 -177 37q-92 0 -139.5 -35t-47.5 -101
q0 -44 21.5 -69t58.5 -40t118 -40q90 -27 135 -47t68 -53.5t23 -92.5q0 -100 -62.5 -151.5t-179.5 -51.5q-67 0 -133.5 16zM139 924h47l107 -116l107 116h46l-124 -150h-59z" />
    <glyph glyph-name="scaron" unicode="&#x161;" horiz-adv-x="524" 
d="M164 2q-52 12 -94 33l16 42q39 -21 85.5 -32t91.5 -11q67 0 102.5 25.5t35.5 74.5q0 33 -15.5 52.5t-40 30t-71.5 24.5l-21 6q-61 19 -93.5 33.5t-53.5 41.5t-21 72q0 66 47.5 101t140.5 35q91 0 160 -30l-14 -42q-72 29 -147 29q-132 0 -132 -91q0 -30 16 -47.5
t42.5 -28t96.5 -33.5q60 -20 91 -34.5t50 -41t19 -72.5q0 -73 -48 -111t-139 -38q-52 0 -104 12zM108 734h47l107 -116l107 116h46l-124 -150h-59z" />
    <glyph glyph-name="Ydieresis" unicode="&#x178;" horiz-adv-x="662" 
d="M360 293v-293h-57v291l-264 419h66l226 -365l226 365h66zM206.5 797q-12.5 12 -12.5 30t12.5 29.5t31.5 11.5t31 -11.5t12 -29.5t-12 -30t-31 -12t-31.5 12zM391 797q-12 12 -12 30t12 29.5t31 11.5t31.5 -11.5t12.5 -29.5t-12.5 -30t-31.5 -12t-31 12z" />
    <glyph glyph-name="Zcaron" unicode="&#x17d;" horiz-adv-x="651" 
d="M589 49v-49h-539v41l449 620h-419v49h496v-43l-447 -618h460zM171 924h47l107 -116l107 116h46l-124 -150h-59z" />
    <glyph glyph-name="zcaron" unicode="&#x17e;" horiz-adv-x="505" 
d="M466 45v-45h-412v34l320 441h-303v45h375v-37l-318 -438h338zM99 734h47l107 -116l107 116h46l-124 -150h-59z" />
    <glyph glyph-name="florin" unicode="&#x192;" horiz-adv-x="458" 
d="M287 658.5q-29 -27.5 -38 -85.5l-25 -150h187v-44h-194l-61 -363q-13 -81 -53 -117.5t-114 -36.5q-44 0 -92 21l14 43q37 -18 74 -18q49 0 77 26t38 81l60 364h-125v44h133l24 147q13 81 55.5 120.5t114.5 39.5q58 0 101 -26l-20 -39q-34 21 -76 21q-51 0 -80 -27.5z" />
    <glyph glyph-name="circumflex" unicode="&#x2c6;" horiz-adv-x="601" 
d="M271 734h59l124 -150h-46l-107 117l-107 -117h-47z" />
    <glyph glyph-name="caron" unicode="&#x2c7;" horiz-adv-x="601" 
d="M147 734h47l107 -116l107 116h46l-124 -150h-59z" />
    <glyph glyph-name="breve" unicode="&#x2d8;" horiz-adv-x="599" 
d="M199 618q-38 37 -42 101h40q4 -48 31 -74t71 -26t71.5 26t31.5 74h40q-5 -64 -43 -101t-100 -37t-100 37z" />
    <glyph glyph-name="dotaccent" unicode="&#x2d9;" horiz-adv-x="600" 
d="M269 607q-12 12 -12 30t12 29.5t31 11.5t31.5 -11.5t12.5 -29.5t-12.5 -30t-31.5 -12t-31 12z" />
    <glyph glyph-name="ring" unicode="&#x2da;" horiz-adv-x="600" 
d="M233 605q-26 25 -26 64q0 38 26.5 63t66.5 25q41 0 67.5 -25t26.5 -63q0 -39 -26.5 -64t-67.5 -25t-67 25zM343 626.5q17 16.5 17 42.5t-17 42.5t-43 16.5t-43 -16.5t-17 -42.5t17 -42.5t43 -16.5t43 16.5z" />
    <glyph glyph-name="ogonek" unicode="&#x2db;" horiz-adv-x="600" 
d="M243.5 -150.5q-24.5 17.5 -24.5 48.5q0 60 88 109h32q-37 -25 -55.5 -48t-18.5 -47q0 -21 15 -33t46 -12q29 0 56 8l8 -31q-33 -12 -74 -12q-48 0 -72.5 17.5z" />
    <glyph glyph-name="tilde" unicode="&#x2dc;" horiz-adv-x="600" 
d="M328.5 613q-18.5 8 -41.5 23q-22 14 -35 20t-30 6q-46 0 -49 -55h-37q2 46 24.5 69.5t59.5 23.5q23 0 42 -8.5t42 -23.5q22 -13 35.5 -19.5t29.5 -6.5q23 0 36.5 14.5t16.5 42.5h35q-2 -45 -24.5 -69.5t-62.5 -24.5q-23 0 -41.5 8z" />
    <glyph glyph-name="hungarumlaut" unicode="&#x2dd;" horiz-adv-x="581" 
d="M245 744h63l-143 -160h-44zM396 744h64l-150 -160h-45z" />
    <glyph glyph-name="uni0394" unicode="&#x394;" horiz-adv-x="722" 
d="M327 710h68l287 -710h-642zM602 46l-242 601l-242 -601h484z" />
    <glyph glyph-name="uni03A9" unicode="&#x3a9;" horiz-adv-x="836" 
d="M793 47v-47h-325v41q66 23 116.5 74.5t78 122t27.5 151.5q0 85 -33.5 148.5t-95.5 98.5t-143 35q-82 0 -143.5 -35t-95.5 -98.5t-34 -148.5q0 -80 28 -151t78.5 -122.5t116.5 -74.5v-41h-325v47h234q-87 46 -139.5 139t-52.5 205q0 98 41.5 172.5t116.5 115t175 40.5
q99 0 174.5 -40.5t116.5 -115t41 -172.5q0 -111 -52 -204.5t-139 -139.5h234z" />
    <glyph glyph-name="uni03BC" unicode="&#x3bc;" horiz-adv-x="632" 
d="M533 520v-520h-55v103q-27 -57 -73.5 -84.5t-105.5 -27.5q-48 0 -85.5 18t-58.5 53v-260h-56v718h56v-318q0 -82 37.5 -123.5t108.5 -41.5q61 0 106.5 31t69.5 86v366h56z" />
    <glyph glyph-name="pi" unicode="&#x3c0;" horiz-adv-x="701" 
d="M497.5 18.5q-20.5 24.5 -20.5 82.5v375h-259v-476h-56v476h-105v44h584v-44h-108v-372q0 -34 11 -49.5t35 -15.5q19 0 35 7l6 -42q-23 -10 -55 -10q-47 0 -67.5 24.5z" />
    <glyph glyph-name="uni0E01" unicode="&#xe01;" horiz-adv-x="646" 
d="M490 492.5q60 -57.5 60 -163.5v-329h-56v329q0 85 -46.5 130t-132.5 45q-85 0 -132 -40.5t-48 -115.5h154v-37h-60q-36 -19 -52 -52t-16 -84v-175h-56v163q0 51 16.5 88.5t48.5 59.5h-88v17q0 108 61 165t176 57q111 0 171 -57.5z" />
    <glyph glyph-name="uni0E02" unicode="&#xe02;" horiz-adv-x="608" 
d="M172.5 39.5q-51.5 49.5 -51.5 139.5v146q0 63 19.5 104.5t61.5 66.5h-119v44h189v-32q-95 -39 -95 -177v-150q0 -71 36 -108t105 -37q67 0 102 36.5t35 106.5v361h56v-361q0 -89 -51 -139t-143 -50q-93 0 -144.5 49.5z" />
    <glyph glyph-name="uni0E03" unicode="&#xe03;" horiz-adv-x="595" 
d="M498 540v-361q0 -90 -51.5 -139.5t-144.5 -49.5q-94 0 -145 49.5t-51 139.5v96q0 34 7 54.5t29 52.5l42 63q-19 -11 -46 -11q-34 0 -52.5 21t-18.5 60v25h49v-25q0 -41 40 -41q15 0 27.5 5t25.5 17q1 3 9 44h39v-31q0 -25 -7 -42t-36 -61q-25 -40 -35.5 -59t-13.5 -34
t-3 -40v-92q0 -70 36.5 -107.5t104.5 -37.5q67 0 103 37t36 106v361h56z" />
    <glyph glyph-name="uni0E04" unicode="&#xe04;" horiz-adv-x="655" 
d="M497.5 494q61.5 -56 61.5 -157v-337h-56v336q0 79 -47 123.5t-131 44.5q-83 0 -129 -44.5t-46 -123.5v-142q28 52 76.5 77.5t119.5 25.5h18v-47h-18q-83 0 -128.5 -32t-67.5 -107v-111h-56v337q0 101 60.5 157t170.5 56q111 0 172.5 -56z" />
    <glyph glyph-name="uni0E05" unicode="&#xe05;" horiz-adv-x="655" 
d="M525 485q34 -43 34 -118v-367h-56v356q0 56 -21.5 89t-65.5 47l-85 -61h-9l-85 61q-44 -12 -65.5 -45.5t-21.5 -90.5v-164q55 104 196 104h18v-47h-18q-83 0 -128.5 -32t-67.5 -107v-110h-56v367q0 75 34 118.5t105 59.5l93 -69l94 69q71 -17 105 -60z" />
    <glyph glyph-name="uni0E06" unicode="&#xe06;" horiz-adv-x="662" 
d="M566 540v-344q0 -100 -49.5 -153t-142.5 -53q-69 0 -120 26.5t-82 76.5v-93h-55v275q0 33 7 53.5t30 53.5l42 63q-19 -11 -46 -11q-34 0 -52.5 21t-18.5 60v25h48v-25q0 -19 11 -30t30 -11q15 0 27.5 5t25.5 17q1 3 9 44h39v-31q0 -25 -7 -42t-36 -61q-26 -40 -36.5 -59
t-13.5 -34t-3 -40v-110q24 -59 73.5 -92.5t114.5 -33.5q72 0 110.5 42t38.5 121v340h56z" />
    <glyph glyph-name="uni0E07" unicode="&#xe07;" horiz-adv-x="573" 
d="M205 0l-177 540h57l166 -497q62 1 110.5 33t75.5 87.5t27 125.5q0 96 -48 153.5t-128 57.5q-30 0 -58 -7l-7 44q32 8 68 8q108 0 169 -67.5t61 -187.5q0 -88 -35 -154t-100 -102t-151 -36z" />
    <glyph glyph-name="uni0E08" unicode="&#xe08;" horiz-adv-x="564" 
d="M435 480q65 -70 65 -198q0 -85 -30 -150.5t-84 -102.5t-123 -37q-19 0 -51 5l-65 239h-67v40h111l67 -240h2q52 0 94 31.5t65.5 87.5t23.5 125q0 106 -51 164.5t-143 58.5q-48 0 -98 -15.5t-88 -42.5l-23 42q40 30 96 46.5t116 16.5q118 0 183 -70z" />
    <glyph glyph-name="uni0E09" unicode="&#xe09;" horiz-adv-x="629" 
d="M475.5 500q57.5 -50 57.5 -154v-346h-55v91q-32 -48 -83.5 -74.5t-114.5 -26.5q-79 0 -119.5 43t-40.5 126v84h-54v39h109v-117q0 -65 29.5 -96.5t91.5 -31.5q56 0 104 30.5t77 83.5v189q0 84 -43.5 123.5t-137.5 39.5q-109 0 -199 -59l-25 42q46 31 105.5 47.5
t122.5 16.5q118 0 175.5 -50z" />
    <glyph glyph-name="uni0E0A" unicode="&#xe0a;" horiz-adv-x="597" 
d="M489.5 348.5q34.5 -36.5 34.5 -111.5v-42q0 -205 -212 -205q-215 0 -215 203v347h56v-344q0 -161 159 -161q156 0 156 161v41q0 67 -29 94.5t-99 27.5h-58v41h14q31 0 50.5 12.5t43.5 48.5q26 38 41.5 54t32.5 22t46 6h12v-44h-12q-25 0 -38.5 -11t-39.5 -50
q-26 -38 -53 -50q76 -3 110.5 -39.5z" />
    <glyph glyph-name="uni0E0B" unicode="&#xe0b;" horiz-adv-x="606" 
d="M395 388q73 -3 105.5 -39t32.5 -112v-42q0 -205 -212 -205q-215 0 -215 203v82q0 34 7 54.5t29 52.5l42 63q-19 -11 -46 -11q-34 0 -52.5 21t-18.5 60v25h49v-25q0 -51 40 -51q27 0 49 18q5 14 13 58h39v-31q0 -25 -7 -42t-36 -61q-26 -41 -36 -59.5t-13 -33t-3 -39.5
v-78q0 -161 159 -161q156 0 156 161v41q0 69 -26.5 95.5t-95.5 26.5h-48v41h14q25 0 43.5 13.5t41.5 47.5q26 37 42 53.5t32.5 22.5t45.5 6h12v-44h-12q-25 0 -39 -11t-39 -50q-26 -38 -53 -50z" />
    <glyph glyph-name="uni0E0C" unicode="&#xe0c;" horiz-adv-x="991" 
d="M895 540v-354q0 -95 -46.5 -145.5t-134.5 -50.5q-65 0 -114 31t-77 90v-111h-54v343q0 77 -44 119t-126 42q-80 0 -124.5 -40.5t-45.5 -115.5h156v-37h-53q-44 -28 -69.5 -72.5t-25.5 -93.5q0 -52 26 -81t73 -29q36 0 68 16l13 -37q-19 -10 -43.5 -16t-48.5 -6
q-67 0 -105.5 38t-38.5 104q0 50 26 97.5t70 79.5h-101v17q0 107 58.5 164.5t168.5 57.5q107 0 164.5 -54t57.5 -154v-170q23 -63 70 -99t108 -36q65 0 100.5 40t35.5 113v350h56z" />
    <glyph glyph-name="uni0E0D" unicode="&#xe0d;" horiz-adv-x="988" 
d="M890 540v-502q0 -117 -56 -172t-175 -55q-43 0 -91.5 10.5t-82.5 28.5l17 44q31 -17 73.5 -27.5t79.5 -10.5q92 0 135.5 43t43.5 133v69q-30 -50 -78 -75.5t-111 -25.5q-85 0 -130 47.5t-45 137.5v159q0 78 -44.5 119t-124.5 41q-79 0 -124 -40t-46 -116h154v-37h-52
q-42 -27 -69 -70t-27 -96q0 -49 25 -79.5t74 -30.5q36 0 68 16l13 -37q-41 -22 -92 -22q-70 0 -107 39.5t-37 102.5q0 56 26.5 101.5t68.5 75.5h-100v18q0 106 59 163.5t171 57.5q105 0 162.5 -52t57.5 -151v-154q0 -72 33.5 -109t96.5 -37q61 0 108.5 34.5t69.5 95.5v363
h56z" />
    <glyph glyph-name="uni0E0E" unicode="&#xe0e;" horiz-adv-x="651" 
d="M493 493.5q62 -56.5 62 -164.5v-508l-38 -23q-10 -7 -17 -7q-4 0 -24 13.5t-51 28.5q-66 32 -117 32q-45 0 -67 -18t-22 -50v-7h-56v8q0 50 34 80.5t98 30.5q55 0 112.5 -22t91.5 -51v493q0 86 -47 130.5t-135 44.5q-82 0 -130.5 -40.5t-49.5 -115.5h155v-37h-64
q-24 -15 -33.5 -44t-9.5 -76v-117q0 -41 -17.5 -61t-57.5 -20q-34 0 -65 13l11 37q20 -7 38 -7t26.5 10.5t8.5 34.5v105q0 90 45 125h-90v17q0 106 60.5 164t174.5 58q112 0 174 -56.5z" />
    <glyph glyph-name="uni0E0F" unicode="&#xe0f;" horiz-adv-x="651" 
d="M493 493.5q62 -56.5 62 -164.5v-460l-111 -65q-25 -15 -41 -15q-10 0 -21 4.5t-36 19.5q-8 5 -28 17t-26.5 14.5t-12.5 2.5q-8 0 -17 -4.5t-37 -22.5q-30 -19 -44.5 -24.5t-40.5 -5.5h-29v48h26q23 0 36 5t41 22q31 18 44 23.5t23 5.5q9 0 22 -6t42 -24
q22 -14 34.5 -20.5t20.5 -6.5t17 4.5t22 13.5l60 35v439q0 86 -47 130.5t-135 44.5q-82 0 -130.5 -40.5t-49.5 -115.5h155v-37h-64q-24 -15 -33.5 -44t-9.5 -76v-117q0 -41 -17.5 -61t-57.5 -20q-34 0 -65 13l11 37q20 -7 38 -7t26.5 10.5t8.5 34.5v105q0 90 45 125h-90v17
q0 106 60.5 164t174.5 58q112 0 174 -56.5z" />
    <glyph glyph-name="uni0E10" unicode="&#xe10;" horiz-adv-x="610" 
d="M576 570v-46l-24 1q-38 0 -65.5 -9.5t-47.5 -29.5q71 -71 71 -204q0 -85 -30 -150.5t-84 -102.5t-123 -37q-19 0 -51 5l-65 239h-67v40h111l67 -240h2q52 0 94 31.5t65.5 87.5t23.5 125q0 106 -51 164.5t-143 58.5q-48 0 -98 -15.5t-88 -42.5l-23 42q40 30 96 46.5
t116 16.5q86 0 147 -39q27 31 65 45t90 14h12zM511 -102l27 -39l-97 -56q-27 -16 -41 -16q-9 0 -18.5 4.5t-38.5 20.5q-38 23 -48.5 28t-18.5 5q-7 0 -16 -4.5t-38 -21.5q-31 -20 -45.5 -25t-39.5 -5h-29v48h26q24 0 37 4.5t40 21.5q32 18 45 24t22 6q10 0 23.5 -6.5
t40.5 -23.5q25 -16 36.5 -21.5t18.5 -5.5q6 0 14.5 4t24.5 14z" />
    <glyph glyph-name="uni0E11" unicode="&#xe11;" horiz-adv-x="670" 
d="M535.5 505q38.5 -40 38.5 -123v-382h-56v379q0 60 -29.5 89.5t-90.5 29.5q-44 0 -83 -22t-79 -68q-41 -50 -52.5 -74t-11.5 -59v-275h-56v275q0 38 12 64.5t54 78.5q22 26 27 37q-25 -21 -63 -21q-33 0 -51.5 20.5t-18.5 60.5v25h47v-25q0 -22 11 -31.5t29 -9.5
q17 0 30 5.5t26 17.5q3 17 6 43h34v-61v-5q30 34 70.5 52.5t88.5 18.5q79 0 117.5 -40z" />
    <glyph glyph-name="uni0E12" unicode="&#xe12;" horiz-adv-x="1015" 
d="M919 540v-348q0 -98 -46.5 -150t-135.5 -52q-63 0 -111.5 25.5t-78.5 74.5v-90h-54v366q0 102 -84 126l-79 -53h-8l-80 54q-56 -14 -86 -70.5t-30 -147.5q0 -115 46.5 -176t134.5 -61q25 0 59 9l10 -41q-31 -13 -80 -13q-110 0 -168 72.5t-58 208.5q0 116 43 185t127 85
l85 -60l87 60q70 -16 103.5 -57t33.5 -112v-204q23 -62 70.5 -98t107.5 -36q65 0 100.5 41.5t35.5 117.5v344h56z" />
    <glyph glyph-name="uni0E13" unicode="&#xe13;" horiz-adv-x="991" 
d="M890 540v-540h-55v99q-30 -53 -79.5 -81t-114.5 -28q-84 0 -127.5 49t-43.5 143v162q0 77 -44 118.5t-125 41.5q-80 0 -124.5 -41t-46.5 -115h155v-37h-52q-45 -29 -70.5 -73t-25.5 -93q0 -52 26 -81t73 -29q34 0 68 16l13 -37q-19 -10 -43.5 -16t-48.5 -6
q-67 0 -105.5 38t-38.5 104q0 52 25.5 99t69.5 78h-100v18q0 107 59 164t171 57q106 0 163 -52.5t57 -150.5v-157q0 -74 33.5 -113.5t96.5 -39.5q60 0 107.5 36t70.5 98v369h56z" />
    <glyph glyph-name="uni0E14" unicode="&#xe14;" horiz-adv-x="652" 
d="M126 64q-56 71 -56 203q0 133 68.5 208t189.5 75q107 0 167.5 -57.5t60.5 -159.5v-333h-56v329q0 85 -44.5 129.5t-127.5 44.5q-95 0 -148.5 -62.5t-53.5 -172.5q0 -111 44 -170.5t127 -59.5q27 0 59 8l10 -40q-31 -13 -80 -13q-104 0 -160 71z" />
    <glyph glyph-name="uni0E15" unicode="&#xe15;" horiz-adv-x="658" 
d="M128.5 65q-58.5 72 -58.5 209q0 117 43.5 185t126.5 85l92 -67l94 67q70 -16 103 -57t33 -112v-375h-56v366q0 103 -83 126l-86 -59h-8l-87 60q-54 -14 -85 -69.5t-31 -148.5q0 -119 48 -178t133 -59q25 0 59 9l10 -41q-31 -13 -80 -13q-109 0 -167.5 72z" />
    <glyph glyph-name="uni0E16" unicode="&#xe16;" horiz-adv-x="641" 
d="M484 493.5q61 -56.5 61 -164.5v-329h-56v329q0 86 -47 130.5t-134 44.5q-82 0 -130 -40.5t-49 -115.5h155v-37h-51q-42 -26 -69 -69.5t-27 -96.5q0 -50 25.5 -80t73.5 -30q38 0 68 16l13 -37q-41 -22 -92 -22q-71 0 -107.5 40t-36.5 102q0 60 27.5 104.5t68.5 72.5h-101
v17q0 106 60.5 164t174.5 58q112 0 173 -56.5z" />
    <glyph glyph-name="uni0E17" unicode="&#xe17;" horiz-adv-x="652" 
d="M506 498q50 -52 50 -153v-345h-56v340q0 79 -38.5 121t-109.5 42q-68 0 -119.5 -34.5t-74.5 -96.5v-372h-56v540h55v-105q30 59 83 87t124 28q92 0 142 -52z" />
    <glyph glyph-name="uni0E18" unicode="&#xe18;" horiz-adv-x="576" 
d="M420 305.5q47 -23.5 67 -58t20 -86.5q0 -80 -51 -125.5t-153 -45.5q-55 0 -110 12t-99 34v201h55v-173q74 -28 150 -28q77 0 114.5 34t37.5 91q0 41 -17.5 67.5t-57 44.5t-108.5 32l-188 37v40q0 86 50 127t151 41q56 0 114.5 -12t101.5 -34l-18 -44q-46 23 -98 33.5
t-100 10.5q-74 0 -109.5 -28t-35.5 -85v-14l154 -31q83 -17 130 -40.5z" />
    <glyph glyph-name="uni0E19" unicode="&#xe19;" horiz-adv-x="649" 
d="M548 540v-540h-55v96q-31 -54 -83.5 -80t-120.5 -26q-92 0 -142 52t-50 154v344h56v-340q0 -80 38.5 -121.5t110.5 -41.5q67 0 117.5 35.5t72.5 98.5v369h56z" />
    <glyph glyph-name="uni0E1A" unicode="&#xe1a;" horiz-adv-x="651" 
d="M157.5 46q-60.5 56 -60.5 154v340h56v-337q0 -78 45.5 -122.5t125.5 -44.5q82 0 128 44.5t46 122.5v337h56v-340q0 -98 -61.5 -154t-168.5 -56q-106 0 -166.5 56z" />
    <glyph glyph-name="uni0E1B" unicode="&#xe1b;" horiz-adv-x="651" 
d="M554 710v-510q0 -98 -61.5 -154t-168.5 -56q-106 0 -166.5 56t-60.5 154v340h56v-337q0 -78 45.5 -122.5t125.5 -44.5q82 0 128 44.5t46 122.5v507h56z" />
    <glyph glyph-name="uni0E1C" unicode="&#xe1c;" horiz-adv-x="667" 
d="M98 419q0 65 31 95t92 30q35 0 73 -11l-12 -42q-27 9 -50 9q-41 0 -60 -21t-19 -73v-335l166 206h25l166 -206v469h55v-540h-53l-181 219l-181 -219h-52v419z" />
    <glyph glyph-name="uni0E1D" unicode="&#xe1d;" horiz-adv-x="667" 
d="M98 419q0 65 31 95t92 30q35 0 73 -11l-12 -42q-27 9 -50 9q-41 0 -60 -21t-19 -73v-335l166 206h25l166 -206v639h55v-710h-53l-181 219l-181 -219h-52v419z" />
    <glyph glyph-name="uni0E1E" unicode="&#xe1e;" horiz-adv-x="735" 
d="M48 540h55l101 -471l137 471h53l138 -471l100 471h55l-116 -540h-65l-138 467l-140 -467h-64z" />
    <glyph glyph-name="uni0E1F" unicode="&#xe1f;" horiz-adv-x="729" 
d="M48 540h55l101 -471l137 471h53l138 -471l114 641h55l-129 -710h-66l-138 467l-140 -467h-64z" />
    <glyph glyph-name="uni0E20" unicode="&#xe20;" horiz-adv-x="651" 
d="M493 493.5q62 -56.5 62 -164.5v-329h-56v329q0 86 -47 130.5t-135 44.5q-82 0 -130.5 -40.5t-49.5 -115.5h155v-37h-64q-24 -15 -33.5 -44t-9.5 -76v-117q0 -41 -17.5 -61t-57.5 -20q-34 0 -65 13l11 37q20 -7 38 -7t26.5 10.5t8.5 34.5v105q0 90 45 125h-90v17
q0 106 60.5 164t174.5 58q112 0 174 -56.5z" />
    <glyph glyph-name="uni0E21" unicode="&#xe21;" horiz-adv-x="649" 
d="M553 540v-344q0 -102 -50.5 -154t-141.5 -52q-68 0 -120.5 26t-83.5 80v-96h-55v540h56v-372q23 -62 73 -96.5t116 -34.5q72 0 111 41.5t39 121.5v340h56z" />
    <glyph glyph-name="uni0E22" unicode="&#xe22;" horiz-adv-x="628" 
d="M132 35q-57 45 -57 122q0 56 29.5 90.5t78.5 43.5q-48 10 -78 41t-30 81q0 61 44 97.5t124 36.5q38 0 71 -11l-7 -41q-22 8 -55 8q-57 0 -89 -26t-32 -69q0 -42 33 -68.5t93 -26.5h54v-43h-50q-66 0 -98 -29t-32 -77q0 -62 43 -95.5t126 -33.5q93 0 134 38t41 124v343h56
v-343q0 -109 -55 -158t-176 -49q-111 0 -168 45z" />
    <glyph glyph-name="uni0E23" unicode="&#xe23;" horiz-adv-x="536" 
d="M163.5 1.5q-53.5 11.5 -95.5 33.5l15 46q87 -45 185 -45q74 0 108 27.5t34 73.5q0 36 -17 57.5t-48 34.5t-87 28q-59 16 -94.5 32t-58 44.5t-22.5 75.5q0 67 49 104t143 37q96 0 168 -31l-14 -44q-72 29 -154 29q-67 0 -101.5 -23.5t-34.5 -68.5q0 -34 20.5 -55t50 -32
t91.5 -28q60 -17 94.5 -35t53 -47t18.5 -76q0 -70 -48.5 -109.5t-148.5 -39.5q-53 0 -106.5 11.5z" />
    <glyph glyph-name="uni0E24" unicode="&#xe24;" horiz-adv-x="641" 
d="M484 493.5q61 -56.5 61 -164.5v-539h-56v539q0 86 -47 130.5t-134 44.5q-82 0 -130 -40.5t-49 -115.5h155v-37h-51q-42 -26 -69 -69.5t-27 -96.5q0 -50 25.5 -80t73.5 -30q38 0 68 16l13 -37q-41 -22 -92 -22q-71 0 -107.5 40t-36.5 102q0 60 27.5 104.5t68.5 72.5h-101
v17q0 106 60.5 164t174.5 58q112 0 173 -56.5z" />
    <glyph glyph-name="uni0E25" unicode="&#xe25;" horiz-adv-x="608" 
d="M460 506.5q52 -43.5 52 -135.5v-371h-56v269l-40 1q-159 0 -226.5 -32t-67.5 -91q0 -50 33 -81t92 -31q47 0 89 17l10 -40q-46 -20 -105 -20q-88 0 -131.5 43t-43.5 111q0 86 87 126t258 40q11 0 45 -2v56q0 75 -39 106.5t-121 31.5q-100 0 -191 -56l-21 42
q42 25 100 42.5t117 17.5q107 0 159 -43.5z" />
    <glyph glyph-name="uni0E26" unicode="&#xe26;" horiz-adv-x="651" 
d="M493 493.5q62 -56.5 62 -164.5v-539h-56v539q0 86 -47 130.5t-135 44.5q-82 0 -130.5 -40.5t-49.5 -115.5h155v-37h-64q-24 -15 -33.5 -44t-9.5 -76v-117q0 -41 -17.5 -61t-57.5 -20q-34 0 -65 13l11 37q20 -7 38 -7t26.5 10.5t8.5 34.5v105q0 90 45 125h-90v17
q0 106 60.5 164t174.5 58q112 0 174 -56.5z" />
    <glyph glyph-name="uni0E27" unicode="&#xe27;" horiz-adv-x="507" 
d="M121 3q-46 13 -80 35l20 41q33 -21 72.5 -32.5t79.5 -11.5q91 0 141.5 64.5t50.5 172.5t-50 170.5t-142 62.5q-40 0 -79 -11.5t-72 -32.5l-20 42q34 21 80 34t95 13q116 0 180.5 -75t64.5 -203q0 -129 -64.5 -205.5t-180.5 -76.5q-50 0 -96 13z" />
    <glyph glyph-name="uni0E28" unicode="&#xe28;" horiz-adv-x="658" 
d="M626 570v-46l-24 1q-67 0 -104 -31q61 -55 61 -157v-337h-56v336q0 79 -47 123.5t-131 44.5q-83 0 -129 -44.5t-46 -123.5v-142q28 52 76.5 77.5t119.5 25.5h18v-47h-18q-83 0 -128.5 -32t-67.5 -107v-111h-56v337q0 101 60.5 157t170.5 56q84 0 140 -32q27 27 63.5 39.5
t85.5 12.5h12z" />
    <glyph glyph-name="uni0E29" unicode="&#xe29;" horiz-adv-x="650" 
d="M628 292h-74v-92q0 -98 -61.5 -154t-168.5 -56q-106 0 -166.5 56t-60.5 154v340h56v-337q0 -78 45.5 -122.5t125.5 -44.5q82 0 128 44.5t46 122.5v89h-184v43h184v205h56v-205h74v-43z" />
    <glyph glyph-name="uni0E2A" unicode="&#xe2a;" horiz-adv-x="617" 
d="M603 570v-46l-24 1q-69 0 -108 -33q41 -40 41 -124v-368h-56v269l-40 1q-159 0 -226.5 -32t-67.5 -91q0 -50 33 -81t92 -31q47 0 89 17l10 -40q-46 -20 -105 -20q-88 0 -131.5 43t-43.5 111q0 86 87 126t258 40q15 0 45 -2v56q0 75 -39 106.5t-121 31.5q-100 0 -191 -56
l-21 42q42 25 100 42.5t115 17.5q93 0 142 -33q27 28 64 40.5t86 12.5h12z" />
    <glyph glyph-name="uni0E2B" unicode="&#xe2b;" horiz-adv-x="625" 
d="M494 338.5q49 -43.5 49 -137.5v-201h-56v196q0 82 -42.5 119t-119.5 46l-167 -179v-182h-56v540h56v-294l197 218q42 46 71.5 61t76.5 15h34v-46h-25q-40 0 -64.5 -13t-60.5 -53l-33 -36q91 -10 140 -53.5z" />
    <glyph glyph-name="uni0E2C" unicode="&#xe2c;" horiz-adv-x="708" 
d="M657 589.5q-30 -38.5 -92 -48.5q37 -10 57 -38t20 -75q0 -28 -7 -59l-79 -369h-65l-139 369l-139 -369h-67l-98 540h55l86 -471l136 357h53l139 -357l65 299q7 32 7 63q0 47 -23 70t-74 23h-134v41h110q58 0 93 11t57 42t31 92h52q-14 -82 -44 -120.5z" />
    <glyph glyph-name="uni0E2D" unicode="&#xe2d;" horiz-adv-x="602" 
d="M119 57.5q-64 67.5 -64 188.5q0 21 2 34h256v-43h-204q1 -98 52 -149.5t132 -51.5q91 0 145.5 61.5t54.5 173.5q0 115 -59 173.5t-152 58.5q-47 0 -97.5 -15.5t-89.5 -42.5l-26 41q41 29 99.5 46.5t116.5 17.5q125 0 195 -74.5t70 -204.5q0 -131 -68.5 -206t-186.5 -75
q-112 0 -176 67.5z" />
    <glyph glyph-name="uni0E2E" unicode="&#xe2e;" horiz-adv-x="620" 
d="M589 570v-46l-23 1q-68 0 -106 -31q44 -36 67 -93t23 -130q0 -131 -68.5 -206t-186.5 -75q-112 0 -176 67.5t-64 188.5q0 21 2 34h256v-43h-204q1 -98 52 -149.5t132 -51.5q91 0 145.5 61.5t54.5 173.5q0 115 -59 173.5t-152 58.5q-47 0 -97.5 -15.5t-89.5 -42.5l-26 41
q41 29 99.5 46.5t116.5 17.5q81 0 142 -33q26 28 63 40.5t87 12.5h12z" />
    <glyph glyph-name="uni0E2F" unicode="&#xe2f;" horiz-adv-x="531" 
d="M435 540v-540h-55v314q-23 -39 -65 -60t-96 -21q-78 0 -124.5 44t-46.5 117q0 74 46.5 114.5t131.5 40.5q28 0 51 -7l-7 -41q-20 5 -36 5q-62 0 -96 -29.5t-34 -83.5q0 -53 35.5 -85.5t93.5 -32.5q53 0 90.5 24t56.5 69v172h55z" />
    <glyph glyph-name="uni0E30" unicode="&#xe30;" horiz-adv-x="355" 
d="M77.5 358.5q-25.5 23.5 -25.5 83.5v15h53v-16q0 -37 16 -50t62 -13h132v-43h-143q-69 0 -94.5 23.5zM77.5 78.5q-25.5 23.5 -25.5 83.5v15h53v-16q0 -37 16 -50t62 -13h132v-43h-143q-69 0 -94.5 23.5z" />
    <glyph glyph-name="uni0E31" unicode="&#xe31;" 
d="M-283.5 648q-25.5 23 -25.5 84v15h53v-16q0 -37 16 -50t62 -13h215v-43h-227q-68 0 -93.5 23z" />
    <glyph glyph-name="uni0E32" unicode="&#xe32;" horiz-adv-x="424" 
d="M272 374q0 70 -29.5 100.5t-90.5 30.5q-62 0 -130 -31l-14 44q77 32 151 32q88 0 128.5 -41.5t40.5 -134.5v-374h-56v374z" />
    <glyph glyph-name="uni0E33" unicode="&#xe33;" horiz-adv-x="424" 
d="M272 374q0 70 -29.5 100.5t-90.5 30.5q-62 0 -130 -31l-14 44q77 32 151 32q88 0 128.5 -41.5t40.5 -134.5v-374h-56v374zM-205 650.5q-27 25.5 -27 65.5q0 41 27.5 66.5t70.5 25.5t70 -25.5t27 -66.5q0 -40 -27 -65.5t-70 -25.5q-44 0 -71 25.5zM-96.5 678
q14.5 15 14.5 38t-14.5 38t-37.5 15t-38 -15t-15 -38t15 -38t38 -15t37.5 15z" />
    <glyph glyph-name="uni0E34" unicode="&#xe34;" 
d="M-519 668h422v-43h-422v43z" />
    <glyph glyph-name="uni0E35" unicode="&#xe35;" 
d="M-97 795v-170h-422v43h369v127h53z" />
    <glyph glyph-name="uni0E36" unicode="&#xe36;" 
d="M-103 774q27 -25 27 -65t-27 -65t-68 -25q-19 0 -36 6h-312v43h262q-9 18 -9 41q0 40 27 65t68 25t68 -25zM-132.5 671q15.5 15 15.5 38t-15.5 38t-38.5 15t-38 -15t-15 -38t15 -38t38 -15t38.5 15z" />
    <glyph glyph-name="uni0E37" unicode="&#xe37;" 
d="M-97 792v-167h-422v43h258v124h46v-124h73v124h45z" />
    <glyph glyph-name="uni0E38" unicode="&#xe38;" 
d="M-148 -122h-65v39h116v-206h-51v167z" />
    <glyph glyph-name="uni0E39" unicode="&#xe39;" 
d="M-299.5 -267q-30.5 27 -30.5 76v69h-50v39h99v-102q0 -70 67 -70t67 70v102h50v-102q0 -52 -30.5 -80.5t-86.5 -28.5q-55 0 -85.5 27z" />
    <glyph glyph-name="uni0E3A" unicode="&#xe3a;" 
d="M-159 -150q-13 13 -13 33t13 33t34 13q20 0 33 -13t13 -33t-13 -33t-33 -13q-21 0 -34 13z" />
    <glyph glyph-name="uni0E3F" unicode="&#xe3f;" horiz-adv-x="648" 
d="M534.5 310.5q42.5 -44.5 42.5 -120.5q0 -94 -59.5 -142t-174.5 -48h-10v-94h-33v94h-189v710h189v76h33v-76q100 -1 154 -47.5t54 -132.5q0 -62 -33.5 -103.5t-98.5 -59.5q83 -12 125.5 -56.5zM171 662v-275h129v275h-129zM443 623.5q-38 35.5 -110 38.5v-274
q71 4 109.5 39t38.5 96q0 65 -38 100.5zM300 48v291h-129v-291h129zM472.5 85q44.5 37 44.5 109q0 142 -184 145v-291h8q87 0 131.5 37z" />
    <glyph glyph-name="uni0E40" unicode="&#xe40;" horiz-adv-x="305" 
d="M143 17.5q-19 22.5 -19 68.5v454h56v-449q0 -28 11 -39.5t31 -11.5q19 0 37 6l6 -42q-27 -9 -58 -9q-45 0 -64 22.5z" />
    <glyph glyph-name="uni0E41" unicode="&#xe41;" horiz-adv-x="592" 
d="M143 17.5q-19 22.5 -19 68.5v454h56v-449q0 -28 11 -39.5t31 -11.5q19 0 37 6l6 -42q-27 -9 -58 -9q-45 0 -64 22.5zM430 17.5q-19 22.5 -19 68.5v454h56v-449q0 -28 11 -39.5t31 -11.5q19 0 37 6l6 -42q-27 -9 -58 -9q-45 0 -64 22.5z" />
    <glyph glyph-name="uni0E42" unicode="&#xe42;" horiz-adv-x="308" 
d="M355 763h-253q81 -29 81 -170v-502q0 -28 11 -39.5t31 -11.5q19 0 37 6l6 -42q-27 -9 -58 -9q-45 0 -64 22.5t-19 68.5v507q0 81 -30 125.5t-92 44.5h-11l-3 5l35 37h329v-42z" />
    <glyph glyph-name="uni0E43" unicode="&#xe43;" horiz-adv-x="308" 
d="M146.5 17.5q-19.5 22.5 -19.5 68.5v382q0 36 5.5 57t18 36.5t39.5 37.5q26 23 39 42t13 49q0 36 -25.5 57t-73.5 21q-44 0 -71.5 -23.5t-28.5 -73.5l-52 5q3 67 45 101.5t108 34.5q73 0 112.5 -32t39.5 -88q0 -37 -14.5 -61t-43.5 -50q-34 -30 -44.5 -50t-10.5 -63v-377
q0 -28 11 -39.5t31 -11.5q19 0 37 6l6 -42q-27 -9 -57 -9q-45 0 -64.5 22.5z" />
    <glyph glyph-name="uni0E44" unicode="&#xe44;" horiz-adv-x="308" 
d="M194 51.5q11 -11.5 31 -11.5q19 0 37 6l6 -42q-27 -9 -58 -9q-45 0 -64 22.5t-19 68.5v477q0 156 99 200h-255v42h321v-36q-53 -21 -81 -67t-28 -130v-481q0 -28 11 -39.5z" />
    <glyph glyph-name="uni0E45" unicode="&#xe45;" horiz-adv-x="424" 
d="M287.5 508.5q40.5 -41.5 40.5 -134.5v-584h-56v584q0 70 -29.5 100.5t-90.5 30.5q-62 0 -130 -31l-14 44q77 32 151 32q88 0 128.5 -41.5z" />
    <glyph glyph-name="uni0E46" unicode="&#xe46;" horiz-adv-x="612" 
d="M456 378q0 51 -18.5 76.5t-65.5 39.5l-79 -54l-77 54q-46 -13 -71 -49.5t-25 -91.5q0 -62 36.5 -100t95.5 -38q25 0 48 5l9 -42q-31 -9 -61 -9q-83 0 -133.5 49.5t-50.5 131.5q0 76 41 128t111 65l77 -56l82 56q75 -16 106 -53t31 -109v-591h-56v588z" />
    <glyph glyph-name="uni0E47" unicode="&#xe47;" 
d="M-425 653.5q-31 29.5 -31 82.5t30.5 82.5t84.5 29.5h251v-41h-250q-34 0 -52.5 -18.5t-18.5 -53.5q0 -71 80 -71l53 77h24q6 -39 24.5 -59t47.5 -20q33 0 63 21l14 -35q-30 -27 -76 -27q-33 0 -57 20.5t-32 56.5l-51 -74h-17q-56 0 -87 29.5z" />
    <glyph glyph-name="uni0E48" unicode="&#xe48;" 
d="M-151 817h54v-192h-54v192z" />
    <glyph glyph-name="uni0E49" unicode="&#xe49;" 
d="M-298 659q20 0 47 8q51 15 51 61q0 20 -13 31.5t-36 11.5q-22 0 -44 -8l-3 35q36 13 67 13q40 0 61.5 -18.5t21.5 -52.5q0 -26 -13 -45t-37 -30h223v-40h-325v34z" />
    <glyph glyph-name="uni0E4A" unicode="&#xe4a;" 
d="M-382 645q-26 24 -26 67q0 44 26 69.5t70 26.5l65 -29l62 29q88 -3 88 -86v-55h98v-42h-148v91q0 49 -40 52l-60 -25l-62 25q-22 -1 -35.5 -17t-13.5 -41q0 -26 15.5 -41t41.5 -15q12 0 21 3l4 -32q-12 -4 -33 -4q-47 0 -73 24z" />
    <glyph glyph-name="uni0E4B" unicode="&#xe4b;" 
d="M4 720h-102v-95h-52v95h-102v40h102v94h52v-94h102v-40z" />
    <glyph glyph-name="uni0E4C" unicode="&#xe4c;" 
d="M-232 642q0 41 11 64t36.5 33t71.5 10h96v-43h-82q-47 0 -63.5 -14t-16.5 -55v-12h-53v17z" />
    <glyph glyph-name="uni0E4D" unicode="&#xe4d;" 
d="M-216 650.5q-27 25.5 -27 65.5q0 41 27.5 66.5t70.5 25.5t70 -25.5t27 -66.5q0 -40 -27 -65.5t-70 -25.5q-44 0 -71 25.5zM-107.5 678q14.5 15 14.5 38t-14.5 38t-37.5 15t-38 -15t-15 -38t15 -38t38 -15t37.5 15z" />
    <glyph glyph-name="uni0E4E" unicode="&#xe4e;" 
d="M-169.5 810.5q-12.5 -7.5 -12.5 -24.5q0 -14 11 -22.5t39 -15.5l-5 -24q-20 4 -29 4q-40 0 -40 -34q0 -23 25 -32t66 -9l-3 -33l-17 -1q-59 0 -92 19.5t-33 54.5q0 25 15 40.5t40 18.5q-24 14 -24 42t21.5 43t55.5 15q41 0 72 -18l-8 -26q-28 10 -51 10q-18 0 -30.5 -7.5
z" />
    <glyph glyph-name="uni0E4F" unicode="&#xe4f;" horiz-adv-x="588" 
d="M169 42q-55 30 -86 84t-31 122t30.5 121.5t85.5 83.5t126 30t126 -29.5t85.5 -83t30.5 -122.5t-31 -122.5t-86 -83.5t-125 -30t-125 30zM396 73.5q45 25.5 70.5 71t25.5 103.5t-25 103.5t-70 71t-103 25.5q-57 0 -102 -25.5t-70.5 -71t-25.5 -103.5t25.5 -103.5t70.5 -71
t102 -25.5t102 25.5zM201.5 152.5q-36.5 37.5 -36.5 95.5t36 95t93 37t93 -37t36 -95q0 -59 -36 -96t-93 -37q-56 0 -92.5 37.5zM361.5 174q26.5 29 26.5 74t-26.5 74t-67.5 29t-67.5 -29t-26.5 -74t26.5 -74t67.5 -29t67.5 29z" />
    <glyph glyph-name="uni0E50" unicode="&#xe50;" horiz-adv-x="576" 
d="M164.5 22q-54.5 32 -85 89t-30.5 130q0 74 30.5 132t85 90.5t123.5 32.5t123.5 -32.5t85 -90.5t30.5 -132q0 -73 -30.5 -130t-85 -89t-123.5 -32t-123.5 32zM382.5 61q41.5 26 65 73t23.5 107q0 61 -23.5 108.5t-65 74.5t-94.5 27t-94.5 -27t-65 -74.5t-23.5 -108.5
q0 -60 23.5 -107t65 -73t94.5 -26t94.5 26z" />
    <glyph glyph-name="uni0E51" unicode="&#xe51;" horiz-adv-x="572" 
d="M194 -40q126 20 198.5 93.5t72.5 180.5q0 100 -49 158.5t-134 58.5q-79 0 -125 -46t-46 -123q0 -73 39 -116.5t105 -43.5q9 0 23 2l7 -39q-20 -5 -41 -5q-85 0 -136.5 55t-51.5 147q0 98 61.5 156t165.5 58q110 0 174 -69.5t64 -188.5q0 -83 -39 -151t-110.5 -112.5
t-168.5 -59.5z" />
    <glyph glyph-name="uni0E52" unicode="&#xe52;" horiz-adv-x="706" 
d="M167 44.5q-70 54.5 -70 155.5v404h55v-403q0 -80 55.5 -123t159.5 -43q98 0 150.5 42.5t52.5 122.5v148q0 45 -16 67.5t-56 30.5l-61 -38l-64 38q-38 -5 -59 -33.5t-21 -77.5q0 -50 25 -79t69 -29q16 0 38 4l5 -41q-19 -6 -49 -6q-66 0 -104 41t-38 112q0 68 35.5 109.5
t95.5 43.5l65 -40l66 40q65 -9 94.5 -42t29.5 -96v-152q0 -101 -67 -155.5t-191 -54.5q-130 0 -200 54.5z" />
    <glyph glyph-name="uni0E53" unicode="&#xe53;" horiz-adv-x="670" 
d="M106.5 57q-49.5 64 -49.5 186q0 253 166 253q85 0 109 -81q15 42 43.5 61.5t75.5 19.5q65 0 100.5 -35.5t35.5 -100.5v-360h-55v355q0 46 -23.5 71t-66.5 25q-41 0 -63 -24.5t-22 -71.5v-204h-50v204q0 44 -21 70t-58 26q-115 0 -115 -206q0 -207 146 -207q14 0 42 4
l7 -41q-26 -8 -58 -8q-94 0 -143.5 64z" />
    <glyph glyph-name="uni0E54" unicode="&#xe54;" horiz-adv-x="571" 
d="M530 45v-45h-247q-116 0 -172 58.5t-56 179.5q0 248 255 248h57q47 0 69 18t22 55v45h53v-54q0 -109 -127 -109h-68q-102 0 -153.5 -51t-51.5 -152q0 -99 44 -146t137 -47h99q-29 16 -45 45t-16 66q0 53 33 84.5t90 31.5q19 0 46 -7l-9 -41q-11 4 -28 4q-37 0 -59 -23
t-22 -61q0 -44 27 -71.5t71 -27.5h51z" />
    <glyph glyph-name="uni0E55" unicode="&#xe55;" horiz-adv-x="571" 
d="M530 45v-45h-247q-116 0 -172 58.5t-56 179.5q0 96 37 152t116 78q-17 11 -26.5 29.5t-9.5 40.5q0 40 26.5 65t68.5 25q43 0 69.5 -24.5t26.5 -63.5q0 -31 -18 -54h24q42 0 62 17t20 52v49h53v-54q0 -109 -127 -109h-61q-102 0 -153.5 -51t-51.5 -152q0 -99 44 -146
t137 -47h99q-29 16 -45 45t-16 66q0 53 33 84.5t90 31.5q19 0 46 -7l-9 -41q-11 4 -28 4q-37 0 -59 -23t-22 -61q0 -44 27 -71.5t71 -27.5h51zM225.5 580.5q-16.5 -16.5 -16.5 -42.5t16 -42.5t42 -16.5t42.5 16.5t16.5 42.5t-16.5 42.5t-42.5 16.5q-25 0 -41.5 -16.5z" />
    <glyph glyph-name="uni0E56" unicode="&#xe56;" horiz-adv-x="598" 
d="M438 465q53 -31 82 -88t29 -133t-30 -133.5t-85 -89t-128 -31.5q-63 0 -113 24t-78 66.5t-28 95.5q0 1 2 19h154v-38h-101q1 -34 23 -62t59 -44t80 -16q86 0 137.5 57t51.5 152t-51 150.5t-137 55.5q-62 0 -107.5 -27.5t-64.5 -77.5h-37l-45 259h52l32 -195
q28 43 73.5 65t105.5 22q71 0 124 -31z" />
    <glyph glyph-name="uni0E57" unicode="&#xe57;" horiz-adv-x="834" 
d="M106 57q-49 64 -49 187q0 252 164 252q42 0 69.5 -20.5t38.5 -60.5q13 42 41 61.5t75 19.5q65 0 100.5 -35.5t35.5 -100.5v-314q62 2 94.5 47.5t32.5 128.5v382h56v-383q0 -106 -50 -163.5t-141 -57.5h-48v355q0 46 -23 71t-66 25q-40 0 -61.5 -24.5t-21.5 -71.5v-204
h-48v204q0 44 -21 70t-58 26q-113 0 -113 -205q0 -208 146 -208q14 0 42 4l7 -41q-26 -8 -58 -8q-95 0 -144 64z" />
    <glyph glyph-name="uni0E58" unicode="&#xe58;" horiz-adv-x="632" 
d="M363 23q-33 29 -47 88l-59 -113h-13q-90 0 -139.5 62.5t-49.5 175.5q0 122 58.5 186t169.5 64h114q52 0 74.5 20.5t22.5 67.5v30h54v-39q0 -65 -32 -94.5t-102 -29.5h-125q-86 0 -132 -53.5t-46 -152.5q0 -86 34.5 -137t93.5 -52l65 122h31q15 -124 100 -124
q41 0 63.5 28t22.5 79q0 28 -5 56h-80v35h130q8 -37 8 -88q0 -79 -31.5 -119.5t-93.5 -40.5q-53 0 -86 29z" />
    <glyph glyph-name="uni0E59" unicode="&#xe59;" horiz-adv-x="561" 
d="M365.5 438q-16.5 -13 -16.5 -36q0 -10 4 -22.5t16 -42.5l141 -337h-58l-157 381q-28 69 -84 69q-52 0 -75 -44.5t-23 -143.5q0 -113 35 -168.5t108 -55.5q13 0 41 4l7 -41q-27 -8 -57 -8q-94 0 -142 67.5t-48 199.5q0 122 36.5 179t114.5 57q75 0 110 -61q1 25 19 38.5
t57 21.5q43 8 61 23.5t18 46.5v45h52v-45q0 -52 -24 -76t-83 -32q-36 -6 -52.5 -19z" />
    <glyph glyph-name="uni0E5A" unicode="&#xe5a;" horiz-adv-x="733" 
d="M637 540v-540h-55v319q-22 -38 -60 -58.5t-87 -20.5v-240h-55v314q-23 -39 -65 -60t-96 -21q-78 0 -124.5 44t-46.5 117q0 74 46.5 114.5t131.5 40.5q28 0 51 -7l-7 -41q-20 5 -36 5q-62 0 -96 -29.5t-34 -83.5q0 -53 35.5 -85.5t93.5 -32.5q53 0 90.5 24t56.5 69v172h55
v-258h14q47 0 81.5 23.5t51.5 67.5v167h55z" />
    <glyph glyph-name="uni0E5B" unicode="&#xe5b;" horiz-adv-x="995" 
d="M153 141q-56 56 -56 149q0 90 56 143t151 53q58 0 95 -24l-23 -39q-27 15 -64 15q-72 0 -114.5 -40.5t-42.5 -108.5q0 -71 41.5 -113.5t111.5 -42.5q84 0 133.5 71t73.5 225h51l86 -243l78 226h38q18 -72 37 -113t44 -59t60 -18h3q4 0 28 4l5 -50q-17 -5 -38 -5
q-55 0 -91 43t-62 138l-77 -228h-51l-82 237q-22 -136 -83.5 -206t-159.5 -70q-92 0 -148 56z" />
    <glyph glyph-name="endash" unicode="&#x2013;" horiz-adv-x="582" 
d="M60 311h462v-47h-462v47z" />
    <glyph glyph-name="emdash" unicode="&#x2014;" horiz-adv-x="832" 
d="M60 311h712v-47h-712v47z" />
    <glyph glyph-name="quoteleft" unicode="&#x2018;" horiz-adv-x="305" 
d="M199 710h41l-81 -248h-71z" />
    <glyph glyph-name="quoteright" unicode="&#x2019;" horiz-adv-x="305" 
d="M145 710h71l-111 -248h-40z" />
    <glyph glyph-name="quotesinglbase" unicode="&#x201a;" horiz-adv-x="305" 
d="M145 105h71l-111 -248h-40z" />
    <glyph glyph-name="quotedblleft" unicode="&#x201c;" horiz-adv-x="446" 
d="M340 710h41l-81 -248h-71zM199 710h41l-81 -248h-71z" />
    <glyph glyph-name="quotedblright" unicode="&#x201d;" horiz-adv-x="446" 
d="M286 710h71l-111 -248h-40zM145 710h71l-111 -248h-40z" />
    <glyph glyph-name="quotedblbase" unicode="&#x201e;" horiz-adv-x="446" 
d="M286 105h71l-111 -248h-40zM145 105h71l-111 -248h-40z" />
    <glyph glyph-name="dagger" unicode="&#x2020;" horiz-adv-x="468" 
d="M210 480h-150v40h150v190h50v-190h148v-40h-148v-534h-50v534z" />
    <glyph glyph-name="daggerdbl" unicode="&#x2021;" horiz-adv-x="468" 
d="M210 189h-150v40h150v251h-150v40h150v190h50v-190h148v-40h-148v-251h148v-40h-148v-243h-50v243z" />
    <glyph glyph-name="bullet" unicode="&#x2022;" horiz-adv-x="400" 
d="M140 221.5q-24 23.5 -24 59.5q0 35 23.5 58.5t60.5 23.5t60.5 -23.5t23.5 -58.5q0 -36 -24 -59.5t-60 -23.5t-60 23.5z" />
    <glyph glyph-name="ellipsis" unicode="&#x2026;" horiz-adv-x="786" 
d="M120 6.5q-13 12.5 -13 32.5t13 33t33 13t33 -13t13 -33t-13 -32.5t-33 -12.5t-33 12.5zM360 6.5q-13 12.5 -13 32.5t13 33t33 13t33 -13t13 -33t-13 -32.5t-33 -12.5t-33 12.5zM600 6.5q-13 12.5 -13 32.5t13 33t33 13t33 -13t13 -33t-13 -32.5t-33 -12.5t-33 12.5z" />
    <glyph glyph-name="perthousand" unicode="&#x2030;" horiz-adv-x="1229" 
d="M108 401.5q-40 50.5 -40 132.5q0 81 40 131.5t104 50.5t104 -51t40 -131q0 -81 -40 -132t-104 -51t-104 50.5zM620 710h46l-424 -710h-46zM281.5 428q26.5 41 26.5 106t-26.5 105.5t-69.5 40.5t-69.5 -40.5t-26.5 -105.5t26.5 -106t69.5 -41t69.5 41zM547 45
q-40 51 -40 132q0 80 40 130.5t104 50.5t104 -50.5t40 -130.5q0 -81 -40 -132t-104 -51t-104 51zM913 44.5q-40 50.5 -40 132.5q0 81 40 131t104 50t104 -50.5t40 -130.5q0 -81 -40 -132t-104 -51t-104 50.5zM720.5 70.5q26.5 40.5 26.5 106.5q0 65 -26.5 105.5t-69.5 40.5
t-69.5 -40.5t-26.5 -105.5q0 -66 26.5 -106.5t69.5 -40.5t69.5 40.5zM1086.5 70.5q26.5 40.5 26.5 106.5q0 65 -26.5 105.5t-69.5 40.5t-69.5 -40.5t-26.5 -105.5q0 -66 26.5 -106.5t69.5 -40.5t69.5 40.5z" />
    <glyph glyph-name="guilsinglleft" unicode="&#x2039;" horiz-adv-x="462" 
d="M118 266l170 180h56l-170 -180l170 -180h-56z" />
    <glyph glyph-name="guilsinglright" unicode="&#x203a;" horiz-adv-x="462" 
d="M288 266l-170 180h56l170 -180l-170 -180h-56z" />
    <glyph glyph-name="fraction" unicode="&#x2044;" horiz-adv-x="600" 
d="M483 755h42l-410 -755h-42z" />
    <glyph glyph-name="Euro" unicode="&#x20ac;" horiz-adv-x="646" 
d="M604 59q-41 -31 -94 -48t-111 -17q-121 0 -201 72.5t-101 200.5h-77v37h72q-2 34 -2 52q0 17 2 49h-72v37h77q20 128 99.5 201t200.5 73q58 0 111 -16.5t94 -47.5l-23 -44q-37 28 -83.5 43.5t-95.5 15.5q-96 0 -160 -59.5t-83 -165.5h403v-37h-408q-2 -32 -2 -49
q0 -26 3 -52h407v-37h-402q20 -106 84 -165t160 -59q99 0 178 59z" />
    <glyph glyph-name="trademark" unicode="&#x2122;" horiz-adv-x="615" 
d="M13 710h229v-30h-96v-251h-37v251h-96v30zM561 710v-281h-36v216l-91 -159h-20l-90 159v-216h-36v281h36l101 -177l101 177h35z" />
    <glyph glyph-name="partialdiff" unicode="&#x2202;" horiz-adv-x="601" 
d="M395.5 725q73.5 -49 113 -140.5t39.5 -216.5q0 -179 -66.5 -278.5t-187.5 -99.5q-66 0 -115.5 32t-77 90.5t-27.5 135.5q0 72 26.5 126.5t76 84t114.5 29.5q67 0 118 -33.5t80 -96.5l1 18q1 107 -31 185t-92.5 119.5t-143.5 41.5q-61 0 -119 -22l-15 50q62 24 132 24
q101 0 174.5 -49zM426.5 104q48.5 63 59.5 182q-25 73 -73.5 113t-111.5 40q-77 0 -123.5 -52t-46.5 -138q0 -94 46 -151t122 -57q79 0 127.5 63z" />
    <glyph glyph-name="product" unicode="&#x220f;" horiz-adv-x="695" 
d="M158 633h-124v47h627v-47h-124v-703h-60v703h-259v-703h-60v703z" />
    <glyph glyph-name="summation" unicode="&#x2211;" horiz-adv-x="620" 
d="M576 -22v-48h-512v42l278 332l-258 334v42h472v-48h-404l248 -320v-16l-266 -318h442z" />
    <glyph glyph-name="minus" unicode="&#x2212;" horiz-adv-x="640" 
d="M71 283h498v-44h-498v44z" />
    <glyph glyph-name="radical" unicode="&#x221a;" horiz-adv-x="544" 
d="M512 830l-202 -881h-38l-131 455l-119 -37l-7 26l161 50l114 -409l181 796h41z" />
    <glyph glyph-name="infinity" unicode="&#x221e;" horiz-adv-x="850" 
d="M99 191.5q-46 43.5 -46 115.5t46 114.5t124 42.5q59 0 107.5 -29t100.5 -96q53 68 98.5 96.5t100.5 28.5q76 0 121.5 -43.5t45.5 -114.5t-46 -114.5t-122 -43.5q-57 0 -103 28.5t-98 97.5q-53 -68 -100.5 -97t-105.5 -29q-77 0 -123 43.5zM314 217q41 26 89 89
q-48 63 -89 89.5t-91 26.5q-58 0 -91.5 -31t-33.5 -84q0 -54 33.5 -85t91.5 -31q50 0 91 26zM718 222.5q34 31.5 34 84.5q0 52 -33.5 83.5t-88.5 31.5q-48 0 -87.5 -26t-86.5 -89q49 -64 87.5 -90t84.5 -26q56 0 90 31.5z" />
    <glyph glyph-name="integral" unicode="&#x222b;" horiz-adv-x="379" 
d="M-22 -140l12 41q34 -14 66 -14q50 0 75 26.5t25 85.5q0 120 -10 336t-10 335q0 84 35.5 122t108.5 38q53 0 103 -25l-15 -40q-40 21 -79 21q-50 0 -75 -27t-25 -86q0 -119 10 -335t10 -336q0 -82 -35 -121t-109 -39q-41 0 -87 18z" />
    <glyph glyph-name="approxequal" unicode="&#x2248;" horiz-adv-x="640" 
d="M138.5 412.5q27.5 26.5 74.5 26.5q29 0 54.5 -8.5t61.5 -24.5q34 -15 53.5 -21.5t41.5 -6.5q31 0 49.5 15t20.5 46h36q-1 -51 -27 -76.5t-73 -25.5q-29 0 -53.5 8t-62.5 24q-31 15 -52.5 22t-44.5 7q-32 0 -50.5 -16t-20.5 -46h-36q1 50 28.5 76.5zM138.5 192.5
q27.5 26.5 74.5 26.5q29 0 54.5 -8.5t61.5 -24.5q34 -15 53.5 -21.5t41.5 -6.5q31 0 49.5 15t20.5 46h36q-1 -51 -27 -76.5t-73 -25.5q-29 0 -53.5 8t-62.5 24q-31 15 -52.5 22t-44.5 7q-32 0 -50.5 -16t-20.5 -46h-36q1 50 28.5 76.5z" />
    <glyph glyph-name="notequal" unicode="&#x2260;" horiz-adv-x="640" 
d="M391 340l-79 -162h257v-44h-279l-65 -134h-47l65 134h-172v44h194l79 162h-273v44h295l66 136h47l-66 -136h156v-44h-178z" />
    <glyph glyph-name="lessequal" unicode="&#x2264;" horiz-adv-x="640" 
d="M569 518l-437 -162l437 -160v-47l-498 187v39l498 190v-47zM71 72h498v-44h-498v44z" />
    <glyph glyph-name="greaterequal" unicode="&#x2265;" horiz-adv-x="640" 
d="M569 375v-39l-498 -187v47l437 160l-437 162v47zM71 72h498v-44h-498v44z" />
    <glyph glyph-name="lozenge" unicode="&#x25ca;" horiz-adv-x="582" 
d="M52 354l210 374h58l210 -374l-210 -373h-58zM474 354l-183 329l-183 -329l183 -328z" />
    <glyph glyph-name="yoYingthai.less" horiz-adv-x="986" 
d="M889 540v-350q0 -95 -55.5 -147.5t-155.5 -52.5t-154 52t-54 148v154q0 78 -44.5 119t-124.5 41q-79 0 -124 -40t-46 -116h154v-37h-52q-42 -27 -69 -70t-27 -96q0 -49 25 -79.5t74 -30.5q36 0 68 16l13 -37q-41 -22 -92 -22q-70 0 -107 39.5t-37 102.5q0 56 26.5 101.5
t68.5 75.5h-100v18q0 106 59 163.5t171 57.5q105 0 162.5 -52t57.5 -151v-154q0 -75 39 -116t112 -41q74 0 115 41t41 116v347h56z" />
    <glyph glyph-name="doChadathai.short" horiz-adv-x="651" 
d="M493 493.5q62 -56.5 62 -164.5v-469l-38 -24q-2 -1 -7 -4t-10 -3q-4 0 -23.5 14t-51.5 29q-66 32 -117 32q-45 0 -67 -18.5t-22 -51.5v-5h-56v8q0 50 34 80t98 30q56 0 113 -21.5t91 -50.5v454q0 86 -47 130.5t-135 44.5q-82 0 -130.5 -40.5t-49.5 -115.5h155v-37h-64
q-24 -15 -33.5 -44t-9.5 -76v-110q0 -41 -17.5 -60.5t-57.5 -19.5q-33 0 -65 12l11 38q19 -8 38 -8q18 0 26.5 10.5t8.5 34.5v98q0 90 45 125h-90v17q0 106 60.5 164t174.5 58q112 0 174 -56.5z" />
    <glyph glyph-name="toPatakthai.short" horiz-adv-x="651" 
d="M493 493.5q62 -56.5 62 -164.5v-421l-111 -65q-27 -16 -41 -16q-9 0 -19.5 5t-37.5 20q-29 18 -44 25.5t-23 7.5t-17 -4.5t-37 -21.5q-30 -19 -44.5 -24.5t-40.5 -5.5h-29v48h26q24 0 37 4.5t40 21.5q32 18 45 24t22 6t22 -6t42 -24q22 -14 34.5 -20.5t20.5 -6.5t17 4.5
t22 13.5l60 35v400q0 86 -47 130.5t-135 44.5q-82 0 -130.5 -40.5t-49.5 -115.5h155v-37h-64q-24 -15 -33.5 -44t-9.5 -76v-110q0 -41 -17.5 -60.5t-57.5 -19.5q-33 0 -65 12l11 38q19 -8 38 -8q18 0 26.5 10.5t8.5 34.5v98q0 90 45 125h-90v17q0 106 60.5 164t174.5 58
q112 0 174 -56.5z" />
    <glyph glyph-name="thoThanthai.less" horiz-adv-x="610" 
d="M576 570v-46l-24 1q-38 0 -65.5 -9.5t-47.5 -29.5q71 -71 71 -204q0 -85 -30 -150.5t-84 -102.5t-123 -37q-19 0 -51 5l-65 239h-67v40h111l67 -240h2q52 0 94 31.5t65.5 87.5t23.5 125q0 106 -51 164.5t-143 58.5q-48 0 -98 -15.5t-88 -42.5l-23 42q40 30 96 46.5
t116 16.5q86 0 147 -39q27 31 65 45t90 14h12z" />
    <glyph glyph-name="uni0E24.short" horiz-adv-x="641" 
d="M484 493.5q61 -56.5 61 -164.5v-500h-56v500q0 86 -47 130.5t-134 44.5q-82 0 -130 -40.5t-49 -115.5h155v-37h-51q-42 -26 -69 -69.5t-27 -96.5q0 -50 25.5 -80t73.5 -30q38 0 68 16l13 -37q-41 -22 -92 -22q-71 0 -107.5 40t-36.5 102q0 60 27.5 104.5t68.5 72.5h-101
v17q0 106 60.5 164t174.5 58q112 0 173 -56.5z" />
    <glyph glyph-name="uni0E26.short" horiz-adv-x="651" 
d="M493 493.5q62 -56.5 62 -164.5v-500h-56v500q0 86 -47 130.5t-135 44.5q-82 0 -130.5 -40.5t-49.5 -115.5h155v-37h-64q-24 -15 -33.5 -44t-9.5 -76v-117q0 -41 -17.5 -61t-57.5 -20q-34 0 -65 13l11 37q20 -7 38 -7t26.5 10.5t8.5 34.5v105q0 90 45 125h-90v17
q0 106 60.5 164t174.5 58q112 0 174 -56.5z" />
    <glyph glyph-name="loChulathai.short" horiz-adv-x="688" 
d="M623.5 509.5q-28.5 -29.5 -83.5 -38.5q35 -10 54 -38t19 -74q0 -28 -7 -59l-64 -300h-65l-140 311l-138 -311h-67l-84 540h55l73 -475l136 301h50l139 -301l55 243q7 29 7 58q0 88 -92 88h-119v42h89q54 0 86 7t54 30t34 70h52q-15 -64 -43.5 -93.5z" />
    <glyph glyph-name="zero.tf" horiz-adv-x="640" 
d="M129.5 83.5q-65.5 93.5 -65.5 271.5t65.5 271.5t189.5 93.5q126 0 191.5 -93.5t65.5 -271.5t-65.5 -271.5t-191.5 -93.5q-124 0 -189.5 93.5zM465 119q50 81 50 236q0 154 -50 235t-146 81q-95 0 -145 -81t-50 -235q0 -155 50 -236t145 -81q96 0 146 81z" />
    <glyph glyph-name="one.tf" horiz-adv-x="640" 
d="M417 710v-710h-60v644l-165 -107l-28 40l205 133h48z" />
    <glyph glyph-name="two.tf" horiz-adv-x="640" 
d="M554 49v-49h-468v49l272 291q50 54 74 98.5t24 94.5q0 65 -43 102t-118 37q-45 0 -87 -14.5t-87 -43.5l-24 46q52 32 101.5 46t101.5 14q102 0 160 -50t58 -138q0 -57 -25.5 -108t-81.5 -111l-246 -264h389z" />
    <glyph glyph-name="three.tf" horiz-adv-x="640" 
d="M502.5 308.5q37.5 -48.5 37.5 -116.5q0 -59 -29 -105t-84 -71.5t-130 -25.5q-107 0 -212 60l20 45q94 -57 190 -57q84 0 134 44t50 114q0 68 -50 110.5t-154 42.5h-59v44h58q93 0 135 39.5t42 99.5q0 65 -42 102.5t-115 37.5q-44 0 -86 -15t-87 -46l-24 44
q54 34 103 49.5t101 15.5q99 0 155.5 -50.5t56.5 -133.5q0 -56 -30 -100.5t-94 -63.5q76 -15 113.5 -63.5z" />
    <glyph glyph-name="four.tf" horiz-adv-x="640" 
d="M575 201v-46h-98v-155h-58v155h-353v36l346 519h65v-509h98zM419 201v437l-290 -437h290z" />
    <glyph glyph-name="five.tf" horiz-adv-x="640" 
d="M447.5 419q53.5 -29 81.5 -80t28 -117q0 -69 -30.5 -121.5t-86 -81.5t-129.5 -29q-58 0 -116.5 18t-110.5 51l22 44q103 -65 198 -65q89 0 141 51.5t52 132.5t-52.5 130.5t-136.5 49.5q-44 0 -83.5 -15.5t-64.5 -43.5l-39 8v359h383v-49h-327v-256q27 22 64.5 32.5
t79.5 10.5q73 0 126.5 -29z" />
    <glyph glyph-name="six.tf" horiz-adv-x="640" 
d="M460.5 423.5q48.5 -29.5 72.5 -79.5t24 -111q0 -72 -27.5 -127t-79 -85.5t-120.5 -30.5q-110 0 -178.5 82t-68.5 257q0 181 77 286t225 105q66 0 132 -23l-16 -46q-61 21 -117 21q-70 0 -124.5 -37.5t-85.5 -110.5t-31 -175v-11q34 58 84.5 86.5t113.5 28.5
q71 0 119.5 -29.5zM453.5 92q46.5 54 46.5 141q0 78 -45.5 126t-123.5 48q-69 0 -115.5 -39.5t-69.5 -101.5q10 -113 58.5 -170.5t126.5 -57.5q76 0 122.5 54z" />
    <glyph glyph-name="seven.tf" horiz-adv-x="640" 
d="M531 710v-45l-280 -665h-64l285 661h-383v49h442z" />
    <glyph glyph-name="eight.tf" horiz-adv-x="640" 
d="M528 297.5q44 -39.5 44 -109.5q0 -91 -67 -144.5t-184 -53.5q-75 0 -132 23t-88.5 65t-31.5 98q0 69 46 119.5t114 71.5q-66 29 -103 69.5t-37 103.5q0 82 63 131t167 49q69 0 120.5 -22t79 -61.5t27.5 -90.5q0 -62 -40.5 -107t-110.5 -72q89 -30 133 -69.5zM197.5 448.5
q47.5 -34.5 152.5 -66.5q6 -2 8 -2q68 31 100 72.5t32 88.5q0 59 -46.5 95.5t-124.5 36.5q-77 0 -123 -35.5t-46 -95.5q0 -59 47.5 -93.5zM461.5 78q50.5 41 50.5 106q0 42 -23.5 69t-61 43.5t-102.5 36.5q-38 12 -57 19q-62 -21 -100.5 -66.5t-38.5 -102.5q0 -67 53 -106.5
t140 -39.5q89 0 139.5 41z" />
    <glyph glyph-name="nine.tf" horiz-adv-x="640" 
d="M493 641q64 -79 64 -248q0 -403 -279 -403q-69 0 -135 23l15 47q60 -22 116 -22q108 0 165.5 85.5t57.5 250.5q-34 -58 -85 -87.5t-113 -29.5q-71 0 -119.5 30.5t-72.5 82t-24 114.5q0 70 28 123.5t80.5 83t122.5 29.5q115 0 179 -79zM425.5 343.5q46.5 40.5 69.5 103.5
q-14 225 -179 225q-80 0 -128 -52t-48 -136q0 -82 45.5 -131.5t123.5 -49.5q70 0 116.5 40.5z" />
    <glyph glyph-name="uni0E31.narrow" 
d="M-471 648q-26 23 -26 84v15h54v-16q0 -37 15.5 -50t61.5 -13h145v-43h-156q-68 0 -94 23z" />
    <glyph glyph-name="uni0E48.small" 
d="M-150 1000h53v-136h-53v136z" />
    <glyph glyph-name="uni0E48.narrow" 
d="M-328 817h54v-192h-54v192z" />
    <glyph glyph-name="uni0E49.small" 
d="M-247 895q15 1 38 7q51 14 51 54q0 35 -41 35q-22 0 -39 -7l-8 33q33 11 65 11q34 0 52.5 -16t18.5 -45q0 -24 -11 -41.5t-31 -24.5h184v-37h-279v31z" />
    <glyph glyph-name="uni0E49.narrow" 
d="M-457 659q21 0 48 8q50 15 50 61q0 20 -12.5 31.5t-35.5 11.5q-26 0 -45 -9l-6 36q37 13 70 13q39 0 60.5 -18.5t21.5 -52.5q0 -26 -13 -45t-37 -30h141v-40h-242v34z" />
    <glyph glyph-name="uni0E4A.small" 
d="M-279.5 880.5q-22.5 20.5 -22.5 57.5t22.5 59t60.5 22l52 -23l49 23q75 -1 75 -74v-44h103v-37h-147v75q0 42 -32 43l-48 -22l-49 22q-19 -1 -30 -13.5t-11 -32.5q0 -21 13 -33t36 -12q11 0 20 3l5 -30q-15 -4 -33 -4q-41 0 -63.5 20.5z" />
    <glyph glyph-name="uni0E4A.narrow" 
d="M-525.5 645.5q-25.5 24.5 -25.5 66.5t25.5 68.5t67.5 27.5l51 -28l49 28q85 -3 85 -86v-58h95v-39h-142v91q0 49 -40 52l-46 -25l-49 25q-22 -1 -35 -16.5t-13 -41.5t15 -41t41 -15q12 0 21 3l5 -32q-13 -4 -34 -4q-45 0 -70.5 24.5z" />
    <glyph glyph-name="uni0E4B.small" 
d="M-11 933h-89v-69h-47v69h-89v40h89v70h47v-70h89v-40z" />
    <glyph glyph-name="uni0E4C.small" 
d="M-232 881q0 41 11 64t36.5 33t71.5 10h96v-43h-82q-47 0 -63.5 -14t-16.5 -55v-12h-53v17z" />
    <glyph glyph-name="uni0E4C.narrow" 
d="M-417 642q0 42 11 65t37 32.5t72 9.5h86v-43h-72q-47 0 -63.5 -14t-16.5 -55v-12h-54v17z" />
    <glyph glyph-name="uni0E47.narrow" 
d="M-505 654q-29 30 -29 82q0 53 30.5 82.5t84.5 29.5h237v-41h-236q-34 0 -52.5 -19t-18.5 -54q0 -34 16.5 -52t46.5 -18l54 77h23q6 -39 22 -59t40 -20q26 0 55 21l14 -35q-30 -27 -69 -27q-29 0 -51 21t-27 53l-51 -71h-11q-49 0 -78 30z" />
    <glyph glyph-name="uni0E34.narrow" 
d="M-625 668h404v-43h-404v43z" />
    <glyph glyph-name="uni0E35.narrow" 
d="M-221 795v-170h-404v43h350v127h54z" />
    <glyph glyph-name="uni0E36.narrow" 
d="M-229.5 774q25.5 -25 25.5 -65t-25.5 -65t-65.5 -25q-20 0 -36 6h-294v43h247q-9 18 -9 41q0 39 26 64.5t66 25.5t65.5 -25zM-257 671q15 15 15 38t-15 38t-38 15t-38 -15t-15 -38t15 -38t38 -15t38 15z" />
    <glyph glyph-name="uni0E37.narrow" 
d="M-221 792v-167h-404v43h253v124h42v-124h70v124h39z" />
    <glyph glyph-name="uni0E4D0E48" 
d="M-216 650.5q-27 25.5 -27 65.5q0 41 27.5 66.5t70.5 25.5t70 -25.5t27 -66.5q0 -40 -27 -65.5t-70 -25.5q-44 0 -71 25.5zM-107.5 678q14.5 15 14.5 38t-14.5 38t-37.5 15t-38 -15t-15 -38t15 -38t38 -15t37.5 15zM-174 1001h53v-136h-53v136z" />
    <glyph glyph-name="uni0E4D0E49" 
d="M-216 650.5q-27 25.5 -27 65.5q0 41 27.5 66.5t70.5 25.5t70 -25.5t27 -66.5q0 -40 -27 -65.5t-70 -25.5q-44 0 -71 25.5zM-107.5 678q14.5 15 14.5 38t-14.5 38t-37.5 15t-38 -15t-15 -38t15 -38t38 -15t37.5 15zM-271 896q15 1 38 7q51 14 51 54q0 35 -41 35
q-22 0 -39 -7l-8 33q33 11 65 11q34 0 52.5 -16t18.5 -45q0 -24 -11 -41.5t-31 -24.5h184v-37h-279v31z" />
    <glyph glyph-name="uni0E4D0E4A" 
d="M-216 650.5q-27 25.5 -27 65.5q0 41 27.5 66.5t70.5 25.5t70 -25.5t27 -66.5q0 -40 -27 -65.5t-70 -25.5q-44 0 -71 25.5zM-107.5 678q14.5 15 14.5 38t-14.5 38t-37.5 15t-38 -15t-15 -38t15 -38t38 -15t37.5 15zM-292.5 880.5q-22.5 20.5 -22.5 57.5t22.5 59t60.5 22
l52 -23l49 23q75 -1 75 -74v-44h103v-37h-147v75q0 42 -32 43l-48 -22l-49 22q-19 -1 -30 -13.5t-11 -32.5q0 -21 13 -33t36 -12q11 0 20 3l5 -30q-15 -4 -33 -4q-41 0 -63.5 20.5z" />
    <glyph glyph-name="uni0E4D0E4B" 
d="M-216 650.5q-27 25.5 -27 65.5q0 41 27.5 66.5t70.5 25.5t70 -25.5t27 -66.5q0 -40 -27 -65.5t-70 -25.5q-44 0 -71 25.5zM-107.5 678q14.5 15 14.5 38t-14.5 38t-37.5 15t-38 -15t-15 -38t15 -38t38 -15t37.5 15zM-35 934h-89v-69h-47v69h-89v40h89v70h47v-70h89v-40z
" />
    <glyph glyph-name="uni0E3A.small" 
d="M-160 -319q-13 13 -13 33t13 33t34 13q20 0 33 -13t13 -33t-13 -33t-33 -13q-21 0 -34 13z" />
    <glyph glyph-name="uni0E38.small" 
d="M-148 -284h-65v39h116v-165h-51v126z" />
    <glyph glyph-name="uni0E39.small" 
d="M-300 -386q-30 24 -30 69v33h-50v39h99v-70q0 -29 16 -42.5t51 -13.5t51 13.5t16 42.5v70h50v-66q0 -49 -30 -74t-87 -25q-56 0 -86 24z" />
    <glyph glyph-name="uni0E4B.narrow" 
d="M-208 717h-102v-92h-52v92h-102v39h102v92h52v-92h102v-39z" />
    <glyph glyph-name="uni0E4D.narrow" 
d="M-422 650.5q-27 25.5 -27 65.5q0 41 27.5 66.5t70.5 25.5t70 -25.5t27 -66.5q0 -40 -27 -65.5t-70 -25.5q-44 0 -71 25.5zM-313.5 678q14.5 15 14.5 38t-14.5 38t-37.5 15t-38 -15t-15 -38t15 -38t38 -15t37.5 15z" />
    <glyph glyph-name="uni0E4D0E48.narrow" 
d="M-422 650.5q-27 25.5 -27 65.5q0 41 27.5 66.5t70.5 25.5t70 -25.5t27 -66.5q0 -40 -27 -65.5t-70 -25.5q-44 0 -71 25.5zM-313.5 678q14.5 15 14.5 38t-14.5 38t-37.5 15t-38 -15t-15 -38t15 -38t38 -15t37.5 15zM-379 1001h53v-136h-53v136z" />
    <glyph glyph-name="uni0E4D0E49.narrow" 
d="M-422 650.5q-27 25.5 -27 65.5q0 41 27.5 66.5t70.5 25.5t70 -25.5t27 -66.5q0 -40 -27 -65.5t-70 -25.5q-44 0 -71 25.5zM-313.5 678q14.5 15 14.5 38t-14.5 38t-37.5 15t-38 -15t-15 -38t15 -38t38 -15t37.5 15zM-476 896q15 1 38 7q51 14 51 54q0 35 -41 35
q-22 0 -39 -7l-8 33q33 11 65 11q34 0 52.5 -16t18.5 -45q0 -24 -11 -41.5t-31 -24.5h184v-37h-279v31z" />
    <glyph glyph-name="uni0E4D0E4A.narrow" 
d="M-422 650.5q-27 25.5 -27 65.5q0 41 27.5 66.5t70.5 25.5t70 -25.5t27 -66.5q0 -40 -27 -65.5t-70 -25.5q-44 0 -71 25.5zM-313.5 678q14.5 15 14.5 38t-14.5 38t-37.5 15t-38 -15t-15 -38t15 -38t38 -15t37.5 15zM-519.5 880.5q-22.5 20.5 -22.5 57.5t22.5 59t60.5 22
l52 -23l49 23q75 -1 75 -74v-44h103v-37h-147v75q0 42 -32 43l-48 -22l-49 22q-19 -1 -30 -13.5t-11 -32.5q0 -21 13 -33t36 -12q11 0 20 3l5 -30q-15 -4 -33 -4q-41 0 -63.5 20.5z" />
    <glyph glyph-name="uni0E4D0E4B.narrow" 
d="M-422 650.5q-27 25.5 -27 65.5q0 41 27.5 66.5t70.5 25.5t70 -25.5t27 -66.5q0 -40 -27 -65.5t-70 -25.5q-44 0 -71 25.5zM-313.5 678q14.5 15 14.5 38t-14.5 38t-37.5 15t-38 -15t-15 -38t15 -38t38 -15t37.5 15zM-240 934h-89v-69h-47v69h-89v40h89v70h47v-70h89v-40z
" />
    <glyph glyph-name="uni0E47.small" 
d="M-273 886q-21 22 -21 60t22.5 60t61.5 22h168v-36h-167q-46 0 -46 -47q0 -46 46 -46l37 54h18q5 -27 19.5 -41.5t34.5 -14.5q19 0 35 13l13 -30q-11 -10 -21.5 -14t-25.5 -4q-25 0 -43 15t-23 40l-36 -53h-14q-37 0 -58 22z" />
    </font>
</defs>
</svg>
