<?xml version="1.0" standalone="no"?>
<!DOCTYPE svg PUBLIC "-//W3C//DTD SVG 1.1//EN" "http://www.w3.org/Graphics/SVG/1.1/DTD/svg11.dtd" >
<svg xmlns="http://www.w3.org/2000/svg" xmlns:xlink="http://www.w3.org/1999/xlink" version="1.1">
<metadata>
Created by FontForge 20170731 at Wed Dec  2 10:29:22 2015
 By Aleksey,,,
Copyright (c) 2015, Cadson Demak (info@cadsondemak.com)
</metadata>
<defs>
<font id="Kanit-Light" horiz-adv-x="0" >
  <font-face 
    font-family="Kanit Light"
    font-weight="300"
    font-stretch="normal"
    units-per-em="1000"
    panose-1="0 0 4 0 0 0 0 0 0 0"
    ascent="750"
    descent="-250"
    x-height="474"
    cap-height="644"
    bbox="-574 -339 1152 1036"
    underline-thickness="50"
    underline-position="-150"
    unicode-range="U+000D-FB02"
  />
<missing-glyph horiz-adv-x="488" 
d="M449 714v-714h-411v714h411zM398 51v612h-309v-612h309z" />
    <glyph glyph-name="fi" unicode="fi" horiz-adv-x="514" 
d="M150.5 645q49.5 45 128.5 45q67 0 107 -15v-62q-31 11 -86 11q-117 0 -117 -95v-55h261v-474h-82v409h-179v-409h-82v409h-71v65h71v55q0 71 49.5 116z" />
    <glyph glyph-name="fl" unicode="fl" horiz-adv-x="514" 
d="M150.5 645q49.5 45 128.5 45q67 0 107 -15h58v-675h-82v409h-179v-409h-82v409h-71v65h71v55q0 71 49.5 116zM362 474v140q-33 10 -62 10q-117 0 -117 -95v-55h179z" />
    <glyph glyph-name="ru_lakkhangyaothai" unicode="&#xe24;&#xe45;" horiz-adv-x="875" 
d="M758.5 504.5q46.5 -45.5 46.5 -146.5v-518h-82v509q0 49 -9.5 76t-37 41t-82.5 14q-38 0 -78 -9q34 -47 34 -127v-504h-82v507q0 74 -35 103.5t-120 29.5q-56 0 -104.5 -15.5t-74.5 -41.5v-21l117 -28v-62q-39 -10 -57 -32t-18 -63v-101q0 -25 11.5 -37t35.5 -12h57v-67
h-94q-43 0 -67.5 26.5t-24.5 69.5v123q0 44 19.5 74.5t61.5 42.5l-113 26v96q42 40 106.5 66t144.5 26q89 0 144 -28q31 13 71.5 20.5t80.5 7.5q103 0 149.5 -45.5z" />
    <glyph glyph-name="lu_lakkhangyaothai" unicode="&#xe26;&#xe45;" horiz-adv-x="910" 
d="M793.5 504.5q46.5 -45.5 46.5 -146.5v-518h-82v509q0 49 -9.5 76t-37 41t-82.5 14q-43 0 -83 -10q33 -48 33 -126v-504h-82v507q0 74 -35 103.5t-120 29.5q-56 0 -104.5 -15.5t-74.5 -41.5v-21l123 -28v-62q-37 -11 -50.5 -31t-13.5 -64v-107q0 -110 -103 -110h-62v67h40
q23 0 33 11.5t10 36.5v104q0 45 15.5 74.5t54.5 42.5l-119 26v96q42 40 106.5 66t144.5 26q92 0 149 -30v2q31 12 72 20t81 8q103 0 149.5 -45.5z" />
    <glyph glyph-name=".notdef" horiz-adv-x="488" 
d="M449 714v-714h-411v714h411zM398 51v612h-309v-612h309z" />
    <glyph glyph-name=".null" horiz-adv-x="500" 
 />
    <glyph glyph-name="nonmarkingreturn" unicode="&#xd;" horiz-adv-x="400" 
 />
    <glyph glyph-name="space" unicode=" " horiz-adv-x="380" 
 />
    <glyph glyph-name="exclam" unicode="!" horiz-adv-x="190" 
d="M136 487l-6 -333h-70l-6 333v157h82v-157zM50 65v-65h90v65h-90z" />
    <glyph glyph-name="quotedbl" unicode="&#x22;" horiz-adv-x="321" 
d="M50 644h74l-13 -177h-61v177zM197 644h74l-13 -177h-61v177z" />
    <glyph glyph-name="numbersign" unicode="#" horiz-adv-x="700" 
d="M286 644h72l-57 -180h188l57 180h73l-57 -180h88v-58h-106l-54 -169h113v-57h-131l-56 -180h-72l56 180h-189l-56 -180h-71l56 180h-90v57h108l53 169h-114v58h132zM418 237l53 169h-188l-54 -169h189z" />
    <glyph glyph-name="dollar" unicode="$" horiz-adv-x="556" 
d="M247 -10q-113 2 -182 30v73q85 -33 182 -33v237q-4 0 -5 1q-106 26 -149 67t-43 112q0 76 49.5 121.5t147.5 53.5v78h64v-77q46 -1 88 -8t68 -16v-72q-73 26 -156 27v-228q108 -27 151.5 -72t43.5 -116q0 -76 -49.5 -121t-145.5 -54v-79h-64v76zM156.5 413
q24.5 -22 90.5 -41v209q-57 -7 -86 -32.5t-29 -71.5q0 -42 24.5 -64zM399 236.5q-25 24.5 -88 43.5v-217q58 7 85.5 31.5t27.5 73.5q0 44 -25 68.5z" />
    <glyph glyph-name="percent" unicode="%" horiz-adv-x="713" 
d="M290.5 614q34.5 -40 34.5 -111q0 -63 -35 -100.5t-102 -37.5q-68 0 -103 37.5t-35 100.5q0 71 35 111t103 40t102.5 -40zM488 644h77l-342 -644h-77zM249 441.5q19 21.5 19 62.5q0 49 -19 71.5t-61 22.5t-61 -22.5t-19 -71.5q0 -41 19 -62.5t61 -21.5t61 21.5zM628.5 239
q34.5 -40 34.5 -111q0 -63 -35 -100.5t-102 -37.5q-68 0 -103 37.5t-35 100.5q0 71 35 111t103 40t102.5 -40zM587 66.5q19 21.5 19 62.5q0 49 -19 71.5t-61 22.5t-61 -22.5t-19 -71.5q0 -41 19 -62.5t61 -21.5t61 21.5z" />
    <glyph glyph-name="ampersand" unicode="&#x26;" horiz-adv-x="660" 
d="M556 194q-9 -37 -26 -64l90 -91l-50 -45l-80 79q-67 -83 -220 -83q-100 0 -160 44t-60 118q0 65 40 114.5t117 89.5q-35 35 -52.5 55t-29 45t-11.5 55q0 62 42.5 102.5t116.5 40.5q73 0 114.5 -39t41.5 -104q0 -51 -27 -88.5t-85 -77.5l166 -169q17 37 17 94v14h65v-14
q0 -39 -9 -76zM273 591q-46 0 -68.5 -23t-22.5 -60q0 -29 19 -54t65 -69q51 32 73 58t22 65q0 83 -88 83zM369 66.5q42 17.5 71 52.5l-183 187q-67 -31 -97.5 -65.5t-30.5 -86.5q0 -50 39 -77.5t102 -27.5q57 0 99 17.5z" />
    <glyph glyph-name="quotesingle" unicode="'" horiz-adv-x="174" 
d="M50 644h74l-13 -177h-61v177z" />
    <glyph glyph-name="parenleft" unicode="(" horiz-adv-x="310" 
d="M82.5 515.5q32.5 101.5 104.5 162.5h93q-148 -126 -148 -375t148 -375h-93q-72 61 -104.5 162t-32.5 213q0 111 32.5 212.5z" />
    <glyph glyph-name="parenright" unicode=")" horiz-adv-x="310" 
d="M227.5 90q-32.5 -101 -103.5 -162h-94q148 126 148 375t-148 375h94q71 -61 103.5 -162.5t32.5 -212.5q0 -112 -32.5 -213z" />
    <glyph glyph-name="asterisk" unicode="*" horiz-adv-x="428" 
d="M182 644h65l-4 -119l109 53l26 -54l-121 -49l93 -103l-50 -37l-86 112l-86 -112l-50 37l92 103l-120 49l26 54l110 -53z" />
    <glyph glyph-name="plus" unicode="+" horiz-adv-x="477" 
d="M272 88h-67v148h-155v65h155v154h67v-154h155v-65h-155v-148z" />
    <glyph glyph-name="comma" unicode="," horiz-adv-x="202" 
d="M78 57h74l-42 -177h-60z" />
    <glyph glyph-name="hyphen" unicode="-" horiz-adv-x="477" 
d="M427 236h-377v65h377v-65z" />
    <glyph glyph-name="period" unicode="." horiz-adv-x="174" 
d="M50 69h74v-69h-74v69z" />
    <glyph glyph-name="slash" unicode="/" horiz-adv-x="417" 
d="M284 662h83l-234 -662h-83z" />
    <glyph glyph-name="zero" unicode="0" horiz-adv-x="647" 
d="M50 314q0 169 63.5 254.5t210.5 85.5q146 0 209.5 -85.5t63.5 -254.5q0 -324 -273 -324q-274 0 -274 324zM470 126q45 66 45 188q0 136 -43.5 203t-147.5 67q-105 0 -148.5 -66.5t-43.5 -203.5q0 -121 45.5 -187.5t146.5 -66.5t146 66z" />
    <glyph glyph-name="one" unicode="1" horiz-adv-x="304" 
d="M152 574l-102 -18v69l184 29v-654h-82v574z" />
    <glyph glyph-name="two" unicode="2" horiz-adv-x="506" 
d="M50 44q23 58 68 108.5t109 104.5q59 49 87.5 79.5t40.5 59.5t12 69q0 61 -31.5 90t-110.5 29q-74 0 -150 -29v73q33 11 77.5 18.5t85.5 7.5q102 0 156.5 -50t54.5 -139q0 -46 -16 -82.5t-43.5 -67t-74.5 -72.5l-21 -18q-59 -52 -91 -85.5t-52 -75.5h305v-64h-406v44z" />
    <glyph glyph-name="three" unicode="3" horiz-adv-x="514" 
d="M400.5 37.5q-63.5 -47.5 -177.5 -47.5q-44 0 -94 8t-79 19v72q74 -29 163 -29q88 0 128.5 26.5t40.5 90.5q0 118 -148 118h-93l8 62h77q71 0 106.5 31t35.5 89q0 55 -37 81t-116 26q-39 0 -79 -8t-74 -21v71q29 12 75 20t89 8q111 0 167.5 -48t56.5 -128q0 -52 -27 -93.5
t-80 -57.5q61 -14 91 -54t30 -96q0 -92 -63.5 -139.5z" />
    <glyph glyph-name="four" unicode="4" horiz-adv-x="541" 
d="M443 0h-82v148h-331v62l340 434h73v-429h68v-67h-68v-148zM112 213h260v333z" />
    <glyph glyph-name="five" unicode="5" horiz-adv-x="512" 
d="M401 43q-61 -53 -177 -53q-47 0 -94.5 7t-76.5 20v73q74 -30 162 -30q86 0 125.5 32t39.5 100q0 67 -31.5 97.5t-112.5 30.5h-186v57l17 267h349l-8 -64h-272l-13 -195h121q112 0 165 -48t53 -145q0 -96 -61 -149z" />
    <glyph glyph-name="six" unicode="6" horiz-adv-x="569" 
d="M459.5 46.5q-59.5 -56.5 -174.5 -56.5q-117 0 -176 59.5t-59 185.5v152q0 80 31.5 140t90.5 93.5t138 33.5q85 0 148 -21v-71q-61 22 -144 22q-94 0 -140 -48t-46 -134v-49q37 27 84 41.5t89 14.5q109 0 163.5 -53t54.5 -155q0 -98 -59.5 -154.5zM411.5 308.5
q-33.5 36.5 -117.5 36.5q-90 0 -166 -55v-78q0 -79 39 -118t118 -39t119.5 38t40.5 106q0 73 -33.5 109.5z" />
    <glyph glyph-name="seven" unicode="7" horiz-adv-x="498" 
d="M127 0l245 580h-332v64h418v-57l-248 -587h-83z" />
    <glyph glyph-name="eight" unicode="8" horiz-adv-x="584" 
d="M460 606.5q56 -47.5 56 -132.5q0 -52 -26.5 -91.5t-84.5 -59.5q67 -17 98 -54.5t31 -98.5q0 -89 -61.5 -134.5t-180.5 -45.5q-118 0 -180 45.5t-62 134.5q0 59 32 102.5t92 60.5q-54 17 -80 54.5t-26 86.5q0 84 57 132t167 48q112 0 168 -47.5zM413 392q29 28 29 81
q0 57 -38.5 86.5t-111.5 29.5t-111.5 -29t-38.5 -86q0 -43 27 -71.5t75 -38.5l76 -15q64 15 93 43zM460 171q0 51 -29.5 76t-92.5 38l-87 18q-62 -13 -94.5 -43.5t-32.5 -87.5q0 -117 168 -117t168 116z" />
    <glyph glyph-name="nine" unicode="9" horiz-adv-x="569" 
d="M109.5 597.5q59.5 56.5 174.5 56.5q117 0 176 -59.5t59 -185.5v-152q0 -80 -31.5 -140t-90.5 -93.5t-138 -33.5q-85 0 -148 21v71q61 -22 144 -22q94 0 140 48t46 134v49q-37 -27 -84 -41.5t-89 -14.5q-109 0 -163.5 53t-54.5 155q0 98 59.5 154.5zM157.5 335.5
q33.5 -36.5 117.5 -36.5q90 0 166 55v78q0 79 -39 118t-118 39t-119.5 -38t-40.5 -106q0 -73 33.5 -109.5z" />
    <glyph glyph-name="colon" unicode=":" horiz-adv-x="173" 
d="M50 398h73v-69h-73v69zM50 97h73v-69h-73v69z" />
    <glyph glyph-name="semicolon" unicode=";" horiz-adv-x="202" 
d="M80 398h72v-69h-72v69zM78 74h74l-42 -177h-60z" />
    <glyph glyph-name="less" unicode="&#x3c;" horiz-adv-x="547" 
d="M497 458l-361 -162l361 -163v-77l-447 206v67l447 206v-77z" />
    <glyph glyph-name="equal" unicode="=" horiz-adv-x="482" 
d="M50 370h382v-59h-382v59zM50 228h382v-60h-382v60z" />
    <glyph glyph-name="greater" unicode="&#x3e;" horiz-adv-x="547" 
d="M497 262l-447 -206v77l362 163l-362 162v77l447 -206v-67z" />
    <glyph glyph-name="question" unicode="?" horiz-adv-x="493" 
d="M419.5 391q-23.5 -34 -76.5 -78l-19 -16q-29 -24 -44 -39t-23.5 -35t-8.5 -49v-19h-82v23q0 36 14.5 64.5t34.5 49t55 49.5l23 19q33 29 50.5 55t17.5 59q0 59 -33.5 84.5t-117.5 25.5q-43 0 -84.5 -10t-75.5 -26v70q32 17 79 26.5t100 9.5q105 0 159.5 -47t54.5 -132
q0 -50 -23.5 -84zM162 65v-65h90v65h-90z" />
    <glyph glyph-name="at" unicode="@" horiz-adv-x="768" 
d="M627 134.5q22 37.5 22 117.5q0 107 -59 157t-187 50q-147 0 -215.5 -63t-68.5 -209q0 -141 71 -197t199 -56q110 0 173 19v-67q-76 -18 -171 -18q-157 0 -249 75.5t-92 244.5q0 171 90.5 254t262.5 83q155 0 235 -70t80 -203q0 -100 -44 -157t-133 -57h-17
q-58 -58 -161 -58q-68 0 -108.5 34t-40.5 92q0 59 37 97.5t114 38.5h127v20q0 36 -9 54.5t-31.5 26t-66.5 7.5q-65 0 -123 -20v54q51 22 138 22q79 0 116.5 -34.5t37.5 -108.5v-166q51 0 73 37.5zM375 187q-55 0 -76 -20.5t-21 -61.5q0 -38 22 -54.5t70 -16.5q83 0 122 51
v102h-117z" />
    <glyph glyph-name="A" unicode="A" horiz-adv-x="685" 
d="M135 0h-85l245 644h96l244 -644h-84l-68 177h-280zM217 242h251l-126 331z" />
    <glyph glyph-name="B" unicode="B" horiz-adv-x="627" 
d="M384 0h-314v644h298q184 0 184 -170q0 -52 -21 -87.5t-60 -54.5q106 -26 106 -148q0 -184 -193 -184zM447.5 554q-27.5 27 -99.5 27h-196v-219h211q112 0 112 106q0 59 -27.5 86zM465 91q30 29 30 96q0 58 -31 85.5t-107 27.5h-205v-238h218q65 0 95 29z" />
    <glyph glyph-name="C" unicode="C" horiz-adv-x="595" 
d="M545 89v-73q-84 -26 -186 -26q-152 0 -230.5 85t-78.5 233q0 164 75.5 255t232.5 91q103 0 187 -30v-72q-85 32 -180 32q-125 0 -179 -70t-54 -206q0 -248 235 -248q101 0 178 29z" />
    <glyph glyph-name="D" unicode="D" horiz-adv-x="642" 
d="M528 76q-64 -76 -206 -76h-252v644h252q141 0 205.5 -76.5t64.5 -249.5q0 -166 -64 -242zM490 476.5q-20 56.5 -63.5 79.5t-119.5 23h-155v-515h155q72 0 115.5 21t65.5 76t22 157t-20 158.5z" />
    <glyph glyph-name="E" unicode="E" horiz-adv-x="555" 
d="M70 644h435v-65h-353v-225h317v-64h-317v-226h353v-64h-435v644z" />
    <glyph glyph-name="F" unicode="F" horiz-adv-x="522" 
d="M70 644h422v-65h-340v-225h303v-64h-303v-290h-82v644z" />
    <glyph glyph-name="G" unicode="G" horiz-adv-x="639" 
d="M518 86v205h-172v56h243v-306q-80 -51 -230 -51q-152 0 -230.5 85t-78.5 233q0 164 75.5 255t232.5 91q103 0 187 -30v-72q-85 32 -180 32q-125 0 -179 -70t-54 -206q0 -122 56 -185t176 -63q87 0 154 26z" />
    <glyph glyph-name="H" unicode="H" horiz-adv-x="644" 
d="M492 290h-340v-290h-82v644h82v-290h340v290h82v-644h-82v290z" />
    <glyph glyph-name="I" unicode="I" horiz-adv-x="222" 
d="M70 644h82v-644h-82v644z" />
    <glyph glyph-name="J" unicode="J" horiz-adv-x="427" 
d="M312.5 38.5q-49.5 -48.5 -147.5 -48.5q-77 0 -135 23v70q24 -11 58.5 -17.5t66.5 -6.5q69 0 97 29t28 95v461h82v-467q0 -90 -49.5 -138.5z" />
    <glyph glyph-name="K" unicode="K" horiz-adv-x="607" 
d="M557 0h-88l-212 333l-105 -111v-222h-82v644h82v-319l301 319h96l-240 -258z" />
    <glyph glyph-name="L" unicode="L" horiz-adv-x="525" 
d="M495 64v-64h-425v644h82v-580h343z" />
    <glyph glyph-name="M" unicode="M" horiz-adv-x="752" 
d="M151 516v-516h-81v644h88l218 -447l218 447h88v-644h-81v516l-197 -404h-55z" />
    <glyph glyph-name="N" unicode="N" horiz-adv-x="663" 
d="M152 0h-82v644h74l367 -518v518h82v-644h-75l-366 517v-517z" />
    <glyph glyph-name="O" unicode="O" horiz-adv-x="694" 
d="M571.5 70q-72.5 -80 -224.5 -80t-224.5 80t-72.5 252t72.5 252t224.5 80t224.5 -80t72.5 -252t-72.5 -252zM539 475.5q-23 57.5 -70 83t-122 25.5t-122 -25.5t-70 -83t-23 -153.5t23 -153.5t70 -83t122 -25.5t122 25.5t70 83t23 153.5t-23 153.5z" />
    <glyph glyph-name="P" unicode="P" horiz-adv-x="582" 
d="M494.5 287.5q-57.5 -54.5 -156.5 -54.5h-186v-233h-82v644h272q104 0 157 -56.5t53 -151.5q0 -94 -57.5 -148.5zM433 334q37 37 37 102q0 69 -35 106t-105 37h-178v-282h173q71 0 108 37z" />
    <glyph glyph-name="Q" unicode="Q" horiz-adv-x="694" 
d="M580 80q-64 -80 -197 -89q1 -53 16.5 -73t57.5 -20q36 0 71 10v-69q-40 -11 -87 -11q-135 0 -138 164q-129 11 -191 90.5t-62 239.5q0 172 72.5 252t224.5 80t224.5 -80t72.5 -252q0 -162 -64 -242zM539 475.5q-23 57.5 -70 83t-122 25.5t-122 -25.5t-70 -83t-23 -153.5
t23 -153.5t70 -83t122 -25.5t122 25.5t70 83t23 153.5t-23 153.5z" />
    <glyph glyph-name="R" unicode="R" horiz-adv-x="602" 
d="M517 325.5q-35 -46.5 -102 -62.5q19 -11 29 -25.5t23 -43.5l84 -194h-84l-82 187q-14 32 -33.5 44t-63.5 12h-136v-243h-82v644h283q101 0 150 -52.5t49 -147.5q0 -72 -35 -118.5zM470 444q0 135 -129 135h-189v-272h178q140 0 140 137z" />
    <glyph glyph-name="S" unicode="S" horiz-adv-x="556" 
d="M443.5 36q-62.5 -46 -184.5 -46q-120 0 -194 30v73q88 -33 187 -33q89 0 130.5 24t41.5 84q0 37 -17.5 59.5t-55 38t-109.5 32.5q-106 26 -149 67t-43 112q0 84 60.5 130.5t178.5 46.5q52 0 100.5 -7.5t77.5 -17.5v-72q-76 27 -165 27q-85 0 -127.5 -25t-42.5 -82
q0 -33 15 -53t50.5 -34.5t105.5 -31.5q113 -27 158 -72.5t45 -117.5q0 -86 -62.5 -132z" />
    <glyph glyph-name="T" unicode="T" horiz-adv-x="570" 
d="M326 0h-82v579h-214v65h510v-65h-214v-579z" />
    <glyph glyph-name="U" unicode="U" horiz-adv-x="671" 
d="M475.5 104q48.5 44 48.5 131v409h82v-408q0 -120 -69.5 -183t-200.5 -63q-132 0 -201.5 63t-69.5 183v408h82v-409q0 -87 49 -131t140 -44t139.5 44z" />
    <glyph glyph-name="V" unicode="V" horiz-adv-x="685" 
d="M635 644l-244 -644h-96l-245 644h85l207 -561l208 561h85z" />
    <glyph glyph-name="W" unicode="W" horiz-adv-x="861" 
d="M288 0h-88l-150 644h81l121 -530l139 459v71h67l150 -530l123 530h80l-149 -644h-87l-140 490z" />
    <glyph glyph-name="X" unicode="X" horiz-adv-x="652" 
d="M326 257l-181 -257h-95l227 320l-224 324h94l179 -263l179 263h94l-224 -324l227 -320h-95z" />
    <glyph glyph-name="Y" unicode="Y" horiz-adv-x="642" 
d="M280 240l-230 404h85l186 -334l186 334h85l-230 -404v-240h-82v240z" />
    <glyph glyph-name="Z" unicode="Z" horiz-adv-x="572" 
d="M50 46l368 533h-351v65h455v-51l-365 -529h370v-64h-477v46z" />
    <glyph glyph-name="bracketleft" unicode="[" horiz-adv-x="344" 
d="M50 706h251l3 -65h-172v-676h172l-3 -64h-251v805z" />
    <glyph glyph-name="backslash" unicode="\" horiz-adv-x="436" 
d="M50 662h84l252 -716h-83z" />
    <glyph glyph-name="bracketright" unicode="]" horiz-adv-x="344" 
d="M40 -35h172v676h-172l3 65h251v-805h-251z" />
    <glyph glyph-name="asciicircum" unicode="^" horiz-adv-x="459" 
d="M332 392l-102 172l-102 -172h-78l147 232h63l149 -232h-77z" />
    <glyph glyph-name="underscore" unicode="_" horiz-adv-x="549" 
d="M499 -64h-449v64h449v-64z" />
    <glyph glyph-name="grave" unicode="`" horiz-adv-x="245" 
d="M50 690h74l71 -168h-66z" />
    <glyph glyph-name="a" unicode="a" horiz-adv-x="541" 
d="M401 54q-31 -33 -75.5 -48.5t-108.5 -15.5q-72 0 -119.5 37t-47.5 106t45 108.5t138 39.5h165v29q0 40 -11 62.5t-40 32.5t-84 10q-83 0 -158 -26v68q71 27 169 27q102 0 152 -41.5t50 -132.5v-310h-69zM235 218q-55 0 -79.5 -20.5t-24.5 -64.5q0 -41 27 -58.5t80 -17.5
q101 0 160 69v92h-163z" />
    <glyph glyph-name="b" unicode="b" horiz-adv-x="575" 
d="M469 52.5q-56 -62.5 -158 -62.5q-53 0 -92.5 14.5t-72.5 45.5l-6 -50h-70v674h82v-235q65 45 158 45q215 0 215 -243q0 -126 -56 -188.5zM152 371v-258q53 -57 138 -57q82 0 117.5 45t35.5 140t-37 136t-118 41q-83 0 -136 -47z" />
    <glyph glyph-name="c" unicode="c" horiz-adv-x="490" 
d="M294 -10q-122 0 -183 63.5t-61 183.5q0 122 66.5 184.5t184.5 62.5q45 0 76 -6.5t62 -20.5v-65q-54 26 -123 26q-91 0 -137.5 -43t-46.5 -138t42 -138t139 -43q69 0 127 26v-66q-63 -26 -146 -26z" />
    <glyph glyph-name="d" unicode="d" horiz-adv-x="575" 
d="M108 419.5q58 64.5 161 64.5q46 0 83 -11t71 -34v235h82v-674h-70l-6 50q-33 -31 -72.5 -45.5t-92.5 -14.5q-104 0 -159 57.5t-55 182.5t58 189.5zM169.5 372.5q-37.5 -45.5 -37.5 -142.5q0 -93 35 -133.5t118 -40.5q85 0 138 57v258q-53 47 -136 47q-80 0 -117.5 -45.5z
" />
    <glyph glyph-name="e" unicode="e" horiz-adv-x="533" 
d="M155.5 113.5q19.5 -30.5 58.5 -44t105 -13.5q73 0 134 25v-64q-61 -27 -150 -27q-127 0 -190 61t-63 188q0 117 56 181t171 64q101 0 153.5 -54t52.5 -142v-89h-351q4 -55 23.5 -85.5zM164.5 379.5q-32.5 -38.5 -32.5 -121.5h278v39q0 59 -31.5 90t-99.5 31
q-82 0 -114.5 -38.5z" />
    <glyph glyph-name="f" unicode="f" horiz-adv-x="346" 
d="M336 675v-62q-31 11 -66 11q-50 0 -68.5 -18t-18.5 -63v-69h128l-4 -65h-124v-409h-82v409h-71v65h71v69q0 69 38 108t110 39q47 0 87 -15z" />
    <glyph glyph-name="g" unicode="g" horiz-adv-x="547" 
d="M376.5 -18q-18.5 11 -65.5 11h-126q-65 0 -98 22.5t-33 65.5q0 31 19 56.5t55 36.5q-78 38 -78 140q0 88 51 129t158 41q37 0 82 -10h171l-3 -56h-86q43 -37 43 -104q0 -80 -46.5 -123t-140.5 -43q-21 0 -58 5q-33 -2 -59 -18.5t-26 -41.5q0 -18 14 -25.5t49 -7.5h131
q71 0 109 -29t38 -83q0 -67 -55.5 -95.5t-167.5 -28.5q-119 0 -190 25v68q39 -13 88.5 -20t97.5 -7q55 0 85 4t45 15.5t15 35.5q0 26 -18.5 37zM356.5 233q27.5 23 27.5 81t-28.5 84t-96.5 26q-67 0 -97 -25.5t-30 -84.5q0 -56 29 -80t98 -24q70 0 97.5 23z" />
    <glyph glyph-name="h" unicode="h" horiz-adv-x="570" 
d="M423 0v307q0 61 -27 86t-91 25q-40 0 -82.5 -17.5t-70.5 -45.5v-355h-82v674h82v-251q75 61 181 61q87 0 129.5 -42.5t42.5 -131.5v-310h-82z" />
    <glyph glyph-name="i" unicode="i" horiz-adv-x="296" 
d="M135 585v75h91v-75h-91zM225 0h-82v409h-73l8 65h147v-474z" />
    <glyph glyph-name="j" unicode="j" horiz-adv-x="294" 
d="M133 585v75h91v-75h-91zM186.5 -196.5q-37.5 -37.5 -107.5 -37.5q-50 0 -89 14v65q31 -10 61 -10q53 0 72 17.5t19 60.5v496h-73l8 65h147v-568q0 -65 -37.5 -102.5z" />
    <glyph glyph-name="k" unicode="k" horiz-adv-x="530" 
d="M480 0h-86l-171 242l-71 -67v-175h-82v674h82v-409l222 209h95l-194 -188z" />
    <glyph glyph-name="l" unicode="l" horiz-adv-x="263" 
d="M152 674v-563q0 -29 9.5 -40.5t31.5 -11.5q23 0 45 6v-65q-26 -10 -65 -10q-50 0 -76.5 26.5t-26.5 85.5v572h82z" />
    <glyph glyph-name="m" unicode="m" horiz-adv-x="855" 
d="M709 0v307q0 62 -26 86.5t-86 24.5q-40 0 -75.5 -13.5t-59.5 -39.5q6 -25 6 -58v-307h-77v305q0 62 -21 87.5t-78 25.5q-38 0 -75 -16.5t-66 -44.5v-357h-81v474h74l5 -54q80 64 172 64q51 0 81 -16.5t45 -48.5q37 31 81 48t102 17q81 0 120.5 -41.5t39.5 -127.5v-315
h-81z" />
    <glyph glyph-name="n" unicode="n" horiz-adv-x="570" 
d="M423 0v307q0 43 -11 66.5t-36.5 34t-73.5 10.5q-44 0 -83 -16t-67 -44v-358h-82v474h74l5 -54q78 64 184 64q90 0 131 -42t41 -132v-310h-82z" />
    <glyph glyph-name="o" unicode="o" horiz-adv-x="574" 
d="M524 237q0 -123 -57.5 -185t-179.5 -62t-179.5 62t-57.5 185q0 247 237 247t237 -247zM406.5 102q35.5 42 35.5 135t-36 135t-119 42t-119 -42t-36 -135t35.5 -135t119.5 -42t119.5 42z" />
    <glyph glyph-name="p" unicode="p" horiz-adv-x="575" 
d="M469 54q-56 -64 -159 -64q-93 0 -158 45v-251h-82v690h70l6 -50q33 31 72.5 45.5t92.5 14.5q104 0 159 -57.5t55 -182.5q0 -126 -56 -190zM405.5 101.5q37.5 45.5 37.5 142.5q0 93 -35 133.5t-118 40.5q-85 0 -138 -57v-258q53 -47 136 -47q80 0 117.5 45.5z" />
    <glyph glyph-name="q" unicode="q" horiz-adv-x="611" 
d="M106.5 417.5q56.5 66.5 157.5 66.5q53 0 92.5 -14.5t72.5 -45.5l6 50h70v-588q0 -34 11 -46.5t42 -12.5q21 0 43 6v-65q-27 -10 -63 -10q-115 0 -115 124v153q-65 -45 -158 -45q-105 0 -160 55t-55 179q0 127 56.5 193.5zM168.5 93q36.5 -37 118.5 -37q83 0 136 47v258
q-53 57 -138 57q-81 0 -117 -49t-36 -145q0 -94 36.5 -131z" />
    <glyph glyph-name="r" unicode="r" horiz-adv-x="356" 
d="M150 414q35 23 82.5 42t93.5 28v-64q-44 -9 -94.5 -28t-79.5 -39v-353h-82v474h74z" />
    <glyph glyph-name="s" unicode="s" horiz-adv-x="457" 
d="M314 160.5q-11 13.5 -31.5 23t-64.5 23.5l-27 9q-50 17 -78.5 31.5t-45.5 40t-17 66.5q0 64 45 97t141 33q74 0 134 -19v-72q-63 21 -121 21q-64 0 -90.5 -13t-26.5 -46q0 -23 11.5 -36t33 -21.5t75.5 -25.5q59 -18 91.5 -36t48 -44t15.5 -67q0 -135 -188 -135
q-45 0 -87 6t-70 16v72q68 -24 146 -24q65 0 91 13.5t26 50.5q0 23 -11 36.5z" />
    <glyph glyph-name="t" unicode="t" horiz-adv-x="358" 
d="M102 474v117l82 25v-142h131l-5 -65h-126v-273q0 -44 19.5 -62t67.5 -18q26 0 57 10v-62q-37 -14 -85 -14q-69 0 -105 37t-36 105v277h-72v65h72z" />
    <glyph glyph-name="u" unicode="u" horiz-adv-x="570" 
d="M147 474v-303q0 -59 29.5 -87t91.5 -28q44 0 83 16t67 44v358h82v-474h-74l-5 54q-36 -29 -83.5 -46.5t-100.5 -17.5q-85 0 -128.5 47t-43.5 137v300h82z" />
    <glyph glyph-name="v" unicode="v" horiz-adv-x="564" 
d="M50 474h85l147 -398l147 398h85l-186 -474h-92z" />
    <glyph glyph-name="w" unicode="w" horiz-adv-x="736" 
d="M369 344l-113 -344h-82l-124 474h82l93 -381l106 326v55h63l117 -381l93 381h82l-124 -474h-82z" />
    <glyph glyph-name="x" unicode="x" horiz-adv-x="549" 
d="M274 185l-135 -185h-89l180 241l-174 233h89l129 -177l130 177h88l-172 -233l179 -241h-89z" />
    <glyph glyph-name="y" unicode="y" horiz-adv-x="584" 
d="M135 474l165 -382l170 382h84l-199 -453q-29 -67 -54 -108t-59.5 -65t-82.5 -24q-47 0 -82 13v66q28 -10 61 -10t52.5 11.5t33.5 33t35 67.5l-209 469h85z" />
    <glyph glyph-name="z" unicode="z" horiz-adv-x="485" 
d="M50 45l279 364h-266v65h365v-51l-275 -359h282v-64h-385v45z" />
    <glyph glyph-name="braceleft" unicode="{" horiz-adv-x="296" 
d="M83.5 243q-13.5 23 -53.5 28v54q40 5 53.5 28t13.5 72v171q0 57 25 80.5t85 23.5h49v-65h-34q-25 0 -34 -9.5t-9 -37.5v-197q0 -31 -14 -57t-44 -36q30 -10 44 -35.5t14 -56.5v-198q0 -28 9 -37.5t34 -9.5h34v-65h-49q-60 0 -85 23.5t-25 80.5v171q0 49 -13.5 72z" />
    <glyph glyph-name="bar" unicode="|" horiz-adv-x="182" 
d="M50 735h82v-855h-82v855z" />
    <glyph glyph-name="braceright" unicode="}" horiz-adv-x="296" 
d="M174 -80.5q-25 -23.5 -85 -23.5h-49v65h34q25 0 34 9.5t9 37.5v198q0 31 14 56.5t44 35.5q-30 10 -44 36t-14 57v197q0 28 -9 37.5t-34 9.5h-34v65h49q60 0 85 -23.5t25 -80.5v-171q0 -49 13.5 -72t53.5 -28v-54q-40 -5 -53.5 -28t-13.5 -72v-171q0 -57 -25 -80.5z" />
    <glyph glyph-name="asciitilde" unicode="~" horiz-adv-x="572" 
d="M470.5 318.5q26.5 14.5 51.5 45.5v-83q-17 -24 -48 -38t-68 -14q-27 0 -53 9t-67 27q-42 18 -67 26.5t-51 8.5q-38 0 -66 -14.5t-52 -45.5v83q17 24 49 38t69 14q32 0 60 -9t68 -28q33 -17 58.5 -25.5t51.5 -8.5q38 0 64.5 14.5z" />
    <glyph glyph-name="uni00A0" unicode="&#xa0;" horiz-adv-x="380" 
 />
    <glyph glyph-name="exclamdown" unicode="&#xa1;" horiz-adv-x="190" 
d="M50 555v65h90v-65h-90zM136 133l-6 333h-70l-6 -333v-157h82v157z" />
    <glyph glyph-name="cent" unicode="&#xa2;" horiz-adv-x="490" 
d="M264 -9q-107 7 -160.5 70t-53.5 176q0 111 56 173t158 72v78h62v-77q34 -1 60 -7.5t53 -18.5v-65q-51 25 -113 26v-362q60 2 114 26v-66q-48 -20 -114 -25v-77h-62v77zM163 111.5q31 -42.5 101 -52.5v355q-65 -11 -98.5 -54t-33.5 -123q0 -83 31 -125.5z" />
    <glyph glyph-name="sterling" unicode="&#xa3;" horiz-adv-x="503" 
d="M453 0h-403v65h26q59 0 59 71v173h-70v65h70v123q0 73 47.5 115t122.5 42q70 0 111 -19v-63q-14 7 -39 11.5t-48 4.5q-57 0 -84.5 -22t-27.5 -73v-119h198l-3 -65h-195v-169q0 -27 -6 -45.5t-21 -29.5h263v-65z" />
    <glyph glyph-name="currency" unicode="&#xa4;" horiz-adv-x="573" 
d="M287 84q-64 0 -115 41l-84 -65l-38 47l83 62q-32 43 -32 100q0 58 32 99l-82 63l37 46l84 -66q48 42 114 42q65 0 115 -42l85 66l37 -46l-83 -63q33 -45 33 -99q0 -53 -33 -101l83 -62l-37 -46l-85 65q-49 -41 -114 -41zM199.5 357.5q-35.5 -36.5 -35.5 -88.5t35.5 -88.5
t86.5 -36.5q52 0 88 36.5t36 88.5q0 34 -17 62.5t-45.5 45.5t-61.5 17q-51 0 -86.5 -36.5z" />
    <glyph glyph-name="yen" unicode="&#xa5;" horiz-adv-x="642" 
d="M280 205h-157v57h144l-217 382h85l186 -334l186 334h85l-218 -382h145v-57h-157v-52h157v-57h-157v-96h-82v96h-157v57h157v52z" />
    <glyph glyph-name="brokenbar" unicode="&#xa6;" horiz-adv-x="182" 
d="M50 735h82v-311h-82v311zM50 190h82v-310h-82v310z" />
    <glyph glyph-name="section" unicode="&#xa7;" horiz-adv-x="556" 
d="M110 719.5q60 45.5 179 45.5q52 0 100.5 -7.5t77.5 -17.5v-72q-76 27 -165 27q-85 0 -127.5 -25t-42.5 -82q0 -33 15.5 -54t51.5 -36t104 -31q81 -20 124.5 -41t61 -48t17.5 -68q0 -16 -5 -37t-12 -36q17 -31 17 -71q0 -85 -64 -130.5t-183 -45.5q-120 0 -194 30v73
q88 -33 187 -33q87 0 129.5 24.5t42.5 83.5q0 36 -19 58.5t-56.5 36.5t-108.5 32q-72 19 -112.5 40t-59 49.5t-18.5 71.5q0 37 18 65q-18 31 -18 70q0 83 60 128.5zM140.5 406.5q13.5 -14.5 44 -25.5t94.5 -27q114 -28 151 -70q5 15 5 27q0 26 -14.5 41.5t-48 28
t-103.5 30.5q-58 15 -89 27.5t-48 30.5q-5 -12 -5 -23q0 -25 13.5 -39.5z" />
    <glyph glyph-name="dieresis" unicode="&#xa8;" horiz-adv-x="354" 
d="M50 636h78v-75h-78v75zM226 636h78v-75h-78v75z" />
    <glyph glyph-name="copyright" unicode="&#xa9;" horiz-adv-x="764" 
d="M94.5 488.5q44.5 76.5 121 121t166.5 44.5t166.5 -44.5t121 -121t44.5 -166.5t-44.5 -166.5t-121 -121t-166.5 -44.5t-166.5 44.5t-121 121t-44.5 166.5t44.5 166.5zM148 182q35 -62 96 -97t138 -35t138.5 35t96.5 97t35 140q0 77 -35 139t-96.5 97t-138.5 35t-138 -35
t-96 -97t-35 -139q0 -78 35 -140zM455 99q-36 -8 -74 -8q-105 0 -164.5 61.5t-59.5 168.5q0 74 30.5 126t83 78t117.5 26q77 0 129 -31v-54q-51 27 -116 27q-178 0 -178 -172q0 -92 41.5 -132.5t131.5 -40.5q30 0 63.5 8t57.5 21v-56q-26 -14 -62 -22z" />
    <glyph glyph-name="ordfeminine" unicode="&#xaa;" horiz-adv-x="347" 
d="M244 415q-19 -18 -42.5 -26.5t-56.5 -8.5q-42 0 -68.5 19.5t-26.5 58.5q0 86 105 86h87v12q0 30 -15 41.5t-60 11.5q-43 0 -83 -14v44q40 15 95 15q118 0 118 -97v-171h-49zM163 504q-33 0 -46.5 -9.5t-13.5 -34.5q0 -21 14.5 -30t42.5 -9q27 0 46.5 9t35.5 29v45h-79z
" />
    <glyph glyph-name="guillemotleft" unicode="&#xab;" horiz-adv-x="602" 
d="M304 80l-254 187v39l254 187l33 -48l-213 -159l213 -158zM519 80l-254 187v39l254 187l33 -48l-213 -159l213 -158z" />
    <glyph glyph-name="logicalnot" unicode="&#xac;" horiz-adv-x="531" 
d="M481 147h-67v156h-364v65h431v-221z" />
    <glyph glyph-name="uni00AD" unicode="&#xad;" horiz-adv-x="477" 
d="M427 236h-377v65h377v-65z" />
    <glyph glyph-name="registered" unicode="&#xae;" horiz-adv-x="764" 
d="M94.5 488.5q44.5 76.5 121 121t166.5 44.5t166.5 -44.5t121 -121t44.5 -166.5t-44.5 -166.5t-121 -121t-166.5 -44.5t-166.5 44.5t-121 121t-44.5 166.5t44.5 166.5zM148 182q35 -62 96 -97t138 -35t138.5 35t96.5 97t35 140q0 77 -35 139t-96.5 97t-138.5 35t-138 -35
t-96 -97t-35 -139q0 -78 35 -140zM529.5 329.5q-26.5 -32.5 -73.5 -42.5q13 -8 20.5 -18t15.5 -29l54 -128h-61l-55 129q-9 21 -21 26.5t-49 5.5h-70v-161h-62v426h188q67 0 103.5 -34.5t36.5 -94.5q0 -47 -26.5 -79.5zM469.5 341.5q25.5 16.5 25.5 67.5q0 46 -19.5 61.5
t-67.5 15.5h-118v-161h98q56 0 81.5 16.5z" />
    <glyph glyph-name="macron" unicode="&#xaf;" horiz-adv-x="388" 
d="M338 565h-288v59h288v-59z" />
    <glyph glyph-name="degree" unicode="&#xb0;" horiz-adv-x="319" 
d="M82 689q32 31 77 31q46 0 78 -30.5t32 -77.5t-32 -77.5t-78 -30.5q-45 0 -77 31t-32 77t32 77zM120.5 572.5q15.5 -15.5 38.5 -15.5q24 0 40 15.5t16 39.5q0 23 -16 39t-40 16q-23 0 -38.5 -16t-15.5 -39q0 -24 15.5 -39.5z" />
    <glyph glyph-name="plusminus" unicode="&#xb1;" horiz-adv-x="477" 
d="M272 108h-67v148h-155v65h155v154h67v-154h155v-65h-155v-148zM50 65h377v-65h-377v65z" />
    <glyph glyph-name="uni00B2" unicode="&#xb2;" horiz-adv-x="300" 
d="M50 402q13 22 31.5 40.5t47.5 42.5q35 29 47.5 46.5t12.5 37.5q0 21 -13 29.5t-45 8.5q-33 0 -72 -14v47q44 14 88 14q47 0 74 -24t27 -61q0 -28 -12 -46t-45 -49q-13 -13 -25 -22q-25 -21 -36 -35h120v-47h-200v32z" />
    <glyph glyph-name="uni00B3" unicode="&#xb3;" horiz-adv-x="303" 
d="M133 362q-22 0 -46 3.5t-37 8.5v45q33 -13 71 -13q39 0 55 9.5t16 32.5q0 22 -16 31.5t-49 9.5h-37l3 41h31q33 0 47.5 10t14.5 33q0 20 -15 28t-49 8q-33 0 -67 -12v45q14 5 36.5 8.5t43.5 3.5q112 0 112 -78q0 -23 -11 -41t-34 -26q51 -11 51 -63q0 -84 -120 -84z" />
    <glyph glyph-name="acute" unicode="&#xb4;" horiz-adv-x="245" 
d="M121 690h74l-79 -168h-66z" />
    <glyph glyph-name="paragraph" unicode="&#xb6;" horiz-adv-x="628" 
d="M578 -77h-82v723h-100v-723h-82v330q-123 0 -193.5 51t-70.5 173q0 121 70 177t193 56h265v-787z" />
    <glyph glyph-name="periodcentered" unicode="&#xb7;" horiz-adv-x="174" 
d="M50 319h74v-69h-74v69z" />
    <glyph glyph-name="cedilla" unicode="&#xb8;" horiz-adv-x="313" 
d="M120 -240q-16 0 -37 2.5t-33 5.5v50q29 -8 63 -8q48 0 69 11.5t21 41.5q0 28 -19.5 37t-65.5 9h-37l29 91h58l-16 -48q54 0 82.5 -23.5t28.5 -66.5q0 -102 -143 -102z" />
    <glyph glyph-name="uni00B9" unicode="&#xb9;" horiz-adv-x="212" 
d="M124 598l-74 -16v46l132 26v-284h-58v228z" />
    <glyph glyph-name="ordmasculine" unicode="&#xba;" horiz-adv-x="365" 
d="M281.5 619q33.5 -35 33.5 -102q0 -137 -133 -137q-132 0 -132 137q0 67 33 102t99 35t99.5 -35zM241.5 447q17.5 23 17.5 70t-18 69.5t-59 22.5t-59 -23t-18 -69q0 -47 17.5 -70t59.5 -23t59.5 23z" />
    <glyph glyph-name="guillemotright" unicode="&#xbb;" horiz-adv-x="602" 
d="M50 445l33 48l254 -187v-39l-254 -187l-33 48l213 158zM265 445l33 48l254 -187v-39l-254 -187l-33 48l213 158z" />
    <glyph glyph-name="onequarter" unicode="&#xbc;" horiz-adv-x="632" 
d="M124 598l-74 -16v46l132 26v-284h-58v228zM442 644h77l-342 -644h-77zM551 0h-57v58h-150v43l143 183h64v-183h31v-43h-31v-58zM400 102h105v136z" />
    <glyph glyph-name="onehalf" unicode="&#xbd;" horiz-adv-x="630" 
d="M124 598l-74 -16v46l132 26v-284h-58v228zM442 644h77l-342 -644h-77zM380 32q13 22 31.5 40.5t47.5 42.5q35 29 47.5 46.5t12.5 37.5q0 21 -13 29.5t-45 8.5q-33 0 -72 -14v47q44 14 88 14q47 0 74 -24t27 -61q0 -28 -12 -46t-45 -49q-13 -13 -25 -22q-25 -21 -36 -35
h120v-47h-200v32z" />
    <glyph glyph-name="threequarters" unicode="&#xbe;" horiz-adv-x="641" 
d="M133 362q-22 0 -46 3.5t-37 8.5v43q33 -13 71 -13q39 0 55 10.5t16 33.5q0 22 -16 32t-49 10h-37l3 39h31q32 0 47 10.5t15 33.5q0 20 -15.5 29t-48.5 9t-67 -12v43q14 5 36.5 8.5t43.5 3.5q112 0 112 -78q0 -23 -11 -41t-34 -26q51 -11 51 -63q0 -84 -120 -84zM451 644
h77l-342 -644h-77zM560 0h-57v58h-150v43l143 183h64v-183h31v-43h-31v-58zM409 102h105v136z" />
    <glyph glyph-name="questiondown" unicode="&#xbf;" horiz-adv-x="493" 
d="M351 620v-65h-90v65h90zM93.5 229q23.5 34 76.5 78l19 16q29 24 44 39t23.5 35t8.5 49v19h82v-23q0 -36 -14.5 -64.5t-34.5 -49t-55 -49.5l-23 -19q-33 -29 -50.5 -55t-17.5 -59q0 -59 33.5 -84.5t117.5 -25.5q43 0 84.5 10t75.5 26v-70q-32 -17 -79 -26.5t-100 -9.5
q-105 0 -159.5 47t-54.5 132q0 50 23.5 84z" />
    <glyph glyph-name="Agrave" unicode="&#xc0;" horiz-adv-x="685" 
d="M217 856h74l71 -168h-66zM135 0h-85l245 644h96l244 -644h-84l-68 177h-280zM217 242h251l-126 331z" />
    <glyph glyph-name="Aacute" unicode="&#xc1;" horiz-adv-x="685" 
d="M363 856h74l-79 -168h-66zM135 0h-85l245 644h96l244 -644h-84l-68 177h-280zM217 242h251l-126 331z" />
    <glyph glyph-name="Acircumflex" unicode="&#xc2;" horiz-adv-x="685" 
d="M419 688l-77 102l-77 -102h-71l115 148h66l115 -148h-71zM135 0h-85l245 644h96l244 -644h-84l-68 177h-280zM217 242h251l-126 331z" />
    <glyph glyph-name="Atilde" unicode="&#xc3;" horiz-adv-x="685" 
d="M338 723q-17 7 -34.5 12.5t-30.5 5.5q-53 0 -83 -35v63q12 13 35.5 21.5t47.5 8.5q19 0 36.5 -5t39.5 -15q25 -10 38.5 -14t29.5 -4q51 0 77 36v-64q-10 -14 -31 -22t-46 -8q-29 0 -79 20zM135 0h-85l245 644h96l244 -644h-84l-68 177h-280zM217 242h251l-126 331z" />
    <glyph glyph-name="Adieresis" unicode="&#xc4;" horiz-adv-x="685" 
d="M215 785h78v-75h-78v75zM391 785h78v-75h-78v75zM135 0h-85l245 644h96l244 -644h-84l-68 177h-280zM217 242h251l-126 331z" />
    <glyph glyph-name="Aring" unicode="&#xc5;" horiz-adv-x="685" 
d="M635 0h-84l-68 177h-280l-68 -177h-85l237 622q-26 14 -40.5 38.5t-14.5 55.5q0 46 31 77t78 31q49 0 80 -31t31 -77q0 -30 -14 -54.5t-39 -38.5zM297.5 759.5q-17.5 -17.5 -17.5 -43.5t17.5 -43.5t43.5 -17.5q27 0 44.5 17.5t17.5 43.5t-17.5 43.5t-44.5 17.5
q-26 0 -43.5 -17.5zM468 242l-126 331l-125 -331h251z" />
    <glyph glyph-name="AE" unicode="&#xc6;" horiz-adv-x="840" 
d="M409 178h-203l-68 -178h-88l245 644h495v-65h-299v-225h263v-64h-263v-226h299v-64h-381v178zM409 579h-51l-127 -337h178v337z" />
    <glyph glyph-name="Ccedilla" unicode="&#xc7;" horiz-adv-x="595" 
d="M186 514q-54 -70 -54 -206q0 -248 235 -248q101 0 178 29v-73q-80 -25 -174 -26l-13 -38q54 0 82.5 -23.5t28.5 -66.5q0 -102 -143 -102q-16 0 -37 2.5t-33 5.5v50q29 -8 63 -8q48 0 69 11.5t21 41.5q0 28 -19.5 37t-65.5 9h-37l26 83q-130 13 -196.5 96.5t-66.5 219.5
q0 164 75.5 255t232.5 91q103 0 187 -30v-72q-85 32 -180 32q-125 0 -179 -70z" />
    <glyph glyph-name="Egrave" unicode="&#xc8;" horiz-adv-x="555" 
d="M178 856h74l71 -168h-66zM70 644h435v-65h-353v-225h317v-64h-317v-226h353v-64h-435v644z" />
    <glyph glyph-name="Eacute" unicode="&#xc9;" horiz-adv-x="555" 
d="M310 856h74l-79 -168h-66zM70 644h435v-65h-353v-225h317v-64h-317v-226h353v-64h-435v644z" />
    <glyph glyph-name="Ecircumflex" unicode="&#xca;" horiz-adv-x="555" 
d="M351 688l-77 102l-77 -102h-71l115 148h66l115 -148h-71zM70 644h435v-65h-353v-225h317v-64h-317v-226h353v-64h-435v644z" />
    <glyph glyph-name="Edieresis" unicode="&#xcb;" horiz-adv-x="555" 
d="M153 786h78v-75h-78v75zM329 786h78v-75h-78v75zM70 644h435v-65h-353v-225h317v-64h-317v-226h353v-64h-435v644z" />
    <glyph glyph-name="Igrave" unicode="&#xcc;" horiz-adv-x="222" 
d="M1 856h74l71 -168h-66zM70 644h82v-644h-82v644z" />
    <glyph glyph-name="Iacute" unicode="&#xcd;" horiz-adv-x="222" 
d="M141 856h74l-79 -168h-66zM70 644h82v-644h-82v644z" />
    <glyph glyph-name="Icircumflex" unicode="&#xce;" horiz-adv-x="222" 
d="M188 688l-77 102l-77 -102h-71l115 148h66l115 -148h-71zM70 644h82v-644h-82v644z" />
    <glyph glyph-name="Idieresis" unicode="&#xcf;" horiz-adv-x="222" 
d="M-16 788h78v-75h-78v75zM160 788h78v-75h-78v75zM70 644h82v-644h-82v644z" />
    <glyph glyph-name="Eth" unicode="&#xd0;" horiz-adv-x="664" 
d="M549.5 567.5q64.5 -76.5 64.5 -249.5q0 -166 -64 -242t-206 -76h-252v284h-72v65h72v295h252q141 0 205.5 -76.5zM444.5 85q43.5 21 65.5 76t22 157t-20 158.5t-63.5 79.5t-119.5 23h-155v-230h181v-65h-181v-220h155q72 0 115.5 21z" />
    <glyph glyph-name="Ntilde" unicode="&#xd1;" horiz-adv-x="663" 
d="M325 728q-17 7 -34.5 12.5t-30.5 5.5q-53 0 -83 -35v63q12 13 35.5 21.5t47.5 8.5q19 0 36.5 -5t39.5 -15q25 -10 38.5 -14t29.5 -4q51 0 77 36v-64q-10 -14 -31 -22t-46 -8q-29 0 -79 20zM152 0h-82v644h74l367 -518v518h82v-644h-75l-366 517v-517z" />
    <glyph glyph-name="Ograve" unicode="&#xd2;" horiz-adv-x="694" 
d="M241 856h74l71 -168h-66zM571.5 70q-72.5 -80 -224.5 -80t-224.5 80t-72.5 252t72.5 252t224.5 80t224.5 -80t72.5 -252t-72.5 -252zM539 475.5q-23 57.5 -70 83t-122 25.5t-122 -25.5t-70 -83t-23 -153.5t23 -153.5t70 -83t122 -25.5t122 25.5t70 83t23 153.5t-23 153.5
z" />
    <glyph glyph-name="Oacute" unicode="&#xd3;" horiz-adv-x="694" 
d="M383 856h74l-79 -168h-66zM571.5 70q-72.5 -80 -224.5 -80t-224.5 80t-72.5 252t72.5 252t224.5 80t224.5 -80t72.5 -252t-72.5 -252zM539 475.5q-23 57.5 -70 83t-122 25.5t-122 -25.5t-70 -83t-23 -153.5t23 -153.5t70 -83t122 -25.5t122 25.5t70 83t23 153.5
t-23 153.5z" />
    <glyph glyph-name="Ocircumflex" unicode="&#xd4;" horiz-adv-x="694" 
d="M424 688l-77 102l-77 -102h-71l115 148h66l115 -148h-71zM571.5 70q-72.5 -80 -224.5 -80t-224.5 80t-72.5 252t72.5 252t224.5 80t224.5 -80t72.5 -252t-72.5 -252zM539 475.5q-23 57.5 -70 83t-122 25.5t-122 -25.5t-70 -83t-23 -153.5t23 -153.5t70 -83t122 -25.5
t122 25.5t70 83t23 153.5t-23 153.5z" />
    <glyph glyph-name="Otilde" unicode="&#xd5;" horiz-adv-x="694" 
d="M343 733q-17 7 -34.5 12.5t-30.5 5.5q-53 0 -83 -35v63q12 13 35.5 21.5t47.5 8.5q19 0 36.5 -5t39.5 -15q25 -10 38.5 -14t29.5 -4q51 0 77 36v-64q-10 -14 -31 -22t-46 -8q-29 0 -79 20zM571.5 70q-72.5 -80 -224.5 -80t-224.5 80t-72.5 252t72.5 252t224.5 80
t224.5 -80t72.5 -252t-72.5 -252zM539 475.5q-23 57.5 -70 83t-122 25.5t-122 -25.5t-70 -83t-23 -153.5t23 -153.5t70 -83t122 -25.5t122 25.5t70 83t23 153.5t-23 153.5z" />
    <glyph glyph-name="Odieresis" unicode="&#xd6;" horiz-adv-x="694" 
d="M220 786h78v-75h-78v75zM396 786h78v-75h-78v75zM571.5 70q-72.5 -80 -224.5 -80t-224.5 80t-72.5 252t72.5 252t224.5 80t224.5 -80t72.5 -252t-72.5 -252zM539 475.5q-23 57.5 -70 83t-122 25.5t-122 -25.5t-70 -83t-23 -153.5t23 -153.5t70 -83t122 -25.5t122 25.5
t70 83t23 153.5t-23 153.5z" />
    <glyph glyph-name="multiply" unicode="&#xd7;" horiz-adv-x="410" 
d="M98 108l-43 43l108 109l-113 111l43 43l111 -113l113 112l43 -43l-112 -113l112 -112l-41 -42l-112 113z" />
    <glyph glyph-name="Oslash" unicode="&#xd8;" horiz-adv-x="694" 
d="M195 17q-73 33 -109 108t-36 197q0 172 72.5 252t224.5 80q37 0 79 -7l17 46h72l-24 -64q77 -32 115 -107.5t38 -199.5q0 -172 -72.5 -252t-224.5 -80q-45 0 -88 8l-18 -51h-72zM154 171q22 -57 67 -83l180 492q-34 4 -54 4q-75 0 -122 -25.5t-70 -83t-23 -153.5
q0 -94 22 -151zM538.5 476.5q-23.5 57.5 -72.5 83.5l-182 -495q32 -5 63 -5q75 0 122 25.5t70 83t23 153.5q0 97 -23.5 154.5z" />
    <glyph glyph-name="Ugrave" unicode="&#xd9;" horiz-adv-x="671" 
d="M240 856h74l71 -168h-66zM475.5 104q48.5 44 48.5 131v409h82v-408q0 -120 -69.5 -183t-200.5 -63q-132 0 -201.5 63t-69.5 183v408h82v-409q0 -87 49 -131t140 -44t139.5 44z" />
    <glyph glyph-name="Uacute" unicode="&#xda;" horiz-adv-x="671" 
d="M366 856h74l-79 -168h-66zM475.5 104q48.5 44 48.5 131v409h82v-408q0 -120 -69.5 -183t-200.5 -63q-132 0 -201.5 63t-69.5 183v408h82v-409q0 -87 49 -131t140 -44t139.5 44z" />
    <glyph glyph-name="Ucircumflex" unicode="&#xdb;" horiz-adv-x="671" 
d="M412 688l-77 102l-77 -102h-71l115 148h66l115 -148h-71zM475.5 104q48.5 44 48.5 131v409h82v-408q0 -120 -69.5 -183t-200.5 -63q-132 0 -201.5 63t-69.5 183v408h82v-409q0 -87 49 -131t140 -44t139.5 44z" />
    <glyph glyph-name="Udieresis" unicode="&#xdc;" horiz-adv-x="671" 
d="M196 786h78v-75h-78v75zM372 786h78v-75h-78v75zM475.5 104q48.5 44 48.5 131v409h82v-408q0 -120 -69.5 -183t-200.5 -63q-132 0 -201.5 63t-69.5 183v408h82v-409q0 -87 49 -131t140 -44t139.5 44z" />
    <glyph glyph-name="Yacute" unicode="&#xdd;" horiz-adv-x="642" 
d="M347 856h74l-79 -168h-66zM280 240l-230 404h85l186 -334l186 334h85l-230 -404v-240h-82v240z" />
    <glyph glyph-name="Thorn" unicode="&#xde;" horiz-adv-x="582" 
d="M494.5 170.5q-57.5 -55.5 -156.5 -55.5h-186v-115h-82v644h82v-118h190q105 0 157.5 -55.5t52.5 -150.5q0 -94 -57.5 -149.5zM432.5 217q37.5 38 37.5 103q0 69 -35 105t-105 36h-178v-282h173q70 0 107.5 38z" />
    <glyph glyph-name="germandbls" unicode="&#xdf;" horiz-adv-x="627" 
d="M460.5 94.5q34.5 34.5 34.5 97.5t-32.5 96t-106.5 33h-82v62h84q60 0 88 33t28 89q0 61 -37 93t-127 32q-163 0 -163 -165v-465h-82v468q0 69 30 121.5t85 81.5t130 29q79 0 133.5 -26t81 -70t26.5 -99q0 -54 -23 -94t-61 -58q51 -15 80.5 -58t29.5 -107q0 -94 -52 -146
t-149 -52q-85 0 -144 22v70q51 -22 131 -22q63 0 97.5 34.5z" />
    <glyph glyph-name="agrave" unicode="&#xe0;" horiz-adv-x="541" 
d="M182 690h74l71 -168h-66zM401 54q-31 -33 -75.5 -48.5t-108.5 -15.5q-72 0 -119.5 37t-47.5 106t45 108.5t138 39.5h165v29q0 40 -11 62.5t-40 32.5t-84 10q-83 0 -158 -26v68q71 27 169 27q102 0 152 -41.5t50 -132.5v-310h-69zM235 218q-55 0 -79.5 -20.5t-24.5 -64.5
q0 -41 27 -58.5t80 -17.5q101 0 160 69v92h-163z" />
    <glyph glyph-name="aacute" unicode="&#xe1;" horiz-adv-x="541" 
d="M315 690h74l-79 -168h-66zM401 54q-31 -33 -75.5 -48.5t-108.5 -15.5q-72 0 -119.5 37t-47.5 106t45 108.5t138 39.5h165v29q0 40 -11 62.5t-40 32.5t-84 10q-83 0 -158 -26v68q71 27 169 27q102 0 152 -41.5t50 -132.5v-310h-69zM235 218q-55 0 -79.5 -20.5t-24.5 -64.5
q0 -41 27 -58.5t80 -17.5q101 0 160 69v92h-163z" />
    <glyph glyph-name="acircumflex" unicode="&#xe2;" horiz-adv-x="541" 
d="M359 522l-77 102l-77 -102h-71l115 148h66l115 -148h-71zM401 54q-31 -33 -75.5 -48.5t-108.5 -15.5q-72 0 -119.5 37t-47.5 106t45 108.5t138 39.5h165v29q0 40 -11 62.5t-40 32.5t-84 10q-83 0 -158 -26v68q71 27 169 27q102 0 152 -41.5t50 -132.5v-310h-69zM235 218
q-55 0 -79.5 -20.5t-24.5 -64.5q0 -41 27 -58.5t80 -17.5q101 0 160 69v92h-163z" />
    <glyph glyph-name="atilde" unicode="&#xe3;" horiz-adv-x="541" 
d="M276 562q-17 7 -34.5 12.5t-30.5 5.5q-53 0 -83 -35v63q12 13 35.5 21.5t47.5 8.5q19 0 36.5 -5t39.5 -15q25 -10 38.5 -14t29.5 -4q51 0 77 36v-64q-10 -14 -31 -22t-46 -8q-29 0 -79 20zM401 54q-31 -33 -75.5 -48.5t-108.5 -15.5q-72 0 -119.5 37t-47.5 106t45 108.5
t138 39.5h165v29q0 40 -11 62.5t-40 32.5t-84 10q-83 0 -158 -26v68q71 27 169 27q102 0 152 -41.5t50 -132.5v-310h-69zM235 218q-55 0 -79.5 -20.5t-24.5 -64.5q0 -41 27 -58.5t80 -17.5q101 0 160 69v92h-163z" />
    <glyph glyph-name="adieresis" unicode="&#xe4;" horiz-adv-x="541" 
d="M160 620h78v-75h-78v75zM336 620h78v-75h-78v75zM401 54q-31 -33 -75.5 -48.5t-108.5 -15.5q-72 0 -119.5 37t-47.5 106t45 108.5t138 39.5h165v29q0 40 -11 62.5t-40 32.5t-84 10q-83 0 -158 -26v68q71 27 169 27q102 0 152 -41.5t50 -132.5v-310h-69zM235 218
q-55 0 -79.5 -20.5t-24.5 -64.5q0 -41 27 -58.5t80 -17.5q101 0 160 69v92h-163z" />
    <glyph glyph-name="aring" unicode="&#xe5;" horiz-adv-x="541" 
d="M205 706q31 31 78 31q49 0 80 -31t31 -77t-31 -76.5t-80 -30.5q-47 0 -78 31t-31 76q0 46 31 77zM239.5 585.5q17.5 -17.5 43.5 -17.5q27 0 44.5 17.5t17.5 43.5t-17.5 43.5t-44.5 17.5q-26 0 -43.5 -17.5t-17.5 -43.5t17.5 -43.5zM401 54q-31 -33 -75.5 -48.5
t-108.5 -15.5q-72 0 -119.5 37t-47.5 106t45 108.5t138 39.5h165v29q0 40 -11 62.5t-40 32.5t-84 10q-83 0 -158 -26v68q71 27 169 27q102 0 152 -41.5t50 -132.5v-310h-69zM235 218q-55 0 -79.5 -20.5t-24.5 -64.5q0 -41 27 -58.5t80 -17.5q101 0 160 69v92h-163z" />
    <glyph glyph-name="ae" unicode="&#xe6;" horiz-adv-x="881" 
d="M356 15q-52 -25 -139 -25q-72 0 -119.5 37t-47.5 106t45 108.5t138 39.5h165v29q0 40 -11 62.5t-40 32.5t-84 10q-83 0 -158 -26v68q71 27 169 27q128 0 175 -73q61 73 176 73q101 0 153.5 -54t52.5 -142v-89h-351q4 -55 23.5 -85.5t58.5 -44t105 -13.5q73 0 134 25v-64
q-61 -27 -150 -27q-77 0 -127 22t-81 68q-35 -40 -87 -65zM512.5 379.5q-32.5 -38.5 -32.5 -121.5h278v39q0 59 -31.5 90t-99.5 31q-82 0 -114.5 -38.5zM235 218q-55 0 -79.5 -20.5t-24.5 -64.5q0 -41 27 -58.5t80 -17.5q55 0 93 17.5t67 51.5v92h-163z" />
    <glyph glyph-name="ccedilla" unicode="&#xe7;" horiz-adv-x="490" 
d="M312 -10l-13 -38q54 0 82.5 -23.5t28.5 -66.5q0 -102 -143 -102q-16 0 -37 2.5t-33 5.5v50q29 -8 63 -8q48 0 69 11.5t21 41.5q0 28 -19.5 37t-65.5 9h-37l26 83q-102 10 -153 72.5t-51 172.5q0 122 66.5 184.5t184.5 62.5q45 0 76 -6.5t62 -20.5v-65q-54 26 -123 26
q-91 0 -137.5 -43t-46.5 -138t42 -138t139 -43q69 0 127 26v-66q-57 -23 -128 -26z" />
    <glyph glyph-name="egrave" unicode="&#xe8;" horiz-adv-x="533" 
d="M155 690h74l71 -168h-66zM155.5 113.5q19.5 -30.5 58.5 -44t105 -13.5q73 0 134 25v-64q-61 -27 -150 -27q-127 0 -190 61t-63 188q0 117 56 181t171 64q101 0 153.5 -54t52.5 -142v-89h-351q4 -55 23.5 -85.5zM164.5 379.5q-32.5 -38.5 -32.5 -121.5h278v39
q0 59 -31.5 90t-99.5 31q-82 0 -114.5 -38.5z" />
    <glyph glyph-name="eacute" unicode="&#xe9;" horiz-adv-x="533" 
d="M298 690h74l-79 -168h-66zM155.5 113.5q19.5 -30.5 58.5 -44t105 -13.5q73 0 134 25v-64q-61 -27 -150 -27q-127 0 -190 61t-63 188q0 117 56 181t171 64q101 0 153.5 -54t52.5 -142v-89h-351q4 -55 23.5 -85.5zM164.5 379.5q-32.5 -38.5 -32.5 -121.5h278v39
q0 59 -31.5 90t-99.5 31q-82 0 -114.5 -38.5z" />
    <glyph glyph-name="ecircumflex" unicode="&#xea;" horiz-adv-x="533" 
d="M343 522l-77 102l-77 -102h-71l115 148h66l115 -148h-71zM155.5 113.5q19.5 -30.5 58.5 -44t105 -13.5q73 0 134 25v-64q-61 -27 -150 -27q-127 0 -190 61t-63 188q0 117 56 181t171 64q101 0 153.5 -54t52.5 -142v-89h-351q4 -55 23.5 -85.5zM164.5 379.5
q-32.5 -38.5 -32.5 -121.5h278v39q0 59 -31.5 90t-99.5 31q-82 0 -114.5 -38.5z" />
    <glyph glyph-name="edieresis" unicode="&#xeb;" horiz-adv-x="533" 
d="M137 620h78v-75h-78v75zM313 620h78v-75h-78v75zM155.5 113.5q19.5 -30.5 58.5 -44t105 -13.5q73 0 134 25v-64q-61 -27 -150 -27q-127 0 -190 61t-63 188q0 117 56 181t171 64q101 0 153.5 -54t52.5 -142v-89h-351q4 -55 23.5 -85.5zM164.5 379.5
q-32.5 -38.5 -32.5 -121.5h278v39q0 59 -31.5 90t-99.5 31q-82 0 -114.5 -38.5z" />
    <glyph glyph-name="igrave" unicode="&#xec;" horiz-adv-x="295" 
d="M76 690h74l71 -168h-66zM225 0h-82v409h-73l8 65h147v-474z" />
    <glyph glyph-name="iacute" unicode="&#xed;" horiz-adv-x="295" 
d="M211 690h74l-79 -168h-66zM225 0h-82v409h-73l8 65h147v-474z" />
    <glyph glyph-name="icircumflex" unicode="&#xee;" horiz-adv-x="295" 
d="M243 522l-77 102l-77 -102h-71l115 148h66l115 -148h-71zM225 0h-82v409h-73l8 65h147v-474z" />
    <glyph glyph-name="idieresis" unicode="&#xef;" horiz-adv-x="295" 
d="M27 620h78v-75h-78v75zM203 620h78v-75h-78v75zM225 0h-82v409h-73l8 65h147v-474z" />
    <glyph glyph-name="eth" unicode="&#xf0;" horiz-adv-x="573" 
d="M107 350q57 54 164 54q41 0 87 -14.5t83 -41.5v46q0 84 -24 131l-134 -58v52l103 45q-38 29 -106 29q-78 0 -142 -23v62q68 22 152 22q108 0 165 -60l93 41v-53l-64 -28q35 -61 35 -164v-155q0 -126 -59 -185.5t-176 -59.5q-116 0 -175 54.5t-59 151.5q0 100 57 154z
M164.5 89.5q40.5 -37.5 119.5 -37.5t118 38.5t39 118.5v80q-34 25 -75 40t-81 15q-85 0 -123 -38t-38 -110q0 -69 40.5 -106.5z" />
    <glyph glyph-name="ntilde" unicode="&#xf1;" horiz-adv-x="570" 
d="M281 562q-17 7 -34.5 12.5t-30.5 5.5q-53 0 -83 -35v63q12 13 35.5 21.5t47.5 8.5q19 0 36.5 -5t39.5 -15q25 -10 38.5 -14t29.5 -4q51 0 77 36v-64q-10 -14 -31 -22t-46 -8q-29 0 -79 20zM423 0v307q0 43 -11 66.5t-36.5 34t-73.5 10.5q-44 0 -83 -16t-67 -44v-358h-82
v474h74l5 -54q78 64 184 64q90 0 131 -42t41 -132v-310h-82z" />
    <glyph glyph-name="ograve" unicode="&#xf2;" horiz-adv-x="574" 
d="M181 690h74l71 -168h-66zM524 237q0 -123 -57.5 -185t-179.5 -62t-179.5 62t-57.5 185q0 247 237 247t237 -247zM406.5 102q35.5 42 35.5 135t-36 135t-119 42t-119 -42t-36 -135t35.5 -135t119.5 -42t119.5 42z" />
    <glyph glyph-name="oacute" unicode="&#xf3;" horiz-adv-x="574" 
d="M324 690h74l-79 -168h-66zM524 237q0 -123 -57.5 -185t-179.5 -62t-179.5 62t-57.5 185q0 247 237 247t237 -247zM406.5 102q35.5 42 35.5 135t-36 135t-119 42t-119 -42t-36 -135t35.5 -135t119.5 -42t119.5 42z" />
    <glyph glyph-name="ocircumflex" unicode="&#xf4;" horiz-adv-x="574" 
d="M364 522l-77 102l-77 -102h-71l115 148h66l115 -148h-71zM524 237q0 -123 -57.5 -185t-179.5 -62t-179.5 62t-57.5 185q0 247 237 247t237 -247zM406.5 102q35.5 42 35.5 135t-36 135t-119 42t-119 -42t-36 -135t35.5 -135t119.5 -42t119.5 42z" />
    <glyph glyph-name="otilde" unicode="&#xf5;" horiz-adv-x="574" 
d="M283 567q-17 7 -34.5 12.5t-30.5 5.5q-53 0 -83 -35v63q12 13 35.5 21.5t47.5 8.5q19 0 36.5 -5t39.5 -15q25 -10 38.5 -14t29.5 -4q51 0 77 36v-64q-10 -14 -31 -22t-46 -8q-29 0 -79 20zM524 237q0 -123 -57.5 -185t-179.5 -62t-179.5 62t-57.5 185q0 247 237 247
t237 -247zM406.5 102q35.5 42 35.5 135t-36 135t-119 42t-119 -42t-36 -135t35.5 -135t119.5 -42t119.5 42z" />
    <glyph glyph-name="odieresis" unicode="&#xf6;" horiz-adv-x="574" 
d="M160 620h78v-75h-78v75zM336 620h78v-75h-78v75zM524 237q0 -123 -57.5 -185t-179.5 -62t-179.5 62t-57.5 185q0 247 237 247t237 -247zM406.5 102q35.5 42 35.5 135t-36 135t-119 42t-119 -42t-36 -135t35.5 -135t119.5 -42t119.5 42z" />
    <glyph glyph-name="divide" unicode="&#xf7;" horiz-adv-x="476" 
d="M273 465v-67h-71v67h71zM50 301h376v-65h-376v65zM273 145v-67h-71v67h71z" />
    <glyph glyph-name="oslash" unicode="&#xf8;" horiz-adv-x="574" 
d="M341 480l18 48h72l-24 -66q117 -51 117 -225q0 -123 -57.5 -185t-179.5 -62q-28 0 -52 3l-17 -47h-72l23 64q-119 49 -119 227q0 247 237 247q31 0 54 -4zM147 136.5q15 -38.5 48 -57.5l122 333q-20 2 -30 2q-83 0 -119 -42t-36 -135q0 -62 15 -100.5zM406.5 102
q35.5 42 35.5 135q0 60 -14.5 98t-46.5 57l-121 -331q9 -1 27 -1q84 0 119.5 42z" />
    <glyph glyph-name="ugrave" unicode="&#xf9;" horiz-adv-x="570" 
d="M179 690h74l71 -168h-66zM147 474v-303q0 -59 29.5 -87t91.5 -28q44 0 83 16t67 44v358h82v-474h-74l-5 54q-36 -29 -83.5 -46.5t-100.5 -17.5q-85 0 -128.5 47t-43.5 137v300h82z" />
    <glyph glyph-name="uacute" unicode="&#xfa;" horiz-adv-x="570" 
d="M306 690h74l-79 -168h-66zM147 474v-303q0 -59 29.5 -87t91.5 -28q44 0 83 16t67 44v358h82v-474h-74l-5 54q-36 -29 -83.5 -46.5t-100.5 -17.5q-85 0 -128.5 47t-43.5 137v300h82z" />
    <glyph glyph-name="ucircumflex" unicode="&#xfb;" horiz-adv-x="570" 
d="M358 522l-77 102l-77 -102h-71l115 148h66l115 -148h-71zM147 474v-303q0 -59 29.5 -87t91.5 -28q44 0 83 16t67 44v358h82v-474h-74l-5 54q-36 -29 -83.5 -46.5t-100.5 -17.5q-85 0 -128.5 47t-43.5 137v300h82z" />
    <glyph glyph-name="udieresis" unicode="&#xfc;" horiz-adv-x="570" 
d="M152 617h78v-75h-78v75zM328 617h78v-75h-78v75zM147 474v-303q0 -59 29.5 -87t91.5 -28q44 0 83 16t67 44v358h82v-474h-74l-5 54q-36 -29 -83.5 -46.5t-100.5 -17.5q-85 0 -128.5 47t-43.5 137v300h82z" />
    <glyph glyph-name="yacute" unicode="&#xfd;" horiz-adv-x="584" 
d="M329 690h74l-79 -168h-66zM135 474l165 -382l170 382h84l-199 -453q-29 -67 -54 -108t-59.5 -65t-82.5 -24q-47 0 -82 13v66q28 -10 61 -10t52.5 11.5t33.5 33t35 67.5l-209 469h85z" />
    <glyph glyph-name="thorn" unicode="&#xfe;" horiz-adv-x="575" 
d="M153 439q65 45 158 45q103 0 158.5 -61t55.5 -187q0 -125 -56 -185.5t-159 -60.5q-93 0 -158 45v-251h-82v916h83v-261zM405.5 98q37.5 42 37.5 138q0 95 -35.5 138.5t-117.5 43.5q-85 0 -138 -57v-258q53 -47 136 -47q80 0 117.5 42z" />
    <glyph glyph-name="ydieresis" unicode="&#xff;" horiz-adv-x="584" 
d="M178 627h78v-75h-78v75zM354 627h78v-75h-78v75zM135 474l165 -382l170 382h84l-199 -453q-29 -67 -54 -108t-59.5 -65t-82.5 -24q-47 0 -82 13v66q28 -10 61 -10t52.5 11.5t33.5 33t35 67.5l-209 469h85z" />
    <glyph glyph-name="Amacron" unicode="&#x100;" horiz-adv-x="685" 
d="M486 712h-288v59h288v-59zM135 0h-85l245 644h96l244 -644h-84l-68 177h-280zM217 242h251l-126 331z" />
    <glyph glyph-name="amacron" unicode="&#x101;" horiz-adv-x="541" 
d="M421 546h-288v59h288v-59zM401 54q-31 -33 -75.5 -48.5t-108.5 -15.5q-72 0 -119.5 37t-47.5 106t45 108.5t138 39.5h165v29q0 40 -11 62.5t-40 32.5t-84 10q-83 0 -158 -26v68q71 27 169 27q102 0 152 -41.5t50 -132.5v-310h-69zM235 218q-55 0 -79.5 -20.5t-24.5 -64.5
q0 -41 27 -58.5t80 -17.5q101 0 160 69v92h-163z" />
    <glyph glyph-name="Abreve" unicode="&#x102;" horiz-adv-x="685" 
d="M291 758.5q18 -18.5 50 -18.5q70 0 70 74h58q0 -58 -33 -92t-95 -34q-61 0 -93.5 34t-32.5 92h58q0 -37 18 -55.5zM135 0h-85l245 644h96l244 -644h-84l-68 177h-280zM217 242h251l-126 331z" />
    <glyph glyph-name="abreve" unicode="&#x103;" horiz-adv-x="541" 
d="M233 592.5q18 -18.5 50 -18.5q70 0 70 74h58q0 -58 -33 -92t-95 -34q-61 0 -93.5 34t-32.5 92h58q0 -37 18 -55.5zM401 54q-31 -33 -75.5 -48.5t-108.5 -15.5q-72 0 -119.5 37t-47.5 106t45 108.5t138 39.5h165v29q0 40 -11 62.5t-40 32.5t-84 10q-83 0 -158 -26v68
q71 27 169 27q102 0 152 -41.5t50 -132.5v-310h-69zM235 218q-55 0 -79.5 -20.5t-24.5 -64.5q0 -41 27 -58.5t80 -17.5q101 0 160 69v92h-163z" />
    <glyph glyph-name="Aogonek" unicode="&#x104;" horiz-adv-x="685" 
d="M620 -160q14 3 23 8v-56q-24 -12 -68 -12t-71.5 21.5t-27.5 66.5q0 38 20.5 73.5t54.5 58.5l-68 177h-280l-68 -177h-85l245 644h96l244 -644h-20q-35 -26 -53.5 -57t-18.5 -63q0 -24 12 -33.5t38 -9.5q13 0 27 3zM468 242l-126 331l-125 -331h251z" />
    <glyph glyph-name="aogonek" unicode="&#x105;" horiz-adv-x="541" 
d="M412 -153.5q12 -9.5 38 -9.5q13 0 27 3t23 8v-56q-24 -12 -68 -12t-71.5 21.5t-27.5 66.5q0 38 20.5 73.5t53.5 58.5l-6 54q-31 -33 -75.5 -48.5t-108.5 -15.5q-72 0 -119.5 37t-47.5 106t45 108.5t138 39.5h165v29q0 40 -11 62.5t-40 32.5t-84 10q-83 0 -158 -26v68
q71 27 169 27q102 0 152 -41.5t50 -132.5v-310q-76 -48 -76 -120q0 -24 12 -33.5zM235 218q-55 0 -79.5 -20.5t-24.5 -64.5q0 -41 27 -58.5t80 -17.5q101 0 160 69v92h-163z" />
    <glyph glyph-name="Cacute" unicode="&#x106;" horiz-adv-x="595" 
d="M374 856h74l-79 -168h-66zM545 89v-73q-84 -26 -186 -26q-152 0 -230.5 85t-78.5 233q0 164 75.5 255t232.5 91q103 0 187 -30v-72q-85 32 -180 32q-125 0 -179 -70t-54 -206q0 -248 235 -248q101 0 178 29z" />
    <glyph glyph-name="cacute" unicode="&#x107;" horiz-adv-x="490" 
d="M301 690h74l-79 -168h-66zM294 -10q-122 0 -183 63.5t-61 183.5q0 122 66.5 184.5t184.5 62.5q45 0 76 -6.5t62 -20.5v-65q-54 26 -123 26q-91 0 -137.5 -43t-46.5 -138t42 -138t139 -43q69 0 127 26v-66q-63 -26 -146 -26z" />
    <glyph glyph-name="Ccircumflex" unicode="&#x108;" horiz-adv-x="595" 
d="M408 688l-77 102l-77 -102h-71l115 148h66l115 -148h-71zM545 89v-73q-84 -26 -186 -26q-152 0 -230.5 85t-78.5 233q0 164 75.5 255t232.5 91q103 0 187 -30v-72q-85 32 -180 32q-125 0 -179 -70t-54 -206q0 -248 235 -248q101 0 178 29z" />
    <glyph glyph-name="ccircumflex" unicode="&#x109;" horiz-adv-x="490" 
d="M347 522l-77 102l-77 -102h-71l115 148h66l115 -148h-71zM294 -10q-122 0 -183 63.5t-61 183.5q0 122 66.5 184.5t184.5 62.5q45 0 76 -6.5t62 -20.5v-65q-54 26 -123 26q-91 0 -137.5 -43t-46.5 -138t42 -138t139 -43q69 0 127 26v-66q-63 -26 -146 -26z" />
    <glyph glyph-name="Cdotaccent" unicode="&#x10a;" horiz-adv-x="595" 
d="M312 787h80v-77h-80v77zM545 89v-73q-84 -26 -186 -26q-152 0 -230.5 85t-78.5 233q0 164 75.5 255t232.5 91q103 0 187 -30v-72q-85 32 -180 32q-125 0 -179 -70t-54 -206q0 -248 235 -248q101 0 178 29z" />
    <glyph glyph-name="cdotaccent" unicode="&#x10b;" horiz-adv-x="490" 
d="M242 621h80v-77h-80v77zM294 -10q-122 0 -183 63.5t-61 183.5q0 122 66.5 184.5t184.5 62.5q45 0 76 -6.5t62 -20.5v-65q-54 26 -123 26q-91 0 -137.5 -43t-46.5 -138t42 -138t139 -43q69 0 127 26v-66q-63 -26 -146 -26z" />
    <glyph glyph-name="Ccaron" unicode="&#x10c;" horiz-adv-x="595" 
d="M324 688l-115 148h71l77 -102l77 102h71l-115 -148h-66zM545 89v-73q-84 -26 -186 -26q-152 0 -230.5 85t-78.5 233q0 164 75.5 255t232.5 91q103 0 187 -30v-72q-85 32 -180 32q-125 0 -179 -70t-54 -206q0 -248 235 -248q101 0 178 29z" />
    <glyph glyph-name="ccaron" unicode="&#x10d;" horiz-adv-x="490" 
d="M237 522l-115 148h71l77 -102l77 102h71l-115 -148h-66zM294 -10q-122 0 -183 63.5t-61 183.5q0 122 66.5 184.5t184.5 62.5q45 0 76 -6.5t62 -20.5v-65q-54 26 -123 26q-91 0 -137.5 -43t-46.5 -138t42 -138t139 -43q69 0 127 26v-66q-63 -26 -146 -26z" />
    <glyph glyph-name="Dcaron" unicode="&#x10e;" horiz-adv-x="642" 
d="M265 688l-115 148h71l77 -102l77 102h71l-115 -148h-66zM528 76q-64 -76 -206 -76h-252v644h252q141 0 205.5 -76.5t64.5 -249.5q0 -166 -64 -242zM490 476.5q-20 56.5 -63.5 79.5t-119.5 23h-155v-515h155q72 0 115.5 21t65.5 76t22 157t-20 158.5z" />
    <glyph glyph-name="dcaron" unicode="&#x10f;" horiz-adv-x="699" 
d="M607 702h72l-81 -173h-64zM108 419.5q58 64.5 161 64.5q46 0 83 -11t71 -34v235h82v-674h-70l-6 50q-33 -31 -72.5 -45.5t-92.5 -14.5q-104 0 -159 57.5t-55 182.5t58 189.5zM169.5 372.5q-37.5 -45.5 -37.5 -142.5q0 -93 35 -133.5t118 -40.5q85 0 138 57v258
q-53 47 -136 47q-80 0 -117.5 -45.5z" />
    <glyph glyph-name="Dcroat" unicode="&#x110;" horiz-adv-x="664" 
d="M549.5 567.5q64.5 -76.5 64.5 -249.5q0 -166 -64 -242t-206 -76h-252v284h-72v65h72v295h252q141 0 205.5 -76.5zM444.5 85q43.5 21 65.5 76t22 157t-20 158.5t-63.5 79.5t-119.5 23h-155v-230h181v-65h-181v-220h155q72 0 115.5 21z" />
    <glyph glyph-name="dcroat" unicode="&#x111;" horiz-adv-x="573" 
d="M553 544h-48v-544h-70l-6 50q-33 -31 -72.5 -45.5t-92.5 -14.5q-104 0 -159 57.5t-55 182.5t58 189.5t161 64.5q46 0 83 -11t71 -34v105h-185v65h185v65h82v-65h48v-65zM423 371q-53 47 -136 47q-80 0 -117.5 -45.5t-37.5 -142.5q0 -93 35 -133.5t118 -40.5q85 0 138 57
v258z" />
    <glyph glyph-name="Emacron" unicode="&#x112;" horiz-adv-x="555" 
d="M418 720h-288v59h288v-59zM70 644h435v-65h-353v-225h317v-64h-317v-226h353v-64h-435v644z" />
    <glyph glyph-name="emacron" unicode="&#x113;" horiz-adv-x="533" 
d="M424 554h-288v59h288v-59zM155.5 113.5q19.5 -30.5 58.5 -44t105 -13.5q73 0 134 25v-64q-61 -27 -150 -27q-127 0 -190 61t-63 188q0 117 56 181t171 64q101 0 153.5 -54t52.5 -142v-89h-351q4 -55 23.5 -85.5zM164.5 379.5q-32.5 -38.5 -32.5 -121.5h278v39
q0 59 -31.5 90t-99.5 31q-82 0 -114.5 -38.5z" />
    <glyph glyph-name="Ebreve" unicode="&#x114;" horiz-adv-x="555" 
d="M235 758.5q18 -18.5 50 -18.5q70 0 70 74h58q0 -58 -33 -92t-95 -34q-61 0 -93.5 34t-32.5 92h58q0 -37 18 -55.5zM70 644h435v-65h-353v-225h317v-64h-317v-226h353v-64h-435v644z" />
    <glyph glyph-name="ebreve" unicode="&#x115;" horiz-adv-x="533" 
d="M219 592.5q18 -18.5 50 -18.5q70 0 70 74h58q0 -58 -33 -92t-95 -34q-61 0 -93.5 34t-32.5 92h58q0 -37 18 -55.5zM155.5 113.5q19.5 -30.5 58.5 -44t105 -13.5q73 0 134 25v-64q-61 -27 -150 -27q-127 0 -190 61t-63 188q0 117 56 181t171 64q101 0 153.5 -54t52.5 -142
v-89h-351q4 -55 23.5 -85.5zM164.5 379.5q-32.5 -38.5 -32.5 -121.5h278v39q0 59 -31.5 90t-99.5 31q-82 0 -114.5 -38.5z" />
    <glyph glyph-name="Edotaccent" unicode="&#x116;" horiz-adv-x="555" 
d="M239 787h80v-77h-80v77zM70 644h435v-65h-353v-225h317v-64h-317v-226h353v-64h-435v644z" />
    <glyph glyph-name="edotaccent" unicode="&#x117;" horiz-adv-x="533" 
d="M228 621h80v-77h-80v77zM155.5 113.5q19.5 -30.5 58.5 -44t105 -13.5q73 0 134 25v-64q-61 -27 -150 -27q-127 0 -190 61t-63 188q0 117 56 181t171 64q101 0 153.5 -54t52.5 -142v-89h-351q4 -55 23.5 -85.5zM164.5 379.5q-32.5 -38.5 -32.5 -121.5h278v39
q0 59 -31.5 90t-99.5 31q-82 0 -114.5 -38.5z" />
    <glyph glyph-name="Eogonek" unicode="&#x118;" horiz-adv-x="555" 
d="M152 579v-225h317v-64h-317v-226h353v-64h-37q-35 -26 -53.5 -57t-18.5 -63q0 -24 12 -33.5t38 -9.5q13 0 27 3t23 8v-56q-24 -12 -68 -12t-71.5 21.5t-27.5 66.5q0 38 20.5 73.5t54.5 58.5h-334v644h435v-65h-353z" />
    <glyph glyph-name="eogonek" unicode="&#x119;" horiz-adv-x="533" 
d="M483 199h-351q4 -55 23.5 -85.5t58.5 -44t105 -13.5q73 0 134 25v-64q-19 -9 -57 -18q-71 -54 -71 -119q0 -24 12 -33.5t38 -9.5q13 0 27 3t23 8v-56q-24 -12 -68 -12t-71.5 21.5t-27.5 66.5q0 35 17 67t45 55h-17q-127 0 -190 61t-63 188q0 117 56 181t171 64
q101 0 153.5 -54t52.5 -142v-89zM410 297q0 59 -31.5 90t-99.5 31q-82 0 -114.5 -38.5t-32.5 -121.5h278v39z" />
    <glyph glyph-name="Ecaron" unicode="&#x11a;" horiz-adv-x="555" 
d="M254 688l-115 148h71l77 -102l77 102h71l-115 -148h-66zM70 644h435v-65h-353v-225h317v-64h-317v-226h353v-64h-435v644z" />
    <glyph glyph-name="ecaron" unicode="&#x11b;" horiz-adv-x="533" 
d="M242 522l-115 148h71l77 -102l77 102h71l-115 -148h-66zM155.5 113.5q19.5 -30.5 58.5 -44t105 -13.5q73 0 134 25v-64q-61 -27 -150 -27q-127 0 -190 61t-63 188q0 117 56 181t171 64q101 0 153.5 -54t52.5 -142v-89h-351q4 -55 23.5 -85.5zM164.5 379.5
q-32.5 -38.5 -32.5 -121.5h278v39q0 59 -31.5 90t-99.5 31q-82 0 -114.5 -38.5z" />
    <glyph glyph-name="Gcircumflex" unicode="&#x11c;" horiz-adv-x="639" 
d="M433 688l-77 102l-77 -102h-71l115 148h66l115 -148h-71zM518 86v205h-172v56h243v-306q-80 -51 -230 -51q-152 0 -230.5 85t-78.5 233q0 164 75.5 255t232.5 91q103 0 187 -30v-72q-85 32 -180 32q-125 0 -179 -70t-54 -206q0 -122 56 -185t176 -63q87 0 154 26z" />
    <glyph glyph-name="gcircumflex" unicode="&#x11d;" horiz-adv-x="547" 
d="M341 522l-77 102l-77 -102h-71l115 148h66l115 -148h-71zM376.5 -18q-18.5 11 -65.5 11h-126q-65 0 -98 22.5t-33 65.5q0 31 19 56.5t55 36.5q-78 38 -78 140q0 88 51 129t158 41q37 0 82 -10h171l-3 -56h-86q43 -37 43 -104q0 -80 -46.5 -123t-140.5 -43q-21 0 -58 5
q-33 -2 -59 -18.5t-26 -41.5q0 -18 14 -25.5t49 -7.5h131q71 0 109 -29t38 -83q0 -67 -55.5 -95.5t-167.5 -28.5q-119 0 -190 25v68q39 -13 88.5 -20t97.5 -7q55 0 85 4t45 15.5t15 35.5q0 26 -18.5 37zM356.5 233q27.5 23 27.5 81t-28.5 84t-96.5 26q-67 0 -97 -25.5
t-30 -84.5q0 -56 29 -80t98 -24q70 0 97.5 23z" />
    <glyph glyph-name="Gbreve" unicode="&#x11e;" horiz-adv-x="639" 
d="M299 758.5q18 -18.5 50 -18.5q70 0 70 74h58q0 -58 -33 -92t-95 -34q-61 0 -93.5 34t-32.5 92h58q0 -37 18 -55.5zM518 86v205h-172v56h243v-306q-80 -51 -230 -51q-152 0 -230.5 85t-78.5 233q0 164 75.5 255t232.5 91q103 0 187 -30v-72q-85 32 -180 32
q-125 0 -179 -70t-54 -206q0 -122 56 -185t176 -63q87 0 154 26z" />
    <glyph glyph-name="gbreve" unicode="&#x11f;" horiz-adv-x="547" 
d="M215 592.5q18 -18.5 50 -18.5q70 0 70 74h58q0 -58 -33 -92t-95 -34q-61 0 -93.5 34t-32.5 92h58q0 -37 18 -55.5zM376.5 -18q-18.5 11 -65.5 11h-126q-65 0 -98 22.5t-33 65.5q0 31 19 56.5t55 36.5q-78 38 -78 140q0 88 51 129t158 41q37 0 82 -10h171l-3 -56h-86
q43 -37 43 -104q0 -80 -46.5 -123t-140.5 -43q-21 0 -58 5q-33 -2 -59 -18.5t-26 -41.5q0 -18 14 -25.5t49 -7.5h131q71 0 109 -29t38 -83q0 -67 -55.5 -95.5t-167.5 -28.5q-119 0 -190 25v68q39 -13 88.5 -20t97.5 -7q55 0 85 4t45 15.5t15 35.5q0 26 -18.5 37zM356.5 233
q27.5 23 27.5 81t-28.5 84t-96.5 26q-67 0 -97 -25.5t-30 -84.5q0 -56 29 -80t98 -24q70 0 97.5 23z" />
    <glyph glyph-name="Gdotaccent" unicode="&#x120;" horiz-adv-x="639" 
d="M312 787h80v-77h-80v77zM518 86v205h-172v56h243v-306q-80 -51 -230 -51q-152 0 -230.5 85t-78.5 233q0 164 75.5 255t232.5 91q103 0 187 -30v-72q-85 32 -180 32q-125 0 -179 -70t-54 -206q0 -122 56 -185t176 -63q87 0 154 26z" />
    <glyph glyph-name="gdotaccent" unicode="&#x121;" horiz-adv-x="547" 
d="M220 616h80v-77h-80v77zM376.5 -18q-18.5 11 -65.5 11h-126q-65 0 -98 22.5t-33 65.5q0 31 19 56.5t55 36.5q-78 38 -78 140q0 88 51 129t158 41q37 0 82 -10h171l-3 -56h-86q43 -37 43 -104q0 -80 -46.5 -123t-140.5 -43q-21 0 -58 5q-33 -2 -59 -18.5t-26 -41.5
q0 -18 14 -25.5t49 -7.5h131q71 0 109 -29t38 -83q0 -67 -55.5 -95.5t-167.5 -28.5q-119 0 -190 25v68q39 -13 88.5 -20t97.5 -7q55 0 85 4t45 15.5t15 35.5q0 26 -18.5 37zM356.5 233q27.5 23 27.5 81t-28.5 84t-96.5 26q-67 0 -97 -25.5t-30 -84.5q0 -56 29 -80t98 -24
q70 0 97.5 23z" />
    <glyph glyph-name="Gcommaaccent" unicode="&#x122;" horiz-adv-x="639" 
d="M518 86v205h-172v56h243v-306q-80 -51 -230 -51q-152 0 -230.5 85t-78.5 233q0 164 75.5 255t232.5 91q103 0 187 -30v-72q-85 32 -180 32q-125 0 -179 -70t-54 -206q0 -122 56 -185t176 -63q87 0 154 26zM334 -47h74l-42 -177h-60z" />
    <glyph glyph-name="gcommaaccent" unicode="&#x123;" horiz-adv-x="547" 
d="M291 522h-74l42 177h60zM376.5 -18q-18.5 11 -65.5 11h-126q-65 0 -98 22.5t-33 65.5q0 31 19 56.5t55 36.5q-78 38 -78 140q0 88 51 129t158 41q37 0 82 -10h171l-3 -56h-86q43 -37 43 -104q0 -80 -46.5 -123t-140.5 -43q-21 0 -58 5q-33 -2 -59 -18.5t-26 -41.5
q0 -18 14 -25.5t49 -7.5h131q71 0 109 -29t38 -83q0 -67 -55.5 -95.5t-167.5 -28.5q-119 0 -190 25v68q39 -13 88.5 -20t97.5 -7q55 0 85 4t45 15.5t15 35.5q0 26 -18.5 37zM356.5 233q27.5 23 27.5 81t-28.5 84t-96.5 26q-67 0 -97 -25.5t-30 -84.5q0 -56 29 -80t98 -24
q70 0 97.5 23z" />
    <glyph glyph-name="Hcircumflex" unicode="&#x124;" horiz-adv-x="644" 
d="M399 688l-77 102l-77 -102h-71l115 148h66l115 -148h-71zM492 290h-340v-290h-82v644h82v-290h340v290h82v-644h-82v290z" />
    <glyph glyph-name="hcircumflex" unicode="&#x125;" horiz-adv-x="570" 
d="M301 701l-77 102l-77 -102h-71l115 148h66l115 -148h-71zM423 0v307q0 61 -27 86t-91 25q-40 0 -82.5 -17.5t-70.5 -45.5v-355h-82v674h82v-251q75 61 181 61q87 0 129.5 -42.5t42.5 -131.5v-310h-82z" />
    <glyph glyph-name="Hbar" unicode="&#x126;" horiz-adv-x="644" 
d="M634 464h-60v-464h-82v290h-340v-290h-82v464h-60v65h60v115h82v-115h340v115h82v-115h60v-65zM492 464h-340v-110h340v110z" />
    <glyph glyph-name="hbar" unicode="&#x127;" horiz-adv-x="587" 
d="M479.5 441.5q42.5 -42.5 42.5 -131.5v-310h-82v307q0 61 -27 86t-91 25q-40 0 -82.5 -17.5t-70.5 -45.5v-355h-82v544h-57v65h57v65h82v-65h166v-65h-166v-121q75 61 181 61q87 0 129.5 -42.5z" />
    <glyph glyph-name="Itilde" unicode="&#x128;" horiz-adv-x="222" 
d="M107 713q-17 7 -34.5 12.5t-30.5 5.5q-53 0 -83 -35v63q12 13 35.5 21.5t47.5 8.5q19 0 36.5 -5t39.5 -15q25 -10 38.5 -14t29.5 -4q51 0 77 36v-64q-10 -14 -31 -22t-46 -8q-29 0 -79 20zM70 644h82v-644h-82v644z" />
    <glyph glyph-name="itilde" unicode="&#x129;" horiz-adv-x="295" 
d="M145 547q-17 7 -34.5 12.5t-30.5 5.5q-53 0 -83 -35v63q12 13 35.5 21.5t47.5 8.5q19 0 36.5 -5t39.5 -15q25 -10 38.5 -14t29.5 -4q51 0 77 36v-64q-10 -14 -31 -22t-46 -8q-29 0 -79 20zM225 0h-82v409h-73l8 65h147v-474z" />
    <glyph glyph-name="Imacron" unicode="&#x12a;" horiz-adv-x="222" 
d="M255 720h-288v59h288v-59zM70 644h82v-644h-82v644z" />
    <glyph glyph-name="imacron" unicode="&#x12b;" horiz-adv-x="295" 
d="M292 561h-288v59h288v-59zM225 0h-82v409h-73l8 65h147v-474z" />
    <glyph glyph-name="Ibreve" unicode="&#x12c;" horiz-adv-x="222" 
d="M60 765.5q18 -18.5 50 -18.5q70 0 70 74h58q0 -58 -33 -92t-95 -34q-61 0 -93.5 34t-32.5 92h58q0 -37 18 -55.5zM70 644h82v-644h-82v644z" />
    <glyph glyph-name="ibreve" unicode="&#x12d;" horiz-adv-x="295" 
d="M108 591.5q18 -18.5 50 -18.5q70 0 70 74h58q0 -58 -33 -92t-95 -34q-61 0 -93.5 34t-32.5 92h58q0 -37 18 -55.5zM225 0h-82v409h-73l8 65h147v-474z" />
    <glyph glyph-name="Iogonek" unicode="&#x12e;" horiz-adv-x="222" 
d="M151 -160q14 3 23 8v-56q-24 -12 -68 -12t-71.5 21.5t-27.5 66.5q0 38 20.5 73.5t54.5 58.5h-12v644h82v-644h-6q-35 -26 -53.5 -57t-18.5 -63q0 -24 12 -33.5t38 -9.5q13 0 27 3z" />
    <glyph glyph-name="iogonek" unicode="&#x12f;" horiz-adv-x="296" 
d="M226 585h-91v75h91v-75zM214 -160q14 3 23 8v-56q-24 -12 -68 -12t-71.5 21.5t-27.5 66.5q0 38 20.5 73.5t54.5 58.5h-2v409h-73l8 65h147v-474h-16q-35 -26 -53.5 -57t-18.5 -63q0 -24 12 -33.5t38 -9.5q13 0 27 3z" />
    <glyph glyph-name="Idotaccent" unicode="&#x130;" horiz-adv-x="222" 
d="M71 789h80v-77h-80v77zM70 644h82v-644h-82v644z" />
    <glyph glyph-name="dotlessi" unicode="&#x131;" horiz-adv-x="295" 
d="M225 0h-82v409h-73l8 65h147v-474z" />
    <glyph glyph-name="IJ" unicode="&#x132;" horiz-adv-x="628" 
d="M70 644h82v-644h-82v644zM513.5 38.5q-49.5 -48.5 -147.5 -48.5q-77 0 -135 23v70q24 -11 58.5 -17.5t66.5 -6.5q69 0 97 29t28 95v461h82v-467q0 -90 -49.5 -138.5z" />
    <glyph glyph-name="ij" unicode="&#x133;" horiz-adv-x="506" 
d="M135 585v75h91v-75h-91zM345 585v75h91v-75h-91zM225 0h-82v409h-73l8 65h147v-474zM398.5 -196.5q-37.5 -37.5 -107.5 -37.5q-50 0 -89 14v65q31 -10 61 -10q53 0 72 17.5t19 60.5v496h-73l8 65h147v-568q0 -65 -37.5 -102.5z" />
    <glyph glyph-name="Jcircumflex" unicode="&#x134;" horiz-adv-x="427" 
d="M396 688l-77 102l-77 -102h-71l115 148h66l115 -148h-71zM312.5 38.5q-49.5 -48.5 -147.5 -48.5q-77 0 -135 23v70q24 -11 58.5 -17.5t66.5 -6.5q69 0 97 29t28 95v461h82v-467q0 -90 -49.5 -138.5z" />
    <glyph glyph-name="jcircumflex" unicode="&#x135;" horiz-adv-x="294" 
d="M249 522l-77 102l-77 -102h-71l115 148h66l115 -148h-71zM186.5 -196.5q-37.5 -37.5 -107.5 -37.5q-50 0 -89 14v65q31 -10 61 -10q53 0 72 17.5t19 60.5v496h-73l8 65h147v-568q0 -65 -37.5 -102.5z" />
    <glyph glyph-name="Kcommaaccent" unicode="&#x136;" horiz-adv-x="607" 
d="M557 0h-88l-212 333l-105 -111v-222h-82v644h82v-319l301 319h96l-240 -258zM275 -37h74l-42 -177h-60z" />
    <glyph glyph-name="kcommaaccent" unicode="&#x137;" horiz-adv-x="530" 
d="M480 0h-86l-171 242l-71 -67v-175h-82v674h82v-409l222 209h95l-194 -188zM232 -37h74l-42 -177h-60z" />
    <glyph glyph-name="kgreenlandic" unicode="&#x138;" horiz-adv-x="530" 
d="M480 0h-86l-170 227l-72 -74v-153h-82v474h82v-228l222 228h95l-194 -202z" />
    <glyph glyph-name="Lacute" unicode="&#x139;" horiz-adv-x="525" 
d="M141 856h74l-79 -168h-66zM495 64v-64h-425v644h82v-580h343z" />
    <glyph glyph-name="lacute" unicode="&#x13a;" horiz-adv-x="263" 
d="M141 896h74l-79 -168h-66zM152 674v-563q0 -29 9.5 -40.5t31.5 -11.5q23 0 45 6v-65q-26 -10 -65 -10q-50 0 -76.5 26.5t-26.5 85.5v572h82z" />
    <glyph glyph-name="Lcommaaccent" unicode="&#x13b;" horiz-adv-x="525" 
d="M495 64v-64h-425v644h82v-580h343zM249 -37h74l-42 -177h-60z" />
    <glyph glyph-name="lcommaaccent" unicode="&#x13c;" horiz-adv-x="263" 
d="M152 674v-563q0 -29 9.5 -40.5t31.5 -11.5q23 0 45 6v-65q-26 -10 -65 -10q-50 0 -76.5 26.5t-26.5 85.5v572h82zM134 -37h74l-42 -177h-60z" />
    <glyph glyph-name="Lcaron" unicode="&#x13d;" horiz-adv-x="525" 
d="M329 745h74l-42 -177h-60zM495 64v-64h-425v644h82v-580h343z" />
    <glyph glyph-name="lcaron" unicode="&#x13e;" horiz-adv-x="325" 
d="M238 816h74l-42 -177h-60zM152 674v-563q0 -29 9.5 -40.5t31.5 -11.5q23 0 45 6v-65q-26 -10 -65 -10q-50 0 -76.5 26.5t-26.5 85.5v572h82z" />
    <glyph glyph-name="Ldot" unicode="&#x13f;" horiz-adv-x="525" 
d="M495 64v-64h-425v644h82v-580h343zM324 336h80v-77h-80v77z" />
    <glyph glyph-name="ldot" unicode="&#x140;" horiz-adv-x="312" 
d="M152 674v-563q0 -29 9.5 -40.5t31.5 -11.5q23 0 45 6v-65q-26 -10 -65 -10q-50 0 -76.5 26.5t-26.5 85.5v572h82zM229 343h80v-77h-80v77z" />
    <glyph glyph-name="Lslash" unicode="&#x141;" horiz-adv-x="525" 
d="M495 64v-64h-425v278l-100 -44v71l100 44v295h82v-259l134 59v-71l-134 -59v-250h343z" />
    <glyph glyph-name="lslash" unicode="&#x142;" horiz-adv-x="263" 
d="M152 318v-207q0 -29 9.5 -40.5t31.5 -11.5q23 0 45 6v-65q-26 -10 -65 -10q-50 0 -76.5 26.5t-26.5 85.5v180l-108 -48v71l108 48v321h82v-285l126 55v-71z" />
    <glyph glyph-name="Nacute" unicode="&#x143;" horiz-adv-x="663" 
d="M367 856h74l-79 -168h-66zM152 0h-82v644h74l367 -518v518h82v-644h-75l-366 517v-517z" />
    <glyph glyph-name="nacute" unicode="&#x144;" horiz-adv-x="570" 
d="M308 690h74l-79 -168h-66zM423 0v307q0 43 -11 66.5t-36.5 34t-73.5 10.5q-44 0 -83 -16t-67 -44v-358h-82v474h74l5 -54q78 64 184 64q90 0 131 -42t41 -132v-310h-82z" />
    <glyph glyph-name="Ncommaaccent" unicode="&#x145;" horiz-adv-x="663" 
d="M152 0h-82v644h74l367 -518v518h82v-644h-75l-366 517v-517zM307 -37h74l-42 -177h-60z" />
    <glyph glyph-name="ncommaaccent" unicode="&#x146;" horiz-adv-x="570" 
d="M423 0v307q0 43 -11 66.5t-36.5 34t-73.5 10.5q-44 0 -83 -16t-67 -44v-358h-82v474h74l5 -54q78 64 184 64q90 0 131 -42t41 -132v-310h-82zM261 -37h74l-42 -177h-60z" />
    <glyph glyph-name="Ncaron" unicode="&#x147;" horiz-adv-x="663" 
d="M313 688l-115 148h71l77 -102l77 102h71l-115 -148h-66zM152 0h-82v644h74l367 -518v518h82v-644h-75l-366 517v-517z" />
    <glyph glyph-name="ncaron" unicode="&#x148;" horiz-adv-x="570" 
d="M241 522l-115 148h71l77 -102l77 102h71l-115 -148h-66zM423 0v307q0 43 -11 66.5t-36.5 34t-73.5 10.5q-44 0 -83 -16t-67 -44v-358h-82v474h74l5 -54q78 64 184 64q90 0 131 -42t41 -132v-310h-82z" />
    <glyph glyph-name="napostrophe" unicode="&#x149;" horiz-adv-x="657" 
d="M61 649h74l-42 -177h-60zM510 0v307q0 43 -11 66.5t-36.5 34t-73.5 10.5q-44 0 -83 -16t-67 -44v-358h-82v474h74l5 -54q78 64 184 64q90 0 131 -42t41 -132v-310h-82z" />
    <glyph glyph-name="Eng" unicode="&#x14a;" horiz-adv-x="663" 
d="M593 -94q0 -65 -37.5 -102.5t-107.5 -37.5q-50 0 -89 14v65q31 -10 61 -10q53 0 72 17.5t19 60.5v97l-359 507v-517h-82v644h74l367 -518v518h82v-738z" />
    <glyph glyph-name="eng" unicode="&#x14b;" horiz-adv-x="570" 
d="M467.5 -196.5q-37.5 -37.5 -107.5 -37.5q-50 0 -89 14v65q31 -10 61 -10q53 0 72 17.5t19 60.5v394q0 43 -11 66.5t-36.5 34t-73.5 10.5q-44 0 -83 -16t-67 -44v-358h-82v474h74l5 -54q78 64 184 64q90 0 131 -42t41 -132v-404q0 -65 -37.5 -102.5z" />
    <glyph glyph-name="Omacron" unicode="&#x14c;" horiz-adv-x="694" 
d="M491 720h-288v59h288v-59zM571.5 70q-72.5 -80 -224.5 -80t-224.5 80t-72.5 252t72.5 252t224.5 80t224.5 -80t72.5 -252t-72.5 -252zM539 475.5q-23 57.5 -70 83t-122 25.5t-122 -25.5t-70 -83t-23 -153.5t23 -153.5t70 -83t122 -25.5t122 25.5t70 83t23 153.5
t-23 153.5z" />
    <glyph glyph-name="omacron" unicode="&#x14d;" horiz-adv-x="574" 
d="M431 554h-288v59h288v-59zM524 237q0 -123 -57.5 -185t-179.5 -62t-179.5 62t-57.5 185q0 247 237 247t237 -247zM406.5 102q35.5 42 35.5 135t-36 135t-119 42t-119 -42t-36 -135t35.5 -135t119.5 -42t119.5 42z" />
    <glyph glyph-name="Obreve" unicode="&#x14e;" horiz-adv-x="694" 
d="M296 758.5q18 -18.5 50 -18.5q70 0 70 74h58q0 -58 -33 -92t-95 -34q-61 0 -93.5 34t-32.5 92h58q0 -37 18 -55.5zM571.5 70q-72.5 -80 -224.5 -80t-224.5 80t-72.5 252t72.5 252t224.5 80t224.5 -80t72.5 -252t-72.5 -252zM539 475.5q-23 57.5 -70 83t-122 25.5
t-122 -25.5t-70 -83t-23 -153.5t23 -153.5t70 -83t122 -25.5t122 25.5t70 83t23 153.5t-23 153.5z" />
    <glyph glyph-name="obreve" unicode="&#x14f;" horiz-adv-x="574" 
d="M236 592.5q18 -18.5 50 -18.5q70 0 70 74h58q0 -58 -33 -92t-95 -34q-61 0 -93.5 34t-32.5 92h58q0 -37 18 -55.5zM524 237q0 -123 -57.5 -185t-179.5 -62t-179.5 62t-57.5 185q0 247 237 247t237 -247zM406.5 102q35.5 42 35.5 135t-36 135t-119 42t-119 -42t-36 -135
t35.5 -135t119.5 -42t119.5 42z" />
    <glyph glyph-name="Ohungarumlaut" unicode="&#x150;" horiz-adv-x="694" 
d="M259 840h78l-81 -152h-68zM465 840h78l-81 -152h-68zM571.5 70q-72.5 -80 -224.5 -80t-224.5 80t-72.5 252t72.5 252t224.5 80t224.5 -80t72.5 -252t-72.5 -252zM539 475.5q-23 57.5 -70 83t-122 25.5t-122 -25.5t-70 -83t-23 -153.5t23 -153.5t70 -83t122 -25.5
t122 25.5t70 83t23 153.5t-23 153.5z" />
    <glyph glyph-name="ohungarumlaut" unicode="&#x151;" horiz-adv-x="574" 
d="M223 674h78l-81 -152h-68zM429 674h78l-81 -152h-68zM524 237q0 -123 -57.5 -185t-179.5 -62t-179.5 62t-57.5 185q0 247 237 247t237 -247zM406.5 102q35.5 42 35.5 135t-36 135t-119 42t-119 -42t-36 -135t35.5 -135t119.5 -42t119.5 42z" />
    <glyph glyph-name="OE" unicode="&#x152;" horiz-adv-x="1047" 
d="M644 579v-225h317v-64h-317v-226h353v-64h-435v60q-71 -70 -215 -70q-152 0 -224.5 80t-72.5 252t72.5 252t224.5 80q144 0 215 -70v60h435v-65h-353zM469 85.5q47 25.5 70 83t23 153.5t-23 153.5t-70 83t-122 25.5t-122 -25.5t-70 -83t-23 -153.5t23 -153.5t70 -83
t122 -25.5t122 25.5z" />
    <glyph glyph-name="oe" unicode="&#x153;" horiz-adv-x="925" 
d="M875 199h-351q4 -55 23.5 -85.5t58.5 -44t105 -13.5q73 0 134 25v-64q-61 -27 -150 -27q-151 0 -210 85q-58 -85 -198 -85q-122 0 -179.5 62t-57.5 185q0 247 237 247q138 0 196 -84q56 84 186 84q101 0 153.5 -54t52.5 -142v-89zM802 297q0 59 -31.5 90t-99.5 31
q-82 0 -114.5 -38.5t-32.5 -121.5h278v39zM406.5 102q35.5 42 35.5 135t-36 135t-119 42t-119 -42t-36 -135t35.5 -135t119.5 -42t119.5 42z" />
    <glyph glyph-name="Racute" unicode="&#x154;" horiz-adv-x="602" 
d="M316 856h74l-79 -168h-66zM517 325.5q-35 -46.5 -102 -62.5q19 -11 29 -25.5t23 -43.5l84 -194h-84l-82 187q-14 32 -33.5 44t-63.5 12h-136v-243h-82v644h283q101 0 150 -52.5t49 -147.5q0 -72 -35 -118.5zM470 444q0 135 -129 135h-189v-272h178q140 0 140 137z" />
    <glyph glyph-name="racute" unicode="&#x155;" horiz-adv-x="356" 
d="M149 690h74l-79 -168h-66zM150 414q35 23 82.5 42t93.5 28v-64q-44 -9 -94.5 -28t-79.5 -39v-353h-82v474h74z" />
    <glyph glyph-name="Rcommaaccent" unicode="&#x156;" horiz-adv-x="602" 
d="M517 325.5q-35 -46.5 -102 -62.5q19 -11 29 -25.5t23 -43.5l84 -194h-84l-82 187q-14 32 -33.5 44t-63.5 12h-136v-243h-82v644h283q101 0 150 -52.5t49 -147.5q0 -72 -35 -118.5zM470 444q0 135 -129 135h-189v-272h178q140 0 140 137zM249 -37h74l-42 -177h-60z" />
    <glyph glyph-name="rcommaaccent" unicode="&#x157;" horiz-adv-x="356" 
d="M150 414q35 23 82.5 42t93.5 28v-64q-44 -9 -94.5 -28t-79.5 -39v-353h-82v474h74zM71 -37h74l-42 -177h-60z" />
    <glyph glyph-name="Rcaron" unicode="&#x158;" horiz-adv-x="602" 
d="M256 688l-115 148h71l77 -102l77 102h71l-115 -148h-66zM517 325.5q-35 -46.5 -102 -62.5q19 -11 29 -25.5t23 -43.5l84 -194h-84l-82 187q-14 32 -33.5 44t-63.5 12h-136v-243h-82v644h283q101 0 150 -52.5t49 -147.5q0 -72 -35 -118.5zM470 444q0 135 -129 135h-189
v-272h178q140 0 140 137z" />
    <glyph glyph-name="rcaron" unicode="&#x159;" horiz-adv-x="356" 
d="M83 522l-115 148h71l77 -102l77 102h71l-115 -148h-66zM150 414q35 23 82.5 42t93.5 28v-64q-44 -9 -94.5 -28t-79.5 -39v-353h-82v474h74z" />
    <glyph glyph-name="Sacute" unicode="&#x15a;" horiz-adv-x="556" 
d="M294 856h74l-79 -168h-66zM443.5 36q-62.5 -46 -184.5 -46q-120 0 -194 30v73q88 -33 187 -33q89 0 130.5 24t41.5 84q0 37 -17.5 59.5t-55 38t-109.5 32.5q-106 26 -149 67t-43 112q0 84 60.5 130.5t178.5 46.5q52 0 100.5 -7.5t77.5 -17.5v-72q-76 27 -165 27
q-85 0 -127.5 -25t-42.5 -82q0 -33 15 -53t50.5 -34.5t105.5 -31.5q113 -27 158 -72.5t45 -117.5q0 -86 -62.5 -132z" />
    <glyph glyph-name="sacute" unicode="&#x15b;" horiz-adv-x="457" 
d="M253 690h74l-79 -168h-66zM314 160.5q-11 13.5 -31.5 23t-64.5 23.5l-27 9q-50 17 -78.5 31.5t-45.5 40t-17 66.5q0 64 45 97t141 33q74 0 134 -19v-72q-63 21 -121 21q-64 0 -90.5 -13t-26.5 -46q0 -23 11.5 -36t33 -21.5t75.5 -25.5q59 -18 91.5 -36t48 -44t15.5 -67
q0 -135 -188 -135q-45 0 -87 6t-70 16v72q68 -24 146 -24q65 0 91 13.5t26 50.5q0 23 -11 36.5z" />
    <glyph glyph-name="Scircumflex" unicode="&#x15c;" horiz-adv-x="556" 
d="M358 688l-77 102l-77 -102h-71l115 148h66l115 -148h-71zM443.5 36q-62.5 -46 -184.5 -46q-120 0 -194 30v73q88 -33 187 -33q89 0 130.5 24t41.5 84q0 37 -17.5 59.5t-55 38t-109.5 32.5q-106 26 -149 67t-43 112q0 84 60.5 130.5t178.5 46.5q52 0 100.5 -7.5
t77.5 -17.5v-72q-76 27 -165 27q-85 0 -127.5 -25t-42.5 -82q0 -33 15 -53t50.5 -34.5t105.5 -31.5q113 -27 158 -72.5t45 -117.5q0 -86 -62.5 -132z" />
    <glyph glyph-name="scircumflex" unicode="&#x15d;" horiz-adv-x="457" 
d="M312 522l-77 102l-77 -102h-71l115 148h66l115 -148h-71zM314 160.5q-11 13.5 -31.5 23t-64.5 23.5l-27 9q-50 17 -78.5 31.5t-45.5 40t-17 66.5q0 64 45 97t141 33q74 0 134 -19v-72q-63 21 -121 21q-64 0 -90.5 -13t-26.5 -46q0 -23 11.5 -36t33 -21.5t75.5 -25.5
q59 -18 91.5 -36t48 -44t15.5 -67q0 -135 -188 -135q-45 0 -87 6t-70 16v72q68 -24 146 -24q65 0 91 13.5t26 50.5q0 23 -11 36.5z" />
    <glyph glyph-name="Scedilla" unicode="&#x15e;" horiz-adv-x="556" 
d="M450.5 41.5q-55.5 -45.5 -163.5 -50.5l-13 -39q54 0 82.5 -23.5t28.5 -66.5q0 -102 -143 -102q-16 0 -37 2.5t-33 5.5v50q29 -8 63 -8q48 0 69 11.5t21 41.5q0 28 -19.5 37t-65.5 9h-37l26 81q-100 5 -164 30v73q88 -33 187 -33q89 0 130.5 24t41.5 84q0 37 -17.5 59.5
t-55 38t-109.5 32.5q-106 26 -149 67t-43 112q0 84 60.5 130.5t178.5 46.5q52 0 100.5 -7.5t77.5 -17.5v-72q-76 27 -165 27q-85 0 -127.5 -25t-42.5 -82q0 -33 15 -53t50.5 -34.5t105.5 -31.5q113 -27 158 -72.5t45 -117.5q0 -81 -55.5 -126.5z" />
    <glyph glyph-name="scedilla" unicode="&#x15f;" horiz-adv-x="457" 
d="M249 -9l-13 -39q54 0 82.5 -23.5t28.5 -66.5q0 -102 -143 -102q-16 0 -37 2.5t-33 5.5v50q29 -8 63 -8q48 0 69 11.5t21 41.5q0 28 -19.5 37t-65.5 9h-37l26 82q-78 3 -129 21v72q68 -24 146 -24q65 0 91 13.5t26 50.5q0 23 -11 36.5t-31.5 23t-64.5 23.5l-27 9
q-50 17 -78.5 31.5t-45.5 40t-17 66.5q0 64 45 97t141 33q74 0 134 -19v-72q-63 21 -121 21q-64 0 -90.5 -13t-26.5 -46q0 -23 11.5 -36t33 -21.5t75.5 -25.5q59 -18 91.5 -36t48 -44t15.5 -67q0 -125 -158 -134z" />
    <glyph glyph-name="Scaron" unicode="&#x160;" horiz-adv-x="556" 
d="M263 688l-115 148h71l77 -102l77 102h71l-115 -148h-66zM443.5 36q-62.5 -46 -184.5 -46q-120 0 -194 30v73q88 -33 187 -33q89 0 130.5 24t41.5 84q0 37 -17.5 59.5t-55 38t-109.5 32.5q-106 26 -149 67t-43 112q0 84 60.5 130.5t178.5 46.5q52 0 100.5 -7.5t77.5 -17.5
v-72q-76 27 -165 27q-85 0 -127.5 -25t-42.5 -82q0 -33 15 -53t50.5 -34.5t105.5 -31.5q113 -27 158 -72.5t45 -117.5q0 -86 -62.5 -132z" />
    <glyph glyph-name="scaron" unicode="&#x161;" horiz-adv-x="457" 
d="M204 522l-115 148h71l77 -102l77 102h71l-115 -148h-66zM314 160.5q-11 13.5 -31.5 23t-64.5 23.5l-27 9q-50 17 -78.5 31.5t-45.5 40t-17 66.5q0 64 45 97t141 33q74 0 134 -19v-72q-63 21 -121 21q-64 0 -90.5 -13t-26.5 -46q0 -23 11.5 -36t33 -21.5t75.5 -25.5
q59 -18 91.5 -36t48 -44t15.5 -67q0 -135 -188 -135q-45 0 -87 6t-70 16v72q68 -24 146 -24q65 0 91 13.5t26 50.5q0 23 -11 36.5z" />
    <glyph glyph-name="uni0162" unicode="&#x162;" horiz-adv-x="570" 
d="M313 0l-16 -48q54 0 82.5 -23.5t28.5 -66.5q0 -102 -143 -102q-16 0 -37 2.5t-33 5.5v50q29 -8 63 -8q48 0 69 11.5t21 41.5q0 28 -19.5 37t-65.5 9h-37l29 91h-11v579h-214v65h510v-65h-214v-579h-13z" />
    <glyph glyph-name="uni0163" unicode="&#x163;" horiz-adv-x="358" 
d="M317.5 -71.5q28.5 -23.5 28.5 -66.5q0 -102 -143 -102q-16 0 -37 2.5t-33 5.5v50q29 -8 63 -8q48 0 69 11.5t21 41.5q0 28 -19.5 37t-65.5 9h-37l28 87q-45 13 -67.5 47.5t-22.5 88.5v277h-72v65h72v117l82 25v-142h131l-5 -65h-126v-273q0 -44 19.5 -62t67.5 -18
q26 0 57 10v-62q-36 -14 -80 -14l-13 -38q54 0 82.5 -23.5z" />
    <glyph glyph-name="Tcaron" unicode="&#x164;" horiz-adv-x="570" 
d="M252 688l-115 148h71l77 -102l77 102h71l-115 -148h-66zM326 0h-82v579h-214v65h510v-65h-214v-579z" />
    <glyph glyph-name="tcaron" unicode="&#x165;" horiz-adv-x="358" 
d="M323 737h74l-42 -177h-60zM102 474v117l82 25v-142h131l-5 -65h-126v-273q0 -44 19.5 -62t67.5 -18q26 0 57 10v-62q-37 -14 -85 -14q-69 0 -105 37t-36 105v277h-72v65h72z" />
    <glyph glyph-name="Tbar" unicode="&#x166;" horiz-adv-x="570" 
d="M326 579v-197h125v-62h-125v-320h-82v320h-155v62h155v197h-214v65h510v-65h-214z" />
    <glyph glyph-name="tbar" unicode="&#x167;" horiz-adv-x="370" 
d="M340 66v-62q-37 -14 -85 -14q-69 0 -105 37t-36 105v88h-84v58h84v131h-72v65h72v117l82 25v-142h131l-5 -65h-126v-131h118v-58h-118v-84q0 -44 19.5 -62t67.5 -18q26 0 57 10z" />
    <glyph glyph-name="Utilde" unicode="&#x168;" horiz-adv-x="671" 
d="M320 728q-17 7 -34.5 12.5t-30.5 5.5q-53 0 -83 -35v63q12 13 35.5 21.5t47.5 8.5q19 0 36.5 -5t39.5 -15q25 -10 38.5 -14t29.5 -4q51 0 77 36v-64q-10 -14 -31 -22t-46 -8q-29 0 -79 20zM475.5 104q48.5 44 48.5 131v409h82v-408q0 -120 -69.5 -183t-200.5 -63
q-132 0 -201.5 63t-69.5 183v408h82v-409q0 -87 49 -131t140 -44t139.5 44z" />
    <glyph glyph-name="utilde" unicode="&#x169;" horiz-adv-x="570" 
d="M275 562q-17 7 -34.5 12.5t-30.5 5.5q-53 0 -83 -35v63q12 13 35.5 21.5t47.5 8.5q19 0 36.5 -5t39.5 -15q25 -10 38.5 -14t29.5 -4q51 0 77 36v-64q-10 -14 -31 -22t-46 -8q-29 0 -79 20zM147 474v-303q0 -59 29.5 -87t91.5 -28q44 0 83 16t67 44v358h82v-474h-74l-5 54
q-36 -29 -83.5 -46.5t-100.5 -17.5q-85 0 -128.5 47t-43.5 137v300h82z" />
    <glyph glyph-name="Umacron" unicode="&#x16a;" horiz-adv-x="671" 
d="M468 720h-288v59h288v-59zM475.5 104q48.5 44 48.5 131v409h82v-408q0 -120 -69.5 -183t-200.5 -63q-132 0 -201.5 63t-69.5 183v408h82v-409q0 -87 49 -131t140 -44t139.5 44z" />
    <glyph glyph-name="umacron" unicode="&#x16b;" horiz-adv-x="570" 
d="M421 554h-288v59h288v-59zM147 474v-303q0 -59 29.5 -87t91.5 -28q44 0 83 16t67 44v358h82v-474h-74l-5 54q-36 -29 -83.5 -46.5t-100.5 -17.5q-85 0 -128.5 47t-43.5 137v300h82z" />
    <glyph glyph-name="Ubreve" unicode="&#x16c;" horiz-adv-x="671" 
d="M265 758.5q18 -18.5 50 -18.5q70 0 70 74h58q0 -58 -33 -92t-95 -34q-61 0 -93.5 34t-32.5 92h58q0 -37 18 -55.5zM475.5 104q48.5 44 48.5 131v409h82v-408q0 -120 -69.5 -183t-200.5 -63q-132 0 -201.5 63t-69.5 183v408h82v-409q0 -87 49 -131t140 -44t139.5 44z" />
    <glyph glyph-name="ubreve" unicode="&#x16d;" horiz-adv-x="570" 
d="M229 592.5q18 -18.5 50 -18.5q70 0 70 74h58q0 -58 -33 -92t-95 -34q-61 0 -93.5 34t-32.5 92h58q0 -37 18 -55.5zM147 474v-303q0 -59 29.5 -87t91.5 -28q44 0 83 16t67 44v358h82v-474h-74l-5 54q-36 -29 -83.5 -46.5t-100.5 -17.5q-85 0 -128.5 47t-43.5 137v300h82z
" />
    <glyph glyph-name="Uring" unicode="&#x16e;" horiz-adv-x="671" 
d="M245 872q31 31 78 31q49 0 80 -31t31 -77t-31 -76.5t-80 -30.5q-47 0 -78 31t-31 76q0 46 31 77zM279.5 751.5q17.5 -17.5 43.5 -17.5q27 0 44.5 17.5t17.5 43.5t-17.5 43.5t-44.5 17.5q-26 0 -43.5 -17.5t-17.5 -43.5t17.5 -43.5zM475.5 104q48.5 44 48.5 131v409h82
v-408q0 -120 -69.5 -183t-200.5 -63q-132 0 -201.5 63t-69.5 183v408h82v-409q0 -87 49 -131t140 -44t139.5 44z" />
    <glyph glyph-name="uring" unicode="&#x16f;" horiz-adv-x="570" 
d="M194 706q31 31 78 31q49 0 80 -31t31 -77t-31 -76.5t-80 -30.5q-47 0 -78 31t-31 76q0 46 31 77zM228.5 585.5q17.5 -17.5 43.5 -17.5q27 0 44.5 17.5t17.5 43.5t-17.5 43.5t-44.5 17.5q-26 0 -43.5 -17.5t-17.5 -43.5t17.5 -43.5zM147 474v-303q0 -59 29.5 -87t91.5 -28
q44 0 83 16t67 44v358h82v-474h-74l-5 54q-36 -29 -83.5 -46.5t-100.5 -17.5q-85 0 -128.5 47t-43.5 137v300h82z" />
    <glyph glyph-name="Uhungarumlaut" unicode="&#x170;" horiz-adv-x="671" 
d="M231 840h78l-81 -152h-68zM437 840h78l-81 -152h-68zM475.5 104q48.5 44 48.5 131v409h82v-408q0 -120 -69.5 -183t-200.5 -63q-132 0 -201.5 63t-69.5 183v408h82v-409q0 -87 49 -131t140 -44t139.5 44z" />
    <glyph glyph-name="uhungarumlaut" unicode="&#x171;" horiz-adv-x="570" 
d="M184 674h78l-81 -152h-68zM390 674h78l-81 -152h-68zM147 474v-303q0 -59 29.5 -87t91.5 -28q44 0 83 16t67 44v358h82v-474h-74l-5 54q-36 -29 -83.5 -46.5t-100.5 -17.5q-85 0 -128.5 47t-43.5 137v300h82z" />
    <glyph glyph-name="Uogonek" unicode="&#x172;" horiz-adv-x="671" 
d="M606 644v-408q0 -111 -59.5 -173.5t-172.5 -71.5q-61 -50 -61 -111q0 -24 12 -33.5t38 -9.5q13 0 27 3t23 8v-56q-24 -12 -68 -12t-71.5 21.5t-27.5 66.5q0 35 17 67t46 56q-119 6 -181.5 69t-62.5 176v408h82v-409q0 -87 49 -131t140 -44t139.5 44t48.5 131v409h82z" />
    <glyph glyph-name="uogonek" unicode="&#x173;" horiz-adv-x="570" 
d="M495 -160q14 3 23 8v-56q-24 -12 -68 -12t-71.5 21.5t-27.5 66.5q0 38 20.5 73.5t54.5 58.5l-5 54q-36 -29 -83.5 -46.5t-100.5 -17.5q-85 0 -128.5 47t-43.5 137v300h82v-303q0 -59 29.5 -87t91.5 -28q44 0 83 16t67 44v358h82v-474h-10q-35 -26 -53.5 -57t-18.5 -63
q0 -24 12 -33.5t38 -9.5q13 0 27 3z" />
    <glyph glyph-name="Wcircumflex" unicode="&#x174;" horiz-adv-x="861" 
d="M512 688l-77 102l-77 -102h-71l115 148h66l115 -148h-71zM288 0h-88l-150 644h81l121 -530l139 459v71h67l150 -530l123 530h80l-149 -644h-87l-140 490z" />
    <glyph glyph-name="wcircumflex" unicode="&#x175;" horiz-adv-x="736" 
d="M446 522l-77 102l-77 -102h-71l115 148h66l115 -148h-71zM369 344l-113 -344h-82l-124 474h82l93 -381l106 326v55h63l117 -381l93 381h82l-124 -474h-82z" />
    <glyph glyph-name="Ycircumflex" unicode="&#x176;" horiz-adv-x="642" 
d="M398 688l-77 102l-77 -102h-71l115 148h66l115 -148h-71zM280 240l-230 404h85l186 -334l186 334h85l-230 -404v-240h-82v240z" />
    <glyph glyph-name="ycircumflex" unicode="&#x177;" horiz-adv-x="584" 
d="M379 522l-77 102l-77 -102h-71l115 148h66l115 -148h-71zM135 474l165 -382l170 382h84l-199 -453q-29 -67 -54 -108t-59.5 -65t-82.5 -24q-47 0 -82 13v66q28 -10 61 -10t52.5 11.5t33.5 33t35 67.5l-209 469h85z" />
    <glyph glyph-name="Ydieresis" unicode="&#x178;" horiz-adv-x="642" 
d="M194 786h78v-75h-78v75zM370 786h78v-75h-78v75zM280 240l-230 404h85l186 -334l186 334h85l-230 -404v-240h-82v240z" />
    <glyph glyph-name="Zacute" unicode="&#x179;" horiz-adv-x="572" 
d="M331 856h74l-79 -168h-66zM50 46l368 533h-351v65h455v-51l-365 -529h370v-64h-477v46z" />
    <glyph glyph-name="zacute" unicode="&#x17a;" horiz-adv-x="485" 
d="M277 690h74l-79 -168h-66zM50 45l279 364h-266v65h365v-51l-275 -359h282v-64h-385v45z" />
    <glyph glyph-name="Zdotaccent" unicode="&#x17b;" horiz-adv-x="572" 
d="M255 787h80v-77h-80v77zM50 46l368 533h-351v65h455v-51l-365 -529h370v-64h-477v46z" />
    <glyph glyph-name="zdotaccent" unicode="&#x17c;" horiz-adv-x="485" 
d="M202 621h80v-77h-80v77zM50 45l279 364h-266v65h365v-51l-275 -359h282v-64h-385v45z" />
    <glyph glyph-name="Zcaron" unicode="&#x17d;" horiz-adv-x="572" 
d="M270 688l-115 148h71l77 -102l77 102h71l-115 -148h-66zM50 46l368 533h-351v65h455v-51l-365 -529h370v-64h-477v46z" />
    <glyph glyph-name="zcaron" unicode="&#x17e;" horiz-adv-x="485" 
d="M199 522l-115 148h71l77 -102l77 102h71l-115 -148h-66zM50 45l279 364h-266v65h365v-51l-275 -359h282v-64h-385v45z" />
    <glyph glyph-name="uni018F" unicode="&#x18f;" horiz-adv-x="670" 
d="M514 490q-27 50 -85.5 74t-156.5 24q-44 0 -93 -10t-89 -27v66q42 17 95 27t105 10q170 0 250 -84t80 -255q0 -325 -299 -325q-135 0 -203 71.5t-68 191.5v106h495q-4 81 -31 131zM490.5 116.5q54.5 60.5 54.5 183.5h-422v-60q0 -90 51.5 -137t146.5 -47
q115 0 169.5 60.5z" />
    <glyph glyph-name="florin" unicode="&#x192;" horiz-adv-x="518" 
d="M105 409l14 65h71l15 69q16 74 59 110.5t120 36.5q47 0 84 -15l-13 -62q-30 11 -64 11q-47 0 -71 -18.5t-33 -62.5l-15 -69h128l-18 -65h-124l-81 -385q-33 -147 -180 -147q-45 0 -82 15l13 62q28 -11 63 -11q49 0 71.5 18t32.5 63l81 385h-71z" />
    <glyph glyph-name="Ohorn" unicode="&#x1a0;" horiz-adv-x="760" 
d="M571.5 70q-72.5 -80 -224.5 -80t-224.5 80t-72.5 252t72.5 252t224.5 80t225 -80q39 1 59.5 11t29 34t8.5 69h71q0 -87 -31.5 -128t-96.5 -50q32 -75 32 -188q0 -172 -72.5 -252zM539 475.5q-23 57.5 -70 83t-122 25.5t-122 -25.5t-70 -83t-23 -153.5t23 -153.5t70 -83
t122 -25.5t122 25.5t70 83t23 153.5t-23 153.5z" />
    <glyph glyph-name="ohorn" unicode="&#x1a1;" horiz-adv-x="658" 
d="M471 415q39 1 59.5 12.5t28.5 37t8 71.5h71q0 -88 -33 -130t-100 -51q19 -48 19 -118q0 -123 -57.5 -185t-179.5 -62t-179.5 62t-57.5 185q0 247 237 247q124 0 184 -69zM406.5 102q35.5 42 35.5 135t-36 135t-119 42t-119 -42t-36 -135t35.5 -135t119.5 -42t119.5 42z
" />
    <glyph glyph-name="Uhorn" unicode="&#x1af;" horiz-adv-x="805" 
d="M475.5 104q48.5 44 48.5 131v409h82v-75q39 1 60 11.5t29.5 36t8.5 71.5h71q0 -99 -41 -140.5t-128 -42.5v-269q0 -120 -69.5 -183t-200.5 -63q-132 0 -201.5 63t-69.5 183v408h82v-409q0 -87 49 -131t140 -44t139.5 44z" />
    <glyph glyph-name="uhorn" unicode="&#x1b0;" horiz-adv-x="683" 
d="M147 474v-303q0 -59 29.5 -87t91.5 -28q44 0 83 16t67 44v358h82v-59q48 4 65 30.5t17 90.5h71q0 -90 -39.5 -135t-113.5 -46v-355h-74l-5 54q-36 -29 -83.5 -46.5t-100.5 -17.5q-85 0 -128.5 47t-43.5 137v300h82z" />
    <glyph glyph-name="uni01CD" unicode="&#x1cd;" horiz-adv-x="685" 
d="M309 688l-115 148h71l77 -102l77 102h71l-115 -148h-66zM135 0h-85l245 644h96l244 -644h-84l-68 177h-280zM217 242h251l-126 331z" />
    <glyph glyph-name="uni01CE" unicode="&#x1ce;" horiz-adv-x="541" 
d="M247 522l-115 148h71l77 -102l77 102h71l-115 -148h-66zM401 54q-31 -33 -75.5 -48.5t-108.5 -15.5q-72 0 -119.5 37t-47.5 106t45 108.5t138 39.5h165v29q0 40 -11 62.5t-40 32.5t-84 10q-83 0 -158 -26v68q71 27 169 27q102 0 152 -41.5t50 -132.5v-310h-69zM235 218
q-55 0 -79.5 -20.5t-24.5 -64.5q0 -41 27 -58.5t80 -17.5q101 0 160 69v92h-163z" />
    <glyph glyph-name="uni01CF" unicode="&#x1cf;" horiz-adv-x="222" 
d="M79 688l-115 148h71l77 -102l77 102h71l-115 -148h-66zM70 644h82v-644h-82v644z" />
    <glyph glyph-name="uni01D0" unicode="&#x1d0;" horiz-adv-x="295" 
d="M130 522l-115 148h71l77 -102l77 102h71l-115 -148h-66zM225 0h-82v409h-73l8 65h147v-474z" />
    <glyph glyph-name="uni01D1" unicode="&#x1d1;" horiz-adv-x="694" 
d="M314 688l-115 148h71l77 -102l77 102h71l-115 -148h-66zM571.5 70q-72.5 -80 -224.5 -80t-224.5 80t-72.5 252t72.5 252t224.5 80t224.5 -80t72.5 -252t-72.5 -252zM539 475.5q-23 57.5 -70 83t-122 25.5t-122 -25.5t-70 -83t-23 -153.5t23 -153.5t70 -83t122 -25.5
t122 25.5t70 83t23 153.5t-23 153.5z" />
    <glyph glyph-name="uni01D2" unicode="&#x1d2;" horiz-adv-x="574" 
d="M254 522l-115 148h71l77 -102l77 102h71l-115 -148h-66zM524 237q0 -123 -57.5 -185t-179.5 -62t-179.5 62t-57.5 185q0 247 237 247t237 -247zM406.5 102q35.5 42 35.5 135t-36 135t-119 42t-119 -42t-36 -135t35.5 -135t119.5 -42t119.5 42z" />
    <glyph glyph-name="uni01D3" unicode="&#x1d3;" horiz-adv-x="671" 
d="M302 688l-115 148h71l77 -102l77 102h71l-115 -148h-66zM475.5 104q48.5 44 48.5 131v409h82v-408q0 -120 -69.5 -183t-200.5 -63q-132 0 -201.5 63t-69.5 183v408h82v-409q0 -87 49 -131t140 -44t139.5 44z" />
    <glyph glyph-name="uni01D4" unicode="&#x1d4;" horiz-adv-x="570" 
d="M249 522l-115 148h71l77 -102l77 102h71l-115 -148h-66zM147 474v-303q0 -59 29.5 -87t91.5 -28q44 0 83 16t67 44v358h82v-474h-74l-5 54q-36 -29 -83.5 -46.5t-100.5 -17.5q-85 0 -128.5 47t-43.5 137v300h82z" />
    <glyph glyph-name="uni01D5" unicode="&#x1d5;" horiz-adv-x="671" 
d="M480 826h-288v59h288v-59zM208 780h78v-75h-78v75zM384 780h78v-75h-78v75zM475.5 104q48.5 44 48.5 131v409h82v-408q0 -120 -69.5 -183t-200.5 -63q-132 0 -201.5 63t-69.5 183v408h82v-409q0 -87 49 -131t140 -44t139.5 44z" />
    <glyph glyph-name="uni01D6" unicode="&#x1d6;" horiz-adv-x="570" 
d="M431 679h-288v59h288v-59zM159 615h78v-75h-78v75zM335 615h78v-75h-78v75zM147 474v-303q0 -59 29.5 -87t91.5 -28q44 0 83 16t67 44v358h82v-474h-74l-5 54q-36 -29 -83.5 -46.5t-100.5 -17.5q-85 0 -128.5 47t-43.5 137v300h82z" />
    <glyph glyph-name="uni01D7" unicode="&#x1d7;" horiz-adv-x="671" 
d="M366 896h65l-68 -125h-59zM199 763h78v-75h-78v75zM395 763h78v-75h-78v75zM475.5 104q48.5 44 48.5 131v409h82v-408q0 -120 -69.5 -183t-200.5 -63q-132 0 -201.5 63t-69.5 183v408h82v-409q0 -87 49 -131t140 -44t139.5 44z" />
    <glyph glyph-name="uni01D8" unicode="&#x1d8;" horiz-adv-x="570" 
d="M313 730h65l-68 -125h-59zM146 597h78v-75h-78v75zM342 597h78v-75h-78v75zM147 474v-303q0 -59 29.5 -87t91.5 -28q44 0 83 16t67 44v358h82v-474h-74l-5 54q-36 -29 -83.5 -46.5t-100.5 -17.5q-85 0 -128.5 47t-43.5 137v300h82z" />
    <glyph glyph-name="uni01D9" unicode="&#x1d9;" horiz-adv-x="671" 
d="M261 889l74 -83l75 83h69l-111 -118h-66l-111 118h70zM194 763h78v-75h-78v75zM390 763h78v-75h-78v75zM475.5 104q48.5 44 48.5 131v409h82v-408q0 -120 -69.5 -183t-200.5 -63q-132 0 -201.5 63t-69.5 183v408h82v-409q0 -87 49 -131t140 -44t139.5 44z" />
    <glyph glyph-name="uni01DA" unicode="&#x1da;" horiz-adv-x="570" 
d="M210 723l74 -83l75 83h69l-111 -118h-66l-111 118h70zM143 597h78v-75h-78v75zM339 597h78v-75h-78v75zM147 474v-303q0 -59 29.5 -87t91.5 -28q44 0 83 16t67 44v358h82v-474h-74l-5 54q-36 -29 -83.5 -46.5t-100.5 -17.5q-85 0 -128.5 47t-43.5 137v300h82z" />
    <glyph glyph-name="uni01DB" unicode="&#x1db;" horiz-adv-x="671" 
d="M240 896h65l62 -125h-59zM198 763h78v-75h-78v75zM394 763h78v-75h-78v75zM475.5 104q48.5 44 48.5 131v409h82v-408q0 -120 -69.5 -183t-200.5 -63q-132 0 -201.5 63t-69.5 183v408h82v-409q0 -87 49 -131t140 -44t139.5 44z" />
    <glyph glyph-name="uni01DC" unicode="&#x1dc;" horiz-adv-x="570" 
d="M188 730h65l62 -125h-59zM146 597h78v-75h-78v75zM342 597h78v-75h-78v75zM147 474v-303q0 -59 29.5 -87t91.5 -28q44 0 83 16t67 44v358h82v-474h-74l-5 54q-36 -29 -83.5 -46.5t-100.5 -17.5q-85 0 -128.5 47t-43.5 137v300h82z" />
    <glyph glyph-name="Gcaron" unicode="&#x1e6;" horiz-adv-x="639" 
d="M317 687l-115 148h71l77 -102l77 102h71l-115 -148h-66zM518 86v205h-172v56h243v-306q-80 -51 -230 -51q-152 0 -230.5 85t-78.5 233q0 164 75.5 255t232.5 91q103 0 187 -30v-72q-85 32 -180 32q-125 0 -179 -70t-54 -206q0 -122 56 -185t176 -63q87 0 154 26z" />
    <glyph glyph-name="gcaron" unicode="&#x1e7;" horiz-adv-x="547" 
d="M248 522l-115 148h71l77 -102l77 102h71l-115 -148h-66zM376.5 -18q-18.5 11 -65.5 11h-126q-65 0 -98 22.5t-33 65.5q0 31 19 56.5t55 36.5q-78 38 -78 140q0 88 51 129t158 41q37 0 82 -10h171l-3 -56h-86q43 -37 43 -104q0 -80 -46.5 -123t-140.5 -43q-21 0 -58 5
q-33 -2 -59 -18.5t-26 -41.5q0 -18 14 -25.5t49 -7.5h131q71 0 109 -29t38 -83q0 -67 -55.5 -95.5t-167.5 -28.5q-119 0 -190 25v68q39 -13 88.5 -20t97.5 -7q55 0 85 4t45 15.5t15 35.5q0 26 -18.5 37zM356.5 233q27.5 23 27.5 81t-28.5 84t-96.5 26q-67 0 -97 -25.5
t-30 -84.5q0 -56 29 -80t98 -24q70 0 97.5 23z" />
    <glyph glyph-name="Aringacute" unicode="&#x1fa;" horiz-adv-x="685" 
d="M357 852h-66l71 168h74zM635 0h-84l-68 177h-280l-68 -177h-85l237 622q-26 14 -40.5 38.5t-14.5 55.5q0 46 31 77t78 31q49 0 80 -31t31 -77q0 -30 -14 -54.5t-39 -38.5zM297.5 759.5q-17.5 -17.5 -17.5 -43.5t17.5 -43.5t43.5 -17.5q27 0 44.5 17.5t17.5 43.5
t-17.5 43.5t-44.5 17.5q-26 0 -43.5 -17.5zM468 242l-126 331l-125 -331h251z" />
    <glyph glyph-name="aringacute" unicode="&#x1fb;" horiz-adv-x="541" 
d="M310 917h74l-79 -134h-66zM197 703q31 31 78 31q49 0 80 -31t31 -77t-31 -76.5t-80 -30.5q-47 0 -78 31t-31 76q0 46 31 77zM231.5 582.5q17.5 -17.5 43.5 -17.5q27 0 44.5 17.5t17.5 43.5t-17.5 43.5t-44.5 17.5q-26 0 -43.5 -17.5t-17.5 -43.5t17.5 -43.5zM401 54
q-31 -33 -75.5 -48.5t-108.5 -15.5q-72 0 -119.5 37t-47.5 106t45 108.5t138 39.5h165v29q0 40 -11 62.5t-40 32.5t-84 10q-83 0 -158 -26v68q71 27 169 27q102 0 152 -41.5t50 -132.5v-310h-69zM235 218q-55 0 -79.5 -20.5t-24.5 -64.5q0 -41 27 -58.5t80 -17.5
q101 0 160 69v92h-163z" />
    <glyph glyph-name="AEacute" unicode="&#x1fc;" horiz-adv-x="840" 
d="M503 856h74l-79 -168h-66zM409 178h-203l-68 -178h-88l245 644h495v-65h-299v-225h263v-64h-263v-226h299v-64h-381v178zM409 579h-51l-127 -337h178v337z" />
    <glyph glyph-name="aeacute" unicode="&#x1fd;" horiz-adv-x="881" 
d="M473 690h74l-79 -168h-66zM356 15q-52 -25 -139 -25q-72 0 -119.5 37t-47.5 106t45 108.5t138 39.5h165v29q0 40 -11 62.5t-40 32.5t-84 10q-83 0 -158 -26v68q71 27 169 27q128 0 175 -73q61 73 176 73q101 0 153.5 -54t52.5 -142v-89h-351q4 -55 23.5 -85.5t58.5 -44
t105 -13.5q73 0 134 25v-64q-61 -27 -150 -27q-77 0 -127 22t-81 68q-35 -40 -87 -65zM512.5 379.5q-32.5 -38.5 -32.5 -121.5h278v39q0 59 -31.5 90t-99.5 31q-82 0 -114.5 -38.5zM235 218q-55 0 -79.5 -20.5t-24.5 -64.5q0 -41 27 -58.5t80 -17.5q55 0 93 17.5t67 51.5v92
h-163z" />
    <glyph glyph-name="Oslashacute" unicode="&#x1fe;" horiz-adv-x="694" 
d="M372 856h74l-79 -168h-66zM195 17q-73 33 -109 108t-36 197q0 172 72.5 252t224.5 80q37 0 79 -7l17 46h72l-24 -64q77 -32 115 -107.5t38 -199.5q0 -172 -72.5 -252t-224.5 -80q-45 0 -88 8l-18 -51h-72zM154 171q22 -57 67 -83l180 492q-34 4 -54 4q-75 0 -122 -25.5
t-70 -83t-23 -153.5q0 -94 22 -151zM538.5 476.5q-23.5 57.5 -72.5 83.5l-182 -495q32 -5 63 -5q75 0 122 25.5t70 83t23 153.5q0 97 -23.5 154.5z" />
    <glyph glyph-name="oslashacute" unicode="&#x1ff;" horiz-adv-x="574" 
d="M311 690h74l-79 -168h-66zM341 480l18 48h72l-24 -66q117 -51 117 -225q0 -123 -57.5 -185t-179.5 -62q-28 0 -52 3l-17 -47h-72l23 64q-119 49 -119 227q0 247 237 247q31 0 54 -4zM147 136.5q15 -38.5 48 -57.5l122 333q-20 2 -30 2q-83 0 -119 -42t-36 -135
q0 -62 15 -100.5zM406.5 102q35.5 42 35.5 135q0 60 -14.5 98t-46.5 57l-121 -331q9 -1 27 -1q84 0 119.5 42z" />
    <glyph glyph-name="Scommaaccent" unicode="&#x218;" horiz-adv-x="556" 
d="M443.5 36q-62.5 -46 -184.5 -46q-120 0 -194 30v73q88 -33 187 -33q89 0 130.5 24t41.5 84q0 37 -17.5 59.5t-55 38t-109.5 32.5q-106 26 -149 67t-43 112q0 84 60.5 130.5t178.5 46.5q52 0 100.5 -7.5t77.5 -17.5v-72q-76 27 -165 27q-85 0 -127.5 -25t-42.5 -82
q0 -33 15 -53t50.5 -34.5t105.5 -31.5q113 -27 158 -72.5t45 -117.5q0 -86 -62.5 -132zM232 -52h75l-39 -166h-63z" />
    <glyph glyph-name="scommaaccent" unicode="&#x219;" horiz-adv-x="457" 
d="M314 160.5q-11 13.5 -31.5 23t-64.5 23.5l-27 9q-50 17 -78.5 31.5t-45.5 40t-17 66.5q0 64 45 97t141 33q74 0 134 -19v-72q-63 21 -121 21q-64 0 -90.5 -13t-26.5 -46q0 -23 11.5 -36t33 -21.5t75.5 -25.5q59 -18 91.5 -36t48 -44t15.5 -67q0 -135 -188 -135
q-45 0 -87 6t-70 16v72q68 -24 146 -24q65 0 91 13.5t26 50.5q0 23 -11 36.5zM188 -52h75l-39 -166h-63z" />
    <glyph glyph-name="uni021A" unicode="&#x21a;" horiz-adv-x="570" 
d="M326 0h-82v579h-214v65h510v-65h-214v-579zM250 -42h74l-42 -177h-60z" />
    <glyph glyph-name="uni021B" unicode="&#x21b;" horiz-adv-x="358" 
d="M102 474v117l82 25v-142h131l-5 -65h-126v-273q0 -44 19.5 -62t67.5 -18q26 0 57 10v-62q-37 -14 -85 -14q-69 0 -105 37t-36 105v277h-72v65h72zM198 -42h74l-42 -177h-60z" />
    <glyph glyph-name="uni0237" unicode="&#x237;" horiz-adv-x="294" 
d="M186.5 -196.5q-37.5 -37.5 -107.5 -37.5q-50 0 -89 14v65q31 -10 61 -10q53 0 72 17.5t19 60.5v496h-73l8 65h147v-568q0 -65 -37.5 -102.5z" />
    <glyph glyph-name="uni0251" unicode="&#x251;" horiz-adv-x="575" 
d="M106.5 420.5q56.5 63.5 159.5 63.5q92 0 157 -45v35h82v-474h-70l-6 50q-33 -31 -72.5 -45.5t-92.5 -14.5q-214 0 -214 241q0 126 56.5 189.5zM170 372.5q-38 -45.5 -38 -141.5q0 -94 35 -134.5t118 -40.5q85 0 138 57v258q-53 47 -135 47q-80 0 -118 -45.5z" />
    <glyph glyph-name="uni0259" unicode="&#x259;" horiz-adv-x="533" 
d="M377.5 360.5q-19.5 30.5 -58.5 44t-105 13.5q-73 0 -134 -25v64q62 27 150 27q127 0 190 -61t63 -188q0 -117 -56 -181t-171 -64q-101 0 -153.5 54t-52.5 142v89h351q-4 55 -23.5 85.5zM368.5 94.5q32.5 38.5 32.5 121.5h-278v-39q0 -59 31.5 -90t99.5 -31
q82 0 114.5 38.5z" />
    <glyph glyph-name="uni02BB" unicode="&#x2bb;" horiz-adv-x="224" 
d="M125 471h-75l62 183h62z" />
    <glyph glyph-name="uni02BC" unicode="&#x2bc;" horiz-adv-x="224" 
d="M100 654h74l-62 -183h-62z" />
    <glyph glyph-name="uni02BE" unicode="&#x2be;" 
d="M-311 674q-22 23 -63 23v50q68 0 104.5 -37t36.5 -99t-36.5 -99.5t-104.5 -37.5v50q41 0 63 23t22 64q0 40 -22 63z" />
    <glyph glyph-name="uni02BF" unicode="&#x2bf;" 
d="M-296 547q22 -23 63 -23v-50q-68 0 -104.5 37.5t-36.5 99.5t36.5 99t104.5 37v-50q-41 0 -63 -23t-22 -63q0 -41 22 -64z" />
    <glyph glyph-name="circumflex" unicode="&#x2c6;" horiz-adv-x="396" 
d="M275 537l-77 102l-77 -102h-71l115 148h66l115 -148h-71z" />
    <glyph glyph-name="caron" unicode="&#x2c7;" horiz-adv-x="396" 
d="M165 537l-115 148h71l77 -102l77 102h71l-115 -148h-66z" />
    <glyph glyph-name="uni02C8" unicode="&#x2c8;" 
d="M-41 655h58v-170h-58v170z" />
    <glyph glyph-name="uni02C9" unicode="&#x2c9;" 
d="M366 565h-288v59h288v-59z" />
    <glyph glyph-name="uni02CA" unicode="&#x2ca;" 
d="M-11 690h74l-79 -168h-66z" />
    <glyph glyph-name="uni02CB" unicode="&#x2cb;" 
d="M-87 690h74l71 -168h-66z" />
    <glyph glyph-name="uni02CC" unicode="&#x2cc;" 
d="M-41 -41h58v-170h-58v170z" />
    <glyph glyph-name="breve" unicode="&#x2d8;" horiz-adv-x="354" 
d="M126 610.5q18 -18.5 50 -18.5q70 0 70 74h58q0 -58 -33 -92t-95 -34q-61 0 -93.5 34t-32.5 92h58q0 -37 18 -55.5z" />
    <glyph glyph-name="dotaccent" unicode="&#x2d9;" horiz-adv-x="180" 
d="M50 637h80v-77h-80v77z" />
    <glyph glyph-name="ring" unicode="&#x2da;" horiz-adv-x="320" 
d="M81 709q31 31 78 31q49 0 80 -31t31 -77t-31 -76.5t-80 -30.5q-47 0 -78 31t-31 76q0 46 31 77zM115.5 588.5q17.5 -17.5 43.5 -17.5q27 0 44.5 17.5t17.5 43.5t-17.5 43.5t-44.5 17.5q-26 0 -43.5 -17.5t-17.5 -43.5t17.5 -43.5z" />
    <glyph glyph-name="ogonek" unicode="&#x2db;" horiz-adv-x="267" 
d="M129 -153.5q12 -9.5 38 -9.5q13 0 27 3t23 8v-56q-24 -12 -68 -12t-71.5 21.5t-27.5 66.5q0 38 20.5 73.5t54.5 58.5h64q-35 -26 -53.5 -57t-18.5 -63q0 -24 12 -33.5z" />
    <glyph glyph-name="tilde" unicode="&#x2dc;" horiz-adv-x="404" 
d="M198 593q-17 7 -34.5 12.5t-30.5 5.5q-53 0 -83 -35v63q12 13 35.5 21.5t47.5 8.5q19 0 36.5 -5t39.5 -15q25 -10 38.5 -14t29.5 -4q51 0 77 36v-64q-10 -14 -31 -22t-46 -8q-29 0 -79 20z" />
    <glyph glyph-name="hungarumlaut" unicode="&#x2dd;" horiz-adv-x="455" 
d="M121 689h78l-81 -152h-68zM327 689h78l-81 -152h-68z" />
    <glyph glyph-name="gravecomb" unicode="&#x300;" 
d="M-441 690h74l71 -168h-66z" />
    <glyph glyph-name="acutecomb" unicode="&#x301;" 
d="M-303 690h74l-79 -168h-66z" />
    <glyph glyph-name="uni0302" unicode="&#x302;" 
d="M54 537l-77 102l-77 -102h-71l115 148h66l115 -148h-71z" />
    <glyph glyph-name="tildecomb" unicode="&#x303;" 
d="M-322 593q-17 7 -34.5 12.5t-30.5 5.5q-53 0 -83 -35v63q12 13 35.5 21.5t47.5 8.5q19 0 36.5 -5t39.5 -15q25 -10 38.5 -14t29.5 -4q51 0 77 36v-64q-10 -14 -31 -22t-46 -8q-29 0 -79 20z" />
    <glyph glyph-name="uni0304" unicode="&#x304;" 
d="M124 565h-288v59h288v-59z" />
    <glyph glyph-name="uni0306" unicode="&#x306;" 
d="M-62 611.5q18 -18.5 50 -18.5q70 0 70 74h58q0 -58 -33 -92t-95 -34q-61 0 -93.5 34t-32.5 92h58q0 -37 18 -55.5z" />
    <glyph glyph-name="uni0307" unicode="&#x307;" 
d="M-51 637h80v-77h-80v77z" />
    <glyph glyph-name="uni0308" unicode="&#x308;" 
d="M-136 636h78v-75h-78v75zM40 636h78v-75h-78v75z" />
    <glyph glyph-name="hookabovecomb" unicode="&#x309;" 
d="M-216 587q-20 -22 -69 -29v-48h-66v83q39 2 59 7.5t27 15.5t7 29q0 24 -18.5 34.5t-59.5 10.5q-16 0 -34.5 -3.5t-31.5 -8.5v51q15 6 39 9.5t46 3.5q59 0 90 -24t31 -67q0 -42 -20 -64z" />
    <glyph glyph-name="uni030A" unicode="&#x30a;" 
d="M-90 709q31 31 78 31q49 0 80 -31t31 -77t-31 -76.5t-80 -30.5q-48 0 -78.5 31t-30.5 76q0 46 31 77zM-55.5 588.5q17.5 -17.5 43.5 -17.5q27 0 44.5 17.5t17.5 43.5t-17.5 43.5t-44.5 17.5q-26 0 -43.5 -17.5t-17.5 -43.5t17.5 -43.5z" />
    <glyph glyph-name="uni030B" unicode="&#x30b;" 
d="M-133 689h78l-81 -152h-68zM73 689h78l-81 -152h-68z" />
    <glyph glyph-name="uni030C" unicode="&#x30c;" 
d="M-56 537l-115 148h71l77 -102l77 102h71l-115 -148h-66z" />
    <glyph glyph-name="uni031B" unicode="&#x31b;" 
d="M-39.5 601.5q21.5 8.5 29.5 31t8 69.5h71q0 -67 -19 -105t-56.5 -53.5t-98.5 -16.5v66q44 0 65.5 8.5z" />
    <glyph glyph-name="dotbelowcomb" unicode="&#x323;" 
d="M-351 -87h80v-77h-80v77z" />
    <glyph glyph-name="uni0324" unicode="&#x324;" 
d="M-128 -87h78v-75h-78v75zM48 -87h78v-75h-78v75z" />
    <glyph glyph-name="uni0326" unicode="&#x326;" 
d="M-124 -37h74l-42 -177h-60z" />
    <glyph glyph-name="uni0327" unicode="&#x327;" 
d="M-29 -240q-16 0 -37 2.5t-33 5.5v50q29 -8 63 -8q48 0 69 11.5t21 41.5q0 28 -19.5 37t-65.5 9h-37l29 91h58l-16 -48q54 0 82.5 -23.5t28.5 -66.5q0 -102 -143 -102z" />
    <glyph glyph-name="uni0328" unicode="&#x328;" 
d="M-16 -153.5q12 -9.5 38 -9.5q13 0 27 3t23 8v-56q-24 -12 -68 -12t-71.5 21.5t-27.5 66.5q0 38 20.5 73.5t54.5 58.5h64q-35 -26 -53.5 -57t-18.5 -63q0 -24 12 -33.5z" />
    <glyph glyph-name="uni032E" unicode="&#x32e;" 
d="M-62 -125.5q18 -18.5 50 -18.5q70 0 70 74h58q0 -58 -33 -92t-95 -34q-61 0 -93.5 34t-32.5 92h58q0 -37 18 -55.5z" />
    <glyph glyph-name="uni0331" unicode="&#x331;" 
d="M124 -130h-288v59h288v-59z" />
    <glyph glyph-name="uni0394" unicode="&#x394;" horiz-adv-x="654" 
d="M285 644h82l237 -598v-46h-554v47zM130 64h391l-195 497z" />
    <glyph glyph-name="uni03A9" unicode="&#x3a9;" horiz-adv-x="769" 
d="M252.5 592q-57.5 -33 -89 -92.5t-31.5 -136.5q0 -96 47.5 -171.5t141.5 -126.5v-65h-264v64h159q-77 48 -121.5 123.5t-44.5 175.5q0 95 40.5 170.5t116 118.5t178.5 43q102 0 177.5 -43t116 -118.5t40.5 -170.5q0 -101 -44 -176.5t-121 -122.5h158v-64h-263v65
q188 102 188 298q0 77 -31.5 136.5t-88.5 92.5t-132 33t-132.5 -33z" />
    <glyph glyph-name="uni03BC" unicode="&#x3bc;" horiz-adv-x="575" 
d="M152 474v-303q0 -59 29.5 -87t91.5 -28q44 0 83 16t67 44v358h82v-474h-74l-5 54q-36 -29 -83.5 -46.5t-100.5 -17.5t-90 22v-155h-82v617h82z" />
    <glyph glyph-name="pi" unicode="&#x3c0;" horiz-adv-x="668" 
d="M556 410h-68v-274q0 -43 18.5 -60t64.5 -17q26 0 57 10v-65q-39 -14 -86 -14q-65 0 -100.5 39.5t-35.5 107.5v273h-216v-410h-82v410h-68v64h516v-64z" />
    <glyph glyph-name="uni0E01" unicode="&#xe01;" horiz-adv-x="608" 
d="M182 280q-18 -22 -18 -63v-217h-82v219q0 44 19.5 74.5t61.5 42.5l-113 26v96q42 40 106.5 66t144.5 26q119 0 178 -50.5t59 -155.5v-344h-82v347q0 74 -35 103.5t-120 29.5q-56 0 -104.5 -15.5t-74.5 -41.5v-21l117 -28v-62q-39 -10 -57 -32z" />
    <glyph glyph-name="uni0E02" unicode="&#xe02;" horiz-adv-x="571" 
d="M75.5 313.5q14.5 26.5 41.5 63.5q20 29 29 44t9 29q0 16 -7 21t-26 5h-72l7 64h111q69 0 69 -68q0 -31 -12.5 -56.5t-37.5 -60.5q-23 -33 -33.5 -54t-10.5 -46v-79q0 -116 137 -116q139 0 139 118v362h82v-354q0 -94 -58.5 -145t-162.5 -51q-106 0 -162.5 50t-56.5 145
v73q0 29 14.5 55.5z" />
    <glyph glyph-name="uni0E03" unicode="&#xe03;" horiz-adv-x="563" 
d="M80 298q18 30 50 71q25 32 36.5 50.5t11.5 33.5q0 25 -24 25q-22 0 -41 -19v-39h-63v120h63v-28q30 28 72 28q33 0 52.5 -18.5t19.5 -52.5q0 -29 -14.5 -55t-43.5 -64q-29 -39 -42 -63t-13 -50v-61q0 -61 33.5 -88.5t99.5 -27.5t100 28t34 90v362h82v-354q0 -94 -56 -145
t-160 -51q-106 0 -160.5 48.5t-54.5 142.5v58q0 29 18 59z" />
    <glyph glyph-name="uni0E04" unicode="&#xe04;" horiz-adv-x="606" 
d="M189.5 451q-37.5 -29 -37.5 -92v-125q47 41 116 41h66l4 -67h-72q-68 0 -114 -39v-169h-82v350q0 200 234 200q232 0 232 -200v-350h-82v359q0 63 -37.5 92t-112.5 29q-77 0 -114.5 -29z" />
    <glyph glyph-name="uni0E05" unicode="&#xe05;" horiz-adv-x="606" 
d="M268 275h66l4 -67h-72q-68 0 -114 -39v-169h-82v404q0 74 33 110t93 36q69 0 108 -53q19 26 49.5 39.5t64.5 13.5q67 0 92.5 -34t25.5 -113v-403h-82v414q0 33 -10 49.5t-39 16.5q-46 0 -77 -47h-50q-12 23 -26.5 35t-35.5 12q-64 0 -64 -67v-179q47 41 116 41z" />
    <glyph glyph-name="uni0E06" unicode="&#xe06;" horiz-adv-x="589" 
d="M79.5 287q17.5 32 50.5 77q26 36 37 55t11 34q0 25 -24 25q-22 0 -41 -19v-39h-63v120h63v-28q30 28 72 28q33 0 52.5 -18.5t19.5 -52.5q0 -29 -14.5 -56.5t-43.5 -68.5q-28 -42 -41.5 -67.5t-13.5 -52.5v-90q33 -34 75 -54t91 -20q66 0 96.5 29.5t30.5 95.5v355h82v-356
q0 -94 -47.5 -144t-134.5 -50q-62 0 -108.5 19t-87.5 56l-5 -65h-74v226q0 29 17.5 61z" />
    <glyph glyph-name="uni0E07" unicode="&#xe07;" horiz-adv-x="576" 
d="M267 540h44q113 0 164 -61t51 -190q0 -152 -64.5 -225.5t-171.5 -73.5q-59 0 -88 11l-152 370h80l128 -311l20 -1q85 0 125.5 56.5t40.5 172.5q0 72 -13 111.5t-43.5 56.5t-85.5 17h-35v67z" />
    <glyph glyph-name="uni0E08" unicode="&#xe08;" horiz-adv-x="569" 
d="M60 454v68q84 28 192 28q267 0 267 -274q0 -91 -33 -155.5t-89 -97.5t-123 -33q-19 0 -41 3t-35 8l-84 224h-64l4 67h113l87 -232l17 -1q72 0 119 53.5t47 163.5q0 76 -20 120t-65 64t-122 20q-92 0 -170 -26z" />
    <glyph glyph-name="uni0E09" unicode="&#xe09;" horiz-adv-x="575" 
d="M431 0l-5 65q-39 -36 -86 -55.5t-111 -19.5q-85 0 -128.5 47.5t-43.5 140.5v122h82v-122q0 -45 10 -70t35.5 -36.5t73.5 -11.5t90 19.5t75 54.5v208q0 53 -16.5 83t-55.5 42.5t-108 12.5q-43 0 -97.5 -8.5t-95.5 -21.5v68q42 14 100 23t114 9q124 0 182.5 -51t58.5 -158
v-341h-74z" />
    <glyph glyph-name="uni0E0A" unicode="&#xe0a;" horiz-adv-x="571" 
d="M442.5 41q-58.5 -51 -162.5 -51q-106 0 -162.5 50t-56.5 145v73q0 29 14.5 55.5t41.5 63.5q20 29 29 44t9 29q0 16 -7 21t-26 5h-72l7 64h111q69 0 69 -68q0 -31 -12.5 -56.5t-37.5 -60.5q-23 -33 -33.5 -54t-10.5 -46v-79q0 -116 137 -116q139 0 139 118v69q0 55 -18 76
t-66 21h-28l4 65h22q49 0 67.5 22.5t18.5 74.5v44h82v-43q0 -53 -15.5 -84t-58.5 -46q45 -17 59.5 -47.5t14.5 -84.5v-59q0 -94 -58.5 -145z" />
    <glyph glyph-name="uni0E0B" unicode="&#xe0b;" horiz-adv-x="572" 
d="M80 298q18 30 50 71q25 32 36.5 50.5t11.5 33.5q0 25 -24 25q-22 0 -41 -19v-39h-63v120h63v-28q30 28 72 28q33 0 52.5 -18.5t19.5 -52.5q0 -29 -14.5 -55t-43.5 -64q-29 -39 -42 -63t-13 -50v-61q0 -116 137 -116q139 0 139 118v69q0 55 -18 76t-66 21h-28l4 65h22
q49 0 67.5 22.5t18.5 74.5v44h82v-43q0 -53 -15.5 -84t-58.5 -46q45 -17 59.5 -47.5t14.5 -84.5v-59q0 -94 -58.5 -145t-162.5 -51q-106 0 -162.5 50t-56.5 145v54q0 29 18 59z" />
    <glyph glyph-name="uni0E0C" unicode="&#xe0c;" horiz-adv-x="958" 
d="M685 60q63 0 92 29t29 96v355h82v-356q0 -94 -46 -144t-130 -50q-60 0 -104.5 19t-85.5 56l-5 -65h-73v347q0 51 -14.5 79.5t-46.5 41t-88 12.5q-54 0 -100.5 -15.5t-72.5 -41.5v-21l117 -28v-62q-39 -10 -57 -32t-18 -63v-101q0 -25 11.5 -37t35.5 -12h57v-67h-94
q-43 0 -67.5 26.5t-24.5 69.5v123q0 44 19.5 74.5t61.5 42.5l-113 26v96q42 40 104.5 66t140.5 26q116 0 173 -50t57 -156v-210q71 -74 160 -74z" />
    <glyph glyph-name="uni0E0D" unicode="&#xe0d;" horiz-adv-x="967" 
d="M559.5 192.5q34.5 -32.5 110.5 -32.5t110.5 32.5t34.5 105.5v242h82v-236q0 -79 -35 -129q35 -33 35 -89q0 -67 -57 -101.5t-169 -34.5q-55 0 -106.5 10.5t-89.5 31.5v71q38 -21 92.5 -32t103.5 -11q75 0 112.5 17.5t37.5 48.5q0 23 -12 39q-57 -35 -139 -35
q-226 0 -226 214v43q0 51 -14.5 79.5t-46.5 41t-88 12.5q-54 0 -100.5 -15.5t-72.5 -41.5v-21l117 -28v-62q-39 -10 -57 -32t-18 -63v-101q0 -25 11.5 -37t35.5 -12h57v-67h-94q-43 0 -67.5 26.5t-24.5 69.5v123q0 44 19.5 74.5t61.5 42.5l-113 26v96q42 40 104.5 66
t140.5 26q116 0 173 -50t57 -156v-46q0 -73 34.5 -105.5z" />
    <glyph glyph-name="uni0E0E" unicode="&#xe0e;" horiz-adv-x="642" 
d="M420 -166.5q-36 8.5 -83 8.5q-86 0 -164 -38v70q78 38 169 38q45 0 83 -9t65 -24v468q0 74 -35 103.5t-120 29.5q-56 0 -104.5 -15.5t-74.5 -41.5v-21l123 -28v-62q-37 -11 -50.5 -31t-13.5 -64v-107q0 -110 -103 -110h-62v67h40q23 0 33 11.5t10 36.5v104
q0 45 15.5 74.5t54.5 42.5l-119 26v96q42 40 106.5 66t144.5 26q119 0 178 -50.5t59 -155.5v-538h-81q-35 19 -71 27.5z" />
    <glyph glyph-name="uni0E0F" unicode="&#xe0f;" horiz-adv-x="642" 
d="M536.5 -161q-35.5 -34 -99.5 -34q-34 0 -62.5 12.5t-43.5 32.5q-24 -44 -91 -44h-90l5 72h69q30 0 47 9.5t30 33.5h56q11 -23 28 -34.5t44 -11.5q34 0 47.5 16.5t13.5 54.5v401q0 74 -35 103.5t-120 29.5q-56 0 -104.5 -15.5t-74.5 -41.5v-21l123 -28v-62
q-37 -11 -50.5 -31t-13.5 -64v-107q0 -110 -103 -110h-62v67h40q23 0 33 11.5t10 36.5v104q0 45 15.5 74.5t54.5 42.5l-119 26v96q42 40 106.5 66t144.5 26q119 0 178 -50.5t59 -155.5v-408q0 -63 -35.5 -97z" />
    <glyph glyph-name="uni0E10" unicode="&#xe10;" horiz-adv-x="612" 
d="M504.5 389q14.5 -48 14.5 -113q0 -91 -33 -155.5t-89 -97.5t-123 -33q-19 0 -41 3t-35 8l-84 224h-64l4 67h113l87 -232l17 -1q72 0 119 53.5t47 163.5q0 76 -20 120t-65 64t-122 20q-92 0 -170 -26v68q84 28 192 28q47 0 92 -10h218l-4 -67h-102q34 -36 48.5 -84z
M404 -110q-14 -15 -47 -15q-27 0 -44 11.5t-28 34.5h-56q-13 -24 -30 -33.5t-47 -9.5h-69l-5 -72h90q67 0 91 44q15 -20 43.5 -32.5t62.5 -12.5q63 0 99 32.5t36 88.5v34h-82v-24q0 -31 -14 -46z" />
    <glyph glyph-name="uni0E11" unicode="&#xe11;" horiz-adv-x="595" 
d="M113 459v-39h-63v120h63v-28q30 28 72 28q41 0 57 -30q55 40 124 40q85 0 122 -45t37 -141v-364h-82v365q0 43 -8.5 67.5t-29.5 36t-61 11.5q-23 0 -49 -9.5t-43 -25.5q0 -23 -9 -44t-29 -57q-21 -36 -32 -62.5t-11 -56.5v-225h-82v230q0 29 13 58t38 72q21 37 30 56
t9 36q0 26 -24 26q-23 0 -42 -19z" />
    <glyph glyph-name="uni0E12" unicode="&#xe12;" horiz-adv-x="989" 
d="M716 60q63 0 92 29t29 96v355h82v-356q0 -94 -46 -144t-130 -50q-60 0 -104.5 19t-85.5 56l-5 -65h-73v405q0 43 -11.5 59t-46.5 16q-50 0 -69 -47h-55q-15 27 -29 37t-40 10q-51 0 -71.5 -55t-20.5 -160q0 -111 36.5 -158t111.5 -47q45 0 69 8v-68q-33 -10 -83 -10
q-98 0 -157 68.5t-59 206.5q0 137 43 211t121 74q38 0 62 -13t45 -40q22 25 53.5 39t65.5 14q58 0 87 -34t29 -100v-282q71 -74 160 -74z" />
    <glyph glyph-name="uni0E13" unicode="&#xe13;" horiz-adv-x="958" 
d="M554 89q29 -29 92 -29q89 0 160 74v406h82v-540h-74l-5 65q-41 -37 -85.5 -56t-104.5 -19q-84 0 -129.5 50t-45.5 144v163q0 51 -14.5 79.5t-46.5 41t-88 12.5q-54 0 -100.5 -15.5t-72.5 -41.5v-21l117 -28v-62q-39 -10 -57 -32t-18 -63v-101q0 -25 11.5 -37t35.5 -12h57
v-67h-94q-43 0 -67.5 26.5t-24.5 69.5v123q0 44 19.5 74.5t61.5 42.5l-113 26v96q42 40 104.5 66t140.5 26q116 0 173 -50t57 -156v-159q0 -67 29 -96z" />
    <glyph glyph-name="uni0E14" unicode="&#xe14;" horiz-adv-x="637" 
d="M459.5 520.5q55.5 -29.5 81.5 -78t26 -107.5v-335h-82v334q0 68 -39.5 107t-127.5 39q-98 0 -142 -54.5t-44 -160.5q0 -111 36.5 -158t111.5 -47q45 0 69 8v-68q-33 -10 -83 -10q-98 0 -157 68.5t-59 206.5q0 135 67.5 210t202.5 75q84 0 139.5 -29.5z" />
    <glyph glyph-name="uni0E15" unicode="&#xe15;" horiz-adv-x="637" 
d="M472.5 464q-12.5 16 -47.5 16q-52 0 -71 -47h-55q-15 26 -30 36.5t-41 10.5q-54 0 -75 -54.5t-21 -160.5q0 -111 36.5 -158t111.5 -47q45 0 69 8v-68q-33 -10 -83 -10q-98 0 -157 68.5t-59 206.5q0 137 43.5 211t124.5 74q38 0 63 -13t46 -40q22 25 54.5 39t66.5 14
q58 0 88.5 -34.5t30.5 -99.5v-416h-82v405q0 43 -12.5 59z" />
    <glyph glyph-name="uni0E16" unicode="&#xe16;" horiz-adv-x="608" 
d="M175.5 79q11.5 -12 35.5 -12h57v-67h-94q-43 0 -67.5 26.5t-24.5 69.5v123q0 44 19.5 74.5t61.5 42.5l-113 26v96q42 40 106.5 66t144.5 26q119 0 178 -50.5t59 -155.5v-344h-82v347q0 74 -35 103.5t-120 29.5q-56 0 -104.5 -15.5t-74.5 -41.5v-21l117 -28v-62
q-39 -10 -57 -32t-18 -63v-101q0 -25 11.5 -37z" />
    <glyph glyph-name="uni0E17" unicode="&#xe17;" horiz-adv-x="597" 
d="M445 0v356q0 65 -31 94.5t-96 29.5q-49 0 -91 -20t-75 -55v-405h-82v540h74l5 -65q40 36 88 55.5t110 19.5q86 0 133 -50t47 -143v-357h-82z" />
    <glyph glyph-name="uni0E18" unicode="&#xe18;" horiz-adv-x="531" 
d="M366 81q33 21 33 74q0 42 -17 64t-47.5 32t-101.5 26q-60 13 -96.5 26t-61.5 40t-25 73q0 134 223 134q49 0 100 -7.5t81 -18.5v-72q-34 12 -80.5 20t-89.5 8q-76 0 -116 -12t-40 -50q0 -23 14 -36.5t37 -21t68 -17.5l55 -13q62 -16 98.5 -33t58.5 -50.5t22 -91.5
q0 -82 -56.5 -123.5t-155.5 -41.5q-59 0 -114 11t-95 27v205h76v-152q57 -21 127 -21t103 21z" />
    <glyph glyph-name="uni0E19" unicode="&#xe19;" horiz-adv-x="597" 
d="M152 540v-355q0 -66 29.5 -95.5t95.5 -29.5q49 0 92.5 20t75.5 54v406h82v-540h-74l-5 65q-83 -75 -198 -75q-87 0 -133.5 50t-46.5 144v356h82z" />
    <glyph glyph-name="uni0E1A" unicode="&#xe1a;" horiz-adv-x="614" 
d="M423 93q39 33 39 105v342h82v-336q0 -106 -61 -160t-176 -54t-176 54t-61 160v336h82v-342q0 -72 39 -105t116 -33t116 33z" />
    <glyph glyph-name="uni0E1B" unicode="&#xe1b;" horiz-adv-x="614" 
d="M423 93q39 33 39 105v502h82v-496q0 -106 -61 -160t-176 -54t-176 54t-61 160v336h82v-342q0 -72 39 -105t116 -33t116 33z" />
    <glyph glyph-name="uni0E1C" unicode="&#xe1c;" horiz-adv-x="642" 
d="M96 512q26 28 69 28h86l3 -68h-53q-27 0 -38.5 -12t-11.5 -41v-305l151 261h39l151 -261v426h80v-540h-84l-166 291l-168 -291h-84v441q0 43 26 71z" />
    <glyph glyph-name="uni0E1D" unicode="&#xe1d;" horiz-adv-x="642" 
d="M96 512q26 28 69 28h86l3 -68h-53q-27 0 -38.5 -12t-11.5 -41v-305l151 261h39l151 -261v586h80v-700h-84l-166 291l-168 -291h-84v441q0 43 26 71z" />
    <glyph glyph-name="uni0E1E" unicode="&#xe1e;" horiz-adv-x="721" 
d="M245 0h-81l-124 540h84l89 -425l114 357v68h61l122 -425l88 425h83l-123 -540h-82l-111 380z" />
    <glyph glyph-name="uni0E1F" unicode="&#xe1f;" horiz-adv-x="721" 
d="M245 0h-81l-124 540h84l89 -425l114 357v68h61l122 -425l123 585h83l-158 -700h-82l-111 380z" />
    <glyph glyph-name="uni0E20" unicode="&#xe20;" horiz-adv-x="642" 
d="M279 312q-37 -11 -50.5 -31t-13.5 -64v-107q0 -110 -103 -110h-62v67h40q23 0 33 11.5t10 36.5v104q0 45 15.5 74.5t54.5 42.5l-119 26v96q42 40 106.5 66t144.5 26q119 0 178 -50.5t59 -155.5v-344h-82v347q0 74 -35 103.5t-120 29.5q-56 0 -104.5 -15.5t-74.5 -41.5
v-21l123 -28v-62z" />
    <glyph glyph-name="uni0E21" unicode="&#xe21;" horiz-adv-x="597" 
d="M479.5 40q-47.5 -50 -134.5 -50q-62 0 -108.5 19t-87.5 56l-5 -65h-74v540h82v-406q33 -34 75 -54t91 -20q66 0 96.5 29.5t30.5 95.5v355h82v-356q0 -94 -47.5 -144z" />
    <glyph glyph-name="uni0E22" unicode="&#xe22;" horiz-adv-x="591" 
d="M135 399q0 -43 28 -64t77 -21h57l5 -62h-65q-53 0 -79 -25t-26 -73t37.5 -71t115.5 -23t116 30t38 94v356h82v-342q0 -103 -57 -155.5t-176 -52.5q-112 0 -175 41t-63 123q0 46 21.5 78.5t60.5 49.5q-36 11 -57.5 41t-21.5 76q0 73 44 112t116 39q48 0 83 -11v-68
q-27 9 -68 9q-93 0 -93 -81z" />
    <glyph glyph-name="uni0E23" unicode="&#xe23;" horiz-adv-x="505" 
d="M359.5 184q-13.5 17 -36 27t-67.5 24l-36 12q-55 18 -90 36t-57.5 47.5t-22.5 73.5q0 71 53 108.5t156 37.5q42 0 85 -7t74 -17v-72q-67 26 -147 26q-73 0 -106 -15.5t-33 -58.5q0 -28 17.5 -45.5t45 -28t92.5 -31.5q56 -18 91.5 -37.5t56 -49.5t20.5 -75
q0 -149 -214 -149q-51 0 -98.5 7t-78.5 19v73q74 -29 163 -29q79 0 112.5 15.5t33.5 62.5q0 29 -13.5 46z" />
    <glyph glyph-name="uni0E24" unicode="&#xe24;" horiz-adv-x="608" 
d="M175.5 79q11.5 -12 35.5 -12h57v-67h-94q-43 0 -67.5 26.5t-24.5 69.5v123q0 44 19.5 74.5t61.5 42.5l-113 26v96q42 40 106.5 66t144.5 26q119 0 178 -50.5t59 -155.5v-504h-82v507q0 74 -35 103.5t-120 29.5q-56 0 -104.5 -15.5t-74.5 -41.5v-21l117 -28v-62
q-39 -10 -57 -32t-18 -63v-101q0 -25 11.5 -37z" />
    <glyph glyph-name="uni0E25" unicode="&#xe25;" horiz-adv-x="586" 
d="M109 454v68q38 13 88 20.5t100 7.5q114 0 166.5 -47.5t52.5 -150.5v-352h-82v248h-172q-69 0 -100.5 -23t-31.5 -74q0 -50 28.5 -70.5t93.5 -20.5q39 0 68 8v-68q-38 -10 -90 -10q-82 0 -131 39.5t-49 121.5q0 78 52 121.5t155 43.5h177v42q0 47 -14 73t-46.5 37.5
t-91.5 11.5q-94 0 -173 -26z" />
    <glyph glyph-name="uni0E26" unicode="&#xe26;" horiz-adv-x="642" 
d="M279 312q-37 -11 -50.5 -31t-13.5 -64v-107q0 -110 -103 -110h-62v67h40q23 0 33 11.5t10 36.5v104q0 45 15.5 74.5t54.5 42.5l-119 26v96q42 40 106.5 66t144.5 26q119 0 178 -50.5t59 -155.5v-504h-82v507q0 74 -35 103.5t-120 29.5q-56 0 -104.5 -15.5t-74.5 -41.5
v-21l123 -28v-62z" />
    <glyph glyph-name="uni0E27" unicode="&#xe27;" horiz-adv-x="504" 
d="M182 60q73 0 114.5 21t58.5 66.5t17 122.5q0 112 -44.5 161t-148.5 49q-67 0 -129 -28v70q64 28 146 28q258 0 258 -280q0 -139 -60 -209.5t-193 -70.5q-86 0 -151 28v69q66 -27 132 -27z" />
    <glyph glyph-name="uni0E28" unicode="&#xe28;" horiz-adv-x="626" 
d="M189.5 451q-37.5 -29 -37.5 -92v-125q47 41 116 41h66l4 -67h-72q-68 0 -114 -39v-169h-82v350q0 200 234 200q47 0 92 -10h190l-4 -67h-83q37 -46 37 -123v-350h-82v359q0 63 -37.5 92t-112.5 29q-77 0 -114.5 -29z" />
    <glyph glyph-name="uni0E29" unicode="&#xe29;" horiz-adv-x="631" 
d="M423 93q39 33 39 105v80h-143v67h143v195h82v-195h62l-7 -67h-55v-74q0 -106 -61 -160t-176 -54t-176 54t-61 160v336h82v-342q0 -72 39 -105t116 -33t116 33z" />
    <glyph glyph-name="uni0E2A" unicode="&#xe2a;" horiz-adv-x="591" 
d="M516 352v-352h-82v248h-172q-69 0 -100.5 -23t-31.5 -74q0 -50 28.5 -70.5t93.5 -20.5q39 0 68 8v-68q-38 -10 -90 -10q-82 0 -131 39.5t-49 121.5q0 78 52 121.5t155 43.5h177v42q0 47 -14 73t-46.5 37.5t-91.5 11.5q-94 0 -173 -26v68q38 13 88 20.5t100 7.5
q47 0 92 -10h172l-4 -67h-72q31 -42 31 -121z" />
    <glyph glyph-name="uni0E2B" unicode="&#xe2b;" horiz-adv-x="593" 
d="M152 365h179q64 0 90 26.5t26 82.5v66h82v-65q0 -115 -86 -142q47 -15 63.5 -48.5t16.5 -87.5v-197h-82v187q0 43 -10.5 67t-35 34t-69.5 10h-174v-298h-82v540h82v-175z" />
    <glyph glyph-name="uni0E2C" unicode="&#xe2c;" horiz-adv-x="721" 
d="M476 0l-111 345l-120 -345h-81l-124 540h84l92 -425l111 317v68h61l119 -385l73 329q5 27 5 40q0 26 -13.5 37t-42.5 11h-40l10 65h42q41 0 59.5 13.5t26.5 49.5l9 40h80l-11 -49q-10 -42 -28.5 -63t-49.5 -27q37 -18 37 -69q0 -23 -5 -43l-101 -449h-82z" />
    <glyph glyph-name="uni0E2D" unicode="&#xe2d;" horiz-adv-x="564" 
d="M58 454v68q39 13 90.5 20.5t105.5 7.5q136 0 198 -69t62 -212q0 -140 -62 -209.5t-195 -69.5q-58 0 -112.5 10.5t-94.5 27.5v272h198l4 -67h-120v-153q58 -20 123 -20q66 0 104 20t55.5 65.5t17.5 123.5q0 81 -19 126.5t-61.5 65t-118.5 19.5q-96 0 -175 -26z" />
    <glyph glyph-name="uni0E2E" unicode="&#xe2e;" horiz-adv-x="596" 
d="M514 269q0 -140 -62 -209.5t-195 -69.5q-58 0 -112.5 10.5t-94.5 27.5v272h198l4 -67h-120v-153q58 -20 123 -20q66 0 104 20t55.5 65.5t17.5 123.5q0 81 -19 126.5t-61.5 65t-118.5 19.5q-96 0 -175 -26v68q39 13 90.5 20.5t105.5 7.5q47 0 92 -10h200l-4 -67h-87
q59 -68 59 -204z" />
    <glyph glyph-name="uni0E2F" unicode="&#xe2f;" horiz-adv-x="533" 
d="M381 380v160h82v-540h-82v310q-28 -18 -64.5 -28.5t-77.5 -10.5q-81 0 -130 44t-49 115q0 58 23 110h84q-13 -26 -19 -50.5t-6 -59.5q0 -44 25 -66.5t79 -22.5q84 0 135 39z" />
    <glyph glyph-name="uni0E30" unicode="&#xe30;" horiz-adv-x="326" 
d="M121 452v-49h155l-3 -63h-223v112h71zM121 176v-50h155l-3 -62h-223v112h71z" />
    <glyph glyph-name="uni0E31" unicode="&#xe31;" 
d="M-218 763v-73h269l-4 -59h-334v132h69z" />
    <glyph glyph-name="uni0E32" unicode="&#xe32;" horiz-adv-x="439" 
d="M287 349q0 49 -9.5 76t-37 41t-82.5 14q-32 0 -69.5 -7t-68.5 -19v68q31 12 72 20t81 8q103 0 149.5 -45.5t46.5 -146.5v-358h-82v349z" />
    <glyph glyph-name="uni0E33" unicode="&#xe33;" horiz-adv-x="439" 
d="M-186.5 783.5q30.5 29.5 74.5 29.5t74 -29.5t30 -72.5t-30 -72t-74 -29t-74.5 29t-30.5 72t30.5 72.5zM-147.5 676.5q14.5 -14.5 35.5 -14.5q20 0 34.5 14.5t14.5 34.5t-14.5 35t-34.5 15q-21 0 -35.5 -15t-14.5 -35t14.5 -34.5zM287 349q0 49 -9.5 76t-37 41t-82.5 14
q-32 0 -69.5 -7t-68.5 -19v68q31 12 72 20t81 8q103 0 149.5 -45.5t46.5 -146.5v-358h-82v349z" />
    <glyph glyph-name="uni0E34" unicode="&#xe34;" 
d="M-468 631l4 59h393v-59h-397z" />
    <glyph glyph-name="uni0E35" unicode="&#xe35;" 
d="M-140 775h69v-144h-397l4 59h324v85z" />
    <glyph glyph-name="uni0E36" unicode="&#xe36;" 
d="M-203 770.5q23 21.5 61 21.5q41 0 62.5 -23t21.5 -55q0 -36 -24 -59.5t-64 -23.5h-322l4 59h243q-5 10 -5 23q0 36 23 57.5zM-170 686.5q11 -11.5 28 -11.5t28 11t11 27q0 17 -11 28.5t-28 11.5q-16 0 -27.5 -11t-11.5 -29q0 -15 11 -26.5z" />
    <glyph glyph-name="uni0E37" unicode="&#xe37;" 
d="M-259 775h62v-85h64v85h62v-144h-397l4 59h205v85z" />
    <glyph glyph-name="uni0E38" unicode="&#xe38;" 
d="M-70 -63v-187h-71v131h-66l4 56h133z" />
    <glyph glyph-name="uni0E39" unicode="&#xe39;" 
d="M-70 -63v-110q0 -37 -29 -61t-78 -24q-47 0 -75.5 24.5t-28.5 60.5v56h-53l3 54h111v-105q0 -17 11 -26t32 -9t33 9.5t12 25.5v105h62z" />
    <glyph glyph-name="uni0E3A" unicode="&#xe3a;" 
d="M-142.5 -70.5q13.5 13.5 32.5 13.5t32.5 -13.5t13.5 -32.5t-13.5 -32t-32.5 -13t-32.5 13t-13.5 32t13.5 32.5z" />
    <glyph glyph-name="uni0E3F" unicode="&#xe3f;" horiz-adv-x="627" 
d="M266 0h-196v644h196v86h64v-86h38q184 0 184 -170q0 -52 -21 -87.5t-60 -54.5q106 -26 106 -148q0 -184 -193 -184h-54v-86h-64v86zM266 362v219h-114v-219h114zM447.5 554q-27.5 27 -99.5 27h-18v-219h33q112 0 112 106q0 59 -27.5 86zM266 300h-114v-238h114v238z
M330 62h40q65 0 95 29t30 96q0 58 -31 85.5t-107 27.5h-27v-238z" />
    <glyph glyph-name="uni0E40" unicode="&#xe40;" horiz-adv-x="306" 
d="M152 540v-424q0 -25 11.5 -37t35.5 -12h57v-67h-94q-43 0 -67.5 26.5t-24.5 69.5v444h82z" />
    <glyph glyph-name="uni0E41" unicode="&#xe41;" horiz-adv-x="525" 
d="M152 540v-424q0 -25 11.5 -37t35.5 -12h47v-67h-84q-43 0 -67.5 26.5t-24.5 69.5v444h82zM381 540v-424q0 -25 11.5 -37t35.5 -12h47v-67h-84q-43 0 -67.5 26.5t-24.5 69.5v444h82z" />
    <glyph glyph-name="uni0E42" unicode="&#xe42;" horiz-adv-x="317" 
d="M86.5 571.5q-24.5 32.5 -81.5 56.5v66h277v-66h-173q48 -26 66 -64t18 -115v-333q0 -25 11.5 -37t35.5 -12h57v-67h-94q-43 0 -67.5 26.5t-24.5 69.5v378q0 65 -24.5 97.5z" />
    <glyph glyph-name="uni0E43" unicode="&#xe43;" horiz-adv-x="288" 
d="M78.5 433q21.5 35 59.5 71q24 24 35 39.5t11 33.5q0 30 -17.5 41t-55.5 11q-55 0 -111 -31v64q29 17 65 26t71 9q65 0 98.5 -30t33.5 -84q0 -33 -14.5 -55t-44.5 -52q-34 -32 -52 -60.5t-18 -73.5v-226q0 -25 11.5 -37t35.5 -12h57v-67h-94q-43 0 -67.5 26.5t-24.5 69.5
v247q0 55 21.5 90z" />
    <glyph glyph-name="uni0E44" unicode="&#xe44;" horiz-adv-x="295" 
d="M110 560q23 43 64 68h-169v66h270v-65q-60 -26 -83 -71t-23 -128v-314q0 -25 11.5 -37t35.5 -12h57v-67h-94q-43 0 -67.5 26.5t-24.5 69.5v361q0 60 23 103z" />
    <glyph glyph-name="uni0E45" unicode="&#xe45;" horiz-adv-x="439" 
d="M287 349q0 49 -9.5 76t-37 41t-82.5 14q-32 0 -69.5 -7t-68.5 -19v68q31 12 72 20t81 8q103 0 149.5 -45.5t46.5 -146.5v-518h-82v509z" />
    <glyph glyph-name="uni0E46" unicode="&#xe46;" horiz-adv-x="582" 
d="M420.5 462q-9.5 18 -36.5 18q-45 0 -69 -50h-49q-13 28 -23.5 39t-33.5 11q-31 0 -49 -25.5t-18 -78.5q0 -52 24.5 -74t72.5 -22q45 0 69 8v-68q-33 -10 -84 -10q-77 0 -120.5 42t-43.5 124q0 78 36.5 126t98.5 48q34 0 56 -11.5t40 -38.5q39 50 108 50q63 0 88 -34
t25 -113v-403h-82v415q0 29 -9.5 47z" />
    <glyph glyph-name="uni0E47" unicode="&#xe47;" 
d="M-438.5 823.5q33.5 31.5 94.5 31.5h240l-4 -53h-229q-39 0 -56.5 -15t-17.5 -49q0 -31 16.5 -44.5t48.5 -13.5q30 0 44 11t14 33v23h54v-23q0 -23 11.5 -32t37.5 -9h64v-52h-69q-26 0 -45 7.5t-26 23.5q-10 -16 -36 -24.5t-54 -8.5q-57 0 -89 28.5t-32 80.5
q0 54 33.5 85.5z" />
    <glyph glyph-name="uni0E48" unicode="&#xe48;" 
d="M-151 631v162h82v-162h-82z" />
    <glyph glyph-name="uni0E49" unicode="&#xe49;" 
d="M-222 690h219l-4 -59h-274v94h-79v59h138v-94z" />
    <glyph glyph-name="uni0E4A" unicode="&#xe4a;" 
d="M-305 622h-34q-52 0 -80.5 25.5t-28.5 77.5q0 49 25 75.5t65 26.5q52 0 66 -41h1q7 20 25.5 30.5t43.5 10.5q43 0 63.5 -20.5t20.5 -57.5v-72h14q15 0 20 7t5 25v114h53v-118q0 -34 -20 -54t-55 -20h-72v103q0 24 -6.5 33t-28.5 9q-24 0 -31.5 -11t-7.5 -34v-14h-47v14
q0 23 -7.5 34t-29.5 11q-23 0 -31.5 -11.5t-8.5 -41.5q0 -32 12.5 -42.5t46.5 -10.5h27v-48z" />
    <glyph glyph-name="uni0E4B" unicode="&#xe4b;" 
d="M-218 805h76v-58h72v-62h-72v-54h-76v54h-71v62h71v58z" />
    <glyph glyph-name="uni0E4C" unicode="&#xe4c;" 
d="M-218 706v-75h-69v134h281l-3 -59h-209z" />
    <glyph glyph-name="uni0E4D" unicode="&#xe4d;" 
d="M-186.5 783.5q30.5 29.5 74.5 29.5t74 -29.5t30 -72.5t-30 -72t-74 -29t-74.5 29t-30.5 72t30.5 72.5zM-147.5 676.5q14.5 -14.5 35.5 -14.5q20 0 34.5 14.5t14.5 34.5t-14.5 35t-34.5 15q-21 0 -35.5 -15t-14.5 -35t14.5 -34.5z" />
    <glyph glyph-name="uni0E4E" unicode="&#xe4e;" 
d="M-192 631q-50 0 -76.5 18.5t-26.5 54.5t23 57.5t58 25.5q-16 15 -16 41q0 28 24.5 45t68.5 17q15 0 30 -3t24 -8v-44q-10 5 -24 8.5t-25 3.5q-23 0 -33.5 -5.5t-10.5 -20.5q0 -12 9.5 -19t33.5 -12v-46q-16 8 -41 8q-30 0 -46 -9t-16 -31q0 -19 13.5 -27t39.5 -8
q38 0 61 16v-46q-24 -16 -70 -16z" />
    <glyph glyph-name="uni0E4F" unicode="&#xe4f;" horiz-adv-x="609" 
d="M84.5 371.5q34.5 58.5 93 93t127.5 34.5t127.5 -34.5t92.5 -93t34 -127.5t-34 -127.5t-92.5 -92.5t-127.5 -34t-127.5 34t-93 92.5t-34.5 127.5t34.5 127.5zM139 148q26 -44 70 -70t96 -26t96 26t70 70t26 96t-26 96t-70 70t-96 26t-96 -26t-70 -70t-26 -96t26 -96z
M192.5 309q17.5 30 47.5 47t65 17t64.5 -17t47 -47t17.5 -65t-17.5 -65t-47 -47.5t-64.5 -17.5t-65 17.5t-47.5 47.5t-17.5 65t17.5 65zM252.5 191.5q21.5 -21.5 52.5 -21.5t52.5 21.5t21.5 52.5t-21.5 52.5t-52.5 21.5t-52.5 -21.5t-21.5 -52.5t21.5 -52.5z" />
    <glyph glyph-name="uni0E50" unicode="&#xe50;" horiz-adv-x="614" 
d="M495 420.5q69 -63.5 69 -183.5q0 -121 -68.5 -184t-188.5 -63t-188.5 63t-68.5 184q0 120 69 183.5t188 63.5t188 -63.5zM438.5 102.5q43.5 42.5 43.5 134.5t-43.5 134.5t-131.5 42.5q-87 0 -131 -43t-44 -134q0 -92 44 -134.5t131 -42.5q88 0 131.5 42.5z" />
    <glyph glyph-name="uni0E51" unicode="&#xe51;" horiz-adv-x="641" 
d="M100.5 102.5q-50.5 52.5 -50.5 149.5q0 111 69.5 171.5t201.5 60.5q135 0 202.5 -69.5t67.5 -197.5q0 -121 -74.5 -205.5t-219.5 -115.5v73q108 25 160.5 85.5t52.5 164.5q0 97 -45 146t-144 49q-98 0 -143.5 -39.5t-45.5 -122.5q0 -70 31.5 -101t98.5 -31q26 0 52.5 6
t42.5 17v-67q-44 -26 -111 -26q-95 0 -145.5 52.5z" />
    <glyph glyph-name="uni0E52" unicode="&#xe52;" horiz-adv-x="696" 
d="M552 48q-74 -58 -198 -58q-131 0 -207.5 60.5t-76.5 177.5v312h77v-314q0 -85 53 -127t154 -42q90 0 142.5 36.5t52.5 110.5v146q0 38 -11 54t-40 16q-24 0 -39.5 -14.5t-21.5 -38.5h-51q-11 28 -22.5 40.5t-36.5 12.5q-32 0 -46 -24.5t-14 -80.5q0 -49 21 -67t68 -18
q37 0 64 9v-57q-35 -11 -78 -11q-66 0 -104 36t-38 108q0 86 31 127.5t86 41.5q33 0 54.5 -11t39.5 -38q39 49 105 49q55 0 82.5 -32t27.5 -92v-147q0 -107 -74 -165z" />
    <glyph glyph-name="uni0E53" unicode="&#xe53;" horiz-adv-x="640" 
d="M271.5 398.5q-18.5 15.5 -45.5 15.5q-53 0 -73.5 -44.5t-20.5 -144.5q0 -68 16 -104t47.5 -48.5t83.5 -12.5q44 0 68 8v-68q-31 -10 -84 -10q-104 0 -158.5 53.5t-54.5 181.5q0 130 43.5 194.5t122.5 64.5q73 0 109 -54q22 27 52 40.5t63 13.5q58 0 94 -31.5t36 -92.5
v-360h-82v344q0 39 -15 54.5t-50 15.5q-27 0 -45.5 -16t-18.5 -44v-88l-69 1v88q0 28 -18.5 43.5z" />
    <glyph glyph-name="uni0E54" unicode="&#xe54;" horiz-adv-x="632" 
d="M402 23q-52 -33 -122 -33q-108 0 -169 60.5t-61 173.5q0 123 84 191.5t234 68.5q81 0 129 8.5t87 33.5v-72q-36 -23 -86.5 -31.5t-126.5 -8.5q-123 0 -181 -46t-58 -144q0 -85 39.5 -124.5t115.5 -39.5q32 0 57 12q-22 32 -22 83q0 61 41.5 96t109.5 35q60 0 94 -18v-62
q-29 17 -71 17q-50 0 -74 -16t-24 -53t18.5 -55.5t51.5 -23.5t92 -5h42v-70h-66q-84 0 -134 23z" />
    <glyph glyph-name="uni0E55" unicode="&#xe55;" horiz-adv-x="632" 
d="M402 23q-52 -33 -122 -33q-108 0 -169 60.5t-61 173.5q0 93 52 151.5t146 80.5q-30 6 -52 19v73q34 -25 91 -44.5t102 -19.5q69 0 113.5 9t81.5 33v-72q-36 -23 -86.5 -31.5t-126.5 -8.5q-111 0 -175 -48t-64 -142q0 -85 39.5 -124.5t115.5 -39.5q32 0 57 12
q-22 32 -22 83q0 61 41.5 96t109.5 35q60 0 94 -18v-62q-29 17 -71 17q-50 0 -74 -16t-24 -53t18.5 -55.5t51.5 -23.5t92 -5h42v-70h-66q-84 0 -134 23z" />
    <glyph glyph-name="uni0E56" unicode="&#xe56;" horiz-adv-x="649" 
d="M542.5 417.5q56.5 -66.5 56.5 -181.5q0 -114 -69 -180t-190 -66q-118 0 -191 53v73q42 -30 87.5 -43t98.5 -13q93 0 138 43t45 133q0 93 -36.5 135.5t-125.5 42.5q-67 0 -109.5 -33.5t-61.5 -103.5h-64l-91 263h76l58 -173q26 55 79 86t124 31q119 0 175.5 -66.5z" />
    <glyph glyph-name="uni0E57" unicode="&#xe57;" horiz-adv-x="855" 
d="M579 63q49 0 76.5 12.5t40 41.5t12.5 80v343h77v-328q0 -113 -49.5 -162.5t-167.5 -49.5h-80v345q0 39 -15.5 54.5t-51.5 15.5q-26 0 -46 -15.5t-20 -43.5v-89h-72v88q0 29 -18 44.5t-45 15.5q-53 0 -72 -46t-19 -144q0 -70 17 -106.5t49 -49t84 -12.5q45 0 69 8v-65
q-31 -10 -86 -10q-104 0 -158 54t-54 181q0 131 41.5 195t119.5 64q38 0 64.5 -13.5t44.5 -40.5q44 54 115 54q61 0 94.5 -31.5t33.5 -93.5v-296h16z" />
    <glyph glyph-name="uni0E58" unicode="&#xe58;" horiz-adv-x="629" 
d="M484.5 492.5q53.5 8.5 94.5 33.5v-72q-37 -23 -94 -31.5t-141 -8.5q-74 0 -120 -16.5t-69 -56.5t-23 -112q0 -64 10 -101t30.5 -52.5t55.5 -15.5q30 0 51 16t21 44v80h63v-81q0 -28 23.5 -43.5t51.5 -15.5q24 0 39 3.5t30 13.5v153h-71l5 57h138v-253q-29 -23 -58 -33.5
t-72 -10.5q-37 0 -68 13.5t-49 39.5q-35 -53 -116 -53q-166 0 -166 239q0 255 293 255q88 0 141.5 8.5z" />
    <glyph glyph-name="uni0E59" unicode="&#xe59;" horiz-adv-x="746" 
d="M565 360q45 0 62.5 19t17.5 75v66h71v-49q0 -97 -38 -137t-129 -40h-52v47q0 41 -14.5 57.5t-50.5 16.5q-29 0 -46 -12.5t-17 -34.5q0 -7 3 -18l103 -350h-72l-106 359q-9 29 -25.5 42.5t-49.5 13.5q-51 0 -72 -45.5t-21 -145.5q0 -92 30.5 -129.5t91.5 -37.5q36 0 60 8
v-68q-29 -7 -75 -7q-85 0 -135.5 58.5t-50.5 177.5q0 258 168 258q42 0 67 -13.5t40 -40.5q16 27 45.5 40.5t66.5 13.5q52 0 87 -28t35 -79v-17h6z" />
    <glyph glyph-name="uni0E5A" unicode="&#xe5a;" horiz-adv-x="828" 
d="M381 380v160h82v-178q26 -21 78 -21q84 0 135 39v160h82v-540h-82v310q-28 -18 -64.5 -28.5t-77.5 -10.5q-48 0 -71 16v-287h-82v310q-28 -18 -64.5 -28.5t-77.5 -10.5q-81 0 -130 44t-49 115q0 58 23 110h84q-13 -26 -19 -50.5t-6 -59.5q0 -44 25 -66.5t79 -22.5
q84 0 135 39z" />
    <glyph glyph-name="uni0E5B" unicode="&#xe5b;" horiz-adv-x="1202" 
d="M439 250q-37 -49 -106 -74v73q38 20 52 48t14 67q0 62 -26.5 92t-92.5 30q-76 0 -115.5 -51t-39.5 -141q0 -206 194 -206q114 0 169.5 65t55.5 182q0 67 -12 133h91q25 -44 46.5 -99.5t31.5 -104.5h2q13 40 23 95.5t8 88.5h71q14 -29 32.5 -79.5t29.5 -93.5h2
q10 29 19.5 77t11.5 83h63q14 -26 30.5 -72t22.5 -76h2q23 49 20 125h51q2 -34 -2 -62h65l-4 -49h-71q-8 -37 -33 -85h-59q-3 23 -17.5 68t-26.5 69h-2q-2 -26 -14 -79t-22 -79h-71q-6 39 -21.5 87t-32.5 82h-2q-2 -33 -15.5 -91.5t-27.5 -99.5h-70q-2 43 -18.5 101
t-36.5 101h-2q2 -34 2 -48q0 -142 -75.5 -223.5t-213.5 -81.5q-127 0 -198 71.5t-71 197.5q0 75 27.5 133.5t79.5 92t123 33.5q196 0 196 -185q0 -66 -37 -115z" />
    <glyph glyph-name="uni1E0C" unicode="&#x1e0c;" horiz-adv-x="642" 
d="M528 76q-64 -76 -206 -76h-252v644h252q141 0 205.5 -76.5t64.5 -249.5q0 -166 -64 -242zM490 476.5q-20 56.5 -63.5 79.5t-119.5 23h-155v-515h155q72 0 115.5 21t65.5 76t22 157t-20 158.5zM277 -87h80v-77h-80v77z" />
    <glyph glyph-name="uni1E0D" unicode="&#x1e0d;" horiz-adv-x="575" 
d="M108 419.5q58 64.5 161 64.5q46 0 83 -11t71 -34v235h82v-674h-70l-6 50q-33 -31 -72.5 -45.5t-92.5 -14.5q-104 0 -159 57.5t-55 182.5t58 189.5zM169.5 372.5q-37.5 -45.5 -37.5 -142.5q0 -93 35 -133.5t118 -40.5q85 0 138 57v258q-53 47 -136 47q-80 0 -117.5 -45.5z
M260 -87h80v-77h-80v77z" />
    <glyph glyph-name="uni1E0E" unicode="&#x1e0e;" horiz-adv-x="642" 
d="M528 76q-64 -76 -206 -76h-252v644h252q141 0 205.5 -76.5t64.5 -249.5q0 -166 -64 -242zM490 476.5q-20 56.5 -63.5 79.5t-119.5 23h-155v-515h155q72 0 115.5 21t65.5 76t22 157t-20 158.5zM428 -144h-288v59h288v-59z" />
    <glyph glyph-name="uni1E0F" unicode="&#x1e0f;" horiz-adv-x="575" 
d="M108 419.5q58 64.5 161 64.5q46 0 83 -11t71 -34v235h82v-674h-70l-6 50q-33 -31 -72.5 -45.5t-92.5 -14.5q-104 0 -159 57.5t-55 182.5t58 189.5zM169.5 372.5q-37.5 -45.5 -37.5 -142.5q0 -93 35 -133.5t118 -40.5q85 0 138 57v258q-53 47 -136 47q-80 0 -117.5 -45.5z
M440 -144h-288v59h288v-59z" />
    <glyph glyph-name="uni1E20" unicode="&#x1e20;" horiz-adv-x="639" 
d="M496 717h-288v59h288v-59zM518 86v205h-172v56h243v-306q-80 -51 -230 -51q-152 0 -230.5 85t-78.5 233q0 164 75.5 255t232.5 91q103 0 187 -30v-72q-85 32 -180 32q-125 0 -179 -70t-54 -206q0 -122 56 -185t176 -63q87 0 154 26z" />
    <glyph glyph-name="uni1E21" unicode="&#x1e21;" horiz-adv-x="547" 
d="M420 551h-288v59h288v-59zM376.5 -18q-18.5 11 -65.5 11h-126q-65 0 -98 22.5t-33 65.5q0 31 19 56.5t55 36.5q-78 38 -78 140q0 88 51 129t158 41q37 0 82 -10h171l-3 -56h-86q43 -37 43 -104q0 -80 -46.5 -123t-140.5 -43q-21 0 -58 5q-33 -2 -59 -18.5t-26 -41.5
q0 -18 14 -25.5t49 -7.5h131q71 0 109 -29t38 -83q0 -67 -55.5 -95.5t-167.5 -28.5q-119 0 -190 25v68q39 -13 88.5 -20t97.5 -7q55 0 85 4t45 15.5t15 35.5q0 26 -18.5 37zM356.5 233q27.5 23 27.5 81t-28.5 84t-96.5 26q-67 0 -97 -25.5t-30 -84.5q0 -56 29 -80t98 -24
q70 0 97.5 23z" />
    <glyph glyph-name="uni1E24" unicode="&#x1e24;" horiz-adv-x="644" 
d="M492 290h-340v-290h-82v644h82v-290h340v290h82v-644h-82v290zM283 -87h80v-77h-80v77z" />
    <glyph glyph-name="uni1E25" unicode="&#x1e25;" horiz-adv-x="570" 
d="M423 0v307q0 61 -27 86t-91 25q-40 0 -82.5 -17.5t-70.5 -45.5v-355h-82v674h82v-251q75 61 181 61q87 0 129.5 -42.5t42.5 -131.5v-310h-82zM250 -87h80v-77h-80v77z" />
    <glyph glyph-name="uni1E2A" unicode="&#x1e2a;" horiz-adv-x="644" 
d="M492 290h-340v-290h-82v644h82v-290h340v290h82v-644h-82v290zM271 -125.5q18 -18.5 50 -18.5q70 0 70 74h58q0 -58 -33 -92t-95 -34q-61 0 -93.5 34t-32.5 92h58q0 -37 18 -55.5z" />
    <glyph glyph-name="uni1E2B" unicode="&#x1e2b;" horiz-adv-x="570" 
d="M423 0v307q0 61 -27 86t-91 25q-40 0 -82.5 -17.5t-70.5 -45.5v-355h-82v674h82v-251q75 61 181 61q87 0 129.5 -42.5t42.5 -131.5v-310h-82zM242 -125.5q18 -18.5 50 -18.5q70 0 70 74h58q0 -58 -33 -92t-95 -34q-61 0 -93.5 34t-32.5 92h58q0 -37 18 -55.5z" />
    <glyph glyph-name="uni1E36" unicode="&#x1e36;" horiz-adv-x="525" 
d="M495 64v-64h-425v644h82v-580h343zM235 -87h80v-77h-80v77z" />
    <glyph glyph-name="uni1E37" unicode="&#x1e37;" horiz-adv-x="263" 
d="M152 674v-563q0 -29 9.5 -40.5t31.5 -11.5q23 0 45 6v-65q-26 -10 -65 -10q-50 0 -76.5 26.5t-26.5 85.5v572h82zM112 -87h80v-77h-80v77z" />
    <glyph glyph-name="uni1E38" unicode="&#x1e38;" horiz-adv-x="525" 
d="M258 717h-288v59h288v-59zM495 64v-64h-425v644h82v-580h343zM235 -87h80v-77h-80v77z" />
    <glyph glyph-name="uni1E39" unicode="&#x1e39;" horiz-adv-x="263" 
d="M257 721h-288v59h288v-59zM152 674v-563q0 -29 9.5 -40.5t31.5 -11.5q23 0 45 6v-65q-26 -10 -65 -10q-50 0 -76.5 26.5t-26.5 85.5v572h82zM112 -87h80v-77h-80v77z" />
    <glyph glyph-name="uni1E3A" unicode="&#x1e3a;" horiz-adv-x="525" 
d="M495 64v-64h-425v644h82v-580h343zM411 -132h-288v59h288v-59z" />
    <glyph glyph-name="uni1E3B" unicode="&#x1e3b;" horiz-adv-x="263" 
d="M152 674v-563q0 -29 9.5 -40.5t31.5 -11.5q23 0 45 6v-65q-26 -10 -65 -10q-50 0 -76.5 26.5t-26.5 85.5v572h82zM279 -132h-288v59h288v-59z" />
    <glyph glyph-name="uni1E42" unicode="&#x1e42;" horiz-adv-x="752" 
d="M151 516v-516h-81v644h88l218 -447l218 447h88v-644h-81v516l-197 -404h-55zM336 -87h80v-77h-80v77z" />
    <glyph glyph-name="uni1E43" unicode="&#x1e43;" horiz-adv-x="855" 
d="M709 0v307q0 62 -26 86.5t-86 24.5q-40 0 -75.5 -13.5t-59.5 -39.5q6 -25 6 -58v-307h-77v305q0 62 -21 87.5t-78 25.5q-38 0 -75 -16.5t-66 -44.5v-357h-81v474h74l5 -54q80 64 172 64q51 0 81 -16.5t45 -48.5q37 31 81 48t102 17q81 0 120.5 -41.5t39.5 -127.5v-315
h-81zM388 -87h80v-77h-80v77z" />
    <glyph glyph-name="uni1E44" unicode="&#x1e44;" horiz-adv-x="663" 
d="M305 787h80v-77h-80v77zM152 0h-82v644h74l367 -518v518h82v-644h-75l-366 517v-517z" />
    <glyph glyph-name="uni1E45" unicode="&#x1e45;" horiz-adv-x="570" 
d="M242 621h80v-77h-80v77zM423 0v307q0 43 -11 66.5t-36.5 34t-73.5 10.5q-44 0 -83 -16t-67 -44v-358h-82v474h74l5 -54q78 64 184 64q90 0 131 -42t41 -132v-310h-82z" />
    <glyph glyph-name="uni1E46" unicode="&#x1e46;" horiz-adv-x="663" 
d="M152 0h-82v644h74l367 -518v518h82v-644h-75l-366 517v-517zM291 -87h80v-77h-80v77z" />
    <glyph glyph-name="uni1E47" unicode="&#x1e47;" horiz-adv-x="570" 
d="M423 0v307q0 43 -11 66.5t-36.5 34t-73.5 10.5q-44 0 -83 -16t-67 -44v-358h-82v474h74l5 -54q78 64 184 64q90 0 131 -42t41 -132v-310h-82zM247 -87h80v-77h-80v77z" />
    <glyph glyph-name="uni1E48" unicode="&#x1e48;" horiz-adv-x="663" 
d="M152 0h-82v644h74l367 -518v518h82v-644h-75l-366 517v-517zM481 -130h-288v59h288v-59z" />
    <glyph glyph-name="uni1E49" unicode="&#x1e49;" horiz-adv-x="570" 
d="M423 0v307q0 43 -11 66.5t-36.5 34t-73.5 10.5q-44 0 -83 -16t-67 -44v-358h-82v474h74l5 -54q78 64 184 64q90 0 131 -42t41 -132v-310h-82zM428 -130h-288v59h288v-59z" />
    <glyph glyph-name="uni1E5A" unicode="&#x1e5a;" horiz-adv-x="602" 
d="M517 325.5q-35 -46.5 -102 -62.5q19 -11 29 -25.5t23 -43.5l84 -194h-84l-82 187q-14 32 -33.5 44t-63.5 12h-136v-243h-82v644h283q101 0 150 -52.5t49 -147.5q0 -72 -35 -118.5zM470 444q0 135 -129 135h-189v-272h178q140 0 140 137zM251 -87h80v-77h-80v77z" />
    <glyph glyph-name="uni1E5B" unicode="&#x1e5b;" horiz-adv-x="356" 
d="M150 414q35 23 82.5 42t93.5 28v-64q-44 -9 -94.5 -28t-79.5 -39v-353h-82v474h74zM71 -87h80v-77h-80v77z" />
    <glyph glyph-name="uni1E5C" unicode="&#x1e5c;" horiz-adv-x="602" 
d="M437 717h-288v59h288v-59zM517 325.5q-35 -46.5 -102 -62.5q19 -11 29 -25.5t23 -43.5l84 -194h-84l-82 187q-14 32 -33.5 44t-63.5 12h-136v-243h-82v644h283q101 0 150 -52.5t49 -147.5q0 -72 -35 -118.5zM470 444q0 135 -129 135h-189v-272h178q140 0 140 137z
M251 -87h80v-77h-80v77z" />
    <glyph glyph-name="uni1E5D" unicode="&#x1e5d;" horiz-adv-x="356" 
d="M289 551h-288v59h288v-59zM150 414q35 23 82.5 42t93.5 28v-64q-44 -9 -94.5 -28t-79.5 -39v-353h-82v474h74zM71 -87h80v-77h-80v77z" />
    <glyph glyph-name="uni1E5E" unicode="&#x1e5e;" horiz-adv-x="602" 
d="M517 325.5q-35 -46.5 -102 -62.5q19 -11 29 -25.5t23 -43.5l84 -194h-84l-82 187q-14 32 -33.5 44t-63.5 12h-136v-243h-82v644h283q101 0 150 -52.5t49 -147.5q0 -72 -35 -118.5zM470 444q0 135 -129 135h-189v-272h178q140 0 140 137zM435 -130h-288v59h288v-59z" />
    <glyph glyph-name="uni1E5F" unicode="&#x1e5f;" horiz-adv-x="356" 
d="M150 414q35 23 82.5 42t93.5 28v-64q-44 -9 -94.5 -28t-79.5 -39v-353h-82v474h74zM268 -130h-288v59h288v-59z" />
    <glyph glyph-name="uni1E60" unicode="&#x1e60;" horiz-adv-x="556" 
d="M240 787h80v-77h-80v77zM443.5 36q-62.5 -46 -184.5 -46q-120 0 -194 30v73q88 -33 187 -33q89 0 130.5 24t41.5 84q0 37 -17.5 59.5t-55 38t-109.5 32.5q-106 26 -149 67t-43 112q0 84 60.5 130.5t178.5 46.5q52 0 100.5 -7.5t77.5 -17.5v-72q-76 27 -165 27
q-85 0 -127.5 -25t-42.5 -82q0 -33 15 -53t50.5 -34.5t105.5 -31.5q113 -27 158 -72.5t45 -117.5q0 -86 -62.5 -132z" />
    <glyph glyph-name="uni1E61" unicode="&#x1e61;" horiz-adv-x="457" 
d="M200 621h80v-77h-80v77zM314 160.5q-11 13.5 -31.5 23t-64.5 23.5l-27 9q-50 17 -78.5 31.5t-45.5 40t-17 66.5q0 64 45 97t141 33q74 0 134 -19v-72q-63 21 -121 21q-64 0 -90.5 -13t-26.5 -46q0 -23 11.5 -36t33 -21.5t75.5 -25.5q59 -18 91.5 -36t48 -44t15.5 -67
q0 -135 -188 -135q-45 0 -87 6t-70 16v72q68 -24 146 -24q65 0 91 13.5t26 50.5q0 23 -11 36.5z" />
    <glyph glyph-name="uni1E62" unicode="&#x1e62;" horiz-adv-x="556" 
d="M443.5 36q-62.5 -46 -184.5 -46q-120 0 -194 30v73q88 -33 187 -33q89 0 130.5 24t41.5 84q0 37 -17.5 59.5t-55 38t-109.5 32.5q-106 26 -149 67t-43 112q0 84 60.5 130.5t178.5 46.5q52 0 100.5 -7.5t77.5 -17.5v-72q-76 27 -165 27q-85 0 -127.5 -25t-42.5 -82
q0 -33 15 -53t50.5 -34.5t105.5 -31.5q113 -27 158 -72.5t45 -117.5q0 -86 -62.5 -132zM224 -87h80v-77h-80v77z" />
    <glyph glyph-name="uni1E63" unicode="&#x1e63;" horiz-adv-x="457" 
d="M314 160.5q-11 13.5 -31.5 23t-64.5 23.5l-27 9q-50 17 -78.5 31.5t-45.5 40t-17 66.5q0 64 45 97t141 33q74 0 134 -19v-72q-63 21 -121 21q-64 0 -90.5 -13t-26.5 -46q0 -23 11.5 -36t33 -21.5t75.5 -25.5q59 -18 91.5 -36t48 -44t15.5 -67q0 -135 -188 -135
q-45 0 -87 6t-70 16v72q68 -24 146 -24q65 0 91 13.5t26 50.5q0 23 -11 36.5zM193 -87h80v-77h-80v77z" />
    <glyph glyph-name="uni1E6C" unicode="&#x1e6c;" horiz-adv-x="570" 
d="M326 0h-82v579h-214v65h510v-65h-214v-579zM245 -82h80v-77h-80v77z" />
    <glyph glyph-name="uni1E6D" unicode="&#x1e6d;" horiz-adv-x="358" 
d="M102 474v117l82 25v-142h131l-5 -65h-126v-273q0 -44 19.5 -62t67.5 -18q26 0 57 10v-62q-37 -14 -85 -14q-69 0 -105 37t-36 105v277h-72v65h72zM183 -82h80v-77h-80v77z" />
    <glyph glyph-name="uni1E6E" unicode="&#x1e6e;" horiz-adv-x="570" 
d="M326 0h-82v579h-214v65h510v-65h-214v-579zM429 -125h-288v59h288v-59z" />
    <glyph glyph-name="uni1E6F" unicode="&#x1e6f;" horiz-adv-x="358" 
d="M102 474v117l82 25v-142h131l-5 -65h-126v-273q0 -44 19.5 -62t67.5 -18q26 0 57 10v-62q-37 -14 -85 -14q-69 0 -105 37t-36 105v277h-72v65h72zM341 -125h-288v59h288v-59z" />
    <glyph glyph-name="Wgrave" unicode="&#x1e80;" horiz-adv-x="861" 
d="M315 856h74l71 -168h-66zM288 0h-88l-150 644h81l121 -530l139 459v71h67l150 -530l123 530h80l-149 -644h-87l-140 490z" />
    <glyph glyph-name="wgrave" unicode="&#x1e81;" horiz-adv-x="736" 
d="M248 690h74l71 -168h-66zM369 344l-113 -344h-82l-124 474h82l93 -381l106 326v55h63l117 -381l93 381h82l-124 -474h-82z" />
    <glyph glyph-name="Wacute" unicode="&#x1e82;" horiz-adv-x="861" 
d="M470 856h74l-79 -168h-66zM288 0h-88l-150 644h81l121 -530l139 459v71h67l150 -530l123 530h80l-149 -644h-87l-140 490z" />
    <glyph glyph-name="wacute" unicode="&#x1e83;" horiz-adv-x="736" 
d="M400 690h74l-79 -168h-66zM369 344l-113 -344h-82l-124 474h82l93 -381l106 326v55h63l117 -381l93 381h82l-124 -474h-82z" />
    <glyph glyph-name="Wdieresis" unicode="&#x1e84;" horiz-adv-x="861" 
d="M308 783h78v-75h-78v75zM484 783h78v-75h-78v75zM288 0h-88l-150 644h81l121 -530l139 459v71h67l150 -530l123 530h80l-149 -644h-87l-140 490z" />
    <glyph glyph-name="wdieresis" unicode="&#x1e85;" horiz-adv-x="736" 
d="M242 617h78v-75h-78v75zM418 617h78v-75h-78v75zM369 344l-113 -344h-82l-124 474h82l93 -381l106 326v55h63l117 -381l93 381h82l-124 -474h-82z" />
    <glyph glyph-name="uni1E8E" unicode="&#x1e8e;" horiz-adv-x="642" 
d="M281 787h80v-77h-80v77zM280 240l-230 404h85l186 -334l186 334h85l-230 -404v-240h-82v240z" />
    <glyph glyph-name="uni1E8F" unicode="&#x1e8f;" horiz-adv-x="584" 
d="M260 621h80v-77h-80v77zM135 474l165 -382l170 382h84l-199 -453q-29 -67 -54 -108t-59.5 -65t-82.5 -24q-47 0 -82 13v66q28 -10 61 -10t52.5 11.5t33.5 33t35 67.5l-209 469h85z" />
    <glyph glyph-name="uni1E92" unicode="&#x1e92;" horiz-adv-x="572" 
d="M50 46l368 533h-351v65h455v-51l-365 -529h370v-64h-477v46zM257 -87h80v-77h-80v77z" />
    <glyph glyph-name="uni1E93" unicode="&#x1e93;" horiz-adv-x="485" 
d="M50 45l279 364h-266v65h365v-51l-275 -359h282v-64h-385v45zM200 -87h80v-77h-80v77z" />
    <glyph glyph-name="uni1E97" unicode="&#x1e97;" horiz-adv-x="358" 
d="M30 719h78v-75h-78v75zM206 719h78v-75h-78v75zM102 474v117l82 25v-142h131l-5 -65h-126v-273q0 -44 19.5 -62t67.5 -18q26 0 57 10v-62q-37 -14 -85 -14q-69 0 -105 37t-36 105v277h-72v65h72z" />
    <glyph glyph-name="uni1E9E" unicode="&#x1e9e;" horiz-adv-x="623" 
d="M460 90q31 30 31 92q0 55 -27.5 78t-91.5 23h-98v77l192 120q0 48 -38 76t-119 28q-84 0 -123 -35.5t-39 -112.5v-436h-82v435q0 106 63.5 162.5t180.5 56.5q118 0 176.5 -55t58.5 -144l-183 -112h47q78 0 121.5 -43.5t43.5 -118.5q0 -89 -51.5 -140t-143.5 -51
q-85 0 -144 22v70q51 -22 131 -22q64 0 95 30z" />
    <glyph glyph-name="uni1EA0" unicode="&#x1ea0;" horiz-adv-x="685" 
d="M135 0h-85l245 644h96l244 -644h-84l-68 177h-280zM217 242h251l-126 331zM302 -87h80v-77h-80v77z" />
    <glyph glyph-name="uni1EA1" unicode="&#x1ea1;" horiz-adv-x="541" 
d="M401 54q-31 -33 -75.5 -48.5t-108.5 -15.5q-72 0 -119.5 37t-47.5 106t45 108.5t138 39.5h165v29q0 40 -11 62.5t-40 32.5t-84 10q-83 0 -158 -26v68q71 27 169 27q102 0 152 -41.5t50 -132.5v-310h-69zM235 218q-55 0 -79.5 -20.5t-24.5 -64.5q0 -41 27 -58.5t80 -17.5
q101 0 160 69v92h-163zM239 -87h80v-77h-80v77z" />
    <glyph glyph-name="uni1EA2" unicode="&#x1ea2;" horiz-adv-x="685" 
d="M443 765q-20 -22 -69 -29v-48h-66v83q39 2 59 7.5t27 15.5t7 29q0 24 -18.5 34.5t-59.5 10.5q-16 0 -34.5 -3.5t-31.5 -8.5v51q15 6 39 9.5t46 3.5q59 0 90 -24t31 -67q0 -42 -20 -64zM135 0h-85l245 644h96l244 -644h-84l-68 177h-280zM217 242h251l-126 331z" />
    <glyph glyph-name="uni1EA3" unicode="&#x1ea3;" horiz-adv-x="541" 
d="M375 599q-20 -22 -69 -29v-48h-66v83q39 2 59 7.5t27 15.5t7 29q0 24 -18.5 34.5t-59.5 10.5q-16 0 -34.5 -3.5t-31.5 -8.5v51q15 6 39 9.5t46 3.5q59 0 90 -24t31 -67q0 -42 -20 -64zM401 54q-31 -33 -75.5 -48.5t-108.5 -15.5q-72 0 -119.5 37t-47.5 106t45 108.5
t138 39.5h165v29q0 40 -11 62.5t-40 32.5t-84 10q-83 0 -158 -26v68q71 27 169 27q102 0 152 -41.5t50 -132.5v-310h-69zM235 218q-55 0 -79.5 -20.5t-24.5 -64.5q0 -41 27 -58.5t80 -17.5q101 0 160 69v92h-163z" />
    <glyph glyph-name="uni1EA4" unicode="&#x1ea4;" horiz-adv-x="685" 
d="M479 922h65l-68 -125h-59zM412 688l-75 83l-74 -83h-70l111 118h66l111 -118h-69zM135 0h-85l245 644h96l244 -644h-84l-68 177h-280zM217 242h251l-126 331z" />
    <glyph glyph-name="uni1EA5" unicode="&#x1ea5;" horiz-adv-x="541" 
d="M421 756h65l-68 -125h-59zM354 522l-75 83l-74 -83h-70l111 118h66l111 -118h-69zM401 54q-31 -33 -75.5 -48.5t-108.5 -15.5q-72 0 -119.5 37t-47.5 106t45 108.5t138 39.5h165v29q0 40 -11 62.5t-40 32.5t-84 10q-83 0 -158 -26v68q71 27 169 27q102 0 152 -41.5
t50 -132.5v-310h-69zM235 218q-55 0 -79.5 -20.5t-24.5 -64.5q0 -41 27 -58.5t80 -17.5q101 0 160 69v92h-163z" />
    <glyph glyph-name="uni1EA6" unicode="&#x1ea6;" horiz-adv-x="685" 
d="M132 922h65l62 -125h-59zM372 806l111 -118h-70l-74 83l-75 -83h-69l111 118h66zM135 0h-85l245 644h96l244 -644h-84l-68 177h-280zM217 242h251l-126 331z" />
    <glyph glyph-name="uni1EA7" unicode="&#x1ea7;" horiz-adv-x="541" 
d="M58 756h65l62 -125h-59zM298 640l111 -118h-70l-74 83l-75 -83h-69l111 118h66zM401 54q-31 -33 -75.5 -48.5t-108.5 -15.5q-72 0 -119.5 37t-47.5 106t45 108.5t138 39.5h165v29q0 40 -11 62.5t-40 32.5t-84 10q-83 0 -158 -26v68q71 27 169 27q102 0 152 -41.5
t50 -132.5v-310h-69zM235 218q-55 0 -79.5 -20.5t-24.5 -64.5q0 -41 27 -58.5t80 -17.5q101 0 160 69v92h-163z" />
    <glyph glyph-name="uni1EA8" unicode="&#x1ea8;" horiz-adv-x="685" 
d="M550 834q-19 -18 -60 -23v-35h-61v63q48 2 64 11.5t16 30.5q0 19 -12 27.5t-38 8.5q-30 0 -57 -12v43q31 12 71 12q45 0 70.5 -20t25.5 -55q0 -33 -19 -51zM374 806l111 -118h-69l-75 83l-74 -83h-70l111 118h66zM135 0h-85l245 644h96l244 -644h-84l-68 177h-280z
M217 242h251l-126 331z" />
    <glyph glyph-name="uni1EA9" unicode="&#x1ea9;" horiz-adv-x="541" 
d="M481 667q-19 -18 -60 -23v-35h-61v63q48 2 64 11.5t16 30.5q0 19 -12 27.5t-38 8.5q-30 0 -57 -12v43q31 12 71 12q45 0 70.5 -20t25.5 -55q0 -33 -19 -51zM305 639l111 -118h-69l-75 83l-74 -83h-70l111 118h66zM401 54q-31 -33 -75.5 -48.5t-108.5 -15.5
q-72 0 -119.5 37t-47.5 106t45 108.5t138 39.5h165v29q0 40 -11 62.5t-40 32.5t-84 10q-83 0 -158 -26v68q71 27 169 27q102 0 152 -41.5t50 -132.5v-310h-69zM235 218q-55 0 -79.5 -20.5t-24.5 -64.5q0 -41 27 -58.5t80 -17.5q101 0 160 69v92h-163z" />
    <glyph glyph-name="uni1EAA" unicode="&#x1eaa;" horiz-adv-x="685" 
d="M382 812.5q-15 4.5 -42 14.5q-15 6 -31 11t-29 5q-49 0 -76 -32v56q11 12 33 19.5t43 7.5q17 0 33.5 -4.5t37.5 -13.5q38 -17 62 -17q47 0 71 33v-57q-9 -12 -28.5 -19.5t-42.5 -7.5q-16 0 -31 4.5zM375 806l111 -118h-69l-75 83l-74 -83h-70l111 118h66zM135 0h-85
l245 644h96l244 -644h-84l-68 177h-280zM217 242h251l-126 331z" />
    <glyph glyph-name="uni1EAB" unicode="&#x1eab;" horiz-adv-x="541" 
d="M320 646.5q-15 4.5 -42 14.5q-15 6 -31 11t-29 5q-49 0 -76 -32v56q11 12 33 19.5t43 7.5q17 0 33.5 -4.5t37.5 -13.5q38 -17 62 -17q47 0 71 33v-57q-9 -12 -28.5 -19.5t-42.5 -7.5q-16 0 -31 4.5zM313 640l111 -118h-69l-75 83l-74 -83h-70l111 118h66zM401 54
q-31 -33 -75.5 -48.5t-108.5 -15.5q-72 0 -119.5 37t-47.5 106t45 108.5t138 39.5h165v29q0 40 -11 62.5t-40 32.5t-84 10q-83 0 -158 -26v68q71 27 169 27q102 0 152 -41.5t50 -132.5v-310h-69zM235 218q-55 0 -79.5 -20.5t-24.5 -64.5q0 -41 27 -58.5t80 -17.5
q101 0 160 69v92h-163z" />
    <glyph glyph-name="uni1EAC" unicode="&#x1eac;" horiz-adv-x="685" 
d="M419 688l-77 102l-77 -102h-71l115 148h66l115 -148h-71zM135 0h-85l245 644h96l244 -644h-84l-68 177h-280zM217 242h251l-126 331zM302 -87h80v-77h-80v77z" />
    <glyph glyph-name="uni1EAD" unicode="&#x1ead;" horiz-adv-x="541" 
d="M352 522l-77 102l-77 -102h-71l115 148h66l115 -148h-71zM401 54q-31 -33 -75.5 -48.5t-108.5 -15.5q-72 0 -119.5 37t-47.5 106t45 108.5t138 39.5h165v29q0 40 -11 62.5t-40 32.5t-84 10q-83 0 -158 -26v68q71 27 169 27q102 0 152 -41.5t50 -132.5v-310h-69zM235 218
q-55 0 -79.5 -20.5t-24.5 -64.5q0 -41 27 -58.5t80 -17.5q101 0 160 69v92h-163zM235 -87h80v-77h-80v77z" />
    <glyph glyph-name="uni1EAE" unicode="&#x1eae;" horiz-adv-x="685" 
d="M365 917h65l-68 -125h-59zM411.5 759.5q25.5 23.5 25.5 68.5h52q0 -72 -41 -106t-106 -34t-106 34t-41 106h52q0 -45 25.5 -68.5t69.5 -23.5t69.5 23.5zM135 0h-85l245 644h96l244 -644h-84l-68 177h-280zM217 242h251l-126 331z" />
    <glyph glyph-name="uni1EAF" unicode="&#x1eaf;" horiz-adv-x="541" 
d="M314 751h65l-68 -125h-59zM360.5 593.5q25.5 23.5 25.5 68.5h52q0 -72 -41 -106t-106 -34t-106 34t-41 106h52q0 -45 25.5 -68.5t69.5 -23.5t69.5 23.5zM401 54q-31 -33 -75.5 -48.5t-108.5 -15.5q-72 0 -119.5 37t-47.5 106t45 108.5t138 39.5h165v29q0 40 -11 62.5
t-40 32.5t-84 10q-83 0 -158 -26v68q71 27 169 27q102 0 152 -41.5t50 -132.5v-310h-69zM235 218q-55 0 -79.5 -20.5t-24.5 -64.5q0 -41 27 -58.5t80 -17.5q101 0 160 69v92h-163z" />
    <glyph glyph-name="uni1EB0" unicode="&#x1eb0;" horiz-adv-x="685" 
d="M254 917h65l62 -125h-59zM411.5 759.5q25.5 23.5 25.5 68.5h52q0 -72 -41 -106t-106 -34t-106 34t-41 106h52q0 -45 25.5 -68.5t69.5 -23.5t69.5 23.5zM135 0h-85l245 644h96l244 -644h-84l-68 177h-280zM217 242h251l-126 331z" />
    <glyph glyph-name="uni1EB1" unicode="&#x1eb1;" horiz-adv-x="541" 
d="M198 751h65l62 -125h-59zM355.5 593.5q25.5 23.5 25.5 68.5h52q0 -72 -41 -106t-106 -34t-106 34t-41 106h52q0 -45 25.5 -68.5t69.5 -23.5t69.5 23.5zM401 54q-31 -33 -75.5 -48.5t-108.5 -15.5q-72 0 -119.5 37t-47.5 106t45 108.5t138 39.5h165v29q0 40 -11 62.5
t-40 32.5t-84 10q-83 0 -158 -26v68q71 27 169 27q102 0 152 -41.5t50 -132.5v-310h-69zM235 218q-55 0 -79.5 -20.5t-24.5 -64.5q0 -41 27 -58.5t80 -17.5q101 0 160 69v92h-163z" />
    <glyph glyph-name="uni1EB2" unicode="&#x1eb2;" horiz-adv-x="685" 
d="M424.5 851q-18.5 -17 -60.5 -24v-34h-60v58q48 2 65 12.5t17 32.5q0 20 -13 29.5t-40 9.5q-29 0 -57 -13v41q33 12 74 12q44 0 68.5 -19.5t24.5 -54.5q0 -33 -18.5 -50zM411.5 759.5q25.5 23.5 25.5 68.5h52q0 -72 -41 -106t-106 -34t-106 34t-41 106h52
q0 -45 25.5 -68.5t69.5 -23.5t69.5 23.5zM135 0h-85l245 644h96l244 -644h-84l-68 177h-280zM217 242h251l-126 331z" />
    <glyph glyph-name="uni1EB3" unicode="&#x1eb3;" horiz-adv-x="541" 
d="M366.5 685q-18.5 -17 -60.5 -24v-34h-60v58q48 2 65 12.5t17 32.5q0 20 -13 29.5t-40 9.5q-29 0 -57 -13v41q33 12 74 12q44 0 68.5 -19.5t24.5 -54.5q0 -33 -18.5 -50zM353.5 593.5q25.5 23.5 25.5 68.5h52q0 -72 -41 -106t-106 -34t-106 34t-41 106h52
q0 -45 25.5 -68.5t69.5 -23.5t69.5 23.5zM401 54q-31 -33 -75.5 -48.5t-108.5 -15.5q-72 0 -119.5 37t-47.5 106t45 108.5t138 39.5h165v29q0 40 -11 62.5t-40 32.5t-84 10q-83 0 -158 -26v68q71 27 169 27q102 0 152 -41.5t50 -132.5v-310h-69zM235 218q-55 0 -79.5 -20.5
t-24.5 -64.5q0 -41 27 -58.5t80 -17.5q101 0 160 69v92h-163z" />
    <glyph glyph-name="uni1EB4" unicode="&#x1eb4;" horiz-adv-x="685" 
d="M381 853.5q-15 4.5 -42 14.5q-15 6 -31 11t-29 5q-49 0 -76 -32v56q11 12 33 19.5t43 7.5q17 0 33.5 -4.5t37.5 -13.5q38 -17 62 -17q47 0 71 33v-57q-9 -12 -28.5 -19.5t-42.5 -7.5q-16 0 -31 4.5zM411.5 759.5q25.5 23.5 25.5 68.5h52q0 -72 -41 -106t-106 -34t-106 34
t-41 106h52q0 -45 25.5 -68.5t69.5 -23.5t69.5 23.5zM135 0h-85l245 644h96l244 -644h-84l-68 177h-280zM217 242h251l-126 331z" />
    <glyph glyph-name="uni1EB5" unicode="&#x1eb5;" horiz-adv-x="541" 
d="M327 687.5q-15 4.5 -42 14.5q-15 6 -31 11t-29 5q-49 0 -76 -32v56q11 12 33 19.5t43 7.5q17 0 33.5 -4.5t37.5 -13.5q38 -17 62 -17q47 0 71 33v-57q-9 -12 -28.5 -19.5t-42.5 -7.5q-16 0 -31 4.5zM357.5 593.5q25.5 23.5 25.5 68.5h52q0 -72 -41 -106t-106 -34t-106 34
t-41 106h52q0 -45 25.5 -68.5t69.5 -23.5t69.5 23.5zM401 54q-31 -33 -75.5 -48.5t-108.5 -15.5q-72 0 -119.5 37t-47.5 106t45 108.5t138 39.5h165v29q0 40 -11 62.5t-40 32.5t-84 10q-83 0 -158 -26v68q71 27 169 27q102 0 152 -41.5t50 -132.5v-310h-69zM235 218
q-55 0 -79.5 -20.5t-24.5 -64.5q0 -41 27 -58.5t80 -17.5q101 0 160 69v92h-163z" />
    <glyph glyph-name="uni1EB6" unicode="&#x1eb6;" horiz-adv-x="685" 
d="M291 758.5q18 -18.5 50 -18.5q70 0 70 74h58q0 -58 -33 -92t-95 -34q-61 0 -93.5 34t-32.5 92h58q0 -37 18 -55.5zM135 0h-85l245 644h96l244 -644h-84l-68 177h-280zM217 242h251l-126 331zM302 -87h80v-77h-80v77z" />
    <glyph glyph-name="uni1EB7" unicode="&#x1eb7;" horiz-adv-x="541" 
d="M229 592.5q18 -18.5 50 -18.5q70 0 70 74h58q0 -58 -33 -92t-95 -34q-61 0 -93.5 34t-32.5 92h58q0 -37 18 -55.5zM401 54q-31 -33 -75.5 -48.5t-108.5 -15.5q-72 0 -119.5 37t-47.5 106t45 108.5t138 39.5h165v29q0 40 -11 62.5t-40 32.5t-84 10q-83 0 -158 -26v68
q71 27 169 27q102 0 152 -41.5t50 -132.5v-310h-69zM235 218q-55 0 -79.5 -20.5t-24.5 -64.5q0 -41 27 -58.5t80 -17.5q101 0 160 69v92h-163zM240 -87h80v-77h-80v77z" />
    <glyph glyph-name="uni1EB8" unicode="&#x1eb8;" horiz-adv-x="555" 
d="M70 644h435v-65h-353v-225h317v-64h-317v-226h353v-64h-435v644zM236 -87h80v-77h-80v77z" />
    <glyph glyph-name="uni1EB9" unicode="&#x1eb9;" horiz-adv-x="533" 
d="M155.5 113.5q19.5 -30.5 58.5 -44t105 -13.5q73 0 134 25v-64q-61 -27 -150 -27q-127 0 -190 61t-63 188q0 117 56 181t171 64q101 0 153.5 -54t52.5 -142v-89h-351q4 -55 23.5 -85.5zM164.5 379.5q-32.5 -38.5 -32.5 -121.5h278v39q0 59 -31.5 90t-99.5 31
q-82 0 -114.5 -38.5zM227 -87h80v-77h-80v77z" />
    <glyph glyph-name="uni1EBA" unicode="&#x1eba;" horiz-adv-x="555" 
d="M375 765q-20 -22 -69 -29v-48h-66v83q39 2 59 7.5t27 15.5t7 29q0 24 -18.5 34.5t-59.5 10.5q-16 0 -34.5 -3.5t-31.5 -8.5v51q15 6 39 9.5t46 3.5q59 0 90 -24t31 -67q0 -42 -20 -64zM70 644h435v-65h-353v-225h317v-64h-317v-226h353v-64h-435v644z" />
    <glyph glyph-name="uni1EBB" unicode="&#x1ebb;" horiz-adv-x="533" 
d="M371 599q-20 -22 -69 -29v-48h-66v83q39 2 59 7.5t27 15.5t7 29q0 24 -18.5 34.5t-59.5 10.5q-16 0 -34.5 -3.5t-31.5 -8.5v51q15 6 39 9.5t46 3.5q59 0 90 -24t31 -67q0 -42 -20 -64zM155.5 113.5q19.5 -30.5 58.5 -44t105 -13.5q73 0 134 25v-64q-61 -27 -150 -27
q-127 0 -190 61t-63 188q0 117 56 181t171 64q101 0 153.5 -54t52.5 -142v-89h-351q4 -55 23.5 -85.5zM164.5 379.5q-32.5 -38.5 -32.5 -121.5h278v39q0 59 -31.5 90t-99.5 31q-82 0 -114.5 -38.5z" />
    <glyph glyph-name="uni1EBC" unicode="&#x1ebc;" horiz-adv-x="555" 
d="M273 728q-17 7 -34.5 12.5t-30.5 5.5q-53 0 -83 -35v63q12 13 35.5 21.5t47.5 8.5q19 0 36.5 -5t39.5 -15q25 -10 38.5 -14t29.5 -4q51 0 77 36v-64q-10 -14 -31 -22t-46 -8q-29 0 -79 20zM70 644h435v-65h-353v-225h317v-64h-317v-226h353v-64h-435v644z" />
    <glyph glyph-name="uni1EBD" unicode="&#x1ebd;" horiz-adv-x="533" 
d="M264 562q-17 7 -34.5 12.5t-30.5 5.5q-53 0 -83 -35v63q12 13 35.5 21.5t47.5 8.5q19 0 36.5 -5t39.5 -15q25 -10 38.5 -14t29.5 -4q51 0 77 36v-64q-10 -14 -31 -22t-46 -8q-29 0 -79 20zM155.5 113.5q19.5 -30.5 58.5 -44t105 -13.5q73 0 134 25v-64q-61 -27 -150 -27
q-127 0 -190 61t-63 188q0 117 56 181t171 64q101 0 153.5 -54t52.5 -142v-89h-351q4 -55 23.5 -85.5zM164.5 379.5q-32.5 -38.5 -32.5 -121.5h278v39q0 59 -31.5 90t-99.5 31q-82 0 -114.5 -38.5z" />
    <glyph glyph-name="uni1EBE" unicode="&#x1ebe;" horiz-adv-x="555" 
d="M417 921h65l-68 -125h-59zM350 687l-75 83l-74 -83h-70l111 118h66l111 -118h-69zM70 644h435v-65h-353v-225h317v-64h-317v-226h353v-64h-435v644z" />
    <glyph glyph-name="uni1EBF" unicode="&#x1ebf;" horiz-adv-x="533" 
d="M411 755h65l-68 -125h-59zM344 521l-75 83l-74 -83h-70l111 118h66l111 -118h-69zM155.5 113.5q19.5 -30.5 58.5 -44t105 -13.5q73 0 134 25v-64q-61 -27 -150 -27q-127 0 -190 61t-63 188q0 117 56 181t171 64q101 0 153.5 -54t52.5 -142v-89h-351q4 -55 23.5 -85.5z
M164.5 379.5q-32.5 -38.5 -32.5 -121.5h278v39q0 59 -31.5 90t-99.5 31q-82 0 -114.5 -38.5z" />
    <glyph glyph-name="uni1EC0" unicode="&#x1ec0;" horiz-adv-x="555" 
d="M86 921h65l62 -125h-59zM326 805l111 -118h-70l-74 83l-75 -83h-69l111 118h66zM70 644h435v-65h-353v-225h317v-64h-317v-226h353v-64h-435v644z" />
    <glyph glyph-name="uni1EC1" unicode="&#x1ec1;" horiz-adv-x="533" 
d="M76 770h65l62 -125h-59zM316 654l111 -118h-70l-74 83l-75 -83h-69l111 118h66zM155.5 113.5q19.5 -30.5 58.5 -44t105 -13.5q73 0 134 25v-64q-61 -27 -150 -27q-127 0 -190 61t-63 188q0 117 56 181t171 64q101 0 153.5 -54t52.5 -142v-89h-351q4 -55 23.5 -85.5z
M164.5 379.5q-32.5 -38.5 -32.5 -121.5h278v39q0 59 -31.5 90t-99.5 31q-82 0 -114.5 -38.5z" />
    <glyph glyph-name="uni1EC2" unicode="&#x1ec2;" horiz-adv-x="555" 
d="M489 833q-19 -18 -60 -23v-35h-61v63q48 2 64 11.5t16 30.5q0 19 -12 27.5t-38 8.5q-30 0 -57 -12v43q31 12 71 12q45 0 70.5 -20t25.5 -55q0 -33 -19 -51zM313 805l111 -118h-69l-75 83l-74 -83h-70l111 118h66zM70 644h435v-65h-353v-225h317v-64h-317v-226h353v-64
h-435v644z" />
    <glyph glyph-name="uni1EC3" unicode="&#x1ec3;" horiz-adv-x="533" 
d="M475 667q-19 -18 -60 -23v-35h-61v63q48 2 64 11.5t16 30.5q0 19 -12 27.5t-38 8.5q-30 0 -57 -12v43q31 12 71 12q45 0 70.5 -20t25.5 -55q0 -33 -19 -51zM299 639l111 -118h-69l-75 83l-74 -83h-70l111 118h66zM155.5 113.5q19.5 -30.5 58.5 -44t105 -13.5q73 0 134 25
v-64q-61 -27 -150 -27q-127 0 -190 61t-63 188q0 117 56 181t171 64q101 0 153.5 -54t52.5 -142v-89h-351q4 -55 23.5 -85.5zM164.5 379.5q-32.5 -38.5 -32.5 -121.5h278v39q0 59 -31.5 90t-99.5 31q-82 0 -114.5 -38.5z" />
    <glyph glyph-name="uni1EC4" unicode="&#x1ec4;" horiz-adv-x="555" 
d="M321 812.5q-15 4.5 -42 14.5q-15 6 -31 11t-29 5q-49 0 -76 -32v56q11 12 33 19.5t43 7.5q17 0 33.5 -4.5t37.5 -13.5q38 -17 62 -17q47 0 71 33v-57q-9 -12 -28.5 -19.5t-42.5 -7.5q-16 0 -31 4.5zM314 806l111 -118h-69l-75 83l-74 -83h-70l111 118h66zM70 644h435v-65
h-353v-225h317v-64h-317v-226h353v-64h-435v644z" />
    <glyph glyph-name="uni1EC5" unicode="&#x1ec5;" horiz-adv-x="533" 
d="M311 646.5q-15 4.5 -42 14.5q-15 6 -31 11t-29 5q-49 0 -76 -32v56q11 12 33 19.5t43 7.5q17 0 33.5 -4.5t37.5 -13.5q38 -17 62 -17q47 0 71 33v-57q-9 -12 -28.5 -19.5t-42.5 -7.5q-16 0 -31 4.5zM304 640l111 -118h-69l-75 83l-74 -83h-70l111 118h66zM155.5 113.5
q19.5 -30.5 58.5 -44t105 -13.5q73 0 134 25v-64q-61 -27 -150 -27q-127 0 -190 61t-63 188q0 117 56 181t171 64q101 0 153.5 -54t52.5 -142v-89h-351q4 -55 23.5 -85.5zM164.5 379.5q-32.5 -38.5 -32.5 -121.5h278v39q0 59 -31.5 90t-99.5 31q-82 0 -114.5 -38.5z" />
    <glyph glyph-name="uni1EC6" unicode="&#x1ec6;" horiz-adv-x="555" 
d="M347 688l-77 102l-77 -102h-71l115 148h66l115 -148h-71zM70 644h435v-65h-353v-225h317v-64h-317v-226h353v-64h-435v644zM230 -87h80v-77h-80v77z" />
    <glyph glyph-name="uni1EC7" unicode="&#x1ec7;" horiz-adv-x="533" 
d="M347 522l-77 102l-77 -102h-71l115 148h66l115 -148h-71zM155.5 113.5q19.5 -30.5 58.5 -44t105 -13.5q73 0 134 25v-64q-61 -27 -150 -27q-127 0 -190 61t-63 188q0 117 56 181t171 64q101 0 153.5 -54t52.5 -142v-89h-351q4 -55 23.5 -85.5zM164.5 379.5
q-32.5 -38.5 -32.5 -121.5h278v39q0 59 -31.5 90t-99.5 31q-82 0 -114.5 -38.5zM230 -87h80v-77h-80v77z" />
    <glyph glyph-name="uni1EC8" unicode="&#x1ec8;" horiz-adv-x="222" 
d="M212 765q-20 -22 -69 -29v-48h-66v83q39 2 59 7.5t27 15.5t7 29q0 24 -18.5 34.5t-59.5 10.5q-16 0 -34.5 -3.5t-31.5 -8.5v51q15 6 39 9.5t46 3.5q59 0 90 -24t31 -67q0 -42 -20 -64zM70 644h82v-644h-82v644z" />
    <glyph glyph-name="uni1EC9" unicode="&#x1ec9;" horiz-adv-x="295" 
d="M252 599q-20 -22 -69 -29v-48h-66v83q39 2 59 7.5t27 15.5t7 29q0 24 -18.5 34.5t-59.5 10.5q-16 0 -34.5 -3.5t-31.5 -8.5v51q15 6 39 9.5t46 3.5q59 0 90 -24t31 -67q0 -42 -20 -64zM225 0h-82v409h-73l8 65h147v-474z" />
    <glyph glyph-name="uni1ECA" unicode="&#x1eca;" horiz-adv-x="222" 
d="M70 644h82v-644h-82v644zM71 -87h80v-77h-80v77z" />
    <glyph glyph-name="uni1ECB" unicode="&#x1ecb;" horiz-adv-x="296" 
d="M135 585v75h91v-75h-91zM225 0h-82v409h-73l8 65h147v-474zM144 -87h80v-77h-80v77z" />
    <glyph glyph-name="uni1ECC" unicode="&#x1ecc;" horiz-adv-x="694" 
d="M571.5 70q-72.5 -80 -224.5 -80t-224.5 80t-72.5 252t72.5 252t224.5 80t224.5 -80t72.5 -252t-72.5 -252zM539 475.5q-23 57.5 -70 83t-122 25.5t-122 -25.5t-70 -83t-23 -153.5t23 -153.5t70 -83t122 -25.5t122 25.5t70 83t23 153.5t-23 153.5zM307 -87h80v-77h-80v77z
" />
    <glyph glyph-name="uni1ECD" unicode="&#x1ecd;" horiz-adv-x="574" 
d="M524 237q0 -123 -57.5 -185t-179.5 -62t-179.5 62t-57.5 185q0 247 237 247t237 -247zM406.5 102q35.5 42 35.5 135t-36 135t-119 42t-119 -42t-36 -135t35.5 -135t119.5 -42t119.5 42zM247 -87h80v-77h-80v77z" />
    <glyph glyph-name="uni1ECE" unicode="&#x1ece;" horiz-adv-x="694" 
d="M451 765q-20 -22 -69 -29v-48h-66v83q39 2 59 7.5t27 15.5t7 29q0 24 -18.5 34.5t-59.5 10.5q-16 0 -34.5 -3.5t-31.5 -8.5v51q15 6 39 9.5t46 3.5q59 0 90 -24t31 -67q0 -42 -20 -64zM571.5 70q-72.5 -80 -224.5 -80t-224.5 80t-72.5 252t72.5 252t224.5 80t224.5 -80
t72.5 -252t-72.5 -252zM539 475.5q-23 57.5 -70 83t-122 25.5t-122 -25.5t-70 -83t-23 -153.5t23 -153.5t70 -83t122 -25.5t122 25.5t70 83t23 153.5t-23 153.5z" />
    <glyph glyph-name="uni1ECF" unicode="&#x1ecf;" horiz-adv-x="574" 
d="M390 599q-20 -22 -69 -29v-48h-66v83q39 2 59 7.5t27 15.5t7 29q0 24 -18.5 34.5t-59.5 10.5q-16 0 -34.5 -3.5t-31.5 -8.5v51q15 6 39 9.5t46 3.5q59 0 90 -24t31 -67q0 -42 -20 -64zM524 237q0 -123 -57.5 -185t-179.5 -62t-179.5 62t-57.5 185q0 247 237 247t237 -247
zM406.5 102q35.5 42 35.5 135t-36 135t-119 42t-119 -42t-36 -135t35.5 -135t119.5 -42t119.5 42z" />
    <glyph glyph-name="uni1ED0" unicode="&#x1ed0;" horiz-adv-x="694" 
d="M493 922h65l-68 -125h-59zM426 688l-75 83l-74 -83h-70l111 118h66l111 -118h-69zM571.5 70q-72.5 -80 -224.5 -80t-224.5 80t-72.5 252t72.5 252t224.5 80t224.5 -80t72.5 -252t-72.5 -252zM539 475.5q-23 57.5 -70 83t-122 25.5t-122 -25.5t-70 -83t-23 -153.5
t23 -153.5t70 -83t122 -25.5t122 25.5t70 83t23 153.5t-23 153.5z" />
    <glyph glyph-name="uni1ED1" unicode="&#x1ed1;" horiz-adv-x="574" 
d="M427 756h65l-68 -125h-59zM360 522l-75 83l-74 -83h-70l111 118h66l111 -118h-69zM524 237q0 -123 -57.5 -185t-179.5 -62t-179.5 62t-57.5 185q0 247 237 247t237 -247zM406.5 102q35.5 42 35.5 135t-36 135t-119 42t-119 -42t-36 -135t35.5 -135t119.5 -42t119.5 42z
" />
    <glyph glyph-name="uni1ED2" unicode="&#x1ed2;" horiz-adv-x="694" 
d="M128 922h65l62 -125h-59zM368 806l111 -118h-70l-74 83l-75 -83h-69l111 118h66zM571.5 70q-72.5 -80 -224.5 -80t-224.5 80t-72.5 252t72.5 252t224.5 80t224.5 -80t72.5 -252t-72.5 -252zM539 475.5q-23 57.5 -70 83t-122 25.5t-122 -25.5t-70 -83t-23 -153.5
t23 -153.5t70 -83t122 -25.5t122 25.5t70 83t23 153.5t-23 153.5z" />
    <glyph glyph-name="uni1ED3" unicode="&#x1ed3;" horiz-adv-x="574" 
d="M71 756h65l62 -125h-59zM311 640l111 -118h-70l-74 83l-75 -83h-69l111 118h66zM524 237q0 -123 -57.5 -185t-179.5 -62t-179.5 62t-57.5 185q0 247 237 247t237 -247zM406.5 102q35.5 42 35.5 135t-36 135t-119 42t-119 -42t-36 -135t35.5 -135t119.5 -42t119.5 42z" />
    <glyph glyph-name="uni1ED4" unicode="&#x1ed4;" horiz-adv-x="694" 
d="M555 834q-19 -18 -60 -23v-35h-61v63q48 2 64 11.5t16 30.5q0 19 -12 27.5t-38 8.5q-30 0 -57 -12v43q31 12 71 12q45 0 70.5 -20t25.5 -55q0 -33 -19 -51zM379 806l111 -118h-69l-75 83l-74 -83h-70l111 118h66zM571.5 70q-72.5 -80 -224.5 -80t-224.5 80t-72.5 252
t72.5 252t224.5 80t224.5 -80t72.5 -252t-72.5 -252zM539 475.5q-23 57.5 -70 83t-122 25.5t-122 -25.5t-70 -83t-23 -153.5t23 -153.5t70 -83t122 -25.5t122 25.5t70 83t23 153.5t-23 153.5z" />
    <glyph glyph-name="uni1ED5" unicode="&#x1ed5;" horiz-adv-x="574" 
d="M506 668q-19 -18 -60 -23v-35h-61v63q48 2 64 11.5t16 30.5q0 19 -12 27.5t-38 8.5q-30 0 -57 -12v43q31 12 71 12q45 0 70.5 -20t25.5 -55q0 -33 -19 -51zM330 640l111 -118h-69l-75 83l-74 -83h-70l111 118h66zM524 237q0 -123 -57.5 -185t-179.5 -62t-179.5 62
t-57.5 185q0 247 237 247t237 -247zM406.5 102q35.5 42 35.5 135t-36 135t-119 42t-119 -42t-36 -135t35.5 -135t119.5 -42t119.5 42z" />
    <glyph glyph-name="uni1ED6" unicode="&#x1ed6;" horiz-adv-x="694" 
d="M386 853.5q-15 4.5 -42 14.5q-15 6 -31 11t-29 5q-49 0 -76 -32v56q11 12 33 19.5t43 7.5q17 0 33.5 -4.5t37.5 -13.5q38 -17 62 -17q47 0 71 33v-57q-9 -12 -28.5 -19.5t-42.5 -7.5q-16 0 -31 4.5zM416.5 759.5q25.5 23.5 25.5 68.5h52q0 -72 -41 -106t-106 -34t-106 34
t-41 106h52q0 -45 25.5 -68.5t69.5 -23.5t69.5 23.5zM571.5 70q-72.5 -80 -224.5 -80t-224.5 80t-72.5 252t72.5 252t224.5 80t224.5 -80t72.5 -252t-72.5 -252zM539 475.5q-23 57.5 -70 83t-122 25.5t-122 -25.5t-70 -83t-23 -153.5t23 -153.5t70 -83t122 -25.5t122 25.5
t70 83t23 153.5t-23 153.5z" />
    <glyph glyph-name="uni1ED7" unicode="&#x1ed7;" horiz-adv-x="574" 
d="M326 687.5q-15 4.5 -42 14.5q-15 6 -31 11t-29 5q-49 0 -76 -32v56q11 12 33 19.5t43 7.5q17 0 33.5 -4.5t37.5 -13.5q38 -17 62 -17q47 0 71 33v-57q-9 -12 -28.5 -19.5t-42.5 -7.5q-16 0 -31 4.5zM356.5 593.5q25.5 23.5 25.5 68.5h52q0 -72 -41 -106t-106 -34t-106 34
t-41 106h52q0 -45 25.5 -68.5t69.5 -23.5t69.5 23.5zM524 237q0 -123 -57.5 -185t-179.5 -62t-179.5 62t-57.5 185q0 247 237 247t237 -247zM406.5 102q35.5 42 35.5 135t-36 135t-119 42t-119 -42t-36 -135t35.5 -135t119.5 -42t119.5 42z" />
    <glyph glyph-name="uni1ED8" unicode="&#x1ed8;" horiz-adv-x="694" 
d="M424 688l-77 102l-77 -102h-71l115 148h66l115 -148h-71zM571.5 70q-72.5 -80 -224.5 -80t-224.5 80t-72.5 252t72.5 252t224.5 80t224.5 -80t72.5 -252t-72.5 -252zM539 475.5q-23 57.5 -70 83t-122 25.5t-122 -25.5t-70 -83t-23 -153.5t23 -153.5t70 -83t122 -25.5
t122 25.5t70 83t23 153.5t-23 153.5zM307 -87h80v-77h-80v77z" />
    <glyph glyph-name="uni1ED9" unicode="&#x1ed9;" horiz-adv-x="574" 
d="M364 522l-77 102l-77 -102h-71l115 148h66l115 -148h-71zM524 237q0 -123 -57.5 -185t-179.5 -62t-179.5 62t-57.5 185q0 247 237 247t237 -247zM406.5 102q35.5 42 35.5 135t-36 135t-119 42t-119 -42t-36 -135t35.5 -135t119.5 -42t119.5 42zM247 -87h80v-77h-80v77z
" />
    <glyph glyph-name="uni1EDA" unicode="&#x1eda;" horiz-adv-x="760" 
d="M396 856h74l-79 -168h-66zM571.5 70q-72.5 -80 -224.5 -80t-224.5 80t-72.5 252t72.5 252t224.5 80t225 -80q39 1 59.5 11t29 34t8.5 69h71q0 -87 -31.5 -128t-96.5 -50q32 -75 32 -188q0 -172 -72.5 -252zM539 475.5q-23 57.5 -70 83t-122 25.5t-122 -25.5t-70 -83
t-23 -153.5t23 -153.5t70 -83t122 -25.5t122 25.5t70 83t23 153.5t-23 153.5z" />
    <glyph glyph-name="uni1EDB" unicode="&#x1edb;" horiz-adv-x="658" 
d="M333 690h74l-79 -168h-66zM471 415q39 1 59.5 12.5t28.5 37t8 71.5h71q0 -88 -33 -130t-100 -51q19 -48 19 -118q0 -123 -57.5 -185t-179.5 -62t-179.5 62t-57.5 185q0 247 237 247q124 0 184 -69zM406.5 102q35.5 42 35.5 135t-36 135t-119 42t-119 -42t-36 -135
t35.5 -135t119.5 -42t119.5 42z" />
    <glyph glyph-name="uni1EDC" unicode="&#x1edc;" horiz-adv-x="760" 
d="M252 856h74l71 -168h-66zM571.5 70q-72.5 -80 -224.5 -80t-224.5 80t-72.5 252t72.5 252t224.5 80t225 -80q39 1 59.5 11t29 34t8.5 69h71q0 -87 -31.5 -128t-96.5 -50q32 -75 32 -188q0 -172 -72.5 -252zM539 475.5q-23 57.5 -70 83t-122 25.5t-122 -25.5t-70 -83
t-23 -153.5t23 -153.5t70 -83t122 -25.5t122 25.5t70 83t23 153.5t-23 153.5z" />
    <glyph glyph-name="uni1EDD" unicode="&#x1edd;" horiz-adv-x="658" 
d="M186 690h74l71 -168h-66zM471 415q39 1 59.5 12.5t28.5 37t8 71.5h71q0 -88 -33 -130t-100 -51q19 -48 19 -118q0 -123 -57.5 -185t-179.5 -62t-179.5 62t-57.5 185q0 247 237 247q124 0 184 -69zM406.5 102q35.5 42 35.5 135t-36 135t-119 42t-119 -42t-36 -135
t35.5 -135t119.5 -42t119.5 42z" />
    <glyph glyph-name="uni1EDE" unicode="&#x1ede;" horiz-adv-x="760" 
d="M457 765q-20 -22 -69 -29v-48h-66v83q39 2 59 7.5t27 15.5t7 29q0 24 -18.5 34.5t-59.5 10.5q-16 0 -34.5 -3.5t-31.5 -8.5v51q15 6 39 9.5t46 3.5q59 0 90 -24t31 -67q0 -42 -20 -64zM571.5 70q-72.5 -80 -224.5 -80t-224.5 80t-72.5 252t72.5 252t224.5 80t225 -80
q39 1 59.5 11t29 34t8.5 69h71q0 -87 -31.5 -128t-96.5 -50q32 -75 32 -188q0 -172 -72.5 -252zM539 475.5q-23 57.5 -70 83t-122 25.5t-122 -25.5t-70 -83t-23 -153.5t23 -153.5t70 -83t122 -25.5t122 25.5t70 83t23 153.5t-23 153.5z" />
    <glyph glyph-name="uni1EDF" unicode="&#x1edf;" horiz-adv-x="658" 
d="M387 599q-20 -22 -69 -29v-48h-66v83q39 2 59 7.5t27 15.5t7 29q0 24 -18.5 34.5t-59.5 10.5q-16 0 -34.5 -3.5t-31.5 -8.5v51q15 6 39 9.5t46 3.5q59 0 90 -24t31 -67q0 -42 -20 -64zM471 415q39 1 59.5 12.5t28.5 37t8 71.5h71q0 -88 -33 -130t-100 -51q19 -48 19 -118
q0 -123 -57.5 -185t-179.5 -62t-179.5 62t-57.5 185q0 247 237 247q124 0 184 -69zM406.5 102q35.5 42 35.5 135t-36 135t-119 42t-119 -42t-36 -135t35.5 -135t119.5 -42t119.5 42z" />
    <glyph glyph-name="uni1EE0" unicode="&#x1ee0;" horiz-adv-x="760" 
d="M359 727q-17 7 -34.5 12.5t-30.5 5.5q-53 0 -83 -35v63q12 13 35.5 21.5t47.5 8.5q19 0 36.5 -5t39.5 -15q25 -10 38.5 -14t29.5 -4q51 0 77 36v-64q-10 -14 -31 -22t-46 -8q-29 0 -79 20zM571.5 70q-72.5 -80 -224.5 -80t-224.5 80t-72.5 252t72.5 252t224.5 80t225 -80
q39 1 59.5 11t29 34t8.5 69h71q0 -87 -31.5 -128t-96.5 -50q32 -75 32 -188q0 -172 -72.5 -252zM539 475.5q-23 57.5 -70 83t-122 25.5t-122 -25.5t-70 -83t-23 -153.5t23 -153.5t70 -83t122 -25.5t122 25.5t70 83t23 153.5t-23 153.5z" />
    <glyph glyph-name="uni1EE1" unicode="&#x1ee1;" horiz-adv-x="658" 
d="M289 561q-17 7 -34.5 12.5t-30.5 5.5q-53 0 -83 -35v63q12 13 35.5 21.5t47.5 8.5q19 0 36.5 -5t39.5 -15q25 -10 38.5 -14t29.5 -4q51 0 77 36v-64q-10 -14 -31 -22t-46 -8q-29 0 -79 20zM471 415q39 1 59.5 12.5t28.5 37t8 71.5h71q0 -88 -33 -130t-100 -51
q19 -48 19 -118q0 -123 -57.5 -185t-179.5 -62t-179.5 62t-57.5 185q0 247 237 247q124 0 184 -69zM406.5 102q35.5 42 35.5 135t-36 135t-119 42t-119 -42t-36 -135t35.5 -135t119.5 -42t119.5 42z" />
    <glyph glyph-name="uni1EE2" unicode="&#x1ee2;" horiz-adv-x="760" 
d="M571.5 70q-72.5 -80 -224.5 -80t-224.5 80t-72.5 252t72.5 252t224.5 80t225 -80q39 1 59.5 11t29 34t8.5 69h71q0 -87 -31.5 -128t-96.5 -50q32 -75 32 -188q0 -172 -72.5 -252zM539 475.5q-23 57.5 -70 83t-122 25.5t-122 -25.5t-70 -83t-23 -153.5t23 -153.5t70 -83
t122 -25.5t122 25.5t70 83t23 153.5t-23 153.5zM311 -87h80v-77h-80v77z" />
    <glyph glyph-name="uni1EE3" unicode="&#x1ee3;" horiz-adv-x="658" 
d="M471 415q39 1 59.5 12.5t28.5 37t8 71.5h71q0 -88 -33 -130t-100 -51q19 -48 19 -118q0 -123 -57.5 -185t-179.5 -62t-179.5 62t-57.5 185q0 247 237 247q124 0 184 -69zM406.5 102q35.5 42 35.5 135t-36 135t-119 42t-119 -42t-36 -135t35.5 -135t119.5 -42t119.5 42z
M248 -87h80v-77h-80v77z" />
    <glyph glyph-name="uni1EE4" unicode="&#x1ee4;" horiz-adv-x="671" 
d="M475.5 104q48.5 44 48.5 131v409h82v-408q0 -120 -69.5 -183t-200.5 -63q-132 0 -201.5 63t-69.5 183v408h82v-409q0 -87 49 -131t140 -44t139.5 44zM295 -87h80v-77h-80v77z" />
    <glyph glyph-name="uni1EE5" unicode="&#x1ee5;" horiz-adv-x="570" 
d="M147 474v-303q0 -59 29.5 -87t91.5 -28q44 0 83 16t67 44v358h82v-474h-74l-5 54q-36 -29 -83.5 -46.5t-100.5 -17.5q-85 0 -128.5 47t-43.5 137v300h82zM235 -87h80v-77h-80v77z" />
    <glyph glyph-name="uni1EE6" unicode="&#x1ee6;" horiz-adv-x="671" 
d="M434 765q-20 -22 -69 -29v-48h-66v83q39 2 59 7.5t27 15.5t7 29q0 24 -18.5 34.5t-59.5 10.5q-16 0 -34.5 -3.5t-31.5 -8.5v51q15 6 39 9.5t46 3.5q59 0 90 -24t31 -67q0 -42 -20 -64zM475.5 104q48.5 44 48.5 131v409h82v-408q0 -120 -69.5 -183t-200.5 -63
q-132 0 -201.5 63t-69.5 183v408h82v-409q0 -87 49 -131t140 -44t139.5 44z" />
    <glyph glyph-name="uni1EE7" unicode="&#x1ee7;" horiz-adv-x="570" 
d="M382 599q-20 -22 -69 -29v-48h-66v83q39 2 59 7.5t27 15.5t7 29q0 24 -18.5 34.5t-59.5 10.5q-16 0 -34.5 -3.5t-31.5 -8.5v51q15 6 39 9.5t46 3.5q59 0 90 -24t31 -67q0 -42 -20 -64zM147 474v-303q0 -59 29.5 -87t91.5 -28q44 0 83 16t67 44v358h82v-474h-74l-5 54
q-36 -29 -83.5 -46.5t-100.5 -17.5q-85 0 -128.5 47t-43.5 137v300h82z" />
    <glyph glyph-name="uni1EE8" unicode="&#x1ee8;" horiz-adv-x="805" 
d="M381 856h74l-79 -168h-66zM475.5 104q48.5 44 48.5 131v409h82v-75q39 1 60 11.5t29.5 36t8.5 71.5h71q0 -99 -41 -140.5t-128 -42.5v-269q0 -120 -69.5 -183t-200.5 -63q-132 0 -201.5 63t-69.5 183v408h82v-409q0 -87 49 -131t140 -44t139.5 44z" />
    <glyph glyph-name="uni1EE9" unicode="&#x1ee9;" horiz-adv-x="683" 
d="M327 690h74l-79 -168h-66zM147 474v-303q0 -59 29.5 -87t91.5 -28q44 0 83 16t67 44v358h82v-59q48 4 65 30.5t17 90.5h71q0 -90 -39.5 -135t-113.5 -46v-355h-74l-5 54q-36 -29 -83.5 -46.5t-100.5 -17.5q-85 0 -128.5 47t-43.5 137v300h82z" />
    <glyph glyph-name="uni1EEA" unicode="&#x1eea;" horiz-adv-x="805" 
d="M233 856h74l71 -168h-66zM475.5 104q48.5 44 48.5 131v409h82v-75q39 1 60 11.5t29.5 36t8.5 71.5h71q0 -99 -41 -140.5t-128 -42.5v-269q0 -120 -69.5 -183t-200.5 -63q-132 0 -201.5 63t-69.5 183v408h82v-409q0 -87 49 -131t140 -44t139.5 44z" />
    <glyph glyph-name="uni1EEB" unicode="&#x1eeb;" horiz-adv-x="683" 
d="M184 690h74l71 -168h-66zM147 474v-303q0 -59 29.5 -87t91.5 -28q44 0 83 16t67 44v358h82v-59q48 4 65 30.5t17 90.5h71q0 -90 -39.5 -135t-113.5 -46v-355h-74l-5 54q-36 -29 -83.5 -46.5t-100.5 -17.5q-85 0 -128.5 47t-43.5 137v300h82z" />
    <glyph glyph-name="uni1EEC" unicode="&#x1eec;" horiz-adv-x="805" 
d="M443 765q-20 -22 -69 -29v-48h-66v83q39 2 59 7.5t27 15.5t7 29q0 24 -18.5 34.5t-59.5 10.5q-16 0 -34.5 -3.5t-31.5 -8.5v51q15 6 39 9.5t46 3.5q59 0 90 -24t31 -67q0 -42 -20 -64zM475.5 104q48.5 44 48.5 131v409h82v-75q39 1 60 11.5t29.5 36t8.5 71.5h71
q0 -99 -41 -140.5t-128 -42.5v-269q0 -120 -69.5 -183t-200.5 -63q-132 0 -201.5 63t-69.5 183v408h82v-409q0 -87 49 -131t140 -44t139.5 44z" />
    <glyph glyph-name="uni1EED" unicode="&#x1eed;" horiz-adv-x="683" 
d="M389 599q-20 -22 -69 -29v-48h-66v83q39 2 59 7.5t27 15.5t7 29q0 24 -18.5 34.5t-59.5 10.5q-16 0 -34.5 -3.5t-31.5 -8.5v51q15 6 39 9.5t46 3.5q59 0 90 -24t31 -67q0 -42 -20 -64zM147 474v-303q0 -59 29.5 -87t91.5 -28q44 0 83 16t67 44v358h82v-59q48 4 65 30.5
t17 90.5h71q0 -90 -39.5 -135t-113.5 -46v-355h-74l-5 54q-36 -29 -83.5 -46.5t-100.5 -17.5q-85 0 -128.5 47t-43.5 137v300h82z" />
    <glyph glyph-name="uni1EEE" unicode="&#x1eee;" horiz-adv-x="805" 
d="M330 727q-17 7 -34.5 12.5t-30.5 5.5q-53 0 -83 -35v63q12 13 35.5 21.5t47.5 8.5q19 0 36.5 -5t39.5 -15q25 -10 38.5 -14t29.5 -4q51 0 77 36v-64q-10 -14 -31 -22t-46 -8q-29 0 -79 20zM475.5 104q48.5 44 48.5 131v409h82v-75q39 1 60 11.5t29.5 36t8.5 71.5h71
q0 -99 -41 -140.5t-128 -42.5v-269q0 -120 -69.5 -183t-200.5 -63q-132 0 -201.5 63t-69.5 183v408h82v-409q0 -87 49 -131t140 -44t139.5 44z" />
    <glyph glyph-name="uni1EEF" unicode="&#x1eef;" horiz-adv-x="683" 
d="M288 561q-17 7 -34.5 12.5t-30.5 5.5q-53 0 -83 -35v63q12 13 35.5 21.5t47.5 8.5q19 0 36.5 -5t39.5 -15q25 -10 38.5 -14t29.5 -4q51 0 77 36v-64q-10 -14 -31 -22t-46 -8q-29 0 -79 20zM147 474v-303q0 -59 29.5 -87t91.5 -28q44 0 83 16t67 44v358h82v-59
q48 4 65 30.5t17 90.5h71q0 -90 -39.5 -135t-113.5 -46v-355h-74l-5 54q-36 -29 -83.5 -46.5t-100.5 -17.5q-85 0 -128.5 47t-43.5 137v300h82z" />
    <glyph glyph-name="uni1EF0" unicode="&#x1ef0;" horiz-adv-x="805" 
d="M475.5 104q48.5 44 48.5 131v409h82v-75q39 1 60 11.5t29.5 36t8.5 71.5h71q0 -99 -41 -140.5t-128 -42.5v-269q0 -120 -69.5 -183t-200.5 -63q-132 0 -201.5 63t-69.5 183v408h82v-409q0 -87 49 -131t140 -44t139.5 44zM293 -87h80v-77h-80v77z" />
    <glyph glyph-name="uni1EF1" unicode="&#x1ef1;" horiz-adv-x="683" 
d="M147 474v-303q0 -59 29.5 -87t91.5 -28q44 0 83 16t67 44v358h82v-59q48 4 65 30.5t17 90.5h71q0 -90 -39.5 -135t-113.5 -46v-355h-74l-5 54q-36 -29 -83.5 -46.5t-100.5 -17.5q-85 0 -128.5 47t-43.5 137v300h82zM241 -87h80v-77h-80v77z" />
    <glyph glyph-name="Ygrave" unicode="&#x1ef2;" horiz-adv-x="642" 
d="M222 856h74l71 -168h-66zM280 240l-230 404h85l186 -334l186 334h85l-230 -404v-240h-82v240z" />
    <glyph glyph-name="ygrave" unicode="&#x1ef3;" horiz-adv-x="584" 
d="M195 690h74l71 -168h-66zM135 474l165 -382l170 382h84l-199 -453q-29 -67 -54 -108t-59.5 -65t-82.5 -24q-47 0 -82 13v66q28 -10 61 -10t52.5 11.5t33.5 33t35 67.5l-209 469h85z" />
    <glyph glyph-name="uni1EF4" unicode="&#x1ef4;" horiz-adv-x="642" 
d="M280 240l-230 404h85l186 -334l186 334h85l-230 -404v-240h-82v240zM281 -72h80v-77h-80v77z" />
    <glyph glyph-name="uni1EF5" unicode="&#x1ef5;" horiz-adv-x="584" 
d="M135 474l165 -382l170 382h84l-199 -453q-29 -67 -54 -108t-59.5 -65t-82.5 -24q-47 0 -82 13v66q28 -10 61 -10t52.5 11.5t33.5 33t35 67.5l-209 469h85zM389 -72h80v-77h-80v77z" />
    <glyph glyph-name="uni1EF6" unicode="&#x1ef6;" horiz-adv-x="642" 
d="M414 765q-20 -22 -69 -29v-48h-66v83q39 2 59 7.5t27 15.5t7 29q0 24 -18.5 34.5t-59.5 10.5q-16 0 -34.5 -3.5t-31.5 -8.5v51q15 6 39 9.5t46 3.5q59 0 90 -24t31 -67q0 -42 -20 -64zM280 240l-230 404h85l186 -334l186 334h85l-230 -404v-240h-82v240z" />
    <glyph glyph-name="uni1EF7" unicode="&#x1ef7;" horiz-adv-x="584" 
d="M404 599q-20 -22 -69 -29v-48h-66v83q39 2 59 7.5t27 15.5t7 29q0 24 -18.5 34.5t-59.5 10.5q-16 0 -34.5 -3.5t-31.5 -8.5v51q15 6 39 9.5t46 3.5q59 0 90 -24t31 -67q0 -42 -20 -64zM135 474l165 -382l170 382h84l-199 -453q-29 -67 -54 -108t-59.5 -65t-82.5 -24
q-47 0 -82 13v66q28 -10 61 -10t52.5 11.5t33.5 33t35 67.5l-209 469h85z" />
    <glyph glyph-name="uni1EF8" unicode="&#x1ef8;" horiz-adv-x="642" 
d="M317 728q-17 7 -34.5 12.5t-30.5 5.5q-53 0 -83 -35v63q12 13 35.5 21.5t47.5 8.5q19 0 36.5 -5t39.5 -15q25 -10 38.5 -14t29.5 -4q51 0 77 36v-64q-10 -14 -31 -22t-46 -8q-29 0 -79 20zM280 240l-230 404h85l186 -334l186 334h85l-230 -404v-240h-82v240z" />
    <glyph glyph-name="uni1EF9" unicode="&#x1ef9;" horiz-adv-x="584" 
d="M296 562q-17 7 -34.5 12.5t-30.5 5.5q-53 0 -83 -35v63q12 13 35.5 21.5t47.5 8.5q19 0 36.5 -5t39.5 -15q25 -10 38.5 -14t29.5 -4q51 0 77 36v-64q-10 -14 -31 -22t-46 -8q-29 0 -79 20zM135 474l165 -382l170 382h84l-199 -453q-29 -67 -54 -108t-59.5 -65t-82.5 -24
q-47 0 -82 13v66q28 -10 61 -10t52.5 11.5t33.5 33t35 67.5l-209 469h85z" />
    <glyph glyph-name="uni2007" unicode="&#x2007;" 
 />
    <glyph glyph-name="uni2010" unicode="&#x2010;" horiz-adv-x="510" 
d="M460 236h-410v65h410v-65z" />
    <glyph glyph-name="figuredash" unicode="&#x2012;" horiz-adv-x="613" 
d="M563 236h-513v65h513v-65z" />
    <glyph glyph-name="endash" unicode="&#x2013;" horiz-adv-x="585" 
d="M535 236h-485v65h485v-65z" />
    <glyph glyph-name="emdash" unicode="&#x2014;" horiz-adv-x="877" 
d="M827 236h-777v65h777v-65z" />
    <glyph glyph-name="uni2015" unicode="&#x2015;" horiz-adv-x="924" 
d="M874 236h-824v65h824v-65z" />
    <glyph glyph-name="quoteleft" unicode="&#x2018;" horiz-adv-x="224" 
d="M125 471h-75l62 183h62z" />
    <glyph glyph-name="quoteright" unicode="&#x2019;" horiz-adv-x="224" 
d="M99 654h75l-62 -183h-62z" />
    <glyph glyph-name="quotesinglbase" unicode="&#x201a;" horiz-adv-x="224" 
d="M99 33h75l-62 -183h-62z" />
    <glyph glyph-name="quotedblleft" unicode="&#x201c;" horiz-adv-x="355" 
d="M120 471h-70l62 183h57zM256 471h-69l62 183h56z" />
    <glyph glyph-name="quotedblright" unicode="&#x201d;" horiz-adv-x="355" 
d="M100 654h69l-62 -183h-57zM236 654h69l-62 -183h-56z" />
    <glyph glyph-name="quotedblbase" unicode="&#x201e;" horiz-adv-x="355" 
d="M100 64h69l-62 -183h-57zM236 64h69l-62 -183h-56z" />
    <glyph glyph-name="dagger" unicode="&#x2020;" horiz-adv-x="555" 
d="M319 0h-81l3 433l-191 -2v64l191 -2l-4 207h83l-4 -207l189 2v-64l-189 2z" />
    <glyph glyph-name="daggerdbl" unicode="&#x2021;" horiz-adv-x="555" 
d="M505 258v-63l-189 1l3 -196h-81l3 196l-191 -1v63l191 -2l-4 94l4 93l-191 -1v63l191 -2l-4 197h83l-4 -197l189 2v-63l-189 1l4 -93l-4 -94z" />
    <glyph glyph-name="bullet" unicode="&#x2022;" horiz-adv-x="339" 
d="M85 372q35 35 84 35q50 0 85 -35t35 -85t-35 -84.5t-85 -34.5t-84.5 34.5t-34.5 84.5t35 85z" />
    <glyph glyph-name="ellipsis" unicode="&#x2026;" horiz-adv-x="557" 
d="M50 67h72v-67h-72v67zM243 67h71v-67h-71v67zM436 67h71v-67h-71v67z" />
    <glyph glyph-name="perthousand" unicode="&#x2030;" horiz-adv-x="1023" 
d="M290.5 614q34.5 -40 34.5 -111q0 -63 -35 -100.5t-102 -37.5q-68 0 -103 37.5t-35 100.5q0 71 35 111t103 40t102.5 -40zM488 644h77l-342 -644h-77zM249 441.5q19 21.5 19 62.5q0 49 -19 71.5t-61 22.5t-61 -22.5t-19 -71.5q0 -41 19 -62.5t61 -21.5t61 21.5zM628.5 239
q34.5 -40 34.5 -111q0 -63 -35 -100.5t-102 -37.5q-68 0 -103 37.5t-35 100.5q0 71 35 111t103 40t102.5 -40zM938.5 239q34.5 -40 34.5 -111q0 -63 -35 -100.5t-102 -37.5q-68 0 -103 37.5t-35 100.5q0 71 35 111t103 40t102.5 -40zM587 66.5q19 21.5 19 62.5
q0 49 -19 71.5t-61 22.5t-61 -22.5t-19 -71.5q0 -41 19 -62.5t61 -21.5t61 21.5zM897 66.5q19 21.5 19 62.5q0 49 -19 71.5t-61 22.5t-61 -22.5t-19 -71.5q0 -41 19 -62.5t61 -21.5t61 21.5z" />
    <glyph glyph-name="minute" unicode="&#x2032;" horiz-adv-x="174" 
d="M50 644h74l-13 -177h-61v177z" />
    <glyph glyph-name="second" unicode="&#x2033;" horiz-adv-x="321" 
d="M50 644h74l-13 -177h-61v177zM197 644h74l-13 -177h-61v177z" />
    <glyph glyph-name="guilsinglleft" unicode="&#x2039;" horiz-adv-x="387" 
d="M304 80l-254 187v39l254 187l33 -48l-213 -159l213 -158z" />
    <glyph glyph-name="guilsinglright" unicode="&#x203a;" horiz-adv-x="387" 
d="M50 445l33 48l254 -187v-39l-254 -187l-33 48l213 158z" />
    <glyph glyph-name="fraction" unicode="&#x2044;" horiz-adv-x="138" 
d="M186 662h82l-315 -662h-83z" />
    <glyph glyph-name="uni2070" unicode="&#x2070;" horiz-adv-x="360" 
d="M83 399q-33 37 -33 103q0 152 130 152t130 -152q0 -66 -32 -103t-98 -37q-64 0 -97 37zM236.5 432.5q16.5 23.5 16.5 69.5q0 55 -15.5 80t-57.5 25q-41 0 -57 -25.5t-16 -79.5q0 -45 17 -69t56 -24q40 0 56.5 23.5z" />
    <glyph glyph-name="uni2074" unicode="&#x2074;" horiz-adv-x="298" 
d="M237 370h-57v58h-150v43l143 183h64v-183h31v-43h-31v-58zM86 472h105v136z" />
    <glyph glyph-name="uni2075" unicode="&#x2075;" horiz-adv-x="303" 
d="M222 386q-31 -24 -92 -24q-22 0 -44.5 3t-35.5 8v48q28 -12 71 -12q39 0 56 9.5t17 34.5q0 26 -13 35t-50 9h-80v40l7 107h175l-3 -47h-122l-3 -58h48q100 0 100 -87q0 -42 -31 -66z" />
    <glyph glyph-name="uni2076" unicode="&#x2076;" horiz-adv-x="323" 
d="M246 387q-27 -25 -82 -25t-84.5 26.5t-29.5 81.5v66q0 55 33.5 86.5t90.5 31.5q42 0 72 -10v-46q-25 9 -69 9q-38 0 -57 -16.5t-19 -46.5v-18q32 25 74 25q53 0 75.5 -23t22.5 -71q0 -45 -27 -70zM208.5 496q-11.5 11 -44.5 11q-32 0 -63 -24v-22q0 -29 14.5 -42
t47.5 -13q32 0 44.5 12t12.5 39q0 28 -11.5 39z" />
    <glyph glyph-name="uni2077" unicode="&#x2077;" horiz-adv-x="289" 
d="M90 370l96 226h-146v48h209v-44l-98 -230h-61z" />
    <glyph glyph-name="uni2078" unicode="&#x2078;" horiz-adv-x="331" 
d="M244.5 633q28.5 -21 28.5 -57q0 -23 -9.5 -39.5t-34.5 -28.5q29 -10 40.5 -26t11.5 -41q0 -37 -31.5 -58t-83.5 -21t-84 21t-32 58q0 51 50 70q-42 18 -42 65q0 36 29 57t79 21t78.5 -21zM211 544.5q8 9.5 8 30.5q0 20 -14 29.5t-39 9.5q-54 0 -54 -39q0 -17 8 -27.5
t27 -14.5l30 -6q26 8 34 17.5zM210 411.5q16 10.5 16 30.5q0 18 -9.5 27t-35.5 15l-30 7q-24 -7 -34.5 -17t-10.5 -31t15.5 -31.5t44.5 -10.5q28 0 44 10.5z" />
    <glyph glyph-name="uni2079" unicode="&#x2079;" horiz-adv-x="323" 
d="M77 629q27 25 82 25t84.5 -26.5t29.5 -81.5v-66q0 -55 -33.5 -86.5t-90.5 -31.5q-42 0 -72 10v46q26 -9 69 -9q38 0 57 16.5t19 46.5v18q-32 -25 -74 -25q-53 0 -75.5 23t-22.5 71q0 45 27 70zM114.5 520q11.5 -11 44.5 -11q32 0 63 24v22q0 29 -14.5 42t-47.5 13
q-32 0 -44.5 -12t-12.5 -39q0 -28 11.5 -39z" />
    <glyph glyph-name="uni207D" unicode="&#x207d;" horiz-adv-x="219" 
d="M64.5 603q14.5 45 41.5 73h63q-32 -32 -47 -74t-15 -88q0 -47 15 -89t47 -73h-63q-27 27 -41.5 72.5t-14.5 89.5t14.5 89z" />
    <glyph glyph-name="uni207E" unicode="&#x207e;" horiz-adv-x="219" 
d="M154.5 424q-14.5 -45 -41.5 -72h-63q32 31 47.5 73t15.5 89q0 46 -15.5 88t-47.5 74h63q27 -28 41.5 -72.5t14.5 -89.5t-14.5 -90z" />
    <glyph glyph-name="uni207F" unicode="&#x207f;" horiz-adv-x="362" 
d="M257 386v161q0 36 -13 49t-50 13q-23 0 -45 -9.5t-38 -25.5v-188h-56v262h52l2 -29q22 17 47 25.5t58 8.5q46 0 72 -23.5t26 -70.5v-173h-55z" />
    <glyph glyph-name="uni2080" unicode="&#x2080;" horiz-adv-x="360" 
d="M83 -91q-33 37 -33 103q0 152 130 152t130 -152q0 -66 -32 -103t-98 -37q-64 0 -97 37zM236.5 -57.5q16.5 23.5 16.5 69.5q0 55 -15.5 80t-57.5 25q-41 0 -57 -25.5t-16 -79.5q0 -45 17 -69t56 -24q40 0 56.5 23.5z" />
    <glyph glyph-name="uni2081" unicode="&#x2081;" horiz-adv-x="212" 
d="M124 108l-74 -16v46l132 26v-284h-58v228z" />
    <glyph glyph-name="uni2082" unicode="&#x2082;" horiz-adv-x="300" 
d="M50 -88q13 22 31.5 40.5t47.5 42.5q35 29 47.5 46.5t12.5 37.5q0 21 -13 29.5t-45 8.5q-33 0 -72 -14v47q44 14 88 14q47 0 74 -24t27 -61q0 -28 -12 -46t-45 -49q-13 -13 -25 -22q-25 -21 -36 -35h120v-47h-200v32z" />
    <glyph glyph-name="uni2083" unicode="&#x2083;" horiz-adv-x="303" 
d="M133 -128q-22 0 -46 3.5t-37 8.5v45q33 -13 71 -13q39 0 55 9.5t16 32.5q0 22 -16 31.5t-49 9.5h-37l3 41h31q33 0 47.5 10t14.5 33q0 20 -15 28t-49 8q-33 0 -67 -12v45q14 5 36.5 8.5t43.5 3.5q112 0 112 -78q0 -23 -11 -41t-34 -26q51 -11 51 -63q0 -84 -120 -84z" />
    <glyph glyph-name="uni2084" unicode="&#x2084;" horiz-adv-x="298" 
d="M237 -120h-57v58h-150v43l143 183h64v-183h31v-43h-31v-58zM86 -18h105v136z" />
    <glyph glyph-name="uni2085" unicode="&#x2085;" horiz-adv-x="303" 
d="M222 -104q-31 -24 -92 -24q-22 0 -44.5 3t-35.5 8v48q28 -12 71 -12q39 0 56 9.5t17 34.5q0 26 -13 35t-50 9h-80v40l7 107h175l-3 -47h-122l-3 -58h48q100 0 100 -87q0 -42 -31 -66z" />
    <glyph glyph-name="uni2086" unicode="&#x2086;" horiz-adv-x="323" 
d="M246 -103q-27 -25 -82 -25t-84.5 26.5t-29.5 81.5v66q0 55 33.5 86.5t90.5 31.5q42 0 72 -10v-46q-26 9 -69 9q-38 0 -57 -16.5t-19 -46.5v-18q32 25 74 25q53 0 75.5 -23t22.5 -71q0 -45 -27 -70zM208.5 6q-11.5 11 -44.5 11q-32 0 -63 -24v-22q0 -29 14.5 -42t47.5 -13
q32 0 44.5 12t12.5 39q0 28 -11.5 39z" />
    <glyph glyph-name="uni2087" unicode="&#x2087;" horiz-adv-x="289" 
d="M90 -120l96 226h-146v48h209v-44l-98 -230h-61z" />
    <glyph glyph-name="uni2088" unicode="&#x2088;" horiz-adv-x="331" 
d="M244.5 143q28.5 -21 28.5 -57q0 -23 -9.5 -39.5t-34.5 -28.5q29 -10 40.5 -26t11.5 -41q0 -37 -31.5 -58t-83.5 -21t-84 21t-32 58q0 51 50 70q-42 18 -42 65q0 36 29 57t79 21t78.5 -21zM211 54.5q8 9.5 8 30.5q0 20 -14 29.5t-39 9.5q-54 0 -54 -39q0 -17 8 -27.5
t27 -14.5l30 -6q26 8 34 17.5zM210 -78.5q16 10.5 16 30.5q0 18 -9.5 27t-35.5 15l-30 7q-24 -7 -34.5 -17t-10.5 -31t15.5 -31.5t44.5 -10.5q28 0 44 10.5z" />
    <glyph glyph-name="uni2089" unicode="&#x2089;" horiz-adv-x="323" 
d="M77 139q27 25 82 25t84.5 -26.5t29.5 -81.5v-66q0 -55 -33.5 -86.5t-90.5 -31.5q-42 0 -72 10v46q26 -9 69 -9q38 0 57 16.5t19 46.5v18q-32 -25 -74 -25q-53 0 -75.5 23t-22.5 71q0 45 27 70zM114.5 30q11.5 -11 44.5 -11q32 0 63 24v22q0 29 -14.5 42t-47.5 13
q-32 0 -44.5 -12t-12.5 -39q0 -28 11.5 -39z" />
    <glyph glyph-name="uni208D" unicode="&#x208d;" horiz-adv-x="219" 
d="M64.5 105q14.5 45 41.5 73h63q-32 -32 -47 -74t-15 -88q0 -47 15 -89t47 -73h-63q-27 27 -41.5 72.5t-14.5 89.5t14.5 89z" />
    <glyph glyph-name="uni208E" unicode="&#x208e;" horiz-adv-x="219" 
d="M154.5 -73.5q-14.5 -45.5 -41.5 -72.5h-63q32 31 47 73t15 89q0 46 -15 88t-47 74h63q27 -28 41.5 -73t14.5 -89t-14.5 -89.5z" />
    <glyph glyph-name="colonmonetary" unicode="&#x20a1;" horiz-adv-x="595" 
d="M156 81q-106 70 -106 227q0 270 240 301l16 62h69l-15 -57q14 0 32 -1t27 -2l15 60h69l-18 -70q29 -5 60 -17v-72q-32 12 -77 22l-111 -434h10q101 0 178 29v-73q-84 -26 -186 -26h-20l-15 -61h-68l17 68q-28 4 -56 14l-21 -82h-68zM290 106l111 437q-12 1 -36 1
q-15 0 -23 -1l-107 -421q21 -9 55 -16zM177 163l94 370q-74 -20 -106.5 -75.5t-32.5 -149.5q0 -96 45 -145z" />
    <glyph glyph-name="lira" unicode="&#x20a4;" horiz-adv-x="503" 
d="M211 94.5q-6 -18.5 -21 -29.5h263v-65h-403v65h26q59 0 59 71v56h-70v65h70v74h-70v65h70v101q0 73 47.5 115t122.5 42q70 0 111 -19v-63q-14 7 -39 11.5t-48 4.5q-57 0 -84.5 -22t-27.5 -73v-97h198l-3 -65h-195v-74h198l-3 -65h-195v-52q0 -27 -6 -45.5z" />
    <glyph glyph-name="uni20A6" unicode="&#x20a6;" horiz-adv-x="652" 
d="M108 644h75l120 -220h160v220h82v-220h57v-66h-57v-89h57v-67h-57v-202h-75l-111 202h-169v-202h-82v202h-58v67h58v89h-58v66h58v220zM238 424l-48 89v-89h48zM323 269l-49 89h-84v-89h133zM463 269v89h-124l48 -89h76zM463 202h-39l39 -72v72z" />
    <glyph glyph-name="peseta" unicode="&#x20a7;" horiz-adv-x="1151" 
d="M399.5 286.5q-57.5 -55.5 -156.5 -55.5h-91v-231h-82v644h177q104 0 157 -56.5t53 -151.5q0 -94 -57.5 -149.5zM340.5 334q37.5 37 37.5 102q0 69 -35.5 105.5t-105.5 36.5h-85v-281h80q71 0 108.5 37zM1008 160.5q-11 13.5 -31.5 23t-64.5 23.5l-27 9q-50 17 -78.5 31.5
t-45.5 40t-17 66.5q0 64 45 97t141 33q74 0 134 -19v-68q-57 21 -121 21q-62 0 -89.5 -14.5t-27.5 -48.5q0 -23 11.5 -36t33 -21.5t75.5 -25.5q59 -18 91.5 -36t48 -44t15.5 -67q0 -135 -188 -135q-45 0 -87 6t-70 16v69q68 -24 146 -24q64 0 90.5 15t26.5 52q0 23 -11 36.5
zM510 332v122l81 20v-142h132l-3 -63h-129v-134q0 -85 88 -85q27 0 57 11v-57q-39 -14 -86 -14q-68 0 -104 37t-36 105v137h-66v63h66z" />
    <glyph glyph-name="dong" unicode="&#x20ab;" horiz-adv-x="595" 
d="M423 674h82v-65h60v-65h-60v-544h-70l-6 50q-33 -31 -72.5 -45.5t-92.5 -14.5q-103 0 -158.5 60t-55.5 186q0 125 56 186.5t159 61.5q93 0 158 -45v105h-173v65h173v65zM169.5 375q-37.5 -43 -37.5 -139q0 -94 35.5 -137t117.5 -43q85 0 138 57v258q-53 47 -136 47
q-80 0 -117.5 -43zM519 -120h-417v65h417v-65z" />
    <glyph glyph-name="Euro" unicode="&#x20ac;" horiz-adv-x="594" 
d="M192.5 592.5q64.5 61.5 189.5 61.5q52 0 90.5 -7t81.5 -23v-71q-42 16 -79.5 23.5t-86.5 7.5q-92 0 -137 -42t-58 -126h243v-57h-249q-1 -17 -1 -53q0 -37 2 -54h248v-57h-239q16 -68 62.5 -101.5t131.5 -33.5q46 0 84.5 6.5t78.5 20.5v-71q-45 -13 -82 -19.5t-89 -6.5
q-225 0 -269 205h-74v57h66q-2 34 -2 54q0 36 1 53h-65v57h71q17 115 81.5 176.5z" />
    <glyph glyph-name="uni20B1" unicode="&#x20b1;" horiz-adv-x="604" 
d="M66 468h-36v63h36v113h257q74 0 123 -30t70 -83h58v-63h-43q2 -22 2 -32q0 -11 -2 -29h43v-63h-59q-23 -53 -74 -82t-122 -29h-171v-233h-82v344h-36v63h36v61zM425 531q-36 48 -114 48h-163v-48h277zM449 468h-301v-61h300q3 14 3 29q0 12 -2 32zM423 344h-275v-47h158
q79 0 117 47z" />
    <glyph glyph-name="uni20B2" unicode="&#x20b2;" horiz-adv-x="639" 
d="M321 -8q-134 10 -202.5 93.5t-68.5 222.5q0 154 66 243.5t205 100.5v83h64v-82q83 -3 160 -29v-72q-75 28 -160 31v-236h204v-306q-72 -46 -204 -50v-111h-64v112zM321 62v519q-101 -12 -145 -81t-44 -192q0 -225 189 -246zM385 60q74 3 133 26v205h-133v-231z" />
    <glyph glyph-name="uni20B5" unicode="&#x20b5;" horiz-adv-x="595" 
d="M321 -8q-134 10 -202.5 93.5t-68.5 222.5q0 154 66 243.5t205 100.5v83h64v-82q83 -3 160 -29v-72q-75 28 -160 31v-523q87 2 160 29v-73q-73 -22 -160 -25v-111h-64v112zM321 62v519q-101 -12 -145 -81t-44 -192q0 -223 189 -246z" />
    <glyph glyph-name="uni20B9" unicode="&#x20b9;" horiz-adv-x="449" 
d="M210 563.5q-36 22.5 -95 22.5h-65v58h349v-58h-122q26 -16 40 -37.5t19 -54.5h63v-57h-61q-4 -136 -155 -163q27 -16 37.5 -29t23.5 -45l84 -200h-84l-82 194q-15 36 -37.5 50t-74.5 14v57h49q74 0 115.5 27t42.5 95h-206v57h204q-9 47 -45 69.5z" />
    <glyph glyph-name="uni20BA" unicode="&#x20ba;" horiz-adv-x="579" 
d="M224 64q115 2 169 59t54 172v31h82v-35q0 -142 -82 -216.5t-238 -74.5h-67v302l-92 -30v59l92 30v74l-92 -30v59l92 30v150h82v-124l195 65v-59l-195 -64v-75l195 65v-59l-195 -64v-265z" />
    <glyph glyph-name="uni20BD" unicode="&#x20bd;" horiz-adv-x="638" 
d="M111 644h267q105 0 157.5 -53t52.5 -147q0 -93 -58 -145t-158 -52h-179v-75h135v-64h-135v-108h-82v108h-61v64h61v75h-61v64h61v333zM469.5 344q36.5 33 36.5 97q0 138 -140 138h-173v-268h168q72 0 108.5 33z" />
    <glyph glyph-name="uni210A" unicode="&#x210a;" horiz-adv-x="575" 
d="M265 0q-215 0 -215 241q0 243 214 243q53 0 92.5 -14.5t72.5 -45.5l6 50h70v-465q0 -84 -61.5 -134.5t-170.5 -50.5q-27 0 -64 3t-55 7v70q20 -6 50 -9t55 -3q77 0 120.5 25.5t43.5 80.5v47q-65 -45 -158 -45zM423 113v248q-53 57 -138 57q-83 0 -118 -41.5t-35 -135.5
q0 -95 37 -135t118 -40q83 0 136 47z" />
    <glyph glyph-name="uni2113" unicode="&#x2113;" horiz-adv-x="394" 
d="M107 389v186q0 88 31 131.5t102 43.5q62 0 92.5 -41.5t30.5 -107.5q0 -88 -45.5 -146t-130.5 -106v-219q0 -39 13 -59t43 -20q32 0 45 17.5t13 57.5h63q0 -65 -27.5 -100.5t-97.5 -35.5q-72 0 -102 40.5t-30 113.5v177q-49 -19 -77 -26v65q44 10 77 29zM268.5 498.5
q28.5 40.5 28.5 97.5q0 90 -59 90q-33 0 -46.5 -22.5t-13.5 -69.5v-174q62 38 90.5 78.5z" />
    <glyph glyph-name="uni2117" unicode="&#x2117;" horiz-adv-x="764" 
d="M94.5 488.5q44.5 76.5 121 121t166.5 44.5t166.5 -44.5t121 -121t44.5 -166.5t-44.5 -166.5t-121 -121t-166.5 -44.5t-166.5 44.5t-121 121t-44.5 166.5t44.5 166.5zM148 182q35 -62 96 -97t138 -35t138.5 35t96.5 97t35 140q0 77 -35 139t-96.5 97t-138.5 35t-138 -35
t-96 -97t-35 -139q0 -78 35 -140zM307 105h-62v429h198q67 0 105.5 -36t38.5 -96q0 -61 -39.5 -103t-104.5 -42h-136v-152zM499.5 331.5q26.5 19.5 26.5 70.5q0 45 -21 61t-70 16h-128v-167h111q55 0 81.5 19.5z" />
    <glyph glyph-name="uni2120" unicode="&#x2120;" horiz-adv-x="646" 
d="M195.5 465.5q-12.5 8.5 -53.5 22.5q-49 18 -70.5 36t-21.5 52q0 78 111 78q49 0 82 -11v-46q-36 12 -71 12t-50.5 -7.5t-15.5 -25.5q0 -16 13 -25t51 -22q47 -15 70 -34t23 -56q0 -42 -31 -60.5t-81 -18.5q-55 0 -93 12v46q36 -14 86 -14q33 0 48.5 7.5t15.5 27.5
q0 18 -12.5 26.5zM351 550v-188h-57v282h57l95 -181l94 181h56v-282h-57v188l-81 -167h-24z" />
    <glyph glyph-name="trademark" unicode="&#x2122;" horiz-adv-x="682" 
d="M208 362h-59v229h-99v53h256v-53h-98v-229zM387 550v-188h-57v282h57l95 -181l94 181h56v-282h-57v188l-81 -167h-24z" />
    <glyph glyph-name="uni2126" unicode="&#x2126;" horiz-adv-x="769" 
d="M252.5 592q-57.5 -33 -89 -92.5t-31.5 -136.5q0 -96 47.5 -171.5t141.5 -126.5v-65h-264v64h159q-77 48 -121.5 123.5t-44.5 175.5q0 95 40.5 170.5t116 118.5t178.5 43q102 0 177.5 -43t116 -118.5t40.5 -170.5q0 -101 -44 -176.5t-121 -122.5h158v-64h-263v65
q188 102 188 298q0 77 -31.5 136.5t-88.5 92.5t-132 33t-132.5 -33z" />
    <glyph glyph-name="estimated" unicode="&#x212e;" horiz-adv-x="783" 
d="M573 22q-68 -34 -170 -34q-98 0 -178.5 45t-127.5 122t-47 171q0 106 46.5 182.5t124.5 116t171 39.5q90 0 168.5 -41t125.5 -114.5t47 -165.5v-17h-542v-223q28 -36 87 -60t125 -24q91 0 148 26.5t107 96.5h37q-54 -86 -122 -120zM594 563q-31 32 -84 51.5t-118 19.5
q-128 0 -201 -70v-207h403v206z" />
    <glyph glyph-name="uni2153" unicode="&#x2153;" horiz-adv-x="639" 
d="M124 598l-74 -16v46l132 26v-284h-58v228zM442 644h77l-342 -644h-77zM469 -9q-22 0 -46 3.5t-37 8.5v45q33 -13 71 -13q39 0 55 9.5t16 32.5q0 22 -16 31.5t-49 9.5h-37l3 41h31q33 0 47.5 10t14.5 33q0 20 -15 28t-49 8q-33 0 -67 -12v45q14 5 36.5 8.5t43.5 3.5
q112 0 112 -78q0 -23 -11 -41t-34 -26q51 -11 51 -63q0 -84 -120 -84z" />
    <glyph glyph-name="uni2154" unicode="&#x2154;" horiz-adv-x="647" 
d="M50 402q13 22 31.5 40.5t47.5 42.5q35 29 47.5 46.5t12.5 37.5q0 21 -13 29.5t-45 8.5q-33 0 -72 -14v47q44 14 88 14q47 0 74 -24t27 -61q0 -28 -12 -46t-45 -49q-13 -13 -25 -22q-25 -21 -36 -35h120v-47h-200v32zM450 644h78l-343 -644h-77zM477 -9q-22 0 -46 3.5
t-37 8.5v45q33 -13 71 -13q39 0 55 9.5t16 32.5q0 22 -16 31.5t-49 9.5h-37l3 41h31q33 0 47.5 10t14.5 33q0 20 -15 28t-49 8q-33 0 -67 -12v45q14 5 36.5 8.5t43.5 3.5q112 0 112 -78q0 -23 -11 -41t-34 -26q51 -11 51 -63q0 -84 -120 -84z" />
    <glyph glyph-name="oneeighth" unicode="&#x215b;" horiz-adv-x="645" 
d="M124 598l-74 -16v46l132 26v-284h-58v228zM442 644h77l-342 -644h-77zM558.5 261q28.5 -21 28.5 -57q0 -23 -9.5 -39.5t-34.5 -28.5q29 -10 40.5 -26t11.5 -41q0 -37 -31.5 -58t-83.5 -21t-84 21t-32 58q0 51 50 70q-42 18 -42 65q0 36 29 57t79 21t78.5 -21zM525 172.5
q8 9.5 8 30.5q0 20 -14 29.5t-39 9.5q-54 0 -54 -39q0 -17 8 -27.5t27 -14.5l30 -6q26 8 34 17.5zM524 39.5q16 10.5 16 30.5q0 18 -9.5 27t-35.5 15l-30 7q-24 -7 -34.5 -17t-10.5 -31t15.5 -31.5t44.5 -10.5q28 0 44 10.5z" />
    <glyph glyph-name="threeeighths" unicode="&#x215c;" horiz-adv-x="645" 
d="M133 362q-22 0 -46 3.5t-37 8.5v45q33 -13 71 -13q39 0 55 9.5t16 32.5q0 22 -16 31.5t-49 9.5h-37l3 41h31q33 0 47.5 10t14.5 33q0 20 -15 28t-49 8q-33 0 -67 -12v45q14 5 36.5 8.5t43.5 3.5q112 0 112 -78q0 -23 -11 -41t-34 -26q51 -11 51 -63q0 -84 -120 -84z
M443 644h77l-342 -644h-77zM558.5 261q28.5 -21 28.5 -57q0 -23 -9.5 -39.5t-34.5 -28.5q29 -10 40.5 -26t11.5 -41q0 -37 -31.5 -58t-83.5 -21t-84 21t-32 58q0 51 50 70q-42 18 -42 65q0 36 29 57t79 21t78.5 -21zM525 172.5q8 9.5 8 30.5q0 20 -14 29.5t-39 9.5
q-54 0 -54 -39q0 -17 8 -27.5t27 -14.5l30 -6q26 8 34 17.5zM524 39.5q16 10.5 16 30.5q0 18 -9.5 27t-35.5 15l-30 7q-24 -7 -34.5 -17t-10.5 -31t15.5 -31.5t44.5 -10.5q28 0 44 10.5z" />
    <glyph glyph-name="fiveeighths" unicode="&#x215d;" horiz-adv-x="635" 
d="M222 386q-31 -24 -92 -24q-22 0 -44.5 3t-35.5 8v48q28 -12 71 -12q39 0 56 9.5t17 34.5q0 26 -13 35t-50 9h-80v40l7 107h175l-3 -47h-122l-3 -58h48q100 0 100 -87q0 -42 -31 -66zM432 644h78l-343 -644h-77zM548.5 261q28.5 -21 28.5 -57q0 -23 -9.5 -39.5
t-34.5 -28.5q29 -10 40.5 -26t11.5 -41q0 -37 -31.5 -58t-83.5 -21t-84 21t-32 58q0 51 50 70q-42 18 -42 65q0 36 29 57t79 21t78.5 -21zM515 172.5q8 9.5 8 30.5q0 20 -14 29.5t-39 9.5q-54 0 -54 -39q0 -17 8 -27.5t27 -14.5l30 -6q26 8 34 17.5zM514 39.5
q16 10.5 16 30.5q0 18 -9.5 27t-35.5 15l-30 7q-24 -7 -34.5 -17t-10.5 -31t15.5 -31.5t44.5 -10.5q28 0 44 10.5z" />
    <glyph glyph-name="seveneighths" unicode="&#x215e;" horiz-adv-x="647" 
d="M100 370l96 226h-146v48h209v-44l-98 -230h-61zM444 644h78l-343 -644h-77zM560.5 261q28.5 -21 28.5 -57q0 -23 -9.5 -39.5t-34.5 -28.5q29 -10 40.5 -26t11.5 -41q0 -37 -31.5 -58t-83.5 -21t-84 21t-32 58q0 51 50 70q-42 18 -42 65q0 36 29 57t79 21t78.5 -21z
M527 172.5q8 9.5 8 30.5q0 20 -14 29.5t-39 9.5q-54 0 -54 -39q0 -17 8 -27.5t27 -14.5l30 -6q26 8 34 17.5zM526 39.5q16 10.5 16 30.5q0 18 -9.5 27t-35.5 15l-30 7q-24 -7 -34.5 -17t-10.5 -31t15.5 -31.5t44.5 -10.5q28 0 44 10.5z" />
    <glyph glyph-name="arrowleft" unicode="&#x2190;" horiz-adv-x="780" 
d="M730 295v-57h-588l171 -138l-28 -38l-235 188v33l235 188l28 -38l-172 -138h589z" />
    <glyph glyph-name="arrowup" unicode="&#x2191;" horiz-adv-x="509" 
d="M283 -51h-57v588l-138 -171l-38 27l188 235h33l188 -235l-38 -27l-138 171v-588z" />
    <glyph glyph-name="arrowright" unicode="&#x2192;" horiz-adv-x="780" 
d="M495 471l235 -188v-33l-235 -188l-28 38l171 138h-588v57h589l-172 138z" />
    <glyph glyph-name="arrowdown" unicode="&#x2193;" horiz-adv-x="509" 
d="M459 179l-188 -235h-33l-188 235l38 27l138 -171v588h57v-588l138 171z" />
    <glyph glyph-name="partialdiff" unicode="&#x2202;" horiz-adv-x="619" 
d="M143 355q64 52 175 52q41 0 85.5 -14.5t76.5 -41.5l5 25q9 45 9 82q0 63 -32 95.5t-106 32.5q-94 0 -165 -30l13 70q69 28 162 28q99 0 151 -54t52 -150q0 -43 -10 -89l-26 -126q-28 -128 -95.5 -186.5t-189.5 -58.5q-96 0 -146.5 42.5t-50.5 115.5q0 26 6 53
q22 102 86 154zM128 150q0 -48 31 -72.5t99 -24.5q161 0 193 162l16 77q-57 52 -148 52q-84 0 -127 -36t-58 -109q-6 -27 -6 -49z" />
    <glyph glyph-name="product" unicode="&#x220f;" horiz-adv-x="629" 
d="M152 642v-771h-82v835h489v-835h-82v771h-325z" />
    <glyph glyph-name="summation" unicode="&#x2211;" horiz-adv-x="535" 
d="M485 -56v-64h-435v51l250 331l-250 330v52h435v-65h-332l239 -317l-239 -318h332z" />
    <glyph glyph-name="minus" unicode="&#x2212;" horiz-adv-x="477" 
d="M50 301h377v-65h-377v65z" />
    <glyph glyph-name="uni2215" unicode="&#x2215;" horiz-adv-x="498" 
d="M366 662h82l-315 -662h-83z" />
    <glyph glyph-name="uni2219" unicode="&#x2219;" horiz-adv-x="174" 
d="M50 319h74v-69h-74v69z" />
    <glyph glyph-name="radical" unicode="&#x221a;" horiz-adv-x="681" 
d="M335 97l216 617h80l-251 -714h-87l-137 381h-106v65h165z" />
    <glyph glyph-name="infinity" unicode="&#x221e;" horiz-adv-x="712" 
d="M293.5 162q-39.5 -25 -87.5 -25q-71 0 -113.5 37.5t-42.5 108.5t42.5 108t113.5 37q48 0 87.5 -25t62.5 -68q24 43 63 68t88 25q70 0 112.5 -37.5t42.5 -107.5q0 -71 -42.5 -108.5t-112.5 -37.5q-49 0 -88 25t-63 68q-23 -43 -62.5 -68zM275.5 349q-25.5 21 -66.5 21
q-47 0 -71 -22.5t-24 -64.5q0 -43 24 -65.5t71 -22.5q41 0 68 22t45 66q-21 45 -46.5 66zM438 216q26 -21 66 -21q47 0 71 22.5t24 65.5q0 42 -24 64.5t-71 22.5q-41 0 -67 -21.5t-47 -67.5q22 -44 48 -65z" />
    <glyph glyph-name="integral" unicode="&#x222b;" horiz-adv-x="448" 
d="M221 651q38 39 110 39q47 0 87 -15v-62q-31 11 -66 11q-50 0 -68.5 -18t-18.5 -63v-519q0 -69 -38 -108t-110 -39q-47 0 -87 15v62q31 -11 66 -11q50 0 68.5 18t18.5 63v519q0 69 38 108z" />
    <glyph glyph-name="approxequal" unicode="&#x2248;" horiz-adv-x="482" 
d="M389 354.5q20 8.5 43 35.5v-68q-30 -36 -98 -36q-25 0 -45.5 6.5t-46.5 19.5q-25 13 -46 20t-47 7q-33 0 -54.5 -8.5t-44.5 -34.5v67q32 36 99 36q28 0 50 -7t49 -21q29 -13 47.5 -19t41.5 -6q32 0 52 8.5zM389 207.5q20 8.5 43 35.5v-68q-16 -20 -40.5 -27.5t-57.5 -7.5
q-25 0 -45.5 6.5t-46.5 19.5q-25 13 -46 20t-47 7q-33 0 -54.5 -9t-44.5 -35v67q32 36 99 36q28 0 50 -7t49 -21q29 -13 47.5 -19t41.5 -6q32 0 52 8.5z" />
    <glyph glyph-name="notequal" unicode="&#x2260;" horiz-adv-x="482" 
d="M160 168h-110v60h132l29 83h-161v59h182l37 103h77l-37 -103h123v-59h-144l-29 -83h173v-60h-195l-37 -106h-77z" />
    <glyph glyph-name="lessequal" unicode="&#x2264;" horiz-adv-x="547" 
d="M497 489l-361 -160l361 -160v-71l-447 202v58l447 202v-71zM497 0h-447v65h447v-65z" />
    </font>
</defs>
</svg>
