<?xml version="1.0" standalone="no"?>
<!DOCTYPE svg PUBLIC "-//W3C//DTD SVG 1.1//EN" "http://www.w3.org/Graphics/SVG/1.1/DTD/svg11.dtd" >
<svg xmlns="http://www.w3.org/2000/svg" xmlns:xlink="http://www.w3.org/1999/xlink" version="1.1">
<metadata>
Created by FontForge 20170731 at Wed Dec  2 10:29:25 2015
 By Aleksey,,,
Copyright (c) 2015, Cadson Demak (info@cadsondemak.com)
</metadata>
<defs>
<font id="Kanit-Medium" horiz-adv-x="0" >
  <font-face 
    font-family="Kanit Medium"
    font-weight="500"
    font-stretch="normal"
    units-per-em="1000"
    panose-1="0 0 6 0 0 0 0 0 0 0"
    ascent="750"
    descent="-250"
    x-height="474"
    cap-height="644"
    bbox="-613 -363 1213 1088"
    underline-thickness="50"
    underline-position="-150"
    unicode-range="U+000D-FB02"
  />
<missing-glyph horiz-adv-x="486" 
d="M37 714h411v-714h-411v714zM397 51v612h-309v-612h309z" />
    <glyph glyph-name="fi" unicode="fi" horiz-adv-x="547" 
d="M83 370h-66v104h66v47q0 50 24.5 89.5t70 62t106.5 22.5q79 0 127 -20v-100q-12 6 -37.5 10t-47.5 4q-57 0 -82.5 -17t-25.5 -55v-43h272v-474h-135v370h-137v-370h-135v370z" />
    <glyph glyph-name="fl" unicode="fl" horiz-adv-x="547" 
d="M83 370h-66v104h66v47q0 75 49 122.5t134 47.5q51 0 102 -16h122v-675h-135v370h-137v-370h-135v370zM355 474v107q-11 4 -29.5 6t-32.5 2q-75 0 -75 -73v-42h137z" />
    <glyph glyph-name="ru_lakkhangyaothai" unicode="&#xe24;&#xe45;" horiz-adv-x="903" 
d="M790.5 502q50.5 -48 50.5 -151v-511h-135v492q0 58 -22.5 85.5t-82.5 27.5q-31 0 -61 -6q20 -46 20 -113v-486h-135v489q0 63 -29.5 89.5t-99.5 26.5q-43 0 -81 -13t-62 -33v-14l111 -30v-82q-39 -10 -53 -32.5t-14 -69.5v-29q0 -20 8.5 -28.5t28.5 -8.5h53v-105h-122
q-46 0 -74.5 29.5t-28.5 76.5v66q0 51 17 84.5t60 46.5l-102 27v129q47 39 115.5 65t150.5 26q105 0 163 -32q31 14 74.5 23t86.5 9q113 0 163.5 -48z" />
    <glyph glyph-name="lu_lakkhangyaothai" unicode="&#xe26;&#xe45;" horiz-adv-x="939" 
d="M826.5 502q50.5 -48 50.5 -151v-511h-135v492q0 58 -22.5 85.5t-82.5 27.5q-30 0 -63 -6q21 -45 21 -113v-486h-135v489q0 63 -27 89.5t-90 26.5q-43 0 -81 -13t-62 -33v-14l111 -30v-82q-37 -12 -48.5 -33t-11.5 -69v-37q0 -70 -33.5 -102t-98.5 -32h-72v105h33
q19 0 26.5 8t7.5 28v31q0 52 15 83.5t57 47.5l-102 27v129q47 39 115.5 65t150.5 26q94 0 152 -32q31 14 74.5 23t86.5 9q113 0 163.5 -48z" />
    <glyph glyph-name=".notdef" horiz-adv-x="486" 
d="M37 714h411v-714h-411v714zM397 51v612h-309v-612h309z" />
    <glyph glyph-name=".null" horiz-adv-x="500" 
 />
    <glyph glyph-name="nonmarkingreturn" unicode="&#xd;" horiz-adv-x="400" 
 />
    <glyph glyph-name="space" unicode=" " horiz-adv-x="360" 
 />
    <glyph glyph-name="exclam" unicode="!" horiz-adv-x="216" 
d="M41 479v165h135v-165l-6 -310h-123zM37 99h142v-99h-142v99z" />
    <glyph glyph-name="quotedbl" unicode="&#x22;" horiz-adv-x="361" 
d="M37 644h114l-14 -201h-100v201zM210 644h114l-14 -201h-100v201z" />
    <glyph glyph-name="numbersign" unicode="#" horiz-adv-x="705" 
d="M114 165h-77v89h105l42 136h-103v90h131l52 164h117l-52 -164h149l52 164h117l-52 -164h73v-90h-101l-43 -136h100v-89h-128l-52 -165h-116l52 165h-150l-52 -165h-116zM408 254l42 136h-149l-43 -136h150z" />
    <glyph glyph-name="dollar" unicode="$" horiz-adv-x="555" 
d="M232 -9q-115 3 -183 34v119q41 -17 89 -28t94 -12v175l-12 4q-101 28 -142 70t-41 116q0 78 49.5 124.5t145.5 57.5v79h99v-77q93 -6 149 -26v-119q-75 27 -149 30v-166q105 -30 146 -77t41 -119q0 -73 -47 -120.5t-140 -60.5v-81h-99v77zM232 532q-58 -13 -58 -63
q0 -26 12.5 -40.5t45.5 -27.5v131zM368 133.5q12 15.5 12 42.5q0 26 -11 42t-38 29v-136q25 7 37 22.5z" />
    <glyph glyph-name="percent" unicode="%" horiz-adv-x="742" 
d="M74.5 394q-37.5 39 -37.5 104q0 73 37 114.5t108 41.5t108 -41.5t37 -114.5q0 -65 -37.5 -104t-107.5 -39t-107.5 39zM476 644h128l-340 -644h-127zM248 500q0 40 -16 58t-50 18t-49.5 -18t-15.5 -58q0 -68 65 -68q66 0 66 68zM452.5 29q-37.5 39 -37.5 104
q0 73 37 114.5t108 41.5t108 -41.5t37 -114.5q0 -65 -37.5 -104t-107.5 -39t-107.5 39zM626 135q0 40 -16 58t-50 18t-49.5 -18t-15.5 -58q0 -68 65 -68q66 0 66 68z" />
    <glyph glyph-name="ampersand" unicode="&#x26;" horiz-adv-x="676" 
d="M485 62q-34 -35 -88 -53.5t-121 -18.5q-109 0 -174 46.5t-65 125.5q0 64 36 110t108 87q-41 41 -60 71.5t-19 70.5q0 68 48.5 110.5t130.5 42.5t130.5 -41.5t48.5 -111.5q0 -49 -23.5 -85t-74.5 -73l138 -141q14 28 14 66v20h102v-23q0 -37 -11 -73t-29 -63l65 -66
l-83 -75zM334 442q17 20 17 53q0 32 -17 50.5t-52 18.5t-53 -19.5t-18 -49.5q0 -29 15.5 -49.5t50.5 -48.5q40 25 57 45zM351 96.5q33 13.5 52 38.5l-141 143q-49 -22 -72 -48t-23 -65t30 -60.5t79 -21.5q42 0 75 13.5z" />
    <glyph glyph-name="quotesingle" unicode="'" horiz-adv-x="188" 
d="M37 644h114l-14 -201h-100v201z" />
    <glyph glyph-name="parenleft" unicode="(" horiz-adv-x="340" 
d="M69.5 89.5q-32.5 99.5 -32.5 213.5t32.5 213.5t99.5 161.5h153q-148 -131 -148 -375t148 -375h-153q-67 62 -99.5 161.5z" />
    <glyph glyph-name="parenright" unicode=")" horiz-adv-x="340" 
d="M130 90q35 94 35 213q0 245 -148 375h154q66 -62 98.5 -161.5t32.5 -213.5t-32.5 -213.5t-98.5 -161.5h-154q78 68 113 162z" />
    <glyph glyph-name="asterisk" unicode="*" horiz-adv-x="436" 
d="M63 369l85 91l-111 46l41 83l94 -48l-5 103h102l-5 -103l94 48l40 -83l-111 -46l85 -91l-78 -57l-76 102l-77 -102z" />
    <glyph glyph-name="plus" unicode="+" horiz-adv-x="470" 
d="M182 219h-140v105h140v137h106v-137h140v-105h-140v-134h-106v134z" />
    <glyph glyph-name="comma" unicode="," horiz-adv-x="221" 
d="M68 81h116l-50 -201h-97z" />
    <glyph glyph-name="hyphen" unicode="-" horiz-adv-x="460" 
d="M37 324h386v-105h-386v105z" />
    <glyph glyph-name="period" unicode="." horiz-adv-x="184" 
d="M37 101h110v-101h-110v101z" />
    <glyph glyph-name="slash" unicode="/" horiz-adv-x="446" 
d="M271 662h138l-234 -662h-138z" />
    <glyph glyph-name="zero" unicode="0" horiz-adv-x="656" 
d="M105.5 60q-68.5 86 -68.5 254t68.5 254t222.5 86t222.5 -86t68.5 -254t-68.5 -254t-222.5 -86t-222.5 86zM447 145.5q35 55.5 35 168.5t-35 168.5t-119 55.5t-119 -55.5t-35 -168.5t35 -168.5t119 -55.5t119 55.5z" />
    <glyph glyph-name="one" unicode="1" horiz-adv-x="334" 
d="M142 522l-105 -17v113l240 36v-654h-135v522z" />
    <glyph glyph-name="two" unicode="2" horiz-adv-x="513" 
d="M37 65q24 52 63 95.5t104 101.5l26 23q47 43 66.5 63.5t28 42t8.5 54.5q0 46 -30 69.5t-88 23.5q-77 0 -155 -31v119q37 13 87.5 20.5t97.5 7.5q110 0 167.5 -54.5t57.5 -151.5q0 -61 -29 -107t-88 -97l-16 -14q-45 -39 -74.5 -67.5t-49.5 -58.5h263v-104h-439v65z" />
    <glyph glyph-name="three" unicode="3" horiz-adv-x="524" 
d="M127 -1q-57 9 -90 22v118q77 -33 172 -33q73 0 106.5 20.5t33.5 70.5q0 42 -29.5 60.5t-88.5 18.5h-101l10 99h84q58 0 85 19.5t27 61.5t-31 62.5t-97 20.5q-42 0 -84.5 -8.5t-75.5 -23.5v115q33 14 83.5 23t99.5 9q117 0 179.5 -49t62.5 -130q0 -50 -22.5 -90.5
t-65.5 -58.5q51 -15 76 -52.5t25 -90.5q0 -96 -69 -144.5t-188 -48.5q-45 0 -102 9z" />
    <glyph glyph-name="four" unicode="4" horiz-adv-x="545" 
d="M329 135h-312v92l329 417h118v-400h63v-109h-63v-135h-135v135zM352 239v256l-206 -256h206z" />
    <glyph glyph-name="five" unicode="5" horiz-adv-x="518" 
d="M127 -2q-53 8 -87 23v117q34 -15 81 -23.5t87 -8.5q70 0 102.5 22.5t32.5 74.5q0 49 -24 70t-88 21h-194v76l17 274h383l-10 -104h-258l-9 -142h97q115 0 169 -50t54 -150q0 -97 -64.5 -152.5t-188.5 -55.5q-47 0 -100 8z" />
    <glyph glyph-name="six" unicode="6" horiz-adv-x="578" 
d="M100 52.5q-63 62.5 -63 190.5v138q0 80 34.5 142t99 96.5t150.5 34.5q49 0 86 -6t72 -18v-116q-63 25 -149 25q-81 0 -123.5 -35t-42.5 -96v-31q31 22 73.5 34t80.5 12q113 0 168 -55t55 -159q0 -101 -62.5 -160t-188.5 -59q-127 0 -190 62.5zM387 120.5q33 30.5 33 83.5
q0 58 -29 87t-98 29q-32 0 -66 -12t-63 -31v-61q0 -126 127 -126q63 0 96 30.5z" />
    <glyph glyph-name="seven" unicode="7" horiz-adv-x="498" 
d="M322 540h-295v104h443v-83l-237 -561h-140z" />
    <glyph glyph-name="eight" unicode="8" horiz-adv-x="597" 
d="M37 179q0 53 27.5 94.5t76.5 59.5q-43 19 -65 54.5t-22 78.5q0 88 61 138t183 50q125 0 184.5 -49.5t59.5 -138.5q0 -46 -22 -83t-68 -57q107 -38 107 -147q0 -189 -261 -189t-261 189zM393.5 401q20.5 21 20.5 62q0 44 -28.5 64.5t-87.5 20.5t-87.5 -20t-28.5 -65
q0 -35 18.5 -55.5t57.5 -27.5l66 -13q49 13 69.5 34zM398.5 115.5q32.5 20.5 32.5 65.5q0 40 -21 58.5t-73 29.5l-77 16q-47 -11 -71 -33t-24 -67q0 -48 32.5 -69t100.5 -21t100.5 20.5z" />
    <glyph glyph-name="nine" unicode="9" horiz-adv-x="578" 
d="M171 -4q-37 6 -72 18v116q63 -25 149 -25q81 0 123.5 35t42.5 96v31q-31 -22 -73.5 -34t-80.5 -12q-113 0 -168 55t-55 159q0 101 62.5 160t188.5 59q127 0 190 -62.5t63 -190.5v-138q0 -80 -34.5 -142t-99 -96.5t-150.5 -34.5q-49 0 -86 6zM351 336q34 12 63 31v61
q0 126 -127 126q-63 0 -96 -30.5t-33 -83.5q0 -58 29 -87t98 -29q32 0 66 12z" />
    <glyph glyph-name="colon" unicode=":" horiz-adv-x="185" 
d="M37 426h110v-103h-110v103zM37 126h110v-103h-110v103z" />
    <glyph glyph-name="semicolon" unicode=";" horiz-adv-x="222" 
d="M72 426h110v-103h-110v103zM68 81h116l-50 -201h-97z" />
    <glyph glyph-name="less" unicode="&#x3c;" horiz-adv-x="542" 
d="M37 248v111l468 211v-126l-325 -140l325 -141v-126z" />
    <glyph glyph-name="equal" unicode="=" horiz-adv-x="464" 
d="M37 400h389v-94h-389v94zM37 236h389v-95h-389v95z" />
    <glyph glyph-name="greater" unicode="&#x3e;" horiz-adv-x="542" 
d="M37 163l325 141l-325 140v126l468 -211v-111l-468 -211v126z" />
    <glyph glyph-name="question" unicode="?" horiz-adv-x="497" 
d="M143 190q0 33 14 59.5t33 46t52 46.5q41 33 60.5 56.5t19.5 54.5q0 47 -29 66t-100 19q-39 0 -82 -10.5t-74 -25.5v114q36 18 86.5 28t105.5 10q112 0 171 -49.5t59 -137.5q0 -53 -22 -86.5t-71 -73.5q-6 -4 -35 -28t-41 -46t-12 -48v-15h-135v20zM139 99h142v-99h-142
v99z" />
    <glyph glyph-name="at" unicode="@" horiz-adv-x="761" 
d="M131.5 -54.5q-94.5 77.5 -94.5 242.5q0 170 95 253.5t268 83.5q155 0 239 -71t84 -200q0 -98 -48.5 -151t-144.5 -53h-45q-50 -47 -142 -47q-58 0 -94.5 28t-36.5 84q0 116 147 116h113v24q0 39 -20 55t-76 16q-59 0 -119 -19v57q26 11 63 17t77 6q82 0 118.5 -33.5
t36.5 -107.5v-128q39 0 58.5 31t19.5 99q0 199 -230 199q-134 0 -201.5 -63t-67.5 -197q0 -242 256 -242q110 0 173 19v-78q-76 -18 -171 -18q-163 0 -257.5 77.5zM429.5 71q23.5 11 42.5 34v72h-93q-44 0 -61.5 -15t-17.5 -46q0 -30 18.5 -43t54.5 -13q33 0 56.5 11z" />
    <glyph glyph-name="A" unicode="A" horiz-adv-x="713" 
d="M283 644h148l245 -644h-140l-61 155h-237l-60 -155h-141zM455 259l-99 259l-98 -259h197z" />
    <glyph glyph-name="B" unicode="B" horiz-adv-x="636" 
d="M57 644h326q96 0 144 -45t48 -129q0 -50 -19.5 -85.5t-54.5 -54.5q48 -15 73 -48.5t25 -93.5q0 -93 -52.5 -140.5t-151.5 -47.5h-338v644zM358 377q91 0 91 82q0 44 -22.5 64.5t-78.5 20.5h-156v-167h166zM363 99q52 0 75.5 21.5t23.5 73.5q0 44 -24.5 64.5t-83.5 20.5
h-162v-180h171z" />
    <glyph glyph-name="C" unicode="C" horiz-adv-x="600" 
d="M124 76.5q-87 86.5 -87 239.5q0 162 84.5 250t248.5 88q104 0 192 -32v-118q-85 35 -182 35q-109 0 -157.5 -54.5t-48.5 -168.5q0 -107 51.5 -159.5t156.5 -52.5q98 0 181 34v-119q-89 -29 -192 -29q-160 0 -247 86.5z" />
    <glyph glyph-name="D" unicode="D" horiz-adv-x="656" 
d="M57 644h270q148 0 220 -76.5t72 -248.5q0 -164 -72 -241.5t-220 -77.5h-270v644zM308 104q61 0 98 18t56.5 65t19.5 132q0 86 -17.5 132t-54.5 63.5t-102 17.5h-116v-428h116z" />
    <glyph glyph-name="E" unicode="E" horiz-adv-x="556" 
d="M57 644h462v-105h-327v-165h290v-104h-290v-166h327v-104h-462v644z" />
    <glyph glyph-name="F" unicode="F" horiz-adv-x="527" 
d="M57 644h453v-105h-318v-165h281v-104h-281v-270h-135v644z" />
    <glyph glyph-name="G" unicode="G" horiz-adv-x="644" 
d="M122 74.5q-85 84.5 -85 236.5q0 162 86.5 252.5t251.5 90.5q110 0 194 -27v-116q-78 28 -184 28q-113 0 -162 -55.5t-49 -172.5q0 -207 195 -207q67 0 124 20v150h-150v86h264v-315q-38 -24 -98 -39.5t-142 -15.5q-160 0 -245 84.5z" />
    <glyph glyph-name="H" unicode="H" horiz-adv-x="665" 
d="M57 644h135v-270h281v270h135v-644h-135v270h-281v-270h-135v644z" />
    <glyph glyph-name="I" unicode="I" horiz-adv-x="249" 
d="M57 644h135v-644h-135v644z" />
    <glyph glyph-name="J" unicode="J" horiz-adv-x="436" 
d="M17 13v114q50 -22 117 -22q62 0 88.5 25.5t26.5 83.5v430h135v-460q0 -194 -223 -194q-81 0 -144 23z" />
    <glyph glyph-name="K" unicode="K" horiz-adv-x="644" 
d="M57 644h135v-273l248 273h155l-233 -261l245 -383h-144l-185 297l-86 -93v-204h-135v644z" />
    <glyph glyph-name="L" unicode="L" horiz-adv-x="526" 
d="M57 644h135v-540h317v-104h-452v644z" />
    <glyph glyph-name="M" unicode="M" horiz-adv-x="763" 
d="M57 644h136l189 -387l189 387h135v-644h-135v419l-150 -308h-78l-151 308v-419h-135v644z" />
    <glyph glyph-name="N" unicode="N" horiz-adv-x="671" 
d="M57 644h117l305 -429v429h135v-644h-117l-305 429v-429h-135v644z" />
    <glyph glyph-name="O" unicode="O" horiz-adv-x="700" 
d="M37 319q0 174 77.5 254.5t235.5 80.5t235.5 -80.5t77.5 -254.5q0 -329 -313 -329t-313 329zM483 157.5q43 52.5 43 161.5q0 119 -42 169.5t-134 50.5t-134 -50.5t-42 -169.5q0 -109 43 -161.5t133 -52.5t133 52.5z" />
    <glyph glyph-name="P" unicode="P" horiz-adv-x="598" 
d="M57 644h302q109 0 165 -61t56 -161q0 -65 -27.5 -115t-78.5 -77.5t-119 -27.5h-163v-202h-135v644zM327 309q57 0 87 30t30 83q0 56 -28 85.5t-84 29.5h-140v-228h135z" />
    <glyph glyph-name="Q" unicode="Q" horiz-adv-x="700" 
d="M323.5 -130q-38.5 42 -40.5 124q-246 33 -246 325q0 174 77.5 254.5t235.5 80.5t235.5 -80.5t77.5 -254.5q0 -303 -265 -327q1 -39 18 -53.5t56 -14.5q38 0 71 11v-94q-18 -5 -46.5 -9t-55.5 -4q-79 0 -117.5 42zM483 157.5q43 52.5 43 161.5q0 119 -42 169.5t-134 50.5
t-134 -50.5t-42 -169.5q0 -109 43 -161.5t133 -52.5t133 52.5z" />
    <glyph glyph-name="R" unicode="R" horiz-adv-x="618" 
d="M57 644h309q108 0 161.5 -57t53.5 -159q0 -65 -33.5 -112t-94.5 -68q15 -13 24.5 -27.5t20.5 -40.5l78 -180h-140l-76 173q-10 23 -22.5 31.5t-39.5 8.5h-106v-213h-135v644zM331 325q55 0 84 24.5t29 78.5t-26 79t-79 25h-147v-207h139z" />
    <glyph glyph-name="S" unicode="S" horiz-adv-x="555" 
d="M49 25v119q45 -18 96 -29t99 -11q75 0 105.5 14t30.5 58q0 29 -14 46t-46 29.5t-100 31.5q-101 28 -142 70t-41 116q0 89 65 137t189 48q56 0 106.5 -7.5t82.5 -19.5v-119q-82 31 -171 31q-68 0 -101.5 -15t-33.5 -55q0 -25 12.5 -40t42 -26.5t91.5 -27.5
q112 -30 155 -77.5t43 -121.5q0 -87 -66 -136.5t-195 -49.5t-208 35z" />
    <glyph glyph-name="T" unicode="T" horiz-adv-x="564" 
d="M215 540h-198v104h530v-104h-197v-540h-135v540z" />
    <glyph glyph-name="U" unicode="U" horiz-adv-x="679" 
d="M128.5 55q-76.5 65 -76.5 187v402h135v-392q0 -73 39.5 -110t113.5 -37t113 37t39 110v392h135v-402q0 -121 -76 -186.5t-211 -65.5t-211.5 65z" />
    <glyph glyph-name="V" unicode="V" horiz-adv-x="713" 
d="M37 644h141l178 -493l179 493h141l-245 -644h-148z" />
    <glyph glyph-name="W" unicode="W" horiz-adv-x="875" 
d="M37 644h133l97 -435l105 351v84h110l124 -436l100 436h132l-149 -644h-128l-118 412l-127 -412h-129z" />
    <glyph glyph-name="X" unicode="X" horiz-adv-x="702" 
d="M270 323l-227 321h159l149 -215l149 215h159l-227 -321l233 -323h-161l-153 215l-153 -215h-161z" />
    <glyph glyph-name="Y" unicode="Y" horiz-adv-x="671" 
d="M268 238l-231 406h141l158 -291l158 291h140l-231 -406v-238h-135v238z" />
    <glyph glyph-name="Z" unicode="Z" horiz-adv-x="579" 
d="M37 70l324 462h-308v112h484v-82l-321 -458h326v-104h-505v70z" />
    <glyph glyph-name="bracketleft" unicode="[" horiz-adv-x="359" 
d="M37 706h290l4 -105h-159v-596h160l-4 -104h-291v805z" />
    <glyph glyph-name="backslash" unicode="\" horiz-adv-x="467" 
d="M37 662h140l252 -716h-139z" />
    <glyph glyph-name="bracketright" unicode="]" horiz-adv-x="359" 
d="M27 5h160v596h-159l4 105h290v-805h-291z" />
    <glyph glyph-name="asciicircum" unicode="^" horiz-adv-x="493" 
d="M196 624h95l164 -242h-125l-84 144l-83 -144h-126z" />
    <glyph glyph-name="underscore" unicode="_" horiz-adv-x="533" 
d="M37 0h459v-90h-459v90z" />
    <glyph glyph-name="grave" unicode="`" horiz-adv-x="277" 
d="M39 709h117l80 -187h-109z" />
    <glyph glyph-name="a" unicode="a" horiz-adv-x="554" 
d="M85.5 28.5q-48.5 38.5 -48.5 108.5q0 71 50.5 112.5t145.5 41.5h140v13q0 30 -10.5 47t-37 25t-75.5 8q-81 0 -156 -25v95q35 14 82.5 22t101.5 8q224 0 224 -183v-301h-117l-7 43q-58 -53 -172 -53q-72 0 -120.5 38.5zM319.5 93.5q33.5 14.5 53.5 38.5v75h-137
q-79 0 -79 -65q0 -63 86 -63q43 0 76.5 14.5z" />
    <glyph glyph-name="b" unicode="b" horiz-adv-x="590" 
d="M249.5 3q-37.5 13 -68.5 41l-7 -44h-117v674h135v-226q59 36 140 36q106 0 163.5 -59.5t57.5 -183.5q0 -125 -57 -188t-160 -63q-49 0 -86.5 13zM388.5 126q27.5 37 27.5 115t-28 111t-91 33q-32 0 -59 -9t-46 -26v-218q19 -21 47 -32t59 -11q63 0 90.5 37z" />
    <glyph glyph-name="c" unicode="c" horiz-adv-x="497" 
d="M104.5 53q-67.5 63 -67.5 184q0 122 71 184.5t195 62.5q50 0 86 -7t70 -23v-97q-54 26 -129 26q-79 0 -117.5 -33t-38.5 -113q0 -77 36.5 -111.5t118.5 -34.5q74 0 131 28v-100q-67 -29 -161 -29q-127 0 -194.5 63z" />
    <glyph glyph-name="d" unicode="d" horiz-adv-x="590" 
d="M95.5 45.5q-58.5 55.5 -58.5 177.5q0 82 30.5 141t82 89.5t115.5 30.5q78 0 133 -36v226h135v-674h-116l-8 44q-31 -27 -68 -40.5t-86 -13.5q-101 0 -159.5 55.5zM350 99q25 10 48 33v216q-42 37 -98 37q-62 0 -94 -41t-32 -121q0 -73 29.5 -103.5t88.5 -30.5q33 0 58 10
z" />
    <glyph glyph-name="e" unicode="e" horiz-adv-x="542" 
d="M107.5 52.5q-70.5 62.5 -70.5 185.5q0 116 61.5 181t179.5 65q108 0 167.5 -56.5t59.5 -151.5v-86h-343q10 -55 50.5 -77t119.5 -22q38 0 77.5 7t67.5 18v-96q-66 -30 -173 -30q-126 0 -196.5 62.5zM387 273v26q0 88 -105 88q-66 0 -93 -26.5t-27 -87.5h225z" />
    <glyph glyph-name="f" unicode="f" horiz-adv-x="354" 
d="M83 370h-66v104h66v48q0 76 43 122t123 46q59 0 107 -19v-93q-31 11 -60 11q-43 0 -60.5 -15.5t-17.5 -53.5v-46h120l-6 -104h-114v-370h-135v370z" />
    <glyph glyph-name="g" unicode="g" horiz-adv-x="562" 
d="M147.5 -169q-55.5 7 -92.5 20v101q39 -13 92.5 -20.5t102.5 -7.5q71 0 101 7.5t30 26.5q0 16 -14 22t-56 6h-129q-63 0 -95 24t-32 70q0 30 16.5 53.5t50.5 37.5q-81 41 -81 138q0 90 56.5 132.5t169.5 42.5q21 0 48 -3t44 -7h178l-3 -85h-75q31 -29 31 -81
q0 -75 -47 -117.5t-135 -42.5q-27 0 -60 5q-32 -4 -51.5 -14.5t-19.5 -26.5q0 -13 10 -18t31 -5h134q72 0 111 -33t39 -94q0 -138 -245 -138q-54 0 -109.5 7zM351 244.5q24 20.5 24 69.5q0 50 -24 71.5t-83 21.5q-57 0 -82 -21.5t-25 -71.5q0 -48 24 -69t83 -21t83 20.5z
" />
    <glyph glyph-name="h" unicode="h" horiz-adv-x="587" 
d="M57 674h135v-240q31 23 72.5 36.5t89.5 13.5q93 0 136.5 -43.5t43.5 -136.5v-304h-135v297q0 49 -20 68.5t-72 19.5q-31 0 -62 -13.5t-53 -35.5v-336h-135v674z" />
    <glyph glyph-name="i" unicode="i" horiz-adv-x="321" 
d="M117 667h147v-106h-147v106zM128 374h-71l12 100h194v-474h-135v374z" />
    <glyph glyph-name="j" unicode="j" horiz-adv-x="321" 
d="M116 667h147v-106h-147v106zM-9 -216v93q30 -10 60 -10q40 0 58.5 16.5t18.5 52.5v438h-71l12 100h194v-551q0 -73 -41.5 -115t-122.5 -42q-63 0 -108 18z" />
    <glyph glyph-name="k" unicode="k" horiz-adv-x="571" 
d="M57 674h135v-371l177 171h154l-191 -194l202 -280h-143l-144 209l-55 -53v-156h-135v674z" />
    <glyph glyph-name="l" unicode="l" horiz-adv-x="298" 
d="M88.5 22q-31.5 32 -31.5 102v550h135v-539q0 -25 9.5 -34.5t29.5 -9.5q26 0 47 7v-93q-21 -8 -41 -11.5t-48 -3.5q-69 0 -100.5 32z" />
    <glyph glyph-name="m" unicode="m" horiz-adv-x="858" 
d="M57 474h125l5 -46q74 56 162 56q48 0 76 -14.5t44 -43.5q36 28 78.5 43t97.5 15q82 0 121 -42.5t39 -129.5v-312h-133v297q0 46 -20 67t-64 21q-28 0 -54.5 -11.5t-45.5 -31.5q5 -17 5 -41v-301h-126v297q0 46 -16 67t-57 21q-51 0 -104 -51v-334h-133v474z" />
    <glyph glyph-name="n" unicode="n" horiz-adv-x="587" 
d="M57 474h125l5 -45q32 24 76 39.5t91 15.5q93 0 136.5 -43.5t43.5 -136.5v-304h-135v297q0 49 -20 68.5t-72 19.5q-31 0 -62 -13.5t-53 -35.5v-336h-135v474z" />
    <glyph glyph-name="o" unicode="o" horiz-adv-x="589" 
d="M37 237q0 120 63.5 183.5t193.5 63.5t194 -63.5t64 -183.5q0 -247 -258 -247q-257 0 -257 247zM387.5 135q27.5 30 27.5 102t-27.5 102t-93.5 30q-65 0 -92.5 -30t-27.5 -102t27.5 -102t92.5 -30q66 0 93.5 30z" />
    <glyph glyph-name="p" unicode="p" horiz-adv-x="590" 
d="M57 474h117l7 -44q32 27 69 40.5t86 13.5q107 0 162 -58t55 -183q0 -126 -59 -189.5t-166 -63.5q-80 0 -136 36v-242h-135v690zM385.5 126.5q30.5 37.5 30.5 115.5q0 76 -28 109.5t-90 33.5t-106 -43v-217q23 -18 46.5 -27t55.5 -9q61 0 91.5 37.5z" />
    <glyph glyph-name="q" unicode="q" horiz-adv-x="651" 
d="M432.5 -208q-34.5 34 -34.5 106v128q-55 -36 -136 -36q-107 0 -166 59.5t-59 183.5t59.5 187.5t159.5 63.5q49 0 85 -13.5t68 -40.5l8 44h116v-563q0 -29 11 -40.5t39 -11.5q18 0 41 7v-93q-22 -8 -41 -11.5t-47 -3.5q-69 0 -103.5 34zM352.5 98q23.5 9 45.5 27v217
q-23 22 -47.5 32.5t-56.5 10.5q-62 0 -91 -37t-29 -113q0 -78 30 -112t92 -34q33 0 56.5 9z" />
    <glyph glyph-name="r" unicode="r" horiz-adv-x="378" 
d="M57 474h125l6 -49q33 21 80 37t93 22v-102q-43 -6 -92 -20.5t-77 -30.5v-331h-135v474z" />
    <glyph glyph-name="s" unicode="s" horiz-adv-x="471" 
d="M124 -3q-48 7 -78 19v112q33 -14 77 -21.5t83 -7.5q52 0 71.5 6.5t19.5 26.5q0 18 -18 28t-69 26q-15 4 -38 12q-70 23 -102.5 55t-32.5 90q0 69 50.5 105t158.5 36q41 0 80.5 -6t68.5 -16v-111q-26 12 -61 19t-66 7q-48 0 -71 -6.5t-23 -25.5q0 -17 16.5 -25.5
t63.5 -22.5l33 -10q58 -18 89 -37.5t44.5 -46.5t13.5 -69q0 -71 -53 -107.5t-157 -36.5q-52 0 -100 7z" />
    <glyph glyph-name="t" unicode="t" horiz-adv-x="368" 
d="M124 32q-40 42 -40 118v220h-67v104h67v102l135 40v-142h120l-8 -104h-112v-211q0 -38 17.5 -53t56.5 -15q28 0 58 10v-93q-45 -18 -106 -18q-81 0 -121 42z" />
    <glyph glyph-name="u" unicode="u" horiz-adv-x="587" 
d="M99 38q-47 48 -47 139v297h135v-294q0 -47 22.5 -69t69.5 -22q34 0 63.5 13.5t51.5 35.5v336h135v-474h-125l-5 45q-69 -55 -167 -55q-86 0 -133 48z" />
    <glyph glyph-name="v" unicode="v" horiz-adv-x="593" 
d="M37 474h141l118 -338l119 338h140l-186 -474h-145z" />
    <glyph glyph-name="w" unicode="w" horiz-adv-x="757" 
d="M37 474h135l72 -308l79 247v61h103l90 -308l70 308h134l-124 -474h-124l-91 277l-93 -277h-126z" />
    <glyph glyph-name="x" unicode="x" horiz-adv-x="585" 
d="M219 241l-175 233h146l102 -138l102 138h146l-174 -233l181 -241h-147l-108 145l-108 -145h-147z" />
    <glyph glyph-name="y" unicode="y" horiz-adv-x="613" 
d="M79 -160v95q28 -10 61 -10q40 0 62.5 18t46.5 65l-212 466h141l139 -322l138 322h140l-187 -441q-44 -105 -95 -157t-132 -52q-62 0 -102 16z" />
    <glyph glyph-name="z" unicode="z" horiz-adv-x="489" 
d="M37 70l239 292h-229v112h398v-82l-234 -288h241v-104h-415v70z" />
    <glyph glyph-name="braceleft" unicode="{" horiz-adv-x="312" 
d="M126.5 -92q-26.5 12 -37 36.5t-10.5 67.5v162q0 40 -14 60t-48 24v81q38 5 50 27.5t12 74.5v144q0 43 10.5 67.5t37 36.5t74.5 12h83v-104h-24q-27 0 -36.5 -12t-9.5 -42v-151q0 -32 -13 -57t-40 -37q27 -12 40 -36.5t13 -56.5v-151q0 -30 9.5 -42t36.5 -12h24v-104h-83
q-48 0 -74.5 12z" />
    <glyph glyph-name="bar" unicode="|" horiz-adv-x="210" 
d="M37 735h135v-855h-135v855z" />
    <glyph glyph-name="braceright" unicode="}" horiz-adv-x="312" 
d="M27 0h24q27 0 36.5 12t9.5 42v151q0 32 13 56.5t40 36.5q-27 12 -40 37t-13 57v151q0 30 -9.5 42t-36.5 12h-24v104h83q48 0 74.5 -12t37 -36.5t10.5 -67.5v-144q0 -52 12 -74.5t50 -27.5v-81q-34 -4 -48 -24t-14 -60v-162q0 -43 -10.5 -67.5t-37 -36.5t-74.5 -12h-83
v104z" />
    <glyph glyph-name="asciitilde" unicode="~" horiz-adv-x="552" 
d="M342 214.5q-26 8.5 -66 25.5t-65.5 25.5t-54.5 8.5q-38 0 -66.5 -14t-52.5 -45v133q17 23 49.5 37t69.5 14q31 0 58.5 -9t67.5 -26q37 -16 62.5 -24.5t52.5 -8.5q38 0 65.5 13.5t51.5 44.5v-133q-17 -24 -48 -37t-69 -13q-29 0 -55 8.5z" />
    <glyph glyph-name="uni00A0" unicode="&#xa0;" horiz-adv-x="360" 
 />
    <glyph glyph-name="exclamdown" unicode="&#xa1;" horiz-adv-x="216" 
d="M37 596h142v-99h-142v99zM41 117l6 310h123l6 -310v-165h-135v165z" />
    <glyph glyph-name="cent" unicode="&#xa2;" horiz-adv-x="497" 
d="M256 -8q-107 10 -163 72t-56 173q0 110 58 171.5t161 72.5v79h99v-78q54 -5 104 -28v-97q-48 22 -104 25v-290q61 5 105 27v-100q-45 -20 -105 -26v-79h-99v78zM256 374q-41 -13 -61.5 -45.5t-20.5 -91.5q0 -57 20 -90.5t62 -46.5v274z" />
    <glyph glyph-name="sterling" unicode="&#xa3;" horiz-adv-x="494" 
d="M37 104h23q26 0 39.5 15.5t13.5 42.5v127h-66v104h66v89q0 78 49.5 125t130.5 47q74 0 123 -22v-93q-14 6 -37 10t-44 4q-45 0 -66 -19.5t-21 -59.5v-81h166l-5 -104h-161v-120q0 -24 -5 -39t-19 -26h232v-104h-419v104z" />
    <glyph glyph-name="currency" unicode="&#xa4;" horiz-adv-x="571" 
d="M37 121l80 59q-25 41 -25 89q0 49 25 88l-79 60l59 73l82 -65q47 34 106 34q60 0 106 -35l84 65l59 -72l-81 -60q26 -41 26 -88t-26 -89l80 -60l-58 -72l-84 64q-47 -34 -105 -34q-59 0 -106 34l-83 -64zM352.5 201.5q27.5 27.5 27.5 67.5t-28 68t-67 28q-40 0 -67 -28
t-27 -68t27 -67.5t67 -27.5t67.5 27.5z" />
    <glyph glyph-name="yen" unicode="&#xa5;" horiz-adv-x="671" 
d="M268 85h-145v79h145v55h-145v79h111l-197 346h141l158 -291l158 291h140l-197 -346h111v-79h-145v-55h145v-79h-145v-85h-135v85z" />
    <glyph glyph-name="brokenbar" unicode="&#xa6;" horiz-adv-x="210" 
d="M37 735h135v-331h-135v331zM37 211h135v-331h-135v331z" />
    <glyph glyph-name="section" unicode="&#xa7;" horiz-adv-x="555" 
d="M49 25v119q45 -18 96 -29t99 -11q71 0 103.5 14.5t32.5 57.5q0 28 -17 46t-49 30t-94 29q-69 20 -108.5 42.5t-57 52t-17.5 72.5q0 44 20 70q-19 31 -19 73q0 84 63 129t190 45q47 0 101.5 -8t87.5 -19v-119q-86 31 -176 31q-55 0 -92.5 -13t-37.5 -56q0 -25 13.5 -41
t44 -28t88.5 -26q81 -21 123 -42.5t58.5 -50.5t16.5 -74q0 -16 -6 -39.5t-14 -36.5q20 -32 20 -71q0 -90 -66.5 -136t-194.5 -46q-129 0 -208 35zM403 331q0 23 -27 38t-102 35q-42 11 -68 22t-39 24q-4 -10 -4 -20q0 -18 12 -29t36 -19.5t75 -22.5q47 -13 74 -24.5
t39 -25.5q4 11 4 22z" />
    <glyph glyph-name="dieresis" unicode="&#xa8;" horiz-adv-x="376" 
d="M37 655h106v-98h-106v98zM233 655h106v-98h-106v98z" />
    <glyph glyph-name="copyright" unicode="&#xa9;" horiz-adv-x="739" 
d="M202.5 34.5q-76.5 44.5 -121 121t-44.5 166.5t44.5 166.5t121 121t166.5 44.5t166.5 -44.5t121 -121t44.5 -166.5t-44.5 -166.5t-121 -121t-166.5 -44.5t-166.5 44.5zM498 98q58 33 91 92t33 132t-33 131.5t-91 92t-129 33.5t-128.5 -33.5t-90.5 -92t-33 -131.5t33 -132
t90.5 -92t128.5 -33t129 33zM217.5 165.5q-56.5 57.5 -56.5 156.5q0 68 28 116.5t76.5 73t108.5 24.5q40 0 70.5 -9t57.5 -26v-68q-48 27 -106 27q-64 0 -104.5 -33.5t-40.5 -104.5q0 -139 141 -139q29 0 58.5 8t52.5 22v-71q-56 -34 -133 -34q-96 0 -152.5 57.5z" />
    <glyph glyph-name="ordfeminine" unicode="&#xaa;" horiz-adv-x="340" 
d="M63.5 400q-26.5 20 -26.5 61q0 88 108 88h78v5q0 22 -14 30.5t-52 8.5q-44 0 -86 -14v58q19 8 47 12.5t56 4.5q61 0 94.5 -25t33.5 -77v-166h-71l-5 23q-18 -15 -40 -22t-55 -7q-41 0 -67.5 20zM223 465v33h-61q-27 0 -38.5 -7t-11.5 -26q0 -17 11.5 -24t33.5 -7
q43 0 66 31z" />
    <glyph glyph-name="guillemotleft" unicode="&#xab;" horiz-adv-x="639" 
d="M37 259v53l262 193l52 -76l-194 -144l194 -144l-52 -75zM287 259v53l262 193l52 -76l-194 -144l194 -144l-52 -75z" />
    <glyph glyph-name="logicalnot" unicode="&#xac;" horiz-adv-x="517" 
d="M373 270h-336v105h442v-239h-106v134z" />
    <glyph glyph-name="uni00AD" unicode="&#xad;" horiz-adv-x="460" 
d="M37 324h386v-105h-386v105z" />
    <glyph glyph-name="registered" unicode="&#xae;" horiz-adv-x="739" 
d="M202.5 34.5q-76.5 44.5 -121 121t-44.5 166.5t44.5 166.5t121 121t166.5 44.5t166.5 -44.5t121 -121t44.5 -166.5t-44.5 -166.5t-121 -121t-166.5 -44.5t-166.5 44.5zM498 98q58 33 91 92t33 132t-33 131.5t-91 92t-129 33.5t-128.5 -33.5t-90.5 -92t-33 -131.5t33 -132
t90.5 -92t128.5 -33t129 33zM224 517h187q64 0 96.5 -33.5t32.5 -91.5q0 -45 -20.5 -74.5t-60.5 -40.5q17 -14 27 -42l43 -107h-74l-43 113q-8 14 -18 19t-34 5h-60v-137h-76v389zM364 324q52 0 76 12.5t24 55.5q0 35 -17 50.5t-52 15.5h-95v-134h64z" />
    <glyph glyph-name="macron" unicode="&#xaf;" horiz-adv-x="342" 
d="M17 644h308v-83h-308v83z" />
    <glyph glyph-name="degree" unicode="&#xb0;" horiz-adv-x="305" 
d="M69 529q-34 32 -34 83t34 83t83 32q50 0 84 -32t34 -83t-34 -83t-84 -32q-49 0 -83 32zM185 580q13 13 13 32t-13.5 32t-32.5 13t-32 -13t-13 -32t13 -32t32 -13q20 0 33 13z" />
    <glyph glyph-name="plusminus" unicode="&#xb1;" horiz-adv-x="470" 
d="M182 279h-140v105h140v137h106v-137h140v-105h-140v-134h-106v134zM42 105h386v-105h-386v105z" />
    <glyph glyph-name="uni00B2" unicode="&#xb2;" horiz-adv-x="303" 
d="M37 414q12 18 25.5 31t27.5 24.5t19 15.5q8 7 22 17q24 20 31.5 28.5t7.5 19.5q0 17 -12 24.5t-40 7.5q-33 0 -74 -16v71q18 7 48 12t57 5q54 0 84 -23.5t30 -60.5q0 -27 -10.5 -46t-37.5 -44l-21 -18q-21 -18 -23 -20h94v-72h-228v44z" />
    <glyph glyph-name="uni00B3" unicode="&#xb3;" horiz-adv-x="306" 
d="M81.5 366q-29.5 4 -44.5 10v63q34 -14 75 -14q33 0 46.5 6t13.5 21q0 29 -52 29h-42l5 56h34q49 0 49 30q0 23 -54 23q-37 0 -70 -14v64q15 6 42 10t53 4q65 0 95.5 -21.5t30.5 -59.5q0 -47 -37 -64q43 -13 43 -61q0 -86 -133 -86q-25 0 -54.5 4z" />
    <glyph glyph-name="acute" unicode="&#xb4;" horiz-adv-x="277" 
d="M119 709h117l-88 -187h-109z" />
    <glyph glyph-name="paragraph" unicode="&#xb6;" horiz-adv-x="636" 
d="M278 253q-110 0 -175.5 53t-65.5 171q0 119 69.5 176t187.5 57h324v-787h-135v683h-70v-683h-135v330z" />
    <glyph glyph-name="periodcentered" unicode="&#xb7;" horiz-adv-x="184" 
d="M37 336h110v-101h-110v101z" />
    <glyph glyph-name="cedilla" unicode="&#xb8;" horiz-adv-x="273" 
d="M62 -237.5q-24 2.5 -35 5.5v68q29 -8 61 -8q46 0 63 7t17 30q0 24 -18 30.5t-59 6.5h-44l29 98h88l-15 -45q52 0 79 -24t27 -67q0 -104 -152 -104q-17 0 -41 2.5z" />
    <glyph glyph-name="uni00B9" unicode="&#xb9;" horiz-adv-x="194" 
d="M84 565l-69 -14v71l162 32v-284h-93v195z" />
    <glyph glyph-name="ordmasculine" unicode="&#xba;" horiz-adv-x="361" 
d="M37 517q0 137 143 137q144 0 144 -137t-144 -137q-143 0 -143 137zM227.5 458.5q14.5 18.5 14.5 58.5t-14.5 58t-47.5 18t-47.5 -18.5t-14.5 -57.5q0 -40 14.5 -58.5t47.5 -18.5t47.5 18.5z" />
    <glyph glyph-name="guillemotright" unicode="&#xbb;" horiz-adv-x="639" 
d="M37 141l194 144l-194 144l52 76l262 -193v-53l-262 -193zM287 141l194 144l-194 144l52 76l262 -193v-53l-262 -193z" />
    <glyph glyph-name="onequarter" unicode="&#xbc;" horiz-adv-x="657" 
d="M106 565l-69 -14v71l162 32v-284h-93v195zM428 644h128l-340 -644h-127zM497 50h-139v61l136 173h95v-170h30v-64h-30v-50h-92v50zM518 115v92l-70 -92h70z" />
    <glyph glyph-name="onehalf" unicode="&#xbd;" horiz-adv-x="673" 
d="M106 565l-69 -14v71l162 32v-284h-93v195zM428 644h128l-340 -644h-127zM387 44q12 18 25.5 31t27.5 24.5t19 15.5q8 7 22 17q24 20 31.5 28.5t7.5 19.5q0 17 -12 24.5t-40 7.5q-33 0 -74 -16v71q18 7 48 12t57 5q54 0 84 -23.5t30 -60.5q0 -27 -10.5 -46t-37.5 -44
l-21 -18q-21 -18 -23 -20h94v-72h-228v44z" />
    <glyph glyph-name="threequarters" unicode="&#xbe;" horiz-adv-x="679" 
d="M81.5 366q-29.5 4 -44.5 10v63q34 -14 75 -14q33 0 46.5 6t13.5 21q0 29 -52 29h-42l5 56h34q49 0 49 30q0 23 -54 23q-37 0 -70 -14v64q15 6 42 10t53 4q65 0 95.5 -21.5t30.5 -59.5q0 -47 -37 -64q43 -13 43 -61q0 -86 -133 -86q-25 0 -54.5 4zM428 644h128l-340 -644
h-127zM497 50h-139v61l136 173h95v-170h30v-64h-30v-50h-92v50zM518 115v92l-70 -92h70z" />
    <glyph glyph-name="questiondown" unicode="&#xbf;" horiz-adv-x="497" 
d="M261 596h142v-99h-142v99zM142 -8.5q-59 49.5 -59 137.5q0 53 22 86.5t71 73.5q6 4 35 28t41 46t12 48v15h135v-20q0 -33 -14 -59.5t-33 -46t-52 -46.5q-41 -33 -60.5 -56.5t-19.5 -54.5q0 -47 29 -66t100 -19q39 0 82 10.5t74 25.5v-114q-36 -18 -86.5 -28t-105.5 -10
q-112 0 -171 49.5z" />
    <glyph glyph-name="Agrave" unicode="&#xc0;" horiz-adv-x="713" 
d="M212 875h117l80 -187h-109zM283 644h148l245 -644h-140l-61 155h-237l-60 -155h-141zM455 259l-99 259l-98 -259h197z" />
    <glyph glyph-name="Aacute" unicode="&#xc1;" horiz-adv-x="713" 
d="M377 875h117l-88 -187h-109zM283 644h148l245 -644h-140l-61 155h-237l-60 -155h-141zM455 259l-99 259l-98 -259h197z" />
    <glyph glyph-name="Acircumflex" unicode="&#xc2;" horiz-adv-x="713" 
d="M313 862h86l135 -174h-104l-74 100l-72 -100h-106zM283 644h148l245 -644h-140l-61 155h-237l-60 -155h-141zM455 259l-99 259l-98 -259h197z" />
    <glyph glyph-name="Atilde" unicode="&#xc3;" horiz-adv-x="713" 
d="M403 694q-19 5 -49 16q-47 19 -73 19q-56 0 -90 -37v96q14 14 37.5 22.5t49.5 8.5q21 0 40.5 -5.5t43.5 -15.5q28 -10 43.5 -14.5t33.5 -4.5q56 0 83 38v-96q-10 -14 -31.5 -23t-48.5 -9q-20 0 -39 5zM283 644h148l245 -644h-140l-61 155h-237l-60 -155h-141zM455 259
l-99 259l-98 -259h197z" />
    <glyph glyph-name="Adieresis" unicode="&#xc4;" horiz-adv-x="713" 
d="M205 810h106v-98h-106v98zM401 810h106v-98h-106v98zM283 644h148l245 -644h-140l-61 155h-237l-60 -155h-141zM455 259l-99 259l-98 -259h197z" />
    <glyph glyph-name="Aring" unicode="&#xc5;" horiz-adv-x="713" 
d="M676 0h-140l-61 155h-237l-60 -155h-141l237 621q-20 17 -31 41t-11 52q0 51 34 85.5t90 34.5q57 0 91 -34t34 -86q0 -58 -42 -92zM314 754.5q-16 -16.5 -16 -40.5t16 -40.5t42 -16.5q27 0 43 16t16 41t-16 41t-43 16q-26 0 -42 -16.5zM455 259l-99 259l-98 -259h197z
" />
    <glyph glyph-name="AE" unicode="&#xc6;" horiz-adv-x="849" 
d="M283 644h529v-105h-274v-165h237v-104h-237v-166h274v-104h-409v156h-160l-60 -156h-146zM403 260v284h-26l-103 -284h129z" />
    <glyph glyph-name="Ccedilla" unicode="&#xc7;" horiz-adv-x="600" 
d="M406 -9l-12 -36q52 0 79 -24t27 -67q0 -104 -152 -104q-17 0 -41 2.5t-35 5.5v68q29 -8 61 -8q46 0 63 7t17 30q0 24 -18 30.5t-59 6.5h-44l27 91q-136 13 -209 98.5t-73 224.5q0 162 84.5 250t248.5 88q104 0 192 -32v-118q-85 35 -182 35q-109 0 -157.5 -54.5
t-48.5 -168.5q0 -107 51.5 -159.5t156.5 -52.5q98 0 181 34v-119q-73 -24 -157 -28z" />
    <glyph glyph-name="Egrave" unicode="&#xc8;" horiz-adv-x="556" 
d="M161 875h117l80 -187h-109zM57 644h462v-105h-327v-165h290v-104h-290v-166h327v-104h-462v644z" />
    <glyph glyph-name="Eacute" unicode="&#xc9;" horiz-adv-x="556" 
d="M302 875h117l-88 -187h-109zM57 644h462v-105h-327v-165h290v-104h-290v-166h327v-104h-462v644z" />
    <glyph glyph-name="Ecircumflex" unicode="&#xca;" horiz-adv-x="556" 
d="M244 862h86l135 -174h-104l-74 100l-72 -100h-106zM57 644h462v-105h-327v-165h290v-104h-290v-166h327v-104h-462v644z" />
    <glyph glyph-name="Edieresis" unicode="&#xcb;" horiz-adv-x="556" 
d="M141 811h106v-98h-106v98zM337 811h106v-98h-106v98zM57 644h462v-105h-327v-165h290v-104h-290v-166h327v-104h-462v644z" />
    <glyph glyph-name="Igrave" unicode="&#xcc;" horiz-adv-x="249" 
d="M-19 875h117l80 -187h-109zM57 644h135v-644h-135v644z" />
    <glyph glyph-name="Iacute" unicode="&#xcd;" horiz-adv-x="250" 
d="M150 875h117l-88 -187h-109zM57 644h135v-644h-135v644z" />
    <glyph glyph-name="Icircumflex" unicode="&#xce;" horiz-adv-x="250" 
d="M82 862h86l135 -174h-104l-74 100l-72 -100h-106zM57 644h135v-644h-135v644z" />
    <glyph glyph-name="Idieresis" unicode="&#xcf;" horiz-adv-x="249" 
d="M-26 816h106v-98h-106v98zM170 816h106v-98h-106v98zM57 644h135v-644h-135v644z" />
    <glyph glyph-name="Eth" unicode="&#xd0;" horiz-adv-x="704" 
d="M105 264h-68v104h68v276h270q148 0 220 -76.5t72 -248.5q0 -164 -72 -241.5t-220 -77.5h-270v264zM356 104q61 0 98 18t56.5 65t19.5 132q0 86 -17.5 132t-54.5 63.5t-102 17.5h-116v-164h149v-104h-149v-160h116z" />
    <glyph glyph-name="Ntilde" unicode="&#xd1;" horiz-adv-x="671" 
d="M390 705q-19 5 -49 16q-48 19 -73 19q-56 0 -90 -37v96q14 14 37.5 22.5t49.5 8.5q21 0 40.5 -5.5t43.5 -15.5q28 -10 43.5 -14.5t33.5 -4.5q56 0 83 38v-96q-10 -14 -31.5 -23t-48.5 -9q-20 0 -39 5zM57 644h117l305 -429v429h135v-644h-117l-305 429v-429h-135v644z
" />
    <glyph glyph-name="Ograve" unicode="&#xd2;" horiz-adv-x="700" 
d="M213 875h117l80 -187h-109zM37 319q0 174 77.5 254.5t235.5 80.5t235.5 -80.5t77.5 -254.5q0 -329 -313 -329t-313 329zM483 157.5q43 52.5 43 161.5q0 119 -42 169.5t-134 50.5t-134 -50.5t-42 -169.5q0 -109 43 -161.5t133 -52.5t133 52.5z" />
    <glyph glyph-name="Oacute" unicode="&#xd3;" horiz-adv-x="700" 
d="M368 875h117l-88 -187h-109zM37 319q0 174 77.5 254.5t235.5 80.5t235.5 -80.5t77.5 -254.5q0 -329 -313 -329t-313 329zM483 157.5q43 52.5 43 161.5q0 119 -42 169.5t-134 50.5t-134 -50.5t-42 -169.5q0 -109 43 -161.5t133 -52.5t133 52.5z" />
    <glyph glyph-name="Ocircumflex" unicode="&#xd4;" horiz-adv-x="700" 
d="M307 862h86l135 -174h-104l-74 100l-72 -100h-106zM37 319q0 174 77.5 254.5t235.5 80.5t235.5 -80.5t77.5 -254.5q0 -329 -313 -329t-313 329zM483 157.5q43 52.5 43 161.5q0 119 -42 169.5t-134 50.5t-134 -50.5t-42 -169.5q0 -109 43 -161.5t133 -52.5t133 52.5z" />
    <glyph glyph-name="Otilde" unicode="&#xd5;" horiz-adv-x="700" 
d="M397 715q-19 5 -49 16q-47 19 -73 19q-56 0 -90 -37v96q14 14 37.5 22.5t49.5 8.5q21 0 40.5 -5.5t43.5 -15.5q28 -10 43.5 -14.5t33.5 -4.5q56 0 83 38v-96q-10 -14 -31.5 -23t-48.5 -9q-20 0 -39 5zM37 319q0 174 77.5 254.5t235.5 80.5t235.5 -80.5t77.5 -254.5
q0 -329 -313 -329t-313 329zM483 157.5q43 52.5 43 161.5q0 119 -42 169.5t-134 50.5t-134 -50.5t-42 -169.5q0 -109 43 -161.5t133 -52.5t133 52.5z" />
    <glyph glyph-name="Odieresis" unicode="&#xd6;" horiz-adv-x="700" 
d="M199 811h106v-98h-106v98zM395 811h106v-98h-106v98zM37 319q0 174 77.5 254.5t235.5 80.5t235.5 -80.5t77.5 -254.5q0 -329 -313 -329t-313 329zM483 157.5q43 52.5 43 161.5q0 119 -42 169.5t-134 50.5t-134 -50.5t-42 -169.5q0 -109 43 -161.5t133 -52.5t133 52.5z
" />
    <glyph glyph-name="multiply" unicode="&#xd7;" horiz-adv-x="418" 
d="M210 183l-101 -100l-68 67l101 101l-105 104l67 67l103 -105l106 104l67 -67l-105 -105l105 -105l-65 -66z" />
    <glyph glyph-name="Oslash" unicode="&#xd8;" horiz-adv-x="700" 
d="M189 20q-152 69 -152 299q0 174 77.5 254.5t235.5 80.5q42 0 78 -6l17 45h77l-24 -63q83 -31 124 -107.5t41 -203.5q0 -329 -313 -329q-51 0 -93 9l-19 -52h-77zM385 537q-22 2 -35 2q-92 0 -134 -50.5t-42 -169.5q0 -129 60 -179zM483 157.5q43 52.5 43 161.5
q0 78 -17.5 125.5t-54.5 70.5l-154 -406q20 -4 50 -4q90 0 133 52.5z" />
    <glyph glyph-name="Ugrave" unicode="&#xd9;" horiz-adv-x="679" 
d="M209 875h117l80 -187h-109zM128.5 55q-76.5 65 -76.5 187v402h135v-392q0 -73 39.5 -110t113.5 -37t113 37t39 110v392h135v-402q0 -121 -76 -186.5t-211 -65.5t-211.5 65z" />
    <glyph glyph-name="Uacute" unicode="&#xda;" horiz-adv-x="679" 
d="M361 875h117l-88 -187h-109zM128.5 55q-76.5 65 -76.5 187v402h135v-392q0 -73 39.5 -110t113.5 -37t113 37t39 110v392h135v-402q0 -121 -76 -186.5t-211 -65.5t-211.5 65z" />
    <glyph glyph-name="Ucircumflex" unicode="&#xdb;" horiz-adv-x="679" 
d="M297 862h86l135 -174h-104l-74 100l-72 -100h-106zM128.5 55q-76.5 65 -76.5 187v402h135v-392q0 -73 39.5 -110t113.5 -37t113 37t39 110v392h135v-402q0 -121 -76 -186.5t-211 -65.5t-211.5 65z" />
    <glyph glyph-name="Udieresis" unicode="&#xdc;" horiz-adv-x="679" 
d="M189 811h106v-98h-106v98zM385 811h106v-98h-106v98zM128.5 55q-76.5 65 -76.5 187v402h135v-392q0 -73 39.5 -110t113.5 -37t113 37t39 110v392h135v-402q0 -121 -76 -186.5t-211 -65.5t-211.5 65z" />
    <glyph glyph-name="Yacute" unicode="&#xdd;" horiz-adv-x="671" 
d="M353 875h117l-88 -187h-109zM268 238l-231 406h141l158 -291l158 291h140l-231 -406v-238h-135v238z" />
    <glyph glyph-name="Thorn" unicode="&#xde;" horiz-adv-x="617" 
d="M57 644h135v-102h167q109 0 165 -61t56 -161q0 -65 -27.5 -115t-78.5 -77.5t-119 -27.5h-163v-100h-135v644zM327 207q57 0 87 30t30 83q0 56 -28 85.5t-84 29.5h-140v-228h135z" />
    <glyph glyph-name="germandbls" unicode="&#xdf;" horiz-adv-x="634" 
d="M244 13v114q50 -22 117 -22q45 0 72 23t27 66q0 51 -26.5 73.5t-83.5 22.5h-73v104h70q52 0 76 24.5t24 72.5q0 94 -132 94q-64 0 -99.5 -34.5t-35.5 -104.5v-446h-128v448q0 71 33 128.5t92.5 90.5t137.5 33q83 0 141 -28.5t87.5 -76t29.5 -104.5q0 -52 -20.5 -91.5
t-55.5 -57.5q46 -16 73 -57t27 -98q0 -93 -54.5 -145t-154.5 -52q-81 0 -144 23z" />
    <glyph glyph-name="agrave" unicode="&#xe0;" horiz-adv-x="554" 
d="M154 709h117l80 -187h-109zM85.5 28.5q-48.5 38.5 -48.5 108.5q0 71 50.5 112.5t145.5 41.5h140v13q0 30 -10.5 47t-37 25t-75.5 8q-81 0 -156 -25v95q35 14 82.5 22t101.5 8q224 0 224 -183v-301h-117l-7 43q-58 -53 -172 -53q-72 0 -120.5 38.5zM319.5 93.5
q33.5 14.5 53.5 38.5v75h-137q-79 0 -79 -65q0 -63 86 -63q43 0 76.5 14.5z" />
    <glyph glyph-name="aacute" unicode="&#xe1;" horiz-adv-x="554" 
d="M309 709h117l-88 -187h-109zM85.5 28.5q-48.5 38.5 -48.5 108.5q0 71 50.5 112.5t145.5 41.5h140v13q0 30 -10.5 47t-37 25t-75.5 8q-81 0 -156 -25v95q35 14 82.5 22t101.5 8q224 0 224 -183v-301h-117l-7 43q-58 -53 -172 -53q-72 0 -120.5 38.5zM319.5 93.5
q33.5 14.5 53.5 38.5v75h-137q-79 0 -79 -65q0 -63 86 -63q43 0 76.5 14.5z" />
    <glyph glyph-name="acircumflex" unicode="&#xe2;" horiz-adv-x="562" 
d="M254 696h86l135 -174h-104l-74 100l-72 -100h-106zM93.5 28.5q-48.5 38.5 -48.5 108.5q0 71 50.5 112.5t145.5 41.5h140v13q0 30 -10.5 47t-37 25t-75.5 8q-81 0 -156 -25v95q35 14 82.5 22t101.5 8q224 0 224 -183v-301h-117l-7 43q-58 -53 -172 -53q-72 0 -120.5 38.5z
M327.5 93.5q33.5 14.5 53.5 38.5v75h-137q-79 0 -79 -65q0 -63 86 -63q43 0 76.5 14.5z" />
    <glyph glyph-name="atilde" unicode="&#xe3;" horiz-adv-x="554" 
d="M344 539q-19 5 -49 16q-47 19 -73 19q-56 0 -90 -37v96q14 14 37.5 22.5t49.5 8.5q21 0 40.5 -5.5t43.5 -15.5q28 -10 43.5 -14.5t33.5 -4.5q56 0 83 38v-96q-10 -14 -31.5 -23t-48.5 -9q-20 0 -39 5zM85.5 28.5q-48.5 38.5 -48.5 108.5q0 71 50.5 112.5t145.5 41.5h140
v13q0 30 -10.5 47t-37 25t-75.5 8q-81 0 -156 -25v95q35 14 82.5 22t101.5 8q224 0 224 -183v-301h-117l-7 43q-58 -53 -172 -53q-72 0 -120.5 38.5zM319.5 93.5q33.5 14.5 53.5 38.5v75h-137q-79 0 -79 -65q0 -63 86 -63q43 0 76.5 14.5z" />
    <glyph glyph-name="adieresis" unicode="&#xe4;" horiz-adv-x="554" 
d="M146 645h106v-98h-106v98zM342 645h106v-98h-106v98zM85.5 28.5q-48.5 38.5 -48.5 108.5q0 71 50.5 112.5t145.5 41.5h140v13q0 30 -10.5 47t-37 25t-75.5 8q-81 0 -156 -25v95q35 14 82.5 22t101.5 8q224 0 224 -183v-301h-117l-7 43q-58 -53 -172 -53
q-72 0 -120.5 38.5zM319.5 93.5q33.5 14.5 53.5 38.5v75h-137q-79 0 -79 -65q0 -63 86 -63q43 0 76.5 14.5z" />
    <glyph glyph-name="aring" unicode="&#xe5;" horiz-adv-x="554" 
d="M211 556q-34 34 -34 85t34 85.5t90 34.5q57 0 91 -34t34 -86t-34 -85.5t-91 -33.5q-56 0 -90 34zM344 600q16 16 16 41t-16 41t-43 16q-26 0 -42 -16.5t-16 -40.5t16 -40.5t42 -16.5q27 0 43 16zM85.5 28.5q-48.5 38.5 -48.5 108.5q0 71 50.5 112.5t145.5 41.5h140v13
q0 30 -10.5 47t-37 25t-75.5 8q-81 0 -156 -25v95q35 14 82.5 22t101.5 8q224 0 224 -183v-301h-117l-7 43q-58 -53 -172 -53q-72 0 -120.5 38.5zM319.5 93.5q33.5 14.5 53.5 38.5v75h-137q-79 0 -79 -65q0 -63 86 -63q43 0 76.5 14.5z" />
    <glyph glyph-name="ae" unicode="&#xe6;" horiz-adv-x="882" 
d="M88.5 28.5q-51.5 38.5 -51.5 108.5q0 71 50.5 112.5t145.5 41.5h140v13q0 30 -10.5 47t-37 25t-75.5 8q-81 0 -156 -25v95q35 14 82.5 22t101.5 8q117 0 172 -52q29 25 72 38.5t96 13.5q108 0 167.5 -56.5t59.5 -151.5v-86h-343q10 -56 51 -79t119 -23q38 0 77.5 7
t67.5 18v-93q-66 -30 -173 -30q-57 0 -111 20t-83 57q-47 -40 -98.5 -58.5t-133.5 -18.5q-78 0 -129.5 38.5zM727 273v26q0 88 -105 88q-66 0 -93 -26.5t-27 -87.5h225zM373 128v79h-137q-79 0 -79 -65q0 -63 86 -63q83 0 130 49z" />
    <glyph glyph-name="ccedilla" unicode="&#xe7;" horiz-adv-x="497" 
d="M324 -10l-12 -35q52 0 79 -24t27 -67q0 -104 -152 -104q-17 0 -41 2.5t-35 5.5v68q29 -8 61 -8q46 0 63 7t17 30q0 24 -18 30.5t-59 6.5h-44l27 92q-97 14 -148.5 76t-51.5 167q0 122 71 184.5t195 62.5q50 0 86 -7t70 -23v-97q-54 26 -129 26q-79 0 -117.5 -33
t-38.5 -113q0 -77 36.5 -111.5t118.5 -34.5q74 0 131 28v-100q-58 -24 -136 -29z" />
    <glyph glyph-name="egrave" unicode="&#xe8;" horiz-adv-x="542" 
d="M138 709h117l80 -187h-109zM107.5 52.5q-70.5 62.5 -70.5 185.5q0 116 61.5 181t179.5 65q108 0 167.5 -56.5t59.5 -151.5v-86h-343q10 -55 50.5 -77t119.5 -22q38 0 77.5 7t67.5 18v-96q-66 -30 -173 -30q-126 0 -196.5 62.5zM387 273v26q0 88 -105 88q-66 0 -93 -26.5
t-27 -87.5h225z" />
    <glyph glyph-name="eacute" unicode="&#xe9;" horiz-adv-x="542" 
d="M304 709h117l-88 -187h-109zM107.5 52.5q-70.5 62.5 -70.5 185.5q0 116 61.5 181t179.5 65q108 0 167.5 -56.5t59.5 -151.5v-86h-343q10 -55 50.5 -77t119.5 -22q38 0 77.5 7t67.5 18v-96q-66 -30 -173 -30q-126 0 -196.5 62.5zM387 273v26q0 88 -105 88q-66 0 -93 -26.5
t-27 -87.5h225z" />
    <glyph glyph-name="ecircumflex" unicode="&#xea;" horiz-adv-x="542" 
d="M237 696h86l135 -174h-104l-74 100l-72 -100h-106zM107.5 52.5q-70.5 62.5 -70.5 185.5q0 116 61.5 181t179.5 65q108 0 167.5 -56.5t59.5 -151.5v-86h-343q10 -55 50.5 -77t119.5 -22q38 0 77.5 7t67.5 18v-96q-66 -30 -173 -30q-126 0 -196.5 62.5zM387 273v26
q0 88 -105 88q-66 0 -93 -26.5t-27 -87.5h225z" />
    <glyph glyph-name="edieresis" unicode="&#xeb;" horiz-adv-x="542" 
d="M128 645h106v-98h-106v98zM324 645h106v-98h-106v98zM107.5 52.5q-70.5 62.5 -70.5 185.5q0 116 61.5 181t179.5 65q108 0 167.5 -56.5t59.5 -151.5v-86h-343q10 -55 50.5 -77t119.5 -22q38 0 77.5 7t67.5 18v-96q-66 -30 -173 -30q-126 0 -196.5 62.5zM387 273v26
q0 88 -105 88q-66 0 -93 -26.5t-27 -87.5h225z" />
    <glyph glyph-name="igrave" unicode="&#xec;" horiz-adv-x="321" 
d="M49 709h117l80 -187h-109zM128 374h-71l12 100h194v-474h-135v374z" />
    <glyph glyph-name="iacute" unicode="&#xed;" horiz-adv-x="321" 
d="M207 709h117l-88 -187h-109zM128 374h-71l12 100h194v-474h-135v374z" />
    <glyph glyph-name="icircumflex" unicode="&#xee;" horiz-adv-x="321" 
d="M128 696h86l135 -174h-104l-74 100l-72 -100h-106zM128 374h-71l12 100h194v-474h-135v374z" />
    <glyph glyph-name="idieresis" unicode="&#xef;" horiz-adv-x="321" 
d="M14 645h106v-98h-106v98zM210 645h106v-98h-106v98zM128 374h-71l12 100h194v-474h-135v374z" />
    <glyph glyph-name="eth" unicode="&#xf0;" horiz-adv-x="573" 
d="M98.5 44.5q-61.5 54.5 -61.5 154.5q0 101 58 152.5t167 51.5q38 0 79.5 -12t72.5 -34v35q0 67 -17 107l-122 -53v60l87 37q-33 24 -94 24q-76 0 -144 -27v89q70 25 165 25q113 0 178 -65l92 40v-60l-57 -25q39 -69 39 -169v-132q0 -128 -63 -190.5t-190 -62.5
q-128 0 -189.5 54.5zM382.5 112q31.5 32 31.5 99v64q-29 20 -62 31.5t-65 11.5q-69 0 -99 -30.5t-30 -88.5q0 -57 33 -88t96 -31q64 0 95.5 32z" />
    <glyph glyph-name="ntilde" unicode="&#xf1;" horiz-adv-x="587" 
d="M346 539q-19 5 -49 16q-48 19 -73 19q-56 0 -90 -37v96q14 14 37.5 22.5t49.5 8.5q21 0 40.5 -5.5t43.5 -15.5q28 -10 43.5 -14.5t33.5 -4.5q56 0 83 38v-96q-10 -14 -31.5 -23t-48.5 -9q-20 0 -39 5zM57 474h125l5 -45q32 24 76 39.5t91 15.5q93 0 136.5 -43.5
t43.5 -136.5v-304h-135v297q0 49 -20 68.5t-72 19.5q-31 0 -62 -13.5t-53 -35.5v-336h-135v474z" />
    <glyph glyph-name="ograve" unicode="&#xf2;" horiz-adv-x="589" 
d="M155 709h117l80 -187h-109zM37 237q0 120 63.5 183.5t193.5 63.5t194 -63.5t64 -183.5q0 -247 -258 -247q-257 0 -257 247zM387.5 135q27.5 30 27.5 102t-27.5 102t-93.5 30q-65 0 -92.5 -30t-27.5 -102t27.5 -102t92.5 -30q66 0 93.5 30z" />
    <glyph glyph-name="oacute" unicode="&#xf3;" horiz-adv-x="589" 
d="M312 709h117l-88 -187h-109zM37 237q0 120 63.5 183.5t193.5 63.5t194 -63.5t64 -183.5q0 -247 -258 -247q-257 0 -257 247zM387.5 135q27.5 30 27.5 102t-27.5 102t-93.5 30q-65 0 -92.5 -30t-27.5 -102t27.5 -102t92.5 -30q66 0 93.5 30z" />
    <glyph glyph-name="ocircumflex" unicode="&#xf4;" horiz-adv-x="589" 
d="M251 696h86l135 -174h-104l-74 100l-72 -100h-106zM37 237q0 120 63.5 183.5t193.5 63.5t194 -63.5t64 -183.5q0 -247 -258 -247q-257 0 -257 247zM387.5 135q27.5 30 27.5 102t-27.5 102t-93.5 30q-65 0 -92.5 -30t-27.5 -102t27.5 -102t92.5 -30q66 0 93.5 30z" />
    <glyph glyph-name="otilde" unicode="&#xf5;" horiz-adv-x="589" 
d="M341 549q-19 5 -49 16q-48 19 -73 19q-56 0 -90 -37v96q14 14 37.5 22.5t49.5 8.5q21 0 40.5 -5.5t43.5 -15.5q28 -10 43.5 -14.5t33.5 -4.5q56 0 83 38v-96q-10 -14 -31.5 -23t-48.5 -9q-20 0 -39 5zM37 237q0 120 63.5 183.5t193.5 63.5t194 -63.5t64 -183.5
q0 -247 -258 -247q-257 0 -257 247zM387.5 135q27.5 30 27.5 102t-27.5 102t-93.5 30q-65 0 -92.5 -30t-27.5 -102t27.5 -102t92.5 -30q66 0 93.5 30z" />
    <glyph glyph-name="odieresis" unicode="&#xf6;" horiz-adv-x="589" 
d="M143 645h106v-98h-106v98zM339 645h106v-98h-106v98zM37 237q0 120 63.5 183.5t193.5 63.5t194 -63.5t64 -183.5q0 -247 -258 -247q-257 0 -257 247zM387.5 135q27.5 30 27.5 102t-27.5 102t-93.5 30q-65 0 -92.5 -30t-27.5 -102t27.5 -102t92.5 -30q66 0 93.5 30z" />
    <glyph glyph-name="divide" unicode="&#xf7;" horiz-adv-x="460" 
d="M182 492h106v-95h-106v95zM42 324h386v-105h-386v105zM182 150h106v-95h-106v95z" />
    <glyph glyph-name="oslash" unicode="&#xf8;" horiz-adv-x="589" 
d="M166 11q-129 51 -129 226q0 120 63.5 183.5t193.5 63.5q27 0 51 -3l18 47h77l-24 -63q136 -50 136 -228q0 -247 -258 -247q-34 0 -58 4l-17 -47h-77zM302 369h-8q-65 0 -92.5 -30t-27.5 -102q0 -42 8.5 -69t27.5 -42zM294 105q66 0 93.5 30t27.5 102q0 45 -10.5 72.5
t-32.5 41.5l-93 -246h15z" />
    <glyph glyph-name="ugrave" unicode="&#xf9;" horiz-adv-x="587" 
d="M162 709h117l80 -187h-109zM99 38q-47 48 -47 139v297h135v-294q0 -47 22.5 -69t69.5 -22q34 0 63.5 13.5t51.5 35.5v336h135v-474h-125l-5 45q-69 -55 -167 -55q-86 0 -133 48z" />
    <glyph glyph-name="uacute" unicode="&#xfa;" horiz-adv-x="587" 
d="M300 709h117l-88 -187h-109zM99 38q-47 48 -47 139v297h135v-294q0 -47 22.5 -69t69.5 -22q34 0 63.5 13.5t51.5 35.5v336h135v-474h-125l-5 45q-69 -55 -167 -55q-86 0 -133 48z" />
    <glyph glyph-name="ucircumflex" unicode="&#xfb;" horiz-adv-x="587" 
d="M247 696h86l135 -174h-104l-74 100l-72 -100h-106zM99 38q-47 48 -47 139v297h135v-294q0 -47 22.5 -69t69.5 -22q34 0 63.5 13.5t51.5 35.5v336h135v-474h-125l-5 45q-69 -55 -167 -55q-86 0 -133 48z" />
    <glyph glyph-name="udieresis" unicode="&#xfc;" horiz-adv-x="587" 
d="M139 645h106v-98h-106v98zM335 645h106v-98h-106v98zM99 38q-47 48 -47 139v297h135v-294q0 -47 22.5 -69t69.5 -22q34 0 63.5 13.5t51.5 35.5v336h135v-474h-125l-5 45q-69 -55 -167 -55q-86 0 -133 48z" />
    <glyph glyph-name="yacute" unicode="&#xfd;" horiz-adv-x="613" 
d="M334 709h117l-88 -187h-109zM79 -160v95q28 -10 61 -10q40 0 62.5 18t46.5 65l-212 466h141l139 -322l138 322h140l-187 -441q-44 -105 -95 -157t-132 -52q-62 0 -102 16z" />
    <glyph glyph-name="thorn" unicode="&#xfe;" horiz-adv-x="590" 
d="M57 700h135v-252q55 36 141 36q106 0 163 -60.5t57 -185.5t-59 -186.5t-166 -61.5q-80 0 -136 36v-242h-135v916zM385.5 125.5q30.5 36.5 30.5 114.5q0 76 -28 110.5t-90 34.5t-106 -43v-217q23 -18 46.5 -27t55.5 -9q61 0 91.5 36.5z" />
    <glyph glyph-name="ydieresis" unicode="&#xff;" horiz-adv-x="613" 
d="M168 659h106v-98h-106v98zM364 659h106v-98h-106v98zM79 -160v95q28 -10 61 -10q40 0 62.5 18t46.5 65l-212 466h141l139 -322l138 322h140l-187 -441q-44 -105 -95 -157t-132 -52q-62 0 -102 16z" />
    <glyph glyph-name="Amacron" unicode="&#x100;" horiz-adv-x="713" 
d="M202 790h308v-83h-308v83zM283 644h148l245 -644h-140l-61 155h-237l-60 -155h-141zM455 259l-99 259l-98 -259h197z" />
    <glyph glyph-name="amacron" unicode="&#x101;" horiz-adv-x="554" 
d="M145 624h308v-83h-308v83zM85.5 28.5q-48.5 38.5 -48.5 108.5q0 71 50.5 112.5t145.5 41.5h140v13q0 30 -10.5 47t-37 25t-75.5 8q-81 0 -156 -25v95q35 14 82.5 22t101.5 8q224 0 224 -183v-301h-117l-7 43q-58 -53 -172 -53q-72 0 -120.5 38.5zM319.5 93.5
q33.5 14.5 53.5 38.5v75h-137q-79 0 -79 -65q0 -63 86 -63q43 0 76.5 14.5z" />
    <glyph glyph-name="Abreve" unicode="&#x102;" horiz-adv-x="713" 
d="M242 730q-43 42 -43 115h90q0 -34 17.5 -56.5t49.5 -22.5q33 0 51 23t18 56h90q0 -73 -44 -115t-115 -42t-114 42zM283 644h148l245 -644h-140l-61 155h-237l-60 -155h-141zM455 259l-99 259l-98 -259h197z" />
    <glyph glyph-name="abreve" unicode="&#x103;" horiz-adv-x="554" 
d="M186 564q-43 42 -43 115h90q0 -34 17.5 -56.5t49.5 -22.5q33 0 51 23t18 56h90q0 -73 -44 -115t-115 -42t-114 42zM85.5 28.5q-48.5 38.5 -48.5 108.5q0 71 50.5 112.5t145.5 41.5h140v13q0 30 -10.5 47t-37 25t-75.5 8q-81 0 -156 -25v95q35 14 82.5 22t101.5 8
q224 0 224 -183v-301h-117l-7 43q-58 -53 -172 -53q-72 0 -120.5 38.5zM319.5 93.5q33.5 14.5 53.5 38.5v75h-137q-79 0 -79 -65q0 -63 86 -63q43 0 76.5 14.5z" />
    <glyph glyph-name="Aogonek" unicode="&#x104;" horiz-adv-x="713" 
d="M685 -130v-76q-14 -6 -37.5 -10t-47.5 -4q-49 0 -82 23.5t-33 67.5q0 38 19 71.5t54 57.5h-22l-61 155h-237l-60 -155h-141l246 644h148l245 -644h-18q-67 -50 -67 -104q0 -37 45 -37q30 0 49 11zM455 259l-99 259l-98 -259h197z" />
    <glyph glyph-name="aogonek" unicode="&#x105;" horiz-adv-x="554" 
d="M512 -130v-76q-14 -6 -37.5 -10t-47.5 -4q-49 0 -82 23.5t-33 67.5q0 38 19 71.5t54 57.5l-7 43q-58 -53 -172 -53q-72 0 -120.5 38.5t-48.5 108.5q0 71 50.5 112.5t145.5 41.5h140v13q0 30 -10.5 47t-37 25t-75.5 8q-81 0 -156 -25v95q35 14 82.5 22t101.5 8
q224 0 224 -183v-301h-17q-67 -50 -67 -104q0 -37 45 -37q30 0 49 11zM373 207h-137q-79 0 -79 -65q0 -63 86 -63q43 0 76.5 14.5t53.5 38.5v75z" />
    <glyph glyph-name="Cacute" unicode="&#x106;" horiz-adv-x="600" 
d="M382 875h117l-88 -187h-109zM124 76.5q-87 86.5 -87 239.5q0 162 84.5 250t248.5 88q104 0 192 -32v-118q-85 35 -182 35q-109 0 -157.5 -54.5t-48.5 -168.5q0 -107 51.5 -159.5t156.5 -52.5q98 0 181 34v-119q-89 -29 -192 -29q-160 0 -247 86.5z" />
    <glyph glyph-name="cacute" unicode="&#x107;" horiz-adv-x="497" 
d="M305 709h117l-88 -187h-109zM104.5 53q-67.5 63 -67.5 184q0 122 71 184.5t195 62.5q50 0 86 -7t70 -23v-97q-54 26 -129 26q-79 0 -117.5 -33t-38.5 -113q0 -77 36.5 -111.5t118.5 -34.5q74 0 131 28v-100q-67 -29 -161 -29q-127 0 -194.5 63z" />
    <glyph glyph-name="Ccircumflex" unicode="&#x108;" horiz-adv-x="600" 
d="M300 862h86l135 -174h-104l-74 100l-72 -100h-106zM124 76.5q-87 86.5 -87 239.5q0 162 84.5 250t248.5 88q104 0 192 -32v-118q-85 35 -182 35q-109 0 -157.5 -54.5t-48.5 -168.5q0 -107 51.5 -159.5t156.5 -52.5q98 0 181 34v-119q-89 -29 -192 -29q-160 0 -247 86.5z
" />
    <glyph glyph-name="ccircumflex" unicode="&#x109;" horiz-adv-x="497" 
d="M236 696h86l135 -174h-104l-74 100l-72 -100h-106zM104.5 53q-67.5 63 -67.5 184q0 122 71 184.5t195 62.5q50 0 86 -7t70 -23v-97q-54 26 -129 26q-79 0 -117.5 -33t-38.5 -113q0 -77 36.5 -111.5t118.5 -34.5q74 0 131 28v-100q-67 -29 -161 -29q-127 0 -194.5 63z" />
    <glyph glyph-name="Cdotaccent" unicode="&#x10a;" horiz-adv-x="600" 
d="M304 811h105v-98h-105v98zM124 76.5q-87 86.5 -87 239.5q0 162 84.5 250t248.5 88q104 0 192 -32v-118q-85 35 -182 35q-109 0 -157.5 -54.5t-48.5 -168.5q0 -107 51.5 -159.5t156.5 -52.5q98 0 181 34v-119q-89 -29 -192 -29q-160 0 -247 86.5z" />
    <glyph glyph-name="cdotaccent" unicode="&#x10b;" horiz-adv-x="497" 
d="M228 645h105v-98h-105v98zM104.5 53q-67.5 63 -67.5 184q0 122 71 184.5t195 62.5q50 0 86 -7t70 -23v-97q-54 26 -129 26q-79 0 -117.5 -33t-38.5 -113q0 -77 36.5 -111.5t118.5 -34.5q74 0 131 28v-100q-67 -29 -161 -29q-127 0 -194.5 63z" />
    <glyph glyph-name="Ccaron" unicode="&#x10c;" horiz-adv-x="600" 
d="M195 862h106l72 -100l74 100h104l-135 -174h-86zM124 76.5q-87 86.5 -87 239.5q0 162 84.5 250t248.5 88q104 0 192 -32v-118q-85 35 -182 35q-109 0 -157.5 -54.5t-48.5 -168.5q0 -107 51.5 -159.5t156.5 -52.5q98 0 181 34v-119q-89 -29 -192 -29q-160 0 -247 86.5z
" />
    <glyph glyph-name="ccaron" unicode="&#x10d;" horiz-adv-x="498" 
d="M105 696h106l72 -100l74 100h104l-135 -174h-86zM104.5 53q-67.5 63 -67.5 184q0 122 71 184.5t195 62.5q50 0 86 -7t70 -23v-97q-54 26 -129 26q-79 0 -117.5 -33t-38.5 -113q0 -77 36.5 -111.5t118.5 -34.5q74 0 131 28v-100q-67 -29 -161 -29q-127 0 -194.5 63z" />
    <glyph glyph-name="Dcaron" unicode="&#x10e;" horiz-adv-x="656" 
d="M129 884h106l72 -100l74 100h104l-135 -174h-86zM57 644h270q148 0 220 -76.5t72 -248.5q0 -164 -72 -241.5t-220 -77.5h-270v644zM308 104q61 0 98 18t56.5 65t19.5 132q0 86 -17.5 132t-54.5 63.5t-102 17.5h-116v-428h116z" />
    <glyph glyph-name="dcaron" unicode="&#x10f;" horiz-adv-x="591" 
d="M643 691h114l-93 -197h-105zM95.5 45.5q-58.5 55.5 -58.5 177.5q0 82 30.5 141t82 89.5t115.5 30.5q78 0 133 -36v226h135v-674h-116l-8 44q-31 -27 -68 -40.5t-86 -13.5q-101 0 -159.5 55.5zM350 99q25 10 48 33v216q-42 37 -98 37q-62 0 -94 -41t-32 -121
q0 -73 29.5 -103.5t88.5 -30.5q33 0 58 10z" />
    <glyph glyph-name="Dcroat" unicode="&#x110;" horiz-adv-x="694" 
d="M95 264h-68v104h68v276h270q148 0 220 -76.5t72 -248.5q0 -164 -72 -241.5t-220 -77.5h-270v264zM346 104q61 0 98 18t56.5 65t19.5 132q0 86 -17.5 132t-54.5 63.5t-102 17.5h-116v-164h149v-104h-149v-160h116z" />
    <glyph glyph-name="dcroat" unicode="&#x111;" horiz-adv-x="591" 
d="M584 527h-51v-527h-116l-8 44q-31 -27 -68 -40.5t-86 -13.5q-101 0 -159.5 55.5t-58.5 177.5q0 82 30.5 141t82 89.5t115.5 30.5q78 0 133 -36v79h-139v90h139v57h135v-57h51v-90zM398 348q-42 37 -98 37q-62 0 -94 -41t-32 -121q0 -73 29.5 -103.5t88.5 -30.5
q33 0 58 10t48 33v216z" />
    <glyph glyph-name="Emacron" unicode="&#x112;" horiz-adv-x="556" 
d="M128 805h308v-83h-308v83zM57 644h462v-105h-327v-165h290v-104h-290v-166h327v-104h-462v644z" />
    <glyph glyph-name="emacron" unicode="&#x113;" horiz-adv-x="542" 
d="M134 639h308v-83h-308v83zM107.5 52.5q-70.5 62.5 -70.5 185.5q0 116 61.5 181t179.5 65q108 0 167.5 -56.5t59.5 -151.5v-86h-343q10 -55 50.5 -77t119.5 -22q38 0 77.5 7t67.5 18v-96q-66 -30 -173 -30q-126 0 -196.5 62.5zM387 273v26q0 88 -105 88q-66 0 -93 -26.5
t-27 -87.5h225z" />
    <glyph glyph-name="Ebreve" unicode="&#x114;" horiz-adv-x="556" 
d="M181 730q-43 42 -43 115h90q0 -34 17.5 -56.5t49.5 -22.5q33 0 51 23t18 56h90q0 -73 -44 -115t-115 -42t-114 42zM57 644h462v-105h-327v-165h290v-104h-290v-166h327v-104h-462v644z" />
    <glyph glyph-name="ebreve" unicode="&#x115;" horiz-adv-x="542" 
d="M169 564q-43 42 -43 115h90q0 -34 17.5 -56.5t49.5 -22.5q33 0 51 23t18 56h90q0 -73 -44 -115t-115 -42t-114 42zM107.5 52.5q-70.5 62.5 -70.5 185.5q0 116 61.5 181t179.5 65q108 0 167.5 -56.5t59.5 -151.5v-86h-343q10 -55 50.5 -77t119.5 -22q38 0 77.5 7t67.5 18
v-96q-66 -30 -173 -30q-126 0 -196.5 62.5zM387 273v26q0 88 -105 88q-66 0 -93 -26.5t-27 -87.5h225z" />
    <glyph glyph-name="Edotaccent" unicode="&#x116;" horiz-adv-x="556" 
d="M236 811h105v-98h-105v98zM57 644h462v-105h-327v-165h290v-104h-290v-166h327v-104h-462v644z" />
    <glyph glyph-name="edotaccent" unicode="&#x117;" horiz-adv-x="542" 
d="M229 645h105v-98h-105v98zM107.5 52.5q-70.5 62.5 -70.5 185.5q0 116 61.5 181t179.5 65q108 0 167.5 -56.5t59.5 -151.5v-86h-343q10 -55 50.5 -77t119.5 -22q38 0 77.5 7t67.5 18v-96q-66 -30 -173 -30q-126 0 -196.5 62.5zM387 273v26q0 88 -105 88q-66 0 -93 -26.5
t-27 -87.5h225z" />
    <glyph glyph-name="Eogonek" unicode="&#x118;" horiz-adv-x="556" 
d="M192 539v-165h290v-104h-290v-166h327v-104h-43q-67 -50 -67 -104q0 -37 45 -37q30 0 49 11v-76q-14 -6 -37.5 -10t-47.5 -4q-49 0 -82 23.5t-33 67.5q0 38 19 71.5t54 57.5h-319v644h462v-105h-327z" />
    <glyph glyph-name="eogonek" unicode="&#x119;" horiz-adv-x="542" 
d="M505 190h-343q10 -55 50.5 -77t119.5 -22q38 0 77.5 7t67.5 18v-96q-30 -13 -68 -21q-66 -50 -66 -103q0 -37 45 -37q30 0 49 11v-76q-14 -6 -37.5 -10t-47.5 -4q-49 0 -82 23.5t-33 67.5q0 34 15.5 65t44.5 54q-123 2 -191.5 64.5t-68.5 183.5q0 116 61.5 181t179.5 65
q108 0 167.5 -56.5t59.5 -151.5v-86zM387 299q0 88 -105 88q-66 0 -93 -26.5t-27 -87.5h225v26z" />
    <glyph glyph-name="Ecaron" unicode="&#x11a;" horiz-adv-x="556" 
d="M119 862h106l72 -100l74 100h104l-135 -174h-86zM57 644h462v-105h-327v-165h290v-104h-290v-166h327v-104h-462v644z" />
    <glyph glyph-name="ecaron" unicode="&#x11b;" horiz-adv-x="542" 
d="M110 696h106l72 -100l74 100h104l-135 -174h-86zM107.5 52.5q-70.5 62.5 -70.5 185.5q0 116 61.5 181t179.5 65q108 0 167.5 -56.5t59.5 -151.5v-86h-343q10 -55 50.5 -77t119.5 -22q38 0 77.5 7t67.5 18v-96q-66 -30 -173 -30q-126 0 -196.5 62.5zM387 273v26
q0 88 -105 88q-66 0 -93 -26.5t-27 -87.5h225z" />
    <glyph glyph-name="Gcircumflex" unicode="&#x11c;" horiz-adv-x="644" 
d="M317 862h86l135 -174h-104l-74 100l-72 -100h-106zM122 74.5q-85 84.5 -85 236.5q0 162 86.5 252.5t251.5 90.5q110 0 194 -27v-116q-78 28 -184 28q-113 0 -162 -55.5t-49 -172.5q0 -207 195 -207q67 0 124 20v150h-150v86h264v-315q-38 -24 -98 -39.5t-142 -15.5
q-160 0 -245 84.5z" />
    <glyph glyph-name="gcircumflex" unicode="&#x11d;" horiz-adv-x="562" 
d="M232 696h86l135 -174h-104l-74 100l-72 -100h-106zM147.5 -169q-55.5 7 -92.5 20v101q39 -13 92.5 -20.5t102.5 -7.5q71 0 101 7.5t30 26.5q0 16 -14 22t-56 6h-129q-63 0 -95 24t-32 70q0 30 16.5 53.5t50.5 37.5q-81 41 -81 138q0 90 56.5 132.5t169.5 42.5q21 0 48 -3
t44 -7h178l-3 -85h-75q31 -29 31 -81q0 -75 -47 -117.5t-135 -42.5q-27 0 -60 5q-32 -4 -51.5 -14.5t-19.5 -26.5q0 -13 10 -18t31 -5h134q72 0 111 -33t39 -94q0 -138 -245 -138q-54 0 -109.5 7zM351 244.5q24 20.5 24 69.5q0 50 -24 71.5t-83 21.5q-57 0 -82 -21.5
t-25 -71.5q0 -48 24 -69t83 -21t83 20.5z" />
    <glyph glyph-name="Gbreve" unicode="&#x11e;" horiz-adv-x="644" 
d="M254 730q-43 42 -43 115h90q0 -34 17.5 -56.5t49.5 -22.5q33 0 51 23t18 56h90q0 -73 -44 -115t-115 -42t-114 42zM122 74.5q-85 84.5 -85 236.5q0 162 86.5 252.5t251.5 90.5q110 0 194 -27v-116q-78 28 -184 28q-113 0 -162 -55.5t-49 -172.5q0 -207 195 -207
q67 0 124 20v150h-150v86h264v-315q-38 -24 -98 -39.5t-142 -15.5q-160 0 -245 84.5z" />
    <glyph glyph-name="gbreve" unicode="&#x11f;" horiz-adv-x="562" 
d="M156 564q-43 42 -43 115h90q0 -34 17.5 -56.5t49.5 -22.5q33 0 51 23t18 56h90q0 -73 -44 -115t-115 -42t-114 42zM147.5 -169q-55.5 7 -92.5 20v101q39 -13 92.5 -20.5t102.5 -7.5q71 0 101 7.5t30 26.5q0 16 -14 22t-56 6h-129q-63 0 -95 24t-32 70q0 30 16.5 53.5
t50.5 37.5q-81 41 -81 138q0 90 56.5 132.5t169.5 42.5q21 0 48 -3t44 -7h178l-3 -85h-75q31 -29 31 -81q0 -75 -47 -117.5t-135 -42.5q-27 0 -60 5q-32 -4 -51.5 -14.5t-19.5 -26.5q0 -13 10 -18t31 -5h134q72 0 111 -33t39 -94q0 -138 -245 -138q-54 0 -109.5 7z
M351 244.5q24 20.5 24 69.5q0 50 -24 71.5t-83 21.5q-57 0 -82 -21.5t-25 -71.5q0 -48 24 -69t83 -21t83 20.5z" />
    <glyph glyph-name="Gdotaccent" unicode="&#x120;" horiz-adv-x="644" 
d="M322 811h105v-98h-105v98zM122 74.5q-85 84.5 -85 236.5q0 162 86.5 252.5t251.5 90.5q110 0 194 -27v-116q-78 28 -184 28q-113 0 -162 -55.5t-49 -172.5q0 -207 195 -207q67 0 124 20v150h-150v86h264v-315q-38 -24 -98 -39.5t-142 -15.5q-160 0 -245 84.5z" />
    <glyph glyph-name="gdotaccent" unicode="&#x121;" horiz-adv-x="562" 
d="M211 635h105v-98h-105v98zM147.5 -169q-55.5 7 -92.5 20v101q39 -13 92.5 -20.5t102.5 -7.5q71 0 101 7.5t30 26.5q0 16 -14 22t-56 6h-129q-63 0 -95 24t-32 70q0 30 16.5 53.5t50.5 37.5q-81 41 -81 138q0 90 56.5 132.5t169.5 42.5q21 0 48 -3t44 -7h178l-3 -85h-75
q31 -29 31 -81q0 -75 -47 -117.5t-135 -42.5q-27 0 -60 5q-32 -4 -51.5 -14.5t-19.5 -26.5q0 -13 10 -18t31 -5h134q72 0 111 -33t39 -94q0 -138 -245 -138q-54 0 -109.5 7zM351 244.5q24 20.5 24 69.5q0 50 -24 71.5t-83 21.5q-57 0 -82 -21.5t-25 -71.5q0 -48 24 -69
t83 -21t83 20.5z" />
    <glyph glyph-name="Gcommaaccent" unicode="&#x122;" horiz-adv-x="644" 
d="M122 74.5q-85 84.5 -85 236.5q0 162 86.5 252.5t251.5 90.5q110 0 194 -27v-116q-78 28 -184 28q-113 0 -162 -55.5t-49 -172.5q0 -207 195 -207q67 0 124 20v150h-150v86h264v-315q-38 -24 -98 -39.5t-142 -15.5q-160 0 -245 84.5zM327 -37h106l-50 -201h-87z" />
    <glyph glyph-name="gcommaaccent" unicode="&#x123;" horiz-adv-x="562" 
d="M263 723h87l-31 -201h-106zM147.5 -169q-55.5 7 -92.5 20v101q39 -13 92.5 -20.5t102.5 -7.5q71 0 101 7.5t30 26.5q0 16 -14 22t-56 6h-129q-63 0 -95 24t-32 70q0 30 16.5 53.5t50.5 37.5q-81 41 -81 138q0 90 56.5 132.5t169.5 42.5q21 0 48 -3t44 -7h178l-3 -85h-75
q31 -29 31 -81q0 -75 -47 -117.5t-135 -42.5q-27 0 -60 5q-32 -4 -51.5 -14.5t-19.5 -26.5q0 -13 10 -18t31 -5h134q72 0 111 -33t39 -94q0 -138 -245 -138q-54 0 -109.5 7zM351 244.5q24 20.5 24 69.5q0 50 -24 71.5t-83 21.5q-57 0 -82 -21.5t-25 -71.5q0 -48 24 -69
t83 -21t83 20.5z" />
    <glyph glyph-name="Hcircumflex" unicode="&#x124;" horiz-adv-x="665" 
d="M289 862h86l135 -174h-104l-74 100l-72 -100h-106zM57 644h135v-270h281v270h135v-644h-135v270h-281v-270h-135v644z" />
    <glyph glyph-name="hcircumflex" unicode="&#x125;" horiz-adv-x="587" 
d="M196 879h86l135 -174h-104l-74 100l-72 -100h-106zM57 674h135v-240q31 23 72.5 36.5t89.5 13.5q93 0 136.5 -43.5t43.5 -136.5v-304h-135v297q0 49 -20 68.5t-72 19.5q-31 0 -62 -13.5t-53 -35.5v-336h-135v674z" />
    <glyph glyph-name="Hbar" unicode="&#x126;" horiz-adv-x="666" 
d="M650 451h-42v-451h-135v270h-281v-270h-135v451h-41v105h41v88h135v-88h281v88h135v-88h42v-105zM473 451h-281v-77h281v77z" />
    <glyph glyph-name="hbar" unicode="&#x127;" horiz-adv-x="587" 
d="M490.5 440.5q43.5 -43.5 43.5 -136.5v-304h-135v297q0 49 -20 68.5t-72 19.5q-31 0 -62 -13.5t-53 -35.5v-336h-135v529h-50v92h50v53h135v-53h134v-92h-134v-95q31 23 72.5 36.5t89.5 13.5q93 0 136.5 -43.5z" />
    <glyph glyph-name="Itilde" unicode="&#x128;" horiz-adv-x="250" 
d="M171 705q-19 5 -49 16q-48 19 -73 19q-56 0 -90 -37v96q14 14 37.5 22.5t49.5 8.5q21 0 40.5 -5.5t43.5 -15.5q28 -10 43.5 -14.5t33.5 -4.5q56 0 83 38v-96q-10 -14 -31.5 -23t-48.5 -9q-20 0 -39 5zM57 644h135v-644h-135v644z" />
    <glyph glyph-name="itilde" unicode="&#x129;" horiz-adv-x="321" 
d="M208 538q-19 5 -49 16q-47 19 -73 19q-56 0 -90 -37v96q14 14 37.5 22.5t49.5 8.5q21 0 40.5 -5.5t43.5 -15.5q28 -10 43.5 -14.5t33.5 -4.5q56 0 83 38v-96q-10 -14 -31.5 -23t-48.5 -9q-20 0 -39 5zM128 374h-71l12 100h194v-474h-135v374z" />
    <glyph glyph-name="Imacron" unicode="&#x12a;" horiz-adv-x="250" 
d="M-29 805h308v-83h-308v83zM57 644h135v-644h-135v644z" />
    <glyph glyph-name="imacron" unicode="&#x12b;" horiz-adv-x="321" 
d="M9 653h308v-83h-308v83zM128 374h-71l12 100h194v-474h-135v374z" />
    <glyph glyph-name="Ibreve" unicode="&#x12c;" horiz-adv-x="250" 
d="M10 743q-43 42 -43 115h90q0 -34 17.5 -56.5t49.5 -22.5q33 0 51 23t18 56h90q0 -73 -44 -115t-115 -42t-114 42zM57 644h135v-644h-135v644z" />
    <glyph glyph-name="ibreve" unicode="&#x12d;" horiz-adv-x="321" 
d="M53 564q-43 42 -43 115h90q0 -34 17.5 -56.5t49.5 -22.5q33 0 51 23t18 56h90q0 -73 -44 -115t-115 -42t-114 42zM128 374h-71l12 100h194v-474h-135v374z" />
    <glyph glyph-name="Iogonek" unicode="&#x12e;" horiz-adv-x="250" 
d="M206 -130v-76q-14 -6 -37.5 -10t-47.5 -4q-49 0 -82 23.5t-33 67.5q0 38 19 71.5t54 57.5h-22v644h135v-644h-13q-67 -50 -67 -104q0 -37 45 -37q30 0 49 11z" />
    <glyph glyph-name="iogonek" unicode="&#x12f;" horiz-adv-x="321" 
d="M264 561h-147v106h147v-106zM279 -130v-76q-14 -6 -37.5 -10t-47.5 -4q-49 0 -82 23.5t-33 67.5q0 38 19 71.5t54 57.5h-24v374h-71l12 100h194v-474h-11q-67 -50 -67 -104q0 -37 45 -37q30 0 49 11z" />
    <glyph glyph-name="Idotaccent" unicode="&#x130;" horiz-adv-x="249" 
d="M72 816h105v-98h-105v98zM57 644h135v-644h-135v644z" />
    <glyph glyph-name="dotlessi" unicode="&#x131;" horiz-adv-x="321" 
d="M128 374h-71l12 100h194v-474h-135v374z" />
    <glyph glyph-name="IJ" unicode="&#x132;" horiz-adv-x="674" 
d="M57 644h135v-644h-135v644zM254 13v114q50 -22 117 -22q62 0 88.5 25.5t26.5 83.5v430h135v-460q0 -194 -223 -194q-81 0 -144 23z" />
    <glyph glyph-name="ij" unicode="&#x133;" horiz-adv-x="582" 
d="M117 667h147v-106h-147v106zM378 667h147v-106h-147v106zM128 374h-71l12 100h194v-474h-135v374zM253 -216v93q30 -10 60 -10q40 0 58.5 16.5t18.5 52.5v438h-71l12 100h194v-551q0 -73 -41.5 -115t-122.5 -42q-63 0 -108 18z" />
    <glyph glyph-name="Jcircumflex" unicode="&#x134;" horiz-adv-x="436" 
d="M275 862h86l135 -174h-104l-74 100l-72 -100h-106zM17 13v114q50 -22 117 -22q62 0 88.5 25.5t26.5 83.5v430h135v-460q0 -194 -223 -194q-81 0 -144 23z" />
    <glyph glyph-name="jcircumflex" unicode="&#x135;" horiz-adv-x="321" 
d="M127 696h86l135 -174h-104l-74 100l-72 -100h-106zM-9 -216v93q30 -10 60 -10q40 0 58.5 16.5t18.5 52.5v438h-71l12 100h194v-551q0 -73 -41.5 -115t-122.5 -42q-63 0 -108 18z" />
    <glyph glyph-name="Kcommaaccent" unicode="&#x136;" horiz-adv-x="644" 
d="M57 644h135v-273l248 273h155l-233 -261l245 -383h-144l-185 297l-86 -93v-204h-135v644zM273 -37h106l-50 -201h-87z" />
    <glyph glyph-name="kcommaaccent" unicode="&#x137;" horiz-adv-x="571" 
d="M57 674h135v-371l177 171h154l-191 -194l202 -280h-143l-144 209l-55 -53v-156h-135v674zM224 -37h106l-50 -201h-87z" />
    <glyph glyph-name="kgreenlandic" unicode="&#x138;" horiz-adv-x="571" 
d="M57 474h135v-187l177 187h154l-191 -206l202 -268h-143l-143 196l-56 -58v-138h-135v474z" />
    <glyph glyph-name="Lacute" unicode="&#x139;" horiz-adv-x="526" 
d="M153 875h117l-88 -187h-109zM57 644h135v-540h317v-104h-452v644z" />
    <glyph glyph-name="lacute" unicode="&#x13a;" horiz-adv-x="298" 
d="M153 924h117l-88 -187h-109zM88.5 22q-31.5 32 -31.5 102v550h135v-539q0 -25 9.5 -34.5t29.5 -9.5q26 0 47 7v-93q-21 -8 -41 -11.5t-48 -3.5q-69 0 -100.5 32z" />
    <glyph glyph-name="Lcommaaccent" unicode="&#x13b;" horiz-adv-x="526" 
d="M57 644h135v-540h317v-104h-452v644zM246 -37h106l-50 -201h-87z" />
    <glyph glyph-name="lcommaaccent" unicode="&#x13c;" horiz-adv-x="298" 
d="M88.5 22q-31.5 32 -31.5 102v550h135v-539q0 -25 9.5 -34.5t29.5 -9.5q26 0 47 7v-93q-21 -8 -41 -11.5t-48 -3.5q-69 0 -100.5 32zM134 -37h106l-50 -201h-87z" />
    <glyph glyph-name="Lcaron" unicode="&#x13d;" horiz-adv-x="526" 
d="M353 765h106l-50 -201h-87zM57 644h135v-540h317v-104h-452v644z" />
    <glyph glyph-name="lcaron" unicode="&#x13e;" horiz-adv-x="298" 
d="M279 861h106l-50 -201h-87zM88.5 22q-31.5 32 -31.5 102v550h135v-539q0 -25 9.5 -34.5t29.5 -9.5q26 0 47 7v-93q-21 -8 -41 -11.5t-48 -3.5q-69 0 -100.5 32z" />
    <glyph glyph-name="Ldot" unicode="&#x13f;" horiz-adv-x="526" 
d="M57 644h135v-540h317v-104h-452v644zM309 374h105v-98h-105v98z" />
    <glyph glyph-name="ldot" unicode="&#x140;" horiz-adv-x="298" 
d="M88.5 22q-31.5 32 -31.5 102v550h135v-539q0 -25 9.5 -34.5t29.5 -9.5q26 0 47 7v-93q-21 -8 -41 -11.5t-48 -3.5q-69 0 -100.5 32zM243 379h105v-98h-105v98z" />
    <glyph glyph-name="Lslash" unicode="&#x141;" horiz-adv-x="526" 
d="M509 104v-104h-452v258l-75 -33v97l75 33v289h135v-230l125 55v-97l-125 -55v-213h317z" />
    <glyph glyph-name="lslash" unicode="&#x142;" horiz-adv-x="298" 
d="M192 327v-192q0 -25 9.5 -34.5t29.5 -9.5q26 0 47 7v-93q-21 -8 -41 -11.5t-48 -3.5q-69 0 -100.5 32t-31.5 102v144l-86 -37v97l86 37v309h135v-250l92 40v-97z" />
    <glyph glyph-name="Nacute" unicode="&#x143;" horiz-adv-x="671" 
d="M350 875h117l-88 -187h-109zM57 644h117l305 -429v429h135v-644h-117l-305 429v-429h-135v644z" />
    <glyph glyph-name="nacute" unicode="&#x144;" horiz-adv-x="587" 
d="M303 709h117l-88 -187h-109zM57 474h125l5 -45q32 24 76 39.5t91 15.5q93 0 136.5 -43.5t43.5 -136.5v-304h-135v297q0 49 -20 68.5t-72 19.5q-31 0 -62 -13.5t-53 -35.5v-336h-135v474z" />
    <glyph glyph-name="Ncommaaccent" unicode="&#x145;" horiz-adv-x="671" 
d="M57 644h117l305 -429v429h135v-644h-117l-305 429v-429h-135v644zM291 -37h106l-50 -201h-87z" />
    <glyph glyph-name="ncommaaccent" unicode="&#x146;" horiz-adv-x="587" 
d="M57 474h125l5 -45q32 24 76 39.5t91 15.5q93 0 136.5 -43.5t43.5 -136.5v-304h-135v297q0 49 -20 68.5t-72 19.5q-31 0 -62 -13.5t-53 -35.5v-336h-135v474zM254 -37h106l-50 -201h-87z" />
    <glyph glyph-name="Ncaron" unicode="&#x147;" horiz-adv-x="671" 
d="M160 862h106l72 -100l74 100h104l-135 -174h-86zM57 644h117l305 -429v429h135v-644h-117l-305 429v-429h-135v644z" />
    <glyph glyph-name="ncaron" unicode="&#x148;" horiz-adv-x="587" 
d="M108 696h106l72 -100l74 100h104l-135 -174h-86zM57 474h125l5 -45q32 24 76 39.5t91 15.5q93 0 136.5 -43.5t43.5 -136.5v-304h-135v297q0 49 -20 68.5t-72 19.5q-31 0 -62 -13.5t-53 -35.5v-336h-135v474z" />
    <glyph glyph-name="napostrophe" unicode="&#x149;" horiz-adv-x="612" 
d="M-36 646h106l-50 -201h-87zM82 474h125l5 -45q32 24 76 39.5t91 15.5q93 0 136.5 -43.5t43.5 -136.5v-304h-135v297q0 49 -20 68.5t-72 19.5q-31 0 -62 -13.5t-53 -35.5v-336h-135v474z" />
    <glyph glyph-name="Eng" unicode="&#x14a;" horiz-adv-x="671" 
d="M342 -216v93q30 -10 60 -10q40 0 58.5 16.5t18.5 52.5v89l-287 404v-429h-135v644h117l305 -429v429h135v-721q0 -73 -41.5 -115t-122.5 -42q-63 0 -108 18z" />
    <glyph glyph-name="eng" unicode="&#x14b;" horiz-adv-x="587" 
d="M262 -216v93q30 -10 60 -10q40 0 58.5 16.5t18.5 52.5v361q0 49 -20 68.5t-72 19.5q-31 0 -62 -13.5t-53 -35.5v-336h-135v474h125l5 -45q32 24 76 39.5t91 15.5q93 0 136.5 -43.5t43.5 -136.5v-381q0 -73 -41.5 -115t-122.5 -42q-63 0 -108 18z" />
    <glyph glyph-name="Omacron" unicode="&#x14c;" horiz-adv-x="700" 
d="M193 806h308v-83h-308v83zM37 319q0 174 77.5 254.5t235.5 80.5t235.5 -80.5t77.5 -254.5q0 -329 -313 -329t-313 329zM483 157.5q43 52.5 43 161.5q0 119 -42 169.5t-134 50.5t-134 -50.5t-42 -169.5q0 -109 43 -161.5t133 -52.5t133 52.5z" />
    <glyph glyph-name="omacron" unicode="&#x14d;" horiz-adv-x="589" 
d="M135 639h308v-83h-308v83zM37 237q0 120 63.5 183.5t193.5 63.5t194 -63.5t64 -183.5q0 -247 -258 -247q-257 0 -257 247zM387.5 135q27.5 30 27.5 102t-27.5 102t-93.5 30q-65 0 -92.5 -30t-27.5 -102t27.5 -102t92.5 -30q66 0 93.5 30z" />
    <glyph glyph-name="Obreve" unicode="&#x14e;" horiz-adv-x="700" 
d="M236 730q-43 42 -43 115h90q0 -34 17.5 -56.5t49.5 -22.5q33 0 51 23t18 56h90q0 -73 -44 -115t-115 -42t-114 42zM37 319q0 174 77.5 254.5t235.5 80.5t235.5 -80.5t77.5 -254.5q0 -329 -313 -329t-313 329zM483 157.5q43 52.5 43 161.5q0 119 -42 169.5t-134 50.5
t-134 -50.5t-42 -169.5q0 -109 43 -161.5t133 -52.5t133 52.5z" />
    <glyph glyph-name="obreve" unicode="&#x14f;" horiz-adv-x="589" 
d="M180 564q-43 42 -43 115h90q0 -34 17.5 -56.5t49.5 -22.5q33 0 51 23t18 56h90q0 -73 -44 -115t-115 -42t-114 42zM37 237q0 120 63.5 183.5t193.5 63.5t194 -63.5t64 -183.5q0 -247 -258 -247q-257 0 -257 247zM387.5 135q27.5 30 27.5 102t-27.5 102t-93.5 30
q-65 0 -92.5 -30t-27.5 -102t27.5 -102t92.5 -30q66 0 93.5 30z" />
    <glyph glyph-name="Ohungarumlaut" unicode="&#x150;" horiz-adv-x="700" 
d="M233 863h120l-92 -176h-107zM461 863h120l-92 -176h-107zM37 319q0 174 77.5 254.5t235.5 80.5t235.5 -80.5t77.5 -254.5q0 -329 -313 -329t-313 329zM483 157.5q43 52.5 43 161.5q0 119 -42 169.5t-134 50.5t-134 -50.5t-42 -169.5q0 -109 43 -161.5t133 -52.5t133 52.5
z" />
    <glyph glyph-name="ohungarumlaut" unicode="&#x151;" horiz-adv-x="589" 
d="M198 697h120l-92 -176h-107zM426 697h120l-92 -176h-107zM37 237q0 120 63.5 183.5t193.5 63.5t194 -63.5t64 -183.5q0 -247 -258 -247q-257 0 -257 247zM387.5 135q27.5 30 27.5 102t-27.5 102t-93.5 30q-65 0 -92.5 -30t-27.5 -102t27.5 -102t92.5 -30q66 0 93.5 30z
" />
    <glyph glyph-name="OE" unicode="&#x152;" horiz-adv-x="1027" 
d="M663 539v-165h290v-104h-290v-166h327v-104h-462v29q-70 -39 -178 -39q-313 0 -313 329q0 174 77.5 254.5t235.5 80.5q108 0 178 -37v27h462v-105h-327zM483 157.5q43 52.5 43 161.5q0 119 -42 169.5t-134 50.5t-134 -50.5t-42 -169.5q0 -109 43 -161.5t133 -52.5
t133 52.5z" />
    <glyph glyph-name="oe" unicode="&#x153;" horiz-adv-x="930" 
d="M893 190h-343q10 -55 50.5 -77t119.5 -22q37 0 77 7t68 18v-96q-66 -30 -173 -30q-131 0 -200 66q-64 -66 -198 -66q-257 0 -257 247q0 120 63.5 183.5t193.5 63.5t194 -64q62 64 178 64q108 0 167.5 -56.5t59.5 -151.5v-86zM775 299q0 88 -105 88q-64 0 -91.5 -25.5
t-28.5 -83.5v-5h225v26zM387.5 135q27.5 30 27.5 102t-27.5 102t-93.5 30q-65 0 -92.5 -30t-27.5 -102t27.5 -102t92.5 -30q66 0 93.5 30z" />
    <glyph glyph-name="Racute" unicode="&#x154;" horiz-adv-x="618" 
d="M313 875h117l-88 -187h-109zM57 644h309q108 0 161.5 -57t53.5 -159q0 -65 -33.5 -112t-94.5 -68q15 -13 24.5 -27.5t20.5 -40.5l78 -180h-140l-76 173q-10 23 -22.5 31.5t-39.5 8.5h-106v-213h-135v644zM331 325q55 0 84 24.5t29 78.5t-26 79t-79 25h-147v-207h139z" />
    <glyph glyph-name="racute" unicode="&#x155;" horiz-adv-x="382" 
d="M190 709h117l-88 -187h-109zM61 474h125l6 -49q33 21 80 37t93 22v-102q-43 -6 -92 -20.5t-77 -30.5v-331h-135v474z" />
    <glyph glyph-name="Rcommaaccent" unicode="&#x156;" horiz-adv-x="618" 
d="M57 644h309q108 0 161.5 -57t53.5 -159q0 -65 -33.5 -112t-94.5 -68q15 -13 24.5 -27.5t20.5 -40.5l78 -180h-140l-76 173q-10 23 -22.5 31.5t-39.5 8.5h-106v-213h-135v644zM331 325q55 0 84 24.5t29 78.5t-26 79t-79 25h-147v-207h139zM246 -37h106l-50 -201h-87z" />
    <glyph glyph-name="rcommaaccent" unicode="&#x157;" horiz-adv-x="378" 
d="M57 474h125l6 -49q33 21 80 37t93 22v-102q-43 -6 -92 -20.5t-77 -30.5v-331h-135v474zM70 -37h106l-50 -201h-87z" />
    <glyph glyph-name="Rcaron" unicode="&#x158;" horiz-adv-x="618" 
d="M123 862h106l72 -100l74 100h104l-135 -174h-86zM57 644h309q108 0 161.5 -57t53.5 -159q0 -65 -33.5 -112t-94.5 -68q15 -13 24.5 -27.5t20.5 -40.5l78 -180h-140l-76 173q-10 23 -22.5 31.5t-39.5 8.5h-106v-213h-135v644zM331 325q55 0 84 24.5t29 78.5t-26 79t-79 25
h-147v-207h139z" />
    <glyph glyph-name="rcaron" unicode="&#x159;" horiz-adv-x="378" 
d="M-21 696h106l72 -100l74 100h104l-135 -174h-86zM57 474h125l6 -49q33 21 80 37t93 22v-102q-43 -6 -92 -20.5t-77 -30.5v-331h-135v474z" />
    <glyph glyph-name="Sacute" unicode="&#x15a;" horiz-adv-x="555" 
d="M292 881h117l-88 -187h-109zM49 25v119q45 -18 96 -29t99 -11q75 0 105.5 14t30.5 58q0 29 -14 46t-46 29.5t-100 31.5q-101 28 -142 70t-41 116q0 89 65 137t189 48q56 0 106.5 -7.5t82.5 -19.5v-119q-82 31 -171 31q-68 0 -101.5 -15t-33.5 -55q0 -25 12.5 -40
t42 -26.5t91.5 -27.5q112 -30 155 -77.5t43 -121.5q0 -87 -66 -136.5t-195 -49.5t-208 35z" />
    <glyph glyph-name="sacute" unicode="&#x15b;" horiz-adv-x="471" 
d="M252 709h117l-88 -187h-109zM124 -3q-48 7 -78 19v112q33 -14 77 -21.5t83 -7.5q52 0 71.5 6.5t19.5 26.5q0 18 -18 28t-69 26q-15 4 -38 12q-70 23 -102.5 55t-32.5 90q0 69 50.5 105t158.5 36q41 0 80.5 -6t68.5 -16v-111q-26 12 -61 19t-66 7q-48 0 -71 -6.5
t-23 -25.5q0 -17 16.5 -25.5t63.5 -22.5l33 -10q58 -18 89 -37.5t44.5 -46.5t13.5 -69q0 -71 -53 -107.5t-157 -36.5q-52 0 -100 7z" />
    <glyph glyph-name="Scircumflex" unicode="&#x15c;" horiz-adv-x="555" 
d="M227 878h86l135 -174h-104l-74 100l-72 -100h-106zM49 25v119q45 -18 96 -29t99 -11q75 0 105.5 14t30.5 58q0 29 -14 46t-46 29.5t-100 31.5q-101 28 -142 70t-41 116q0 89 65 137t189 48q56 0 106.5 -7.5t82.5 -19.5v-119q-82 31 -171 31q-68 0 -101.5 -15t-33.5 -55
q0 -25 12.5 -40t42 -26.5t91.5 -27.5q112 -30 155 -77.5t43 -121.5q0 -87 -66 -136.5t-195 -49.5t-208 35z" />
    <glyph glyph-name="scircumflex" unicode="&#x15d;" horiz-adv-x="471" 
d="M196 706h86l135 -174h-104l-74 100l-72 -100h-106zM124 -3q-48 7 -78 19v112q33 -14 77 -21.5t83 -7.5q52 0 71.5 6.5t19.5 26.5q0 18 -18 28t-69 26q-15 4 -38 12q-70 23 -102.5 55t-32.5 90q0 69 50.5 105t158.5 36q41 0 80.5 -6t68.5 -16v-111q-26 12 -61 19t-66 7
q-48 0 -71 -6.5t-23 -25.5q0 -17 16.5 -25.5t63.5 -22.5l33 -10q58 -18 89 -37.5t44.5 -46.5t13.5 -69q0 -71 -53 -107.5t-157 -36.5q-52 0 -100 7z" />
    <glyph glyph-name="Scedilla" unicode="&#x15e;" horiz-adv-x="555" 
d="M464.5 50q-53.5 -48 -158.5 -58l-12 -37q52 0 79 -24t27 -67q0 -104 -152 -104q-17 0 -41 2.5t-35 5.5v68q29 -8 61 -8q46 0 63 7t17 30q0 24 -18 30.5t-59 6.5h-44l26 89q-101 5 -169 34v119q45 -18 96 -29t99 -11q75 0 105.5 14t30.5 58q0 29 -14 46t-46 29.5
t-100 31.5q-101 28 -142 70t-41 116q0 89 65 137t189 48q56 0 106.5 -7.5t82.5 -19.5v-119q-82 31 -171 31q-68 0 -101.5 -15t-33.5 -55q0 -25 12.5 -40t42 -26.5t91.5 -27.5q112 -30 155 -77.5t43 -121.5q0 -78 -53.5 -126z" />
    <glyph glyph-name="scedilla" unicode="&#x15f;" horiz-adv-x="471" 
d="M274 -8l-12 -37q52 0 79 -24t27 -67q0 -104 -152 -104q-17 0 -41 2.5t-35 5.5v68q29 -8 61 -8q46 0 63 7t17 30q0 24 -18 30.5t-59 6.5h-44l26 89q-86 5 -140 25v112q33 -14 77 -21.5t83 -7.5q52 0 71.5 6.5t19.5 26.5q0 18 -18 28t-69 26q-15 4 -38 12q-70 23 -102.5 55
t-32.5 90q0 69 50.5 105t158.5 36q41 0 80.5 -6t68.5 -16v-111q-26 12 -61 19t-66 7q-48 0 -71 -6.5t-23 -25.5q0 -17 16.5 -25.5t63.5 -22.5l33 -10q58 -18 89 -37.5t44.5 -46.5t13.5 -69q0 -124 -160 -142z" />
    <glyph glyph-name="Scaron" unicode="&#x160;" horiz-adv-x="555" 
d="M107 862h106l72 -100l74 100h104l-135 -174h-86zM49 25v119q45 -18 96 -29t99 -11q75 0 105.5 14t30.5 58q0 29 -14 46t-46 29.5t-100 31.5q-101 28 -142 70t-41 116q0 89 65 137t189 48q56 0 106.5 -7.5t82.5 -19.5v-119q-82 31 -171 31q-68 0 -101.5 -15t-33.5 -55
q0 -25 12.5 -40t42 -26.5t91.5 -27.5q112 -30 155 -77.5t43 -121.5q0 -87 -66 -136.5t-195 -49.5t-208 35z" />
    <glyph glyph-name="scaron" unicode="&#x161;" horiz-adv-x="471" 
d="M55 696h106l72 -100l74 100h104l-135 -174h-86zM124 -3q-48 7 -78 19v112q33 -14 77 -21.5t83 -7.5q52 0 71.5 6.5t19.5 26.5q0 18 -18 28t-69 26q-15 4 -38 12q-70 23 -102.5 55t-32.5 90q0 69 50.5 105t158.5 36q41 0 80.5 -6t68.5 -16v-111q-26 12 -61 19t-66 7
q-48 0 -71 -6.5t-23 -25.5q0 -17 16.5 -25.5t63.5 -22.5l33 -10q58 -18 89 -37.5t44.5 -46.5t13.5 -69q0 -71 -53 -107.5t-157 -36.5q-52 0 -100 7z" />
    <glyph glyph-name="uni0162" unicode="&#x162;" horiz-adv-x="564" 
d="M324 0l-15 -45q52 0 79 -24t27 -67q0 -104 -152 -104q-17 0 -41 2.5t-35 5.5v68q29 -8 61 -8q46 0 63 7t17 30q0 24 -18 30.5t-59 6.5h-44l29 98h-21v540h-198v104h530v-104h-197v-540h-26z" />
    <glyph glyph-name="uni0163" unicode="&#x163;" horiz-adv-x="391" 
d="M347 -69q27 -24 27 -67q0 -104 -152 -104q-17 0 -41 2.5t-35 5.5v68q29 -8 61 -8q46 0 63 7t17 30q0 24 -18 30.5t-59 6.5h-44l28 93q-55 13 -82.5 52.5t-27.5 102.5v220h-67v104h67v102l135 40v-142h120l-8 -104h-112v-211q0 -38 17.5 -53t56.5 -15q28 0 58 10v-93
q-30 -13 -71 -16l-12 -37q52 0 79 -24z" />
    <glyph glyph-name="Tcaron" unicode="&#x164;" horiz-adv-x="564" 
d="M104 878h106l72 -100l74 100h104l-135 -174h-86zM215 540h-198v104h530v-104h-197v-540h-135v540z" />
    <glyph glyph-name="tcaron" unicode="&#x165;" horiz-adv-x="487" 
d="M355 760h106l-50 -201h-87zM124 32q-40 42 -40 118v220h-67v104h67v102l135 40v-142h120l-8 -104h-112v-211q0 -38 17.5 -53t56.5 -15q28 0 58 10v-93q-45 -18 -106 -18q-81 0 -121 42z" />
    <glyph glyph-name="Tbar" unicode="&#x166;" horiz-adv-x="564" 
d="M350 540v-148h113v-99h-113v-293h-135v293h-122v99h122v148h-198v104h530v-104h-197z" />
    <glyph glyph-name="tbar" unicode="&#x167;" horiz-adv-x="368" 
d="M351 101v-93q-45 -18 -106 -18q-81 0 -121 42t-40 118v45h-67v91h67v84h-67v104h67v102l135 40v-142h120l-8 -104h-112v-84h121v-91h-121v-36q0 -38 17.5 -53t56.5 -15q28 0 58 10z" />
    <glyph glyph-name="Utilde" unicode="&#x168;" horiz-adv-x="679" 
d="M386 705q-19 5 -49 16q-48 19 -73 19q-56 0 -90 -37v96q14 14 37.5 22.5t49.5 8.5q21 0 40.5 -5.5t43.5 -15.5q28 -10 43.5 -14.5t33.5 -4.5q56 0 83 38v-96q-10 -14 -31.5 -23t-48.5 -9q-20 0 -39 5zM128.5 55q-76.5 65 -76.5 187v402h135v-392q0 -73 39.5 -110
t113.5 -37t113 37t39 110v392h135v-402q0 -121 -76 -186.5t-211 -65.5t-211.5 65z" />
    <glyph glyph-name="utilde" unicode="&#x169;" horiz-adv-x="587" 
d="M341 539q-19 5 -49 16q-48 19 -73 19q-56 0 -90 -37v96q14 14 37.5 22.5t49.5 8.5q21 0 40.5 -5.5t43.5 -15.5q28 -10 43.5 -14.5t33.5 -4.5q56 0 83 38v-96q-10 -14 -31.5 -23t-48.5 -9q-20 0 -39 5zM99 38q-47 48 -47 139v297h135v-294q0 -47 22.5 -69t69.5 -22
q34 0 63.5 13.5t51.5 35.5v336h135v-474h-125l-5 45q-69 -55 -167 -55q-86 0 -133 48z" />
    <glyph glyph-name="Umacron" unicode="&#x16a;" horiz-adv-x="679" 
d="M186 805h308v-83h-308v83zM128.5 55q-76.5 65 -76.5 187v402h135v-392q0 -73 39.5 -110t113.5 -37t113 37t39 110v392h135v-402q0 -121 -76 -186.5t-211 -65.5t-211.5 65z" />
    <glyph glyph-name="umacron" unicode="&#x16b;" horiz-adv-x="587" 
d="M142 639h308v-83h-308v83zM99 38q-47 48 -47 139v297h135v-294q0 -47 22.5 -69t69.5 -22q34 0 63.5 13.5t51.5 35.5v336h135v-474h-125l-5 45q-69 -55 -167 -55q-86 0 -133 48z" />
    <glyph glyph-name="Ubreve" unicode="&#x16c;" horiz-adv-x="679" 
d="M220 730q-43 42 -43 115h90q0 -34 17.5 -56.5t49.5 -22.5q33 0 51 23t18 56h90q0 -73 -44 -115t-115 -42t-114 42zM128.5 55q-76.5 65 -76.5 187v402h135v-392q0 -73 39.5 -110t113.5 -37t113 37t39 110v392h135v-402q0 -121 -76 -186.5t-211 -65.5t-211.5 65z" />
    <glyph glyph-name="ubreve" unicode="&#x16d;" horiz-adv-x="587" 
d="M184 564q-43 42 -43 115h90q0 -34 17.5 -56.5t49.5 -22.5q33 0 51 23t18 56h90q0 -73 -44 -115t-115 -42t-114 42zM99 38q-47 48 -47 139v297h135v-294q0 -47 22.5 -69t69.5 -22q34 0 63.5 13.5t51.5 35.5v336h135v-474h-125l-5 45q-69 -55 -167 -55q-86 0 -133 48z" />
    <glyph glyph-name="Uring" unicode="&#x16e;" horiz-adv-x="679" 
d="M249 722q-34 34 -34 85t34 85.5t90 34.5q57 0 91 -34t34 -86t-34 -85.5t-91 -33.5q-56 0 -90 34zM382 766q16 16 16 41t-16 41t-43 16q-26 0 -42 -16.5t-16 -40.5t16 -40.5t42 -16.5q27 0 43 16zM128.5 55q-76.5 65 -76.5 187v402h135v-392q0 -73 39.5 -110t113.5 -37
t113 37t39 110v392h135v-402q0 -121 -76 -186.5t-211 -65.5t-211.5 65z" />
    <glyph glyph-name="uring" unicode="&#x16f;" horiz-adv-x="587" 
d="M202 556q-34 34 -34 85t34 85.5t90 34.5q57 0 91 -34t34 -86t-34 -85.5t-91 -33.5q-56 0 -90 34zM335 600q16 16 16 41t-16 41t-43 16q-26 0 -42 -16.5t-16 -40.5t16 -40.5t42 -16.5q27 0 43 16zM99 38q-47 48 -47 139v297h135v-294q0 -47 22.5 -69t69.5 -22
q34 0 63.5 13.5t51.5 35.5v336h135v-474h-125l-5 45q-69 -55 -167 -55q-86 0 -133 48z" />
    <glyph glyph-name="Uhungarumlaut" unicode="&#x170;" horiz-adv-x="679" 
d="M229 863h120l-92 -176h-107zM457 863h120l-92 -176h-107zM128.5 55q-76.5 65 -76.5 187v402h135v-392q0 -73 39.5 -110t113.5 -37t113 37t39 110v392h135v-402q0 -121 -76 -186.5t-211 -65.5t-211.5 65z" />
    <glyph glyph-name="uhungarumlaut" unicode="&#x171;" horiz-adv-x="587" 
d="M177 697h120l-92 -176h-107zM405 697h120l-92 -176h-107zM99 38q-47 48 -47 139v297h135v-294q0 -47 22.5 -69t69.5 -22q34 0 63.5 13.5t51.5 35.5v336h135v-474h-125l-5 45q-69 -55 -167 -55q-86 0 -133 48z" />
    <glyph glyph-name="Uogonek" unicode="&#x172;" horiz-adv-x="679" 
d="M627 644v-402q0 -100 -52 -162t-147 -82q-30 -23 -47.5 -49t-17.5 -53q0 -37 45 -37q30 0 49 11v-76q-14 -6 -37.5 -10t-47.5 -4q-49 0 -82 23.5t-33 67.5q0 34 15.5 65t44.5 54q-125 6 -195 71t-70 181v402h135v-392q0 -73 39.5 -110t113.5 -37t113 37t39 110v392h135z
" />
    <glyph glyph-name="uogonek" unicode="&#x173;" horiz-adv-x="592" 
d="M531 -130v-76q-14 -6 -37.5 -10t-47.5 -4q-49 0 -82 23.5t-33 67.5q0 38 19 71.5t54 57.5l-5 45q-69 -55 -167 -55q-86 0 -133 48t-47 139v297h135v-294q0 -47 22.5 -69t69.5 -22q34 0 63.5 13.5t51.5 35.5v336h135v-474h-25q-67 -50 -67 -104q0 -37 45 -37q30 0 49 11z
" />
    <glyph glyph-name="Wcircumflex" unicode="&#x174;" horiz-adv-x="875" 
d="M400 862h86l135 -174h-104l-74 100l-72 -100h-106zM37 644h133l97 -435l105 351v84h110l124 -436l100 436h132l-149 -644h-128l-118 412l-127 -412h-129z" />
    <glyph glyph-name="wcircumflex" unicode="&#x175;" horiz-adv-x="757" 
d="M338 696h86l135 -174h-104l-74 100l-72 -100h-106zM37 474h135l72 -308l79 247v61h103l90 -308l70 308h134l-124 -474h-124l-91 277l-93 -277h-126z" />
    <glyph glyph-name="Ycircumflex" unicode="&#x176;" horiz-adv-x="671" 
d="M293 862h86l135 -174h-104l-74 100l-72 -100h-106zM268 238l-231 406h141l158 -291l158 291h140l-231 -406v-238h-135v238z" />
    <glyph glyph-name="ycircumflex" unicode="&#x177;" horiz-adv-x="613" 
d="M275 696h86l135 -174h-104l-74 100l-72 -100h-106zM79 -160v95q28 -10 61 -10q40 0 62.5 18t46.5 65l-212 466h141l139 -322l138 322h140l-187 -441q-44 -105 -95 -157t-132 -52q-62 0 -102 16z" />
    <glyph glyph-name="Ydieresis" unicode="&#x178;" horiz-adv-x="671" 
d="M185 811h106v-98h-106v98zM381 811h106v-98h-106v98zM268 238l-231 406h141l158 -291l158 291h140l-231 -406v-238h-135v238z" />
    <glyph glyph-name="Zacute" unicode="&#x179;" horiz-adv-x="579" 
d="M321 875h117l-88 -187h-109zM37 70l324 462h-308v112h484v-82l-321 -458h326v-104h-505v70z" />
    <glyph glyph-name="zacute" unicode="&#x17a;" horiz-adv-x="489" 
d="M273 709h117l-88 -187h-109zM37 70l239 292h-229v112h398v-82l-234 -288h241v-104h-415v70z" />
    <glyph glyph-name="Zdotaccent" unicode="&#x17b;" horiz-adv-x="579" 
d="M252 811h105v-98h-105v98zM37 70l324 462h-308v112h484v-82l-321 -458h326v-104h-505v70z" />
    <glyph glyph-name="zdotaccent" unicode="&#x17c;" horiz-adv-x="489" 
d="M198 645h105v-98h-105v98zM37 70l239 292h-229v112h398v-82l-234 -288h241v-104h-415v70z" />
    <glyph glyph-name="Zcaron" unicode="&#x17d;" horiz-adv-x="579" 
d="M135 862h106l72 -100l74 100h104l-135 -174h-86zM37 70l324 462h-308v112h484v-82l-321 -458h326v-104h-505v70z" />
    <glyph glyph-name="zcaron" unicode="&#x17e;" horiz-adv-x="489" 
d="M68 696h106l72 -100l74 100h104l-135 -174h-86zM37 70l239 292h-229v112h398v-82l-234 -288h241v-104h-415v70z" />
    <glyph glyph-name="uni018F" unicode="&#x18f;" horiz-adv-x="679" 
d="M112 63.5q-75 73.5 -75 201.5v117h481q-5 65 -31 102t-77.5 53t-137.5 16q-46 0 -103 -11t-95 -28v99q47 18 107 29.5t120 11.5q168 0 254.5 -87.5t86.5 -252.5q0 -155 -77 -239.5t-236 -84.5q-142 0 -217 73.5zM518 284h-363v-47q0 -71 46.5 -110.5t127.5 -39.5
q189 0 189 197z" />
    <glyph glyph-name="florin" unicode="&#x192;" horiz-adv-x="517" 
d="M-77 -104l20 93q28 -11 57 -11q43 0 64.5 15.5t30.5 61.5l66 315h-66l22 104h66l10 48q16 76 69 122t133 46q60 0 103 -19l-20 -93q-28 11 -57 11q-43 0 -64 -15.5t-29 -53.5l-10 -46h120l-28 -104h-114l-68 -325q-16 -76 -69 -122t-133 -46q-60 0 -103 19z" />
    <glyph glyph-name="Ohorn" unicode="&#x1a0;" horiz-adv-x="780" 
d="M37 319q0 174 77.5 254.5t235.5 80.5q149 0 224 -74q53 2 74.5 25.5t21.5 82.5h97q0 -92 -32 -136t-102 -56q30 -69 30 -177q0 -329 -313 -329t-313 329zM483 157.5q43 52.5 43 161.5q0 119 -42 169.5t-134 50.5t-134 -50.5t-42 -169.5q0 -109 43 -161.5t133 -52.5
t133 52.5z" />
    <glyph glyph-name="ohorn" unicode="&#x1a1;" horiz-adv-x="694" 
d="M37 237q0 120 63.5 183.5t193.5 63.5q125 0 191 -61q56 1 77.5 26.5t21.5 86.5h97q0 -96 -34.5 -142t-108.5 -57q14 -45 14 -100q0 -247 -258 -247q-257 0 -257 247zM387.5 135q27.5 30 27.5 102t-27.5 102t-93.5 30q-65 0 -92.5 -30t-27.5 -102t27.5 -102t92.5 -30
q66 0 93.5 30z" />
    <glyph glyph-name="Uhorn" unicode="&#x1af;" horiz-adv-x="838" 
d="M128.5 55q-76.5 65 -76.5 187v402h135v-392q0 -73 39.5 -110t113.5 -37t113 37t39 110v392h135v-64q53 2 74.5 25.5t21.5 82.5h97q0 -74 -20 -117t-61.5 -61.5t-111.5 -19.5v-248q0 -121 -76 -186.5t-211 -65.5t-211.5 65z" />
    <glyph glyph-name="uhorn" unicode="&#x1b0;" horiz-adv-x="721" 
d="M99 38q-47 48 -47 139v297h135v-294q0 -47 22.5 -69t69.5 -22q34 0 63.5 13.5t51.5 35.5v336h135v-50q46 4 64 29.5t18 82.5h97q0 -106 -42 -151.5t-137 -50.5v-334h-125l-5 45q-69 -55 -167 -55q-86 0 -133 48z" />
    <glyph glyph-name="uni01CD" unicode="&#x1cd;" horiz-adv-x="713" 
d="M178 862h106l72 -100l74 100h104l-135 -174h-86zM283 644h148l245 -644h-140l-61 155h-237l-60 -155h-141zM455 259l-99 259l-98 -259h197z" />
    <glyph glyph-name="uni01CE" unicode="&#x1ce;" horiz-adv-x="554" 
d="M109 696h106l72 -100l74 100h104l-135 -174h-86zM85.5 28.5q-48.5 38.5 -48.5 108.5q0 71 50.5 112.5t145.5 41.5h140v13q0 30 -10.5 47t-37 25t-75.5 8q-81 0 -156 -25v95q35 14 82.5 22t101.5 8q224 0 224 -183v-301h-117l-7 43q-58 -53 -172 -53q-72 0 -120.5 38.5z
M319.5 93.5q33.5 14.5 53.5 38.5v75h-137q-79 0 -79 -65q0 -63 86 -63q43 0 76.5 14.5z" />
    <glyph glyph-name="uni01CF" unicode="&#x1cf;" horiz-adv-x="250" 
d="M-53 862h106l72 -100l74 100h104l-135 -174h-86zM57 644h135v-644h-135v644z" />
    <glyph glyph-name="uni01D0" unicode="&#x1d0;" horiz-adv-x="321" 
d="M0 696h106l72 -100l74 100h104l-135 -174h-86zM128 374h-71l12 100h194v-474h-135v374z" />
    <glyph glyph-name="uni01D1" unicode="&#x1d1;" horiz-adv-x="700" 
d="M172 862h106l72 -100l74 100h104l-135 -174h-86zM37 319q0 174 77.5 254.5t235.5 80.5t235.5 -80.5t77.5 -254.5q0 -329 -313 -329t-313 329zM483 157.5q43 52.5 43 161.5q0 119 -42 169.5t-134 50.5t-134 -50.5t-42 -169.5q0 -109 43 -161.5t133 -52.5t133 52.5z" />
    <glyph glyph-name="uni01D2" unicode="&#x1d2;" horiz-adv-x="589" 
d="M116 696h106l72 -100l74 100h104l-135 -174h-86zM37 237q0 120 63.5 183.5t193.5 63.5t194 -63.5t64 -183.5q0 -247 -258 -247q-257 0 -257 247zM387.5 135q27.5 30 27.5 102t-27.5 102t-93.5 30q-65 0 -92.5 -30t-27.5 -102t27.5 -102t92.5 -30q66 0 93.5 30z" />
    <glyph glyph-name="uni01D3" unicode="&#x1d3;" horiz-adv-x="679" 
d="M162 862h106l72 -100l74 100h104l-135 -174h-86zM128.5 55q-76.5 65 -76.5 187v402h135v-392q0 -73 39.5 -110t113.5 -37t113 37t39 110v392h135v-402q0 -121 -76 -186.5t-211 -65.5t-211.5 65z" />
    <glyph glyph-name="uni01D4" unicode="&#x1d4;" horiz-adv-x="587" 
d="M113 696h106l72 -100l74 100h104l-135 -174h-86zM99 38q-47 48 -47 139v297h135v-294q0 -47 22.5 -69t69.5 -22q34 0 63.5 13.5t51.5 35.5v336h135v-474h-125l-5 45q-69 -55 -167 -55q-86 0 -133 48z" />
    <glyph glyph-name="uni01D5" unicode="&#x1d5;" horiz-adv-x="679" 
d="M186 943h308v-83h-308v83zM189 800h106v-98h-106v98zM385 800h106v-98h-106v98zM128.5 55q-76.5 65 -76.5 187v402h135v-392q0 -73 39.5 -110t113.5 -37t113 37t39 110v392h135v-402q0 -121 -76 -186.5t-211 -65.5t-211.5 65z" />
    <glyph glyph-name="uni01D6" unicode="&#x1d6;" horiz-adv-x="587" 
d="M142 789h308v-83h-308v83zM144 635h106v-98h-106v98zM340 635h106v-98h-106v98zM99 38q-47 48 -47 139v297h135v-294q0 -47 22.5 -69t69.5 -22q34 0 63.5 13.5t51.5 35.5v336h135v-474h-125l-5 45q-69 -55 -167 -55q-86 0 -133 48z" />
    <glyph glyph-name="uni01D7" unicode="&#x1d7;" horiz-adv-x="679" 
d="M349 930h102l-66 -129h-95zM189 781h101v-93h-101v93zM390 781h101v-93h-101v93zM128.5 55q-76.5 65 -76.5 187v402h135v-392q0 -73 39.5 -110t113.5 -37t113 37t39 110v392h135v-402q0 -121 -76 -186.5t-211 -65.5t-211.5 65z" />
    <glyph glyph-name="uni01D8" unicode="&#x1d8;" horiz-adv-x="587" 
d="M292 764h102l-66 -129h-95zM132 615h101v-93h-101v93zM333 615h101v-93h-101v93zM99 38q-47 48 -47 139v297h135v-294q0 -47 22.5 -69t69.5 -22q34 0 63.5 13.5t51.5 35.5v336h135v-474h-125l-5 45q-69 -55 -167 -55q-86 0 -133 48z" />
    <glyph glyph-name="uni01D9" unicode="&#x1d9;" horiz-adv-x="679" 
d="M181 919h100l60 -73l61 73h98l-113 -121h-93zM189 781h101v-93h-101v93zM390 781h101v-93h-101v93zM128.5 55q-76.5 65 -76.5 187v402h135v-392q0 -73 39.5 -110t113.5 -37t113 37t39 110v392h135v-402q0 -121 -76 -186.5t-211 -65.5t-211.5 65z" />
    <glyph glyph-name="uni01DA" unicode="&#x1da;" horiz-adv-x="587" 
d="M135 752h100l60 -73l61 73h98l-113 -121h-93zM143 614h101v-93h-101v93zM344 614h101v-93h-101v93zM99 38q-47 48 -47 139v297h135v-294q0 -47 22.5 -69t69.5 -22q34 0 63.5 13.5t51.5 35.5v336h135v-474h-125l-5 45q-69 -55 -167 -55q-86 0 -133 48z" />
    <glyph glyph-name="uni01DB" unicode="&#x1db;" horiz-adv-x="679" 
d="M228 930h102l59 -129h-95zM188 781h101v-93h-101v93zM389 781h101v-93h-101v93zM128.5 55q-76.5 65 -76.5 187v402h135v-392q0 -73 39.5 -110t113.5 -37t113 37t39 110v392h135v-402q0 -121 -76 -186.5t-211 -65.5t-211.5 65z" />
    <glyph glyph-name="uni01DC" unicode="&#x1dc;" horiz-adv-x="587" 
d="M187 764h102l59 -129h-95zM147 615h101v-93h-101v93zM348 615h101v-93h-101v93zM99 38q-47 48 -47 139v297h135v-294q0 -47 22.5 -69t69.5 -22q34 0 63.5 13.5t51.5 35.5v336h135v-474h-125l-5 45q-69 -55 -167 -55q-86 0 -133 48z" />
    <glyph glyph-name="Gcaron" unicode="&#x1e6;" horiz-adv-x="644" 
d="M189 861h106l72 -100l74 100h104l-135 -174h-86zM122 74.5q-85 84.5 -85 236.5q0 162 86.5 252.5t251.5 90.5q110 0 194 -27v-116q-78 28 -184 28q-113 0 -162 -55.5t-49 -172.5q0 -207 195 -207q67 0 124 20v150h-150v86h264v-315q-38 -24 -98 -39.5t-142 -15.5
q-160 0 -245 84.5z" />
    <glyph glyph-name="gcaron" unicode="&#x1e7;" horiz-adv-x="562" 
d="M114 696h106l72 -100l74 100h104l-135 -174h-86zM147.5 -169q-55.5 7 -92.5 20v101q39 -13 92.5 -20.5t102.5 -7.5q71 0 101 7.5t30 26.5q0 16 -14 22t-56 6h-129q-63 0 -95 24t-32 70q0 30 16.5 53.5t50.5 37.5q-81 41 -81 138q0 90 56.5 132.5t169.5 42.5q21 0 48 -3
t44 -7h178l-3 -85h-75q31 -29 31 -81q0 -75 -47 -117.5t-135 -42.5q-27 0 -60 5q-32 -4 -51.5 -14.5t-19.5 -26.5q0 -13 10 -18t31 -5h134q72 0 111 -33t39 -94q0 -138 -245 -138q-54 0 -109.5 7zM351 244.5q24 20.5 24 69.5q0 50 -24 71.5t-83 21.5q-57 0 -82 -21.5
t-25 -71.5q0 -48 24 -69t83 -21t83 20.5z" />
    <glyph glyph-name="Aringacute" unicode="&#x1fa;" horiz-adv-x="713" 
d="M402 854h-109l80 187h117zM676 0h-140l-61 155h-237l-60 -155h-141l237 621q-20 17 -31 41t-11 52q0 51 34 85.5t90 34.5q57 0 91 -34t34 -86q0 -58 -42 -92zM314 754.5q-16 -16.5 -16 -40.5t16 -40.5t42 -16.5q27 0 43 16t16 41t-16 41t-43 16q-26 0 -42 -16.5zM455 259
l-99 259l-98 -259h197z" />
    <glyph glyph-name="aringacute" unicode="&#x1fb;" horiz-adv-x="554" 
d="M312 935h117l-88 -149h-109zM201 551q-34 34 -34 85t34 85.5t90 34.5q57 0 91 -34t34 -86t-34 -85.5t-91 -33.5q-56 0 -90 34zM334 595q16 16 16 41t-16 41t-43 16q-26 0 -42 -16.5t-16 -40.5t16 -40.5t42 -16.5q27 0 43 16zM85.5 28.5q-48.5 38.5 -48.5 108.5
q0 71 50.5 112.5t145.5 41.5h140v13q0 30 -10.5 47t-37 25t-75.5 8q-81 0 -156 -25v95q35 14 82.5 22t101.5 8q224 0 224 -183v-301h-117l-7 43q-58 -53 -172 -53q-72 0 -120.5 38.5zM319.5 93.5q33.5 14.5 53.5 38.5v75h-137q-79 0 -79 -65q0 -63 86 -63q43 0 76.5 14.5z
" />
    <glyph glyph-name="AEacute" unicode="&#x1fc;" horiz-adv-x="849" 
d="M501 875h117l-88 -187h-109zM283 644h529v-105h-274v-165h237v-104h-237v-166h274v-104h-409v156h-160l-60 -156h-146zM403 260v284h-26l-103 -284h129z" />
    <glyph glyph-name="aeacute" unicode="&#x1fd;" horiz-adv-x="882" 
d="M463 709h117l-88 -187h-109zM88.5 28.5q-51.5 38.5 -51.5 108.5q0 71 50.5 112.5t145.5 41.5h140v13q0 30 -10.5 47t-37 25t-75.5 8q-81 0 -156 -25v95q35 14 82.5 22t101.5 8q117 0 172 -52q29 25 72 38.5t96 13.5q108 0 167.5 -56.5t59.5 -151.5v-86h-343
q10 -56 51 -79t119 -23q38 0 77.5 7t67.5 18v-93q-66 -30 -173 -30q-57 0 -111 20t-83 57q-47 -40 -98.5 -58.5t-133.5 -18.5q-78 0 -129.5 38.5zM727 273v26q0 88 -105 88q-66 0 -93 -26.5t-27 -87.5h225zM373 128v79h-137q-79 0 -79 -65q0 -63 86 -63q83 0 130 49z" />
    <glyph glyph-name="Oslashacute" unicode="&#x1fe;" horiz-adv-x="700" 
d="M349 875h117l-88 -187h-109zM189 20q-152 69 -152 299q0 174 77.5 254.5t235.5 80.5q42 0 78 -6l17 45h77l-24 -63q83 -31 124 -107.5t41 -203.5q0 -329 -313 -329q-51 0 -93 9l-19 -52h-77zM385 537q-22 2 -35 2q-92 0 -134 -50.5t-42 -169.5q0 -129 60 -179zM483 157.5
q43 52.5 43 161.5q0 78 -17.5 125.5t-54.5 70.5l-154 -406q20 -4 50 -4q90 0 133 52.5z" />
    <glyph glyph-name="oslashacute" unicode="&#x1ff;" horiz-adv-x="589" 
d="M295 709h117l-88 -187h-109zM166 11q-129 51 -129 226q0 120 63.5 183.5t193.5 63.5q27 0 51 -3l18 47h77l-24 -63q136 -50 136 -228q0 -247 -258 -247q-34 0 -58 4l-17 -47h-77zM302 369h-8q-65 0 -92.5 -30t-27.5 -102q0 -42 8.5 -69t27.5 -42zM294 105q66 0 93.5 30
t27.5 102q0 45 -10.5 72.5t-32.5 41.5l-93 -246h15z" />
    <glyph glyph-name="Scommaaccent" unicode="&#x218;" horiz-adv-x="555" 
d="M49 25v119q45 -18 96 -29t99 -11q75 0 105.5 14t30.5 58q0 29 -14 46t-46 29.5t-100 31.5q-101 28 -142 70t-41 116q0 89 65 137t189 48q56 0 106.5 -7.5t82.5 -19.5v-119q-82 31 -171 31q-68 0 -101.5 -15t-33.5 -55q0 -25 12.5 -40t42 -26.5t91.5 -27.5
q112 -30 155 -77.5t43 -121.5q0 -87 -66 -136.5t-195 -49.5t-208 35zM224 -47h117l-43 -179h-103z" />
    <glyph glyph-name="scommaaccent" unicode="&#x219;" horiz-adv-x="471" 
d="M124 -3q-48 7 -78 19v112q33 -14 77 -21.5t83 -7.5q52 0 71.5 6.5t19.5 26.5q0 18 -18 28t-69 26q-15 4 -38 12q-70 23 -102.5 55t-32.5 90q0 69 50.5 105t158.5 36q41 0 80.5 -6t68.5 -16v-111q-26 12 -61 19t-66 7q-48 0 -71 -6.5t-23 -25.5q0 -17 16.5 -25.5
t63.5 -22.5l33 -10q58 -18 89 -37.5t44.5 -46.5t13.5 -69q0 -71 -53 -107.5t-157 -36.5q-52 0 -100 7zM185 -47h117l-43 -179h-103z" />
    <glyph glyph-name="uni021A" unicode="&#x21a;" horiz-adv-x="552" 
d="M203 540h-198v104h530v-104h-197v-540h-135v540zM222 -47h106l-50 -201h-87z" />
    <glyph glyph-name="uni021B" unicode="&#x21b;" horiz-adv-x="368" 
d="M124 32q-40 42 -40 118v220h-67v104h67v102l135 40v-142h120l-8 -104h-112v-211q0 -38 17.5 -53t56.5 -15q28 0 58 10v-93q-45 -18 -106 -18q-81 0 -121 42zM178 -47h106l-50 -201h-87z" />
    <glyph glyph-name="uni0237" unicode="&#x237;" horiz-adv-x="321" 
d="M-9 -216v93q30 -10 60 -10q40 0 58.5 16.5t18.5 52.5v438h-71l12 100h194v-551q0 -73 -41.5 -115t-122.5 -42q-63 0 -108 18z" />
    <glyph glyph-name="uni0251" unicode="&#x251;" horiz-adv-x="591" 
d="M95.5 44q-58.5 54 -58.5 170q0 82 31 143.5t83.5 94t115.5 32.5q41 0 72 -9t59 -32v31h135v-474h-116l-8 44q-31 -27 -68 -40.5t-86 -13.5q-101 0 -159.5 54zM350 99q25 10 48 33v211q-41 42 -96 42q-63 0 -95.5 -43.5t-32.5 -127.5q0 -70 29 -97.5t89 -27.5q33 0 58 10z
" />
    <glyph glyph-name="uni0259" unicode="&#x259;" horiz-adv-x="542" 
d="M95.5 43.5q-58.5 53.5 -58.5 154.5v86h343q-10 56 -48 77.5t-122 21.5q-38 0 -77.5 -7t-67.5 -18v96q66 30 173 30q135 0 201 -61.5t66 -186.5q0 -72 -29 -127.5t-83.5 -87t-128.5 -31.5q-110 0 -168.5 53.5zM353 113.5q27 26.5 27 87.5h-225v-26q0 -88 105 -88
q66 0 93 26.5z" />
    <glyph glyph-name="uni02BB" unicode="&#x2bb;" horiz-adv-x="246" 
d="M107 654h102l-56 -206h-116z" />
    <glyph glyph-name="uni02BC" unicode="&#x2bc;" horiz-adv-x="246" 
d="M93 654h116l-70 -206h-102z" />
    <glyph glyph-name="uni02BE" unicode="&#x2be;" 
d="M-385 540q36 0 55 19.5t19 54.5q0 34 -19 53t-55 19v85q73 0 115 -43t42 -114t-42 -115t-115 -44v85z" />
    <glyph glyph-name="uni02BF" unicode="&#x2bf;" 
d="M-343 499q-42 44 -42 115t42 114t115 43v-85q-36 0 -55 -19t-19 -53q0 -35 19 -54.5t55 -19.5v-85q-73 0 -115 44z" />
    <glyph glyph-name="circumflex" unicode="&#x2c6;" horiz-adv-x="295" 
d="M104 706h86l135 -174h-104l-74 100l-72 -100h-106z" />
    <glyph glyph-name="caron" unicode="&#x2c7;" horiz-adv-x="295" 
d="M-31 706h106l72 -100l74 100h104l-135 -174h-86z" />
    <glyph glyph-name="uni02C8" unicode="&#x2c8;" 
d="M-67 666h88v-186h-88v186z" />
    <glyph glyph-name="uni02C9" unicode="&#x2c9;" 
d="M121 644h308v-83h-308v83z" />
    <glyph glyph-name="uni02CA" unicode="&#x2ca;" 
d="M-41 709h117l-88 -187h-109z" />
    <glyph glyph-name="uni02CB" unicode="&#x2cb;" 
d="M-125 709h117l80 -187h-109z" />
    <glyph glyph-name="uni02CC" unicode="&#x2cc;" 
d="M-67 -41h88v-186h-88v186z" />
    <glyph glyph-name="breve" unicode="&#x2d8;" horiz-adv-x="266" 
d="M17 577q-43 42 -43 115h90q0 -34 17.5 -56.5t49.5 -22.5q33 0 51 23t18 56h90q0 -73 -44 -115t-115 -42t-114 42z" />
    <glyph glyph-name="dotaccent" unicode="&#x2d9;" horiz-adv-x="110" 
d="M2 655h105v-98h-105v98z" />
    <glyph glyph-name="ring" unicode="&#x2da;" horiz-adv-x="266" 
d="M51 559.5q-35 32.5 -35 82.5t35 83t86 33t85.5 -33t34.5 -83t-34.5 -82.5t-85.5 -32.5t-86 32.5zM170 609q14 14 14 33q0 20 -14 34t-33 14t-33.5 -14t-14.5 -34q0 -19 14.5 -33t33.5 -14t33 14z" />
    <glyph glyph-name="ogonek" unicode="&#x2db;" horiz-adv-x="208" 
d="M41 -196.5q-33 23.5 -33 67.5q0 38 19 71.5t54 57.5h100q-67 -50 -67 -104q0 -37 45 -37q30 0 49 11v-76q-14 -6 -37.5 -10t-47.5 -4q-49 0 -82 23.5z" />
    <glyph glyph-name="tilde" unicode="&#x2dc;" horiz-adv-x="336" 
d="M213 561q-19 5 -49 16q-47 19 -73 19q-56 0 -90 -37v96q14 14 37.5 22.5t49.5 8.5q21 0 40.5 -5.5t43.5 -15.5q28 -10 43.5 -14.5t33.5 -4.5q56 0 83 38v-96q-10 -14 -31.5 -23t-48.5 -9q-20 0 -39 5z" />
    <glyph glyph-name="hungarumlaut" unicode="&#x2dd;" horiz-adv-x="359" 
d="M47 706h120l-92 -176h-107zM275 706h120l-92 -176h-107z" />
    <glyph glyph-name="gravecomb" unicode="&#x300;" 
d="M-475 709h117l80 -187h-109z" />
    <glyph glyph-name="acutecomb" unicode="&#x301;" 
d="M-350 709h117l-88 -187h-109z" />
    <glyph glyph-name="uni0302" unicode="&#x302;" 
d="M-77 706h86l135 -174h-104l-74 100l-72 -100h-106z" />
    <glyph glyph-name="tildecomb" unicode="&#x303;" 
d="M-291 561q-19 5 -49 16q-48 19 -73 19q-56 0 -90 -37v96q14 14 37.5 22.5t49.5 8.5q21 0 40.5 -5.5t43.5 -15.5q28 -10 43.5 -14.5t33.5 -4.5q56 0 83 38v-96q-10 -14 -31.5 -23t-48.5 -9q-20 0 -39 5z" />
    <glyph glyph-name="uni0304" unicode="&#x304;" 
d="M-185 644h308v-83h-308v83z" />
    <glyph glyph-name="uni0306" unicode="&#x306;" 
d="M-137 577q-43 42 -43 115h90q0 -34 17.5 -56.5t49.5 -22.5q33 0 51 23t18 56h90q0 -73 -44 -115t-115 -42t-114 42z" />
    <glyph glyph-name="uni0307" unicode="&#x307;" 
d="M-75 655h105v-98h-105v98z" />
    <glyph glyph-name="uni0308" unicode="&#x308;" 
d="M-157 655h106v-98h-106v98zM39 655h106v-98h-106v98z" />
    <glyph glyph-name="hookabovecomb" unicode="&#x309;" 
d="M-378 587q53 3 71.5 13.5t18.5 34.5q0 39 -69 39q-15 0 -33 -3t-29 -8v67q39 13 100 13q63 0 97 -26t34 -70q0 -42 -19.5 -64t-67.5 -31v-46h-103v81z" />
    <glyph glyph-name="uni030A" unicode="&#x30a;" 
d="M-113 552q-34 34 -34 85t34 85.5t90 34.5q57 0 91 -34t34 -86t-34 -85.5t-91 -33.5q-56 0 -90 34zM20 596q16 16 16 41t-16 41t-43 16q-26 0 -42 -16.5t-16 -40.5t16 -40.5t42 -16.5q27 0 43 16z" />
    <glyph glyph-name="uni030B" unicode="&#x30b;" 
d="M-168 706h120l-92 -176h-107zM60 706h120l-92 -176h-107z" />
    <glyph glyph-name="uni030C" unicode="&#x30c;" 
d="M-212 706h106l72 -100l74 100h104l-135 -174h-86z" />
    <glyph glyph-name="uni031B" unicode="&#x31b;" 
d="M-130 608q42 0 64.5 9.5t31.5 32.5t9 66h97q0 -76 -20.5 -118t-64 -59.5t-117.5 -18.5v88z" />
    <glyph glyph-name="dotbelowcomb" unicode="&#x323;" 
d="M-376 -82h107v-99h-107v99z" />
    <glyph glyph-name="uni0324" unicode="&#x324;" 
d="M-181 -82h107v-99h-107v99zM28 -82h107v-99h-107v99z" />
    <glyph glyph-name="uni0326" unicode="&#x326;" 
d="M-148 -37h106l-50 -201h-87z" />
    <glyph glyph-name="uni0327" unicode="&#x327;" 
d="M-75 -237.5q-24 2.5 -35 5.5v68q29 -8 61 -8q46 0 63 7t17 30q0 24 -18 30.5t-59 6.5h-44l29 98h88l-15 -45q52 0 79 -24t27 -67q0 -104 -152 -104q-17 0 -41 2.5z" />
    <glyph glyph-name="uni0328" unicode="&#x328;" 
d="M-89 -196.5q-33 23.5 -33 67.5q0 38 19 71.5t54 57.5h100q-67 -50 -67 -104q0 -37 45 -37q30 0 49 11v-76q-14 -6 -37.5 -10t-47.5 -4q-49 0 -82 23.5z" />
    <glyph glyph-name="uni032E" unicode="&#x32e;" 
d="M-137 -175q-43 42 -43 115h90q0 -34 17.5 -56.5t49.5 -22.5q33 0 51 22.5t18 56.5h90q0 -73 -44 -115t-115 -42t-114 42z" />
    <glyph glyph-name="uni0331" unicode="&#x331;" 
d="M-185 -72h308v-83h-308v83z" />
    <glyph glyph-name="uni0394" unicode="&#x394;" horiz-adv-x="644" 
d="M37 73l225 571h118l227 -572v-72h-570v73zM475 104l-154 391l-155 -391h309z" />
    <glyph glyph-name="uni03A9" unicode="&#x3a9;" horiz-adv-x="759" 
d="M44 100h128q-65 43 -100 110.5t-35 155.5q0 98 40.5 172.5t117.5 115.5t184 41t184 -41t117.5 -115.5t40.5 -172.5q0 -90 -34.5 -157.5t-100.5 -108.5h128v-100h-286v103q156 87 156 255q0 100 -55.5 161t-149.5 61t-149.5 -61t-55.5 -161q0 -168 156 -255v-103h-286v100
z" />
    <glyph glyph-name="uni03BC" unicode="&#x3bc;" horiz-adv-x="592" 
d="M57 474h135v-294q0 -47 22.5 -69t69.5 -22q34 0 63.5 13.5t51.5 35.5v336h135v-474h-125l-5 45q-69 -55 -167 -55q-25 0 -45 8v-141h-135v617z" />
    <glyph glyph-name="pi" unicode="&#x3c0;" horiz-adv-x="676" 
d="M427 32q-40 42 -40 118v220h-160v-370h-135v370h-65v104h559v-104h-64v-211q0 -38 17.5 -53t56.5 -15q28 0 58 10v-93q-45 -18 -106 -18q-81 0 -121 42z" />
    <glyph glyph-name="uni0E01" unicode="&#xe01;" horiz-adv-x="622" 
d="M62 172q0 51 17 84.5t60 46.5l-102 27v129q47 39 115.5 65t150.5 26q128 0 192.5 -51.5t64.5 -172.5v-326h-135v329q0 63 -29.5 89.5t-99.5 26.5q-43 0 -81 -13t-62 -33v-14l111 -30v-82q-39 -10 -53 -32.5t-14 -69.5v-171h-135v172z" />
    <glyph glyph-name="uni0E02" unicode="&#xe02;" horiz-adv-x="595" 
d="M107 45q-62 55 -62 154v34q0 36 14.5 63.5t39.5 60.5q16 21 23.5 33.5t7.5 24.5q0 15 -7 20t-25 5h-65l11 100h140q83 0 83 -77q0 -30 -11 -54.5t-32 -59.5q-22 -33 -33 -58.5t-11 -56.5v-43q0 -47 27.5 -71.5t80.5 -24.5q110 0 110 100v345h135v-339q0 -98 -65.5 -154.5
t-179.5 -56.5q-119 0 -181 55z" />
    <glyph glyph-name="uni0E03" unicode="&#xe03;" horiz-adv-x="595" 
d="M106.5 42q-61.5 52 -61.5 150v13q0 36 19 70.5t54 79.5q20 26 30 41.5t10 27.5q0 19 -16 19q-12 0 -25 -11v-41h-85v149h89v-28q17 14 36 21t45 7q80 0 80 -82q0 -33 -13 -60.5t-40 -67.5q-25 -36 -37 -62t-12 -55v-22q0 -47 27.5 -71.5t80.5 -24.5q110 0 110 100v345
h135v-339q0 -98 -65.5 -154.5t-179.5 -56.5q-120 0 -181.5 52z" />
    <glyph glyph-name="uni0E04" unicode="&#xe04;" horiz-adv-x="628" 
d="M57 335q0 102 62.5 158.5t192.5 56.5t192 -56.5t62 -158.5v-335h-135v345q0 49 -31.5 74.5t-87.5 25.5q-59 0 -89.5 -25.5t-30.5 -74.5v-97q42 32 94 32h65l4 -107h-72q-53 0 -91 -29v-144h-135v335z" />
    <glyph glyph-name="uni0E05" unicode="&#xe05;" horiz-adv-x="628" 
d="M57 386q0 77 33.5 120.5t104.5 43.5q75 0 116 -51q20 26 53.5 38.5t68.5 12.5q70 0 101.5 -41t31.5 -123v-386h-134v379q0 28 -9 42t-33 14q-18 0 -30 -9.5t-21 -26.5h-55q-7 17 -16.5 26.5t-25.5 9.5q-25 0 -38 -15t-13 -41v-131q42 32 94 32h66l4 -107h-73
q-53 0 -91 -29v-144h-134v386z" />
    <glyph glyph-name="uni0E06" unicode="&#xe06;" horiz-adv-x="618" 
d="M187 53l-6 -53h-124v192q0 36 19.5 73t53.5 85q20 29 30 46t10 28q0 19 -16 19q-12 0 -25 -11v-41h-85v149h89v-28q17 14 36 21t45 7q80 0 80 -82q0 -33 -13 -62.5t-40 -72.5q-25 -39 -37 -66.5t-12 -56.5v-49q22 -24 58.5 -40t73.5 -16q49 0 73 24t24 78v343h135v-351
q0 -93 -50 -146t-137 -53q-104 0 -182 63z" />
    <glyph glyph-name="uni0E07" unicode="&#xe07;" horiz-adv-x="527" 
d="M149 5l-152 370h131l119 -289q74 0 108 50t34 151q0 61 -11.5 94.5t-37.5 48t-72 14.5h-41v96h60q118 0 174 -62t56 -191q0 -152 -69 -224.5t-188 -72.5q-64 0 -111 15z" />
    <glyph glyph-name="uni0E08" unicode="&#xe08;" horiz-adv-x="560" 
d="M222.5 -5.5q-28.5 4.5 -45.5 10.5l-76 203h-74l6 96h153l79 -211q64 0 97 44t33 138q0 66 -17 102.5t-56 52t-109 15.5q-41 0 -86.5 -6.5t-85.5 -19.5v100q98 31 207 31q144 0 209.5 -69t65.5 -206q0 -90 -34 -154.5t-91 -97.5t-125 -33q-22 0 -50.5 4.5z" />
    <glyph glyph-name="uni0E09" unicode="&#xe09;" horiz-adv-x="595" 
d="M88.5 37.5q-45.5 47.5 -45.5 139.5v123h135v-103q0 -52 22 -77t73 -25q76 0 125 57v167q0 48 -16 75.5t-51.5 39t-96.5 11.5q-41 0 -98 -8.5t-99 -21.5v100q47 16 109 25.5t123 9.5q138 0 201 -57t63 -175v-318h-124l-6 54q-76 -64 -185 -64q-84 0 -129.5 47.5z" />
    <glyph glyph-name="uni0E0A" unicode="&#xe0a;" horiz-adv-x="597" 
d="M109 45q-62 55 -62 154v34q0 36 14.5 63.5t39.5 60.5q16 21 23.5 33.5t7.5 24.5q0 15 -7 20t-25 5h-65l11 100h140q83 0 83 -77q0 -30 -11 -54.5t-32 -59.5q-22 -33 -33 -58.5t-11 -56.5v-43q0 -47 27.5 -71.5t80.5 -24.5q110 0 110 100v63q0 38 -13 54t-46 16h-28l6 94
h18q33 0 48 17t15 54v57h135v-54q0 -48 -15 -76t-54 -45q40 -19 54.5 -47t14.5 -75v-52q0 -98 -65.5 -154.5t-179.5 -56.5q-119 0 -181 55z" />
    <glyph glyph-name="uni0E0B" unicode="&#xe0b;" horiz-adv-x="597" 
d="M109 41q-62 51 -62 145v25q0 36 19 69.5t54 76.5q20 25 30 40t10 27q0 19 -16 19q-12 0 -25 -11v-41h-85v149h89v-28q17 14 36 21t45 7q80 0 80 -82q0 -33 -13 -60.5t-40 -67.5q-25 -36 -37 -62t-12 -55v-22q0 -47 27.5 -71.5t80.5 -24.5q110 0 110 100v63q0 38 -13 54
t-46 16h-28l6 94h18q33 0 48 17t15 54v57h135v-54q0 -48 -15 -76t-54 -45q40 -19 54.5 -47t14.5 -75v-52q0 -98 -65.5 -154.5t-179.5 -56.5q-119 0 -181 51z" />
    <glyph glyph-name="uni0E0C" unicode="&#xe0c;" horiz-adv-x="961" 
d="M620.5 6q-42.5 16 -80.5 47l-6 -53h-119v329q0 62 -28 89t-91 27q-43 0 -81 -13t-62 -33v-14l111 -30v-82q-39 -10 -53 -32.5t-14 -69.5v-29q0 -20 8.5 -28.5t28.5 -8.5h53v-105h-122q-46 0 -74.5 29.5t-28.5 76.5v66q0 51 17 84.5t60 46.5l-102 27v129q47 39 115.5 65
t150.5 26q120 0 181 -51.5t61 -172.5v-175q23 -25 57 -40.5t70 -15.5q48 0 70 24t22 78v343h135v-351q0 -94 -47.5 -146.5t-134.5 -52.5q-54 0 -96.5 16z" />
    <glyph glyph-name="uni0E0D" unicode="&#xe0d;" horiz-adv-x="977" 
d="M560.5 -61q-55.5 10 -97.5 33v104q41 -21 98.5 -32t103.5 -11q62 0 100 13t38 36q0 18 -16 28q-52 -30 -125 -30q-120 0 -183.5 57t-63.5 170v22q0 62 -28 89t-91 27q-43 0 -81 -13t-62 -33v-14l111 -30v-82q-39 -10 -53 -32.5t-14 -69.5v-29q0 -20 8.5 -28.5t28.5 -8.5
h53v-105h-122q-46 0 -74.5 29.5t-28.5 76.5v66q0 51 17 84.5t60 46.5l-102 27v129q47 39 115.5 65t150.5 26q120 0 181 -51.5t61 -172.5v-21q0 -62 28 -91t89 -29t89 29t28 91v235h135v-233q0 -87 -40 -140q19 -17 30.5 -42.5t11.5 -53.5q0 -68 -65.5 -105t-180.5 -37
q-54 0 -109.5 10z" />
    <glyph glyph-name="uni0E0E" unicode="&#xe0e;" horiz-adv-x="658" 
d="M164 -94q73 35 170 35q38 0 71.5 -7t54.5 -18v413q0 63 -27 89.5t-90 26.5q-43 0 -81 -13t-62 -33v-14l111 -30v-82q-37 -12 -48.5 -33t-11.5 -69v-37q0 -70 -33.5 -102t-98.5 -32h-72v105h33q19 0 26.5 8t7.5 28v31q0 52 15 83.5t57 47.5l-102 27v129q47 39 115.5 65
t150.5 26q119 0 182 -53t63 -171v-520h-135q-54 30 -142 30q-38 0 -81 -9.5t-73 -23.5v103z" />
    <glyph glyph-name="uni0E0F" unicode="&#xe0f;" horiz-adv-x="658" 
d="M366.5 -182q-31.5 13 -48.5 35q-27 -47 -91 -47h-104l6 102h73q29 0 44.5 10t24.5 34h86q6 -24 18.5 -36t36.5 -12q48 0 48 51v374q0 63 -27 89.5t-90 26.5q-43 0 -81 -13t-62 -33v-14l111 -30v-82q-37 -12 -48.5 -33t-11.5 -69v-37q0 -70 -33.5 -102t-98.5 -32h-72v105
h33q19 0 26.5 8t7.5 28v31q0 52 15 83.5t57 47.5l-102 27v129q47 39 115.5 65t150.5 26q119 0 182 -53t63 -171v-373q0 -68 -43 -108t-117 -40q-37 0 -68.5 13z" />
    <glyph glyph-name="uni0E10" unicode="&#xe10;" horiz-adv-x="599" 
d="M222.5 -5.5q-28.5 4.5 -45.5 10.5l-76 203h-74l6 96h153l79 -211q64 0 97 44t33 138q0 66 -17 102.5t-56 52t-109 15.5q-41 0 -86.5 -6.5t-85.5 -19.5v100q98 31 207 31q51 0 101 -10h228l-7 -103h-88q21 -34 31 -71.5t10 -90.5q0 -90 -34 -154.5t-91 -97.5t-125 -33
q-22 0 -50.5 4.5zM234 -161q-27 -47 -91 -47h-90l6 102h59q29 0 44.5 10t24.5 34h86q6 -24 20.5 -36t41.5 -12q55 0 55 51v23h112v-25q0 -70 -39.5 -109t-115.5 -39q-77 0 -113 48z" />
    <glyph glyph-name="uni0E11" unicode="&#xe11;" horiz-adv-x="612" 
d="M74 197q0 34 13.5 67t38.5 76q18 32 26 50.5t8 33.5q0 19 -16 19q-12 0 -25 -11v-41h-85v149h89v-28q18 14 34.5 21t42.5 7q39 0 60 -29q24 17 56.5 28t67.5 11q85 0 125.5 -46t40.5 -139v-365h-135v361q0 45 -14.5 64.5t-51.5 19.5q-17 0 -38 -7.5t-33 -17.5
q0 -23 -7.5 -44.5t-23.5 -52.5q-19 -39 -28.5 -67t-9.5 -63v-193h-135v197z" />
    <glyph glyph-name="uni0E12" unicode="&#xe12;" horiz-adv-x="993" 
d="M98.5 56.5q-61.5 66.5 -61.5 202.5q0 141 46.5 216t130.5 75q40 0 65 -13t42 -38q21 23 54 37t69 14q68 0 100.5 -41.5t32.5 -114.5v-243q23 -25 57 -40.5t70 -15.5q48 0 70 24t22 78v343h135v-351q0 -94 -47.5 -146.5t-134.5 -52.5q-54 0 -96.5 16t-80.5 47l-6 -53h-119
v373q0 38 -8 55t-33 17q-19 0 -33 -11.5t-20 -34.5h-65q-11 25 -22 35.5t-31 10.5q-41 0 -55.5 -47t-14.5 -139q0 -88 30.5 -126t91.5 -38q46 0 69 8v-99q-37 -14 -93 -14q-103 0 -164.5 66.5z" />
    <glyph glyph-name="uni0E13" unicode="&#xe13;" horiz-adv-x="966" 
d="M462.5 42.5q-47.5 52.5 -47.5 146.5v140q0 62 -28 89t-91 27q-43 0 -81 -13t-62 -33v-14l111 -30v-82q-39 -10 -53 -32.5t-14 -69.5v-29q0 -20 8.5 -28.5t28.5 -8.5h53v-105h-122q-46 0 -74.5 29.5t-28.5 76.5v66q0 51 17 84.5t60 46.5l-102 27v129q47 39 115.5 65
t150.5 26q120 0 181 -51.5t61 -172.5v-129q0 -54 24 -78t73 -24q36 0 70 15.5t57 40.5v389h135v-540h-124l-6 53q-35 -32 -78 -47.5t-99 -15.5q-87 0 -134.5 52.5z" />
    <glyph glyph-name="uni0E14" unicode="&#xe14;" horiz-adv-x="653" 
d="M98.5 56.5q-61.5 66.5 -61.5 202.5q0 139 72 215t210 76q92 0 153.5 -31t90 -82t28.5 -111v-326h-135v317q0 61 -31.5 94.5t-107.5 33.5q-152 0 -152 -186q0 -88 30.5 -126t91.5 -38q46 0 69 8v-99q-37 -14 -93 -14q-103 0 -164.5 66.5z" />
    <glyph glyph-name="uni0E15" unicode="&#xe15;" horiz-adv-x="659" 
d="M98.5 56.5q-61.5 66.5 -61.5 202.5q0 141 49.5 216t137.5 75q40 0 65 -13t42 -38q20 23 55.5 37t72.5 14q68 0 103 -42t35 -114v-394h-135v373q0 37 -10 54.5t-36 17.5q-19 0 -33 -11.5t-20 -34.5h-65q-11 25 -22 35.5t-31 10.5q-45 0 -62.5 -47.5t-17.5 -138.5
q0 -88 30.5 -126t91.5 -38q46 0 69 8v-99q-37 -14 -93 -14q-103 0 -164.5 66.5z" />
    <glyph glyph-name="uni0E16" unicode="&#xe16;" horiz-adv-x="622" 
d="M90.5 29.5q-28.5 29.5 -28.5 76.5v66q0 51 17 84.5t60 46.5l-102 27v129q47 39 115.5 65t150.5 26q128 0 192.5 -51.5t64.5 -172.5v-326h-135v329q0 63 -29.5 89.5t-99.5 26.5q-43 0 -81 -13t-62 -33v-14l111 -30v-82q-39 -10 -53 -32.5t-14 -69.5v-29q0 -20 8.5 -28.5
t28.5 -8.5h53v-105h-122q-46 0 -74.5 29.5z" />
    <glyph glyph-name="uni0E17" unicode="&#xe17;" horiz-adv-x="618" 
d="M57 540h124l6 -53q37 30 84.5 46.5t102.5 16.5q85 0 133.5 -52t48.5 -143v-355h-135v347q0 51 -24 74.5t-73 23.5q-37 0 -73.5 -16t-58.5 -40v-389h-135v540z" />
    <glyph glyph-name="uni0E18" unicode="&#xe18;" horiz-adv-x="538" 
d="M149.5 2q-59.5 12 -102.5 30v201h124v-123q36 -15 95 -15q55 0 82.5 16t27.5 56q0 25 -15.5 40t-42 24t-78.5 21q-20 4 -30 7q-57 14 -92.5 29t-58 42t-22.5 70q0 72 62 111t179 39q57 0 111 -7.5t85 -17.5v-108q-32 13 -80.5 20.5t-97.5 7.5q-131 0 -131 -41
q0 -22 24 -32.5t78 -22.5l63 -16q60 -17 95.5 -34.5t55.5 -48.5t20 -83q0 -85 -60 -131t-167 -46q-65 0 -124.5 12z" />
    <glyph glyph-name="uni0E19" unicode="&#xe19;" horiz-adv-x="618" 
d="M107 43q-50 53 -50 146v351h135v-343q0 -54 24 -78t73 -24q37 0 73.5 16t58.5 40v389h135v-540h-124l-6 53q-78 -63 -182 -63q-87 0 -137 53z" />
    <glyph glyph-name="uni0E1A" unicode="&#xe1a;" horiz-adv-x="633" 
d="M124.5 47.5q-67.5 57.5 -67.5 169.5v323h135v-325q0 -61 30.5 -90.5t91.5 -29.5t91.5 29.5t30.5 90.5v325h135v-323q0 -112 -67.5 -169.5t-189.5 -57.5t-189.5 57.5z" />
    <glyph glyph-name="uni0E1B" unicode="&#xe1b;" horiz-adv-x="633" 
d="M124.5 47.5q-67.5 57.5 -67.5 169.5v323h135v-325q0 -61 30.5 -90.5t91.5 -29.5t91.5 29.5t30.5 90.5v485h135v-483q0 -112 -67.5 -169.5t-189.5 -57.5t-189.5 57.5z" />
    <glyph glyph-name="uni0E1C" unicode="&#xe1c;" horiz-adv-x="650" 
d="M57 437q0 47 24 75t70 28h121l6 -100h-51q-42 0 -42 -45v-217l113 197h50l113 -197v362h127v-540h-130l-135 244l-136 -244h-130v437z" />
    <glyph glyph-name="uni0E1D" unicode="&#xe1d;" horiz-adv-x="650" 
d="M57 437q0 47 24 75t70 28h121l6 -100h-51q-42 0 -42 -45v-217l113 197h50l113 -197v522h127v-700h-130l-135 244l-136 -244h-130v437z" />
    <glyph glyph-name="uni0E1E" unicode="&#xe1e;" horiz-adv-x="725" 
d="M27 540h130l71 -347l82 261v86h94l96 -347l69 347h129l-126 -540h-117l-89 309l-96 -309h-117z" />
    <glyph glyph-name="uni0E1F" unicode="&#xe1f;" horiz-adv-x="725" 
d="M27 540h130l71 -347l82 261v86h94l96 -347l95 507h129l-152 -700h-117l-89 309l-96 -309h-117z" />
    <glyph glyph-name="uni0E20" unicode="&#xe20;" horiz-adv-x="657" 
d="M47 105h33q19 0 26.5 8t7.5 28v31q0 52 15 83.5t57 47.5l-102 27v129q47 39 115.5 65t150.5 26q119 0 182 -53t63 -171v-326h-135v329q0 63 -27 89.5t-90 26.5q-43 0 -81 -13t-62 -33v-14l111 -30v-82q-37 -12 -48.5 -33t-11.5 -69v-37q0 -70 -33.5 -102t-98.5 -32h-72
v105z" />
    <glyph glyph-name="uni0E21" unicode="&#xe21;" horiz-adv-x="618" 
d="M187 53l-6 -53h-124v540h135v-389q22 -24 58.5 -40t73.5 -16q49 0 73 24t24 78v343h135v-351q0 -93 -50 -146t-137 -53q-104 0 -182 63z" />
    <glyph glyph-name="uni0E22" unicode="&#xe22;" horiz-adv-x="607" 
d="M100.5 31q-70.5 41 -70.5 133q0 37 17 67.5t51 49.5q-30 13 -48 41.5t-18 67.5q0 77 48.5 118.5t130.5 41.5q56 0 93 -14v-99q-29 8 -69 8q-38 0 -56.5 -13t-18.5 -42q0 -32 20 -45t64 -13h56l5 -99h-62q-85 0 -85 -69q0 -35 30.5 -52t94.5 -17q127 0 127 105v340h135
v-328q0 -114 -65 -168t-191 -54q-118 0 -188.5 41z" />
    <glyph glyph-name="uni0E23" unicode="&#xe23;" horiz-adv-x="503" 
d="M130.5 -2q-51.5 8 -82.5 21v109q36 -15 82 -24t84 -9q68 0 96 10.5t28 40.5q0 19 -10.5 31t-30 20.5t-61.5 22.5l-43 14q-81 28 -118.5 61.5t-37.5 93.5q0 74 57.5 117.5t167.5 43.5q45 0 92.5 -7t78.5 -17v-108q-31 13 -73.5 20t-78.5 7q-54 0 -85 -11.5t-31 -41.5
q0 -23 21 -35t78 -30q18 -5 46 -15q58 -20 91.5 -41t49 -50.5t15.5 -74.5q0 -77 -59.5 -116.5t-167.5 -39.5q-57 0 -108.5 8z" />
    <glyph glyph-name="uni0E24" unicode="&#xe24;" horiz-adv-x="622" 
d="M425 329q0 63 -29.5 89.5t-99.5 26.5q-43 0 -81 -13t-62 -33v-14l111 -30v-82q-39 -10 -53 -32.5t-14 -69.5v-29q0 -20 8.5 -28.5t28.5 -8.5h53v-105h-122q-46 0 -74.5 29.5t-28.5 76.5v66q0 51 17 84.5t60 46.5l-102 27v129q47 39 115.5 65t150.5 26q128 0 192.5 -51.5
t64.5 -172.5v-486h-135v489z" />
    <glyph glyph-name="uni0E25" unicode="&#xe25;" horiz-adv-x="603" 
d="M92 31q-52 41 -52 129q0 81 55 124.5t158 43.5h153v26q0 50 -28 70.5t-99 20.5q-94 0 -179 -27v101q43 14 97 22.5t104 8.5q121 0 180.5 -51.5t59.5 -158.5v-340h-135v229h-145q-46 0 -69.5 -16t-23.5 -53t21.5 -51t74.5 -14q46 0 69 8v-99q-45 -14 -105 -14
q-84 0 -136 41z" />
    <glyph glyph-name="uni0E26" unicode="&#xe26;" horiz-adv-x="658" 
d="M460 329q0 63 -27 89.5t-90 26.5q-43 0 -81 -13t-62 -33v-14l111 -30v-82q-37 -12 -48.5 -33t-11.5 -69v-37q0 -70 -33.5 -102t-98.5 -32h-72v105h33q19 0 26.5 8t7.5 28v31q0 52 15 83.5t57 47.5l-102 27v129q47 39 115.5 65t150.5 26q119 0 182 -53t63 -171v-486h-135
v489z" />
    <glyph glyph-name="uni0E27" unicode="&#xe27;" horiz-adv-x="491" 
d="M21 22v103q68 -30 140 -30q95 0 135 39.5t40 135.5t-40 135.5t-135 39.5q-72 0 -140 -30v103q75 32 172 32q136 0 203.5 -71t67.5 -209t-67.5 -209t-203.5 -71q-97 0 -172 32z" />
    <glyph glyph-name="uni0E28" unicode="&#xe28;" horiz-adv-x="654" 
d="M57 335q0 102 62.5 158.5t192.5 56.5q48 0 95 -10h210l-7 -103h-71q14 -17 20.5 -44.5t6.5 -57.5v-335h-135v345q0 49 -31.5 74.5t-87.5 25.5q-59 0 -89.5 -25.5t-30.5 -74.5v-97q42 32 94 32h65l4 -107h-72q-53 0 -91 -29v-144h-135v335z" />
    <glyph glyph-name="uni0E29" unicode="&#xe29;" horiz-adv-x="640" 
d="M124.5 47.5q-67.5 57.5 -67.5 169.5v323h135v-325q0 -61 30.5 -90.5t91.5 -29.5t91.5 29.5t30.5 90.5v61h-115v99h115v165h135v-165h57l-9 -99h-48v-59q0 -112 -67.5 -169.5t-189.5 -57.5t-189.5 57.5z" />
    <glyph glyph-name="uni0E2A" unicode="&#xe2a;" horiz-adv-x="622" 
d="M92 31q-52 41 -52 129q0 81 55 124.5t158 43.5h153v26q0 50 -28 70.5t-99 20.5q-94 0 -179 -27v101q43 14 97 22.5t104 8.5q56 0 96 -10h188l-7 -103h-61q24 -37 24 -97v-340h-135v229h-145q-46 0 -69.5 -16t-23.5 -53t21.5 -51t74.5 -14q46 0 69 8v-99q-45 -14 -105 -14
q-84 0 -136 41z" />
    <glyph glyph-name="uni0E2B" unicode="&#xe2b;" horiz-adv-x="610" 
d="M57 540h135v-164h134q50 0 70.5 22t20.5 69v73h135v-68q0 -113 -77 -144q40 -16 56.5 -47.5t16.5 -79.5v-201h-135v186q0 51 -19.5 71t-70.5 20h-131v-277h-135v540z" />
    <glyph glyph-name="uni0E2C" unicode="&#xe2c;" horiz-adv-x="725" 
d="M27 540h130l71 -347l82 221v86h94l96 -307l51 236q4 17 4 34q0 26 -13 37.5t-40 11.5h-40l17 98h46q35 0 53 13t25 46l7 31h114l-10 -49q-8 -41 -26 -63t-51 -29q36 -21 36 -76q0 -25 -5 -46l-97 -437h-116l-89 279l-96 -279h-117z" />
    <glyph glyph-name="uni0E2D" unicode="&#xe2d;" horiz-adv-x="574" 
d="M138.5 1.5q-58.5 11.5 -101.5 30.5v284h229l6 -99h-107v-109q18 -6 45 -9.5t51 -3.5q55 0 87 17t46.5 54.5t14.5 101.5q0 69 -17.5 107t-56.5 54t-108 16q-96 0 -183 -27v101q44 15 102 23t114 8q143 0 210 -71t67 -211q0 -137 -67 -207.5t-210 -70.5q-63 0 -121.5 11.5z
" />
    <glyph glyph-name="uni0E2E" unicode="&#xe2e;" horiz-adv-x="614" 
d="M138.5 1.5q-58.5 11.5 -101.5 30.5v284h229l6 -99h-107v-109q18 -6 45 -9.5t51 -3.5q55 0 87 17t46.5 54.5t14.5 101.5q0 69 -17.5 107t-56.5 54t-108 16q-96 0 -183 -27v101q44 15 102 23t114 8q48 0 96 -10h221l-7 -103h-75q42 -62 42 -169q0 -137 -67 -207.5
t-210 -70.5q-63 0 -121.5 11.5z" />
    <glyph glyph-name="uni0E2F" unicode="&#xe2f;" horiz-adv-x="603" 
d="M406 246q-27 -15 -62.5 -24.5t-71.5 -9.5q-97 0 -154.5 46.5t-57.5 138.5q0 72 34 143h130q-36 -70 -36 -134q0 -95 103 -95q37 0 64.5 8.5t50.5 25.5v195h135v-540h-135v246z" />
    <glyph glyph-name="uni0E30" unicode="&#xe30;" horiz-adv-x="323" 
d="M37 470h114v-49h139l-4 -99h-249v148zM37 202h114v-49h139l-4 -99h-249v148z" />
    <glyph glyph-name="uni0E31" unicode="&#xe31;" 
d="M-314 773h110v-67h249l-5 -92h-354v159z" />
    <glyph glyph-name="uni0E32" unicode="&#xe32;" horiz-adv-x="445" 
d="M248 332q0 58 -22.5 85.5t-82.5 27.5q-32 0 -69 -7t-67 -19v99q31 14 75 23t87 9q113 0 163.5 -48t50.5 -151v-351h-135v332z" />
    <glyph glyph-name="uni0E33" unicode="&#xe33;" horiz-adv-x="445" 
d="M-212 619.5q-35 32.5 -35 82.5t35 83t86 33t85.5 -33t34.5 -83t-34.5 -82.5t-85.5 -32.5t-86 32.5zM-95 671.5q13 13.5 13 30.5q0 18 -13 31.5t-31 13.5t-31.5 -13.5t-13.5 -31.5q0 -17 13.5 -30.5t31.5 -13.5t31 13.5zM248 332q0 58 -22.5 85.5t-82.5 27.5q-32 0 -69 -7
t-67 -19v99q31 14 75 23t87 9q113 0 163.5 -48t50.5 -151v-351h-135v332z" />
    <glyph glyph-name="uni0E34" unicode="&#xe34;" 
d="M-492 706h430v-92h-437z" />
    <glyph glyph-name="uni0E35" unicode="&#xe35;" 
d="M-492 706h320v81h110v-173h-437z" />
    <glyph glyph-name="uni0E36" unicode="&#xe36;" 
d="M-492 706h251q-4 39 21.5 68t75.5 29q49 0 73.5 -26.5t24.5 -66.5q0 -42 -26.5 -69t-76.5 -27h-350zM-114.5 682q10.5 11 10.5 27q0 17 -11 28.5t-28 11.5q-16 0 -27.5 -11t-11.5 -29q0 -16 11.5 -27t27.5 -11q18 0 28.5 11z" />
    <glyph glyph-name="uni0E37" unicode="&#xe37;" 
d="M-492 706h183v81h95v-81h57v81h95v-173h-437z" />
    <glyph glyph-name="uni0E38" unicode="&#xe38;" 
d="M-177 -137h-60l5 86h169v-202h-114v116z" />
    <glyph glyph-name="uni0E39" unicode="&#xe39;" 
d="M-292.5 -240.5q-35.5 23.5 -35.5 61.5v47h-55l5 81h144v-96q0 -32 37 -32q18 0 28 8t10 24v96h96v-106q0 -46 -34 -76.5t-100 -30.5q-60 0 -95.5 23.5z" />
    <glyph glyph-name="uni0E3A" unicode="&#xe3a;" 
d="M-173 -161.5q-21 20.5 -21 50.5t21 50.5t51 20.5t51 -20.5t21 -50.5t-21 -50.5t-51 -20.5t-51 20.5z" />
    <glyph glyph-name="uni0E3F" unicode="&#xe3f;" horiz-adv-x="636" 
d="M262 0h-205v644h205v86h98v-86h23q96 0 144 -45t48 -129q0 -50 -19.5 -85.5t-54.5 -54.5q48 -15 73 -48.5t25 -93.5q0 -93 -52.5 -140.5t-151.5 -47.5h-35v-86h-98v86zM262 377v167h-70v-167h70zM449 459q0 42 -20 62.5t-69 22.5v-167q89 0 89 82zM262 99v180h-70v-180
h70zM363 99q52 0 75.5 21.5t23.5 73.5q0 43 -23 63.5t-79 21.5v-180h3z" />
    <glyph glyph-name="uni0E40" unicode="&#xe40;" horiz-adv-x="308" 
d="M87 26.5q-27 26.5 -27 85.5v428h135v-393q0 -42 41 -42h34v-105h-92q-64 0 -91 26.5z" />
    <glyph glyph-name="uni0E41" unicode="&#xe41;" horiz-adv-x="562" 
d="M87 26.5q-27 26.5 -27 85.5v428h135v-393q0 -42 41 -42h34v-105h-92q-64 0 -91 26.5zM343 26.5q-27 26.5 -27 85.5v428h135v-393q0 -42 41 -42h34v-105h-92q-64 0 -91 26.5z" />
    <glyph glyph-name="uni0E42" unicode="&#xe42;" horiz-adv-x="313" 
d="M118 26.5q-27 26.5 -27 85.5v339q0 60 -24 93t-75 51v99h317v-105h-147q64 -40 64 -134v-308q0 -42 41 -42h34v-105h-92q-64 0 -91 26.5z" />
    <glyph glyph-name="uni0E43" unicode="&#xe43;" horiz-adv-x="300" 
d="M70 26.5q-27 26.5 -27 85.5v216q0 51 19 85.5t53 72.5q20 22 28.5 34.5t8.5 25.5q0 25 -14 35.5t-45 10.5q-54 0 -106 -30v97q30 18 72 28t83 10q74 0 112.5 -29t38.5 -86q0 -36 -14 -62t-42 -63q-29 -37 -44 -66t-15 -68v-176q0 -42 41 -42h34v-105h-92q-64 0 -91 26.5z
" />
    <glyph glyph-name="uni0E44" unicode="&#xe44;" horiz-adv-x="308" 
d="M98 26.5q-27 26.5 -27 85.5v330q0 101 66 147h-145v105h308v-98q-50 -18 -72 -56.5t-22 -103.5v-289q0 -42 41 -42h34v-105h-92q-64 0 -91 26.5z" />
    <glyph glyph-name="uni0E45" unicode="&#xe45;" horiz-adv-x="445" 
d="M248 332q0 58 -22.5 85.5t-82.5 27.5q-32 0 -69 -7t-67 -19v99q31 14 75 23t87 9q113 0 163.5 -48t50.5 -151v-511h-135v492z" />
    <glyph glyph-name="uni0E46" unicode="&#xe46;" horiz-adv-x="631" 
d="M434 399q0 23 -8 34.5t-29 11.5q-32 0 -49 -46h-52q-7 24 -16.5 35t-27.5 11q-48 0 -48 -88q0 -42 18.5 -62.5t57.5 -20.5q46 0 69 8v-99q-37 -14 -93 -14q-94 0 -145 48.5t-51 139.5q0 48 17.5 92t53.5 72.5t88 28.5q35 0 59.5 -11.5t44.5 -38.5q43 50 116 50
q64 0 97 -39t33 -113v-398h-135v399z" />
    <glyph glyph-name="uni0E47" unicode="&#xe47;" 
d="M-458.5 644q-35.5 32 -35.5 89t36.5 91.5t102.5 34.5h252l-6 -75h-233q-30 0 -45.5 -12t-15.5 -39q0 -47 50 -47q48 0 48 40v18h80v-18q0 -20 10.5 -28.5t32.5 -8.5h61v-75h-71q-26 0 -46 7.5t-28 23.5q-10 -15 -38.5 -24t-57.5 -9q-61 0 -96.5 32z" />
    <glyph glyph-name="uni0E48" unicode="&#xe48;" 
d="M-197 779h135v-165h-135v165z" />
    <glyph glyph-name="uni0E49" unicode="&#xe49;" 
d="M-305 703h-78v92h169v-89h214l-5 -92h-300v89z" />
    <glyph glyph-name="uni0E4A" unicode="&#xe4a;" 
d="M-440.5 623.5q-31.5 27.5 -31.5 80.5q0 51 27 80t73 29q53 0 68 -37h1q8 18 27 27.5t43 9.5q47 0 69.5 -22t22.5 -59v-62h8q11 0 15.5 5.5t4.5 20.5v112h74v-118q0 -39 -23.5 -62t-63.5 -23h-89v103q0 20 -6 29t-22 9q-18 0 -24 -10.5t-6 -29.5v-13h-58v13q0 40 -30 40
q-33 0 -33 -45q0 -24 12.5 -34t38.5 -10h29v-61h-40q-55 0 -86.5 27.5z" />
    <glyph glyph-name="uni0E4B" unicode="&#xe4b;" 
d="M-243 657h-58v82h58v50h125v-50h60v-82h-60v-43h-125v43z" />
    <glyph glyph-name="uni0E4C" unicode="&#xe4c;" 
d="M-314 771h306l-4 -92h-192v-65h-110v157z" />
    <glyph glyph-name="uni0E4D" unicode="&#xe4d;" 
d="M-212 629.5q-35 32.5 -35 82.5t35 83t86 33t85.5 -33t34.5 -83t-34.5 -82.5t-85.5 -32.5t-86 32.5zM-95 681.5q13 13.5 13 30.5q0 18 -13 31.5t-31 13.5t-31.5 -13.5t-13.5 -31.5q0 -17 13.5 -30.5t31.5 -13.5t31 13.5z" />
    <glyph glyph-name="uni0E4E" unicode="&#xe4e;" 
d="M-276 624q-30 19 -30 56q0 35 22 55.5t56 25.5q-13 14 -13 40q0 28 27 46t80 18q16 0 33.5 -3t28.5 -8v-54q-10 6 -24.5 9t-26.5 3q-41 0 -41 -22q0 -11 9 -16.5t31 -9.5v-51q-18 9 -43 9q-52 0 -52 -30q0 -14 11 -20t35 -6q40 0 62 15v-60q-24 -16 -78 -16q-57 0 -87 19
z" />
    <glyph glyph-name="uni0E4F" unicode="&#xe4f;" horiz-adv-x="599" 
d="M167.5 25q-60.5 35 -95.5 95t-35 132q0 71 35 131t95.5 95.5t131.5 35.5t131.5 -35.5t95.5 -95.5t35 -131q0 -72 -35 -132t-95.5 -95t-131.5 -35t-131.5 35zM386 101.5q40 23.5 63.5 63.5t23.5 87t-23.5 87t-63.5 63.5t-87 23.5t-87 -23.5t-63.5 -63.5t-23.5 -87
t23.5 -87t63.5 -63.5t87 -23.5t87 23.5zM210.5 163q-36.5 37 -36.5 89t36.5 88.5t88.5 36.5t88.5 -36.5t36.5 -88.5t-36.5 -89t-88.5 -37t-88.5 37zM338 213q16 16 16 39t-16 38.5t-39 15.5t-38.5 -15.5t-15.5 -38.5t15.5 -39t38.5 -16t39 16z" />
    <glyph glyph-name="uni0E50" unicode="&#xe50;" horiz-adv-x="610" 
d="M109 52.5q-72 62.5 -72 184.5q0 121 73 184t195 63t194.5 -63t72.5 -184q0 -122 -72 -184.5t-195 -62.5q-124 0 -196 62.5zM409.5 129q34.5 34 34.5 108t-34.5 108t-104.5 34q-69 0 -104.5 -34.5t-35.5 -107.5q0 -74 35.5 -108t104.5 -34q70 0 104.5 34z" />
    <glyph glyph-name="uni0E51" unicode="&#xe51;" horiz-adv-x="634" 
d="M298 5q93 23 132 75t39 141q0 79 -36.5 118.5t-116.5 39.5q-78 0 -114.5 -29.5t-36.5 -92.5q0 -54 25 -78t77 -24q21 0 46.5 5.5t40.5 14.5v-98q-46 -27 -117 -27q-96 0 -148 54t-52 152q0 111 71.5 169.5t207.5 58.5q140 0 210.5 -68t70.5 -198q0 -122 -76.5 -208.5
t-222.5 -115.5v111z" />
    <glyph glyph-name="uni0E52" unicode="&#xe52;" horiz-adv-x="710" 
d="M139 55q-82 65 -82 186v299h118v-293q0 -76 46 -115.5t145 -39.5q81 0 124.5 33.5t43.5 101.5v116q0 24 -7.5 35.5t-25.5 11.5q-20 0 -28.5 -14.5t-12.5 -39.5h-73q-7 29 -14 41.5t-26 12.5q-22 0 -30.5 -18t-8.5 -60q0 -36 17 -50.5t55 -14.5q33 0 59 9v-80
q-34 -14 -79 -14q-71 0 -111.5 37t-40.5 113q0 172 119 172q34 0 56.5 -11t39.5 -37q19 25 47.5 36.5t60.5 11.5q61 0 91 -35t30 -97v-117q0 -116 -76 -180.5t-210 -64.5q-145 0 -227 65z" />
    <glyph glyph-name="uni0E53" unicode="&#xe53;" horiz-adv-x="643" 
d="M93.5 45.5q-56.5 55.5 -56.5 179.5q0 130 47 194.5t129 64.5q73 0 114 -53q22 27 53 40t65 13q65 0 105.5 -36t40.5 -100v-348h-131v326q0 30 -9.5 41.5t-33.5 11.5q-44 0 -44 -47v-83h-97v84q0 22 -13 34t-33 12q-37 0 -53 -36t-16 -119q0 -74 27.5 -101.5t89.5 -27.5
q46 0 69 8v-99q-37 -14 -93 -14q-104 0 -160.5 55.5z" />
    <glyph glyph-name="uni0E54" unicode="&#xe54;" horiz-adv-x="626" 
d="M99.5 49q-62.5 59 -62.5 174q0 126 83.5 193.5t241.5 67.5q85 0 136.5 8.5t92.5 33.5v-103q-37 -22 -92.5 -31t-130.5 -9q-107 0 -157 -38t-50 -122q0 -131 123 -131q20 0 33 6q-11 28 -11 63q0 68 44 105.5t119 37.5q65 0 105 -20v-88q-31 16 -72 16t-60.5 -11.5
t-19.5 -41.5q0 -34 23 -44.5t73 -10.5h47h44v-104h-87q-76 0 -125 20q-52 -30 -125 -30q-110 0 -172.5 59z" />
    <glyph glyph-name="uni0E55" unicode="&#xe55;" horiz-adv-x="621" 
d="M37 206q0 86 51 147.5t131 80.5q-15 1 -31.5 7.5t-27.5 14.5v97q31 -26 96.5 -47.5t111.5 -21.5q85 0 133.5 8.5t89.5 33.5v-103q-37 -22 -92.5 -31t-130.5 -9q-94 0 -150.5 -46.5t-56.5 -130.5q0 -67 30.5 -90.5t92.5 -23.5q20 0 33 6q-11 28 -11 63q0 68 44 105.5
t119 37.5q65 0 105 -20v-88q-31 16 -72 16t-60.5 -11.5t-19.5 -41.5q0 -34 23 -44.5t73 -10.5h47h44v-104h-87q-76 0 -125 20q-52 -30 -125 -30q-235 0 -235 216z" />
    <glyph glyph-name="uni0E56" unicode="&#xe56;" horiz-adv-x="643" 
d="M140 41v102q77 -48 177 -48q161 0 161 142t-132 142q-56 0 -93.5 -31t-50.5 -87h-90l-95 279h116l46 -143q28 41 77.5 64t111.5 23q121 0 179.5 -66.5t58.5 -180.5q0 -116 -74.5 -181.5t-203.5 -65.5q-112 0 -188 51z" />
    <glyph glyph-name="uni0E57" unicode="&#xe57;" horiz-adv-x="850" 
d="M93 45.5q-56 55.5 -56 179.5q0 131 44.5 195t124.5 64q40 0 65.5 -12.5t46.5 -40.5q46 53 120 53q69 0 103.5 -35.5t34.5 -102.5v-246h17q48 0 64.5 19.5t16.5 72.5v348h118v-325q0 -113 -47 -164t-162 -51h-122v326q0 30 -9.5 41.5t-36.5 11.5q-19 0 -32 -12.5
t-13 -34.5v-83h-108v83q0 23 -11 35t-31 12q-36 0 -48 -38t-12 -117q0 -55 13.5 -83.5t39 -39t68.5 -10.5q46 0 69 8v-95q-36 -14 -96 -14q-105 0 -161 55.5z" />
    <glyph glyph-name="uni0E58" unicode="&#xe58;" horiz-adv-x="627" 
d="M82.5 49.5q-45.5 59.5 -45.5 176.5q0 128 80 193t233 65q89 0 144 8.5t97 33.5v-103q-69 -40 -238 -40q-102 0 -147 -35.5t-45 -121.5q0 -75 17.5 -104.5t52.5 -29.5q24 0 39.5 12.5t15.5 34.5v73h91v-74q0 -22 17 -34t39 -12q19 0 30.5 4.5t21.5 14.5v111h-58l6 79h157
v-262q-27 -25 -58 -37t-77 -12q-82 0 -122 52q-21 -27 -50.5 -39.5t-71.5 -12.5q-83 0 -128.5 59.5z" />
    <glyph glyph-name="uni0E59" unicode="&#xe59;" horiz-adv-x="743" 
d="M88.5 48.5q-51.5 58.5 -51.5 177.5q0 258 181 258q42 0 67.5 -13.5t40.5 -40.5q17 26 47.5 40t67.5 14q56 0 93.5 -27.5t37.5 -73.5v-16h6q30 0 40 13.5t10 54.5v85h98v-58q0 -74 -16 -114t-52.5 -56t-102.5 -16h-72v38q0 36 -8.5 50.5t-35.5 14.5q-20 0 -31 -9.5
t-11 -27.5q0 -6 4 -24l93 -318h-116l-98 332q-7 25 -19 36t-39 11q-32 0 -46.5 -36.5t-14.5 -119.5q0 -73 20.5 -102t66.5 -29q28 0 52 7v-102q-29 -7 -73 -7q-87 0 -138.5 58.5z" />
    <glyph glyph-name="uni0E5A" unicode="&#xe5a;" horiz-adv-x="956" 
d="M406 246q-27 -15 -62.5 -24.5t-71.5 -9.5q-97 0 -154.5 46.5t-57.5 138.5q0 72 34 143h130q-36 -70 -36 -134q0 -95 103 -95q37 0 64.5 8.5t50.5 25.5v195h135v-181q16 -23 44.5 -35.5t58.5 -12.5q37 0 64.5 8.5t50.5 25.5v195h135v-540h-135v246q-27 -15 -62.5 -24.5
t-71.5 -9.5q-22 0 -45 6t-39 17v-235h-135v246z" />
    <glyph glyph-name="uni0E5B" unicode="&#xe5b;" horiz-adv-x="1149" 
d="M113 92.5q-76 70.5 -76 196.5q0 76 27 135t79 92.5t126 33.5q101 0 158.5 -50t57.5 -136q0 -77 -39.5 -123t-114.5 -67v89q38 18 52 39t14 59q0 50 -31 78.5t-91 28.5q-68 0 -102 -48t-34 -126q0 -90 46.5 -137t131.5 -47q108 0 166 61.5t58 170.5q0 70 -10 126h97
q22 -36 40.5 -81.5t29.5 -88.5h2q11 32 20 77.5t9 74.5h68q13 -27 28 -67.5t23 -76.5h2q9 25 17.5 62t10.5 66h58q12 -21 24.5 -57t17.5 -62h2q20 39 18 99h60q2 -32 -3 -56h56l-5 -71h-68q-9 -37 -35 -80h-51q-3 18 -14 50.5t-20 49.5h-2q-3 -22 -12.5 -62t-18.5 -61h-70
q-5 31 -18 69.5t-27 66.5h-2q-3 -32 -13.5 -77t-23.5 -81h-69q-3 39 -14 85t-26 78h-2q0 -90 -36.5 -158.5t-105 -106.5t-161.5 -38q-128 0 -204 70.5z" />
    <glyph glyph-name="uni1E0C" unicode="&#x1e0c;" horiz-adv-x="656" 
d="M57 644h270q148 0 220 -76.5t72 -248.5q0 -164 -72 -241.5t-220 -77.5h-270v644zM308 104q61 0 98 18t56.5 65t19.5 132q0 86 -17.5 132t-54.5 63.5t-102 17.5h-116v-428h116zM267 -82h107v-99h-107v99z" />
    <glyph glyph-name="uni1E0D" unicode="&#x1e0d;" horiz-adv-x="590" 
d="M95.5 45.5q-58.5 55.5 -58.5 177.5q0 82 30.5 141t82 89.5t115.5 30.5q78 0 133 -36v226h135v-674h-116l-8 44q-31 -27 -68 -40.5t-86 -13.5q-101 0 -159.5 55.5zM350 99q25 10 48 33v216q-42 37 -98 37q-62 0 -94 -41t-32 -121q0 -73 29.5 -103.5t88.5 -30.5q33 0 58 10
zM240 -82h107v-99h-107v99z" />
    <glyph glyph-name="uni1E0E" unicode="&#x1e0e;" horiz-adv-x="656" 
d="M57 644h270q148 0 220 -76.5t72 -248.5q0 -164 -72 -241.5t-220 -77.5h-270v644zM308 104q61 0 98 18t56.5 65t19.5 132q0 86 -17.5 132t-54.5 63.5t-102 17.5h-116v-428h116zM124 -99h308v-83h-308v83z" />
    <glyph glyph-name="uni1E0F" unicode="&#x1e0f;" horiz-adv-x="590" 
d="M95.5 45.5q-58.5 55.5 -58.5 177.5q0 82 30.5 141t82 89.5t115.5 30.5q78 0 133 -36v226h135v-674h-116l-8 44q-31 -27 -68 -40.5t-86 -13.5q-101 0 -159.5 55.5zM350 99q25 10 48 33v216q-42 37 -98 37q-62 0 -94 -41t-32 -121q0 -73 29.5 -103.5t88.5 -30.5q33 0 58 10
zM151 -100h308v-83h-308v83z" />
    <glyph glyph-name="uni1E20" unicode="&#x1e20;" horiz-adv-x="644" 
d="M218 800h308v-83h-308v83zM122 74.5q-85 84.5 -85 236.5q0 162 86.5 252.5t251.5 90.5q110 0 194 -27v-116q-78 28 -184 28q-113 0 -162 -55.5t-49 -172.5q0 -207 195 -207q67 0 124 20v150h-150v86h264v-315q-38 -24 -98 -39.5t-142 -15.5q-160 0 -245 84.5z" />
    <glyph glyph-name="uni1E21" unicode="&#x1e21;" horiz-adv-x="562" 
d="M131 634h308v-83h-308v83zM147.5 -169q-55.5 7 -92.5 20v101q39 -13 92.5 -20.5t102.5 -7.5q71 0 101 7.5t30 26.5q0 16 -14 22t-56 6h-129q-63 0 -95 24t-32 70q0 30 16.5 53.5t50.5 37.5q-81 41 -81 138q0 90 56.5 132.5t169.5 42.5q21 0 48 -3t44 -7h178l-3 -85h-75
q31 -29 31 -81q0 -75 -47 -117.5t-135 -42.5q-27 0 -60 5q-32 -4 -51.5 -14.5t-19.5 -26.5q0 -13 10 -18t31 -5h134q72 0 111 -33t39 -94q0 -138 -245 -138q-54 0 -109.5 7zM351 244.5q24 20.5 24 69.5q0 50 -24 71.5t-83 21.5q-57 0 -82 -21.5t-25 -71.5q0 -48 24 -69
t83 -21t83 20.5z" />
    <glyph glyph-name="uni1E24" unicode="&#x1e24;" horiz-adv-x="665" 
d="M57 644h135v-270h281v270h135v-644h-135v270h-281v-270h-135v644zM278 -82h107v-99h-107v99z" />
    <glyph glyph-name="uni1E25" unicode="&#x1e25;" horiz-adv-x="587" 
d="M57 674h135v-240q31 23 72.5 36.5t89.5 13.5q93 0 136.5 -43.5t43.5 -136.5v-304h-135v297q0 49 -20 68.5t-72 19.5q-31 0 -62 -13.5t-53 -35.5v-336h-135v674zM248 -82h107v-99h-107v99z" />
    <glyph glyph-name="uni1E2A" unicode="&#x1e2a;" horiz-adv-x="665" 
d="M57 644h135v-270h281v270h135v-644h-135v270h-281v-270h-135v644zM216 -175q-43 42 -43 115h90q0 -34 17.5 -56.5t49.5 -22.5q33 0 51 22.5t18 56.5h90q0 -73 -44 -115t-115 -42t-114 42z" />
    <glyph glyph-name="uni1E2B" unicode="&#x1e2b;" horiz-adv-x="587" 
d="M57 674h135v-240q31 23 72.5 36.5t89.5 13.5q93 0 136.5 -43.5t43.5 -136.5v-304h-135v297q0 49 -20 68.5t-72 19.5q-31 0 -62 -13.5t-53 -35.5v-336h-135v674zM189 -175q-43 42 -43 115h90q0 -34 17.5 -56.5t49.5 -22.5q33 0 51 23t18 56h90q0 -73 -44 -115t-115 -42
t-114 42z" />
    <glyph glyph-name="uni1E36" unicode="&#x1e36;" horiz-adv-x="526" 
d="M57 644h135v-540h317v-104h-452v644zM222 -82h107v-99h-107v99z" />
    <glyph glyph-name="uni1E37" unicode="&#x1e37;" horiz-adv-x="298" 
d="M88.5 22q-31.5 32 -31.5 102v550h135v-539q0 -25 9.5 -34.5t29.5 -9.5q26 0 47 7v-93q-21 -8 -41 -11.5t-48 -3.5q-69 0 -100.5 32zM107 -82h107v-99h-107v99z" />
    <glyph glyph-name="uni1E38" unicode="&#x1e38;" horiz-adv-x="542" 
d="M5 800h308v-83h-308v83zM73 644h135v-540h317v-104h-452v644zM238 -82h107v-99h-107v99z" />
    <glyph glyph-name="uni1E39" unicode="&#x1e39;" horiz-adv-x="298" 
d="M-29 807h308v-83h-308v83zM88.5 22q-31.5 32 -31.5 102v550h135v-539q0 -25 9.5 -34.5t29.5 -9.5q26 0 47 7v-93q-21 -8 -41 -11.5t-48 -3.5q-69 0 -100.5 32zM107 -82h107v-99h-107v99z" />
    <glyph glyph-name="uni1E3A" unicode="&#x1e3a;" horiz-adv-x="526" 
d="M57 644h135v-540h317v-104h-452v644zM123 -75h308v-83h-308v83z" />
    <glyph glyph-name="uni1E3B" unicode="&#x1e3b;" horiz-adv-x="298" 
d="M88.5 22q-31.5 32 -31.5 102v550h135v-539q0 -25 9.5 -34.5t29.5 -9.5q26 0 47 7v-93q-21 -8 -41 -11.5t-48 -3.5q-69 0 -100.5 32zM0 -75h308v-83h-308v83z" />
    <glyph glyph-name="uni1E42" unicode="&#x1e42;" horiz-adv-x="763" 
d="M57 644h136l189 -387l189 387h135v-644h-135v419l-150 -308h-78l-151 308v-419h-135v644zM341 -82h107v-99h-107v99z" />
    <glyph glyph-name="uni1E43" unicode="&#x1e43;" horiz-adv-x="858" 
d="M57 474h125l5 -46q74 56 162 56q48 0 76 -14.5t44 -43.5q36 28 78.5 43t97.5 15q82 0 121 -42.5t39 -129.5v-312h-133v297q0 46 -20 67t-64 21q-28 0 -54.5 -11.5t-45.5 -31.5q5 -17 5 -41v-301h-126v297q0 46 -16 67t-57 21q-51 0 -104 -51v-334h-133v474zM390 -82h107
v-99h-107v99z" />
    <glyph glyph-name="uni1E44" unicode="&#x1e44;" horiz-adv-x="671" 
d="M291 811h105v-98h-105v98zM57 644h117l305 -429v429h135v-644h-117l-305 429v-429h-135v644z" />
    <glyph glyph-name="uni1E45" unicode="&#x1e45;" horiz-adv-x="587" 
d="M244 645h105v-98h-105v98zM57 474h125l5 -45q32 24 76 39.5t91 15.5q93 0 136.5 -43.5t43.5 -136.5v-304h-135v297q0 49 -20 68.5t-72 19.5q-31 0 -62 -13.5t-53 -35.5v-336h-135v474z" />
    <glyph glyph-name="uni1E46" unicode="&#x1e46;" horiz-adv-x="671" 
d="M57 644h117l305 -429v429h135v-644h-117l-305 429v-429h-135v644zM284 -82h107v-99h-107v99z" />
    <glyph glyph-name="uni1E47" unicode="&#x1e47;" horiz-adv-x="587" 
d="M57 474h125l5 -45q32 24 76 39.5t91 15.5q93 0 136.5 -43.5t43.5 -136.5v-304h-135v297q0 49 -20 68.5t-72 19.5q-31 0 -62 -13.5t-53 -35.5v-336h-135v474zM249 -82h107v-99h-107v99z" />
    <glyph glyph-name="uni1E48" unicode="&#x1e48;" horiz-adv-x="671" 
d="M57 644h117l305 -429v429h135v-644h-117l-305 429v-429h-135v644zM185 -72h308v-83h-308v83z" />
    <glyph glyph-name="uni1E49" unicode="&#x1e49;" horiz-adv-x="587" 
d="M57 474h125l5 -45q32 24 76 39.5t91 15.5q93 0 136.5 -43.5t43.5 -136.5v-304h-135v297q0 49 -20 68.5t-72 19.5q-31 0 -62 -13.5t-53 -35.5v-336h-135v474zM148 -72h308v-83h-308v83z" />
    <glyph glyph-name="uni1E5A" unicode="&#x1e5a;" horiz-adv-x="618" 
d="M57 644h309q108 0 161.5 -57t53.5 -159q0 -65 -33.5 -112t-94.5 -68q15 -13 24.5 -27.5t20.5 -40.5l78 -180h-140l-76 173q-10 23 -22.5 31.5t-39.5 8.5h-106v-213h-135v644zM331 325q55 0 84 24.5t29 78.5t-26 79t-79 25h-147v-207h139zM258 -82h107v-99h-107v99z" />
    <glyph glyph-name="uni1E5B" unicode="&#x1e5b;" horiz-adv-x="378" 
d="M57 474h125l6 -49q33 21 80 37t93 22v-102q-43 -6 -92 -20.5t-77 -30.5v-331h-135v474zM63 -82h107v-99h-107v99z" />
    <glyph glyph-name="uni1E5C" unicode="&#x1e5c;" horiz-adv-x="618" 
d="M141 800h308v-83h-308v83zM57 644h309q108 0 161.5 -57t53.5 -159q0 -65 -33.5 -112t-94.5 -68q15 -13 24.5 -27.5t20.5 -40.5l78 -180h-140l-76 173q-10 23 -22.5 31.5t-39.5 8.5h-106v-213h-135v644zM331 325q55 0 84 24.5t29 78.5t-26 79t-79 25h-147v-207h139z
M241 -82h107v-99h-107v99z" />
    <glyph glyph-name="uni1E5D" unicode="&#x1e5d;" horiz-adv-x="386" 
d="M22 634h308v-83h-308v83zM65 474h125l6 -49q33 21 80 37t93 22v-102q-43 -6 -92 -20.5t-77 -30.5v-331h-135v474zM78 -82h107v-99h-107v99z" />
    <glyph glyph-name="uni1E5E" unicode="&#x1e5e;" horiz-adv-x="618" 
d="M57 644h309q108 0 161.5 -57t53.5 -159q0 -65 -33.5 -112t-94.5 -68q15 -13 24.5 -27.5t20.5 -40.5l78 -180h-140l-76 173q-10 23 -22.5 31.5t-39.5 8.5h-106v-213h-135v644zM331 325q55 0 84 24.5t29 78.5t-26 79t-79 25h-147v-207h139zM144 -72h308v-83h-308v83z" />
    <glyph glyph-name="uni1E5F" unicode="&#x1e5f;" horiz-adv-x="378" 
d="M57 474h125l6 -49q33 21 80 37t93 22v-102q-43 -6 -92 -20.5t-77 -30.5v-331h-135v474zM-25 -72h308v-83h-308v83z" />
    <glyph glyph-name="uni1E60" unicode="&#x1e60;" horiz-adv-x="555" 
d="M219 811h105v-98h-105v98zM49 25v119q45 -18 96 -29t99 -11q75 0 105.5 14t30.5 58q0 29 -14 46t-46 29.5t-100 31.5q-101 28 -142 70t-41 116q0 89 65 137t189 48q56 0 106.5 -7.5t82.5 -19.5v-119q-82 31 -171 31q-68 0 -101.5 -15t-33.5 -55q0 -25 12.5 -40t42 -26.5
t91.5 -27.5q112 -30 155 -77.5t43 -121.5q0 -87 -66 -136.5t-195 -49.5t-208 35z" />
    <glyph glyph-name="uni1E61" unicode="&#x1e61;" horiz-adv-x="471" 
d="M179 645h105v-98h-105v98zM124 -3q-48 7 -78 19v112q33 -14 77 -21.5t83 -7.5q52 0 71.5 6.5t19.5 26.5q0 18 -18 28t-69 26q-15 4 -38 12q-70 23 -102.5 55t-32.5 90q0 69 50.5 105t158.5 36q41 0 80.5 -6t68.5 -16v-111q-26 12 -61 19t-66 7q-48 0 -71 -6.5t-23 -25.5
q0 -17 16.5 -25.5t63.5 -22.5l33 -10q58 -18 89 -37.5t44.5 -46.5t13.5 -69q0 -71 -53 -107.5t-157 -36.5q-52 0 -100 7z" />
    <glyph glyph-name="uni1E62" unicode="&#x1e62;" horiz-adv-x="555" 
d="M49 25v119q45 -18 96 -29t99 -11q75 0 105.5 14t30.5 58q0 29 -14 46t-46 29.5t-100 31.5q-101 28 -142 70t-41 116q0 89 65 137t189 48q56 0 106.5 -7.5t82.5 -19.5v-119q-82 31 -171 31q-68 0 -101.5 -15t-33.5 -55q0 -25 12.5 -40t42 -26.5t91.5 -27.5
q112 -30 155 -77.5t43 -121.5q0 -87 -66 -136.5t-195 -49.5t-208 35zM221 -82h107v-99h-107v99z" />
    <glyph glyph-name="uni1E63" unicode="&#x1e63;" horiz-adv-x="471" 
d="M124 -3q-48 7 -78 19v112q33 -14 77 -21.5t83 -7.5q52 0 71.5 6.5t19.5 26.5q0 18 -18 28t-69 26q-15 4 -38 12q-70 23 -102.5 55t-32.5 90q0 69 50.5 105t158.5 36q41 0 80.5 -6t68.5 -16v-111q-26 12 -61 19t-66 7q-48 0 -71 -6.5t-23 -25.5q0 -17 16.5 -25.5
t63.5 -22.5l33 -10q58 -18 89 -37.5t44.5 -46.5t13.5 -69q0 -71 -53 -107.5t-157 -36.5q-52 0 -100 7zM194 -82h107v-99h-107v99z" />
    <glyph glyph-name="uni1E6C" unicode="&#x1e6c;" horiz-adv-x="564" 
d="M215 540h-198v104h530v-104h-197v-540h-135v540zM226 -72h107v-99h-107v99z" />
    <glyph glyph-name="uni1E6D" unicode="&#x1e6d;" horiz-adv-x="368" 
d="M124 32q-40 42 -40 118v220h-67v104h67v102l135 40v-142h120l-8 -104h-112v-211q0 -38 17.5 -53t56.5 -15q28 0 58 10v-93q-45 -18 -106 -18q-81 0 -121 42zM175 -72h107v-99h-107v99z" />
    <glyph glyph-name="uni1E6E" unicode="&#x1e6e;" horiz-adv-x="564" 
d="M215 540h-198v104h530v-104h-197v-540h-135v540zM128 -62h308v-83h-308v83z" />
    <glyph glyph-name="uni1E6F" unicode="&#x1e6f;" horiz-adv-x="376" 
d="M124 32q-40 42 -40 118v220h-67v104h67v102l135 40v-142h120l-8 -104h-112v-211q0 -38 17.5 -53t56.5 -15q28 0 58 10v-93q-45 -18 -106 -18q-81 0 -121 42zM51 -62h308v-83h-308v83z" />
    <glyph glyph-name="Wgrave" unicode="&#x1e80;" horiz-adv-x="875" 
d="M289 875h117l80 -187h-109zM37 644h133l97 -435l105 351v84h110l124 -436l100 436h132l-149 -644h-128l-118 412l-127 -412h-129z" />
    <glyph glyph-name="wgrave" unicode="&#x1e81;" horiz-adv-x="757" 
d="M231 709h117l80 -187h-109zM37 474h135l72 -308l79 247v61h103l90 -308l70 308h134l-124 -474h-124l-91 277l-93 -277h-126z" />
    <glyph glyph-name="Wacute" unicode="&#x1e82;" horiz-adv-x="875" 
d="M456 875h117l-88 -187h-109zM37 644h133l97 -435l105 351v84h110l124 -436l100 436h132l-149 -644h-128l-118 412l-127 -412h-129z" />
    <glyph glyph-name="wacute" unicode="&#x1e83;" horiz-adv-x="757" 
d="M400 709h117l-88 -187h-109zM37 474h135l72 -308l79 247v61h103l90 -308l70 308h134l-124 -474h-124l-91 277l-93 -277h-126z" />
    <glyph glyph-name="Wdieresis" unicode="&#x1e84;" horiz-adv-x="875" 
d="M292 811h106v-98h-106v98zM488 811h106v-98h-106v98zM37 644h133l97 -435l105 351v84h110l124 -436l100 436h132l-149 -644h-128l-118 412l-127 -412h-129z" />
    <glyph glyph-name="wdieresis" unicode="&#x1e85;" horiz-adv-x="757" 
d="M230 645h106v-98h-106v98zM426 645h106v-98h-106v98zM37 474h135l72 -308l79 247v61h103l90 -308l70 308h134l-124 -474h-124l-91 277l-93 -277h-126z" />
    <glyph glyph-name="uni1E8E" unicode="&#x1e8e;" horiz-adv-x="671" 
d="M283 811h105v-98h-105v98zM268 238l-231 406h141l158 -291l158 291h140l-231 -406v-238h-135v238z" />
    <glyph glyph-name="uni1E8F" unicode="&#x1e8f;" horiz-adv-x="613" 
d="M264 645h105v-98h-105v98zM79 -160v95q28 -10 61 -10q40 0 62.5 18t46.5 65l-212 466h141l139 -322l138 322h140l-187 -441q-44 -105 -95 -157t-132 -52q-62 0 -102 16z" />
    <glyph glyph-name="uni1E92" unicode="&#x1e92;" horiz-adv-x="579" 
d="M37 70l324 462h-308v112h484v-82l-321 -458h326v-104h-505v70zM256 -82h107v-99h-107v99z" />
    <glyph glyph-name="uni1E93" unicode="&#x1e93;" horiz-adv-x="489" 
d="M37 70l239 292h-229v112h398v-82l-234 -288h241v-104h-415v70zM192 -82h107v-99h-107v99z" />
    <glyph glyph-name="uni1E97" unicode="&#x1e97;" horiz-adv-x="378" 
d="M27 740h106v-98h-106v98zM223 740h106v-98h-106v98zM133 32q-40 42 -40 118v220h-67v104h67v102l135 40v-142h120l-8 -104h-112v-211q0 -38 17.5 -53t56.5 -15q28 0 58 10v-93q-45 -18 -106 -18q-81 0 -121 42z" />
    <glyph glyph-name="uni1E9E" unicode="&#x1e9e;" horiz-adv-x="627" 
d="M248 13v114q24 -10 55.5 -16t61.5 -6q48 0 73.5 21t25.5 61q0 69 -93 69h-94v106l164 102q0 34 -33 57t-94 23q-68 0 -101 -30t-33 -91v-423h-128v417q0 113 67.5 175t194.5 62t190.5 -62t63.5 -159l-156 -94h25q66 0 109.5 -43.5t43.5 -110.5q0 -55 -24.5 -99.5t-69 -70
t-104.5 -25.5q-81 0 -144 23z" />
    <glyph glyph-name="uni1EA0" unicode="&#x1ea0;" horiz-adv-x="713" 
d="M283 644h148l245 -644h-140l-61 155h-237l-60 -155h-141zM455 259l-99 259l-98 -259h197zM303 -82h107v-99h-107v99z" />
    <glyph glyph-name="uni1EA1" unicode="&#x1ea1;" horiz-adv-x="554" 
d="M85.5 28.5q-48.5 38.5 -48.5 108.5q0 71 50.5 112.5t145.5 41.5h140v13q0 30 -10.5 47t-37 25t-75.5 8q-81 0 -156 -25v95q35 14 82.5 22t101.5 8q224 0 224 -183v-301h-117l-7 43q-58 -53 -172 -53q-72 0 -120.5 38.5zM319.5 93.5q33.5 14.5 53.5 38.5v75h-137
q-79 0 -79 -65q0 -63 86 -63q43 0 76.5 14.5zM245 -82h107v-99h-107v99z" />
    <glyph glyph-name="uni1EA2" unicode="&#x1ea2;" horiz-adv-x="713" 
d="M307 769q53 3 71.5 13.5t18.5 34.5q0 39 -69 39q-15 0 -33 -3t-29 -8v67q39 13 100 13q63 0 97 -26t34 -70q0 -42 -19.5 -64t-67.5 -31v-46h-103v81zM283 644h148l245 -644h-140l-61 155h-237l-60 -155h-141zM455 259l-99 259l-98 -259h197z" />
    <glyph glyph-name="uni1EA3" unicode="&#x1ea3;" horiz-adv-x="554" 
d="M230 602q53 3 71.5 13.5t18.5 34.5q0 39 -69 39q-15 0 -33 -3t-29 -8v67q39 13 100 13q63 0 97 -26t34 -70q0 -42 -19.5 -64t-67.5 -31v-46h-103v81zM85.5 28.5q-48.5 38.5 -48.5 108.5q0 71 50.5 112.5t145.5 41.5h140v13q0 30 -10.5 47t-37 25t-75.5 8q-81 0 -156 -25
v95q35 14 82.5 22t101.5 8q224 0 224 -183v-301h-117l-7 43q-58 -53 -172 -53q-72 0 -120.5 38.5zM319.5 93.5q33.5 14.5 53.5 38.5v75h-137q-79 0 -79 -65q0 -63 86 -63q43 0 76.5 14.5z" />
    <glyph glyph-name="uni1EA4" unicode="&#x1ea4;" horiz-adv-x="713" 
d="M519 946h102l-73 -141h-95zM300 823h103l126 -135h-109l-68 81l-67 -81h-111zM283 644h148l245 -644h-140l-61 155h-237l-60 -155h-141zM455 259l-99 259l-98 -259h197z" />
    <glyph glyph-name="uni1EA5" unicode="&#x1ea5;" horiz-adv-x="554" 
d="M463 779h102l-73 -141h-95zM244 656h103l126 -135h-109l-68 81l-67 -81h-111zM85.5 28.5q-48.5 38.5 -48.5 108.5q0 71 50.5 112.5t145.5 41.5h140v13q0 30 -10.5 47t-37 25t-75.5 8q-81 0 -156 -25v95q35 14 82.5 22t101.5 8q224 0 224 -183v-301h-117l-7 43
q-58 -53 -172 -53q-72 0 -120.5 38.5zM319.5 93.5q33.5 14.5 53.5 38.5v75h-137q-79 0 -79 -65q0 -63 86 -63q43 0 76.5 14.5z" />
    <glyph glyph-name="uni1EA6" unicode="&#x1ea6;" horiz-adv-x="713" 
d="M86 946h102l66 -141h-95zM304 823h103l126 -135h-111l-67 81l-68 -81h-109zM283 644h148l245 -644h-140l-61 155h-237l-60 -155h-141zM455 259l-99 259l-98 -259h197z" />
    <glyph glyph-name="uni1EA7" unicode="&#x1ea7;" horiz-adv-x="554" 
d="M19 779h102l66 -141h-95zM237 656h103l126 -135h-111l-67 81l-68 -81h-109zM85.5 28.5q-48.5 38.5 -48.5 108.5q0 71 50.5 112.5t145.5 41.5h140v13q0 30 -10.5 47t-37 25t-75.5 8q-81 0 -156 -25v95q35 14 82.5 22t101.5 8q224 0 224 -183v-301h-117l-7 43
q-58 -53 -172 -53q-72 0 -120.5 38.5zM319.5 93.5q33.5 14.5 53.5 38.5v75h-137q-79 0 -79 -65q0 -63 86 -63q43 0 76.5 14.5z" />
    <glyph glyph-name="uni1EA8" unicode="&#x1ea8;" horiz-adv-x="713" 
d="M466 853q45 2 60 10t15 25q0 15 -11 21t-34 6q-28 0 -54 -12v62q36 12 83 12q52 0 81 -22t29 -59q0 -68 -76 -79v-34h-93v70zM304 823h103l126 -135h-109l-68 81l-67 -81h-111zM283 644h148l245 -644h-140l-61 155h-237l-60 -155h-141zM455 259l-99 259l-98 -259h197z
" />
    <glyph glyph-name="uni1EA9" unicode="&#x1ea9;" horiz-adv-x="561" 
d="M398 686q45 2 60 10t15 25q0 15 -11 21t-34 6q-28 0 -54 -12v62q36 12 83 12q52 0 81 -22t29 -59q0 -68 -76 -79v-34h-93v70zM236 656h103l126 -135h-109l-68 81l-67 -81h-111zM85.5 28.5q-48.5 38.5 -48.5 108.5q0 71 50.5 112.5t145.5 41.5h140v13q0 30 -10.5 47
t-37 25t-75.5 8q-81 0 -156 -25v95q35 14 82.5 22t101.5 8q224 0 224 -183v-301h-117l-7 43q-58 -53 -172 -53q-72 0 -120.5 38.5zM319.5 93.5q33.5 14.5 53.5 38.5v75h-137q-79 0 -79 -65q0 -63 86 -63q43 0 76.5 14.5z" />
    <glyph glyph-name="uni1EAA" unicode="&#x1eaa;" horiz-adv-x="713" 
d="M411 843q-19 5 -49 16q-48 19 -73 19q-56 0 -90 -37v86q14 14 37.5 22.5t49.5 8.5q21 0 40.5 -5.5t43.5 -15.5q28 -10 43.5 -14.5t33.5 -4.5q56 0 83 38v-86q-10 -14 -31.5 -23t-48.5 -9q-20 0 -39 5zM304 823h103l126 -135h-109l-68 81l-67 -81h-111zM283 644h148
l245 -644h-140l-61 155h-237l-60 -155h-141zM455 259l-99 259l-98 -259h197z" />
    <glyph glyph-name="uni1EAB" unicode="&#x1eab;" horiz-adv-x="554" 
d="M345 676q-19 5 -49 16q-48 19 -73 19q-56 0 -90 -37v86q14 14 37.5 22.5t49.5 8.5q21 0 40.5 -5.5t43.5 -15.5q28 -10 43.5 -14.5t33.5 -4.5q56 0 83 38v-86q-10 -14 -31.5 -23t-48.5 -9q-20 0 -39 5zM238 656h103l126 -135h-109l-68 81l-67 -81h-111zM85.5 28.5
q-48.5 38.5 -48.5 108.5q0 71 50.5 112.5t145.5 41.5h140v13q0 30 -10.5 47t-37 25t-75.5 8q-81 0 -156 -25v95q35 14 82.5 22t101.5 8q224 0 224 -183v-301h-117l-7 43q-58 -53 -172 -53q-72 0 -120.5 38.5zM319.5 93.5q33.5 14.5 53.5 38.5v75h-137q-79 0 -79 -65
q0 -63 86 -63q43 0 76.5 14.5z" />
    <glyph glyph-name="uni1EAC" unicode="&#x1eac;" horiz-adv-x="713" 
d="M313 862h86l135 -174h-104l-74 100l-72 -100h-106zM283 644h148l245 -644h-140l-61 155h-237l-60 -155h-141zM455 259l-99 259l-98 -259h197zM303 -82h107v-99h-107v99z" />
    <glyph glyph-name="uni1EAD" unicode="&#x1ead;" horiz-adv-x="554" 
d="M249 696h86l135 -174h-104l-74 100l-72 -100h-106zM85.5 28.5q-48.5 38.5 -48.5 108.5q0 71 50.5 112.5t145.5 41.5h140v13q0 30 -10.5 47t-37 25t-75.5 8q-81 0 -156 -25v95q35 14 82.5 22t101.5 8q224 0 224 -183v-301h-117l-7 43q-58 -53 -172 -53q-72 0 -120.5 38.5z
M319.5 93.5q33.5 14.5 53.5 38.5v75h-137q-79 0 -79 -65q0 -63 86 -63q43 0 76.5 14.5zM239 -82h107v-99h-107v99z" />
    <glyph glyph-name="uni1EAE" unicode="&#x1eae;" horiz-adv-x="713" 
d="M368 959h102l-73 -141h-95zM237 726.5q-45 38.5 -45 117.5h80q0 -41 22 -63t63 -22q40 0 62 22t22 63h80q0 -79 -45 -117.5t-119 -38.5q-75 0 -120 38.5zM283 644h148l245 -644h-140l-61 155h-237l-60 -155h-141zM455 259l-99 259l-98 -259h197z" />
    <glyph glyph-name="uni1EAF" unicode="&#x1eaf;" horiz-adv-x="554" 
d="M310 793h102l-73 -141h-95zM179 560.5q-45 38.5 -45 117.5h80q0 -41 22 -63t63 -22q40 0 62 22t22 63h80q0 -79 -45 -117.5t-119 -38.5q-75 0 -120 38.5zM85.5 28.5q-48.5 38.5 -48.5 108.5q0 71 50.5 112.5t145.5 41.5h140v13q0 30 -10.5 47t-37 25t-75.5 8
q-81 0 -156 -25v95q35 14 82.5 22t101.5 8q224 0 224 -183v-301h-117l-7 43q-58 -53 -172 -53q-72 0 -120.5 38.5zM319.5 93.5q33.5 14.5 53.5 38.5v75h-137q-79 0 -79 -65q0 -63 86 -63q43 0 76.5 14.5z" />
    <glyph glyph-name="uni1EB0" unicode="&#x1eb0;" horiz-adv-x="713" 
d="M243 959h102l66 -141h-95zM237 726.5q-45 38.5 -45 117.5h80q0 -41 22 -63t62 -22q41 0 63 22t22 63h80q0 -79 -45 -117.5t-120 -38.5q-74 0 -119 38.5zM283 644h148l245 -644h-140l-61 155h-237l-60 -155h-141zM455 259l-99 259l-98 -259h197z" />
    <glyph glyph-name="uni1EB1" unicode="&#x1eb1;" horiz-adv-x="554" 
d="M181 793h102l66 -141h-95zM175 560.5q-45 38.5 -45 117.5h80q0 -41 22 -63t62 -22q41 0 63 22t22 63h80q0 -79 -45 -117.5t-120 -38.5q-74 0 -119 38.5zM85.5 28.5q-48.5 38.5 -48.5 108.5q0 71 50.5 112.5t145.5 41.5h140v13q0 30 -10.5 47t-37 25t-75.5 8
q-81 0 -156 -25v95q35 14 82.5 22t101.5 8q224 0 224 -183v-301h-117l-7 43q-58 -53 -172 -53q-72 0 -120.5 38.5zM319.5 93.5q33.5 14.5 53.5 38.5v75h-137q-79 0 -79 -65q0 -63 86 -63q43 0 76.5 14.5z" />
    <glyph glyph-name="uni1EB2" unicode="&#x1eb2;" horiz-adv-x="713" 
d="M307 887q44 2 61.5 12t17.5 29q0 18 -11.5 25t-38.5 7t-54 -12v57q38 12 88 12t77.5 -21.5t27.5 -58.5q0 -33 -17.5 -51.5t-58.5 -26.5v-32h-92v60zM237 726.5q-45 38.5 -45 117.5h80q0 -41 22 -63t63 -22q40 0 62 22t22 63h80q0 -79 -45 -117.5t-119 -38.5
q-75 0 -120 38.5zM283 644h148l245 -644h-140l-61 155h-237l-60 -155h-141zM455 259l-99 259l-98 -259h197z" />
    <glyph glyph-name="uni1EB3" unicode="&#x1eb3;" horiz-adv-x="554" 
d="M251 721q44 2 61.5 12t17.5 29q0 18 -11.5 25t-38.5 7t-54 -12v57q38 12 88 12t77.5 -21.5t27.5 -58.5q0 -33 -17.5 -51.5t-58.5 -26.5v-32h-92v60zM181 560.5q-45 38.5 -45 117.5h80q0 -41 22 -63t63 -22q40 0 62 22t22 63h80q0 -79 -45 -117.5t-119 -38.5
q-75 0 -120 38.5zM85.5 28.5q-48.5 38.5 -48.5 108.5q0 71 50.5 112.5t145.5 41.5h140v13q0 30 -10.5 47t-37 25t-75.5 8q-81 0 -156 -25v95q35 14 82.5 22t101.5 8q224 0 224 -183v-301h-117l-7 43q-58 -53 -172 -53q-72 0 -120.5 38.5zM319.5 93.5q33.5 14.5 53.5 38.5v75
h-137q-79 0 -79 -65q0 -63 86 -63q43 0 76.5 14.5z" />
    <glyph glyph-name="uni1EB4" unicode="&#x1eb4;" horiz-adv-x="713" 
d="M404 870q-19 5 -49 16q-47 19 -73 19q-56 0 -90 -37v86q14 14 37.5 22.5t49.5 8.5q21 0 40.5 -5.5t43.5 -15.5q28 -10 43.5 -14.5t33.5 -4.5q56 0 83 38v-86q-10 -14 -31.5 -23t-48.5 -9q-20 0 -39 5zM237 726.5q-45 38.5 -45 117.5h80q0 -41 22 -63t63 -22q40 0 62 22
t22 63h80q0 -79 -45 -117.5t-119 -38.5q-75 0 -120 38.5zM283 644h148l245 -644h-140l-61 155h-237l-60 -155h-141zM455 259l-99 259l-98 -259h197z" />
    <glyph glyph-name="uni1EB5" unicode="&#x1eb5;" horiz-adv-x="554" 
d="M354 704q-19 5 -49 16q-47 19 -73 19q-56 0 -90 -37v86q14 14 37.5 22.5t49.5 8.5q21 0 40.5 -5.5t43.5 -15.5q28 -10 43.5 -14.5t33.5 -4.5q56 0 83 38v-86q-10 -14 -31.5 -23t-48.5 -9q-20 0 -39 5zM187 560.5q-45 38.5 -45 117.5h80q0 -41 22 -63t63 -22q40 0 62 22
t22 63h80q0 -79 -45 -117.5t-119 -38.5q-75 0 -120 38.5zM85.5 28.5q-48.5 38.5 -48.5 108.5q0 71 50.5 112.5t145.5 41.5h140v13q0 30 -10.5 47t-37 25t-75.5 8q-81 0 -156 -25v95q35 14 82.5 22t101.5 8q224 0 224 -183v-301h-117l-7 43q-58 -53 -172 -53
q-72 0 -120.5 38.5zM319.5 93.5q33.5 14.5 53.5 38.5v75h-137q-79 0 -79 -65q0 -63 86 -63q43 0 76.5 14.5z" />
    <glyph glyph-name="uni1EB6" unicode="&#x1eb6;" horiz-adv-x="713" 
d="M241 730q-43 42 -43 115h90q0 -34 17.5 -56.5t49.5 -22.5q33 0 51 23t18 56h90q0 -73 -44 -115t-115 -42t-114 42zM283 644h148l245 -644h-140l-61 155h-237l-60 -155h-141zM455 259l-99 259l-98 -259h197zM303 -82h107v-99h-107v99z" />
    <glyph glyph-name="uni1EB7" unicode="&#x1eb7;" horiz-adv-x="554" 
d="M186 564q-43 42 -43 115h90q0 -34 17.5 -56.5t49.5 -22.5q33 0 51 23t18 56h90q0 -73 -44 -115t-115 -42t-114 42zM85.5 28.5q-48.5 38.5 -48.5 108.5q0 71 50.5 112.5t145.5 41.5h140v13q0 30 -10.5 47t-37 25t-75.5 8q-81 0 -156 -25v95q35 14 82.5 22t101.5 8
q224 0 224 -183v-301h-117l-7 43q-58 -53 -172 -53q-72 0 -120.5 38.5zM319.5 93.5q33.5 14.5 53.5 38.5v75h-137q-79 0 -79 -65q0 -63 86 -63q43 0 76.5 14.5zM248 -82h107v-99h-107v99z" />
    <glyph glyph-name="uni1EB8" unicode="&#x1eb8;" horiz-adv-x="556" 
d="M57 644h462v-105h-327v-165h290v-104h-290v-166h327v-104h-462v644zM231 -82h107v-99h-107v99z" />
    <glyph glyph-name="uni1EB9" unicode="&#x1eb9;" horiz-adv-x="542" 
d="M107.5 52.5q-70.5 62.5 -70.5 185.5q0 116 61.5 181t179.5 65q108 0 167.5 -56.5t59.5 -151.5v-86h-343q10 -55 50.5 -77t119.5 -22q38 0 77.5 7t67.5 18v-96q-66 -30 -173 -30q-126 0 -196.5 62.5zM387 273v26q0 88 -105 88q-66 0 -93 -26.5t-27 -87.5h225zM231 -82h107
v-99h-107v99z" />
    <glyph glyph-name="uni1EBA" unicode="&#x1eba;" horiz-adv-x="556" 
d="M235 768q53 3 71.5 13.5t18.5 34.5q0 39 -69 39q-15 0 -33 -3t-29 -8v67q39 13 100 13q63 0 97 -26t34 -70q0 -42 -19.5 -64t-67.5 -31v-46h-103v81zM57 644h462v-105h-327v-165h290v-104h-290v-166h327v-104h-462v644z" />
    <glyph glyph-name="uni1EBB" unicode="&#x1ebb;" horiz-adv-x="542" 
d="M232 602q53 3 71.5 13.5t18.5 34.5q0 39 -69 39q-15 0 -33 -3t-29 -8v67q39 13 100 13q63 0 97 -26t34 -70q0 -42 -19.5 -64t-67.5 -31v-46h-103v81zM107.5 52.5q-70.5 62.5 -70.5 185.5q0 116 61.5 181t179.5 65q108 0 167.5 -56.5t59.5 -151.5v-86h-343
q10 -55 50.5 -77t119.5 -22q38 0 77.5 7t67.5 18v-96q-66 -30 -173 -30q-126 0 -196.5 62.5zM387 273v26q0 88 -105 88q-66 0 -93 -26.5t-27 -87.5h225z" />
    <glyph glyph-name="uni1EBC" unicode="&#x1ebc;" horiz-adv-x="556" 
d="M335 705q-19 5 -49 16q-48 19 -73 19q-56 0 -90 -37v96q14 14 37.5 22.5t49.5 8.5q21 0 40.5 -5.5t43.5 -15.5q28 -10 43.5 -14.5t33.5 -4.5q56 0 83 38v-96q-10 -14 -31.5 -23t-48.5 -9q-20 0 -39 5zM57 644h462v-105h-327v-165h290v-104h-290v-166h327v-104h-462v644z
" />
    <glyph glyph-name="uni1EBD" unicode="&#x1ebd;" horiz-adv-x="542" 
d="M330 539q-19 5 -49 16q-48 19 -73 19q-56 0 -90 -37v96q14 14 37.5 22.5t49.5 8.5q21 0 40.5 -5.5t43.5 -15.5q28 -10 43.5 -14.5t33.5 -4.5q56 0 83 38v-96q-10 -14 -31.5 -23t-48.5 -9q-20 0 -39 5zM107.5 52.5q-70.5 62.5 -70.5 185.5q0 116 61.5 181t179.5 65
q108 0 167.5 -56.5t59.5 -151.5v-86h-343q10 -55 50.5 -77t119.5 -22q38 0 77.5 7t67.5 18v-96q-66 -30 -173 -30q-126 0 -196.5 62.5zM387 273v26q0 88 -105 88q-66 0 -93 -26.5t-27 -87.5h225z" />
    <glyph glyph-name="uni1EBE" unicode="&#x1ebe;" horiz-adv-x="551" 
d="M457 945h102l-73 -141h-95zM238 822h103l126 -135h-109l-68 81l-67 -81h-111zM57 644h462v-105h-327v-165h290v-104h-290v-166h327v-104h-462v644z" />
    <glyph glyph-name="uni1EBF" unicode="&#x1ebf;" horiz-adv-x="542" 
d="M453 779h102l-73 -141h-95zM234 656h103l126 -135h-109l-68 81l-67 -81h-111zM107.5 52.5q-70.5 62.5 -70.5 185.5q0 116 61.5 181t179.5 65q108 0 167.5 -56.5t59.5 -151.5v-86h-343q10 -55 50.5 -77t119.5 -22q38 0 77.5 7t67.5 18v-96q-66 -30 -173 -30
q-126 0 -196.5 62.5zM387 273v26q0 88 -105 88q-66 0 -93 -26.5t-27 -87.5h225z" />
    <glyph glyph-name="uni1EC0" unicode="&#x1ec0;" horiz-adv-x="556" 
d="M22 945h102l66 -141h-95zM240 822h103l126 -135h-111l-67 81l-68 -81h-109zM57 644h462v-105h-327v-165h290v-104h-290v-166h327v-104h-462v644z" />
    <glyph glyph-name="uni1EC1" unicode="&#x1ec1;" horiz-adv-x="542" 
d="M16 789h102l66 -141h-95zM234 666h103l126 -135h-111l-67 81l-68 -81h-109zM107.5 52.5q-70.5 62.5 -70.5 185.5q0 116 61.5 181t179.5 65q108 0 167.5 -56.5t59.5 -151.5v-86h-343q10 -55 50.5 -77t119.5 -22q38 0 77.5 7t67.5 18v-96q-66 -30 -173 -30
q-126 0 -196.5 62.5zM387 273v26q0 88 -105 88q-66 0 -93 -26.5t-27 -87.5h225z" />
    <glyph glyph-name="uni1EC2" unicode="&#x1ec2;" horiz-adv-x="551" 
d="M400 852q45 2 60 10t15 25q0 15 -11 21t-34 6q-28 0 -54 -12v62q36 12 83 12q52 0 81 -22t29 -59q0 -68 -76 -79v-34h-93v70zM238 822h103l126 -135h-109l-68 81l-67 -81h-111zM57 644h462v-105h-327v-165h290v-104h-290v-166h327v-104h-462v644z" />
    <glyph glyph-name="uni1EC3" unicode="&#x1ec3;" horiz-adv-x="542" 
d="M391 686q45 2 60 10t15 25q0 15 -11 21t-34 6q-28 0 -54 -12v62q36 12 83 12q52 0 81 -22t29 -59q0 -68 -76 -79v-34h-93v70zM229 656h103l126 -135h-109l-68 81l-67 -81h-111zM107.5 52.5q-70.5 62.5 -70.5 185.5q0 116 61.5 181t179.5 65q108 0 167.5 -56.5
t59.5 -151.5v-86h-343q10 -55 50.5 -77t119.5 -22q38 0 77.5 7t67.5 18v-96q-66 -30 -173 -30q-126 0 -196.5 62.5zM387 273v26q0 88 -105 88q-66 0 -93 -26.5t-27 -87.5h225z" />
    <glyph glyph-name="uni1EC4" unicode="&#x1ec4;" horiz-adv-x="556" 
d="M346 842q-19 5 -49 16q-48 19 -73 19q-56 0 -90 -37v86q14 14 37.5 22.5t49.5 8.5q21 0 40.5 -5.5t43.5 -15.5q28 -10 43.5 -14.5t33.5 -4.5q56 0 83 38v-86q-10 -14 -31.5 -23t-48.5 -9q-20 0 -39 5zM239 822h103l126 -135h-109l-68 81l-67 -81h-111zM57 644h462v-105
h-327v-165h290v-104h-290v-166h327v-104h-462v644z" />
    <glyph glyph-name="uni1EC5" unicode="&#x1ec5;" horiz-adv-x="542" 
d="M339 676q-19 5 -49 16q-47 19 -73 19q-56 0 -90 -37v86q14 14 37.5 22.5t49.5 8.5q21 0 40.5 -5.5t43.5 -15.5q28 -10 43.5 -14.5t33.5 -4.5q56 0 83 38v-86q-10 -14 -31.5 -23t-48.5 -9q-20 0 -39 5zM232 656h103l126 -135h-109l-68 81l-67 -81h-111zM107.5 52.5
q-70.5 62.5 -70.5 185.5q0 116 61.5 181t179.5 65q108 0 167.5 -56.5t59.5 -151.5v-86h-343q10 -55 50.5 -77t119.5 -22q38 0 77.5 7t67.5 18v-96q-66 -30 -173 -30q-126 0 -196.5 62.5zM387 273v26q0 88 -105 88q-66 0 -93 -26.5t-27 -87.5h225z" />
    <glyph glyph-name="uni1EC6" unicode="&#x1ec6;" horiz-adv-x="556" 
d="M240 862h86l135 -174h-104l-74 100l-72 -100h-106zM57 644h462v-105h-327v-165h290v-104h-290v-166h327v-104h-462v644zM230 -82h107v-99h-107v99z" />
    <glyph glyph-name="uni1EC7" unicode="&#x1ec7;" horiz-adv-x="542" 
d="M237 696h86l135 -174h-104l-74 100l-72 -100h-106zM107.5 52.5q-70.5 62.5 -70.5 185.5q0 116 61.5 181t179.5 65q108 0 167.5 -56.5t59.5 -151.5v-86h-343q10 -55 50.5 -77t119.5 -22q38 0 77.5 7t67.5 18v-96q-66 -30 -173 -30q-126 0 -196.5 62.5zM387 273v26
q0 88 -105 88q-66 0 -93 -26.5t-27 -87.5h225zM227 -82h107v-99h-107v99z" />
    <glyph glyph-name="uni1EC8" unicode="&#x1ec8;" horiz-adv-x="250" 
d="M72 768q53 3 71.5 13.5t18.5 34.5q0 39 -69 39q-15 0 -33 -3t-29 -8v67q39 13 100 13q63 0 97 -26t34 -70q0 -42 -19.5 -64t-67.5 -31v-46h-103v81zM57 644h135v-644h-135v644z" />
    <glyph glyph-name="uni1EC9" unicode="&#x1ec9;" horiz-adv-x="321" 
d="M120 602q53 3 71.5 13.5t18.5 34.5q0 39 -69 39q-15 0 -33 -3t-29 -8v67q39 13 100 13q63 0 97 -26t34 -70q0 -42 -19.5 -64t-67.5 -31v-46h-103v81zM128 374h-71l12 100h194v-474h-135v374z" />
    <glyph glyph-name="uni1ECA" unicode="&#x1eca;" horiz-adv-x="249" 
d="M57 644h135v-644h-135v644zM71 -82h107v-99h-107v99z" />
    <glyph glyph-name="uni1ECB" unicode="&#x1ecb;" horiz-adv-x="321" 
d="M117 667h147v-106h-147v106zM128 374h-71l12 100h194v-474h-135v374zM143 -82h107v-99h-107v99z" />
    <glyph glyph-name="uni1ECC" unicode="&#x1ecc;" horiz-adv-x="700" 
d="M37 319q0 174 77.5 254.5t235.5 80.5t235.5 -80.5t77.5 -254.5q0 -329 -313 -329t-313 329zM483 157.5q43 52.5 43 161.5q0 119 -42 169.5t-134 50.5t-134 -50.5t-42 -169.5q0 -109 43 -161.5t133 -52.5t133 52.5zM297 -82h107v-99h-107v99z" />
    <glyph glyph-name="uni1ECD" unicode="&#x1ecd;" horiz-adv-x="589" 
d="M37 237q0 120 63.5 183.5t193.5 63.5t194 -63.5t64 -183.5q0 -247 -258 -247q-257 0 -257 247zM387.5 135q27.5 30 27.5 102t-27.5 102t-93.5 30q-65 0 -92.5 -30t-27.5 -102t27.5 -102t92.5 -30q66 0 93.5 30zM241 -82h107v-99h-107v99z" />
    <glyph glyph-name="uni1ECE" unicode="&#x1ece;" horiz-adv-x="700" 
d="M299 768q53 3 71.5 13.5t18.5 34.5q0 39 -69 39q-15 0 -33 -3t-29 -8v67q39 13 100 13q63 0 97 -26t34 -70q0 -42 -19.5 -64t-67.5 -31v-46h-103v81zM37 319q0 174 77.5 254.5t235.5 80.5t235.5 -80.5t77.5 -254.5q0 -329 -313 -329t-313 329zM483 157.5
q43 52.5 43 161.5q0 119 -42 169.5t-134 50.5t-134 -50.5t-42 -169.5q0 -109 43 -161.5t133 -52.5t133 52.5z" />
    <glyph glyph-name="uni1ECF" unicode="&#x1ecf;" horiz-adv-x="589" 
d="M245 602q53 3 71.5 13.5t18.5 34.5q0 39 -69 39q-15 0 -33 -3t-29 -8v67q39 13 100 13q63 0 97 -26t34 -70q0 -42 -19.5 -64t-67.5 -31v-46h-103v81zM37 237q0 120 63.5 183.5t193.5 63.5t194 -63.5t64 -183.5q0 -247 -258 -247q-257 0 -257 247zM387.5 135
q27.5 30 27.5 102t-27.5 102t-93.5 30q-65 0 -92.5 -30t-27.5 -102t27.5 -102t92.5 -30q66 0 93.5 30z" />
    <glyph glyph-name="uni1ED0" unicode="&#x1ed0;" horiz-adv-x="700" 
d="M520 945h102l-73 -141h-95zM301 822h103l126 -135h-109l-68 81l-67 -81h-111zM37 319q0 174 77.5 254.5t235.5 80.5t235.5 -80.5t77.5 -254.5q0 -329 -313 -329t-313 329zM483 157.5q43 52.5 43 161.5q0 119 -42 169.5t-134 50.5t-134 -50.5t-42 -169.5q0 -109 43 -161.5
t133 -52.5t133 52.5z" />
    <glyph glyph-name="uni1ED1" unicode="&#x1ed1;" horiz-adv-x="589" 
d="M466 779h102l-73 -141h-95zM247 656h103l126 -135h-109l-68 81l-67 -81h-111zM37 237q0 120 63.5 183.5t193.5 63.5t194 -63.5t64 -183.5q0 -247 -258 -247q-257 0 -257 247zM387.5 135q27.5 30 27.5 102t-27.5 102t-93.5 30q-65 0 -92.5 -30t-27.5 -102t27.5 -102
t92.5 -30q66 0 93.5 30z" />
    <glyph glyph-name="uni1ED2" unicode="&#x1ed2;" horiz-adv-x="700" 
d="M78 945h102l66 -141h-95zM296 822h103l126 -135h-111l-67 81l-68 -81h-109zM37 319q0 174 77.5 254.5t235.5 80.5t235.5 -80.5t77.5 -254.5q0 -329 -313 -329t-313 329zM483 157.5q43 52.5 43 161.5q0 119 -42 169.5t-134 50.5t-134 -50.5t-42 -169.5q0 -109 43 -161.5
t133 -52.5t133 52.5z" />
    <glyph glyph-name="uni1ED3" unicode="&#x1ed3;" horiz-adv-x="589" 
d="M25 779h102l66 -141h-95zM243 656h103l126 -135h-111l-67 81l-68 -81h-109zM37 237q0 120 63.5 183.5t193.5 63.5t194 -63.5t64 -183.5q0 -247 -258 -247q-257 0 -257 247zM387.5 135q27.5 30 27.5 102t-27.5 102t-93.5 30q-65 0 -92.5 -30t-27.5 -102t27.5 -102
t92.5 -30q66 0 93.5 30z" />
    <glyph glyph-name="uni1ED4" unicode="&#x1ed4;" horiz-adv-x="700" 
d="M457 852q45 2 60 10t15 25q0 15 -11 21t-34 6q-28 0 -54 -12v62q36 12 83 12q52 0 81 -22t29 -59q0 -68 -76 -79v-34h-93v70zM295 822h103l126 -135h-109l-68 81l-67 -81h-111zM37 319q0 174 77.5 254.5t235.5 80.5t235.5 -80.5t77.5 -254.5q0 -329 -313 -329t-313 329z
M483 157.5q43 52.5 43 161.5q0 119 -42 169.5t-134 50.5t-134 -50.5t-42 -169.5q0 -109 43 -161.5t133 -52.5t133 52.5z" />
    <glyph glyph-name="uni1ED5" unicode="&#x1ed5;" horiz-adv-x="589" 
d="M412 686q45 2 60 10t15 25q0 15 -11 21t-34 6q-28 0 -54 -12v62q36 12 83 12q52 0 81 -22t29 -59q0 -68 -76 -79v-34h-93v70zM250 656h103l126 -135h-109l-68 81l-67 -81h-111zM37 237q0 120 63.5 183.5t193.5 63.5t194 -63.5t64 -183.5q0 -247 -258 -247
q-257 0 -257 247zM387.5 135q27.5 30 27.5 102t-27.5 102t-93.5 30q-65 0 -92.5 -30t-27.5 -102t27.5 -102t92.5 -30q66 0 93.5 30z" />
    <glyph glyph-name="uni1ED6" unicode="&#x1ed6;" horiz-adv-x="700" 
d="M397 870q-19 5 -49 16q-47 19 -73 19q-56 0 -90 -37v86q14 14 37.5 22.5t49.5 8.5q21 0 40.5 -5.5t43.5 -15.5q28 -10 43.5 -14.5t33.5 -4.5q56 0 83 38v-86q-10 -14 -31.5 -23t-48.5 -9q-20 0 -39 5zM230 726.5q-45 38.5 -45 117.5h80q0 -41 22 -63t63 -22q40 0 62 22
t22 63h80q0 -79 -45 -117.5t-119 -38.5q-75 0 -120 38.5zM37 319q0 174 77.5 254.5t235.5 80.5t235.5 -80.5t77.5 -254.5q0 -329 -313 -329t-313 329zM483 157.5q43 52.5 43 161.5q0 119 -42 169.5t-134 50.5t-134 -50.5t-42 -169.5q0 -109 43 -161.5t133 -52.5t133 52.5z
" />
    <glyph glyph-name="uni1ED7" unicode="&#x1ed7;" horiz-adv-x="589" 
d="M341 704q-19 5 -49 16q-48 19 -73 19q-56 0 -90 -37v86q14 14 37.5 22.5t49.5 8.5q21 0 40.5 -5.5t43.5 -15.5q28 -10 43.5 -14.5t33.5 -4.5q56 0 83 38v-86q-10 -14 -31.5 -23t-48.5 -9q-20 0 -39 5zM174 560.5q-45 38.5 -45 117.5h80q0 -41 22 -63t63 -22q40 0 62 22
t22 63h80q0 -79 -45 -117.5t-119 -38.5q-75 0 -120 38.5zM37 237q0 120 63.5 183.5t193.5 63.5t194 -63.5t64 -183.5q0 -247 -258 -247q-257 0 -257 247zM387.5 135q27.5 30 27.5 102t-27.5 102t-93.5 30q-65 0 -92.5 -30t-27.5 -102t27.5 -102t92.5 -30q66 0 93.5 30z" />
    <glyph glyph-name="uni1ED8" unicode="&#x1ed8;" horiz-adv-x="700" 
d="M307 872h86l135 -174h-104l-74 100l-72 -100h-106zM37 319q0 174 77.5 254.5t235.5 80.5t235.5 -80.5t77.5 -254.5q0 -329 -313 -329t-313 329zM483 157.5q43 52.5 43 161.5q0 119 -42 169.5t-134 50.5t-134 -50.5t-42 -169.5q0 -109 43 -161.5t133 -52.5t133 52.5z
M297 -82h107v-99h-107v99z" />
    <glyph glyph-name="uni1ED9" unicode="&#x1ed9;" horiz-adv-x="589" 
d="M251 696h86l135 -174h-104l-74 100l-72 -100h-106zM37 237q0 120 63.5 183.5t193.5 63.5t194 -63.5t64 -183.5q0 -247 -258 -247q-257 0 -257 247zM387.5 135q27.5 30 27.5 102t-27.5 102t-93.5 30q-65 0 -92.5 -30t-27.5 -102t27.5 -102t92.5 -30q66 0 93.5 30zM241 -82
h107v-99h-107v99z" />
    <glyph glyph-name="uni1EDA" unicode="&#x1eda;" horiz-adv-x="780" 
d="M385 875h117l-88 -187h-109zM37 319q0 174 77.5 254.5t235.5 80.5q149 0 224 -74q53 2 74.5 25.5t21.5 82.5h97q0 -92 -32 -136t-102 -56q30 -69 30 -177q0 -329 -313 -329t-313 329zM483 157.5q43 52.5 43 161.5q0 119 -42 169.5t-134 50.5t-134 -50.5t-42 -169.5
q0 -109 43 -161.5t133 -52.5t133 52.5z" />
    <glyph glyph-name="uni1EDB" unicode="&#x1edb;" horiz-adv-x="694" 
d="M325 709h117l-88 -187h-109zM37 237q0 120 63.5 183.5t193.5 63.5q125 0 191 -61q56 1 77.5 26.5t21.5 86.5h97q0 -96 -34.5 -142t-108.5 -57q14 -45 14 -100q0 -247 -258 -247q-257 0 -257 247zM387.5 135q27.5 30 27.5 102t-27.5 102t-93.5 30q-65 0 -92.5 -30
t-27.5 -102t27.5 -102t92.5 -30q66 0 93.5 30z" />
    <glyph glyph-name="uni1EDC" unicode="&#x1edc;" horiz-adv-x="780" 
d="M233 875h117l80 -187h-109zM37 319q0 174 77.5 254.5t235.5 80.5q149 0 224 -74q53 2 74.5 25.5t21.5 82.5h97q0 -92 -32 -136t-102 -56q30 -69 30 -177q0 -329 -313 -329t-313 329zM483 157.5q43 52.5 43 161.5q0 119 -42 169.5t-134 50.5t-134 -50.5t-42 -169.5
q0 -109 43 -161.5t133 -52.5t133 52.5z" />
    <glyph glyph-name="uni1EDD" unicode="&#x1edd;" horiz-adv-x="694" 
d="M170 709h117l80 -187h-109zM37 237q0 120 63.5 183.5t193.5 63.5q125 0 191 -61q56 1 77.5 26.5t21.5 86.5h97q0 -96 -34.5 -142t-108.5 -57q14 -45 14 -100q0 -247 -258 -247q-257 0 -257 247zM387.5 135q27.5 30 27.5 102t-27.5 102t-93.5 30q-65 0 -92.5 -30
t-27.5 -102t27.5 -102t92.5 -30q66 0 93.5 30z" />
    <glyph glyph-name="uni1EDE" unicode="&#x1ede;" horiz-adv-x="780" 
d="M303 768q53 3 71.5 13.5t18.5 34.5q0 39 -69 39q-15 0 -33 -3t-29 -8v67q39 13 100 13q63 0 97 -26t34 -70q0 -42 -19.5 -64t-67.5 -31v-46h-103v81zM37 319q0 174 77.5 254.5t235.5 80.5q149 0 224 -74q53 2 74.5 25.5t21.5 82.5h97q0 -92 -32 -136t-102 -56
q30 -69 30 -177q0 -329 -313 -329t-313 329zM483 157.5q43 52.5 43 161.5q0 119 -42 169.5t-134 50.5t-134 -50.5t-42 -169.5q0 -109 43 -161.5t133 -52.5t133 52.5z" />
    <glyph glyph-name="uni1EDF" unicode="&#x1edf;" horiz-adv-x="694" 
d="M241 602q53 3 71.5 13.5t18.5 34.5q0 39 -69 39q-15 0 -33 -3t-29 -8v67q39 13 100 13q63 0 97 -26t34 -70q0 -42 -19.5 -64t-67.5 -31v-46h-103v81zM37 237q0 120 63.5 183.5t193.5 63.5q125 0 191 -61q56 1 77.5 26.5t21.5 86.5h97q0 -96 -34.5 -142t-108.5 -57
q14 -45 14 -100q0 -247 -258 -247q-257 0 -257 247zM387.5 135q27.5 30 27.5 102t-27.5 102t-93.5 30q-65 0 -92.5 -30t-27.5 -102t27.5 -102t92.5 -30q66 0 93.5 30z" />
    <glyph glyph-name="uni1EE0" unicode="&#x1ee0;" horiz-adv-x="780" 
d="M408 702q-19 5 -49 16q-47 19 -73 19q-56 0 -90 -37v96q14 14 37.5 22.5t49.5 8.5q21 0 40.5 -5.5t43.5 -15.5q28 -10 43.5 -14.5t33.5 -4.5q56 0 83 38v-96q-10 -14 -31.5 -23t-48.5 -9q-20 0 -39 5zM37 319q0 174 77.5 254.5t235.5 80.5q149 0 224 -74q53 2 74.5 25.5
t21.5 82.5h97q0 -92 -32 -136t-102 -56q30 -69 30 -177q0 -329 -313 -329t-313 329zM483 157.5q43 52.5 43 161.5q0 119 -42 169.5t-134 50.5t-134 -50.5t-42 -169.5q0 -109 43 -161.5t133 -52.5t133 52.5z" />
    <glyph glyph-name="uni1EE1" unicode="&#x1ee1;" horiz-adv-x="694" 
d="M347 536q-19 5 -49 16q-47 19 -73 19q-56 0 -90 -37v96q14 14 37.5 22.5t49.5 8.5q21 0 40.5 -5.5t43.5 -15.5q28 -10 43.5 -14.5t33.5 -4.5q56 0 83 38v-96q-10 -14 -31.5 -23t-48.5 -9q-20 0 -39 5zM37 237q0 120 63.5 183.5t193.5 63.5q125 0 191 -61q56 1 77.5 26.5
t21.5 86.5h97q0 -96 -34.5 -142t-108.5 -57q14 -45 14 -100q0 -247 -258 -247q-257 0 -257 247zM387.5 135q27.5 30 27.5 102t-27.5 102t-93.5 30q-65 0 -92.5 -30t-27.5 -102t27.5 -102t92.5 -30q66 0 93.5 30z" />
    <glyph glyph-name="uni1EE2" unicode="&#x1ee2;" horiz-adv-x="780" 
d="M37 319q0 174 77.5 254.5t235.5 80.5q149 0 224 -74q53 2 74.5 25.5t21.5 82.5h97q0 -92 -32 -136t-102 -56q30 -69 30 -177q0 -329 -313 -329t-313 329zM483 157.5q43 52.5 43 161.5q0 119 -42 169.5t-134 50.5t-134 -50.5t-42 -169.5q0 -109 43 -161.5t133 -52.5
t133 52.5zM300 -82h107v-99h-107v99z" />
    <glyph glyph-name="uni1EE3" unicode="&#x1ee3;" horiz-adv-x="694" 
d="M37 237q0 120 63.5 183.5t193.5 63.5q125 0 191 -61q56 1 77.5 26.5t21.5 86.5h97q0 -96 -34.5 -142t-108.5 -57q14 -45 14 -100q0 -247 -258 -247q-257 0 -257 247zM387.5 135q27.5 30 27.5 102t-27.5 102t-93.5 30q-65 0 -92.5 -30t-27.5 -102t27.5 -102t92.5 -30
q66 0 93.5 30zM249 -82h107v-99h-107v99z" />
    <glyph glyph-name="uni1EE4" unicode="&#x1ee4;" horiz-adv-x="679" 
d="M128.5 55q-76.5 65 -76.5 187v402h135v-392q0 -73 39.5 -110t113.5 -37t113 37t39 110v392h135v-402q0 -121 -76 -186.5t-211 -65.5t-211.5 65zM286 -82h107v-99h-107v99z" />
    <glyph glyph-name="uni1EE5" unicode="&#x1ee5;" horiz-adv-x="587" 
d="M99 38q-47 48 -47 139v297h135v-294q0 -47 22.5 -69t69.5 -22q34 0 63.5 13.5t51.5 35.5v336h135v-474h-125l-5 45q-69 -55 -167 -55q-86 0 -133 48zM233 -82h107v-99h-107v99z" />
    <glyph glyph-name="uni1EE6" unicode="&#x1ee6;" horiz-adv-x="679" 
d="M287 768q53 3 71.5 13.5t18.5 34.5q0 39 -69 39q-15 0 -33 -3t-29 -8v67q39 13 100 13q63 0 97 -26t34 -70q0 -42 -19.5 -64t-67.5 -31v-46h-103v81zM128.5 55q-76.5 65 -76.5 187v402h135v-392q0 -73 39.5 -110t113.5 -37t113 37t39 110v392h135v-402q0 -121 -76 -186.5
t-211 -65.5t-211.5 65z" />
    <glyph glyph-name="uni1EE7" unicode="&#x1ee7;" horiz-adv-x="587" 
d="M239 602q53 3 71.5 13.5t18.5 34.5q0 39 -69 39q-15 0 -33 -3t-29 -8v67q39 13 100 13q63 0 97 -26t34 -70q0 -42 -19.5 -64t-67.5 -31v-46h-103v81zM99 38q-47 48 -47 139v297h135v-294q0 -47 22.5 -69t69.5 -22q34 0 63.5 13.5t51.5 35.5v336h135v-474h-125l-5 45
q-69 -55 -167 -55q-86 0 -133 48z" />
    <glyph glyph-name="uni1EE8" unicode="&#x1ee8;" horiz-adv-x="838" 
d="M372 875h117l-88 -187h-109zM128.5 55q-76.5 65 -76.5 187v402h135v-392q0 -73 39.5 -110t113.5 -37t113 37t39 110v392h135v-64q53 2 74.5 25.5t21.5 82.5h97q0 -74 -20 -117t-61.5 -61.5t-111.5 -19.5v-248q0 -121 -76 -186.5t-211 -65.5t-211.5 65z" />
    <glyph glyph-name="uni1EE9" unicode="&#x1ee9;" horiz-adv-x="726" 
d="M319 709h117l-88 -187h-109zM99 38q-47 48 -47 139v297h135v-294q0 -47 22.5 -69t69.5 -22q34 0 63.5 13.5t51.5 35.5v336h135v-50q46 4 64 29.5t18 82.5h97q0 -106 -42 -151.5t-137 -50.5v-334h-125l-5 45q-69 -55 -167 -55q-86 0 -133 48z" />
    <glyph glyph-name="uni1EEA" unicode="&#x1eea;" horiz-adv-x="838" 
d="M207 875h117l80 -187h-109zM128.5 55q-76.5 65 -76.5 187v402h135v-392q0 -73 39.5 -110t113.5 -37t113 37t39 110v392h135v-64q53 2 74.5 25.5t21.5 82.5h97q0 -74 -20 -117t-61.5 -61.5t-111.5 -19.5v-248q0 -121 -76 -186.5t-211 -65.5t-211.5 65z" />
    <glyph glyph-name="uni1EEB" unicode="&#x1eeb;" horiz-adv-x="726" 
d="M159 709h117l80 -187h-109zM99 38q-47 48 -47 139v297h135v-294q0 -47 22.5 -69t69.5 -22q34 0 63.5 13.5t51.5 35.5v336h135v-50q46 4 64 29.5t18 82.5h97q0 -106 -42 -151.5t-137 -50.5v-334h-125l-5 45q-69 -55 -167 -55q-86 0 -133 48z" />
    <glyph glyph-name="uni1EEC" unicode="&#x1eec;" horiz-adv-x="838" 
d="M293 768q53 3 71.5 13.5t18.5 34.5q0 39 -69 39q-15 0 -33 -3t-29 -8v67q39 13 100 13q63 0 97 -26t34 -70q0 -42 -19.5 -64t-67.5 -31v-46h-103v81zM128.5 55q-76.5 65 -76.5 187v402h135v-392q0 -73 39.5 -110t113.5 -37t113 37t39 110v392h135v-64q53 2 74.5 25.5
t21.5 82.5h97q0 -74 -20 -117t-61.5 -61.5t-111.5 -19.5v-248q0 -121 -76 -186.5t-211 -65.5t-211.5 65z" />
    <glyph glyph-name="uni1EED" unicode="&#x1eed;" horiz-adv-x="726" 
d="M244 602q53 3 71.5 13.5t18.5 34.5q0 39 -69 39q-15 0 -33 -3t-29 -8v67q39 13 100 13q63 0 97 -26t34 -70q0 -42 -19.5 -64t-67.5 -31v-46h-103v81zM99 38q-47 48 -47 139v297h135v-294q0 -47 22.5 -69t69.5 -22q34 0 63.5 13.5t51.5 35.5v336h135v-50q46 4 64 29.5
t18 82.5h97q0 -106 -42 -151.5t-137 -50.5v-334h-125l-5 45q-69 -55 -167 -55q-86 0 -133 48z" />
    <glyph glyph-name="uni1EEE" unicode="&#x1eee;" horiz-adv-x="838" 
d="M387 702q-19 5 -49 16q-47 19 -73 19q-56 0 -90 -37v96q14 14 37.5 22.5t49.5 8.5q21 0 40.5 -5.5t43.5 -15.5q28 -10 43.5 -14.5t33.5 -4.5q56 0 83 38v-96q-10 -14 -31.5 -23t-48.5 -9q-20 0 -39 5zM128.5 55q-76.5 65 -76.5 187v402h135v-392q0 -73 39.5 -110
t113.5 -37t113 37t39 110v392h135v-64q53 2 74.5 25.5t21.5 82.5h97q0 -74 -20 -117t-61.5 -61.5t-111.5 -19.5v-248q0 -121 -76 -186.5t-211 -65.5t-211.5 65z" />
    <glyph glyph-name="uni1EEF" unicode="&#x1eef;" horiz-adv-x="726" 
d="M344 536q-19 5 -49 16q-47 19 -73 19q-56 0 -90 -37v96q14 14 37.5 22.5t49.5 8.5q21 0 40.5 -5.5t43.5 -15.5q28 -10 43.5 -14.5t33.5 -4.5q56 0 83 38v-96q-10 -14 -31.5 -23t-48.5 -9q-20 0 -39 5zM99 38q-47 48 -47 139v297h135v-294q0 -47 22.5 -69t69.5 -22
q34 0 63.5 13.5t51.5 35.5v336h135v-50q46 4 64 29.5t18 82.5h97q0 -106 -42 -151.5t-137 -50.5v-334h-125l-5 45q-69 -55 -167 -55q-86 0 -133 48z" />
    <glyph glyph-name="uni1EF0" unicode="&#x1ef0;" horiz-adv-x="838" 
d="M128.5 55q-76.5 65 -76.5 187v402h135v-392q0 -73 39.5 -110t113.5 -37t113 37t39 110v392h135v-64q53 2 74.5 25.5t21.5 82.5h97q0 -74 -20 -117t-61.5 -61.5t-111.5 -19.5v-248q0 -121 -76 -186.5t-211 -65.5t-211.5 65zM285 -82h107v-99h-107v99z" />
    <glyph glyph-name="uni1EF1" unicode="&#x1ef1;" horiz-adv-x="726" 
d="M99 38q-47 48 -47 139v297h135v-294q0 -47 22.5 -69t69.5 -22q34 0 63.5 13.5t51.5 35.5v336h135v-50q46 4 64 29.5t18 82.5h97q0 -106 -42 -151.5t-137 -50.5v-334h-125l-5 45q-69 -55 -167 -55q-86 0 -133 48zM237 -82h107v-99h-107v99z" />
    <glyph glyph-name="Ygrave" unicode="&#x1ef2;" horiz-adv-x="671" 
d="M203 875h117l80 -187h-109zM268 238l-231 406h141l158 -291l158 291h140l-231 -406v-238h-135v238z" />
    <glyph glyph-name="ygrave" unicode="&#x1ef3;" horiz-adv-x="613" 
d="M177 709h117l80 -187h-109zM79 -160v95q28 -10 61 -10q40 0 62.5 18t46.5 65l-212 466h141l139 -322l138 322h140l-187 -441q-44 -105 -95 -157t-132 -52q-62 0 -102 16z" />
    <glyph glyph-name="uni1EF4" unicode="&#x1ef4;" horiz-adv-x="671" 
d="M268 238l-231 406h141l158 -291l158 291h140l-231 -406v-238h-135v238zM282 -72h107v-99h-107v99z" />
    <glyph glyph-name="uni1EF5" unicode="&#x1ef5;" horiz-adv-x="613" 
d="M79 -160v95q28 -10 61 -10q40 0 62.5 18t46.5 65l-212 466h141l139 -322l138 322h140l-187 -441q-44 -105 -95 -157t-132 -52q-62 0 -102 16zM420 -72h107v-99h-107v99z" />
    <glyph glyph-name="uni1EF6" unicode="&#x1ef6;" horiz-adv-x="671" 
d="M279 768q53 3 71.5 13.5t18.5 34.5q0 39 -69 39q-15 0 -33 -3t-29 -8v67q39 13 100 13q63 0 97 -26t34 -70q0 -42 -19.5 -64t-67.5 -31v-46h-103v81zM268 238l-231 406h141l158 -291l158 291h140l-231 -406v-238h-135v238z" />
    <glyph glyph-name="uni1EF7" unicode="&#x1ef7;" horiz-adv-x="613" 
d="M267 602q53 3 71.5 13.5t18.5 34.5q0 39 -69 39q-15 0 -33 -3t-29 -8v67q39 13 100 13q63 0 97 -26t34 -70q0 -42 -19.5 -64t-67.5 -31v-46h-103v81zM79 -160v95q28 -10 61 -10q40 0 62.5 18t46.5 65l-212 466h141l139 -322l138 322h140l-187 -441q-44 -105 -95 -157
t-132 -52q-62 0 -102 16z" />
    <glyph glyph-name="uni1EF8" unicode="&#x1ef8;" horiz-adv-x="671" 
d="M382 705q-19 5 -49 16q-47 19 -73 19q-56 0 -90 -37v96q14 14 37.5 22.5t49.5 8.5q21 0 40.5 -5.5t43.5 -15.5q28 -10 43.5 -14.5t33.5 -4.5q56 0 83 38v-96q-10 -14 -31.5 -23t-48.5 -9q-20 0 -39 5zM268 238l-231 406h141l158 -291l158 291h140l-231 -406v-238h-135
v238z" />
    <glyph glyph-name="uni1EF9" unicode="&#x1ef9;" horiz-adv-x="613" 
d="M362 539q-19 5 -49 16q-47 19 -73 19q-56 0 -90 -37v96q14 14 37.5 22.5t49.5 8.5q21 0 40.5 -5.5t43.5 -15.5q28 -10 43.5 -14.5t33.5 -4.5q56 0 83 38v-96q-10 -14 -31.5 -23t-48.5 -9q-20 0 -39 5zM79 -160v95q28 -10 61 -10q40 0 62.5 18t46.5 65l-212 466h141
l139 -322l138 322h140l-187 -441q-44 -105 -95 -157t-132 -52q-62 0 -102 16z" />
    <glyph glyph-name="uni2007" unicode="&#x2007;" 
 />
    <glyph glyph-name="uni2010" unicode="&#x2010;" horiz-adv-x="497" 
d="M37 324h422v-105h-422v105z" />
    <glyph glyph-name="figuredash" unicode="&#x2012;" horiz-adv-x="593" 
d="M37 324h519v-105h-519v105z" />
    <glyph glyph-name="endash" unicode="&#x2013;" horiz-adv-x="566" 
d="M37 324h492v-105h-492v105z" />
    <glyph glyph-name="emdash" unicode="&#x2014;" horiz-adv-x="839" 
d="M37 324h765v-105h-765v105z" />
    <glyph glyph-name="uni2015" unicode="&#x2015;" horiz-adv-x="883" 
d="M37 324h809v-105h-809v105z" />
    <glyph glyph-name="quoteleft" unicode="&#x2018;" horiz-adv-x="246" 
d="M107 654h102l-56 -206h-116z" />
    <glyph glyph-name="quoteright" unicode="&#x2019;" horiz-adv-x="246" 
d="M93 654h116l-70 -206h-102z" />
    <glyph glyph-name="quotesinglbase" unicode="&#x201a;" horiz-adv-x="246" 
d="M93 33h116l-70 -206h-102z" />
    <glyph glyph-name="quotedblleft" unicode="&#x201c;" horiz-adv-x="393" 
d="M107 654h92l-56 -206h-106zM264 654h91l-55 -206h-106z" />
    <glyph glyph-name="quotedblright" unicode="&#x201d;" horiz-adv-x="393" 
d="M93 654h106l-70 -206h-92zM249 654h106l-70 -206h-91z" />
    <glyph glyph-name="quotedblbase" unicode="&#x201e;" horiz-adv-x="393" 
d="M93 96h106l-70 -206h-92zM249 96h106l-70 -206h-91z" />
    <glyph glyph-name="dagger" unicode="&#x2020;" horiz-adv-x="556" 
d="M215 407l-178 -3v103l178 -3l-6 196h138l-6 -196l177 3v-103l-177 3l4 -407h-134z" />
    <glyph glyph-name="daggerdbl" unicode="&#x2021;" horiz-adv-x="556" 
d="M215 175l-178 -1v100l178 -2l-6 78l6 77l-178 -1v100l178 -2l-6 176h138l-6 -176l177 2v-100l-177 1l6 -77l-6 -78l177 2v-100l-177 1l4 -175h-134z" />
    <glyph glyph-name="bullet" unicode="&#x2022;" horiz-adv-x="330" 
d="M74 197q-37 37 -37 90t37 90.5t90 37.5t90.5 -37.5t37.5 -90.5t-37.5 -90t-90.5 -37t-90 37z" />
    <glyph glyph-name="ellipsis" unicode="&#x2026;" horiz-adv-x="587" 
d="M37 101h110v-101h-110v101zM239 101h109v-101h-109v101zM440 101h110v-101h-110v101z" />
    <glyph glyph-name="perthousand" unicode="&#x2030;" horiz-adv-x="1063" 
d="M74.5 394q-37.5 39 -37.5 104q0 73 37 114.5t108 41.5t108 -41.5t37 -114.5q0 -65 -37.5 -104t-107.5 -39t-107.5 39zM476 644h128l-340 -644h-127zM248 500q0 40 -16 58t-50 18t-49.5 -18t-15.5 -58q0 -68 65 -68q66 0 66 68zM452.5 29q-37.5 39 -37.5 104
q0 73 37 114.5t108 41.5t108 -41.5t37 -114.5q0 -65 -37.5 -104t-107.5 -39t-107.5 39zM772.5 29q-37.5 39 -37.5 104q0 73 37 114.5t108 41.5t108 -41.5t37 -114.5q0 -65 -37.5 -104t-107.5 -39t-107.5 39zM626 135q0 40 -16 58t-50 18t-49.5 -18t-15.5 -58q0 -68 65 -68
q66 0 66 68zM946 135q0 40 -16 58t-50 18t-49.5 -18t-15.5 -58q0 -68 65 -68q66 0 66 68z" />
    <glyph glyph-name="minute" unicode="&#x2032;" horiz-adv-x="188" 
d="M37 644h114l-14 -201h-100v201z" />
    <glyph glyph-name="second" unicode="&#x2033;" horiz-adv-x="361" 
d="M37 644h114l-14 -201h-100v201zM210 644h114l-14 -201h-100v201z" />
    <glyph glyph-name="guilsinglleft" unicode="&#x2039;" horiz-adv-x="389" 
d="M37 259v53l262 193l52 -76l-194 -144l194 -144l-52 -75z" />
    <glyph glyph-name="guilsinglright" unicode="&#x203a;" horiz-adv-x="389" 
d="M37 141l194 144l-194 144l52 76l262 -193v-53l-262 -193z" />
    <glyph glyph-name="fraction" unicode="&#x2044;" horiz-adv-x="169" 
d="M174 662h137l-316 -662h-138z" />
    <glyph glyph-name="uni2070" unicode="&#x2070;" horiz-adv-x="360" 
d="M70 399.5q-37 37.5 -37 104.5q0 150 147 150t147 -150q0 -68 -37 -105t-110 -37t-110 37.5zM225 450.5q13 16.5 13 53.5q0 43 -12 60.5t-46 17.5q-33 0 -45.5 -17.5t-12.5 -60.5q0 -37 13 -53.5t45 -16.5t45 16.5z" />
    <glyph glyph-name="uni2074" unicode="&#x2074;" horiz-adv-x="296" 
d="M156 420h-139v61l136 173h95v-170h30v-64h-30v-50h-92v50zM177 485v92l-70 -92h70z" />
    <glyph glyph-name="uni2075" unicode="&#x2075;" horiz-adv-x="303" 
d="M78 365.5q-26 3.5 -41 9.5v66q30 -13 73 -13q35 0 50.5 7.5t15.5 23.5q0 18 -12.5 25t-43.5 7h-82v51l7 102h201l-5 -63h-116l-3 -34h40q103 0 103 -89q0 -43 -34.5 -69.5t-100.5 -26.5q-26 0 -52 3.5z" />
    <glyph glyph-name="uni2076" unicode="&#x2076;" horiz-adv-x="320" 
d="M70 390q-33 28 -33 84v59q0 56 36.5 88.5t100.5 32.5q51 0 81 -11v-65q-28 11 -75 11q-31 0 -48.5 -12t-17.5 -31v-6q29 21 68 21q54 0 77.5 -24.5t23.5 -75.5q0 -47 -30 -73t-91 -26q-59 0 -92 28zM193 432.5q10 9.5 10 29.5t-9 28.5t-32 8.5q-24 0 -48 -17v-16
q0 -22 11 -32.5t35 -10.5q23 0 33 9.5z" />
    <glyph glyph-name="uni2077" unicode="&#x2077;" horiz-adv-x="290" 
d="M160 574h-133v70h235v-56l-94 -218h-96z" />
    <glyph glyph-name="uni2078" unicode="&#x2078;" horiz-adv-x="332" 
d="M72.5 383.5q-35.5 21.5 -35.5 61.5q0 23 11 40t32 27q-35 18 -35 60q0 39 32 60.5t89 21.5t89 -21.5t32 -60.5q0 -42 -36 -63q23 -10 33.5 -26t10.5 -38q0 -40 -35.5 -61.5t-93.5 -21.5t-93.5 21.5zM201 547.5q6 6.5 6 22.5q0 30 -41 30t-41 -30q0 -13 6 -20.5t20 -10.5
l25 -5q19 7 25 13.5zM214 447q0 13 -7.5 19.5t-27.5 11.5l-27 7q-18 -6 -26 -13.5t-8 -23.5q0 -32 48 -32t48 31z" />
    <glyph glyph-name="uni2079" unicode="&#x2079;" horiz-adv-x="320" 
d="M65 373v65q28 -11 75 -11q31 0 48.5 12t17.5 31v6q-28 -21 -63 -21q-55 0 -80.5 24.5t-25.5 75.5q0 47 30 73t91 26q125 0 125 -112v-59q0 -56 -36.5 -88.5t-100.5 -32.5q-51 0 -81 11zM206 534v16q0 22 -11 32.5t-35 10.5q-23 0 -33 -9.5t-10 -29.5t9 -28.5t32 -8.5
q24 0 48 17z" />
    <glyph glyph-name="uni207D" unicode="&#x207d;" horiz-adv-x="221" 
d="M51.5 423.5q-14.5 43.5 -14.5 90.5t14.5 90t40.5 72h92q-32 -32 -47.5 -73.5t-15.5 -88.5t15.5 -89t47.5 -73h-92q-26 28 -40.5 71.5z" />
    <glyph glyph-name="uni207E" unicode="&#x207e;" horiz-adv-x="221" 
d="M84.5 425q15.5 42 15.5 89t-15.5 88.5t-47.5 73.5h92q26 -29 40.5 -72t14.5 -90t-14.5 -90.5t-40.5 -71.5h-92q32 31 47.5 73z" />
    <glyph glyph-name="uni207F" unicode="&#x207f;" horiz-adv-x="354" 
d="M42 648h75l2 -24q43 29 103 29q44 0 69.5 -24.5t25.5 -70.5v-172h-80v158q0 26 -10.5 37t-36.5 11q-16 0 -36 -7.5t-32 -18.5v-180h-80v262z" />
    <glyph glyph-name="uni2080" unicode="&#x2080;" horiz-adv-x="360" 
d="M70 -90.5q-37 37.5 -37 104.5q0 150 147 150t147 -150q0 -68 -37 -105t-110 -37t-110 37.5zM225 -39.5q13 16.5 13 53.5q0 43 -12 60.5t-46 17.5q-33 0 -45.5 -17.5t-12.5 -60.5q0 -37 13 -53.5t45 -16.5t45 16.5z" />
    <glyph glyph-name="uni2081" unicode="&#x2081;" horiz-adv-x="216" 
d="M84 75l-69 -14v71l162 32v-284h-93v195z" />
    <glyph glyph-name="uni2082" unicode="&#x2082;" horiz-adv-x="303" 
d="M37 -76q12 18 25.5 31t27.5 24.5t19 15.5q8 7 22 17q24 20 31.5 28.5t7.5 19.5q0 17 -12 24.5t-40 7.5q-33 0 -74 -16v71q18 7 48 12t57 5q54 0 84 -23.5t30 -60.5q0 -27 -10.5 -46t-37.5 -44l-21 -18q-21 -18 -23 -20h94v-72h-228v44z" />
    <glyph glyph-name="uni2083" unicode="&#x2083;" horiz-adv-x="306" 
d="M81.5 -124q-29.5 4 -44.5 10v63q34 -14 75 -14q33 0 46.5 6t13.5 21q0 29 -52 29h-42l5 56h34q49 0 49 30q0 23 -54 23q-37 0 -70 -14v64q15 6 42 10t53 4q65 0 95.5 -21.5t30.5 -59.5q0 -47 -37 -64q43 -13 43 -61q0 -86 -133 -86q-25 0 -54.5 4z" />
    <glyph glyph-name="uni2084" unicode="&#x2084;" horiz-adv-x="296" 
d="M156 -70h-139v61l136 173h95v-170h30v-64h-30v-50h-92v50zM177 -5v92l-70 -92h70z" />
    <glyph glyph-name="uni2085" unicode="&#x2085;" horiz-adv-x="303" 
d="M78 -124.5q-26 3.5 -41 9.5v66q30 -13 73 -13q35 0 50.5 7.5t15.5 23.5q0 18 -12.5 25t-43.5 7h-82v51l7 102h201l-5 -63h-116l-3 -34h40q103 0 103 -89q0 -43 -34.5 -69.5t-100.5 -26.5q-26 0 -52 3.5z" />
    <glyph glyph-name="uni2086" unicode="&#x2086;" horiz-adv-x="320" 
d="M70 -100q-33 28 -33 84v59q0 56 36.5 88.5t100.5 32.5q51 0 81 -11v-65q-28 11 -75 11q-31 0 -48.5 -12t-17.5 -31v-6q29 21 68 21q54 0 77.5 -24.5t23.5 -75.5q0 -47 -30 -73t-91 -26q-59 0 -92 28zM193 -57.5q10 9.5 10 29.5t-9 28.5t-32 8.5q-24 0 -48 -17v-16
q0 -22 11 -32.5t35 -10.5q23 0 33 9.5z" />
    <glyph glyph-name="uni2087" unicode="&#x2087;" horiz-adv-x="290" 
d="M160 84h-133v70h235v-56l-94 -218h-96z" />
    <glyph glyph-name="uni2088" unicode="&#x2088;" horiz-adv-x="332" 
d="M72.5 -106.5q-35.5 21.5 -35.5 61.5q0 23 11 40t32 27q-35 18 -35 60q0 39 32 60.5t89 21.5t89 -21.5t32 -60.5q0 -42 -36 -63q23 -10 33.5 -26t10.5 -38q0 -40 -35.5 -61.5t-93.5 -21.5t-93.5 21.5zM201 57.5q6 6.5 6 22.5q0 30 -41 30t-41 -30q0 -13 6 -20.5t20 -10.5
l25 -5q19 7 25 13.5zM214 -43q0 13 -7.5 19.5t-27.5 11.5l-27 7q-18 -6 -26 -13.5t-8 -23.5q0 -32 48 -32t48 31z" />
    <glyph glyph-name="uni2089" unicode="&#x2089;" horiz-adv-x="320" 
d="M65 -117v65q28 -11 75 -11q31 0 48.5 12t17.5 31v6q-28 -21 -63 -21q-55 0 -80.5 24.5t-25.5 75.5q0 47 30 73t91 26q125 0 125 -112v-59q0 -56 -36.5 -88.5t-100.5 -32.5q-51 0 -81 11zM206 44v16q0 22 -11 32.5t-35 10.5q-23 0 -33 -9.5t-10 -29.5t9 -28.5t32 -8.5
q24 0 48 17z" />
    <glyph glyph-name="uni208D" unicode="&#x208d;" horiz-adv-x="221" 
d="M51.5 -74.5q-14.5 43.5 -14.5 90.5t14.5 90t40.5 72h92q-32 -32 -47.5 -73.5t-15.5 -88.5t15.5 -89t47.5 -73h-92q-26 28 -40.5 71.5z" />
    <glyph glyph-name="uni208E" unicode="&#x208e;" horiz-adv-x="221" 
d="M84.5 -73q15.5 42 15.5 89t-15.5 88.5t-47.5 73.5h92q26 -29 40.5 -72t14.5 -90t-14.5 -90.5t-40.5 -71.5h-92q32 31 47.5 73z" />
    <glyph glyph-name="colonmonetary" unicode="&#x20a1;" horiz-adv-x="551" 
d="M150 71q-113 67 -113 240q0 279 251 301l15 59h80l-15 -58q26 -2 50 -6l16 64h80l-21 -82q4 -1 8.5 -3t10.5 -4v-118q-37 14 -47 17l-85 -336q65 6 133 33v-119q-42 -14 -80 -21t-83 -8l-15 -61h-80l16 64q-25 3 -49 9l-18 -73h-80zM389 496q-22 3 -47 3h-3l-87 -340
q19 -8 48 -13zM255 484q-43 -18 -62 -60t-19 -113q0 -55 14 -89z" />
    <glyph glyph-name="lira" unicode="&#x20a4;" horiz-adv-x="494" 
d="M37 104h23q26 0 39.5 15.5t13.5 42.5v9h-66v94h66v37h-66v94h66v86q0 78 49.5 125t130.5 47q74 0 123 -22v-93q-14 6 -37 10t-44 4q-45 0 -66 -19.5t-21 -59.5v-78h166l-4 -94h-162v-37h166l-4 -94h-162v-2q0 -24 -5 -39t-19 -26h232v-104h-419v104z" />
    <glyph glyph-name="uni20A6" unicode="&#x20a6;" horiz-adv-x="672" 
d="M95 174h-58v87h58v85h-58v87h58v211h117l230 -427v427h135v-211h57v-87h-57v-85h57v-87h-57v-174h-118l-229 426v-426h-135v174z" />
    <glyph glyph-name="peseta" unicode="&#x20a7;" horiz-adv-x="1250" 
d="M57 644h212q109 0 165 -61t56 -161q0 -65 -27.5 -115t-78.5 -77.5t-119 -27.5h-73v-202h-135v644zM242 309q57 0 87 30t30 83q0 56 -28 85.5t-84 29.5h-55v-228h50zM903 -3q-48 7 -78 19v112q33 -14 77 -21.5t83 -7.5q52 0 71.5 6.5t19.5 26.5q0 18 -18 28t-69 26
q-15 4 -38 12q-70 23 -102.5 55t-32.5 90q0 69 50.5 105t158.5 36q41 0 80.5 -6t68.5 -16v-111q-26 12 -61 19t-66 7q-48 0 -71 -6.5t-23 -25.5q0 -17 16.5 -25.5t63.5 -22.5l33 -10q58 -18 89 -37.5t44.5 -46.5t13.5 -69q0 -71 -53 -107.5t-157 -36.5q-52 0 -100 7zM578 32
q-40 42 -40 118v82h-54v100h54v112l135 30v-142h120l-3 -100h-117v-76q0 -70 74 -70q28 0 58 10v-88q-45 -18 -106 -18q-81 0 -121 42z" />
    <glyph glyph-name="dong" unicode="&#x20ab;" horiz-adv-x="591" 
d="M584 527h-51v-527h-116l-8 44q-31 -27 -68 -40.5t-86 -13.5q-101 0 -159.5 55.5t-58.5 177.5q0 82 30.5 141t82 89.5t115.5 30.5q78 0 133 -36v79h-139v90h139v57h135v-57h51v-90zM398 348q-42 37 -98 37q-62 0 -94 -41t-32 -121q0 -73 29.5 -103.5t88.5 -30.5
q33 0 58 10t48 33v216zM87 -47h446v-100h-446v100z" />
    <glyph glyph-name="Euro" unicode="&#x20ac;" horiz-adv-x="583" 
d="M92 197h-65v77h54q-1 12 -1 37t1 37h-54v77h62q21 111 91.5 170t202.5 59q53 0 88 -7.5t84 -24.5v-116q-44 18 -79 25.5t-84 7.5q-74 0 -112.5 -28t-52.5 -86h191v-77h-201v-37q0 -25 1 -37h200v-77h-187q16 -48 55 -70.5t109 -22.5q46 0 81.5 7t79.5 24v-116
q-49 -16 -84 -22.5t-88 -6.5q-245 0 -292 207z" />
    <glyph glyph-name="uni20B1" unicode="&#x20b1;" horiz-adv-x="629" 
d="M57 331h-35v80h35v24h-35v80h35v129h272q80 0 132 -34.5t74 -94.5h54v-80h-39v-24h39v-80h-55q-24 -61 -78.5 -95t-130.5 -34h-133v-202h-135v331zM386 515q-30 27 -79 27h-120v-27h199zM418 411l1 11q0 8 -1 13h-231v-24h231zM302 304q49 0 81 27h-196v-27h115z" />
    <glyph glyph-name="uni20B2" unicode="&#x20b2;" horiz-adv-x="644" 
d="M315 -7q-135 13 -206.5 96t-71.5 222q0 147 70.5 235t207.5 104v85h99v-82q89 -5 155 -26v-116q-67 24 -155 27v-178h193v-315q-71 -45 -193 -53v-112h-99v113zM315 532q-74 -15 -107.5 -69.5t-33.5 -151.5q0 -176 141 -203v424zM493 124v150h-79v-168q45 6 79 18z" />
    <glyph glyph-name="uni20B5" unicode="&#x20b5;" horiz-adv-x="600" 
d="M292 -3q-124 20 -189.5 103.5t-65.5 215.5q0 141 64.5 226.5t190.5 105.5v87h99v-81q90 -3 171 -32v-118q-81 32 -171 35v-435q92 2 172 34v-119q-77 -26 -172 -29v-110h-99v117zM292 527q-61 -19 -89.5 -71t-28.5 -140q0 -161 118 -200v411z" />
    <glyph glyph-name="uni20B9" unicode="&#x20b9;" horiz-adv-x="454" 
d="M139 167q-14 32 -35 44t-67 12v82h56q123 0 130 95h-185v82h184q-9 38 -39.5 59t-77.5 21h-68v82h380v-82h-107q36 -26 46 -80h61v-82h-60q-6 -60 -41.5 -96.5t-99.5 -53.5q23 -13 35 -28.5t24 -43.5l75 -178h-140z" />
    <glyph glyph-name="uni20BA" unicode="&#x20ba;" horiz-adv-x="582" 
d="M116 292l-79 -26v72l79 26v66l-79 -26v72l79 26v142h127v-100l168 56v-71l-168 -56v-67l168 56v-71l-168 -56v-241q86 5 130 49.5t44 127.5v55h128v-42q0 -140 -83 -212t-240 -72h-106v292z" />
    <glyph glyph-name="uni20BD" unicode="&#x20bd;" horiz-adv-x="644" 
d="M93 73h-56v107h56v50h-56v107h56v307h292q110 0 165.5 -54.5t55.5 -152.5q0 -97 -62 -152t-167 -55h-149v-50h116v-107h-116v-73h-135v73zM353 337q59 0 88 22t29 73q0 55 -27.5 80t-84.5 25h-130v-200h125z" />
    <glyph glyph-name="uni210A" unicode="&#x210a;" horiz-adv-x="591" 
d="M192 -172.5q-41 3.5 -61 7.5v103q20 -6 51.5 -9.5t54.5 -3.5q77 0 119 20t42 66v25q-54 -36 -136 -36q-107 0 -166 52.5t-59 172.5q0 83 29 141.5t80 88t116 29.5q48 0 81 -13t66 -41l8 44h116v-441q0 -95 -68.5 -152t-205.5 -57q-26 0 -67 3.5zM352.5 108
q24.5 9 45.5 27v207q-23 22 -47.5 32.5t-56.5 10.5q-63 0 -91.5 -40t-28.5 -119q0 -51 13 -78.5t39 -38t70 -10.5q32 0 56.5 9z" />
    <glyph glyph-name="uni2113" unicode="&#x2113;" horiz-adv-x="419" 
d="M123.5 34.5q-42.5 44.5 -42.5 119.5v135q-50 -17 -72 -22v103q45 11 72 26v182q0 84 40 128t121 44q70 0 106.5 -45.5t36.5 -117.5q0 -92 -46 -152.5t-126 -103.5v-183q0 -64 40 -64q27 0 37.5 17t10.5 55h96q0 -78 -31.5 -122t-121.5 -44q-78 0 -120.5 44.5zM260 504
q19 31 19 72q0 71 -41 71q-26 0 -34.5 -18.5t-8.5 -59.5v-128q46 32 65 63z" />
    <glyph glyph-name="uni2117" unicode="&#x2117;" horiz-adv-x="739" 
d="M202.5 34.5q-76.5 44.5 -121 121t-44.5 166.5t44.5 166.5t121 121t166.5 44.5t166.5 -44.5t121 -121t44.5 -166.5t-44.5 -166.5t-121 -121t-166.5 -44.5t-166.5 44.5zM498 98q58 33 91 92t33 132t-33 131.5t-91 92t-129 33.5t-128.5 -33.5t-90.5 -92t-33 -131.5t33 -132
t90.5 -92t128.5 -33t129 33zM240 519h187q63 0 96 -35.5t33 -94.5t-34.5 -95.5t-95.5 -36.5h-110v-132h-76v394zM381 321q35 0 55.5 4.5t32 19t11.5 44.5q0 35 -17 50.5t-52 15.5h-95v-134h65z" />
    <glyph glyph-name="uni2120" unicode="&#x2120;" horiz-adv-x="661" 
d="M73 375v65q40 -17 94 -17q23 0 37 4t14 17q0 10 -8.5 15.5t-24.5 11.5t-22 8q-55 20 -75.5 39t-20.5 51q0 85 125 85q24 0 50.5 -3.5t42.5 -8.5v-65q-37 14 -74 14q-58 0 -58 -22q0 -11 12.5 -17.5t49.5 -18.5q41 -13 64.5 -31.5t23.5 -57.5q0 -44 -36.5 -64t-87.5 -20
q-68 0 -106 15zM322 644h76l83 -153l82 153h76v-282h-83v152l-58 -129h-34l-60 129v-152h-82v282z" />
    <glyph glyph-name="trademark" unicode="&#x2122;" horiz-adv-x="677" 
d="M127 568h-90v76h262v-76h-89v-206h-83v206zM322 644h76l83 -153l82 153h76v-282h-83v152l-58 -129h-34l-60 129v-152h-82v282z" />
    <glyph glyph-name="uni2126" unicode="&#x2126;" horiz-adv-x="759" 
d="M44 100h128q-65 43 -100 110.5t-35 155.5q0 98 40.5 172.5t117.5 115.5t184 41t184 -41t117.5 -115.5t40.5 -172.5q0 -90 -34.5 -157.5t-100.5 -108.5h128v-100h-286v103q156 87 156 255q0 100 -55.5 161t-149.5 61t-149.5 -61t-55.5 -161q0 -168 156 -255v-103h-286v100
z" />
    <glyph glyph-name="estimated" unicode="&#x212e;" horiz-adv-x="769" 
d="M212 32.5q-81 45.5 -128 124t-47 174.5q0 108 47.5 185.5t127 117.5t173.5 40q92 0 171.5 -41.5t127 -116t47.5 -168.5v-17h-551v-222q29 -37 87 -61.5t125 -24.5q92 0 148 26t108 94h43q-55 -86 -125.5 -121t-173.5 -35q-99 0 -180 45.5zM590 368v197q-31 33 -84.5 53.5
t-121.5 20.5q-128 0 -204 -73v-198h410z" />
    <glyph glyph-name="uni2153" unicode="&#x2153;" horiz-adv-x="684" 
d="M106 565l-69 -14v71l162 32v-284h-93v195zM428 644h128l-340 -644h-127zM431.5 -4q-29.5 4 -44.5 10v63q34 -14 75 -14q33 0 46.5 6t13.5 21q0 29 -52 29h-42l5 56h34q49 0 49 30q0 23 -54 23q-37 0 -70 -14v64q15 6 42 10t53 4q65 0 95.5 -21.5t30.5 -59.5
q0 -47 -37 -64q43 -13 43 -61q0 -86 -133 -86q-25 0 -54.5 4z" />
    <glyph glyph-name="uni2154" unicode="&#x2154;" horiz-adv-x="721" 
d="M37 414q12 18 25.5 31t27.5 24.5t19 15.5q8 7 22 17q24 20 31.5 28.5t7.5 19.5q0 17 -12 24.5t-40 7.5q-33 0 -74 -16v71q18 7 48 12t57 5q54 0 84 -23.5t30 -60.5q0 -27 -10.5 -46t-37.5 -44l-21 -18q-21 -18 -23 -20h94v-72h-228v44zM428 644h128l-340 -644h-127z
M431.5 -4q-29.5 4 -44.5 10v63q34 -14 75 -14q33 0 46.5 6t13.5 21q0 29 -52 29h-42l5 56h34q49 0 49 30q0 23 -54 23q-37 0 -70 -14v64q15 6 42 10t53 4q65 0 95.5 -21.5t30.5 -59.5q0 -47 -37 -64q43 -13 43 -61q0 -86 -133 -86q-25 0 -54.5 4z" />
    <glyph glyph-name="oneeighth" unicode="&#x215b;" horiz-adv-x="685" 
d="M106 565l-69 -14v71l162 32v-284h-93v195zM428 644h128l-340 -644h-127zM402.5 11.5q-35.5 21.5 -35.5 61.5q0 23 11 40t32 27q-35 18 -35 60q0 39 32 60.5t89 21.5t89 -21.5t32 -60.5q0 -42 -36 -63q23 -10 33.5 -26t10.5 -38q0 -40 -35.5 -61.5t-93.5 -21.5t-93.5 21.5
zM531 175.5q6 6.5 6 22.5q0 30 -41 30t-41 -30q0 -13 6 -20.5t20 -10.5l25 -5q19 7 25 13.5zM544 75q0 13 -7.5 19.5t-27.5 11.5l-27 7q-18 -6 -26 -13.5t-8 -23.5q0 -32 48 -32t48 31z" />
    <glyph glyph-name="threeeighths" unicode="&#x215c;" horiz-adv-x="699" 
d="M81.5 366q-29.5 4 -44.5 10v63q34 -14 75 -14q33 0 46.5 6t13.5 21q0 29 -52 29h-42l5 56h34q49 0 49 30q0 23 -54 23q-37 0 -70 -14v64q15 6 42 10t53 4q65 0 95.5 -21.5t30.5 -59.5q0 -47 -37 -64q43 -13 43 -61q0 -86 -133 -86q-25 0 -54.5 4zM428 644h128l-340 -644
h-127zM402.5 11.5q-35.5 21.5 -35.5 61.5q0 23 11 40t32 27q-35 18 -35 60q0 39 32 60.5t89 21.5t89 -21.5t32 -60.5q0 -42 -36 -63q23 -10 33.5 -26t10.5 -38q0 -40 -35.5 -61.5t-93.5 -21.5t-93.5 21.5zM531 175.5q6 6.5 6 22.5q0 30 -41 30t-41 -30q0 -13 6 -20.5
t20 -10.5l25 -5q19 7 25 13.5zM544 75q0 13 -7.5 19.5t-27.5 11.5l-27 7q-18 -6 -26 -13.5t-8 -23.5q0 -32 48 -32t48 31z" />
    <glyph glyph-name="fiveeighths" unicode="&#x215d;" horiz-adv-x="679" 
d="M78 365.5q-26 3.5 -41 9.5v66q30 -13 73 -13q35 0 50.5 7.5t15.5 23.5q0 18 -12.5 25t-43.5 7h-82v51l7 102h201l-5 -63h-116l-3 -34h40q103 0 103 -89q0 -43 -34.5 -69.5t-100.5 -26.5q-26 0 -52 3.5zM428 644h128l-340 -644h-127zM402.5 11.5q-35.5 21.5 -35.5 61.5
q0 23 11 40t32 27q-35 18 -35 60q0 39 32 60.5t89 21.5t89 -21.5t32 -60.5q0 -42 -36 -63q23 -10 33.5 -26t10.5 -38q0 -40 -35.5 -61.5t-93.5 -21.5t-93.5 21.5zM531 175.5q6 6.5 6 22.5q0 30 -41 30t-41 -30q0 -13 6 -20.5t20 -10.5l25 -5q19 7 25 13.5zM544 75
q0 13 -7.5 19.5t-27.5 11.5l-27 7q-18 -6 -26 -13.5t-8 -23.5q0 -32 48 -32t48 31z" />
    <glyph glyph-name="seveneighths" unicode="&#x215e;" horiz-adv-x="687" 
d="M170 574h-133v70h235v-56l-94 -218h-96zM428 644h128l-340 -644h-127zM402.5 11.5q-35.5 21.5 -35.5 61.5q0 23 11 40t32 27q-35 18 -35 60q0 39 32 60.5t89 21.5t89 -21.5t32 -60.5q0 -42 -36 -63q23 -10 33.5 -26t10.5 -38q0 -40 -35.5 -61.5t-93.5 -21.5t-93.5 21.5z
M531 175.5q6 6.5 6 22.5q0 30 -41 30t-41 -30q0 -13 6 -20.5t20 -10.5l25 -5q19 7 25 13.5zM544 75q0 13 -7.5 19.5t-27.5 11.5l-27 7q-18 -6 -26 -13.5t-8 -23.5q0 -32 48 -32t48 31z" />
    <glyph glyph-name="arrowleft" unicode="&#x2190;" horiz-adv-x="748" 
d="M37 246v41l244 196l41 -56l-144 -116h533v-89h-532l143 -115l-41 -56z" />
    <glyph glyph-name="arrowup" unicode="&#x2191;" horiz-adv-x="506" 
d="M208 487l-115 -144l-56 41l195 244h41l196 -244l-56 -41l-116 144v-532h-89v532z" />
    <glyph glyph-name="arrowright" unicode="&#x2192;" horiz-adv-x="748" 
d="M426 107l143 115h-532v89h533l-144 116l41 56l244 -196v-41l-244 -195z" />
    <glyph glyph-name="arrowdown" unicode="&#x2193;" horiz-adv-x="506" 
d="M37 188l56 41l115 -144v532h89v-532l116 144l56 -41l-196 -244h-41z" />
    <glyph glyph-name="partialdiff" unicode="&#x2202;" horiz-adv-x="627" 
d="M93 36q-55 46 -55 122q0 24 6 51q23 104 88 156.5t179 52.5q38 0 78 -12t67 -34l4 19q6 30 6 57q0 51 -29 78.5t-98 27.5q-98 0 -168 -29l21 100q73 29 172 29q108 0 166 -59t58 -157q0 -32 -8 -74l-25 -121q-28 -131 -98.5 -192t-203.5 -61q-105 0 -160 46zM423 218
l13 62q-25 21 -53.5 32t-66.5 11q-68 0 -103 -28.5t-49 -90.5q-5 -25 -5 -40q0 -40 26.5 -59.5t82.5 -19.5q127 0 155 133z" />
    <glyph glyph-name="product" unicode="&#x220f;" horiz-adv-x="633" 
d="M57 706h518v-835h-135v731h-248v-731h-135v835z" />
    <glyph glyph-name="summation" unicode="&#x2211;" horiz-adv-x="536" 
d="M37 -41l229 303l-229 302v80h462v-105h-290l210 -277l-210 -278h290v-104h-462v79z" />
    <glyph glyph-name="minus" unicode="&#x2212;" horiz-adv-x="460" 
d="M37 324h386v-105h-386v105z" />
    <glyph glyph-name="uni2215" unicode="&#x2215;" horiz-adv-x="529" 
d="M354 662h137l-316 -662h-138z" />
    <glyph glyph-name="uni2219" unicode="&#x2219;" horiz-adv-x="186" 
d="M37 371h112v-103h-112v103z" />
    <glyph glyph-name="radical" unicode="&#x221a;" horiz-adv-x="700" 
d="M145 347h-108v105h200l99 -295l192 557h134l-251 -714h-138z" />
    <glyph glyph-name="infinity" unicode="&#x221e;" horiz-adv-x="691" 
d="M81.5 165.5q-44.5 40.5 -44.5 116.5t44.5 116t119.5 40q45 0 83 -21.5t61 -57.5q24 36 61.5 57.5t82.5 21.5q75 0 119.5 -40t44.5 -116t-44.5 -116.5t-119.5 -40.5q-45 0 -82.5 21.5t-61.5 57.5q-23 -36 -61 -57.5t-83 -21.5q-75 0 -119.5 40.5zM301 281
q-17 35 -39.5 52.5t-54.5 17.5q-36 0 -55 -18.5t-19 -50.5q0 -33 19 -51t55 -18q62 0 94 68zM539 231q19 18 19 51q0 32 -19 50.5t-55 18.5q-62 0 -95 -71q18 -33 41 -50t54 -17q36 0 55 18z" />
    <glyph glyph-name="integral" unicode="&#x222b;" horiz-adv-x="432" 
d="M10 -104v93q31 -11 60 -11q43 0 60.5 15.5t17.5 53.5v475q0 76 43 122t123 46q59 0 107 -19v-93q-31 11 -60 11q-43 0 -60.5 -15.5t-17.5 -53.5v-475q0 -76 -43 -122t-123 -46q-59 0 -107 19z" />
    <glyph glyph-name="approxequal" unicode="&#x2248;" horiz-adv-x="464" 
d="M281 286.5q-20 6.5 -48 19.5q-26 13 -47.5 20t-47.5 7q-33 0 -55.5 -8.5t-45.5 -32.5v102q33 34 101 34q27 0 50 -7t52 -21q30 -13 49 -19t42 -6q31 0 52 8.5t43 32.5v-103q-30 -33 -100 -33q-25 0 -45 6.5zM281 120.5q-20 6.5 -48 19.5q-26 13 -47.5 20t-47.5 7
q-33 0 -55.5 -8.5t-45.5 -32.5v101q33 34 101 34q27 0 50 -7t52 -21q30 -13 49 -19t42 -6q31 0 52 8.5t43 32.5v-102q-29 -33 -100 -33q-25 0 -45 6.5z" />
    <glyph glyph-name="notequal" unicode="&#x2260;" horiz-adv-x="464" 
d="M128 141h-91v95h125l25 70h-150v94h183l19 53h107l-19 -53h99v-94h-132l-25 -70h157v-95h-191l-22 -61h-107z" />
    <glyph glyph-name="lessequal" unicode="&#x2264;" horiz-adv-x="542" 
d="M37 324v92l468 203v-113l-325 -136l325 -136v-113zM37 92h468v-92h-468v92z" />
    <glyph glyph-name="greaterequal" unicode="&#x2265;" horiz-adv-x="542" 
d="M37 234l325 136l-325 136v113l468 -203v-92l-468 -203v113zM37 92h468v-92h-468v92z" />
    <glyph glyph-name="filledbox" unicode="&#x25a0;" horiz-adv-x="559" 
d="M37 604h484v-484h-484v484z" />
    <glyph glyph-name="triagup" unicode="&#x25b2;" horiz-adv-x="660" 
d="M330 585l292 -585h-585z" />
    <glyph glyph-name="uni25B3" unicode="&#x25b3;" horiz-adv-x="660" 
d="M330 555l270 -541h-541zM504 71l-174 348l-174 -348h348z" />
    <glyph glyph-name="uni25B6" unicode="&#x25b6;" horiz-adv-x="660" 
d="M37 585l585 -292l-585 -293v585z" />
    <glyph glyph-name="uni25B7" unicode="&#x25b7;" horiz-adv-x="660" 
d="M51 563l541 -271l-541 -270v541zM456 292l-348 174v-348z" />
    <glyph glyph-name="triagdn" unicode="&#x25bc;" horiz-adv-x="660" 
d="M37 585h585l-292 -585z" />
    <glyph glyph-name="uni25BD" unicode="&#x25bd;" horiz-adv-x="660" 
d="M59 571h541l-270 -541zM504 514h-348l174 -348z" />
    <glyph glyph-name="uni25C0" unicode="&#x25c0;" horiz-adv-x="660" 
d="M37 293l585 292v-585z" />
    <glyph glyph-name="uni25C1" unicode="&#x25c1;" horiz-adv-x="660" 
d="M67 292l541 271v-541zM551 466l-348 -174l348 -174v348z" />
    <glyph glyph-name="uni25C6" unicode="&#x25c6;" horiz-adv-x="608" 
d="M37 331l266 267l267 -267l-267 -266z" />
    <glyph glyph-name="lozenge" unicode="&#x25ca;" horiz-adv-x="601" 
d="M37 321l221 323h85l221 -323l-221 -321h-85zM430 321l-130 194l-128 -194l129 -194z" />
    </font>
</defs>
</svg>
