<?xml version="1.0" standalone="no"?>
<!DOCTYPE svg PUBLIC "-//W3C//DTD SVG 1.1//EN" "http://www.w3.org/Graphics/SVG/1.1/DTD/svg11.dtd" >
<svg xmlns="http://www.w3.org/2000/svg" xmlns:xlink="http://www.w3.org/1999/xlink" version="1.1">
<metadata>
Created by FontForge 20170731 at Tue Jul 17 09:16:27 2007
 By Aleksey,,,
Copyright (c) 2007 by Prinya R. nont. All rights reserved.
</metadata>
<defs>
<font id="DBWittayuX-Bold" horiz-adv-x="0" >
  <font-face 
    font-family="DB Wittayu X"
    font-weight="700"
    font-stretch="normal"
    units-per-em="1000"
    panose-1="2 0 5 6 6 0 0 2 0 4"
    ascent="800"
    descent="-200"
    x-height="415"
    cap-height="577"
    bbox="-478 -358 981 861"
    underline-thickness="35"
    underline-position="-164"
    unicode-range="U+0020-F882"
  />
<missing-glyph horiz-adv-x="414" 
d="M422 400v-14h6q7 0 7 9q0 1 -1.5 3t-5.5 2h-6zM425 385h-3v-14h-5v34h11q12 0 12 -10q0 -7 -3 -8.5t-7 -1.5l10 -14h-5zM428 366q13 0 17.5 7t4.5 13q0 24 -22 24q-23 0 -23 -24q0 -8 5.5 -14t17.5 -6zM428 413q13 0 19 -8t6 -19q0 -8 -6 -15.5t-19 -7.5q-12 0 -19 7.5
t-7 15.5q0 11 7 19t19 8zM201 316q16 -1 37.5 -4t43 -7t39.5 -9.5t27 -12.5q-20 40 -62 61.5t-86 21.5q-34 0 -65 -13t-51 -40q18 2 36 3t36 1h22.5t22.5 -1zM375 395v-142q-48 15 -109.5 25.5t-130.5 10.5q-48 0 -94 -6q6 22 19 42.5t33 36t46.5 24.5t58.5 9q31 0 56 -7
t43.5 -17t31.5 -22t19 -21q0 -1 0 6.5t-0.5 18.5t-0.5 23v19h28zM153 127q0 8 -5.5 12t-11.5 4q-7 0 -12 -4t-5 -12t5 -11.5t12 -3.5q6 0 11.5 3.5t5.5 11.5zM32 139q0 23 9 41t24 30t34 18t39 6t38.5 -5.5t33 -16.5t23 -28t8.5 -41v-116h106v202h28v-228h-189v26h29v119
q0 30 -22 45t-54 15q-30 0 -54 -16.5t-24 -46.5v-107l58 58q-5 2 -13 10t-8 23q0 18 11 28.5t29 10.5q17 0 27.5 -11.5t10.5 -27.5q0 -14 -5.5 -21.5t-9.5 -11.5q-2 -2 -17 -16.5t-33 -31.5q-11 -10 -22.5 -21t-24.5 -24h-32v138z" />
    <glyph glyph-name="plusminus" unicode="&#x2b;&#x2d;" horiz-adv-x="597" 
d="M357 359v-171h-117v171h-181v109h181v171h117v-171h181v-109h-181zM59 0v121h479v-120z" />
    <glyph glyph-name="ellipsis" unicode="&#x2e;&#x2e;&#x2e;" horiz-adv-x="529" 
d="M382 0v98h101v-98h-101zM214 0v98h101v-98h-101zM46 0v98h101v-98h-101z" />
    <glyph glyph-name="lessequal" unicode="&#x3c;&#x3d;" horiz-adv-x="538" 
d="M59 142v106l420 -155v-110zM59 302v96l420 159v-94l-274 -105l274 -105v-110z" />
    <glyph glyph-name="greaterequal" unicode="&#x3e;&#x3d;" horiz-adv-x="538" 
d="M59 -17v110l420 158v-109zM59 163v110l274 105l-274 105v94l420 -159v-96z" />
    <glyph glyph-name="fongmanfunnuthai" unicode="&#xe4f;&#x22;" horiz-adv-x="500" 
d="M320 482h-49l37 178h75zM217 482h-48l36 178h75zM475 217q0 -47 -17.5 -87.5t-48.5 -71.5t-72 -48.5t-87 -17.5q-47 0 -87.5 17.5t-71 48.5t-48 71.5t-17.5 87.5q0 46 17.5 87t48 71.5t71 48t87.5 17.5q46 0 87 -17.5t72 -48t48.5 -71.5t17.5 -87zM406 217
q0 32 -12.5 60.5t-33.5 49.5t-49.5 33.5t-60.5 12.5t-60.5 -12.5t-49.5 -33.5t-33 -49.5t-12 -60.5t12 -60.5t33 -49.5t49.5 -33.5t60.5 -12.5t60.5 12.5t49.5 33.5t33.5 49.5t12.5 60.5zM372 217q0 -26 -9.5 -48t-26 -38.5t-39 -26t-47.5 -9.5q-26 0 -48 9.5t-38.5 26
t-26 38.5t-9.5 48q0 25 9.5 47.5t26 39t38.5 26t48 9.5q25 0 47.5 -9.5t39 -26t26 -39t9.5 -47.5zM315 217q0 27 -19 46t-46 19t-46 -19t-19 -46t19 -46t46 -19t46 19t19 46z" />
    <glyph glyph-name="dochadaphinthuthai" unicode="&#xe0e;&#xe3a;" horiz-adv-x="450" 
d="M428 -42q0 -51 -31.5 -80.5t-100.5 -29.5h-89l-40 36l-38 -36h-85l-32 71q0 6 3.5 7.5t6.5 1.5h91l54 48l52 -48h25q28 0 40.5 11.5t12.5 45.5v295q0 24 -13.5 41t-48.5 17q-32 0 -50 -17.5t-18 -41.5v-279h-152v73h21v141q0 30 8.5 51.5t22.5 35.5q-18 3 -32 2v54
q18 10 38 22t45 22t56 16.5t71 6.5q37 0 70.5 -7.5t58.5 -24t39.5 -44t14.5 -66.5v-324zM428 -249q0 -26 -19.5 -44.5t-45.5 -18.5t-45.5 18.5t-19.5 44.5t19.5 44.5t45.5 18.5t45.5 -18.5t19.5 -44.5z" />
    <glyph glyph-name="topatakphintuthai" unicode="&#xe0f;&#xe3a;" horiz-adv-x="450" 
d="M428 -42q0 -51 -31.5 -80.5t-100.5 -29.5h-64l-39 36l-39 -36h-27l-39 36l-39 -36h-5l-32 71q0 6 3.5 7.5t6.5 1.5h11l55 48l50 -48l55 48l51 -48q25 0 39 13t14 44v295q0 24 -13.5 41t-48.5 17q-32 0 -50 -17.5t-18 -41.5v-279h-152v73h21v141q0 30 8.5 51.5t22.5 35.5
q-18 3 -32 2v54q18 10 38 22t45 22t56 16.5t71 6.5q37 0 70.5 -7.5t58.5 -24t39.5 -44t14.5 -66.5v-324zM428 -249q0 -26 -19.5 -44.5t-45.5 -18.5t-45.5 18.5t-19.5 44.5t19.5 44.5t45.5 18.5t45.5 -18.5t19.5 -44.5z" />
    <glyph glyph-name="dochadasarauthai" unicode="&#xe0e;&#xe38;" horiz-adv-x="450" 
d="M428 -42q0 -51 -31.5 -80.5t-100.5 -29.5h-89l-40 36l-38 -36h-85l-32 71q0 6 3.5 7.5t6.5 1.5h91l54 48l52 -48h25q28 0 40.5 11.5t12.5 45.5v295q0 24 -13.5 41t-48.5 17q-32 0 -50 -17.5t-18 -41.5v-279h-152v73h21v141q0 30 8.5 51.5t22.5 35.5q-18 3 -32 2v54
q18 10 38 22t45 22t56 16.5t71 6.5q37 0 70.5 -7.5t58.5 -24t39.5 -44t14.5 -66.5v-324zM307 -358v67q0 9 -2.5 12.5t-12.5 3.5h-41l34 85h75q13 0 25.5 -1.5t22.5 -7t15.5 -16.5t5.5 -29v-114h-122z" />
    <glyph glyph-name="topataksarauthai" unicode="&#xe0f;&#xe38;" horiz-adv-x="450" 
d="M428 -42q0 -51 -31.5 -80.5t-100.5 -29.5h-64l-39 36l-39 -36h-27l-39 36l-39 -36h-5l-32 71q0 6 3.5 7.5t6.5 1.5h11l55 48l50 -48l55 48l51 -48q25 0 39 13t14 44v295q0 24 -13.5 41t-48.5 17q-32 0 -50 -17.5t-18 -41.5v-279h-152v73h21v141q0 30 8.5 51.5t22.5 35.5
q-18 3 -32 2v54q18 10 38 22t45 22t56 16.5t71 6.5q37 0 70.5 -7.5t58.5 -24t39.5 -44t14.5 -66.5v-324zM306 -358v67q0 9 -2.5 12.5t-12.5 3.5h-41l34 85h75q13 0 25.5 -1.5t22.5 -7t15.5 -16.5t5.5 -29v-114h-122z" />
    <glyph glyph-name=".notdef" horiz-adv-x="414" 
d="M422 400v-14h6q7 0 7 9q0 1 -1.5 3t-5.5 2h-6zM425 385h-3v-14h-5v34h11q12 0 12 -10q0 -7 -3 -8.5t-7 -1.5l10 -14h-5zM428 366q13 0 17.5 7t4.5 13q0 24 -22 24q-23 0 -23 -24q0 -8 5.5 -14t17.5 -6zM428 413q13 0 19 -8t6 -19q0 -8 -6 -15.5t-19 -7.5q-12 0 -19 7.5
t-7 15.5q0 11 7 19t19 8zM201 316q16 -1 37.5 -4t43 -7t39.5 -9.5t27 -12.5q-20 40 -62 61.5t-86 21.5q-34 0 -65 -13t-51 -40q18 2 36 3t36 1h22.5t22.5 -1zM375 395v-142q-48 15 -109.5 25.5t-130.5 10.5q-48 0 -94 -6q6 22 19 42.5t33 36t46.5 24.5t58.5 9q31 0 56 -7
t43.5 -17t31.5 -22t19 -21q0 -1 0 6.5t-0.5 18.5t-0.5 23v19h28zM153 127q0 8 -5.5 12t-11.5 4q-7 0 -12 -4t-5 -12t5 -11.5t12 -3.5q6 0 11.5 3.5t5.5 11.5zM32 139q0 23 9 41t24 30t34 18t39 6t38.5 -5.5t33 -16.5t23 -28t8.5 -41v-116h106v202h28v-228h-189v26h29v119
q0 30 -22 45t-54 15q-30 0 -54 -16.5t-24 -46.5v-107l58 58q-5 2 -13 10t-8 23q0 18 11 28.5t29 10.5q17 0 27.5 -11.5t10.5 -27.5q0 -14 -5.5 -21.5t-9.5 -11.5q-2 -2 -17 -16.5t-33 -31.5q-11 -10 -22.5 -21t-24.5 -24h-32v138z" />
    <glyph glyph-name=".null" 
 />
    <glyph glyph-name="nonmarkingreturn" horiz-adv-x="283" 
 />
    <glyph glyph-name="space" unicode=" " horiz-adv-x="250" 
 />
    <glyph glyph-name="exclam" unicode="!" horiz-adv-x="260" 
d="M176 172h-88l-42 385h168zM66 0v108h127v-108h-127z" />
    <glyph glyph-name="quotedbl" unicode="&#x22;" horiz-adv-x="346" 
d="M242 323h-73l52 254h102zM96 323h-73l52 254h101z" />
    <glyph glyph-name="numbersign" unicode="#" horiz-adv-x="560" 
d="M509 287h-84l-18 -76h97l-26 -98h-93l-25 -113h-99l26 113h-79l-26 -113h-97l26 113h-86l27 98h81l18 76h-92l27 98h88l32 144h99l-33 -144h77l34 144h97l-33 -144h88zM250 287l-18 -76h77l18 76h-77z" />
    <glyph glyph-name="dollar" unicode="$" horiz-adv-x="561" 
d="M525 166q0 -47 -17 -78.5t-44.5 -52t-62 -30.5t-68.5 -13v-59h-90v61q-85 5 -138 47t-69 127l122 25q10 -35 28.5 -61.5t56.5 -34.5v138q-36 7 -69.5 19t-59 32.5t-41 51.5t-15.5 77q0 40 15.5 70t41.5 50t59 31t69 13v53h90v-55q67 -4 113 -41t65 -106l-119 -22
q-7 25 -18 40t-41 23v-116q37 -6 71.5 -19.5t61.5 -36t43 -55.5t16 -78zM243 477q-21 -1 -33 -15.5t-13.5 -32t9.5 -33.5t37 -20v101zM333 97q30 6 44 23t14 36.5t-15 36.5t-43 23v-119z" />
    <glyph glyph-name="percent" unicode="%" horiz-adv-x="704" 
d="M534 -24q-50 0 -82.5 25.5t-48.5 64t-15.5 83.5t17 83.5t49 64t80.5 25.5q49 0 82 -25.5t49 -64t15.5 -83.5t-17 -83.5t-49 -64t-80.5 -25.5zM220 0h-105l369 581h105zM169 259q-50 0 -82 25.5t-48 64t-15 83.5t17 83.5t48.5 64t79.5 25.5q49 0 81.5 -25.5t49 -64
t16 -83.5t-17 -83.5t-49 -64t-80.5 -25.5zM575 146q1 17 -0.5 33t-6.5 28q-9 25 -34 25q-18 0 -26.5 -14t-12 -32.5t-3 -38.5t1.5 -32q2 -20 9 -35t31 -15q15 0 23.5 8.5t12 21.5t4.5 26.5t1 24.5zM211 429q0 17 -2 32.5t-7 27.5q-9 25 -33 25q-18 0 -26.5 -13.5t-12 -32.5
t-3 -38.5t1.5 -31.5q2 -19 9 -34.5t31 -15.5q16 0 24.5 8.5t12.5 21t4.5 26.5t0.5 25z" />
    <glyph glyph-name="ampersand" unicode="&#x26;" horiz-adv-x="674" 
d="M630 -13q-20 -7 -48.5 -7.5t-52.5 9.5q-17 7 -38.5 21t-35.5 30q-23 -17 -48 -27.5t-49.5 -16.5t-48.5 -8.5t-43 -2.5q-64 0 -111.5 20t-76 52t-38 72t1 80t43 76.5t86.5 61.5q-36 43 -42 86.5t13 77.5t59.5 54.5t98.5 19.5q41 -1 72.5 -16t52 -38t28 -52.5t0.5 -59
t-30 -57.5t-64 -48l105 -109q12 16 21.5 36.5t17 42.5t12.5 44t8 41l97 -88q-6 -23 -15 -46t-19.5 -44t-21.5 -39t-23 -31q17 -19 37.5 -24t38.5 -3l13 1v-108zM338 436q6 20 -2 36.5t-37 18.5q-15 1 -24.5 -4t-14.5 -13t-6 -17t2 -16q6 -16 15.5 -27t18.5 -18
q12 7 27.5 16.5t20.5 23.5zM245 265q-22 -10 -37.5 -25t-23.5 -33t-7.5 -37t11.5 -35q14 -24 38 -34.5t52 -10.5t55 8t47 22z" />
    <glyph glyph-name="quotesingle" unicode="'" horiz-adv-x="219" 
d="M105 323h-72l52 254h101z" />
    <glyph glyph-name="parenleft" unicode="(" horiz-adv-x="320" 
d="M283 621q-69 -91 -97.5 -176t-28.5 -175q0 -93 23.5 -185t89.5 -185h-95q-72 78 -105 169.5t-33 200.5q0 108 36.5 193.5t111.5 157.5h98z" />
    <glyph glyph-name="parenright" unicode=")" horiz-adv-x="320" 
d="M283 270q0 -109 -33 -200.5t-105 -169.5h-95q66 93 89.5 185t23.5 185q0 90 -28.5 175t-97.5 176h98q75 -72 111.5 -157.5t36.5 -193.5z" />
    <glyph glyph-name="asterisk" unicode="*" horiz-adv-x="410" 
d="M263 401l93 -91l-85 -59l-65 110l-54 -112l-88 62l87 88l-128 25l35 95l113 -52l-20 123h106l-13 -122l110 50l37 -99z" />
    <glyph glyph-name="plus" unicode="+" horiz-adv-x="597" 
d="M359 179v-171h-117v171h-181v109h181v171h117v-171h181v-109h-181z" />
    <glyph glyph-name="comma" unicode="," horiz-adv-x="246" 
d="M122 -126h-74l58 126h-36v124h128v-110z" />
    <glyph glyph-name="hyphen" unicode="-" horiz-adv-x="410" 
d="M29 169v121h357v-120z" />
    <glyph glyph-name="period" unicode="." horiz-adv-x="246" 
d="M59 0v124h128v-124h-128z" />
    <glyph glyph-name="slash" unicode="/" horiz-adv-x="342" 
d="M151 -22h-101l140 599h102z" />
    <glyph glyph-name="zero" unicode="0" horiz-adv-x="490" 
d="M471 262q0 -59 -15 -108.5t-44 -85.5t-71 -56t-96 -20q-79 0 -129.5 40.5t-74.5 101.5t-22.5 132t27.5 132t76.5 101.5t122.5 40.5q63 0 106 -24t70 -63t38.5 -89t11.5 -102zM341 262q0 41 -4 75.5t-14.5 59t-29 38t-48.5 13.5q-28 0 -46 -16t-29 -42t-15.5 -59.5
t-4.5 -68.5q0 -34 4 -66t14.5 -57.5t29 -41t47.5 -15.5t47.5 15.5t29.5 41t15 57.5t4 66z" />
    <glyph glyph-name="one" unicode="1" horiz-adv-x="490" 
d="M386 0h-295v93h103v279q-26 -11 -54.5 -18.5t-49.5 -7.5h-13v89q48 7 88.5 31t66.5 66q7 1 14 1t14 1q11 1 24 0.5t23 -1.5l11 -1v-439h101q10 0 13 -7.5t-2 -14.5z" />
    <glyph glyph-name="two" unicode="2" horiz-adv-x="490" 
d="M421 0h-388v103q14 10 28.5 19t28.5 18q24 16 52 34t51 34q19 13 42 28.5t43 34t34 40.5t15 48q2 34 -21 56t-60 22q-19 0 -35.5 -7.5t-28.5 -21t-19 -31t-7 -37.5v-14l-125 28q15 85 72.5 133.5t145.5 48.5q53 0 92 -14.5t65 -39t39 -56.5t14 -66q1 -40 -14 -71
t-39 -56.5t-54 -46t-58 -39.5q-20 -13 -42.5 -25t-43.5 -23h250q11 0 13.5 -7.5t-2.5 -14.5z" />
    <glyph glyph-name="three" unicode="3" horiz-adv-x="490" 
d="M464 148q0 -44 -20 -73.5t-51 -47.5t-68 -26t-71 -9q-39 -1 -76.5 6t-68.5 25t-53 48t-30 74l117 30q3 -45 31.5 -69.5t73.5 -22.5q42 2 64.5 19.5t21.5 49.5q-1 30 -19.5 44.5t-44 19.5t-52.5 4t-44 -2v102q18 0 44 -0.5t49.5 4.5t40 18.5t16.5 42.5q0 27 -22.5 42
t-57.5 15q-37 0 -59.5 -21t-31.5 -55l-113 21q12 43 34 72t50.5 45.5t61 23.5t65.5 7q39 0 75 -10.5t63.5 -29.5t43.5 -46.5t15 -61.5q-1 -42 -21.5 -70t-56.5 -42q43 -11 68.5 -46.5t25.5 -80.5z" />
    <glyph glyph-name="four" unicode="4" horiz-adv-x="490" 
d="M425 103h-37v-103h-123v103h-235v88l232 342h126v-323h78q11 0 13.5 -8t-1.5 -14zM271 385l-113 -178h113v178z" />
    <glyph glyph-name="five" unicode="5" horiz-adv-x="490" 
d="M457 186q0 -47 -16 -83.5t-44 -61t-65.5 -37t-80.5 -12.5q-41 0 -79 10t-68 30t-49 49.5t-22 68.5l120 17q10 -41 38.5 -59t59 -15t54 26t23.5 64q0 33 -20 54.5t-47.5 27.5t-56 -6t-44.5 -46q-15 4 -28.5 7.5t-26.5 6.5q-11 2 -21 5t-18 5q-5 2 -9 3l-8 2l36 289h342
q11 0 13.5 -8t-1.5 -14l-43 -70h-220l-9 -101q23 17 48 22.5t54 5.5q38 0 72.5 -13.5t60 -37.5t40.5 -57t15 -72z" />
    <glyph glyph-name="six" unicode="6" horiz-adv-x="490" 
d="M465 176q0 -46 -16.5 -80.5t-44.5 -57.5t-63.5 -34.5t-73.5 -11.5q-68 1 -114 22t-74.5 58t-41 88t-12.5 111q0 78 20 131t52.5 85.5t73.5 46.5t83 14q67 0 114.5 -21.5t71.5 -78.5l-89 -53q-18 33 -41.5 47.5t-50.5 14.5q-45 0 -76.5 -40.5t-30.5 -113.5q23 27 55 40
t67 13t69 -12t61 -35t44 -57t17 -76zM252 80q30 0 50 13t30.5 32.5t10.5 42t-10 42t-30 32.5t-51 13q-42 0 -65 -25.5t-23 -62.5q0 -42 26 -64.5t62 -22.5z" />
    <glyph glyph-name="seven" unicode="7" horiz-adv-x="490" 
d="M445 453q-42 -54 -72.5 -105.5t-49.5 -105.5t-28 -113t-9 -129h-135q0 61 14 122t38 118t55 107.5t65 91.5h-268q-11 0 -13 8t2 14l43 70h358v-78z" />
    <glyph glyph-name="eight" unicode="8" horiz-adv-x="490" 
d="M461 160q0 -42 -19 -73.5t-49.5 -52t-70 -30.5t-81.5 -10q-36 0 -74 8t-68.5 26t-50 46t-19.5 68q0 22 8 41t20.5 34t28.5 26.5t32 19.5q-32 20 -52 49.5t-19 71.5q1 39 18 68t45 47.5t63.5 28t73.5 9.5q35 0 69 -8t61 -25t44 -43.5t19 -62.5q2 -40 -18.5 -66.5
t-52.5 -46.5q38 -20 65 -51.5t27 -73.5zM273 326q33 14 46 34.5t8.5 39.5t-25.5 32.5t-55 13.5q-30 0 -49.5 -10.5t-26 -26t1 -32t31.5 -28.5q17 -8 34.5 -13t34.5 -10zM336 143q-4 30 -44 49q-18 8 -37.5 14t-38.5 12q-11 -5 -22.5 -11t-21.5 -14.5t-16 -18.5t-6 -23
q3 -61 91 -62q46 -1 71.5 13.5t23.5 40.5z" />
    <glyph glyph-name="nine" unicode="9" horiz-adv-x="490" 
d="M465 268q0 -78 -20 -131t-52.5 -85.5t-73.5 -46.5t-83 -14q-67 0 -114.5 21.5t-71.5 78.5l89 53q18 -33 41.5 -47.5t50.5 -14.5q45 0 76.5 40.5t30.5 113.5q-23 -27 -55 -40t-67 -13t-69 12t-61 35t-44 57t-17 76q0 45 16.5 79.5t44.5 58t63.5 35t73.5 11.5
q67 -1 113.5 -22t75 -58t41 -88t12.5 -111zM326 372q0 42 -26 64.5t-62 22.5q-30 0 -50 -13t-30.5 -32.5t-10.5 -42t10 -42t30 -32.5t51 -13q42 0 65 25.5t23 62.5z" />
    <glyph glyph-name="colon" unicode=":" horiz-adv-x="246" 
d="M59 292v123h128v-123h-128zM59 0v124h128v-124h-128z" />
    <glyph glyph-name="semicolon" unicode=";" horiz-adv-x="246" 
d="M70 292v123h128v-123h-128zM122 -126h-74l58 126h-36v124h128v-110z" />
    <glyph glyph-name="less" unicode="&#x3c;" horiz-adv-x="538" 
d="M59 202v96l420 159v-94l-274 -105l274 -105v-110z" />
    <glyph glyph-name="equal" unicode="=" horiz-adv-x="589" 
d="M81 261v100h427v-100h-427zM81 95v100h427v-100h-427z" />
    <glyph glyph-name="greater" unicode="&#x3e;" horiz-adv-x="538" 
d="M59 43v110l274 105l-274 105v94l420 -159v-96z" />
    <glyph glyph-name="question" unicode="?" horiz-adv-x="551" 
d="M468 387q0 -29 -9.5 -53t-25.5 -44.5t-36.5 -37.5t-42.5 -31q-12 -8 -17 -16t-7 -17t-2 -20t-1 -25h-99q-2 28 -3 48.5t3 38t16 33.5t36 34q26 19 41.5 36t15.5 46q0 27 -21.5 44t-47.5 16t-49 -24t-26 -75l-105 53q9 40 28.5 68.5t45.5 46.5t56.5 26t62.5 8
q36 0 69.5 -9.5t59.5 -28.5t42 -48t16 -69zM221 0v109h120v-109h-120z" />
    <glyph glyph-name="at" unicode="@" horiz-adv-x="690" 
d="M653 259q-8 -39 -30.5 -73.5t-54.5 -58t-72.5 -32.5t-84.5 3q-14 4 -21.5 13t-11.5 20q-13 -11 -31 -18.5t-38.5 -10.5t-41.5 -1.5t-39 9.5q-38 16 -53.5 50t-12.5 74.5t22 82.5t49.5 74.5t70 50.5t84.5 10q17 -3 31 -10.5t23 -22.5l8 18h91l-89 -229q-9 -25 -5 -34.5
t11 -11.5q18 -3 40.5 8.5t42 34.5t33 56.5t13.5 74.5q0 43 -15.5 78.5t-44.5 60.5t-70 38t-92 10q-54 -3 -99.5 -24.5t-78.5 -57.5t-51.5 -83.5t-18.5 -102.5q0 -73 36.5 -120t91.5 -69.5t119.5 -21.5t120.5 24l36 -52q-38 -21 -81 -30.5t-97 -9.5q-63 0 -120.5 18
t-100.5 53t-68.5 86.5t-25.5 118.5q0 69 23.5 133t67 113.5t106.5 79t141 29.5q83 0 144.5 -24.5t98.5 -70t48.5 -110t-4.5 -143.5zM401 338q5 26 -1.5 39t-19.5 15.5t-29 -4.5t-31 -22q-30 -29 -48.5 -69.5t-24.5 -82.5q-3 -24 5 -37.5t21 -17.5t29 2.5t29 21.5
q11 13 22 33t21 42.5t17 43.5t10 36z" />
    <glyph glyph-name="A" unicode="A" horiz-adv-x="541" 
d="M388 0l-45 128h-169l-42 -128h-116l186 577h135l190 -577h-139zM259 402l-53 -165h105z" />
    <glyph glyph-name="B" unicode="B" horiz-adv-x="516" 
d="M501 149q-5 -46 -24.5 -75t-48 -45.5t-63.5 -22.5t-71 -6h-252v577h197q44 0 84.5 -3.5t72.5 -18t54 -43t30 -77.5q8 -48 -11.5 -81.5t-57.5 -54.5q43 -20 69.5 -59t20.5 -91zM346 411q-2 32 -24.5 42.5t-55.5 10.5h-94v-119h100q32 0 54 14.5t20 51.5zM364 176
q-3 32 -26.5 46.5t-57.5 14.5h-108v-126h106q38 0 63.5 15t22.5 50z" />
    <glyph glyph-name="C" unicode="C" horiz-adv-x="525" 
d="M510 209q-8 -49 -25.5 -88.5t-46 -67.5t-69 -44t-93.5 -17q-62 -2 -109 22t-78.5 65.5t-47.5 95.5t-16 113t15 113.5t45.5 96t77.5 66t112 24.5q49 0 86.5 -13.5t65 -37.5t45.5 -58t28 -76l-109 -50q-4 20 -11.5 42.5t-21 41t-34 30t-49.5 9.5q-32 -2 -52.5 -18t-33 -41
t-17.5 -57.5t-5 -66.5q0 -35 5.5 -68.5t19 -59.5t36 -42t57.5 -16q28 -1 46.5 9t30.5 26.5t18 37.5t9 43z" />
    <glyph glyph-name="D" unicode="D" horiz-adv-x="526" 
d="M484 157q-36 -84 -109.5 -120.5t-167.5 -36.5h-164v577h162q40 0 74.5 -4t64.5 -16t57.5 -33t53.5 -54q20 -27 34.5 -62.5t19.5 -76.5t-0.5 -85t-24.5 -89zM343 180q18 28 24.5 60.5t4.5 63t-11.5 57.5t-22.5 44q-18 23 -36 35.5t-38 18t-42.5 5.5t-49.5 -3v-347h35
q56 0 85.5 16t50.5 50z" />
    <glyph glyph-name="E" unicode="E" horiz-adv-x="438" 
d="M387 468h-215v-125h205v-109h-205v-124h255v-110h-385v577h376q11 0 15 -9t-1 -17z" />
    <glyph glyph-name="F" unicode="F" horiz-adv-x="432" 
d="M380 468h-208v-125h205v-109h-205v-234h-130v577h369q11 0 15 -9t-1 -17z" />
    <glyph glyph-name="G" unicode="G" horiz-adv-x="550" 
d="M451 0l-28 56q-8 -10 -20.5 -21.5t-30.5 -21t-41.5 -16t-53.5 -6.5q-83 -1 -138.5 41.5t-83.5 108t-28 142t27.5 143.5t82.5 112.5t138 49.5q53 2 93.5 -11.5t70 -40t50 -64.5t33.5 -85l-127 -18q-8 49 -35.5 79t-82.5 24q-31 -3 -51.5 -19t-33 -40.5t-18 -55.5t-5.5 -64
q0 -36 4 -69.5t16.5 -59.5t35.5 -42t62 -17q23 -1 41 6.5t31 20.5t21.5 30.5t12.5 36.5h-88l-49 89q-4 6 -2 14t13 8h255v-310h-71z" />
    <glyph glyph-name="H" unicode="H" horiz-adv-x="516" 
d="M343 0v234h-171v-234h-130v577h130v-234h171v234h131v-577h-131z" />
    <glyph glyph-name="I" unicode="I" horiz-adv-x="214" 
d="M42 0v577h130v-577h-130z" />
    <glyph glyph-name="J" unicode="J" horiz-adv-x="335" 
d="M303 169q0 -36 -6.5 -67.5t-25.5 -56t-52 -40t-87 -19.5q-36 -3 -68 3l-40 102q-3 5 1.5 8.5t6.5 2.5q23 -5 40 -6t39 0q23 1 35.5 9t18.5 20.5t7 29.5t1 37v384h130v-407z" />
    <glyph glyph-name="K" unicode="K" horiz-adv-x="525" 
d="M376 0l-112 260l-92 -114v-146h-130v577h130v-266l207 266h140l-160 -205l162 -372h-145z" />
    <glyph glyph-name="L" unicode="L" horiz-adv-x="424" 
d="M373 0h-332v577h130v-461h236q10 0 14.5 -9t-0.5 -17z" />
    <glyph glyph-name="M" unicode="M" horiz-adv-x="668" 
d="M495 0v399l-133 -399h-77l-132 398v-398h-111v577h184l109 -328l109 328h182v-577h-131z" />
    <glyph glyph-name="N" unicode="N" horiz-adv-x="528" 
d="M379 0l-226 372v-372h-111v577h129l204 -344v344h111v-577h-107z" />
    <glyph glyph-name="O" unicode="O" horiz-adv-x="564" 
d="M283 -12q-66 0 -115 25.5t-80.5 67.5t-46.5 95.5t-14 109.5t18 109.5t49 95.5t79.5 67.5t109.5 25.5q64 0 111.5 -25.5t79.5 -67.5t47.5 -95.5t15.5 -109.5t-16 -109.5t-48 -95.5t-79.5 -67.5t-110.5 -25.5zM397 290q0 35 -5 68t-18 58t-35 40t-56 15q-32 0 -53.5 -15
t-35 -40t-19.5 -58t-6 -68q0 -36 4 -70t16 -60.5t34.5 -42.5t59.5 -16q35 0 57 16t35 42.5t17.5 60.5t4.5 70z" />
    <glyph glyph-name="P" unicode="P" horiz-adv-x="501" 
d="M486 379q-2 -46 -21 -78t-48 -52t-65 -29t-71 -9h-110v-211h-130v577h198q51 0 96.5 -10t79.5 -33t53.5 -61t17.5 -94zM350 392q0 35 -25 50t-60 15h-94v-131h100q35 0 57 15.5t22 50.5z" />
    <glyph glyph-name="Q" unicode="Q" horiz-adv-x="564" 
d="M469 -110q-31 -2 -59 1t-50.5 13.5t-37 30.5t-17.5 53q-5 -1 -11 -1.5t-12 -0.5q-66 0 -114.5 25.5t-80 67.5t-46.5 95.5t-14 109.5t17.5 109.5t48.5 95.5t79.5 67.5t109.5 25.5q71 0 122.5 -33t83 -85t43 -115.5t1.5 -126t-41 -116t-84 -84.5v-14q0 -11 11.5 -16
t27.5 -6.5t34 -0.5t30 3q5 -1 5 -5t-2 -7zM397 288q0 35 -5 68t-18 58.5t-35.5 40.5t-56.5 15q-33 0 -55 -15t-35 -40.5t-18.5 -58.5t-5.5 -68q0 -36 4 -70t16 -60t34.5 -42t59.5 -16q36 0 58.5 16t35 42.5t17 60t4.5 69.5z" />
    <glyph glyph-name="R" unicode="R" horiz-adv-x="500" 
d="M354 0l-90 218h-92v-218h-130v577h223q49 0 90.5 -9t71 -31t45.5 -58t15 -91q-1 -45 -26.5 -85.5t-67.5 -59.5l101 -243h-140zM356 393q0 36 -24 50.5t-66 14.5h-94v-130h100q34 0 59 16t25 49z" />
    <glyph glyph-name="S" unicode="S" horiz-adv-x="509" 
d="M486 173q0 -45 -19 -79t-51.5 -56.5t-74.5 -34t-87 -11.5q-42 0 -80 9.5t-68 30t-51.5 51.5t-31.5 75l119 28q22 -82 111 -80q45 1 73 14.5t27 46.5q-1 24 -23.5 36t-56 20t-72.5 17t-72.5 27.5t-55.5 51.5t-22 90q0 41 17.5 73t46 54t65 33.5t74.5 11.5q76 1 131.5 -34
t79.5 -110l-116 -31q-14 32 -34.5 47.5t-57.5 17.5q-27 1 -46 -9.5t-26.5 -25.5t-1 -31.5t30.5 -27.5q17 -8 36.5 -12t38.5 -9q35 -8 70 -19.5t63.5 -31.5t46 -52t17.5 -80z" />
    <glyph glyph-name="T" unicode="T" horiz-adv-x="446" 
d="M394 462h-102v-462h-131v462h-142v115h409q11 0 15 -9t-1 -17z" />
    <glyph glyph-name="U" unicode="U" horiz-adv-x="510" 
d="M473 192q0 -41 -11.5 -77.5t-37.5 -63.5t-67.5 -43t-100.5 -16q-67 0 -109.5 18t-67 48t-33.5 69.5t-9 83.5v366h133v-366q0 -23 4 -42.5t15 -33.5t30 -22t48 -8q29 1 47.5 8t29 19t14 29t3.5 37v379h112v-385z" />
    <glyph glyph-name="V" unicode="V" horiz-adv-x="516" 
d="M319 0h-123l-181 577h136l117 -386l117 386h116z" />
    <glyph glyph-name="W" unicode="W" horiz-adv-x="758" 
d="M595 0h-121l-96 349l-86 -349h-119l-160 577h133l94 -358l88 358h115l97 -359l91 359h114z" />
    <glyph glyph-name="X" unicode="X" horiz-adv-x="554" 
d="M389 0l-119 196l-128 -196h-132l194 299l-169 278h155l100 -168l106 168h133l-173 -266l188 -311h-155z" />
    <glyph glyph-name="Y" unicode="Y" horiz-adv-x="534" 
d="M338 242v-242h-131v242l-196 335h150l124 -215l117 215h125z" />
    <glyph glyph-name="Z" unicode="Z" horiz-adv-x="507" 
d="M446 0h-418v99l274 363h-254v115h426v-104l-269 -360h273q10 0 14.5 -9t-0.5 -17z" />
    <glyph glyph-name="bracketleft" unicode="[" horiz-adv-x="236" 
d="M41 -59v695h154v-68h-47v-559h47v-68h-154z" />
    <glyph glyph-name="backslash" unicode="\" horiz-adv-x="342" 
d="M190 -20l-139 596h101l139 -596h-101z" />
    <glyph glyph-name="bracketright" unicode="]" horiz-adv-x="236" 
d="M41 -59v68h47v559h-47v68h154v-695h-154z" />
    <glyph glyph-name="asciicircum" unicode="^" horiz-adv-x="324" 
d="M226 354l-59 148l-69 -148h-84l111 232h86l99 -232h-84z" />
    <glyph glyph-name="underscore" unicode="_" horiz-adv-x="496" 
d="M0 -150v75h496v-75h-496z" />
    <glyph glyph-name="grave" unicode="`" horiz-adv-x="219" 
d="M116 315l-86 270h104l55 -270h-73z" />
    <glyph glyph-name="a" unicode="a" horiz-adv-x="427" 
d="M331 0l-22 53q-40 -40 -77.5 -51.5t-75.5 -11.5q-35 0 -61.5 10t-45 28t-28 41.5t-9.5 50.5q0 47 28 76t69 44.5t87.5 20.5t82.5 4v23q0 13 -7 21.5t-17.5 13.5t-23 6.5t-22.5 1.5q-61 0 -73 -58l-109 15q9 40 27 67t44 43t58 22t70 5q91 -2 133.5 -36t42.5 -106v-127
v-156h-71zM279 195q-16 0 -39.5 -2.5t-45.5 -10.5t-37.5 -22.5t-15.5 -37.5q0 -21 21.5 -33t47.5 -8.5t47.5 25.5t21.5 69v20z" />
    <glyph glyph-name="b" unicode="b" horiz-adv-x="455" 
d="M438 207q0 -45 -13 -85t-36.5 -69.5t-57 -46t-75.5 -15.5q-13 0 -29 2.5t-33.5 8.5t-34.5 17t-31 28l-19 -48h-68v544l96 55q8 5 17 0.5t9 -15.5v-195q46 42 98 42q49 0 83 -18.5t55 -49t30 -71t9 -84.5zM310 204q1 63 -13.5 93t-56.5 33q-13 1 -26.5 -4t-24.5 -16.5
t-18 -30.5t-7 -45v-65q0 -24 10.5 -42t26.5 -28t34.5 -10t35 11.5t27.5 37t12 66.5z" />
    <glyph glyph-name="c" unicode="c" horiz-adv-x="423" 
d="M301 249q-3 15 -6.5 29t-11 24.5t-19.5 17t-32 6.5t-34.5 -9.5t-23.5 -26t-13.5 -38t-4.5 -44.5q0 -46 18 -79t56 -33q35 0 51 23t21 53l112 -10q-10 -74 -57.5 -121t-125.5 -49q-69 -2 -114.5 29.5t-68 80.5t-22 106t23 106.5t67 82.5t109.5 33q84 0 129 -44t59 -122z
" />
    <glyph glyph-name="d" unicode="d" horiz-adv-x="466" 
d="M356 -1l-19 48q-14 -17 -31 -28t-34.5 -17t-33.5 -8.5t-29 -2.5q-42 -1 -75.5 15.5t-57 46t-36.5 69.5t-13 85q0 44 9 84.5t30 71t54.5 49t83.5 18.5q25 0 50 -10.5t47 -31.5v155l97 55q9 5 17.5 0.5t8.5 -15.5v-584h-68zM301 234q0 26 -7 45t-18 30.5t-24.5 16.5
t-26.5 4q-42 -3 -56.5 -33t-13.5 -93q1 -41 12 -66.5t27.5 -37t35 -11.5t34.5 10t26.5 28t10.5 42v65z" />
    <glyph glyph-name="e" unicode="e" horiz-adv-x="447" 
d="M427 143q-23 -72 -70.5 -111t-128.5 -39q-51 0 -89 17t-63.5 46t-38.5 69t-13 87q0 45 13.5 85t39.5 70t64.5 47t88.5 17q57 0 96 -20t61.5 -54t31 -78.5t5.5 -92.5h-277q2 -38 22 -66t64 -28q33 0 51.5 19.5t27.5 47.5zM301 274q-5 25 -25 45.5t-50 19.5
q-35 -1 -51.5 -19.5t-23.5 -45.5h150z" />
    <glyph glyph-name="f" unicode="f" horiz-adv-x="295" 
d="M241 473q-40 0 -40 -36v-21h84q1 0 5 -2q2 -2 3.5 -4t-0.5 -7l-34 -83h-58v-320h-123v320h-65v96h65q0 63 16 96.5t45 48.5t68.5 16t86.5 -1v-103h-53z" />
    <glyph glyph-name="g" unicode="g" horiz-adv-x="467" 
d="M434 408q-7 0 -16.5 0.5t-19.5 -0.5t-18.5 -4t-13.5 -10q19 -14 32 -37t13 -54q0 -36 -17 -61.5t-44 -41.5t-60 -23.5t-65 -7.5q-20 0 -35.5 3t-33.5 5q-16 -12 -14.5 -19.5t12.5 -12t28.5 -6t34.5 -2t30 0t15 0.5q29 0 62.5 -3t62 -15.5t48 -38.5t20.5 -72
q1 -45 -21.5 -73.5t-57 -45t-76 -22.5t-77.5 -6q-29 0 -66 3.5t-70 15.5t-55 35.5t-20 64.5q2 33 17.5 52.5t32.5 30.5q-20 17 -27 36t-3 38.5t17 37t33 31.5l5 3q-21 17 -34.5 39t-13.5 54q0 38 17.5 63.5t44.5 41.5t60 22.5t64 6.5q24 0 37.5 -1.5t28.5 -6.5
q12 40 39.5 57.5t64.5 20.5l62 -99h-23zM287 300q0 20 -15 35t-47 15q-31 0 -46 -15t-15 -35t13.5 -34.5t47.5 -14.5q33 0 47.5 14.5t14.5 34.5zM312 -40q15 5 21.5 12.5t5.5 15.5t-9 14.5t-23 9.5q-18 3 -41.5 3t-47.5 -0.5t-47 1t-39 7.5q-12 -21 -6 -34.5t22 -22
t39.5 -12t47.5 -3.5t45 2.5t32 6.5z" />
    <glyph glyph-name="h" unicode="h" horiz-adv-x="444" 
d="M282 0v258q0 45 -18.5 59t-40.5 6t-40.5 -33t-18.5 -58v-232h-123v545l92 53q9 5 17.5 0.5t8.5 -15.5v-217q31 36 73.5 49.5t81 4t65.5 -42.5t27 -90v-287h-124z" />
    <glyph glyph-name="i" unicode="i" horiz-adv-x="201" 
d="M41 0v368l96 55q9 5 17.5 0t8.5 -16v-407h-122zM163 577v-118h-122v118h122z" />
    <glyph glyph-name="j" unicode="j" horiz-adv-x="229" 
d="M192 -7q0 -47 -9.5 -76.5t-28 -46.5t-46 -23.5t-63.5 -6.5h-57v102h54q17 0 22.5 10.5t5.5 31.5v384l96 55q9 5 17.5 0t8.5 -16v-414zM192 577v-118h-122v118h122z" />
    <glyph glyph-name="k" unicode="k" horiz-adv-x="441" 
d="M312 279l119 -279h-131l-77 176l-58 -66v-110h-123v543l97 55q9 5 17.5 0.5t8.5 -15.5v-320l135 151h135z" />
    <glyph glyph-name="l" unicode="l" horiz-adv-x="206" 
d="M42 0v543l97 55q9 5 17 0.5t8 -15.5v-583h-122z" />
    <glyph glyph-name="m" unicode="m" horiz-adv-x="699" 
d="M534 0v253q0 38 -11.5 53t-36.5 15q-33 0 -55.5 -27.5t-22.5 -66.5v-227h-122v253q0 41 -9.5 54.5t-38.5 13.5q-15 0 -28 -7t-23.5 -20t-16.5 -30t-6 -37v-227h-122v415h68l27 -65q23 38 59 56.5t73.5 19t70.5 -16.5t51 -50q20 26 47.5 42t57 21t58.5 -1t52 -23.5
t37 -46.5t14 -70v-281h-123z" />
    <glyph glyph-name="n" unicode="n" horiz-adv-x="448" 
d="M282 0v259q0 45 -18.5 59t-40.5 6t-40.5 -33t-18.5 -57v-234h-123v415h69l27 -65q33 46 79.5 63t88.5 8t71.5 -42.5t29.5 -87.5v-291h-124z" />
    <glyph glyph-name="o" unicode="o" horiz-adv-x="444" 
d="M223 -8q-71 0 -117 32.5t-67.5 80.5t-20 105t24.5 105t67.5 80.5t107.5 32.5q70 0 116.5 -32.5t69 -80.5t22 -105t-23 -105t-68 -80.5t-111.5 -32.5zM294 211q0 23 -4 43.5t-12 35.5t-21.5 24t-31.5 9q-21 0 -35.5 -9.5t-23.5 -25t-13 -36.5t-4 -44q-1 -57 15.5 -84.5
t56.5 -27.5q15 0 28 5.5t23 19t16 35.5t6 55z" />
    <glyph glyph-name="p" unicode="p" horiz-adv-x="445" 
d="M439 207q0 -44 -9 -84.5t-30 -71t-55 -48.5t-83 -18q-51 0 -98 41v-130l-96 -54q-8 -5 -17 -0.5t-9 14.5v559h68l19 -47q14 17 31 28t34.5 17t33.5 8.5t29 2.5q42 1 75.5 -16t57 -46.5t36.5 -69.5t13 -85zM311 211q-1 61 -24 87.5t-50 26.5t-49.5 -22t-22.5 -58v-65
q0 -26 7 -44.5t18 -30.5t24.5 -17t26.5 -4q42 4 56.5 34t13.5 93z" />
    <glyph glyph-name="q" unicode="q" horiz-adv-x="458" 
d="M320 -158q-8 -5 -17 -0.5t-9 14.5l-1 170q-22 -20 -47 -30.5t-50 -10.5q-50 0 -83.5 18t-54.5 48.5t-30 71t-9 84.5q0 45 13 85t36.5 69.5t57 46.5t75.5 16q13 0 29 -2.5t33.5 -8.5t34.5 -17t31 -28l19 47h68v-519zM293 245q0 36 -22.5 58t-49.5 22t-50 -26.5t-24 -87.5
q-1 -63 13.5 -93t56.5 -34q13 -1 26.5 4t24.5 17t18 30.5t7 44.5v65z" />
    <glyph glyph-name="r" unicode="r" horiz-adv-x="302" 
d="M294 298q-61 8 -94.5 -23t-33.5 -95v-179h-124v414h68l34 -80q12 30 29 48t36.5 27.5t41 12t43.5 1.5v-126z" />
    <glyph glyph-name="s" unicode="s" horiz-adv-x="414" 
d="M392 134q0 -35 -13.5 -62t-37 -45.5t-56.5 -28t-72 -9.5q-61 0 -98 15t-57 34.5t-27.5 39t-8.5 28.5l108 18q9 -29 33 -40t53 -11q26 0 43.5 11.5t17.5 29.5q0 15 -14 23t-42 14q-32 6 -63.5 14.5t-57 23.5t-41.5 39.5t-16 62.5q0 27 10.5 51.5t31.5 43t53 29t75 10.5
q57 0 101 -25.5t62 -82.5q0 -1 -16 -3.5t-36 -5.5q-11 -2 -24 -4t-27 -4q-11 43 -61 43q-32 0 -46 -10.5t-14 -30.5q0 -14 15.5 -22.5t35.5 -14t39 -8t27 -3.5q55 -11 89 -40t34 -80z" />
    <glyph glyph-name="t" unicode="t" horiz-adv-x="295" 
d="M202 -3q-36 -1 -60.5 7t-39.5 24t-21 38t-6 48v219h-59v82h60v79l99 54q9 5 17 1t8 -15v-119h75v-82h-75v-207q0 -21 9.5 -30t20.5 -10l59 -2v-85z" />
    <glyph glyph-name="u" unicode="u" horiz-adv-x="447" 
d="M404 0h-116v51q-24 -39 -65.5 -52.5t-82 -3.5t-70 42.5t-29.5 86.5v291h124v-259q0 -45 18.5 -60t40.5 -8t40.5 32.5t18.5 60.5v188l95 54q9 5 17.5 0t8.5 -16v-407z" />
    <glyph glyph-name="v" unicode="v" horiz-adv-x="420" 
d="M265 1h-99l-155 414h128l78 -255l76 255h116z" />
    <glyph glyph-name="w" unicode="w" horiz-adv-x="599" 
d="M469 0h-105l-58 216l-65 -216h-103l-128 415h128l59 -222l62 222h100l59 -221l61 221h110z" />
    <glyph glyph-name="x" unicode="x" horiz-adv-x="432" 
d="M280 0l-73 115l-81 -115h-116l142 201l-136 214h144l67 -107l75 107h116l-136 -193l140 -222h-142z" />
    <glyph glyph-name="y" unicode="y" horiz-adv-x="430" 
d="M248 -64q-15 -43 -43 -60t-71 -17h-21t-20 1l-51 88l17 -1q7 0 21.5 -0.5t28.5 -0.5q16 0 25 5.5t14.5 14.5t9 20.5t7.5 23.5l-154 405h131l82 -240l86 240h109z" />
    <glyph glyph-name="z" unicode="z" horiz-adv-x="395" 
d="M344 0h-325v84l186 230h-166v101h330v-92l-176 -224h182q6 0 10.5 -5.5t-0.5 -15.5z" />
    <glyph glyph-name="braceleft" unicode="{" horiz-adv-x="259" 
d="M131 -62q-22 0 -38 14.5t-16 47.5v238q0 7 -5.5 17.5t-11.5 20t-11.5 16.5t-5.5 9t5.5 9t11.5 16.5t11.5 19t5.5 17.5v214q0 30 16 46t38 16h85v-41h-18q-18 0 -22.5 -7t-4.5 -20v-191q0 -13 -1 -23.5t-6 -18.5q-5 -7 -9.5 -13.5t-8.5 -11.5l-4 -6l-4 -6l4 -6t4 -5
q4 -5 8 -11t9 -11q8 -14 8 -38v-226q0 -11 5 -18t22 -7h18v-41h-85z" />
    <glyph glyph-name="bar" unicode="|" horiz-adv-x="195" 
d="M45 -119v814h105v-814h-105z" />
    <glyph glyph-name="braceright" unicode="}" horiz-adv-x="259" 
d="M219 301q0 -2 -6 -9t-13.5 -16.5t-13.5 -20t-6 -17.5v-238q0 -33 -16 -47.5t-38 -14.5h-86v41h18q17 0 22 7t5 18v226q0 24 8 38q4 5 10.5 11t12.5 11q4 2 7 5t7 6q-4 3 -7 6t-7 6q-11 10 -23 25q-5 8 -6 18.5t-1 23.5v191q0 13 -4.5 20t-22.5 7h-19v41h85q22 0 38 -16
t16 -46v-214q0 -8 6 -17.5t13.5 -19t14 -16.5t6.5 -9z" />
    <glyph glyph-name="asciitilde" unicode="~" horiz-adv-x="584" 
d="M364 159l-148 79l-152 -58v115l152 58l148 -79l156 58v-115z" />
    <glyph glyph-name="uni00A0" unicode="&#xa0;" horiz-adv-x="250" 
 />
    <glyph glyph-name="cent" unicode="&#xa2;" horiz-adv-x="451" 
d="M403 246q-11 -63 -45 -102.5t-86 -50.5v-66h-78v63q-36 7 -62 26.5t-43.5 46.5t-25.5 59.5t-8 64.5q0 33 8.5 65t25.5 59t43.5 47t61.5 28v66h78v-65q52 -11 80 -41t43 -69l-70 -57q-9 36 -22.5 56.5t-30.5 31.5v-241q34 22 46 87zM194 408q-23 -16 -35.5 -48.5
t-12.5 -70.5q0 -37 12.5 -71t35.5 -51v241z" />
    <glyph glyph-name="sterling" unicode="&#xa3;" horiz-adv-x="524" 
d="M384 369q-9 68 -30 94.5t-55 26.5q-38 0 -55.5 -20t-17.5 -55v-59h120v-100h-120v-151h256v-105h-471l67 105h18v151h-90l73 100h16v59q0 43 18 75t46.5 53.5t65 32t73.5 10.5q75 0 126.5 -37t75.5 -112z" />
    <glyph glyph-name="yen" unicode="&#xa5;" horiz-adv-x="510" 
d="M427 427h62v-115l-126 1l-38 -67h164v-114h-166v-132h-131v131h-170v114h168l-39 68h-129v114h62l-88 150h150l124 -215l117 215h125z" />
    <glyph glyph-name="copyright" unicode="&#xa9;" horiz-adv-x="680" 
d="M642 288q0 -62 -24 -116t-65 -94.5t-96 -64t-118 -23.5t-118.5 23.5t-96.5 64t-65 94.5t-24 116t24 116.5t65 95t96.5 64t118.5 23.5t118 -23.5t96 -64t65 -95t24 -116.5zM575 287q0 48 -19 89.5t-51 73t-75 49.5t-92 18t-92 -18t-75 -49.5t-50.5 -73t-18.5 -89.5
t18.5 -90t50.5 -73.5t75 -50t92 -18.5t92 18.5t75 50t51 73.5t19 90zM488 252q-10 -60 -48.5 -95t-98.5 -35q-38 0 -65.5 14.5t-45.5 38t-26.5 53.5t-8.5 60t9 60.5t28 54.5t46.5 39t65.5 15q31 0 53.5 -8t39 -21t27 -30t17.5 -35l-61 -52q-11 40 -29.5 61.5t-48.5 21.5
q-17 0 -29.5 -9t-20.5 -24t-12 -34t-4 -38q0 -20 4 -39.5t12.5 -35t20.5 -25t28 -9.5q32 0 48.5 23.5t24.5 58.5l69 -5z" />
    <glyph glyph-name="guillemotleft" unicode="&#xab;" horiz-adv-x="466" 
d="M243 230v89l194 132v-92l-103 -85l103 -91v-96zM29 230v89l194 132v-92l-103 -85l102 -91v-96z" />
    <glyph glyph-name="registered" unicode="&#xae;" horiz-adv-x="690" 
d="M393 124l-48 118h-34v-118h-91v333h147q54 0 84.5 -28t30.5 -82q0 -38 -14.5 -59.5t-38.5 -31.5q15 -32 31 -65.5t31 -66.5h-98zM396 347q0 31 -31 31h-58v-60h58q11 0 21 7.5t10 21.5zM648 288q0 -62 -24 -116t-65 -94.5t-96 -64t-118 -23.5t-118.5 23.5t-96.5 64
t-65 94.5t-24 116t24 116.5t65 95t96.5 64t118.5 23.5t118 -23.5t96 -64t65 -95t24 -116.5zM581 287q0 48 -19 89.5t-51 73t-75 49.5t-92 18t-92 -18t-75 -49.5t-50.5 -73t-18.5 -89.5t18.5 -90t50.5 -73.5t75 -50t92 -18.5t92 18.5t75 50t51 73.5t19 90z" />
    <glyph glyph-name="guillemotright" unicode="&#xbb;" horiz-adv-x="466" 
d="M243 87v96l103 91l-103 85v92l194 -132v-89zM29 87v96l103 91l-103 85v92l193 -132v-89z" />
    <glyph glyph-name="onequarter" unicode="&#xbc;" horiz-adv-x="716" 
d="M655 70h-35v-70h-68v70h-156v44l152 216h72v-202h38q12 0 18.5 -10.5t-1.5 -21.5zM227 -1h-82l376 578h82zM242 247h-178v57h63v174q-13 -8 -29 -14.5t-45 -15.5v63q16 7 28.5 13.5t23 13.5t20.5 16.5t21 22.5h51v-273h47q15 0 18.5 -11.5t-1.5 -19.5zM552 235l-72 -107
h72v107z" />
    <glyph glyph-name="onehalf" unicode="&#xbd;" horiz-adv-x="716" 
d="M661 222q0 -42 -19.5 -69t-48.5 -50l-58 -46h109q11 0 17.5 -10t-1.5 -21l-19 -26h-219v44l122 97q20 17 32.5 36t12.5 45t-14 42.5t-37 16.5q-45 0 -59 -77l-69 17q15 55 47 84t81 29q27 0 50 -9t39 -24t25 -35.5t9 -43.5zM206 -1h-82l376 578h82zM242 247h-178v57h63
v174q-13 -8 -29 -14.5t-45 -15.5v63q16 7 28.5 13.5t23 13.5t20.5 16.5t21 22.5h51v-273h47q15 0 18.5 -11.5t-1.5 -19.5z" />
    <glyph glyph-name="threequarters" unicode="&#xbe;" horiz-adv-x="716" 
d="M655 70h-35v-70h-68v70h-156v44l152 216h72v-202h38q12 0 18.5 -10.5t-1.5 -21.5zM252 -1h-82l376 578h82zM310 342q0 -18 -7.5 -35.5t-23.5 -31t-40.5 -22t-57.5 -8.5q-43 0 -79.5 21.5t-51.5 74.5l67 20q7 -35 24.5 -49.5t40.5 -14.5q30 0 43.5 14t13.5 32
q0 23 -16.5 35t-38.5 12h-42q-12 0 -18 10.5t2 21.5l20 26h40q42 0 42 42q0 17 -11.5 28t-32.5 11q-18 0 -34 -12t-24 -44l-67 17q16 52 49.5 72.5t75.5 20.5q23 0 43.5 -6.5t36.5 -18.5t25 -29.5t9 -39.5q0 -44 -33 -68q19 -11 32 -31.5t13 -47.5zM552 235l-72 -107h72v107
z" />
    <glyph glyph-name="multiply" unicode="&#xd7;" horiz-adv-x="527" 
d="M351 230l128 -128l-85 -85l-128 127l-134 -134l-81 79l135 135l-132 132l86 85l132 -132l135 135l79 -80z" />
    <glyph glyph-name="divide" unicode="&#xf7;" horiz-adv-x="594" 
d="M365 380q0 -29 -20 -49t-49 -20t-49 20t-20 49t20 49t49 20t49 -20t20 -49zM76 170v120h442v-120h-442zM365 80q0 -29 -20 -49t-49 -20t-49 20t-20 49t20 49t49 20t49 -20t20 -49z" />
    <glyph glyph-name="kokaithai" unicode="&#xe01;" horiz-adv-x="455" 
d="M337 -1q-5 -3 -11 -3q-9 0 -16 6.5t-7 16.5v261q0 24 -13.5 41t-48.5 17q-32 0 -50 -17.5t-18 -41.5v-279h-131v214q0 30 8.5 51.5t22.5 35.5q-18 3 -32 2v54q18 10 38 22t45 22t56 16.5t71 6.5q37 0 70.5 -7.5t58.5 -24t39.5 -44t14.5 -66.5v-224z" />
    <glyph glyph-name="khokhaithai" unicode="&#xe02;" horiz-adv-x="409" 
d="M387 149q0 -31 -9.5 -60t-31 -51t-55.5 -35.5t-83 -13.5q-78 0 -125.5 38t-47.5 111q0 31 11.5 55t27 42.5t31 32t23.5 24.5q8 10 8.5 17.5t-3 13t-10.5 8t-14 2.5q-15 0 -24.5 -6t-21.5 -17l-30 73q27 20 53.5 30.5t59.5 10.5q34 0 57.5 -14.5t35 -37t10.5 -50
t-15 -52.5q-10 -18 -22.5 -32.5t-23.5 -29t-18.5 -31t-7.5 -38.5q0 -34 15 -44t30 -10q18 0 33 10t15 42v220l97 59q4 3 11 3q10 0 17 -6.5t7 -16.5v-247z" />
    <glyph glyph-name="khokhuatthai" unicode="&#xe03;" horiz-adv-x="412" 
d="M390 149q0 -31 -9.5 -60t-31 -51t-55.5 -35.5t-83 -13.5q-78 0 -125.5 38t-47.5 111q0 29 9 50t23.5 38.5t32.5 33t36 32.5q13 12 18.5 21.5t-3.5 15.5q-8 5 -20 -2.5t-20 -22.5q-5 5 -10.5 9t-11.5 9q-11 7 -26.5 14t-35.5 9l17 76q18 0 38.5 -10t33.5 -22
q16 20 38 27.5t43 3t37.5 -20t20.5 -42.5l97 59q4 3 11 3q10 0 17 -6t7 -17v-247zM258 313q-6 -20 -21 -42q-11 -16 -23.5 -30.5t-23.5 -30.5t-18 -33t-7 -38q0 -34 15 -44t30 -10q18 0 33 10t15 42v176z" />
    <glyph glyph-name="khokhwaithai" unicode="&#xe04;" horiz-adv-x="447" 
d="M331 -1q-5 -3 -11 -3q-10 0 -17 6.5t-7 16.5v261q0 30 -15.5 45t-43.5 15q-64 0 -64 -60v-27q0 -6 -1 -11.5t-2 -10.5q-1 -2 -1 -5t-1 -5q3 5 9.5 9.5t9.5 6.5q19 10 37.5 12.5t40.5 0.5v-103q-38 8 -65 -8.5t-27 -61.5v-77h-132v265q0 36 10.5 65.5t34 51t61 33
t92.5 11.5q54 0 90 -12.5t58 -35t31.5 -53t9.5 -66.5v-201z" />
    <glyph glyph-name="khokhonthai" unicode="&#xe05;" horiz-adv-x="447" 
d="M331 -1q-5 -3 -11 -3q-10 0 -17 6.5t-7 16.5v271q0 12 -3.5 24.5t-14.5 20.5l-42 -23l-42 25q-6 -4 -13.5 -14t-7.5 -33v-37q0 -6 -1 -11.5t-2 -10.5q-1 -2 -1 -5t-1 -5q3 5 9.5 9.5t9.5 6.5q19 10 37.5 12.5t40.5 0.5v-103q-38 8 -65 -8.5t-27 -61.5v-77h-132v275
q0 37 12.5 64t32.5 45t45.5 27.5t51.5 11.5l55 -30l54 29q27 -2 52 -12t43.5 -28t29.5 -44.5t11 -62.5v-217z" />
    <glyph glyph-name="khorakhangthai" unicode="&#xe06;" horiz-adv-x="451" 
d="M430 142q0 -75 -39.5 -113t-114.5 -38q-31 0 -60 16t-49 49l2 -28v-28h-125v127q0 25 2.5 44.5t12 39.5t27 42.5t47.5 52.5q5 5 8 12.5t-5 11.5q-6 3 -11 0.5t-10 -7t-9 -10.5t-7 -10q-6 5 -12 9l-12 8q-11 6 -25 11t-29 5l18 86q17 -4 35 -11.5t30 -21.5q15 17 31 24.5
t31 7.5q32 0 56.5 -19.5t24.5 -54.5q0 -14 -5 -31t-16 -31q-20 -23 -35.5 -47t-15.5 -56q0 -16 5.5 -32t15 -29.5t23.5 -22.5t32 -10q25 -2 36 18t11 52v199l96 59q6 3 11 3q10 0 17.5 -6.5t7.5 -16.5v-254z" />
    <glyph glyph-name="ngonguthai" unicode="&#xe07;" horiz-adv-x="410" 
d="M396 205q0 -47 -12 -85t-33 -64.5t-50 -41t-63 -14.5h-145l-69 256l111 62l59 -224q22 0 35.5 10t20.5 25.5t9 34.5t2 37q-1 33 -6 60t-16.5 44.5t-30.5 23.5t-48 -3l-17 77q19 10 36.5 14t41.5 4q49 0 82.5 -18t54 -48t29.5 -69t9 -81z" />
    <glyph glyph-name="chochanthai" unicode="&#xe08;" horiz-adv-x="440" 
d="M368 0h-152l-39 128q-6 23 -15.5 32t-38.5 9l48 89q10 0 23 -2t25.5 -7.5t23 -16t15.5 -27.5l13 -46l9 -49v17v15t1 14q4 26 7.5 48.5t8.5 47.5q6 33 -14.5 58.5t-60.5 25.5q-11 0 -23.5 -1.5t-24 -6.5t-20.5 -14t-13 -24l-119 20q10 35 30.5 57.5t48 35.5t60.5 18t69 5
q61 0 101 -17.5t62 -46t27 -65t-4 -75.5z" />
    <glyph glyph-name="chochingthai" unicode="&#xe09;" horiz-adv-x="450" 
d="M337 -1q-5 -3 -11 -3q-10 0 -17 6.5t-7 16.5v8v12t1 10q1 2 1 4.5t1 4.5q-23 -39 -53.5 -53t-61.5 -14q-29 0 -55.5 10t-47.5 29.5t-33.5 48t-12.5 64.5v93h131v-78q0 -31 12 -50.5t38 -19.5q30 0 51.5 28t21.5 68v70q0 38 -14.5 60t-59.5 22q-31 0 -52 -11.5t-27 -34.5
l-119 20q17 63 70 89.5t131 26.5q45 0 82.5 -8.5t64 -28.5t41.5 -53.5t15 -84.5v-197z" />
    <glyph glyph-name="chochangthai" unicode="&#xe0a;" horiz-adv-x="400" 
d="M393 394q-5 -23 -17 -42.5t-34 -31.5q20 -8 26.5 -29.5t6.5 -40.5v-101q0 -31 -9.5 -60t-31 -51t-55.5 -35.5t-83 -13.5q-78 0 -125.5 38t-47.5 111q0 31 11.5 55t27 42.5t31 32t23.5 24.5q8 10 8.5 17.5t-3 13t-10.5 8t-14 2.5q-15 0 -24.5 -6t-21.5 -17l-30 73
q27 20 53.5 30.5t59.5 10.5q28 0 49 -10t34 -26.5t17.5 -38t0.5 -43.5q19 22 26.5 48.5t9.5 49.5q1 14 1 27t-2 27zM243 247q0 6 -1.5 23t-8.5 26q-2 -6 -4.5 -12.5t-6.5 -13.5q-10 -18 -22.5 -32.5t-23.5 -29t-18.5 -31t-7.5 -38.5q0 -34 15 -44t30 -10q18 0 33 10t15 42
v110z" />
    <glyph glyph-name="sosothai" unicode="&#xe0b;" horiz-adv-x="400" 
d="M396 394q-6 -23 -18.5 -43.5t-32.5 -30.5q20 -8 26.5 -30t6.5 -41v-100q0 -31 -9.5 -60t-31 -51t-55.5 -35.5t-83 -13.5q-78 0 -125.5 38t-47.5 111q0 29 9 50t23.5 38.5t32.5 33t36 32.5q13 12 18.5 21.5t-3.5 15.5q-8 5 -20 -2.5t-20 -22.5q-5 5 -10.5 9t-11.5 9
q-11 7 -26.5 14t-35.5 9l17 76q18 0 38.5 -10t33.5 -22q20 25 48 30t51 -5.5t36.5 -35.5t5.5 -59q16 27 23 58t2 81zM246 246q0 6 -1.5 21t-6.5 25l-12 -21q-11 -16 -23.5 -31t-23.5 -30.5t-18.5 -33t-7.5 -38.5q0 -17 4.5 -27.5t11 -16t14.5 -7.5t15 -2q18 0 33 10t15 42
v109z" />
    <glyph glyph-name="chochoethai" unicode="&#xe0c;" horiz-adv-x="659" 
d="M638 143q0 -72 -34 -112t-91 -40q-31 0 -61.5 14t-53.5 53q0 -6 1 -9q1 -5 1.5 -10t0.5 -12v-27h-124v288q0 23 -10.5 37.5t-42.5 14.5q-27 0 -39.5 -15t-12.5 -39v-213h47v-73h-178v214q0 30 9 52.5t23 34.5q-17 4 -33 3v56q34 23 81 43.5t104 20.5q39 0 72.5 -6t58 -21
t38.5 -41t14 -66v-110q0 -18 5.5 -34t14 -28.5t19 -19.5t20.5 -7q25 0 32 12.5t7 29.5v224l96 59q11 7 23.5 0.5t12.5 -20.5v-253z" />
    <glyph glyph-name="yoyingthai" unicode="&#xe0d;" horiz-adv-x="660" 
d="M638 32q0 -39 -14 -72t-41 -56.5t-66 -36.5t-89 -13q-17 0 -37.5 3.5t-41 10t-39.5 16.5t-33 23l38 70q23 -27 50.5 -36.5t58.5 -9.5q15 0 31 4t30 12.5t23 22.5t9 34v53q-23 -36 -52 -51t-60 -15q-35 0 -59.5 12.5t-39.5 33.5t-22 47.5t-7 55.5v148q0 23 -10.5 37.5
t-42.5 14.5q-27 0 -39.5 -15t-12.5 -39v-213h47v-73h-178v214q0 30 9 52.5t23 34.5q-17 4 -33 3v56q34 23 81 43.5t104 20.5q39 0 72.5 -6t58 -21t38.5 -41t14 -66v-136q0 -30 9.5 -47t37.5 -17q22 0 36.5 21.5t14.5 48.5v197l96 59q11 7 23.5 0.5t12.5 -20.5v-364z" />
    <glyph glyph-name="dochadathai" unicode="&#xe0e;" horiz-adv-x="460" 
d="M438 -42q0 -51 -31.5 -80.5t-100.5 -29.5h-89l-39 36l-39 -36h-85l-32 71q0 6 3.5 7.5t6.5 1.5h91l55 48l51 -48h25q28 0 40.5 11.5t12.5 45.5v295q0 24 -13.5 41t-48.5 17q-32 0 -50 -17.5t-18 -41.5v-279h-152v73h21v141q0 30 8.5 51.5t22.5 35.5q-18 3 -32 2v54
q18 10 38 22t45 22t56 16.5t71 6.5q37 0 70.5 -7.5t58.5 -24t39.5 -44t14.5 -66.5v-324z" />
    <glyph glyph-name="topatakthai" unicode="&#xe0f;" horiz-adv-x="460" 
d="M438 -42q0 -51 -31.5 -80.5t-100.5 -29.5h-64l-39 36l-39 -36h-27l-39 36l-39 -36h-5l-32 71q0 6 3.5 7.5t6.5 1.5h11l55 48l50 -48l55 48l51 -48q25 0 39 13t14 44v295q0 24 -13.5 41t-48.5 17q-32 0 -50 -17.5t-18 -41.5v-279h-152v73h21v141q0 30 8.5 51.5t22.5 35.5
q-18 3 -32 2v54q18 10 38 22t45 22t56 16.5t71 6.5q37 0 70.5 -7.5t58.5 -24t39.5 -44t14.5 -66.5v-324z" />
    <glyph glyph-name="thothanthai" unicode="&#xe10;" horiz-adv-x="457" 
d="M438 463q2 -12 0 -26.5t-8 -28.5t-15.5 -26.5t-23.5 -20.5q26 -19 36.5 -61t10.5 -85q0 -40 -11 -78.5t-33 -69t-54 -49.5t-75 -19l-109 1l-52 131q-8 19 -22.5 26.5t-34.5 6.5l53 98q46 4 70 -14.5t38 -55.5l39 -98q9 0 19.5 6.5t19.5 19.5t15.5 33t6.5 48q1 40 -7 66.5
t-21 41.5t-30 21t-33 6q-25 0 -46 -9t-32 -37l-119 18q23 65 75.5 93t121.5 28q27 0 47.5 -3.5t37.5 -8.5q9 8 13.5 18t2.5 28h120zM427 -56q0 -48 -27 -76.5t-93 -28.5h-60l-37 32l-37 -32h-100v95h84l53 48l55 -48h16q34 0 30 45h116v-35z" />
    <glyph glyph-name="thonangmonthothai" unicode="&#xe11;" horiz-adv-x="464" 
d="M349 -1q-11 -7 -23 -0.5t-12 20.5v239q0 32 -10 51t-36 19q-14 0 -28 -8t-24.5 -21.5t-17 -30.5t-6.5 -36v-232h-132v266q-8 32 -19.5 47.5t-37.5 21.5l32 81q22 -2 41 -15.5t29 -41.5l25 56h57v-57q20 27 51 46.5t71 19.5q28 0 53 -8.5t44 -26.5t29.5 -45t10.5 -63v-223
z" />
    <glyph glyph-name="thophuthaothai" unicode="&#xe12;" horiz-adv-x="695" 
d="M675 143q0 -72 -34.5 -112t-91.5 -40q-31 0 -61 14t-54 53q1 -2 1 -4.5t1 -4.5q1 -5 1.5 -10t0.5 -12v-27h-124v313l-37 -23q-8 20 -25 32.5t-37 5.5q-6 -2 -15 -8t-17 -18.5t-13.5 -33.5t-4.5 -54q2 -66 18.5 -95.5t50.5 -32.5q6 -1 15.5 0t16.5 4l17 -80
q-31 -19 -71 -19q-48 0 -82.5 18t-57.5 48t-34 69.5t-11 83.5q0 47 12.5 86t36 67.5t57.5 44t77 15.5q24 0 44.5 -10.5t31.5 -31.5l44 34h114v-235q0 -18 5.5 -34t14.5 -28.5t19.5 -19.5t19.5 -7q26 0 32.5 12.5t6.5 29.5v224l97 59q11 7 23.5 0.5t12.5 -20.5v-253z" />
    <glyph glyph-name="nonenthai" unicode="&#xe13;" horiz-adv-x="661" 
d="M514 0v27v12t1 10q1 2 1 4.5t1 4.5q-23 -39 -53.5 -53t-61.5 -14q-57 0 -91 40t-34 112v145q0 23 -10.5 37.5t-42.5 14.5q-27 0 -39.5 -15t-12.5 -39v-213h47v-73h-178v214q0 30 9 52.5t23 34.5q-17 4 -33 3v56q34 23 81 43.5t104 20.5q39 0 72.5 -6t58 -21t38.5 -41
t14 -66v-157q0 -17 7.5 -29.5t32.5 -12.5q10 0 20.5 7t19 19.5t14 28.5t5.5 34v177l96 59q11 7 23 0.5t12 -20.5v-396h-124z" />
    <glyph glyph-name="dodekthai" unicode="&#xe14;" horiz-adv-x="468" 
d="M447 58l-97 -59q-11 -7 -23 -0.5t-12 20.5v231q0 38 -12.5 60t-50.5 24q-40 1 -63 -25t-23 -94q2 -66 19.5 -95.5t50.5 -32.5q6 -1 16 0t17 4l17 -80q-17 -10 -34 -14t-38 -4q-48 0 -82.5 17.5t-57 47.5t-33.5 69.5t-11 83.5q0 100 57 157.5t165 57.5q39 0 74 -10.5
t62 -32t43 -53t16 -73.5v-199z" />
    <glyph glyph-name="totaothai" unicode="&#xe15;" horiz-adv-x="468" 
d="M350 -1q-11 -7 -23 -0.5t-12 20.5v299l-37 -26q-14 22 -26 25t-26 3q-12 0 -23 -8t-19 -22.5t-13 -33.5t-5 -41q2 -66 19.5 -95.5t50.5 -32.5q6 -1 16 0t17 4l17 -80q-17 -10 -34 -14t-38 -4q-48 0 -82.5 17.5t-57 47.5t-33.5 69.5t-11 83.5q0 48 12 87t35.5 67t57 43.5
t76.5 15.5q27 0 46.5 -12t31.5 -28l43 31h115v-357z" />
    <glyph glyph-name="thothungthai" unicode="&#xe16;" horiz-adv-x="455" 
d="M337 -1q-11 -7 -22.5 -0.5t-11.5 20.5v261q0 24 -13.5 41t-48.5 17q-33 0 -51 -17.5t-18 -41.5v-206h48v-73h-179v214q0 30 9 51.5t23 35.5q-18 3 -33 2v54q18 10 38 22t45 22t56 16.5t71 6.5q38 0 71.5 -7.5t58.5 -24t39.5 -44t14.5 -66.5v-224z" />
    <glyph glyph-name="thothahanthai" unicode="&#xe17;" horiz-adv-x="447" 
d="M331 -1q-5 -3 -11 -3q-10 0 -17 6.5t-7 16.5l-1 239q0 32 -9.5 51t-35.5 19q-14 0 -28 -8t-24.5 -21.5t-17 -30.5t-6.5 -36v-232h-133v415h126v-57q20 27 51.5 46.5t71.5 19.5q28 0 53.5 -8.5t44 -26.5t29.5 -45t11 -63v-223z" />
    <glyph glyph-name="thothongthai" unicode="&#xe18;" horiz-adv-x="433" 
d="M421 121q0 -28 -10 -52t-33 -41t-59.5 -27t-90.5 -10q-52 0 -87.5 13t-57 32.5t-31 43.5t-9.5 47v63h126v-53q0 -26 18.5 -38t43.5 -12q28 0 44.5 10.5t16.5 27.5t-12.5 26.5t-30.5 17.5l-141 66q-35 17 -50.5 43t-15.5 54q0 42 32 64.5t81 22.5q56 0 122 -2t124 -2
q5 0 6.5 -4t-0.5 -7l-40 -80h-34t-34 1q-29 1 -61 1.5t-55 0.5q-10 0 -10 -8q1 -5 2.5 -6t5.5 -3q17 -8 42.5 -19t50.5 -22q14 -6 29.5 -12t31.5 -13q37 -16 61.5 -44t24.5 -79z" />
    <glyph glyph-name="nonuthai" unicode="&#xe19;" horiz-adv-x="449" 
d="M301 0v57q-20 -27 -51.5 -46.5t-71.5 -19.5q-29 0 -53.5 8.5t-43.5 26.5t-29.5 45t-10.5 63v281h131v-258q0 -32 10.5 -51t36.5 -19q14 0 28 8t24.5 21.5t17 30.5t6.5 36v177l96 59q11 7 23.5 0.5t12.5 -20.5v-399h-126z" />
    <glyph glyph-name="bobaimaithai" unicode="&#xe1a;" horiz-adv-x="447" 
d="M428 166q0 -36 -9.5 -68.5t-31.5 -56.5t-58.5 -38t-90.5 -14q-58 0 -96 14t-60.5 38t-31.5 56.5t-9 68.5v249h131v-275q0 -28 17 -42t45 -14q60 0 62 56v217l96 59q11 7 23.5 0.5t12.5 -20.5v-230z" />
    <glyph glyph-name="poplathai" unicode="&#xe1b;" horiz-adv-x="457" 
d="M435 166q0 -36 -10 -68.5t-32.5 -56.5t-59.5 -38t-91 -14q-57 0 -95.5 14t-62 38t-33 56.5t-9.5 68.5v249h131v-275q0 -56 66 -56q29 0 46.5 14.5t17.5 41.5v394l96 59q11 7 23.5 0.5t12.5 -20.5v-407z" />
    <glyph glyph-name="phophungthai" unicode="&#xe1c;" horiz-adv-x="515" 
d="M494 141q0 -34 -4.5 -62t-18 -48t-38.5 -31t-66 -11q-12 0 -26 4t-27.5 11t-24.5 17t-17 21q-15 -26 -41.5 -39.5t-49.5 -13.5q-45 0 -73.5 17.5t-44.5 47.5t-21.5 69t-5.5 82q0 42 6.5 81t23.5 69t46 48t73 18q28 0 45 -5.5t38 -22.5l-12 -67q-8 2 -11 3q-9 4 -13 4
q-29 6 -43 -7t-20 -34.5t-6 -46.5v-44q0 -36 0.5 -60t5.5 -39q3 -11 10.5 -16t15.5 -5t14 5t6 16v177h107v-176q0 -12 6 -18t13.5 -6t14 6t6.5 17v255l96 59q11 7 23.5 0.5t12.5 -20.5v-255z" />
    <glyph glyph-name="fofathai" unicode="&#xe1d;" horiz-adv-x="515" 
d="M494 141q0 -34 -4.5 -62t-18 -48t-38.5 -31t-66 -11q-12 0 -26 4t-27.5 11t-24.5 17t-17 21q-15 -26 -41.5 -39.5t-49.5 -13.5q-45 0 -73.5 17.5t-44.5 47.5t-21.5 69t-5.5 82q0 42 6.5 81t23.5 69t46 48t73 18q28 0 45 -5.5t38 -22.5l-12 -67q-8 2 -11 3q-9 4 -13 4
q-29 6 -43 -7t-20 -34.5t-6 -46.5v-44q0 -36 0.5 -60t5.5 -39q3 -11 10.5 -16t15.5 -5t14 5t6 16v177h107v-176q0 -12 6 -18t13.5 -6t14 6t6.5 17v431l96 59q11 7 23.5 0.5t12.5 -20.5v-431z" />
    <glyph glyph-name="phophanthai" unicode="&#xe1e;" horiz-adv-x="545" 
d="M388 358l97 59q11 7 23.5 0.5t12.5 -20.5v-266q0 -71 -37.5 -106.5t-93.5 -35.5q-35 0 -62.5 15t-44.5 38q-6 -12 -18 -21.5t-27.5 -16.5t-33 -11t-33.5 -4q-57 0 -93.5 36.5t-36.5 105.5v284h131v-307q0 -11 7.5 -18.5t18.5 -7.5t18.5 7.5t7.5 18.5v307h112v-307
q0 -11 7.5 -18.5t18.5 -7.5t18.5 7.5t7.5 18.5v250z" />
    <glyph glyph-name="fofanthai" unicode="&#xe1f;" horiz-adv-x="545" 
d="M388 533l97 59q11 7 23.5 0.5t12.5 -20.5v-441q0 -71 -37.5 -106.5t-93.5 -35.5q-35 0 -62.5 15t-44.5 38q-6 -12 -18 -21.5t-27.5 -16.5t-33 -11t-33.5 -4q-57 0 -93.5 36.5t-36.5 105.5v284h131v-307q0 -11 7.5 -18.5t18.5 -7.5t18.5 7.5t7.5 18.5v307h112v-307
q0 -11 7.5 -18.5t18.5 -7.5t18.5 7.5t7.5 18.5v425z" />
    <glyph glyph-name="phosamphaothai" unicode="&#xe20;" horiz-adv-x="458" 
d="M341 -1q-11 -7 -23 -1.5t-12 19.5v263q0 24 -13.5 41t-48.5 17q-32 0 -50 -17.5t-18 -41.5v-279h-152v73h21v141q0 30 8.5 51.5t22.5 35.5q-18 3 -32 2v54q18 10 38 22t45 22t56 16.5t71 6.5q37 0 70.5 -7.5t58.5 -24t39.5 -44t14.5 -66.5v-224z" />
    <glyph glyph-name="momathai" unicode="&#xe21;" horiz-adv-x="447" 
d="M428 134q0 -36 -10.5 -63t-29.5 -45t-44 -26.5t-53 -8.5q-40 0 -71.5 19.5t-51.5 46.5v-57h-127v415h132v-232q0 -19 6.5 -36t17.5 -30.5t24.5 -21.5t27.5 -8q23 0 35 15.5t12 37.5v217l96 59q11 7 23.5 0.5t12.5 -20.5v-262z" />
    <glyph glyph-name="yoyakthai" unicode="&#xe22;" horiz-adv-x="447" 
d="M426 134q0 -69 -44.5 -107t-143.5 -38q-45 0 -82.5 7.5t-65.5 24t-43.5 41t-15.5 59.5q0 32 13 57t39 38q-56 30 -56 90q0 23 7 43.5t22 36.5t37.5 26t54.5 11q18 0 31.5 -1t26.5 -3.5t26 -7.5t28 -13l-24 -78q-23 10 -38 12t-24.5 -2t-13.5 -11.5t-4 -15.5q0 -14 8 -23
t20 -14t25.5 -7t24.5 -2h8v-66h-7q-27 0 -46 -13.5t-19 -45.5q0 -18 14.5 -37t50.5 -19q18 0 29.5 6t18 15.5t9 20.5t2.5 22v217l97 59q11 7 23 0.5t12 -20.5v-262z" />
    <glyph glyph-name="roruathai" unicode="&#xe23;" horiz-adv-x="432" 
d="M125 124q12 -24 37.5 -38t50.5 -14q9 0 20 2t20.5 6.5t16 11.5t6.5 16t-3 16t-14.5 13.5t-34 12.5t-60.5 13q-24 4 -48 13.5t-43.5 25t-31.5 38.5t-12 53q0 66 51.5 99t141.5 33q78 0 123 -27t58 -90l-122 -21q-2 24 -17 39t-46 16q-38 1 -50.5 -12t-12.5 -26
q0 -10 5.5 -16.5t19.5 -12t37 -10.5t59 -12q25 -5 49 -14t43 -24t30.5 -36.5t11.5 -51.5q0 -39 -15.5 -65.5t-42 -43t-62.5 -23.5t-77 -7q-34 0 -61 2t-49 9t-40.5 19.5t-35.5 33.5z" />
    <glyph glyph-name="ruthai" unicode="&#xe24;" horiz-adv-x="455" 
d="M337 -151q-11 -6 -22.5 0t-11.5 20v411q0 24 -13.5 41t-48.5 17q-33 0 -51 -17.5t-18 -41.5v-206h48v-73h-179v214q0 30 9 51.5t23 35.5q-18 3 -33 2v54q18 10 38 22t45 22t56 16.5t71 6.5q38 0 71.5 -7.5t58.5 -24t39.5 -44t14.5 -66.5v-374z" />
    <glyph glyph-name="lolingthai" unicode="&#xe25;" horiz-adv-x="455" 
d="M338 -1q-11 -7 -23 -1t-12 21v179q-22 0 -46.5 -3t-44.5 -10.5t-33.5 -20t-13.5 -31.5q0 -18 8.5 -28.5t21 -15t27.5 -3.5t27 7l16 -77q-16 -14 -41.5 -20.5t-58.5 -6.5q-66 0 -102.5 37t-36.5 94q0 47 27 76.5t68.5 46t90 22t91.5 4.5v23q0 14 -7 24t-17.5 16.5t-23 9.5
t-22.5 3q-29 0 -52.5 -14.5t-28.5 -39.5l-120 18q6 33 27 55.5t49 36t60 19.5t61 6q41 0 78.5 -6t66 -21.5t45 -42.5t16.5 -69v-229z" />
    <glyph glyph-name="luthai" unicode="&#xe26;" horiz-adv-x="459" 
d="M341 -152q-11 -7 -23 -1t-12 21v412q0 24 -13.5 41t-48.5 17q-32 0 -50 -17.5t-18 -41.5v-279h-152v73h21v141q0 30 8.5 51.5t22.5 35.5q-18 3 -32 2v54q18 10 38 22t45 22t56 16.5t71 6.5q37 0 70.5 -7.5t58.5 -24t39.5 -44t14.5 -66.5v-375z" />
    <glyph glyph-name="wowaenthai" unicode="&#xe27;" horiz-adv-x="460" 
d="M449 200q-2 -48 -16.5 -87.5t-42 -68t-68 -43.5t-94.5 -14q-138 1 -185 100l104 60q5 -11 11 -23.5t14.5 -23t20 -17.5t28.5 -8q30 -2 47.5 9.5t27.5 31t13 44.5t3 50q0 24 -4.5 45.5t-14.5 38.5t-27 27t-42 10q-35 0 -53.5 -21t-25.5 -50l-124 9q8 43 29 72.5t49.5 48
t63 27t69.5 8.5q42 0 81.5 -13t70.5 -40t49 -69.5t16 -102.5z" />
    <glyph glyph-name="sosalathai" unicode="&#xe28;" horiz-adv-x="447" 
d="M456 364q-21 5 -34 3t-21 -5q14 -13 20 -40.5t6 -56.5v-207l-97 -59q-11 -7 -23 -1t-12 21v261q0 60 -59 60q-64 0 -64 -60v-27q0 -6 -0.5 -11.5t-1.5 -10.5q-1 -2 -1 -5t-1 -5q3 5 9 9.5t10 6.5q18 10 36.5 12.5t40.5 0.5v-103q-38 8 -65 -8.5t-27 -61.5v-77h-131v265
q0 36 10.5 65.5t34 51t61 33t92.5 11.5q45 0 83 -11q23 25 57 36.5t67 8.5z" />
    <glyph glyph-name="sorusithai" unicode="&#xe29;" horiz-adv-x="452" 
d="M428 182v-16q0 -36 -9.5 -68.5t-31.5 -56.5t-58.5 -38t-90.5 -14q-58 0 -96 14t-60.5 38t-31.5 56.5t-9 68.5v249h131v-275q0 -56 62 -56q29 0 45.5 14.5t16.5 41.5v38q-18 -4 -36.5 0t-33 12.5t-24.5 18t-12 16.5l53 76q10 -18 22 -25.5t30 -9.5v91l97 59q11 7 23 0.5
t12 -20.5v-130l31 1v-84z" />
    <glyph glyph-name="sosuathai" unicode="&#xe2a;" horiz-adv-x="455" 
d="M469 364q-24 6 -36.5 3t-20.5 -7q6 -6 12.5 -28t6.5 -45v-229l-97 -59q-11 -7 -23 -1t-12 21v179q-22 0 -46.5 -3t-44.5 -10.5t-33.5 -20t-13.5 -31.5q0 -18 8.5 -28.5t21 -15t27.5 -3.5t27 7l16 -77q-16 -14 -41.5 -20.5t-58.5 -6.5q-66 0 -102.5 37t-36.5 94
q0 47 27 76.5t68.5 46t90 22t91.5 4.5v23q0 14 -7 24t-17.5 16.5t-23 9.5t-22.5 3q-29 0 -52.5 -14.5t-28.5 -39.5l-120 18q6 33 27 55.5t49 36t60 19.5t61 6q27 0 45 -2t30 -4t19.5 -4.5t12.5 -3.5q23 27 58 39.5t69 8.5z" />
    <glyph glyph-name="hohipthai" unicode="&#xe2b;" horiz-adv-x="450" 
d="M438 414q0 -9 -4 -23t-12.5 -28.5t-21 -27.5t-29.5 -21q30 -15 43 -47t13 -65v-144l-97 -59q-11 -7 -23 -2t-12 22v175q0 48 -19 59t-42.5 -2.5t-42.5 -44t-19 -66.5v-140h-131v415h131v-114q21 15 43 24.5t40.5 21t32 27t17.5 41.5h133v-1z" />
    <glyph glyph-name="lochulathai" unicode="&#xe2c;" horiz-adv-x="545" 
d="M388 302q0 24 -11 32t-28 9v40q14 2 26 12.5t12 32.5v43q0 10 6.5 12t13.5 -2l112 -58q0 -22 -9.5 -37.5t-23.5 -20.5q16 -5 25.5 -20t9.5 -32v-182q0 -71 -37.5 -106.5t-93.5 -35.5q-35 0 -62.5 15t-44.5 38q-6 -12 -18 -21.5t-27.5 -16.5t-33 -11t-33.5 -4
q-57 0 -93.5 36.5t-36.5 105.5v284h131v-307q0 -11 7.5 -18.5t18.5 -7.5t18.5 7.5t7.5 18.5v201h112v-201q0 -11 7.5 -18.5t18.5 -7.5t18.5 7.5t7.5 18.5v194z" />
    <glyph glyph-name="oangthai" unicode="&#xe2d;" horiz-adv-x="470" 
d="M458 206q0 -48 -14 -88t-41 -69.5t-67.5 -45.5t-94.5 -16q-58 0 -99 19.5t-66.5 53t-35.5 77.5t-6 94h231l-45 -81h-59q4 -35 27.5 -56t54.5 -19q42 2 62 30.5t20 91.5q0 66 -21 100t-70 34q-35 0 -54.5 -19t-29.5 -48l-118 14q17 75 69.5 110.5t137.5 35.5
q108 0 163.5 -59.5t55.5 -158.5z" />
    <glyph glyph-name="honokhukthai" unicode="&#xe2e;" horiz-adv-x="470" 
d="M470 364q-20 5 -36.5 2.5t-24.5 -10.5q48 -56 48 -150q0 -48 -14 -88t-41 -69.5t-67.5 -45.5t-94.5 -16q-58 0 -99 19.5t-66.5 53t-35.5 77.5t-6 94h231l-45 -81h-58q4 -35 27 -56t54 -19q42 2 62 30.5t20 91.5q0 66 -21 100t-70 34q-34 0 -54 -19t-29 -48l-118 14
q34 146 206 146q52 0 93 -15q23 29 59.5 41.5t69.5 9.5z" />
    <glyph glyph-name="paiyannoithai" unicode="&#xe2f;" horiz-adv-x="445" 
d="M325 -1q-11 -7 -23 -1t-12 21v176q-44 -25 -95 -25q-58 0 -95.5 19t-56.5 47t-19.5 61t16.5 61t50.5 47t83.5 19q32 0 52.5 -6.5t42.5 -21.5l-29 -79q-26 11 -45 9t-30 -10.5t-14 -22t3.5 -25t23 -18.5t43.5 -4q30 4 49.5 18t19.5 33v118h132v-357z" />
    <glyph glyph-name="saraathai" unicode="&#xe30;" horiz-adv-x="243" 
d="M148 256q-20 0 -41.5 5t-39.5 15t-31.5 25.5t-17.5 35.5l96 67q0 -11 7 -20.5t17.5 -17t22.5 -12t21 -4.5h44v-94h-78zM148 30q-20 0 -41.5 5t-39.5 15t-31.5 25.5t-17.5 35.5l96 67q0 -11 7 -20.5t17.5 -17t22.5 -12t21 -4.5h44v-94h-78z" />
    <glyph glyph-name="maihanakatthai" unicode="&#xe31;" 
d="M-166 485q-17 0 -38.5 4.5t-40.5 14t-33 24t-17 35.5l92 66q20 -50 77 -50h167v-94h-207z" />
    <glyph glyph-name="saraaathai" unicode="&#xe32;" horiz-adv-x="296" 
d="M276 321v-263l-98 -59q-10 -6 -22.5 -1.5t-12.5 18.5v286q0 20 -12.5 27.5t-30.5 7.5q-11 0 -28.5 -8.5t-26.5 -16.5l-34 63q27 20 62.5 35.5t83.5 15.5q36 0 59 -10t36.5 -26t18.5 -34.5t5 -34.5z" />
    <glyph glyph-name="saraamthai" unicode="&#xe33;" horiz-adv-x="296" 
d="M25 562q0 -43 -32 -64t-74 -21q-43 0 -75 21.5t-32 63.5q0 22 9.5 37.5t24.5 25.5t34 15t39 5q19 0 38 -5t34 -15t24.5 -25.5t9.5 -37.5zM276 321v-263l-98 -59q-10 -6 -22.5 -1.5t-12.5 18.5v286q0 20 -12.5 27.5t-30.5 7.5q-11 0 -28.5 -8.5t-26.5 -16.5l-34 63
q27 20 62.5 35.5t83.5 15.5q36 0 59 -10t36.5 -26t18.5 -34.5t5 -34.5zM-47 562q0 11 -10 20t-24 9t-24.5 -9t-10.5 -20q0 -12 10.5 -21t24.5 -9t24 9t10 21z" />
    <glyph glyph-name="saraithai" unicode="&#xe34;" 
d="M-421 485l54 93h333v-93h-387z" />
    <glyph glyph-name="saraiithai" unicode="&#xe35;" 
d="M-421 485l54 93h215v62h131v-155h-400z" />
    <glyph glyph-name="sarauethai" unicode="&#xe36;" 
d="M-18 564q0 -37 -25.5 -58t-64.5 -21h-313l54 93h167q4 26 28.5 45t63.5 19q42 0 66 -21t24 -57zM-80 564q0 9 -7 15.5t-21 6.5q-15 0 -22.5 -6.5t-7.5 -15.5q0 -22 30 -22q28 0 28 22z" />
    <glyph glyph-name="saraueethai" unicode="&#xe37;" 
d="M-421 485l54 93h178v62h54q9 0 10.5 -4t1.5 -8q1 -7 2 -20.5t2 -20.5q1 -6 3.5 -11.5t11.5 -5.5q8 0 10.5 5t3.5 12q1 6 2.5 20t2.5 21q1 5 2.5 8.5t9.5 3.5h52v-155h-400z" />
    <glyph glyph-name="sarauthai" unicode="&#xe38;" 
d="M-145 -199v67q0 9 -2.5 12.5t-12.5 3.5h-40l33 85h75q14 0 26.5 -1.5t22 -7t15 -16.5t5.5 -29v-114h-122z" />
    <glyph glyph-name="sarauuthai" unicode="&#xe39;" 
d="M-24 -103q0 -29 -10 -48t-28 -30t-43.5 -15.5t-55.5 -4.5q-57 0 -87.5 21.5t-30.5 50.5q0 14 -2 22.5t-11 8.5h-24l24 55h42q33 0 50.5 -11t17.5 -43q0 -15 3 -19.5t13 -4.5q9 0 12 4.5t3 12.5v58h127v-57z" />
    <glyph glyph-name="phinthuthai" unicode="&#xe3a;" 
d="M-24 -101q0 -26 -19.5 -44.5t-45.5 -18.5t-45.5 18.5t-19.5 44.5t19.5 44.5t45.5 18.5t45.5 -18.5t19.5 -44.5z" />
    <glyph glyph-name="PUCR2005" unicode="&#xe3e;" 
 />
    <glyph glyph-name="bahtthai" unicode="&#xe3f;" horiz-adv-x="553" 
d="M527 141q-5 -48 -25.5 -76.5t-51 -42.5t-67.5 -18t-74 -4h-5v-71h-88v71h-178v577h178v52h88v-53q103 0 152 -40.5t49 -109.5q0 -54 -22.5 -84t-65.5 -43q22 -3 43 -17.5t37 -36.5t24.5 -49t5.5 -55zM376 405q0 38 -20 53t-60 15v-140q42 0 61 16.5t19 55.5zM224 473h-68
v-140h68v140zM395 174q0 45 -27 61t-72 14v-147q45 -2 72 14t27 58zM224 249h-68v-147h68v147z" />
    <glyph glyph-name="saraethai" unicode="&#xe40;" horiz-adv-x="192" 
d="M40 0v357l96 59q11 7 23.5 0.5t12.5 -20.5v-396h-132z" />
    <glyph glyph-name="saraaethai" unicode="&#xe41;" horiz-adv-x="368" 
d="M220 0v359l94 57q11 7 23.5 0.5t12.5 -20.5v-396h-130zM40 0v359l94 57q11 7 23 0.5t12 -20.5v-396h-129z" />
    <glyph glyph-name="saraothai" unicode="&#xe42;" horiz-adv-x="192" 
d="M187 512q-24 0 -29.5 -5t-2.5 -14.5t10 -24t7 -33.5v-435h-131v435q0 13 -2 20.5t-5 13.5t-7 12t-8 17q-16 40 14 66t102 26h99l29 -78h-76z" />
    <glyph glyph-name="saraaimaimuanthai" unicode="&#xe43;" horiz-adv-x="192" 
d="M186 481q-8 -17 -11 -29.5t-3 -34.5v-417h-131v438q0 18 5 26t10 22q2 7 -0.5 10.5t-5.5 5.5q-4 3 -9.5 4t-9.5 1q-20 0 -28.5 -6t-22.5 -17l-46 48q31 31 62 46.5t78 15.5q30 0 55 -7.5t41 -21.5t21 -35t-5 -49z" />
    <glyph glyph-name="saraaimaimalaithai" unicode="&#xe44;" horiz-adv-x="192" 
d="M194 498q-5 -11 -9 -17t-7 -12t-4.5 -13.5t-1.5 -20.5v-435h-131v435q0 11 1 18t3.5 12l5 10t5.5 13q5 14 -1 19t-29 5h-80l31 78h111q64 0 92.5 -26.5t13.5 -65.5z" />
    <glyph glyph-name="lakkhangyaothai" unicode="&#xe45;" horiz-adv-x="295" 
d="M179 -152q-12 -6 -23.5 -1t-11.5 21v434q0 20 -12.5 27.5t-30.5 7.5q-11 0 -29 -8.5t-27 -16.5l-34 63q26 20 61.5 35.5t83.5 15.5q36 0 59.5 -10t37 -26t18.5 -34.5t5 -34.5v-414z" />
    <glyph glyph-name="maiyamokthai" unicode="&#xe46;" horiz-adv-x="474" 
d="M330 -131q-12 -6 -24 -1t-12 21v391q0 12 -3.5 23.5t-13.5 18.5l-46 -34l-45 35q-17 -4 -18.5 -15.5t6.5 -21.5l-92 -62q-27 34 -32 69.5t9.5 64t45.5 46.5t76 18l53 -37l55 37q135 0 135 -147v-348z" />
    <glyph glyph-name="maitaikhuthai" unicode="&#xe47;" 
d="M-59 621h-180q-17 0 -30.5 -7t-13.5 -30q-1 -10 5 -21.5t14 -11.5l50 30l50 -31q19 -9 31.5 0.5t14.5 32.5l59 -26q0 -26 -11 -44t-28.5 -26t-38 -7t-38.5 12q-5 3 -11 6.5t-12 7.5q-4 2 -7 4.5t-7 4.5l-38 -24q-22 -14 -45 -12t-41.5 15t-30.5 34.5t-12 47.5
q0 49 28 76.5t64 27.5h258z" />
    <glyph glyph-name="maiekthai" unicode="&#xe48;" 
d="M-150 700v139h128v-139h-128z" />
    <glyph glyph-name="maithothai" unicode="&#xe49;" 
d="M64 733q-58 -40 -125 -49t-136 -1v34q7 2 10 9t2 14.5t-6 13t-14 4.5l-13 -1l29 80q19 4 44 4.5t42 -7.5q18 -8 26 -27.5t5 -37.5q42 8 73.5 27t62.5 48v-111z" />
    <glyph glyph-name="maitrithai" unicode="&#xe4a;" 
d="M88 759q-17 -33 -39.5 -49.5t-45.5 -22.5t-43.5 -4t-33.5 7q3 3 9 11q3 5 6 11.5t3 14.5q0 7 -4.5 14.5t-15.5 8.5q-8 0 -13.5 -2.5t-9.5 -5.5q-2 -2 -4 -4.5t-4 -4.5q-2 3 -4 5.5t-4 4.5q-9 8 -22 7q-11 -2 -14.5 -8.5t-3.5 -14.5q0 -12 5 -22.5t12 -14.5h-82
q-5 8 -9 14.5t-7 14.5t-4.5 18.5t-1.5 26.5q0 32 21 54.5t56 22.5q15 0 30 -4.5t26 -14.5q11 10 26 14.5t30 4.5q35 0 57 -21t15 -56q9 10 14 27.5t10 29.5z" />
    <glyph glyph-name="maichattawathai" unicode="&#xe4b;" 
d="M-26 725v-56h-119v56h-64v77h64v57h119v-57h65v-77h-65z" />
    <glyph glyph-name="thanthakhatthai" unicode="&#xe4c;" 
d="M13 703q-21 1 -31.5 -3t-14.5 -11.5t-4 -16.5v-17l1 -20h-129l-1 20q-2 44 10 69.5t35 37.5t57 14t77 0v-73z" />
    <glyph glyph-name="nikhahitthai" unicode="&#xe4d;" 
d="M18 562q0 -43 -32 -64t-74 -21q-43 0 -75 21.5t-32 63.5q0 22 9.5 37.5t24.5 25.5t34 15t39 5q19 0 38 -5t34 -15t24.5 -25.5t9.5 -37.5zM-54 562q0 11 -10 20t-24 9t-24.5 -9t-10.5 -20q0 -12 10.5 -21t24.5 -9t24 9t10 21z" />
    <glyph glyph-name="yamakkanthai" unicode="&#xe4e;" 
d="M22 652q-38 0 -48 -18.5t-10 -59.5q-35 0 -50.5 -16t-15.5 -53h-73q0 59 23 90t53 42q6 24 24.5 49.5t56.5 36.5z" />
    <glyph glyph-name="fongmanthai" unicode="&#xe4f;" horiz-adv-x="500" 
d="M475 217q0 -47 -17.5 -87.5t-48.5 -71.5t-72 -48.5t-87 -17.5q-47 0 -87.5 17.5t-71 48.5t-48 71.5t-17.5 87.5q0 46 17.5 87t48 71.5t71 48t87.5 17.5q46 0 87 -17.5t72 -48t48.5 -71.5t17.5 -87zM406 217q0 32 -12.5 60.5t-33.5 49.5t-49.5 33.5t-60.5 12.5
t-60.5 -12.5t-49.5 -33.5t-33 -49.5t-12 -60.5t12 -60.5t33 -49.5t49.5 -33.5t60.5 -12.5t60.5 12.5t49.5 33.5t33.5 49.5t12.5 60.5zM372 217q0 -26 -9.5 -48t-26 -38.5t-39 -26t-47.5 -9.5q-26 0 -48 9.5t-38.5 26t-26 38.5t-9.5 48q0 25 9.5 47.5t26 39t38.5 26t48 9.5
q25 0 47.5 -9.5t39 -26t26 -39t9.5 -47.5zM315 217q0 27 -19 46t-46 19t-46 -19t-19 -46t19 -46t46 -19t46 19t19 46z" />
    <glyph glyph-name="zerothai" unicode="&#xe50;" horiz-adv-x="604" 
d="M556 204q0 -51 -19.5 -91t-54 -67.5t-82.5 -42t-105 -14.5q-53 0 -98 15t-78 43t-51.5 68.5t-18.5 91.5t18.5 91t52 68.5t80.5 43.5t104 15q51 0 97 -14.5t80.5 -43t54.5 -69.5t20 -94zM424 203q0 58 -33.5 89.5t-88.5 31.5q-62 0 -91 -33.5t-29 -83.5q0 -54 32.5 -84.5
t83.5 -30.5q57 0 91.5 30t34.5 81z" />
    <glyph glyph-name="onethai" unicode="&#xe51;" horiz-adv-x="604" 
d="M558 198q0 -53 -26 -92t-68 -65t-95.5 -38.5t-108.5 -12.5q-54 0 -104 11.5t-89 34.5l33 85q35 -20 74.5 -29t76.5 -9q34 0 65 7.5t54.5 21.5t37.5 35.5t14 50.5q0 57 -32.5 90.5t-98.5 33.5q-54 0 -84.5 -15.5t-30.5 -50.5q0 -20 12.5 -29.5t26.5 -9.5q20 -1 29 12.5
t2 29.5h96q5 -9 6.5 -19.5t1.5 -20.5q0 -23 -11.5 -42.5t-32 -33.5t-48 -22t-59.5 -8q-25 0 -52.5 8.5t-50 26t-37.5 44.5t-15 65t20.5 69t54.5 52.5t79 33.5t94 12q129 0 197.5 -59t68.5 -167z" />
    <glyph glyph-name="twothai" unicode="&#xe52;" horiz-adv-x="616" 
d="M597 208q0 -64 -17 -104.5t-44 -63.5t-61.5 -31.5t-70.5 -8.5h-170q-100 0 -147.5 60.5t-45.5 169.5v15q0 7 0.5 15t0.5 17q0 13 -1 27t-4 26.5t-8 22t-13 12.5q-4 1 -9 3t-9 3l48 130q39 -13 62 -35t35 -50t15.5 -59.5t3.5 -64.5v-27t-1 -26q0 -32 5.5 -59.5t15.5 -47.5
t24 -31.5t32 -11.5h164q32 0 52 29.5t20 84.5q0 4 -0.5 22.5t-2.5 38.5t-6.5 36t-13.5 16q-14 0 -18 -22t-4 -53h-92q0 31 -3 53t-17 22q-11 0 -17 -18t-6 -37q0 -9 1 -20t4 -20.5t8 -16t13 -6.5q9 0 14 8t5 15l57 -39q-5 -37 -27.5 -54.5t-54.5 -17.5q-30 0 -53.5 12
t-40 32.5t-25.5 48.5t-9 61q0 31 7.5 60t22 51t35.5 35.5t48 13.5q26 0 49 -13.5t37 -53.5q7 20 18 33t23.5 20.5t26.5 10.5t26 3q55 0 86.5 -51t31.5 -165z" />
    <glyph glyph-name="threethai" unicode="&#xe53;" horiz-adv-x="594" 
d="M546 211q0 -81 -29.5 -137.5t-83.5 -88.5l-87 52q2 2 2 5q2 5 7 7q34 25 50 62t16 97q0 37 -3.5 59.5t-9.5 34.5t-13.5 15.5t-16.5 3.5t-15.5 -13t-11 -30t-7.5 -33.5t-4 -22.5h-95q0 8 -1.5 24.5t-5.5 33t-11.5 29t-20.5 12.5q-3 0 -8 -3.5t-10.5 -14t-9 -30t-3.5 -51.5
q0 -9 1.5 -30.5t6.5 -44t13.5 -39.5t23.5 -17q8 0 12.5 6t7.5 14q2 2 4.5 6.5t1.5 3.5l64 -58q-9 -32 -33 -52t-66 -20q-35 0 -64.5 17t-51.5 48t-34.5 72.5t-12.5 91.5q0 54 12.5 92.5t33.5 63.5t48 36.5t56 11.5q30 0 56 -16.5t40 -44.5q14 29 40 45t56 16q26 0 53.5 -8.5
t50.5 -31.5t37.5 -65t14.5 -108z" />
    <glyph glyph-name="fourthai" unicode="&#xe54;" horiz-adv-x="594" 
d="M568 410q-16 -34 -46.5 -52t-67 -26.5t-75 -9.5t-70.5 -1q-66 0 -97.5 -27.5t-31.5 -87.5q0 -45 19 -74t56 -37q-17 17 -24 36t-7 38q0 27 10.5 49t28 37.5t39 23.5t43.5 8q38 0 61.5 -16t40.5 -54l-65 -57l-3 6l-4 5q-4 11 -9.5 14.5t-12.5 3.5q-2 0 -6.5 -4t-4.5 -18
q0 -20 23.5 -40t68.5 -22h26t19 1q10 1 15.5 1t10.5 -2l23 -104q-6 -2 -8 -2h-4h-4q-19 1 -34 1h-29q-32 0 -53.5 -1t-40.5 -2q-17 -1 -40 -1.5t-49 -0.5q-38 0 -76 12.5t-69 38t-50.5 65.5t-19.5 95q0 103 62 158.5t180 55.5q8 0 15.5 -0.5t15.5 -0.5t15 -0.5t15 -0.5
q20 0 39 2.5t36 10t31.5 21.5t26.5 37l1 -2q-1 2 5 -3t22.5 -21.5t51.5 -50.5z" />
    <glyph glyph-name="fivethai" unicode="&#xe55;" horiz-adv-x="594" 
d="M570 413q-16 -34 -46.5 -52t-67.5 -26.5t-76.5 -10t-72.5 -1.5q-126 0 -126 -122q0 -39 18.5 -68t56.5 -37q-15 16 -22.5 35.5t-7.5 37.5q0 27 10.5 49t28 37.5t39 23.5t42.5 8q38 0 61.5 -16t40.5 -54l-65 -57l-3 6l-4 5q-4 11 -9.5 14.5t-12.5 3.5q-2 0 -6.5 -4
t-4.5 -18q0 -20 23 -40.5t69 -23.5q16 0 27 0.5t19 1.5q10 1 15.5 1t10.5 -2l23 -104l-10 -1q-1 0 -2 0.5t-3 0.5h-58q-34 0 -56.5 -0.5t-42.5 -1.5t-40.5 -1.5t-50.5 -0.5q-38 0 -76 12t-69 37.5t-50.5 64.5t-19.5 92q0 42 11 75t29.5 57.5t42.5 40.5t50 25q0 1 -0.5 1
t-0.5 1q-1 2 -1 5.5v5.5q0 20 9 36.5t24 28t34.5 17.5t40.5 6q39 0 69.5 -20.5t35.5 -58.5q28 4 51.5 20t42.5 52l79 -79zM321 405q0 25 -32 25q-30 0 -30 -25q0 -6 7 -12t24 -6t24 6t7 12z" />
    <glyph glyph-name="sixthai" unicode="&#xe56;" horiz-adv-x="594" 
d="M563 209q0 -42 -16 -81t-46.5 -69.5t-75 -48.5t-101.5 -18q-54 0 -94 13t-66 34t-39 48.5t-13 56.5q0 24 9.5 45.5t27 37.5t42 25t53.5 9q42 0 66.5 -18.5t37.5 -51.5l-63 -57l-2 6q-1 1 -1 1.5t-1 1.5q-8 18 -25 18q-19 0 -19 -19q0 -9 4.5 -18.5t14.5 -18t27 -14
t41 -5.5q23 0 44 8.5t36.5 25t25 40t9.5 53.5q0 22 -7.5 42.5t-22 37t-36 26.5t-49.5 10q-23 0 -39.5 -4.5t-28.5 -11.5t-19.5 -15t-11.5 -14q-1 -1 -1 -3q0 -1 -1 -2h-109q-3 9 -9 26t-17.5 35t-28 34.5t-40.5 23.5l63 113q16 -7 31.5 -22.5t28.5 -34.5t22.5 -39t13.5 -36
q29 20 65.5 33t81.5 13q48 0 91 -14.5t76 -42.5t52 -68t19 -91z" />
    <glyph glyph-name="seventhai" unicode="&#xe57;" horiz-adv-x="594" 
d="M610 480q-35 -42 -54 -113t-19 -156q0 -81 -29.5 -137.5t-83.5 -87.5l-86 53q1 5 8 10q34 26 50 62.5t16 96.5q0 37 -3.5 59.5t-9.5 34.5t-13.5 15.5t-16.5 3.5q-8 0 -15 -13t-12 -30t-7.5 -33.5t-2.5 -22.5h-96q0 8 -1.5 24.5t-5.5 33t-11.5 29t-20.5 12.5q-3 0 -8 -3.5
t-10.5 -14t-9 -30t-3.5 -51.5q0 -9 1.5 -30.5t6.5 -43.5t14 -39t23 -17q8 0 12.5 5.5t7.5 13.5q2 2 4.5 6.5t1.5 3.5l64 -57q-9 -33 -33 -52.5t-66 -19.5q-35 0 -64.5 17t-51.5 47.5t-34.5 72t-12.5 91.5q0 54 12.5 93t33.5 63.5t48.5 36t56.5 11.5t55 -16.5t40 -43.5
q14 28 40 44t56 16q20 0 39.5 -4t38.5 -16q1 8 5.5 22t10.5 29t13.5 28t15.5 19l104 -19z" />
    <glyph glyph-name="eightthai" unicode="&#xe58;" horiz-adv-x="594" 
d="M578 410q-10 -24 -32.5 -41.5t-54 -28.5t-69.5 -16t-79 -5h-84q-33 0 -56.5 -26.5t-23.5 -86.5q0 -9 1.5 -27t6.5 -37t14 -33t23 -14q12 0 19.5 6.5t12 16.5t7 21.5t4.5 20.5l3 18h97l3 -19q1 -9 3.5 -20.5t7 -21t12.5 -16t20 -6.5t22.5 7t10.5 19q0 17 -9 20t-19 3h-8
v88q13 6 36 6q18 0 38 -5.5t36.5 -19t27.5 -35.5t11 -55q0 -58 -34.5 -95.5t-98.5 -37.5q-37 0 -64.5 16t-41.5 41q-31 -55 -102 -55q-26 0 -55.5 11t-55 36.5t-42.5 65.5t-17 99q0 64 19.5 106t49.5 66.5t67 34t72 9.5q5 0 21 -0.5t34 -0.5h47q36 -1 59.5 7.5t38.5 21
t22.5 26l12.5 22.5q1 1 1.5 2.5t2.5 3.5l82 -90z" />
    <glyph glyph-name="ninethai" unicode="&#xe59;" horiz-adv-x="594" 
d="M597 428q-20 -28 -37 -42t-32 -19t-27.5 -4.5t-23.5 2.5t-20.5 2.5t-18.5 -3.5q-12 -5 -17.5 -16t-5.5 -16q37 -69 78.5 -146t77.5 -146l-99 -54l-161 294q-11 20 -25 32t-44 12q-17 0 -33 -9t-28 -25t-19.5 -38t-7.5 -48q0 -23 7.5 -42.5t20.5 -34t29 -22.5t34 -8
q20 0 40.5 3t35.5 22l76 -66q-30 -36 -69.5 -50t-82.5 -14q-48 0 -87 16.5t-67.5 45t-44 67.5t-15.5 84t15 84.5t42.5 69t66.5 47t87 17.5q20 0 42 -5t44 -17q9 21 20.5 33t24.5 18t27.5 8t28.5 3q26 2 49 9.5t37 40.5q1 -1 13.5 -14t27.5 -28q9 -9 19 -19.5t21 -21.5z" />
    <glyph glyph-name="angkhankhuthai" unicode="&#xe5a;" horiz-adv-x="644" 
d="M524 -4q-11 -7 -23 -1t-12 21v399h132v-360zM325 -4q-11 -7 -23 -1t-12 21v179q-44 -25 -95 -25q-58 0 -95.5 19t-56.5 47t-19.5 61t16.5 61t50.5 47t83.5 19q32 0 52.5 -6.5t42.5 -21.5l-29 -79q-26 11 -45 9t-30 -10.5t-14 -22t3.5 -25t23 -18.5t43.5 -4q30 4 49.5 18
t19.5 33v118h132v-360z" />
    <glyph glyph-name="khomutthai" unicode="&#xe5b;" horiz-adv-x="968" 
d="M272 293q-8 16 -18.5 20t-23.5 4q-21 0 -40 -8.5t-34 -24.5t-24 -37.5t-9 -48.5q0 -60 36 -90.5t93 -30.5q34 0 59 19.5t38.5 50.5t13.5 68t-16 72l73 48q13 -10 28 -26t29.5 -34t28 -37t24.5 -34q8 17 15 35.5t9 26.5l61 39q13 -13 30.5 -36t31.5 -43q5 8 6 22h271
l-74 -95h-141q-11 -19 -31 -50.5t-43 -54.5q-8 29 -24 61.5t-30 54.5q-8 -15 -19 -33.5t-24 -37.5t-25.5 -35.5t-23.5 -26.5q-14 27 -32.5 59.5t-34.5 58.5q-8 -30 -22.5 -56.5t-38.5 -46.5t-58 -32t-80 -12q-53 0 -96 14t-73.5 39.5t-47 62t-16.5 80.5q0 41 15.5 76.5
t43.5 62t66.5 41.5t84.5 15q35 0 66.5 -15t51.5 -50z" />
    <glyph glyph-name="ZWSP" unicode="&#x200b;" 
 />
    <glyph glyph-name="endash" unicode="&#x2013;" horiz-adv-x="500" 
d="M18 162v86h464v-86h-464z" />
    <glyph glyph-name="emdash" unicode="&#x2014;" horiz-adv-x="1000" 
d="M19 162v86h962v-86h-962z" />
    <glyph glyph-name="quoteleft" unicode="&#x2018;" horiz-adv-x="242" 
d="M131 608h74l-58 -126h36v-124h-128v110z" />
    <glyph glyph-name="quoteright" unicode="&#x2019;" horiz-adv-x="242" 
d="M111 358h-74l58 126h-36v124h128v-110z" />
    <glyph glyph-name="quotedblleft" unicode="&#x201c;" horiz-adv-x="410" 
d="M131 608h74l-58 -126h36v-124h-128v110zM299 608h74l-58 -126h36v-124h-128v110z" />
    <glyph glyph-name="quotedblright" unicode="&#x201d;" horiz-adv-x="410" 
d="M279 358h-74l58 126h-36v124h128v-110zM111 358h-74l58 126h-36v124h128v-110z" />
    <glyph glyph-name="bullet" unicode="&#x2022;" horiz-adv-x="398" 
d="M363 202q0 -34 -13.5 -63.5t-36 -51.5t-52 -35t-62.5 -13t-63 13t-52.5 35t-35.5 51.5t-13 63.5t13 63.5t35 51.5t51.5 35t63.5 13t64 -13t52.5 -35t35.5 -51.5t13 -63.5z" />
    <glyph glyph-name="Euro" unicode="&#x20ac;" horiz-adv-x="635" 
d="M615 210q-17 -108 -84 -165t-176 -57q-51 0 -92 14.5t-72 39t-52.5 57.5t-34.5 69h-93v99h74q0 5 -0.5 12t0.5 10v19h-74v100h88h4q13 38 35.5 71t55 57.5t74.5 38.5t95 14q43 0 82.5 -11.5t71.5 -34t55.5 -55.5t34.5 -75l-107 -75q-20 72 -54.5 110.5t-85.5 38.5
q-45 0 -72 -22t-43 -57h145v-100h-167v-20v-21h167v-99h-144q17 -37 44 -58t67 -21q51 0 85.5 36.5t45.5 108.5z" />
    <glyph glyph-name="trademark" unicode="&#x2122;" horiz-adv-x="728" 
d="M616 222v218l-78 -218h-50l-85 223v-223h-74v355h98l87 -236l79 236h96v-355h-73zM265 515h-72v-293h-73v293h-99v62h253q13 0 19.5 -11t-3.5 -22z" />
    <glyph glyph-name="uni25CC" unicode="&#x25cc;" horiz-adv-x="670" 
d="M259 179l-48 -15l17 47q13 -18 31 -32zM312 413l23 45l22 -44q-5 1 -10.5 1h-10.5q-6 0 -12 -0.5t-12 -1.5zM355 156l-20 -42l-21 42q5 -1 11 -1.5t11 -0.5t9.5 0.5t9.5 1.5zM465 307l42 -22l-42 -19q1 5 1.5 9.5t0.5 9.5t-0.5 11t-1.5 11zM208 264l-45 23l45 22
q-1 -6 -1.5 -12t-0.5 -12q0 -5 0.5 -10.5t1.5 -10.5zM231 363l-13 46l45 -16q-18 -11 -32 -30zM440 205l12 -41l-41 13q18 13 29 28zM410 393l49 16l-17 -47q-14 18 -32 31z" />
    <glyph glyph-name="thothannobasethai" unicode="&#xf700;" horiz-adv-x="457" 
d="M438 463q2 -12 0 -26.5t-8 -28.5t-15.5 -26.5t-23.5 -20.5q26 -19 36.5 -61t10.5 -85q0 -40 -11 -78.5t-33 -69t-54 -49.5t-75 -19l-109 1l-52 131q-8 19 -22.5 26.5t-34.5 6.5l53 98q46 4 70 -14.5t38 -55.5l39 -98q9 0 19.5 6.5t19.5 19.5t15.5 33t6.5 48q1 40 -7 66.5
t-21 41.5t-30 21t-33 6q-25 0 -46 -9t-32 -37l-119 18q23 65 75.5 93t121.5 28q27 0 47.5 -3.5t37.5 -8.5q9 8 13.5 18t2.5 28h120z" />
    <glyph glyph-name="saraileftthai" unicode="&#xf701;" 
d="M-451 492l40 86h232v-86h-272z" />
    <glyph glyph-name="saraiileftthai" unicode="&#xf702;" 
d="M-451 492l40 86h136v43h96v-129h-272z" />
    <glyph glyph-name="saraueleftthai" unicode="&#xf703;" 
d="M-171 560q0 -29 -17.5 -48.5t-52.5 -19.5h-210l40 86h99q6 20 22.5 32.5t48.5 12.5t51 -17t19 -46zM-217 561q0 22 -24 22q-10 0 -17 -5.5t-7 -16.5t7 -16t17 -5t17 5t7 16z" />
    <glyph glyph-name="saraueeleftthai" unicode="&#xf704;" 
d="M-451 492l40 86h97v46h40q8 0 9 -4t1 -8q2 -7 2 -11.5v-11.5q2 -6 4 -12.5t11 -6.5q8 0 11 6t3 13q2 6 2 11t2 12q0 4 2 8t7 4h41v-132h-272z" />
    <glyph glyph-name="maieklowleftthai" unicode="&#xf705;" 
d="M-336 488v149h132v-149h-132z" />
    <glyph glyph-name="maitholowleftthai" unicode="&#xf706;" 
d="M-180 549q-60 -45 -122.5 -56.5t-131.5 -3.5v37q9 6 11 14t-1 14.5t-11 10.5t-20 2l28 80q23 5 47 4.5t42 -8.5t24.5 -28.5t0.5 -40.5q41 8 69.5 24.5t63.5 51.5v-101z" />
    <glyph glyph-name="maitrilowleftthai" unicode="&#xf707;" 
d="M-155 547q-23 -42 -54 -57.5t-60 -15.5q-21 0 -39 5l4 6l4 6q3 5 5.5 11.5t2.5 12.5q0 8 -5.5 16.5t-17.5 9.5q-14 1 -21 -4.5t-10 -9.5q-2 2 -4.5 4t-4.5 4q-9 7 -21 6q-12 -2 -16.5 -9t-4.5 -17q0 -20 12 -34h-73l-2 6q-8 13 -13 25t-5 40q0 30 20.5 52t53.5 22
q14 0 29 -4.5t27 -15.5q12 11 27 15.5t29 4.5q33 0 54 -23t13 -61q11 13 16.5 24.5t8.5 22.5l5 14z" />
    <glyph glyph-name="maichattawalowleftthai" unicode="&#xf708;" 
d="M-243 518v-56h-127v56h-64v81h64v57h127v-57h65v-81h-65z" />
    <glyph glyph-name="thanthakhatlowleftthai" unicode="&#xf709;" 
d="M-190 552q-21 1 -31.5 -3t-14.5 -11.5t-4 -16.5v-17l1 -20h-129l-1 20q-2 44 10 69.5t35 37.5t57 14t77 0v-73z" />
    <glyph glyph-name="maieklowrightthai" unicode="&#xf70a;" 
d="M-154 485v149h131v-149h-131z" />
    <glyph glyph-name="maitholowrightthai" unicode="&#xf70b;" 
d="M35 540q-29 -20 -62.5 -32t-69 -17.5t-72 -5.5t-70.5 4v37q9 6 11.5 14t-0.5 14.5t-11 10.5t-20 2l28 80q23 5 47 4.5t41 -8.5q19 -8 25.5 -28.5t0.5 -40.5q42 9 79 24t73 52v-110z" />
    <glyph glyph-name="maitrilowrightthai" unicode="&#xf70c;" 
d="M53 559q-18 -35 -42 -53t-48.5 -24t-46.5 -4t-35 7l9 12q4 5 7 12.5t3 15.5t-5 15.5t-16 8.5q-16 0 -25 -9q-2 -2 -4 -4.5t-4 -4.5q-2 3 -4 5.5t-4 4.5q-9 9 -24 8q-11 -2 -15.5 -9t-4.5 -15q0 -14 5.5 -24.5t13.5 -15.5h-88q-10 16 -16.5 30.5t-6.5 48.5t22.5 58
t59.5 24q34 0 60 -21q22 21 59 21q13 0 27 -5.5t25 -15t18 -22.5t7 -29q9 11 14.5 24t10.5 26z" />
    <glyph glyph-name="maichattawalowrightthai" unicode="&#xf70d;" 
d="M-25 531v-46h-127v46h-54v82h54v46h127v-46h55v-82h-55z" />
    <glyph glyph-name="thanthakhatlowrightthai" unicode="&#xf70e;" 
d="M4 562q-21 2 -32 -1.5t-16 -12t-5 -20.5t1 -28l1 -15h-132l-1 15q-3 43 8 71t34.5 43.5t59 20.5t82.5 3v-76z" />
    <glyph glyph-name="yoyingnobasethai" unicode="&#xf70f;" horiz-adv-x="650" 
d="M628 140q0 -29 -8.5 -55.5t-29 -47.5t-55.5 -33.5t-87 -12.5q-53 0 -88 11.5t-55.5 32t-29 47.5t-8.5 58v148q0 23 -10.5 37.5t-42.5 14.5q-27 0 -39.5 -15t-12.5 -39v-213h47v-73h-178v214q0 30 9 52.5t23 34.5q-17 4 -33 3v56q34 23 81 43.5t104 20.5q39 0 72.5 -6
t58 -21t38.5 -41t14 -66v-159q0 -26 13.5 -40t36.5 -14q22 0 35 13.5t13 40.5v284h132v-275z" />
    <glyph glyph-name="maihanakatleftthai" unicode="&#xf710;" 
d="M-245 492q-17 0 -36 4.5t-36 13t-29 21t-14 29.5l85 58q10 -25 35 -35t47 -10h208v-81h-260z" />
    <glyph glyph-name="nikhahitleftthai" unicode="&#xf711;" 
d="M-184 556q0 -42 -29.5 -65.5t-69.5 -23.5q-42 0 -71.5 23.5t-29.5 65.5q0 21 9 37t23 27t32.5 17t36.5 6t36 -6t32 -17.5t22.5 -27.5t8.5 -36zM-258 556q0 8 -7 14.5t-18 6.5q-13 0 -19.5 -6.5t-6.5 -14.5q0 -9 7 -15.5t19 -6.5q11 0 18 6.5t7 15.5z" />
    <glyph glyph-name="maitaikhuleftthai" unicode="&#xf712;" 
d="M-196 605h-141q-15 0 -27 -6.5t-12 -26.5q0 -8 4.5 -19.5t12.5 -11.5l43 27l44 -27q16 -8 26.5 0t12.5 28l52 -23q0 -23 -9.5 -38t-24.5 -22.5t-33 -6.5t-34 11q-5 2 -10 6t-10 7q-4 3 -12 7l-33 -21q-19 -12 -39 -9t-36 15t-26.5 31t-10.5 39q0 45 24 67t56 22h208z" />
    <glyph glyph-name="maiekupperleftthai" unicode="&#xf713;" 
d="M-299 671v129h127v-129h-127z" />
    <glyph glyph-name="maithoupperleftthai" unicode="&#xf714;" 
d="M-47 720q-29 -20 -63 -32t-69.5 -17.5t-71.5 -5.5t-70 4v37q9 6 11 14t-1 14.5t-11 10.5t-20 2l28 80q23 5 47 4.5t42 -8.5t24.5 -28.5t0.5 -40.5q42 9 79.5 24t73.5 52v-110z" />
    <glyph glyph-name="maitriupperleftthai" unicode="&#xf715;" 
d="M-5 733q-17 -33 -39.5 -49.5t-45.5 -22.5t-43.5 -4t-33.5 7q3 3 9 11q3 5 6 11.5t3 14.5q0 7 -4.5 14.5t-15.5 8.5q-8 0 -13.5 -2.5t-9.5 -5.5q-2 -2 -4 -4.5t-4 -4.5q-2 3 -4 5.5t-4 4.5q-9 8 -22 7q-11 -2 -14.5 -8.5t-3.5 -14.5q0 -12 5 -22.5t12 -14.5h-82
q-5 8 -9 14.5t-7 14.5t-4.5 18.5t-1.5 26.5q0 32 21 54.5t56 22.5q15 0 30 -4.5t26 -14.5q11 10 26 14.5t30 4.5q35 0 57 -21t15 -56q9 10 14 27.5t10 29.5z" />
    <glyph glyph-name="maichattawaupperleftthai" unicode="&#xf716;" 
d="M-187 727v-56h-119v56h-64v77h64v57h119v-57h65v-77h-65z" />
    <glyph glyph-name="thanthakhatupperleftthai" unicode="&#xf717;" 
d="M-150 702q-21 1 -31.5 -3t-14.5 -11.5t-4 -16.5v-17l1 -20h-129l-1 20q-2 44 10 69.5t35 37.5t57 14t77 0v-73z" />
    <glyph glyph-name="saraulowthai" unicode="&#xf718;" 
d="M-109 -321v57q0 12 -1 24t-18 12h-28l18 56h67h16.5t18 -3.5t14 -12t5.5 -24.5v-109h-92z" />
    <glyph glyph-name="sarauulowthai" unicode="&#xf719;" 
d="M-22 -244q0 -45 -34 -64t-88 -19q-55 0 -79.5 19t-24.5 37q0 7 0.5 15t-1 15t-5.5 11.5t-14 4.5h-23l24 55h34q7 0 16.5 -1t17.5 -4.5t13.5 -11.5t5.5 -22q0 -7 -0.5 -16t2 -17.5t8.5 -14.5t19 -6q20 0 26 9.5t6 22.5v59h97v-72z" />
    <glyph glyph-name="phinthulowthai" unicode="&#xf71a;" 
d="M-20 -215q0 -21 -15 -36t-36 -15q-20 0 -35.5 15t-15.5 36t15.5 36t35.5 15q21 0 36 -15t15 -36z" />
    <glyph glyph-name="lochula.short" unicode="&#xf71d;" horiz-adv-x="535" 
d="M378 302q0 24 -11 32t-28 9v40q14 2 26 12.5t12 32.5v43q0 10 6.5 12t13.5 -2l112 -58q0 -22 -9.5 -37.5t-23.5 -20.5q16 -5 25.5 -20t9.5 -32v-182q0 -71 -37.5 -106.5t-93.5 -35.5q-35 0 -62.5 15t-44.5 38q-6 -12 -18 -21.5t-27.5 -16.5t-33 -11t-33.5 -4
q-57 0 -93.5 36.5t-36.5 105.5v284h131v-307q0 -11 7.5 -18.5t18.5 -7.5t18.5 7.5t7.5 18.5v201h112v-201q0 -11 7.5 -18.5t18.5 -7.5t18.5 7.5t7.5 18.5v194z" />
    <glyph glyph-name="rulakkhangyao" unicode="&#xf881;" horiz-adv-x="673" 
d="M555 -152q-12 -6 -23.5 -1t-11.5 21v434q0 20 -12.5 27.5t-30.5 7.5q-11 0 -29 -8.5t-27 -16.5q3 -14 3 -30v-374l-97 -59q-11 -7 -22.5 -0.5t-11.5 20.5v411q0 24 -13.5 41t-48.5 17q-33 0 -51 -17.5t-18 -41.5v-206h48v-73h-179v214q0 30 9 51.5t23 35.5q-18 3 -33 2
v54q18 10 38 22t45 22t56 16.5t71 6.5q46 0 85 -11t64 -37q26 20 60.5 35t82.5 15q36 0 59.5 -10t37 -26t18.5 -34.5t5 -34.5v-414z" />
    <glyph glyph-name="lulakkhangyao" unicode="&#xf882;" horiz-adv-x="677" 
d="M558 -152q-12 -6 -23.5 -1t-11.5 21v434q0 20 -12.5 27.5t-30.5 7.5q-11 0 -28.5 -8.5t-27.5 -16.5q3 -14 3 -30v-375l-96 -59q-11 -7 -23 -1t-12 21v412q0 24 -13.5 41t-48.5 17q-32 0 -50 -17.5t-18 -41.5v-279h-152v73h21v141q0 30 8.5 51.5t22.5 35.5q-18 3 -32 2v54
q18 10 38 22t45 22t56 16.5t71 6.5q46 0 84.5 -11t63.5 -37q26 20 60.5 35t82.5 15q36 0 59.5 -10t37 -26t18.5 -34.5t5 -34.5v-414z" />
    <glyph glyph-name="yamakkanleftthai" 
d="M-92 652q-38 0 -48 -18.5t-10 -59.5q-35 0 -50.5 -16t-15.5 -53h-73q0 59 23 90t53 42q6 24 24.5 49.5t56.5 36.5z" />
    <glyph glyph-name="saraamleft" horiz-adv-x="296" 
d="M-165 562q0 -43 -32 -64t-74 -21q-43 0 -75 21.5t-32 63.5q0 22 9.5 37.5t24.5 25.5t34 15t39 5q19 0 38 -5t34 -15t24.5 -25.5t9.5 -37.5zM276 321v-263l-98 -59q-10 -6 -22.5 -1.5t-12.5 18.5v286q0 20 -12.5 27.5t-30.5 7.5q-11 0 -28.5 -8.5t-26.5 -16.5l-34 63
q27 20 62.5 35.5t83.5 15.5q36 0 59 -10t36.5 -26t18.5 -34.5t5 -34.5zM-237 562q0 11 -10 20t-24 9t-24.5 -9t-10.5 -20q0 -12 10.5 -21t24.5 -9t24 9t10 21z" />
    <glyph glyph-name="uni0E33.alt1" horiz-adv-x="296" 
d="M276 321v-263l-98 -59q-10 -6 -22.5 -1.5t-12.5 18.5v286q0 20 -12.5 27.5t-30.5 7.5q-11 0 -28.5 -8.5t-26.5 -16.5l-34 63q27 20 62.5 35.5t83.5 15.5q36 0 59 -10t36.5 -26t18.5 -34.5t5 -34.5zM-165 562q0 -43 -32 -64t-74 -21q-43 0 -75 21.5t-32 63.5
q0 22 9.5 37.5t24.5 25.5t34 15t39 5q19 0 38 -5t34 -15t24.5 -25.5t9.5 -37.5zM-237 562q0 11 -10 20t-24 9t-24.5 -9t-10.5 -20q0 -12 10.5 -21t24.5 -9t24 9t10 21z" />
    </font>
</defs>
</svg>
