<?xml version="1.0" standalone="no"?>
<!DOCTYPE svg PUBLIC "-//W3C//DTD SVG 1.1//EN" "http://www.w3.org/Graphics/SVG/1.1/DTD/svg11.dtd" >
<svg xmlns="http://www.w3.org/2000/svg" xmlns:xlink="http://www.w3.org/1999/xlink" version="1.1">
<metadata>
Created by FontForge 20170731 at Wed Dec  2 10:29:27 2015
 By Aleksey,,,
Copyright (c) 2015, Cadson Demak (info@cadsondemak.com)
</metadata>
<defs>
<font id="Kanit-Regular" horiz-adv-x="0" >
  <font-face 
    font-family="Kanit"
    font-weight="400"
    font-stretch="normal"
    units-per-em="1000"
    panose-1="0 0 5 0 0 0 0 0 0 0"
    ascent="750"
    descent="-250"
    x-height="474"
    cap-height="644"
    bbox="-594 -351 1157 1061"
    underline-thickness="50"
    underline-position="-150"
    unicode-range="U+000D-FB02"
  />
<missing-glyph horiz-adv-x="487" 
d="M37 714h411v-714h-411v714zM397 51v612h-309v-612h309z" />
    <glyph glyph-name="fi" unicode="fi" horiz-adv-x="530" 
d="M92 389h-69v85h69v49q0 48 23.5 86t66 59.5t99.5 21.5q75 0 117 -17v-81q-13 6 -37 9t-48 3q-58 0 -85.5 -20t-27.5 -63v-47h267v-474h-109v389h-158v-389h-108v389z" />
    <glyph glyph-name="fl" unicode="fl" horiz-adv-x="530" 
d="M92 389h-69v85h69v51q0 73 49 119t131 46q59 0 105 -15h90v-675h-109v389h-158v-389h-108v389zM358 474v123q-27 9 -62 9q-96 0 -96 -84v-48h158z" />
    <glyph glyph-name="ru_lakkhangyaothai" unicode="&#xe24;&#xe45;" horiz-adv-x="881" 
d="M768.5 503q48.5 -47 48.5 -149v-514h-109v500q0 44 -9 69.5t-34.5 39t-73.5 13.5q-36 0 -68 -7q26 -47 26 -120v-495h-109v498q0 69 -32 96.5t-110 27.5q-49 0 -92.5 -14t-68.5 -37v-18l114 -29v-72q-39 -10 -55 -32t-16 -66v-65q0 -23 10 -33t32 -10h55v-86h-108
q-45 0 -71 28t-26 73v94q0 100 79 124l-108 27v112q45 40 111.5 66t147.5 26q96 0 153 -30q31 13 73.5 21.5t83.5 8.5q108 0 156.5 -47z" />
    <glyph glyph-name="lu_lakkhangyaothai" unicode="&#xe26;&#xe45;" horiz-adv-x="919" 
d="M806.5 503q48.5 -47 48.5 -149v-514h-109v500q0 44 -9 69.5t-34.5 39t-73.5 13.5q-28 0 -72 -7q26 -49 26 -120v-495h-108v498q0 68 -31 96t-105 28q-50 0 -93.5 -14t-67.5 -37v-18l117 -29v-72q-37 -11 -49.5 -31.5t-12.5 -66.5v-72q0 -122 -118 -122h-67v86h37
q21 0 29.5 9.5t8.5 32.5v67q0 48 15 78.5t56 45.5l-110 27v112q44 39 110.5 65.5t147.5 26.5q92 0 150 -31v1q31 13 74 21.5t84 8.5q108 0 156.5 -47z" />
    <glyph glyph-name=".notdef" horiz-adv-x="487" 
d="M37 714h411v-714h-411v714zM397 51v612h-309v-612h309z" />
    <glyph glyph-name=".null" horiz-adv-x="500" 
 />
    <glyph glyph-name="nonmarkingreturn" unicode="&#xd;" horiz-adv-x="400" 
 />
    <glyph glyph-name="space" unicode=" " horiz-adv-x="370" 
 />
    <glyph glyph-name="exclam" unicode="!" horiz-adv-x="203" 
d="M47 483v161h109v-161l-6 -322h-97zM43 82h116v-82h-116v82z" />
    <glyph glyph-name="quotedbl" unicode="&#x22;" horiz-adv-x="341" 
d="M43 644h94l-13 -189h-81v189zM203 644h94l-13 -189h-81v189z" />
    <glyph glyph-name="numbersign" unicode="#" horiz-adv-x="702" 
d="M127 172h-84v73h107l48 153h-109v74h132l54 172h94l-54 -172h169l54 172h95l-54 -172h80v-74h-104l-48 -153h106v-73h-129l-54 -172h-94l54 172h-170l-54 -172h-93zM413 245l48 153h-170l-48 -153h170z" />
    <glyph glyph-name="dollar" unicode="$" horiz-adv-x="555" 
d="M239 -10q-116 3 -182 32v96q89 -35 182 -36v206q-4 0 -8 2q-104 27 -146 68.5t-42 114.5q0 76 50 122t146 56v79h82v-77q45 -2 85 -9t67 -16v-96q-70 26 -152 29v-198q107 -29 149 -74.5t42 -116.5q0 -75 -48.5 -121t-142.5 -57v-80h-82v76zM239 556q-43 -8 -64.5 -27.5
t-21.5 -55.5q0 -34 18.5 -52.5t67.5 -34.5v170zM382 114q20 20 20 58q0 35 -18 55t-63 37v-177q41 7 61 27z" />
    <glyph glyph-name="percent" unicode="%" horiz-adv-x="727" 
d="M79.5 398q-36.5 38 -36.5 102q0 73 36 113.5t106 40.5q69 0 105 -40.5t36 -113.5q0 -64 -36.5 -102t-104.5 -38q-69 0 -105.5 38zM482 644h102l-341 -644h-102zM258 502q0 44 -17.5 64.5t-55.5 20.5t-55.5 -20.5t-17.5 -64.5q0 -76 73 -76t73 76zM437.5 28
q-36.5 38 -36.5 102q0 73 36 113.5t106 40.5q69 0 105 -40.5t36 -113.5q0 -64 -36.5 -102t-104.5 -38q-69 0 -105.5 38zM616 132q0 44 -17.5 64.5t-55.5 20.5t-55.5 -20.5t-17.5 -64.5q0 -76 73 -76t73 76z" />
    <glyph glyph-name="ampersand" unicode="&#x26;" horiz-adv-x="668" 
d="M105.5 35.5q-62.5 45.5 -62.5 121.5q0 65 38 112t113 88q-44 39 -65 72.5t-21 76.5q0 65 45.5 106.5t123.5 41.5q77 0 122 -40.5t45 -107.5q0 -51 -24.5 -88t-80.5 -74l148 -151q16 34 16 80v17h83v-19q0 -38 -10 -74.5t-27 -63.5l81 -82l-66 -60l-72 72
q-70 -73 -219 -73q-105 0 -167.5 45.5zM337.5 443.5q18.5 21.5 18.5 57.5q0 76 -79 76q-41 0 -61 -21t-20 -55q0 -30 17.5 -54t57.5 -56q48 31 66.5 52.5zM426 123l-167 169q-57 -24 -84 -55.5t-27 -77.5q0 -45 34.5 -69t90.5 -24q100 0 153 57z" />
    <glyph glyph-name="quotesingle" unicode="'" horiz-adv-x="181" 
d="M43 644h94l-13 -189h-81v189z" />
    <glyph glyph-name="parenleft" unicode="(" horiz-adv-x="325" 
d="M75.5 89.5q-32.5 100.5 -32.5 213.5t32.5 213t102.5 162h123q-148 -128 -148 -375t148 -375h-123q-70 61 -102.5 161.5z" />
    <glyph glyph-name="parenright" unicode=")" horiz-adv-x="325" 
d="M136 89q35 94 35 214q0 248 -148 375h124q69 -62 101.5 -162.5t32.5 -212.5q0 -113 -32.5 -213.5t-101.5 -161.5h-124q78 67 113 161z" />
    <glyph glyph-name="asterisk" unicode="*" horiz-adv-x="432" 
d="M70 370l89 97l-116 48l34 68l102 -50l-5 111h84l-5 -111l102 50l33 -68l-116 -48l89 -97l-64 -47l-81 107l-82 -107z" />
    <glyph glyph-name="plus" unicode="+" horiz-adv-x="473" 
d="M193 227h-147v85h147v146h87v-146h147v-85h-147v-141h-87v141z" />
    <glyph glyph-name="comma" unicode="," horiz-adv-x="211" 
d="M73 69h95l-46 -189h-79z" />
    <glyph glyph-name="hyphen" unicode="-" horiz-adv-x="468" 
d="M43 312h382v-85h-382v85z" />
    <glyph glyph-name="period" unicode="." horiz-adv-x="179" 
d="M43 85h92v-85h-92v85z" />
    <glyph glyph-name="slash" unicode="/" horiz-adv-x="431" 
d="M277 662h111l-234 -662h-111z" />
    <glyph glyph-name="zero" unicode="0" horiz-adv-x="651" 
d="M110.5 67q-67.5 85 -67.5 247q0 168 66 254t217 86q150 0 216 -86t66 -254q0 -162 -67.5 -247t-214.5 -85q-148 0 -215.5 85zM458 136q40 61 40 178q0 125 -39 186t-133 61q-95 0 -134 -61t-39 -186q0 -118 40 -178.5t133 -60.5q92 0 132 61z" />
    <glyph glyph-name="one" unicode="1" horiz-adv-x="319" 
d="M147 548l-104 -18v91l212 33v-654h-108v548z" />
    <glyph glyph-name="two" unicode="2" horiz-adv-x="509" 
d="M43 54q24 55 66 102.5t106 102.5q61 53 87 79.5t37 52.5t11 64q0 53 -31 79.5t-99 26.5q-73 0 -153 -30v96q36 12 83.5 19.5t90.5 7.5q106 0 162 -52.5t56 -145.5q0 -63 -30.5 -109t-94.5 -104l-17 -15q-56 -49 -85.5 -78.5t-49.5 -65.5h284v-84h-423v54z" />
    <glyph glyph-name="three" unicode="3" horiz-adv-x="519" 
d="M127.5 -1.5q-53.5 8.5 -84.5 20.5v95q75 -31 168 -31q80 0 117 23.5t37 80.5q0 98 -133 98h-97l9 81h81q127 0 127 100q0 49 -34 72t-107 23q-40 0 -81.5 -8t-74.5 -22v93q32 13 80 21.5t93 8.5q114 0 173.5 -48.5t59.5 -129.5q0 -51 -24.5 -92t-72.5 -58
q56 -15 83.5 -53t27.5 -93q0 -94 -66.5 -142t-182.5 -48q-45 0 -98.5 8.5z" />
    <glyph glyph-name="four" unicode="4" horiz-adv-x="543" 
d="M345 141h-322v77l335 426h95v-415h66v-88h-66v-141h-108v141zM362 226v294l-233 -294h233z" />
    <glyph glyph-name="five" unicode="5" horiz-adv-x="515" 
d="M128 -2.5q-50 7.5 -82 21.5v95q34 -15 78.5 -23t86.5 -8q78 0 114 27t36 87q0 58 -27.5 84t-100.5 26h-190v66l17 271h366l-9 -84h-265l-11 -169h109q114 0 167.5 -48.5t53.5 -147.5q0 -97 -63 -151t-183 -54q-47 0 -97 7.5z" />
    <glyph glyph-name="six" unicode="6" horiz-adv-x="573" 
d="M104 50.5q-61 60.5 -61 188.5v145q0 80 33.5 141t95 95t143.5 34q89 0 153 -23v-93q-63 23 -146 23q-88 0 -132 -41.5t-44 -114.5v-40q34 24 78.5 37.5t84.5 13.5q111 0 166 -54t55 -157q0 -100 -61 -157.5t-182 -57.5q-122 0 -183 60.5zM395.5 106q36.5 34 36.5 95
q0 66 -31 98.5t-108 32.5q-39 0 -77.5 -13t-69.5 -36v-69q0 -142 142 -142q71 0 107.5 34z" />
    <glyph glyph-name="seven" unicode="7" horiz-adv-x="498" 
d="M347 560h-314v84h431v-70l-243 -574h-111z" />
    <glyph glyph-name="eight" unicode="8" horiz-adv-x="590" 
d="M106.5 36.5q-63.5 46.5 -63.5 137.5q0 56 30 98.5t84 60.5q-48 18 -72 54.5t-24 82.5q0 86 59 135t175 49q118 0 176 -48.5t58 -135.5q0 -49 -24 -87.5t-77 -58.5q61 -18 89.5 -55t28.5 -95q0 -91 -63 -137.5t-188 -46.5t-188.5 46.5zM403 396.5q25 24.5 25 71.5
q0 100 -133 100t-133 -100q0 -39 22.5 -63.5t66.5 -32.5l71 -14q56 14 81 38.5zM408 99.5q37 24.5 37 76.5q0 45 -25 67t-83 34l-82 17q-55 -12 -83 -38.5t-28 -77.5q0 -53 37.5 -78t113.5 -25t113 24.5z" />
    <glyph glyph-name="nine" unicode="9" horiz-adv-x="573" 
d="M105 12v94q61 -24 146 -24q88 0 132 41.5t44 115.5v40q-34 -24 -78.5 -37.5t-84.5 -13.5q-111 0 -166 54t-55 157q0 99 61 157t182 58q122 0 183 -61t61 -188v-145q0 -80 -33.5 -141t-95 -95t-143.5 -34q-87 0 -153 22zM357 324.5q38 13.5 70 35.5v70q0 141 -142 141
q-71 0 -107.5 -34t-36.5 -95q0 -65 31 -98t108 -33q39 0 77 13.5z" />
    <glyph glyph-name="colon" unicode=":" horiz-adv-x="179" 
d="M43 412h92v-86h-92v86zM43 111h92v-86h-92v86z" />
    <glyph glyph-name="semicolon" unicode=";" horiz-adv-x="212" 
d="M76 412h91v-86h-91v86zM73 77h95l-46 -189h-79z" />
    <glyph glyph-name="less" unicode="&#x3c;" horiz-adv-x="544" 
d="M43 255v89l458 208v-101l-343 -151l343 -152v-102z" />
    <glyph glyph-name="equal" unicode="=" horiz-adv-x="473" 
d="M43 385h386v-77h-386v77zM43 232h386v-78h-386v78z" />
    <glyph glyph-name="greater" unicode="&#x3e;" horiz-adv-x="544" 
d="M43 148l344 152l-344 151v101l458 -208v-89l-458 -209v102z" />
    <glyph glyph-name="question" unicode="?" horiz-adv-x="495" 
d="M154 184q0 37 15.5 66t36.5 48.5t59 50.5t57 56t19 58q0 53 -31.5 75.5t-108.5 22.5q-40 0 -82.5 -10t-75.5 -26v92q35 17 83.5 27t102.5 10q108 0 165 -48t57 -135q0 -52 -23 -85.5t-74 -75.5q-7 -6 -37 -30.5t-42 -48t-12 -52.5v-17h-109v22zM150 82h116v-82h-116v82z
" />
    <glyph glyph-name="at" unicode="@" horiz-adv-x="764" 
d="M136.5 -55.5q-93.5 76.5 -93.5 243.5q0 171 93 254t265 83q155 0 237 -70.5t82 -201.5q0 -99 -46 -154t-139 -55h-31q-55 -53 -151 -53q-63 0 -101.5 31t-38.5 88q0 58 36 92t113 34h120v22q0 31 -8.5 48t-30.5 24.5t-63 7.5q-63 0 -121 -20v56q51 22 139 22
q80 0 117.5 -34t37.5 -108v-147q45 0 65.5 34.5t20.5 108.5q0 103 -58 153t-180 50q-140 0 -208 -63t-68 -203q0 -134 69 -191t194 -57q110 0 173 19v-72q-76 -18 -171 -18q-160 0 -253.5 76.5zM436 58.5q27 11.5 46 36.5v87h-105q-49 0 -68.5 -18t-19.5 -54q0 -34 20 -48.5
t62 -14.5q38 0 65 11.5z" />
    <glyph glyph-name="A" unicode="A" horiz-adv-x="700" 
d="M290 644h122l244 -644h-112l-64 166h-259l-64 -166h-113zM462 250l-112 295l-112 -295h224z" />
    <glyph glyph-name="B" unicode="B" horiz-adv-x="631" 
d="M63 644h312q94 0 141 -44.5t47 -127.5q0 -51 -20.5 -86.5t-56.5 -54.5q49 -14 75.5 -48.5t26.5 -96.5q0 -93 -50.5 -139.5t-148.5 -46.5h-326v644zM360 369q102 0 102 94q0 52 -25 75.5t-89 23.5h-176v-193h188zM366 80q59 0 85.5 25t26.5 85q0 51 -27.5 75t-95.5 24
h-183v-209h194z" />
    <glyph glyph-name="C" unicode="C" horiz-adv-x="597" 
d="M126 75.5q-83 85.5 -83 236.5q0 163 80 252.5t241 89.5q101 0 189 -31v-95q-85 33 -181 33q-117 0 -168 -62t-51 -187q0 -114 54.5 -172t166.5 -58q99 0 180 31v-96q-86 -27 -189 -27q-156 0 -239 85.5z" />
    <glyph glyph-name="D" unicode="D" horiz-adv-x="649" 
d="M63 644h261q145 0 213 -77t68 -249q0 -165 -68 -241.5t-213 -76.5h-261v644zM307 84q67 0 107.5 19.5t61 70.5t20.5 144q0 94 -19 146t-59.5 73.5t-110.5 21.5h-135v-475h135z" />
    <glyph glyph-name="E" unicode="E" horiz-adv-x="550" 
d="M63 644h449v-85h-340v-195h303v-84h-303v-196h340v-84h-449v644z" />
    <glyph glyph-name="F" unicode="F" horiz-adv-x="524" 
d="M63 644h438v-85h-329v-195h292v-84h-292v-280h-109v644z" />
    <glyph glyph-name="G" unicode="G" horiz-adv-x="641" 
d="M125 74.5q-82 84.5 -82 234.5q0 163 81 254t242 91q107 0 191 -29v-94q-83 30 -182 30q-119 0 -170.5 -62.5t-51.5 -189.5q0 -227 213 -227q86 0 139 20v180h-161v71h254v-310q-36 -23 -94.5 -38t-140.5 -15q-156 0 -238 84.5z" />
    <glyph glyph-name="H" unicode="H" horiz-adv-x="654" 
d="M63 644h109v-280h310v280h109v-644h-109v280h-310v-280h-109v644z" />
    <glyph glyph-name="I" unicode="I" horiz-adv-x="235" 
d="M63 644h109v-644h-109v644z" />
    <glyph glyph-name="J" unicode="J" horiz-adv-x="431" 
d="M23 13v92q24 -11 56.5 -17t64.5 -6q66 0 93 27t27 89v446h109v-464q0 -93 -53 -141.5t-157 -48.5q-82 0 -140 23z" />
    <glyph glyph-name="K" unicode="K" horiz-adv-x="625" 
d="M63 644h109v-296l274 296h126l-237 -260l247 -384h-116l-199 315l-95 -102v-213h-109v644z" />
    <glyph glyph-name="L" unicode="L" horiz-adv-x="525" 
d="M63 644h109v-560h330v-84h-439v644z" />
    <glyph glyph-name="M" unicode="M" horiz-adv-x="757" 
d="M63 644h112l204 -417l203 417h112v-644h-108v467l-174 -356h-66l-175 356v-467h-108v644z" />
    <glyph glyph-name="N" unicode="N" horiz-adv-x="667" 
d="M63 644h96l336 -474v474h108v-644h-96l-335 473v-473h-109v644z" />
    <glyph glyph-name="O" unicode="O" horiz-adv-x="697" 
d="M118.5 70.5q-75.5 80.5 -75.5 249.5q0 174 75 254t230 80t230 -80t75 -254q0 -169 -75.5 -249.5t-229.5 -80.5t-229.5 80.5zM497 138q47 56 47 182q0 131 -46.5 186t-149.5 55q-102 0 -148.5 -55t-46.5 -186q0 -125 47 -181.5t148 -56.5q102 0 149 56z" />
    <glyph glyph-name="P" unicode="P" horiz-adv-x="590" 
d="M63 644h287q107 0 161.5 -59t54.5 -156q0 -96 -59.5 -154t-160.5 -58h-174v-217h-109v644zM326 303q63 0 97 33.5t34 92.5q0 62 -32 96t-94 34h-159v-256h154z" />
    <glyph glyph-name="Q" unicode="Q" horiz-adv-x="697" 
d="M293 -7q-126 14 -188 94t-62 233q0 174 75 254t230 80t230 -80t75 -254q0 -157 -65 -237t-198 -91q1 -46 17.5 -63.5t56.5 -17.5q36 0 71 10v-81q-17 -5 -43 -8.5t-51 -3.5q-145 0 -148 165zM497 138q47 56 47 182q0 131 -46.5 186t-149.5 55q-102 0 -148.5 -55
t-46.5 -186q0 -125 47 -181.5t148 -56.5q102 0 149 56z" />
    <glyph glyph-name="R" unicode="R" horiz-adv-x="610" 
d="M63 644h296q105 0 156 -54t51 -152q0 -69 -34.5 -116.5t-97.5 -66.5q17 -12 27 -26.5t21 -41.5l81 -187h-112l-79 180q-12 27 -28 37.5t-51 10.5h-121v-228h-109v644zM330 316q127 0 127 122q0 121 -117 121h-168v-243h158z" />
    <glyph glyph-name="S" unicode="S" horiz-adv-x="555" 
d="M57 22v96q93 -36 191 -36q81 0 117.5 19t36.5 71q0 33 -15.5 52.5t-50.5 33.5t-105 32q-104 27 -146 68.5t-42 114.5q0 86 63 133.5t184 47.5q53 0 102.5 -7.5t80.5 -18.5v-96q-76 29 -168 29q-76 0 -114 -20t-38 -68q0 -29 14 -46.5t46.5 -31t97.5 -29.5
q113 -29 157 -75t44 -119q0 -86 -64.5 -134t-189.5 -48t-201 32z" />
    <glyph glyph-name="T" unicode="T" horiz-adv-x="568" 
d="M230 559h-206v85h520v-85h-205v-559h-109v559z" />
    <glyph glyph-name="U" unicode="U" horiz-adv-x="674" 
d="M131 54q-73 64 -73 185v405h109v-401q0 -80 44 -120.5t127 -40.5q82 0 126 40.5t44 120.5v401h108v-405q0 -121 -72.5 -185t-205.5 -64q-134 0 -207 64z" />
    <glyph glyph-name="V" unicode="V" horiz-adv-x="700" 
d="M44 644h113l193 -527l193 527h113l-244 -644h-122z" />
    <glyph glyph-name="W" unicode="W" horiz-adv-x="869" 
d="M44 644h107l109 -483l122 405v78h89l137 -483l111 483h106l-149 -644h-107l-129 451l-137 -451h-109z" />
    <glyph glyph-name="X" unicode="X" horiz-adv-x="677" 
d="M273 321l-225 323h126l164 -239l164 239h127l-226 -323l230 -321h-128l-167 236l-167 -236h-128z" />
    <glyph glyph-name="Y" unicode="Y" horiz-adv-x="656" 
d="M274 239l-231 405h113l172 -313l172 313h113l-231 -405v-239h-108v239z" />
    <glyph glyph-name="Z" unicode="Z" horiz-adv-x="575" 
d="M43 58l346 497h-329v89h469v-67l-343 -493h348v-84h-491v58z" />
    <glyph glyph-name="bracketleft" unicode="[" horiz-adv-x="351" 
d="M43 706h271l3 -85h-165v-636h166l-4 -84h-271v805z" />
    <glyph glyph-name="backslash" unicode="\" horiz-adv-x="451" 
d="M43 662h112l252 -716h-111z" />
    <glyph glyph-name="bracketright" unicode="]" horiz-adv-x="351" 
d="M33 -15h166v636h-165l3 85h271v-805h-271z" />
    <glyph glyph-name="asciicircum" unicode="^" horiz-adv-x="476" 
d="M196 624h79l157 -237h-101l-93 158l-93 -158h-102z" />
    <glyph glyph-name="underscore" unicode="_" horiz-adv-x="541" 
d="M43 0h454v-77h-454v77z" />
    <glyph glyph-name="grave" unicode="`" horiz-adv-x="261" 
d="M44 699h96l75 -177h-87z" />
    <glyph glyph-name="a" unicode="a" horiz-adv-x="547" 
d="M91 27.5q-48 37.5 -48 107.5t47.5 110.5t142.5 40.5h152v21q0 35 -10.5 54.5t-38.5 28.5t-80 9q-84 0 -157 -25v81q34 13 80 21t97 8q106 0 159.5 -43t53.5 -136v-305h-93l-7 48q-30 -29 -73 -43.5t-105 -14.5q-72 0 -120 37.5zM324 84q37 16 61 45v83h-150
q-48 0 -69.5 -18t-21.5 -57q0 -36 24 -52.5t72 -16.5q47 0 84 16z" />
    <glyph glyph-name="b" unicode="b" horiz-adv-x="582" 
d="M234 3.5q-38 13.5 -71 43.5l-6 -47h-94v674h109v-231q61 41 149 41q105 0 161.5 -59.5t56.5 -183.5q0 -126 -56.5 -188.5t-159.5 -62.5q-51 0 -89 13.5zM397.5 113q31.5 41 31.5 128t-32.5 123.5t-104.5 36.5q-74 0 -120 -41v-238q47 -50 122 -50q72 0 103.5 41z" />
    <glyph glyph-name="c" unicode="c" horiz-adv-x="493" 
d="M107 53q-64 63 -64 184q0 122 69 184.5t190 62.5q48 0 81.5 -7t65.5 -22v-81q-52 26 -126 26q-85 0 -127.5 -38t-42.5 -125q0 -86 39.5 -125t128.5 -39q71 0 129 27v-83q-66 -27 -154 -27q-125 0 -189 63z" />
    <glyph glyph-name="d" unicode="d" horiz-adv-x="582" 
d="M99.5 44.5q-56.5 54.5 -56.5 177.5q0 83 29 142t80 89.5t117 30.5q42 0 76 -10t65 -31v231h109v-674h-93l-7 47q-33 -30 -71 -43.5t-89 -13.5q-103 0 -159.5 54.5zM410 122v237q-47 42 -118 42q-69 0 -104 -46t-35 -134q0 -83 31.5 -116t103.5 -33q73 0 122 50z" />
    <glyph glyph-name="e" unicode="e" horiz-adv-x="537" 
d="M110 52q-67 62 -67 186q0 117 59 181.5t175 64.5q105 0 161 -55t56 -147v-88h-347q8 -68 49 -94.5t129 -26.5q36 0 73.5 7t66.5 18v-80q-63 -28 -162 -28q-126 0 -193 62zM398 265v33q0 51 -28 77.5t-90 26.5q-74 0 -103.5 -32t-29.5 -105h251z" />
    <glyph glyph-name="f" unicode="f" horiz-adv-x="350" 
d="M92 389h-69v85h69v58q0 72 40.5 115t116.5 43q51 0 97 -17v-78q-31 11 -63 11q-47 0 -65 -16.5t-18 -58.5v-57h124l-5 -85h-119v-389h-108v389z" />
    <glyph glyph-name="g" unicode="g" horiz-adv-x="554" 
d="M147.5 -169q-52.5 7 -88.5 19v84q38 -13 90 -20t101 -7q76 0 107 8.5t31 35.5q0 21 -16.5 29.5t-60.5 8.5h-128q-63 0 -96 23.5t-33 67.5q0 31 18 55.5t53 36.5q-80 39 -80 139q0 90 54 131.5t164 41.5q40 0 87 -10h174l-3 -71h-80q37 -33 37 -92q0 -78 -46.5 -120.5
t-138.5 -42.5q-24 0 -59 5q-32 -3 -55 -16.5t-23 -34.5q0 -15 12 -21.5t40 -6.5h133q71 0 109.5 -30.5t38.5 -88.5q0 -69 -58.5 -100t-175.5 -31q-55 0 -107.5 7zM353.5 238.5q25.5 21.5 25.5 75.5t-26 77.5t-90 23.5q-62 0 -89.5 -23.5t-27.5 -77.5q0 -52 26.5 -74.5
t90.5 -22.5q65 0 90.5 21.5z" />
    <glyph glyph-name="h" unicode="h" horiz-adv-x="578" 
d="M63 674h109v-246q32 26 75.5 41t95.5 15q90 0 133 -43t43 -134v-307h-108v302q0 55 -23.5 77t-81.5 22q-36 0 -73 -15.5t-61 -40.5v-345h-109v674z" />
    <glyph glyph-name="i" unicode="i" horiz-adv-x="308" 
d="M126 663h119v-90h-119v90zM135 391h-72l10 83h171v-474h-109v391z" />
    <glyph glyph-name="j" unicode="j" horiz-adv-x="306" 
d="M124 663h119v-90h-119v90zM-10 -218v79q31 -10 61 -10q47 0 65.5 16.5t18.5 56.5v467h-72l10 83h170v-560q0 -69 -39.5 -108.5t-114.5 -39.5q-58 0 -99 16z" />
    <glyph glyph-name="k" unicode="k" horiz-adv-x="550" 
d="M63 674h109v-390l199 190h125l-193 -191l204 -283h-115l-157 225l-63 -60v-165h-109v674z" />
    <glyph glyph-name="l" unicode="l" horiz-adv-x="280" 
d="M92 19q-29 29 -29 94v561h109v-551q0 -27 9.5 -37.5t30.5 -10.5q24 0 46 6v-79q-33 -12 -77 -12q-60 0 -89 29z" />
    <glyph glyph-name="m" unicode="m" horiz-adv-x="856" 
d="M63 474h100l5 -50q76 60 167 60q49 0 78 -15.5t45 -46.5q36 29 79.5 45.5t99.5 16.5q82 0 121 -42t39 -129v-313h-107v302q0 54 -23 76.5t-75 22.5q-34 0 -65 -12t-52 -36q5 -19 5 -49v-304h-101v301q0 54 -18.5 77t-67.5 23q-63 0 -123 -56v-345h-107v474z" />
    <glyph glyph-name="n" unicode="n" horiz-adv-x="578" 
d="M63 474h100l5 -50q34 27 79 43.5t96 16.5q92 0 134 -43t42 -134v-307h-108v302q0 55 -23 77t-84 22q-37 0 -72.5 -15t-59.5 -39v-347h-109v474z" />
    <glyph glyph-name="o" unicode="o" horiz-adv-x="581" 
d="M43 237q0 247 247 247q248 0 248 -247t-248 -247q-247 0 -247 247zM396.5 118q31.5 36 31.5 119q0 82 -31.5 118t-106.5 36q-74 0 -105.5 -36t-31.5 -118q0 -83 31.5 -119t105.5 -36q75 0 106.5 36z" />
    <glyph glyph-name="p" unicode="p" horiz-adv-x="582" 
d="M63 474h94l6 -47q33 29 71 43t89 14q106 0 161 -57t55 -182q0 -126 -58 -190.5t-162 -64.5q-86 0 -147 40v-246h-109v690zM395 115q34 43 34 131q0 84 -31 119.5t-104 35.5t-122 -50v-237q48 -42 119 -42q70 0 104 43z" />
    <glyph glyph-name="q" unicode="q" horiz-adv-x="631" 
d="M441.5 -210q-31.5 32 -31.5 100v140q-61 -40 -147 -40q-220 0 -220 239q0 126 57 190.5t160 64.5q51 0 88.5 -14t70.5 -43l7 47h93v-576q0 -32 10.5 -43.5t40.5 -11.5q18 0 42 6v-79q-34 -12 -75 -12q-64 0 -95.5 32zM410 114v237q-49 50 -121 50q-71 0 -103.5 -42.5
t-32.5 -128.5t33 -122t105 -36q71 0 119 42z" />
    <glyph glyph-name="r" unicode="r" horiz-adv-x="367" 
d="M63 474h100l6 -55q34 22 81 40t93 25v-83q-43 -8 -93 -24.5t-78 -34.5v-342h-109v474z" />
    <glyph glyph-name="s" unicode="s" horiz-adv-x="464" 
d="M128 -3.5q-45 6.5 -74 17.5v92q33 -13 73.5 -20t79.5 -7q58 0 81 10t23 39q0 26 -21 38.5t-79 30.5l-30 10q-72 24 -105 53.5t-33 87.5q0 67 48 101.5t150 34.5q39 0 76.5 -6t64.5 -15v-91q-27 11 -60.5 17t-63.5 6q-55 0 -80 -9.5t-25 -35.5q0 -23 19 -34.5t75 -29.5
l22 -7q58 -18 90 -36.5t46.5 -45t14.5 -68.5q0 -139 -199 -139q-48 0 -93 6.5z" />
    <glyph glyph-name="t" unicode="t" horiz-adv-x="363" 
d="M131 29.5q-38 39.5 -38 111.5v248h-70v85h70v109l108 33v-142h126l-7 -85h-119v-242q0 -41 18.5 -57.5t62.5 -16.5q27 0 57 10v-77q-39 -16 -95 -16q-75 0 -113 39.5z" />
    <glyph glyph-name="u" unicode="u" horiz-adv-x="578" 
d="M103.5 37.5q-45.5 47.5 -45.5 137.5v299h109v-299q0 -53 26 -78t80 -25q39 0 73 14.5t60 40.5v347h108v-474h-99l-5 49q-75 -59 -176 -59q-85 0 -130.5 47.5z" />
    <glyph glyph-name="v" unicode="v" horiz-adv-x="578" 
d="M43 474h113l133 -368l133 368h112l-186 -474h-118z" />
    <glyph glyph-name="w" unicode="w" horiz-adv-x="746" 
d="M43 474h109l82 -345l93 287v58h83l103 -345l82 345h108l-124 -474h-103l-101 310l-103 -310h-104z" />
    <glyph glyph-name="x" unicode="x" horiz-adv-x="567" 
d="M224 241l-174 233h117l116 -158l116 158h117l-173 -233l180 -241h-118l-122 165l-122 -165h-118z" />
    <glyph glyph-name="y" unicode="y" horiz-adv-x="598" 
d="M78 -162v81q28 -10 61 -10q30 0 49 9.5t33 29.5t33 58l-211 468h113l152 -352l154 352h112l-193 -447q-43 -102 -89.5 -152.5t-121.5 -50.5q-54 0 -92 14z" />
    <glyph glyph-name="z" unicode="z" horiz-adv-x="487" 
d="M43 57l259 328h-247v89h381v-67l-254 -323h261v-84h-400v57z" />
    <glyph glyph-name="braceleft" unicode="{" horiz-adv-x="304" 
d="M112.5 -76q-24.5 28 -24.5 88v160q0 45 -14 66.5t-51 25.5v68q40 5 52.5 27.5t12.5 73.5v157q0 60 25 85t91 25h66v-84h-29q-26 0 -35.5 -11t-9.5 -40v-174q0 -31 -13.5 -56.5t-41.5 -36.5q28 -11 41.5 -36.5t13.5 -56.5v-174q0 -29 9.5 -40t35.5 -11h29v-84h-75
q-58 0 -82.5 28z" />
    <glyph glyph-name="bar" unicode="|" horiz-adv-x="196" 
d="M43 735h109v-855h-109v855z" />
    <glyph glyph-name="braceright" unicode="}" horiz-adv-x="304" 
d="M33 -20h29q26 0 35.5 11t9.5 40v174q0 31 13.5 56.5t41.5 36.5q-28 11 -41.5 36.5t-13.5 56.5v174q0 29 -9.5 40t-35.5 11h-29v84h66q66 0 91 -25t25 -85v-157q0 -51 12.5 -73.5t52.5 -27.5v-68q-37 -4 -51 -25.5t-14 -66.5v-160q0 -60 -24.5 -88t-82.5 -28h-75v84z" />
    <glyph glyph-name="asciitilde" unicode="~" horiz-adv-x="562" 
d="M347.5 225.5q-25.5 8.5 -66.5 26.5q-37 17 -64 26t-55 9q-38 0 -66.5 -14.5t-52.5 -45.5v108q17 23 49.5 37.5t69.5 14.5q31 0 59 -9.5t68 -27.5q38 -17 62 -25t50 -8q38 0 65.5 14t51.5 45v-108q-17 -24 -48 -37.5t-69 -13.5q-28 0 -53.5 8.5z" />
    <glyph glyph-name="uni00A0" unicode="&#xa0;" horiz-adv-x="370" 
 />
    <glyph glyph-name="exclamdown" unicode="&#xa1;" horiz-adv-x="203" 
d="M43 608h116v-82h-116v82zM47 125l6 322h97l6 -322v-161h-109v161z" />
    <glyph glyph-name="cent" unicode="&#xa2;" horiz-adv-x="493" 
d="M260 -8q-107 8 -162 71t-55 174q0 110 57.5 172t159.5 73v78h80v-77q60 -4 109 -28v-81q-44 22 -109 25v-326q59 3 110 27v-83q-48 -20 -110 -25v-78h-80v78zM260 394q-54 -12 -80.5 -50t-26.5 -107q0 -70 25.5 -108.5t81.5 -50.5v316z" />
    <glyph glyph-name="sterling" unicode="&#xa3;" horiz-adv-x="498" 
d="M43 84h25q28 0 42 17t14 48v150h-68v84h68v106q0 76 48.5 120.5t126.5 44.5q70 0 117 -21v-78q-13 7 -37 11t-47 4q-51 0 -75.5 -20.5t-24.5 -66.5v-100h182l-4 -84h-178v-145q0 -26 -5.5 -42.5t-19.5 -27.5h247v-84h-411v84z" />
    <glyph glyph-name="currency" unicode="&#xa4;" horiz-adv-x="572" 
d="M43 114l82 60q-29 41 -29 95q0 53 29 93l-81 62l48 59l83 -65q50 38 110 38q62 0 111 -39l84 66l48 -59l-82 -62q30 -43 30 -93t-30 -95l82 -61l-48 -59l-84 64q-48 -37 -110 -37t-110 37l-84 -64zM363 191q32 32 32 78t-32.5 78t-77.5 32q-46 0 -77 -32t-31 -78
t31.5 -78t76.5 -32q46 0 78 32z" />
    <glyph glyph-name="yen" unicode="&#xa5;" horiz-adv-x="656" 
d="M274 90h-151v68h151v54h-151v68h127l-207 364h113l172 -313l172 313h113l-208 -364h128v-68h-151v-54h151v-68h-151v-90h-108v90z" />
    <glyph glyph-name="brokenbar" unicode="&#xa6;" horiz-adv-x="196" 
d="M43 735h109v-321h-109v321zM43 200h109v-320h-109v320z" />
    <glyph glyph-name="section" unicode="&#xa7;" horiz-adv-x="555" 
d="M57 22v96q93 -36 191 -36q79 0 116.5 19.5t37.5 70.5q0 32 -18.5 52t-53 33.5t-100.5 30.5q-71 19 -111 40.5t-58 51t-18 72.5q0 40 19 67q-18 31 -18 72q0 83 61.5 128.5t184.5 45.5q49 0 100 -8t83 -18v-96q-81 29 -170 29q-68 0 -109 -19t-41 -69q0 -29 14.5 -47.5
t47.5 -32t96 -28.5q81 -20 124 -41.5t60 -49.5t17 -71q0 -16 -5.5 -38t-13.5 -36q19 -32 19 -71q0 -88 -65 -133.5t-189 -45.5q-125 0 -201 32zM419 326q0 16 -13 27.5t-44 22.5t-91 26q-49 13 -77.5 24.5t-44.5 27.5q-4 -12 -4 -21q0 -17 12.5 -27.5t39.5 -20t85 -24.5
q103 -27 132 -60q5 13 5 25z" />
    <glyph glyph-name="dieresis" unicode="&#xa8;" horiz-adv-x="365" 
d="M43 645h92v-86h-92v86zM229 645h92v-86h-92v86z" />
    <glyph glyph-name="copyright" unicode="&#xa9;" horiz-adv-x="751" 
d="M208.5 34.5q-76.5 44.5 -121 121t-44.5 166.5t44.5 166.5t121 121t166.5 44.5t166.5 -44.5t121 -121t44.5 -166.5t-44.5 -166.5t-121 -121t-166.5 -44.5t-166.5 44.5zM509 91q60 34 94 94.5t34 136.5q0 75 -34 135t-94 94.5t-134 34.5t-133 -34.5t-93 -94.5t-34 -135
q0 -76 34 -136.5t93 -94.5t133 -34t134 34zM216.5 158.5q-57.5 59.5 -57.5 162.5q0 71 29.5 121t79.5 75.5t113 25.5q75 0 128 -33v-61q-50 27 -111 27q-74 0 -117.5 -37.5t-43.5 -117.5q0 -83 39 -119.5t118 -36.5q30 0 61 8t55 22v-64q-58 -32 -135 -32
q-101 0 -158.5 59.5z" />
    <glyph glyph-name="ordfeminine" unicode="&#xaa;" horiz-adv-x="343" 
d="M69.5 399.5q-26.5 19.5 -26.5 59.5q0 87 107 87h82v9q0 26 -14 36t-56 10q-43 0 -85 -14v51q44 16 99 16q59 0 91 -24.5t32 -75.5v-168h-60l-4 26q-19 -17 -41.5 -24.5t-55.5 -7.5q-42 0 -68.5 19.5zM232 462v39h-70q-30 0 -42.5 -8.5t-12.5 -30.5q0 -19 13 -27t38 -8
q49 0 74 35z" />
    <glyph glyph-name="guillemotleft" unicode="&#xab;" horiz-adv-x="620" 
d="M43 263v46l258 190l43 -62l-204 -152l204 -151l-43 -61zM276 263v46l258 190l42 -62l-203 -152l203 -151l-42 -61z" />
    <glyph glyph-name="logicalnot" unicode="&#xac;" horiz-adv-x="524" 
d="M393 286h-350v85h437v-230h-87v145z" />
    <glyph glyph-name="uni00AD" unicode="&#xad;" horiz-adv-x="468" 
d="M43 312h382v-85h-382v85z" />
    <glyph glyph-name="registered" unicode="&#xae;" horiz-adv-x="751" 
d="M208.5 34.5q-76.5 44.5 -121 121t-44.5 166.5t44.5 166.5t121 121t166.5 44.5t166.5 -44.5t121 -121t44.5 -166.5t-44.5 -166.5t-121 -121t-166.5 -44.5t-166.5 44.5zM509 91q60 34 94 94.5t34 136.5q0 75 -34 135t-94 94.5t-134 34.5t-133 -34.5t-93 -94.5t-34 -135
q0 -76 34 -136.5t93 -94.5t133 -34t134 34zM226 527h187q65 0 100 -34t35 -93q0 -46 -24 -77t-67 -41q11 -8 17.5 -17.5t14.5 -27.5l48 -117h-67l-49 121q-8 17 -19.5 22.5t-41.5 5.5h-65v-149h-69v407zM376 324q54 0 78.5 14.5t24.5 61.5q0 40 -18 56t-60 16h-106v-148h81z
" />
    <glyph glyph-name="macron" unicode="&#xaf;" horiz-adv-x="365" 
d="M33 634h298v-71h-298v71z" />
    <glyph glyph-name="degree" unicode="&#xb0;" horiz-adv-x="312" 
d="M75 531.5q-33 31.5 -33 80.5q0 48 33 79.5t80 31.5q48 0 81 -31t33 -80t-33 -80.5t-81 -31.5q-47 0 -80 31.5zM191.5 576q14.5 14 14.5 36q0 21 -14.5 35.5t-36.5 14.5q-21 0 -35 -14.5t-14 -35.5q0 -22 14 -36t35 -14q22 0 36.5 14z" />
    <glyph glyph-name="plusminus" unicode="&#xb1;" horiz-adv-x="473" 
d="M193 267h-147v85h147v146h87v-146h147v-85h-147v-141h-87v141zM46 85h381v-85h-381v85z" />
    <glyph glyph-name="uni00B2" unicode="&#xb2;" horiz-adv-x="301" 
d="M43 408q13 21 29 36t47 41q36 30 48 44t12 30q0 19 -12.5 27t-42.5 8q-35 0 -73 -15v59q19 6 45.5 11t51.5 5q50 0 78.5 -24t28.5 -61q0 -27 -11.5 -46t-40.5 -46l-21 -18q-21 -18 -32 -30h107v-59h-214v38z" />
    <glyph glyph-name="uni00B3" unicode="&#xb3;" horiz-adv-x="304" 
d="M83.5 365.5q-26.5 3.5 -40.5 9.5v54q34 -14 73 -14q36 0 51 8t15 27q0 35 -59 35h-39l4 48h32q29 0 42.5 9t13.5 28q0 16 -14.5 22.5t-44.5 6.5q-36 0 -69 -13v55q15 5 39.5 9t48.5 4q119 0 119 -80q0 -22 -10 -39.5t-31 -25.5q47 -13 47 -62q0 -85 -127 -85
q-24 0 -50.5 3.5z" />
    <glyph glyph-name="acute" unicode="&#xb4;" horiz-adv-x="261" 
d="M120 699h95l-83 -177h-88z" />
    <glyph glyph-name="paragraph" unicode="&#xb6;" horiz-adv-x="632" 
d="M296 253q-253 0 -253 224q0 120 69.5 176.5t190.5 56.5h295v-787h-109v703h-85v-703h-108v330z" />
    <glyph glyph-name="periodcentered" unicode="&#xb7;" horiz-adv-x="179" 
d="M43 327h92v-85h-92v85z" />
    <glyph glyph-name="cedilla" unicode="&#xb8;" horiz-adv-x="293" 
d="M72 -237.5q-23 2.5 -34 5.5v59q29 -8 62 -8q47 0 66 9t19 36q0 26 -18.5 33.5t-62.5 7.5h-40l29 95h73l-16 -47q53 0 81 -23.5t28 -66.5q0 -103 -148 -103q-16 0 -39 2.5z" />
    <glyph glyph-name="uni00B9" unicode="&#xb9;" horiz-adv-x="203" 
d="M104 581l-72 -15v59l147 29v-284h-75v211z" />
    <glyph glyph-name="ordmasculine" unicode="&#xba;" horiz-adv-x="363" 
d="M43 517q0 67 34.5 102t103.5 35q138 0 138 -137t-138 -137t-138 137zM234 452.5q16 20.5 16 64.5q0 43 -16 63.5t-53 20.5t-53.5 -20.5t-16.5 -63.5q0 -44 16.5 -64.5t53.5 -20.5t53 20.5z" />
    <glyph glyph-name="guillemotright" unicode="&#xbb;" horiz-adv-x="620" 
d="M43 134l204 151l-204 152l43 62l258 -190v-46l-258 -190zM276 134l203 151l-203 152l42 62l258 -190v-46l-258 -190z" />
    <glyph glyph-name="onequarter" unicode="&#xbc;" horiz-adv-x="644" 
d="M115 581l-72 -15v59l147 29v-284h-75v211zM435 644h102l-341 -644h-102zM495 54h-144v52l139 178h80v-177h30v-53h-30v-54h-75v54zM511 108v114l-87 -114h87z" />
    <glyph glyph-name="onehalf" unicode="&#xbd;" horiz-adv-x="651" 
d="M115 581l-72 -15v59l147 29v-284h-75v211zM435 644h102l-341 -644h-102zM383 38q13 21 29 36t47 41q36 30 48 44t12 30q0 19 -12.5 27t-42.5 8q-35 0 -73 -15v59q19 6 45.5 11t51.5 5q50 0 78.5 -24t28.5 -61q0 -27 -11.5 -46t-40.5 -46l-21 -18q-21 -18 -32 -30h107v-59
h-214v38z" />
    <glyph glyph-name="threequarters" unicode="&#xbe;" horiz-adv-x="660" 
d="M83.5 365.5q-26.5 3.5 -40.5 9.5v53q34 -14 73 -14q36 0 51 8t15 28q0 35 -59 35h-39l4 48h32q29 0 42.5 9t13.5 28q0 16 -14.5 23t-44.5 7q-36 0 -69 -13v54q15 5 39.5 9t48.5 4q119 0 119 -80q0 -22 -10 -39.5t-31 -25.5q47 -13 47 -62q0 -85 -127 -85q-24 0 -50.5 3.5
zM439 644h103l-341 -644h-102zM500 54h-145v52l140 178h79v-177h31v-53h-31v-54h-74v54zM516 108v114l-88 -114h88z" />
    <glyph glyph-name="questiondown" unicode="&#xbf;" horiz-adv-x="495" 
d="M261 608h116v-82h-116v82zM133 2q-57 48 -57 135q0 52 23 85.5t74 75.5q7 6 37 30.5t42 48t12 52.5v17h109v-22q0 -37 -15.5 -66t-36.5 -48.5t-59 -50.5t-57 -56t-19 -58q0 -53 31.5 -75.5t108.5 -22.5q40 0 82.5 10t75.5 26v-92q-35 -17 -83.5 -27t-102.5 -10
q-108 0 -165 48z" />
    <glyph glyph-name="Agrave" unicode="&#xc0;" horiz-adv-x="700" 
d="M215 865h95l76 -177h-88zM290 644h122l244 -644h-112l-64 166h-259l-64 -166h-113zM462 250l-112 295l-112 -295h224z" />
    <glyph glyph-name="Aacute" unicode="&#xc1;" horiz-adv-x="700" 
d="M385 865h96l-84 -177h-87zM290 644h122l244 -644h-112l-64 166h-259l-64 -166h-113zM462 250l-112 295l-112 -295h224z" />
    <glyph glyph-name="Acircumflex" unicode="&#xc2;" horiz-adv-x="700" 
d="M311 848h76l125 -161h-87l-76 101l-74 -101h-89zM290 644h122l244 -644h-112l-64 166h-259l-64 -166h-113zM462 250l-112 295l-112 -295h224z" />
    <glyph glyph-name="Atilde" unicode="&#xc3;" horiz-adv-x="700" 
d="M394 700q-17 5 -47 16q-25 9 -39.5 13.5t-29.5 4.5q-55 0 -87 -36v80q13 13 36.5 21.5t48.5 8.5q20 0 37.5 -5t42.5 -15q23 -9 39 -14t34 -5q52 0 80 37v-80q-10 -14 -31.5 -22.5t-47.5 -8.5q-19 0 -36 5zM290 644h122l244 -644h-112l-64 166h-259l-64 -166h-113z
M462 250l-112 295l-112 -295h224z" />
    <glyph glyph-name="Adieresis" unicode="&#xc4;" horiz-adv-x="700" 
d="M210 797h92v-86h-92v86zM396 797h92v-86h-92v86zM290 644h122l244 -644h-112l-64 166h-259l-64 -166h-113zM462 250l-112 295l-112 -295h224z" />
    <glyph glyph-name="Aring" unicode="&#xc5;" horiz-adv-x="700" 
d="M656 0h-112l-64 166h-259l-64 -166h-113l237 620q-23 16 -35.5 40.5t-12.5 53.5q0 49 32 81.5t84 32.5q53 0 85.5 -32.5t32.5 -81.5q0 -29 -12.5 -53t-34.5 -39zM306.5 756q-16.5 -17 -16.5 -42t16.5 -42t42.5 -17q27 0 44 17t17 42t-17 42t-44 17q-26 0 -42.5 -17z
M462 250l-112 295l-112 -295h224z" />
    <glyph glyph-name="AE" unicode="&#xc6;" horiz-adv-x="845" 
d="M290 644h512v-85h-287v-195h250v-84h-250v-196h287v-84h-395v167h-182l-64 -167h-117zM407 251v310h-39l-115 -310h154z" />
    <glyph glyph-name="Ccedilla" unicode="&#xc7;" horiz-adv-x="597" 
d="M388 -10l-13 -37q53 0 81 -23.5t28 -66.5q0 -103 -148 -103q-16 0 -39 2.5t-34 5.5v59q29 -8 62 -8q47 0 66 9t19 36q0 26 -18.5 33.5t-62.5 7.5h-40l27 87q-133 14 -203 98t-70 222q0 163 80 252.5t241 89.5q101 0 189 -31v-95q-85 33 -181 33q-117 0 -168 -62t-51 -187
q0 -114 54.5 -172t166.5 -58q99 0 180 31v-96q-78 -24 -166 -27z" />
    <glyph glyph-name="Egrave" unicode="&#xc8;" horiz-adv-x="550" 
d="M169 865h95l76 -177h-88zM63 644h449v-85h-340v-195h303v-84h-303v-196h340v-84h-449v644z" />
    <glyph glyph-name="Eacute" unicode="&#xc9;" horiz-adv-x="550" 
d="M305 865h96l-84 -177h-87zM63 644h449v-85h-340v-195h303v-84h-303v-196h340v-84h-449v644z" />
    <glyph glyph-name="Ecircumflex" unicode="&#xca;" horiz-adv-x="550" 
d="M242 848h76l125 -161h-87l-76 101l-74 -101h-89zM63 644h449v-85h-340v-195h303v-84h-303v-196h340v-84h-449v644z" />
    <glyph glyph-name="Edieresis" unicode="&#xcb;" horiz-adv-x="550" 
d="M146 798h92v-86h-92v86zM332 798h92v-86h-92v86zM63 644h449v-85h-340v-195h303v-84h-303v-196h340v-84h-449v644z" />
    <glyph glyph-name="Igrave" unicode="&#xcc;" horiz-adv-x="235" 
d="M-9 865h95l76 -177h-88zM63 644h109v-644h-109v644z" />
    <glyph glyph-name="Iacute" unicode="&#xcd;" horiz-adv-x="236" 
d="M145 865h96l-84 -177h-87zM63 644h109v-644h-109v644z" />
    <glyph glyph-name="Icircumflex" unicode="&#xce;" horiz-adv-x="235" 
d="M79 848h76l125 -161h-87l-76 101l-74 -101h-89zM63 644h109v-644h-109v644z" />
    <glyph glyph-name="Idieresis" unicode="&#xcf;" horiz-adv-x="235" 
d="M-22 801h92v-86h-92v86zM164 801h92v-86h-92v86zM63 644h109v-644h-109v644z" />
    <glyph glyph-name="Eth" unicode="&#xd0;" horiz-adv-x="689" 
d="M103 274h-70v84h70v286h261q145 0 213 -77t68 -249q0 -165 -68 -241.5t-213 -76.5h-261v274zM347 84q67 0 107.5 19.5t61 70.5t20.5 144q0 94 -19 146t-59.5 73.5t-110.5 21.5h-135v-201h165v-84h-165v-190h135z" />
    <glyph glyph-name="Ntilde" unicode="&#xd1;" horiz-adv-x="667" 
d="M380 708q-17 5 -47 16q-25 9 -39.5 13.5t-29.5 4.5q-55 0 -87 -36v80q13 13 36.5 21.5t48.5 8.5q20 0 37.5 -5t42.5 -15q23 -9 39 -14t34 -5q52 0 80 37v-80q-10 -14 -31.5 -22.5t-47.5 -8.5q-19 0 -36 5zM63 644h96l336 -474v474h108v-644h-96l-335 473v-473h-109v644z
" />
    <glyph glyph-name="Ograve" unicode="&#xd2;" horiz-adv-x="697" 
d="M227 865h95l76 -177h-88zM118.5 70.5q-75.5 80.5 -75.5 249.5q0 174 75 254t230 80t230 -80t75 -254q0 -169 -75.5 -249.5t-229.5 -80.5t-229.5 80.5zM497 138q47 56 47 182q0 131 -46.5 186t-149.5 55q-102 0 -148.5 -55t-46.5 -186q0 -125 47 -181.5t148 -56.5
q102 0 149 56z" />
    <glyph glyph-name="Oacute" unicode="&#xd3;" horiz-adv-x="697" 
d="M375 865h96l-84 -177h-87zM118.5 70.5q-75.5 80.5 -75.5 249.5q0 174 75 254t230 80t230 -80t75 -254q0 -169 -75.5 -249.5t-229.5 -80.5t-229.5 80.5zM497 138q47 56 47 182q0 131 -46.5 186t-149.5 55q-102 0 -148.5 -55t-46.5 -186q0 -125 47 -181.5t148 -56.5
q102 0 149 56z" />
    <glyph glyph-name="Ocircumflex" unicode="&#xd4;" horiz-adv-x="697" 
d="M310 848h76l125 -161h-87l-76 101l-74 -101h-89zM118.5 70.5q-75.5 80.5 -75.5 249.5q0 174 75 254t230 80t230 -80t75 -254q0 -169 -75.5 -249.5t-229.5 -80.5t-229.5 80.5zM497 138q47 56 47 182q0 131 -46.5 186t-149.5 55q-102 0 -148.5 -55t-46.5 -186
q0 -125 47 -181.5t148 -56.5q102 0 149 56z" />
    <glyph glyph-name="Otilde" unicode="&#xd5;" horiz-adv-x="697" 
d="M392 700q-17 5 -47 16q-25 9 -39.5 13.5t-29.5 4.5q-55 0 -87 -36v80q13 13 36.5 21.5t48.5 8.5q20 0 37.5 -5t42.5 -15q23 -9 39 -14t34 -5q52 0 80 37v-80q-10 -14 -31.5 -22.5t-47.5 -8.5q-19 0 -36 5zM118.5 70.5q-75.5 80.5 -75.5 249.5q0 174 75 254t230 80
t230 -80t75 -254q0 -169 -75.5 -249.5t-229.5 -80.5t-229.5 80.5zM497 138q47 56 47 182q0 131 -46.5 186t-149.5 55q-102 0 -148.5 -55t-46.5 -186q0 -125 47 -181.5t148 -56.5q102 0 149 56z" />
    <glyph glyph-name="Odieresis" unicode="&#xd6;" horiz-adv-x="697" 
d="M209 798h92v-86h-92v86zM395 798h92v-86h-92v86zM118.5 70.5q-75.5 80.5 -75.5 249.5q0 174 75 254t230 80t230 -80t75 -254q0 -169 -75.5 -249.5t-229.5 -80.5t-229.5 80.5zM497 138q47 56 47 182q0 131 -46.5 186t-149.5 55q-102 0 -148.5 -55t-46.5 -186
q0 -125 47 -181.5t148 -56.5q102 0 149 56z" />
    <glyph glyph-name="multiply" unicode="&#xd7;" horiz-adv-x="414" 
d="M208 199l-105 -104l-55 55l104 105l-109 108l55 55l107 -109l110 108l55 -55l-109 -109l109 -109l-53 -54z" />
    <glyph glyph-name="Oslash" unicode="&#xd8;" horiz-adv-x="697" 
d="M192 18q-75 34 -112 109t-37 193q0 174 75 254t230 80q42 0 79 -6l17 45h74l-24 -63q81 -32 120 -108t39 -202q0 -169 -75.5 -249.5t-229.5 -80.5q-47 0 -90 8l-19 -51h-74zM393 558q-21 3 -45 3q-102 0 -148.5 -55t-46.5 -186q0 -79 18 -130t56 -77zM497 138
q47 56 47 182q0 87 -21 140t-64 77l-168 -450q28 -5 57 -5q102 0 149 56z" />
    <glyph glyph-name="Ugrave" unicode="&#xd9;" horiz-adv-x="674" 
d="M224 865h95l76 -177h-88zM131 54q-73 64 -73 185v405h109v-401q0 -80 44 -120.5t127 -40.5q82 0 126 40.5t44 120.5v401h108v-405q0 -121 -72.5 -185t-205.5 -64q-134 0 -207 64z" />
    <glyph glyph-name="Uacute" unicode="&#xda;" horiz-adv-x="674" 
d="M363 865h96l-84 -177h-87zM131 54q-73 64 -73 185v405h109v-401q0 -80 44 -120.5t127 -40.5q82 0 126 40.5t44 120.5v401h108v-405q0 -121 -72.5 -185t-205.5 -64q-134 0 -207 64z" />
    <glyph glyph-name="Ucircumflex" unicode="&#xdb;" horiz-adv-x="674" 
d="M299 848h76l125 -161h-87l-76 101l-74 -101h-89zM131 54q-73 64 -73 185v405h109v-401q0 -80 44 -120.5t127 -40.5q82 0 126 40.5t44 120.5v401h108v-405q0 -121 -72.5 -185t-205.5 -64q-134 0 -207 64z" />
    <glyph glyph-name="Udieresis" unicode="&#xdc;" horiz-adv-x="674" 
d="M192 798h92v-86h-92v86zM378 798h92v-86h-92v86zM131 54q-73 64 -73 185v405h109v-401q0 -80 44 -120.5t127 -40.5q82 0 126 40.5t44 120.5v401h108v-405q0 -121 -72.5 -185t-205.5 -64q-134 0 -207 64z" />
    <glyph glyph-name="Yacute" unicode="&#xdd;" horiz-adv-x="656" 
d="M349 865h96l-84 -177h-87zM274 239l-231 405h113l172 -313l172 313h113l-231 -405v-239h-108v239z" />
    <glyph glyph-name="Thorn" unicode="&#xde;" horiz-adv-x="590" 
d="M63 644h109v-110h178q107 0 161.5 -58.5t54.5 -155.5q0 -96 -59.5 -154.5t-160.5 -58.5h-174v-107h-109v644zM326 193q63 0 97 34t34 93q0 62 -32 95t-94 33h-159v-255h154z" />
    <glyph glyph-name="germandbls" unicode="&#xdf;" horiz-adv-x="630" 
d="M238 12v92q50 -22 124 -22q54 0 84.5 29t30.5 82q0 57 -29.5 84.5t-94.5 27.5h-78v83h77q56 0 82 29t26 81t-34 80.5t-114 28.5q-72 0 -110.5 -37.5t-38.5 -114.5v-455h-105v458q0 70 31.5 125t89 86t133.5 31q81 0 137.5 -27.5t84.5 -73t28 -101.5q0 -53 -22 -92.5
t-58 -58.5q49 -15 77 -57t28 -103q0 -94 -53.5 -145.5t-151.5 -51.5q-85 0 -144 22z" />
    <glyph glyph-name="agrave" unicode="&#xe0;" horiz-adv-x="547" 
d="M168 699h95l76 -177h-88zM91 27.5q-48 37.5 -48 107.5t47.5 110.5t142.5 40.5h152v21q0 35 -10.5 54.5t-38.5 28.5t-80 9q-84 0 -157 -25v81q34 13 80 21t97 8q106 0 159.5 -43t53.5 -136v-305h-93l-7 48q-30 -29 -73 -43.5t-105 -14.5q-72 0 -120 37.5zM324 84
q37 16 61 45v83h-150q-48 0 -69.5 -18t-21.5 -57q0 -36 24 -52.5t72 -16.5q47 0 84 16z" />
    <glyph glyph-name="aacute" unicode="&#xe1;" horiz-adv-x="549" 
d="M311 699h96l-84 -177h-87zM91 27.5q-48 37.5 -48 107.5t47.5 110.5t142.5 40.5h152v21q0 35 -10.5 54.5t-38.5 28.5t-80 9q-84 0 -157 -25v81q34 13 80 21t97 8q106 0 159.5 -43t53.5 -136v-305h-93l-7 48q-30 -29 -73 -43.5t-105 -14.5q-72 0 -120 37.5zM324 84
q37 16 61 45v83h-150q-48 0 -69.5 -18t-21.5 -57q0 -36 24 -52.5t72 -16.5q47 0 84 16z" />
    <glyph glyph-name="acircumflex" unicode="&#xe2;" horiz-adv-x="547" 
d="M247 682h76l125 -161h-87l-76 101l-74 -101h-89zM91 27.5q-48 37.5 -48 107.5t47.5 110.5t142.5 40.5h152v21q0 35 -10.5 54.5t-38.5 28.5t-80 9q-84 0 -157 -25v81q34 13 80 21t97 8q106 0 159.5 -43t53.5 -136v-305h-93l-7 48q-30 -29 -73 -43.5t-105 -14.5
q-72 0 -120 37.5zM324 84q37 16 61 45v83h-150q-48 0 -69.5 -18t-21.5 -57q0 -36 24 -52.5t72 -16.5q47 0 84 16z" />
    <glyph glyph-name="atilde" unicode="&#xe3;" horiz-adv-x="547" 
d="M332 542q-17 5 -47 16q-25 9 -39.5 13.5t-29.5 4.5q-55 0 -87 -36v80q13 13 36.5 21.5t48.5 8.5q20 0 37.5 -5t42.5 -15q23 -9 39 -14t34 -5q52 0 80 37v-80q-10 -14 -31.5 -22.5t-47.5 -8.5q-19 0 -36 5zM91 27.5q-48 37.5 -48 107.5t47.5 110.5t142.5 40.5h152v21
q0 35 -10.5 54.5t-38.5 28.5t-80 9q-84 0 -157 -25v81q34 13 80 21t97 8q106 0 159.5 -43t53.5 -136v-305h-93l-7 48q-30 -29 -73 -43.5t-105 -14.5q-72 0 -120 37.5zM324 84q37 16 61 45v83h-150q-48 0 -69.5 -18t-21.5 -57q0 -36 24 -52.5t72 -16.5q47 0 84 16z" />
    <glyph glyph-name="adieresis" unicode="&#xe4;" horiz-adv-x="547" 
d="M152 632h92v-86h-92v86zM338 632h92v-86h-92v86zM91 27.5q-48 37.5 -48 107.5t47.5 110.5t142.5 40.5h152v21q0 35 -10.5 54.5t-38.5 28.5t-80 9q-84 0 -157 -25v81q34 13 80 21t97 8q106 0 159.5 -43t53.5 -136v-305h-93l-7 48q-30 -29 -73 -43.5t-105 -14.5
q-72 0 -120 37.5zM324 84q37 16 61 45v83h-150q-48 0 -69.5 -18t-21.5 -57q0 -36 24 -52.5t72 -16.5q47 0 84 16z" />
    <glyph glyph-name="aring" unicode="&#xe5;" horiz-adv-x="547" 
d="M207 553.5q-32 32.5 -32 80.5q0 49 32 81.5t84 32.5q53 0 85.5 -32.5t32.5 -81.5q0 -48 -32.5 -80.5t-85.5 -32.5q-52 0 -84 32.5zM335 592q17 17 17 42t-17 42t-44 17q-26 0 -42.5 -17t-16.5 -42t16.5 -42t42.5 -17q27 0 44 17zM91 27.5q-48 37.5 -48 107.5t47.5 110.5
t142.5 40.5h152v21q0 35 -10.5 54.5t-38.5 28.5t-80 9q-84 0 -157 -25v81q34 13 80 21t97 8q106 0 159.5 -43t53.5 -136v-305h-93l-7 48q-30 -29 -73 -43.5t-105 -14.5q-72 0 -120 37.5zM324 84q37 16 61 45v83h-150q-48 0 -69.5 -18t-21.5 -57q0 -36 24 -52.5t72 -16.5
q47 0 84 16z" />
    <glyph glyph-name="ae" unicode="&#xe6;" horiz-adv-x="881" 
d="M92.5 27.5q-49.5 37.5 -49.5 107.5t47.5 110.5t142.5 40.5h152v21q0 35 -10.5 54.5t-38.5 28.5t-80 9q-84 0 -157 -25v81q34 13 80 21t97 8q122 0 173 -63q29 30 73 46.5t99 16.5q105 0 161 -55t56 -147v-88h-347q8 -68 49 -95t129 -27q37 0 74.5 6.5t65.5 18.5v-79
q-63 -28 -162 -28q-67 0 -119 21t-82 62q-41 -40 -93 -61.5t-136 -21.5q-75 0 -124.5 37.5zM742 265v33q0 51 -28 77.5t-90 26.5q-74 0 -103.5 -32t-29.5 -105h251zM324.5 83q34.5 15 60.5 44v85h-150q-48 0 -69.5 -18t-21.5 -57q0 -36 24 -52.5t72 -16.5q50 0 84.5 15z" />
    <glyph glyph-name="ccedilla" unicode="&#xe7;" horiz-adv-x="493" 
d="M318 -10l-13 -37q53 0 81 -23.5t28 -66.5q0 -103 -148 -103q-16 0 -39 2.5t-34 5.5v59q29 -8 62 -8q47 0 66 9t19 36q0 26 -18.5 33.5t-62.5 7.5h-40l27 88q-100 12 -151.5 74t-51.5 170q0 122 69 184.5t190 62.5q48 0 81.5 -7t65.5 -22v-81q-52 26 -126 26
q-85 0 -127.5 -38t-42.5 -125q0 -86 39.5 -125t128.5 -39q71 0 129 27v-83q-59 -24 -132 -27z" />
    <glyph glyph-name="egrave" unicode="&#xe8;" horiz-adv-x="537" 
d="M146 699h95l76 -177h-88zM110 52q-67 62 -67 186q0 117 59 181.5t175 64.5q105 0 161 -55t56 -147v-88h-347q8 -68 49 -94.5t129 -26.5q36 0 73.5 7t66.5 18v-80q-63 -28 -162 -28q-126 0 -193 62zM398 265v33q0 51 -28 77.5t-90 26.5q-74 0 -103.5 -32t-29.5 -105h251z
" />
    <glyph glyph-name="eacute" unicode="&#xe9;" horiz-adv-x="537" 
d="M300 699h96l-84 -177h-87zM110 52q-67 62 -67 186q0 117 59 181.5t175 64.5q105 0 161 -55t56 -147v-88h-347q8 -68 49 -94.5t129 -26.5q36 0 73.5 7t66.5 18v-80q-63 -28 -162 -28q-126 0 -193 62zM398 265v33q0 51 -28 77.5t-90 26.5q-74 0 -103.5 -32t-29.5 -105h251z
" />
    <glyph glyph-name="ecircumflex" unicode="&#xea;" horiz-adv-x="537" 
d="M234 682h76l125 -161h-87l-76 101l-74 -101h-89zM110 52q-67 62 -67 186q0 117 59 181.5t175 64.5q105 0 161 -55t56 -147v-88h-347q8 -68 49 -94.5t129 -26.5q36 0 73.5 7t66.5 18v-80q-63 -28 -162 -28q-126 0 -193 62zM398 265v33q0 51 -28 77.5t-90 26.5
q-74 0 -103.5 -32t-29.5 -105h251z" />
    <glyph glyph-name="edieresis" unicode="&#xeb;" horiz-adv-x="537" 
d="M132 632h92v-86h-92v86zM318 632h92v-86h-92v86zM110 52q-67 62 -67 186q0 117 59 181.5t175 64.5q105 0 161 -55t56 -147v-88h-347q8 -68 49 -94.5t129 -26.5q36 0 73.5 7t66.5 18v-80q-63 -28 -162 -28q-126 0 -193 62zM398 265v33q0 51 -28 77.5t-90 26.5
q-74 0 -103.5 -32t-29.5 -105h251z" />
    <glyph glyph-name="igrave" unicode="&#xec;" horiz-adv-x="308" 
d="M62 699h95l76 -177h-88zM135 391h-72l10 83h171v-474h-109v391z" />
    <glyph glyph-name="iacute" unicode="&#xed;" horiz-adv-x="308" 
d="M208 699h96l-84 -177h-87zM135 391h-72l10 83h171v-474h-109v391z" />
    <glyph glyph-name="icircumflex" unicode="&#xee;" horiz-adv-x="308" 
d="M130 682h76l125 -161h-87l-76 101l-74 -101h-89zM135 391h-72l10 83h171v-474h-109v391z" />
    <glyph glyph-name="idieresis" unicode="&#xef;" horiz-adv-x="308" 
d="M20 632h92v-86h-92v86zM206 632h92v-86h-92v86zM135 391h-72l10 83h171v-474h-109v391z" />
    <glyph glyph-name="eth" unicode="&#xf0;" horiz-adv-x="573" 
d="M103.5 44.5q-60.5 54.5 -60.5 152.5q0 101 58 153.5t165 52.5q39 0 83 -13.5t78 -37.5v41q0 76 -20 119l-128 -56v56l95 41q-36 27 -100 27q-75 0 -143 -25v75q67 24 158 24q110 0 172 -62l92 40v-57l-60 -26q37 -67 37 -167v-143q0 -128 -61 -188.5t-183 -60.5
t-182.5 54.5zM392 101q35 35 35 109v72q-32 22 -69 35.5t-72 13.5q-77 0 -111 -34.5t-34 -99.5q0 -62 36.5 -96.5t107.5 -34.5q72 0 107 35z" />
    <glyph glyph-name="ntilde" unicode="&#xf1;" horiz-adv-x="578" 
d="M336 542q-17 5 -47 16q-25 9 -39.5 13.5t-29.5 4.5q-55 0 -87 -36v80q13 13 36.5 21.5t48.5 8.5q20 0 37.5 -5t42.5 -15q23 -9 39 -14t34 -5q52 0 80 37v-80q-10 -14 -31.5 -22.5t-47.5 -8.5q-19 0 -36 5zM63 474h100l5 -50q34 27 79 43.5t96 16.5q92 0 134 -43t42 -134
v-307h-108v302q0 55 -23 77t-84 22q-37 0 -72.5 -15t-59.5 -39v-347h-109v474z" />
    <glyph glyph-name="ograve" unicode="&#xf2;" horiz-adv-x="581" 
d="M168 699h95l76 -177h-88zM43 237q0 247 247 247q248 0 248 -247t-248 -247q-247 0 -247 247zM396.5 118q31.5 36 31.5 119q0 82 -31.5 118t-106.5 36q-74 0 -105.5 -36t-31.5 -118q0 -83 31.5 -119t105.5 -36q75 0 106.5 36z" />
    <glyph glyph-name="oacute" unicode="&#xf3;" horiz-adv-x="581" 
d="M317 699h96l-84 -177h-87zM43 237q0 247 247 247q248 0 248 -247t-248 -247q-247 0 -247 247zM396.5 118q31.5 36 31.5 119q0 82 -31.5 118t-106.5 36q-74 0 -105.5 -36t-31.5 -118q0 -83 31.5 -119t105.5 -36q75 0 106.5 36z" />
    <glyph glyph-name="ocircumflex" unicode="&#xf4;" horiz-adv-x="581" 
d="M252 682h76l125 -161h-87l-76 101l-74 -101h-89zM43 237q0 247 247 247q248 0 248 -247t-248 -247q-247 0 -247 247zM396.5 118q31.5 36 31.5 119q0 82 -31.5 118t-106.5 36q-74 0 -105.5 -36t-31.5 -118q0 -83 31.5 -119t105.5 -36q75 0 106.5 36z" />
    <glyph glyph-name="otilde" unicode="&#xf5;" horiz-adv-x="581" 
d="M334 550q-17 5 -47 16q-25 9 -39.5 13.5t-29.5 4.5q-55 0 -87 -36v80q13 13 36.5 21.5t48.5 8.5q20 0 37.5 -5t42.5 -15q23 -9 39 -14t34 -5q52 0 80 37v-80q-10 -14 -31.5 -22.5t-47.5 -8.5q-19 0 -36 5zM43 237q0 247 247 247q248 0 248 -247t-248 -247
q-247 0 -247 247zM396.5 118q31.5 36 31.5 119q0 82 -31.5 118t-106.5 36q-74 0 -105.5 -36t-31.5 -118q0 -83 31.5 -119t105.5 -36q75 0 106.5 36z" />
    <glyph glyph-name="odieresis" unicode="&#xf6;" horiz-adv-x="581" 
d="M151 632h92v-86h-92v86zM337 632h92v-86h-92v86zM43 237q0 247 247 247q248 0 248 -247t-248 -247q-247 0 -247 247zM396.5 118q31.5 36 31.5 119q0 82 -31.5 118t-106.5 36q-74 0 -105.5 -36t-31.5 -118q0 -83 31.5 -119t105.5 -36q75 0 106.5 36z" />
    <glyph glyph-name="divide" unicode="&#xf7;" horiz-adv-x="468" 
d="M192 478h88v-81h-88v81zM46 312h381v-85h-381v85zM192 147h88v-81h-88v81z" />
    <glyph glyph-name="oslash" unicode="&#xf8;" horiz-adv-x="581" 
d="M168 10q-125 51 -125 227q0 247 247 247q29 0 53 -3l18 47h74l-24 -65q127 -50 127 -226q0 -247 -248 -247q-21 0 -55 4l-17 -48h-74zM309 390l-19 1q-74 0 -105.5 -36t-31.5 -118q0 -53 11.5 -85.5t37.5 -49.5zM396.5 118q31.5 36 31.5 119q0 102 -52 134l-107 -288
q6 -1 21 -1q75 0 106.5 36z" />
    <glyph glyph-name="ugrave" unicode="&#xf9;" horiz-adv-x="578" 
d="M170 699h95l76 -177h-88zM103.5 37.5q-45.5 47.5 -45.5 137.5v299h109v-299q0 -53 26 -78t80 -25q39 0 73 14.5t60 40.5v347h108v-474h-99l-5 49q-75 -59 -176 -59q-85 0 -130.5 47.5z" />
    <glyph glyph-name="uacute" unicode="&#xfa;" horiz-adv-x="578" 
d="M302 699h96l-84 -177h-87zM103.5 37.5q-45.5 47.5 -45.5 137.5v299h109v-299q0 -53 26 -78t80 -25q39 0 73 14.5t60 40.5v347h108v-474h-99l-5 49q-75 -59 -176 -59q-85 0 -130.5 47.5z" />
    <glyph glyph-name="ucircumflex" unicode="&#xfb;" horiz-adv-x="578" 
d="M247 682h76l125 -161h-87l-76 101l-74 -101h-89zM103.5 37.5q-45.5 47.5 -45.5 137.5v299h109v-299q0 -53 26 -78t80 -25q39 0 73 14.5t60 40.5v347h108v-474h-99l-5 49q-75 -59 -176 -59q-85 0 -130.5 47.5z" />
    <glyph glyph-name="udieresis" unicode="&#xfc;" horiz-adv-x="578" 
d="M145 630h92v-86h-92v86zM331 630h92v-86h-92v86zM103.5 37.5q-45.5 47.5 -45.5 137.5v299h109v-299q0 -53 26 -78t80 -25q39 0 73 14.5t60 40.5v347h108v-474h-99l-5 49q-75 -59 -176 -59q-85 0 -130.5 47.5z" />
    <glyph glyph-name="yacute" unicode="&#xfd;" horiz-adv-x="598" 
d="M331 699h96l-84 -177h-87zM78 -162v81q28 -10 61 -10q30 0 49 9.5t33 29.5t33 58l-211 468h113l152 -352l154 352h112l-193 -447q-43 -102 -89.5 -152.5t-121.5 -50.5q-54 0 -92 14z" />
    <glyph glyph-name="thorn" unicode="&#xfe;" horiz-adv-x="582" 
d="M63 700h109v-257q60 41 150 41q104 0 160.5 -61t56.5 -186t-57.5 -186t-162.5 -61q-86 0 -147 40v-246h-109v916zM395.5 111.5q33.5 39.5 33.5 126.5q0 85 -31.5 124t-103.5 39q-73 0 -122 -50v-237q48 -42 119 -42t104.5 39.5z" />
    <glyph glyph-name="ydieresis" unicode="&#xff;" horiz-adv-x="598" 
d="M172 642h92v-86h-92v86zM358 642h92v-86h-92v86zM78 -162v81q28 -10 61 -10q30 0 49 9.5t33 29.5t33 58l-211 468h113l152 -352l154 352h112l-193 -447q-43 -102 -89.5 -152.5t-121.5 -50.5q-54 0 -92 14z" />
    <glyph glyph-name="Amacron" unicode="&#x100;" horiz-adv-x="700" 
d="M200 780h298v-71h-298v71zM290 644h122l244 -644h-112l-64 166h-259l-64 -166h-113zM462 250l-112 295l-112 -295h224z" />
    <glyph glyph-name="amacron" unicode="&#x101;" horiz-adv-x="547" 
d="M138 614h298v-71h-298v71zM91 27.5q-48 37.5 -48 107.5t47.5 110.5t142.5 40.5h152v21q0 35 -10.5 54.5t-38.5 28.5t-80 9q-84 0 -157 -25v81q34 13 80 21t97 8q106 0 159.5 -43t53.5 -136v-305h-93l-7 48q-30 -29 -73 -43.5t-105 -14.5q-72 0 -120 37.5zM324 84
q37 16 61 45v83h-150q-48 0 -69.5 -18t-21.5 -57q0 -36 24 -52.5t72 -16.5q47 0 84 16z" />
    <glyph glyph-name="Abreve" unicode="&#x102;" horiz-adv-x="700" 
d="M245.5 726q-37.5 38 -37.5 103h74q0 -35 17.5 -55.5t49.5 -20.5q33 0 51.5 20.5t18.5 55.5h74q0 -65 -38.5 -103t-105.5 -38q-66 0 -103.5 38zM290 644h122l244 -644h-112l-64 166h-259l-64 -166h-113zM462 250l-112 295l-112 -295h224z" />
    <glyph glyph-name="abreve" unicode="&#x103;" horiz-adv-x="547" 
d="M187.5 560q-37.5 38 -37.5 103h74q0 -35 17.5 -55.5t49.5 -20.5q33 0 51.5 20.5t18.5 55.5h74q0 -65 -38.5 -103t-105.5 -38q-66 0 -103.5 38zM91 27.5q-48 37.5 -48 107.5t47.5 110.5t142.5 40.5h152v21q0 35 -10.5 54.5t-38.5 28.5t-80 9q-84 0 -157 -25v81
q34 13 80 21t97 8q106 0 159.5 -43t53.5 -136v-305h-93l-7 48q-30 -29 -73 -43.5t-105 -14.5q-72 0 -120 37.5zM324 84q37 16 61 45v83h-150q-48 0 -69.5 -18t-21.5 -57q0 -36 24 -52.5t72 -16.5q47 0 84 16z" />
    <glyph glyph-name="Aogonek" unicode="&#x104;" horiz-adv-x="700" 
d="M642 -149q14 3 23 8v-66q-13 -6 -34 -9.5t-43 -3.5q-46 0 -76.5 22.5t-30.5 66.5q0 38 20 72.5t54 58.5h-11l-64 166h-259l-64 -166h-113l246 644h122l244 -644h-19q-33 -25 -51 -54t-18 -58q0 -22 11.5 -31t35.5 -9q13 0 27 3zM462 250l-112 295l-112 -295h224z" />
    <glyph glyph-name="aogonek" unicode="&#x105;" horiz-adv-x="556" 
d="M483 -149q14 3 23 8v-66q-13 -6 -34 -9.5t-43 -3.5q-46 0 -76.5 22.5t-30.5 66.5q0 38 20 72.5t54 58.5l-7 48q-30 -29 -73 -43.5t-105 -14.5q-72 0 -120 37.5t-48 107.5t47.5 110.5t142.5 40.5h152v21q0 35 -10.5 54.5t-38.5 28.5t-80 9q-84 0 -157 -25v81q34 13 80 21
t97 8q106 0 159.5 -43t53.5 -136v-305h-11q-33 -25 -51 -54t-18 -58q0 -22 11.5 -31t35.5 -9q13 0 27 3zM385 212h-150q-48 0 -69.5 -18t-21.5 -57q0 -36 24 -52.5t72 -16.5q47 0 84 16t61 45v83z" />
    <glyph glyph-name="Cacute" unicode="&#x106;" horiz-adv-x="597" 
d="M377 865h96l-84 -177h-87zM126 75.5q-83 85.5 -83 236.5q0 163 80 252.5t241 89.5q101 0 189 -31v-95q-85 33 -181 33q-117 0 -168 -62t-51 -187q0 -114 54.5 -172t166.5 -58q99 0 180 31v-96q-86 -27 -189 -27q-156 0 -239 85.5z" />
    <glyph glyph-name="cacute" unicode="&#x107;" horiz-adv-x="493" 
d="M302 699h96l-84 -177h-87zM107 53q-64 63 -64 184q0 122 69 184.5t190 62.5q48 0 81.5 -7t65.5 -22v-81q-52 26 -126 26q-85 0 -127.5 -38t-42.5 -125q0 -86 39.5 -125t128.5 -39q71 0 129 27v-83q-66 -27 -154 -27q-125 0 -189 63z" />
    <glyph glyph-name="Ccircumflex" unicode="&#x108;" horiz-adv-x="597" 
d="M298 848h76l125 -161h-87l-76 101l-74 -101h-89zM126 75.5q-83 85.5 -83 236.5q0 163 80 252.5t241 89.5q101 0 189 -31v-95q-85 33 -181 33q-117 0 -168 -62t-51 -187q0 -114 54.5 -172t166.5 -58q99 0 180 31v-96q-86 -27 -189 -27q-156 0 -239 85.5z" />
    <glyph glyph-name="ccircumflex" unicode="&#x109;" horiz-adv-x="493" 
d="M236 682h76l125 -161h-87l-76 101l-74 -101h-89zM107 53q-64 63 -64 184q0 122 69 184.5t190 62.5q48 0 81.5 -7t65.5 -22v-81q-52 26 -126 26q-85 0 -127.5 -38t-42.5 -125q0 -86 39.5 -125t128.5 -39q71 0 129 27v-83q-66 -27 -154 -27q-125 0 -189 63z" />
    <glyph glyph-name="Cdotaccent" unicode="&#x10a;" horiz-adv-x="597" 
d="M308 799h92v-88h-92v88zM126 75.5q-83 85.5 -83 236.5q0 163 80 252.5t241 89.5q101 0 189 -31v-95q-85 33 -181 33q-117 0 -168 -62t-51 -187q0 -114 54.5 -172t166.5 -58q99 0 180 31v-96q-86 -27 -189 -27q-156 0 -239 85.5z" />
    <glyph glyph-name="cdotaccent" unicode="&#x10b;" horiz-adv-x="493" 
d="M235 633h92v-88h-92v88zM107 53q-64 63 -64 184q0 122 69 184.5t190 62.5q48 0 81.5 -7t65.5 -22v-81q-52 26 -126 26q-85 0 -127.5 -38t-42.5 -125q0 -86 39.5 -125t128.5 -39q71 0 129 27v-83q-66 -27 -154 -27q-125 0 -189 63z" />
    <glyph glyph-name="Ccaron" unicode="&#x10c;" horiz-adv-x="597" 
d="M201 848h89l74 -101l76 101h87l-125 -161h-76zM126 75.5q-83 85.5 -83 236.5q0 163 80 252.5t241 89.5q101 0 189 -31v-95q-85 33 -181 33q-117 0 -168 -62t-51 -187q0 -114 54.5 -172t166.5 -58q99 0 180 31v-96q-86 -27 -189 -27q-156 0 -239 85.5z" />
    <glyph glyph-name="ccaron" unicode="&#x10d;" horiz-adv-x="494" 
d="M113 682h89l74 -101l76 101h87l-125 -161h-76zM107 53q-64 63 -64 184q0 122 69 184.5t190 62.5q48 0 81.5 -7t65.5 -22v-81q-52 26 -126 26q-85 0 -127.5 -38t-42.5 -125q0 -86 39.5 -125t128.5 -39q71 0 129 27v-83q-66 -27 -154 -27q-125 0 -189 63z" />
    <glyph glyph-name="Dcaron" unicode="&#x10e;" horiz-adv-x="649" 
d="M139 859h89l74 -101l76 101h87l-125 -161h-76zM63 644h261q145 0 213 -77t68 -249q0 -165 -68 -241.5t-213 -76.5h-261v644zM307 84q67 0 107.5 19.5t61 70.5t20.5 144q0 94 -19 146t-59.5 73.5t-110.5 21.5h-135v-475h135z" />
    <glyph glyph-name="dcaron" unicode="&#x10f;" horiz-adv-x="645" 
d="M625 696h93l-87 -185h-85zM100.5 50.5q-57.5 60.5 -57.5 184.5t59.5 186.5t161.5 62.5q86 0 146 -41v231h109v-674h-93l-7 47q-33 -30 -71 -43.5t-89 -13.5q-101 0 -158.5 60.5zM410 122v237q-47 42 -118 42q-70 0 -104.5 -40t-34.5 -127q0 -84 32.5 -123t102.5 -39
q73 0 122 50z" />
    <glyph glyph-name="Dcroat" unicode="&#x110;" horiz-adv-x="679" 
d="M93 274h-70v84h70v286h261q145 0 213 -77t68 -249q0 -165 -68 -241.5t-213 -76.5h-261v274zM337 84q67 0 107.5 19.5t61 70.5t20.5 144q0 94 -19 146t-59.5 73.5t-110.5 21.5h-135v-201h165v-84h-165v-190h135z" />
    <glyph glyph-name="dcroat" unicode="&#x111;" horiz-adv-x="582" 
d="M100.5 50.5q-57.5 60.5 -57.5 184.5t59.5 186.5t161.5 62.5q86 0 146 -41v92h-162v78h162v61h109v-61h49v-78h-49v-535h-93l-7 47q-33 -30 -71 -43.5t-89 -13.5q-101 0 -158.5 60.5zM410 122v237q-47 42 -118 42q-70 0 -104.5 -40t-34.5 -127q0 -84 32.5 -123t102.5 -39
q73 0 122 50z" />
    <glyph glyph-name="Emacron" unicode="&#x112;" horiz-adv-x="550" 
d="M128 792h298v-71h-298v71zM63 644h449v-85h-340v-195h303v-84h-303v-196h340v-84h-449v644z" />
    <glyph glyph-name="emacron" unicode="&#x113;" horiz-adv-x="537" 
d="M134 626h298v-71h-298v71zM110 52q-67 62 -67 186q0 117 59 181.5t175 64.5q105 0 161 -55t56 -147v-88h-347q8 -68 49 -94.5t129 -26.5q36 0 73.5 7t66.5 18v-80q-63 -28 -162 -28q-126 0 -193 62zM398 265v33q0 51 -28 77.5t-90 26.5q-74 0 -103.5 -32t-29.5 -105h251z
" />
    <glyph glyph-name="Ebreve" unicode="&#x114;" horiz-adv-x="550" 
d="M185.5 726q-37.5 38 -37.5 103h74q0 -35 17.5 -55.5t49.5 -20.5q33 0 51.5 20.5t18.5 55.5h74q0 -65 -38.5 -103t-105.5 -38q-66 0 -103.5 38zM63 644h449v-85h-340v-195h303v-84h-303v-196h340v-84h-449v644z" />
    <glyph glyph-name="ebreve" unicode="&#x115;" horiz-adv-x="537" 
d="M171.5 560q-37.5 38 -37.5 103h74q0 -35 17.5 -55.5t49.5 -20.5q33 0 51.5 20.5t18.5 55.5h74q0 -65 -38.5 -103t-105.5 -38q-66 0 -103.5 38zM110 52q-67 62 -67 186q0 117 59 181.5t175 64.5q105 0 161 -55t56 -147v-88h-347q8 -68 49 -94.5t129 -26.5q36 0 73.5 7
t66.5 18v-80q-63 -28 -162 -28q-126 0 -193 62zM398 265v33q0 51 -28 77.5t-90 26.5q-74 0 -103.5 -32t-29.5 -105h251z" />
    <glyph glyph-name="Edotaccent" unicode="&#x116;" horiz-adv-x="550" 
d="M237 799h92v-88h-92v88zM63 644h449v-85h-340v-195h303v-84h-303v-196h340v-84h-449v644z" />
    <glyph glyph-name="edotaccent" unicode="&#x117;" horiz-adv-x="537" 
d="M228 633h92v-88h-92v88zM110 52q-67 62 -67 186q0 117 59 181.5t175 64.5q105 0 161 -55t56 -147v-88h-347q8 -68 49 -94.5t129 -26.5q36 0 73.5 7t66.5 18v-80q-63 -28 -162 -28q-126 0 -193 62zM398 265v33q0 51 -28 77.5t-90 26.5q-74 0 -103.5 -32t-29.5 -105h251z
" />
    <glyph glyph-name="Eogonek" unicode="&#x118;" horiz-adv-x="550" 
d="M172 559v-195h303v-84h-303v-196h340v-84h-41q-33 -25 -51 -54t-18 -58q0 -22 11.5 -31t35.5 -9q13 0 27 3t23 8v-66q-13 -6 -34 -9.5t-43 -3.5q-46 0 -76.5 22.5t-30.5 66.5q0 38 20 72.5t54 58.5h-326v644h449v-85h-340z" />
    <glyph glyph-name="eogonek" unicode="&#x119;" horiz-adv-x="537" 
d="M494 194h-347q8 -68 49 -94.5t129 -26.5q36 0 73.5 7t66.5 18v-80q-33 -14 -64 -19q-32 -25 -49.5 -53.5t-17.5 -57.5q0 -22 11.5 -31t35.5 -9q13 0 27 3t23 8v-66q-13 -6 -34 -9.5t-43 -3.5q-46 0 -76.5 22.5t-30.5 66.5q0 34 16 66t45 55h-5q-126 0 -193 62t-67 186
q0 117 59 181.5t175 64.5q105 0 161 -55t56 -147v-88zM398 298q0 51 -28 77.5t-90 26.5q-74 0 -103.5 -32t-29.5 -105h251v33z" />
    <glyph glyph-name="Ecaron" unicode="&#x11a;" horiz-adv-x="550" 
d="M128 848h89l74 -101l76 101h87l-125 -161h-76zM63 644h449v-85h-340v-195h303v-84h-303v-196h340v-84h-449v644z" />
    <glyph glyph-name="ecaron" unicode="&#x11b;" horiz-adv-x="537" 
d="M118 682h89l74 -101l76 101h87l-125 -161h-76zM110 52q-67 62 -67 186q0 117 59 181.5t175 64.5q105 0 161 -55t56 -147v-88h-347q8 -68 49 -94.5t129 -26.5q36 0 73.5 7t66.5 18v-80q-63 -28 -162 -28q-126 0 -193 62zM398 265v33q0 51 -28 77.5t-90 26.5
q-74 0 -103.5 -32t-29.5 -105h251z" />
    <glyph glyph-name="Gcircumflex" unicode="&#x11c;" horiz-adv-x="641" 
d="M319 848h76l125 -161h-87l-76 101l-74 -101h-89zM125 74.5q-82 84.5 -82 234.5q0 163 81 254t242 91q107 0 191 -29v-94q-83 30 -182 30q-119 0 -170.5 -62.5t-51.5 -189.5q0 -227 213 -227q86 0 139 20v180h-161v71h254v-310q-36 -23 -94.5 -38t-140.5 -15
q-156 0 -238 84.5z" />
    <glyph glyph-name="gcircumflex" unicode="&#x11d;" horiz-adv-x="554" 
d="M231 682h76l125 -161h-87l-76 101l-74 -101h-89zM147.5 -169q-52.5 7 -88.5 19v84q38 -13 90 -20t101 -7q76 0 107 8.5t31 35.5q0 21 -16.5 29.5t-60.5 8.5h-128q-63 0 -96 23.5t-33 67.5q0 31 18 55.5t53 36.5q-80 39 -80 139q0 90 54 131.5t164 41.5q40 0 87 -10h174
l-3 -71h-80q37 -33 37 -92q0 -78 -46.5 -120.5t-138.5 -42.5q-24 0 -59 5q-32 -3 -55 -16.5t-23 -34.5q0 -15 12 -21.5t40 -6.5h133q71 0 109.5 -30.5t38.5 -88.5q0 -69 -58.5 -100t-175.5 -31q-55 0 -107.5 7zM353.5 238.5q25.5 21.5 25.5 75.5t-26 77.5t-90 23.5
q-62 0 -89.5 -23.5t-27.5 -77.5q0 -52 26.5 -74.5t90.5 -22.5q65 0 90.5 21.5z" />
    <glyph glyph-name="Gbreve" unicode="&#x11e;" horiz-adv-x="641" 
d="M254.5 726q-37.5 38 -37.5 103h74q0 -35 17.5 -55.5t49.5 -20.5q33 0 51.5 20.5t18.5 55.5h74q0 -65 -38.5 -103t-105.5 -38q-66 0 -103.5 38zM125 74.5q-82 84.5 -82 234.5q0 163 81 254t242 91q107 0 191 -29v-94q-83 30 -182 30q-119 0 -170.5 -62.5t-51.5 -189.5
q0 -227 213 -227q86 0 139 20v180h-161v71h254v-310q-36 -23 -94.5 -38t-140.5 -15q-156 0 -238 84.5z" />
    <glyph glyph-name="gbreve" unicode="&#x11f;" horiz-adv-x="554" 
d="M163.5 560q-37.5 38 -37.5 103h74q0 -35 17.5 -55.5t49.5 -20.5q33 0 51.5 20.5t18.5 55.5h74q0 -65 -38.5 -103t-105.5 -38q-66 0 -103.5 38zM147.5 -169q-52.5 7 -88.5 19v84q38 -13 90 -20t101 -7q76 0 107 8.5t31 35.5q0 21 -16.5 29.5t-60.5 8.5h-128
q-63 0 -96 23.5t-33 67.5q0 31 18 55.5t53 36.5q-80 39 -80 139q0 90 54 131.5t164 41.5q40 0 87 -10h174l-3 -71h-80q37 -33 37 -92q0 -78 -46.5 -120.5t-138.5 -42.5q-24 0 -59 5q-32 -3 -55 -16.5t-23 -34.5q0 -15 12 -21.5t40 -6.5h133q71 0 109.5 -30.5t38.5 -88.5
q0 -69 -58.5 -100t-175.5 -31q-55 0 -107.5 7zM353.5 238.5q25.5 21.5 25.5 75.5t-26 77.5t-90 23.5q-62 0 -89.5 -23.5t-27.5 -77.5q0 -52 26.5 -74.5t90.5 -22.5q65 0 90.5 21.5z" />
    <glyph glyph-name="Gdotaccent" unicode="&#x120;" horiz-adv-x="641" 
d="M317 799h92v-88h-92v88zM125 74.5q-82 84.5 -82 234.5q0 163 81 254t242 91q107 0 191 -29v-94q-83 30 -182 30q-119 0 -170.5 -62.5t-51.5 -189.5q0 -227 213 -227q86 0 139 20v180h-161v71h254v-310q-36 -23 -94.5 -38t-140.5 -15q-156 0 -238 84.5z" />
    <glyph glyph-name="gdotaccent" unicode="&#x121;" horiz-adv-x="554" 
d="M215 625h92v-88h-92v88zM147.5 -169q-52.5 7 -88.5 19v84q38 -13 90 -20t101 -7q76 0 107 8.5t31 35.5q0 21 -16.5 29.5t-60.5 8.5h-128q-63 0 -96 23.5t-33 67.5q0 31 18 55.5t53 36.5q-80 39 -80 139q0 90 54 131.5t164 41.5q40 0 87 -10h174l-3 -71h-80q37 -33 37 -92
q0 -78 -46.5 -120.5t-138.5 -42.5q-24 0 -59 5q-32 -3 -55 -16.5t-23 -34.5q0 -15 12 -21.5t40 -6.5h133q71 0 109.5 -30.5t38.5 -88.5q0 -69 -58.5 -100t-175.5 -31q-55 0 -107.5 7zM353.5 238.5q25.5 21.5 25.5 75.5t-26 77.5t-90 23.5q-62 0 -89.5 -23.5t-27.5 -77.5
q0 -52 26.5 -74.5t90.5 -22.5q65 0 90.5 21.5z" />
    <glyph glyph-name="Gcommaaccent" unicode="&#x122;" horiz-adv-x="641" 
d="M125 74.5q-82 84.5 -82 234.5q0 163 81 254t242 91q107 0 191 -29v-94q-83 30 -182 30q-119 0 -170.5 -62.5t-51.5 -189.5q0 -227 213 -227q86 0 139 20v180h-161v71h254v-310q-36 -23 -94.5 -38t-140.5 -15q-156 0 -238 84.5zM330 -42h90l-46 -189h-73z" />
    <glyph glyph-name="gcommaaccent" unicode="&#x123;" horiz-adv-x="554" 
d="M261 711h73l-29 -189h-90zM147.5 -169q-52.5 7 -88.5 19v84q38 -13 90 -20t101 -7q76 0 107 8.5t31 35.5q0 21 -16.5 29.5t-60.5 8.5h-128q-63 0 -96 23.5t-33 67.5q0 31 18 55.5t53 36.5q-80 39 -80 139q0 90 54 131.5t164 41.5q40 0 87 -10h174l-3 -71h-80
q37 -33 37 -92q0 -78 -46.5 -120.5t-138.5 -42.5q-24 0 -59 5q-32 -3 -55 -16.5t-23 -34.5q0 -15 12 -21.5t40 -6.5h133q71 0 109.5 -30.5t38.5 -88.5q0 -69 -58.5 -100t-175.5 -31q-55 0 -107.5 7zM353.5 238.5q25.5 21.5 25.5 75.5t-26 77.5t-90 23.5q-62 0 -89.5 -23.5
t-27.5 -77.5q0 -52 26.5 -74.5t90.5 -22.5q65 0 90.5 21.5z" />
    <glyph glyph-name="Hcircumflex" unicode="&#x124;" horiz-adv-x="654" 
d="M288 848h76l125 -161h-87l-76 101l-74 -101h-89zM63 644h109v-280h310v280h109v-644h-109v280h-310v-280h-109v644z" />
    <glyph glyph-name="hcircumflex" unicode="&#x125;" horiz-adv-x="578" 
d="M193 863h76l125 -161h-87l-76 101l-74 -101h-89zM63 674h109v-246q32 26 75.5 41t95.5 15q90 0 133 -43t43 -134v-307h-108v302q0 55 -23.5 77t-81.5 22q-36 0 -73 -15.5t-61 -40.5v-345h-109v674z" />
    <glyph glyph-name="Hbar" unicode="&#x126;" horiz-adv-x="654" 
d="M63 457h-50v85h50v102h109v-102h310v102h109v-102h50v-85h-50v-457h-109v280h-310v-280h-109v457zM482 364v93h-310v-93h310z" />
    <glyph glyph-name="hbar" unicode="&#x127;" horiz-adv-x="587" 
d="M72 536h-54v79h54v59h108v-59h150v-79h-150v-108q71 56 172 56q90 0 133 -43t43 -134v-307h-109v302q0 55 -23.5 77t-81.5 22q-36 0 -72.5 -15.5t-61.5 -40.5v-345h-108v536z" />
    <glyph glyph-name="Itilde" unicode="&#x128;" horiz-adv-x="235" 
d="M161 701q-17 5 -47 16q-25 9 -39.5 13.5t-29.5 4.5q-55 0 -87 -36v80q13 13 36.5 21.5t48.5 8.5q20 0 37.5 -5t42.5 -15q23 -9 39 -14t34 -5q52 0 80 37v-80q-10 -14 -31.5 -22.5t-47.5 -8.5q-19 0 -36 5zM63 644h109v-644h-109v644z" />
    <glyph glyph-name="itilde" unicode="&#x129;" horiz-adv-x="308" 
d="M199 534q-17 5 -47 16q-25 9 -39.5 13.5t-29.5 4.5q-55 0 -87 -36v80q13 13 36.5 21.5t48.5 8.5q20 0 37.5 -5t42.5 -15q23 -9 39 -14t34 -5q52 0 80 37v-80q-10 -14 -31.5 -22.5t-47.5 -8.5q-19 0 -36 5zM135 391h-72l10 83h171v-474h-109v391z" />
    <glyph glyph-name="Imacron" unicode="&#x12a;" horiz-adv-x="235" 
d="M-32 792h298v-71h-298v71zM63 644h109v-644h-109v644z" />
    <glyph glyph-name="imacron" unicode="&#x12b;" horiz-adv-x="308" 
d="M6 636h298v-71h-298v71zM135 391h-72l10 83h171v-474h-109v391z" />
    <glyph glyph-name="Ibreve" unicode="&#x12c;" horiz-adv-x="235" 
d="M12.5 736q-37.5 38 -37.5 103h74q0 -35 17.5 -55.5t49.5 -20.5q33 0 51.5 20.5t18.5 55.5h74q0 -65 -38.5 -103t-105.5 -38q-66 0 -103.5 38zM63 644h109v-644h-109v644z" />
    <glyph glyph-name="ibreve" unicode="&#x12d;" horiz-adv-x="308" 
d="M58.5 559q-37.5 38 -37.5 104h74q0 -36 17.5 -56.5t49.5 -20.5q33 0 51.5 20.5t18.5 56.5h74q0 -65 -38.5 -103.5t-105.5 -38.5q-66 0 -103.5 38zM135 391h-72l10 83h171v-474h-109v391z" />
    <glyph glyph-name="Iogonek" unicode="&#x12e;" horiz-adv-x="235" 
d="M167 -149q14 3 23 8v-66q-13 -6 -34 -9.5t-43 -3.5q-46 0 -76.5 22.5t-30.5 66.5q0 38 20 72.5t54 58.5h-17v644h109v-644h-10q-33 -25 -51 -54t-18 -58q0 -22 11.5 -31t35.5 -9q13 0 27 3z" />
    <glyph glyph-name="iogonek" unicode="&#x12f;" horiz-adv-x="308" 
d="M245 573h-119v90h119v-90zM235 -149q14 3 23 8v-66q-13 -6 -34 -9.5t-43 -3.5q-46 0 -76.5 22.5t-30.5 66.5q0 38 20 72.5t54 58.5h-13v391h-72l10 83h171v-474h-14q-33 -25 -51 -54t-18 -58q0 -22 11.5 -31t35.5 -9q13 0 27 3z" />
    <glyph glyph-name="Idotaccent" unicode="&#x130;" horiz-adv-x="235" 
d="M71 802h92v-88h-92v88zM63 644h109v-644h-109v644z" />
    <glyph glyph-name="dotlessi" unicode="&#x131;" horiz-adv-x="308" 
d="M135 391h-72l10 83h171v-474h-109v391z" />
    <glyph glyph-name="IJ" unicode="&#x132;" horiz-adv-x="651" 
d="M63 644h109v-644h-109v644zM242 13v92q24 -11 56.5 -17t64.5 -6q66 0 93 27t27 89v446h109v-464q0 -93 -53 -141.5t-157 -48.5q-82 0 -140 23z" />
    <glyph glyph-name="ij" unicode="&#x133;" horiz-adv-x="544" 
d="M126 663h119v-90h-119v90zM361 663h119v-90h-119v90zM135 391h-72l10 83h171v-474h-109v391zM227 -218v79q31 -10 61 -10q47 0 65.5 16.5t18.5 56.5v467h-72l10 83h170v-560q0 -69 -39.5 -108.5t-114.5 -39.5q-58 0 -99 16z" />
    <glyph glyph-name="Jcircumflex" unicode="&#x134;" horiz-adv-x="431" 
d="M280 848h76l125 -161h-87l-76 101l-74 -101h-89zM23 13v92q24 -11 56.5 -17t64.5 -6q66 0 93 27t27 89v446h109v-464q0 -93 -53 -141.5t-157 -48.5q-82 0 -140 23z" />
    <glyph glyph-name="jcircumflex" unicode="&#x135;" horiz-adv-x="306" 
d="M132 682h76l125 -161h-87l-76 101l-74 -101h-89zM-10 -218v79q31 -10 61 -10q47 0 65.5 16.5t18.5 56.5v467h-72l10 83h170v-560q0 -69 -39.5 -108.5t-114.5 -39.5q-58 0 -99 16z" />
    <glyph glyph-name="Kcommaaccent" unicode="&#x136;" horiz-adv-x="625" 
d="M63 644h109v-296l274 296h126l-237 -260l247 -384h-116l-199 315l-95 -102v-213h-109v644zM273 -37h90l-46 -189h-73z" />
    <glyph glyph-name="kcommaaccent" unicode="&#x137;" horiz-adv-x="550" 
d="M63 674h109v-390l199 190h125l-193 -191l204 -283h-115l-157 225l-63 -60v-165h-109v674zM227 -37h90l-46 -189h-73z" />
    <glyph glyph-name="kgreenlandic" unicode="&#x138;" horiz-adv-x="550" 
d="M63 474h109v-208l199 208h125l-193 -204l204 -270h-115l-156 211l-64 -66v-145h-109v474z" />
    <glyph glyph-name="Lacute" unicode="&#x139;" horiz-adv-x="525" 
d="M146 865h96l-84 -177h-87zM63 644h109v-560h330v-84h-439v644z" />
    <glyph glyph-name="lacute" unicode="&#x13a;" horiz-adv-x="280" 
d="M146 909h96l-84 -177h-87zM92 19q-29 29 -29 94v561h109v-551q0 -27 9.5 -37.5t30.5 -10.5q24 0 46 6v-79q-33 -12 -77 -12q-60 0 -89 29z" />
    <glyph glyph-name="Lcommaaccent" unicode="&#x13b;" horiz-adv-x="525" 
d="M63 644h109v-560h330v-84h-439v644zM247 -37h90l-46 -189h-73z" />
    <glyph glyph-name="lcommaaccent" unicode="&#x13c;" horiz-adv-x="280" 
d="M92 19q-29 29 -29 94v561h109v-551q0 -27 9.5 -37.5t30.5 -10.5q24 0 46 6v-79q-33 -12 -77 -12q-60 0 -89 29zM133 -37h90l-46 -189h-73z" />
    <glyph glyph-name="Lcaron" unicode="&#x13d;" horiz-adv-x="525" 
d="M340 755h90l-46 -189h-73zM63 644h109v-560h330v-84h-439v644z" />
    <glyph glyph-name="lcaron" unicode="&#x13e;" horiz-adv-x="311" 
d="M258 838h90l-46 -189h-73zM92 19q-29 29 -29 94v561h109v-551q0 -27 9.5 -37.5t30.5 -10.5q24 0 46 6v-79q-33 -12 -77 -12q-60 0 -89 29z" />
    <glyph glyph-name="Ldot" unicode="&#x13f;" horiz-adv-x="525" 
d="M63 644h109v-560h330v-84h-439v644zM316 355h92v-88h-92v88z" />
    <glyph glyph-name="ldot" unicode="&#x140;" horiz-adv-x="305" 
d="M92 19q-29 29 -29 94v561h109v-551q0 -27 9.5 -37.5t30.5 -10.5q24 0 46 6v-79q-33 -12 -77 -12q-60 0 -89 29zM236 361h92v-88h-92v88z" />
    <glyph glyph-name="Lslash" unicode="&#x141;" horiz-adv-x="525" 
d="M63 267l-87 -38v84l87 38v293h109v-245l129 57v-84l-129 -57v-231h330v-84h-439v267z" />
    <glyph glyph-name="lslash" unicode="&#x142;" horiz-adv-x="280" 
d="M92 19q-29 29 -29 94v161l-97 -42v84l97 42v316h109v-268l109 48v-84l-109 -48v-199q0 -27 9.5 -37.5t30.5 -10.5q24 0 46 6v-79q-33 -12 -77 -12q-60 0 -89 29z" />
    <glyph glyph-name="Nacute" unicode="&#x143;" horiz-adv-x="667" 
d="M358 865h96l-84 -177h-87zM63 644h96l336 -474v474h108v-644h-96l-335 473v-473h-109v644z" />
    <glyph glyph-name="nacute" unicode="&#x144;" horiz-adv-x="578" 
d="M305 699h96l-84 -177h-87zM63 474h100l5 -50q34 27 79 43.5t96 16.5q92 0 134 -43t42 -134v-307h-108v302q0 55 -23 77t-84 22q-37 0 -72.5 -15t-59.5 -39v-347h-109v474z" />
    <glyph glyph-name="Ncommaaccent" unicode="&#x145;" horiz-adv-x="667" 
d="M63 644h96l336 -474v474h108v-644h-96l-335 473v-473h-109v644zM298 -37h90l-46 -189h-73z" />
    <glyph glyph-name="ncommaaccent" unicode="&#x146;" horiz-adv-x="578" 
d="M63 474h100l5 -50q34 27 79 43.5t96 16.5q92 0 134 -43t42 -134v-307h-108v302q0 55 -23 77t-84 22q-37 0 -72.5 -15t-59.5 -39v-347h-109v474zM257 -37h90l-46 -189h-73z" />
    <glyph glyph-name="Ncaron" unicode="&#x147;" horiz-adv-x="667" 
d="M178 848h89l74 -101l76 101h87l-125 -161h-76zM63 644h96l336 -474v474h108v-644h-96l-335 473v-473h-109v644z" />
    <glyph glyph-name="ncaron" unicode="&#x148;" horiz-adv-x="578" 
d="M116 682h89l74 -101l76 101h87l-125 -161h-76zM63 474h100l5 -50q34 27 79 43.5t96 16.5q92 0 134 -43t42 -134v-307h-108v302q0 55 -23 77t-84 22q-37 0 -72.5 -15t-59.5 -39v-347h-109v474z" />
    <glyph glyph-name="napostrophe" unicode="&#x149;" horiz-adv-x="634" 
d="M12 647h90l-46 -189h-73zM119 474h100l5 -50q34 27 79 43.5t96 16.5q92 0 134 -43t42 -134v-307h-108v302q0 55 -23 77t-84 22q-37 0 -72.5 -15t-59.5 -39v-347h-109v474z" />
    <glyph glyph-name="Eng" unicode="&#x14a;" horiz-adv-x="667" 
d="M350 -218v79q31 -10 61 -10q47 0 65.5 16.5t18.5 56.5v93l-323 456v-473h-109v644h96l336 -474v474h108v-730q0 -69 -39.5 -108.5t-114.5 -39.5q-58 0 -99 16z" />
    <glyph glyph-name="eng" unicode="&#x14b;" horiz-adv-x="578" 
d="M266 -218v79q31 -10 61 -10q47 0 65.5 16.5t18.5 56.5v378q0 55 -23 77t-84 22q-37 0 -72.5 -15t-59.5 -39v-347h-109v474h100l5 -50q34 27 79 43.5t96 16.5q92 0 134 -43t42 -134v-393q0 -69 -39.5 -108.5t-114.5 -39.5q-58 0 -99 16z" />
    <glyph glyph-name="Omacron" unicode="&#x14c;" horiz-adv-x="697" 
d="M197 792h298v-71h-298v71zM118.5 70.5q-75.5 80.5 -75.5 249.5q0 174 75 254t230 80t230 -80t75 -254q0 -169 -75.5 -249.5t-229.5 -80.5t-229.5 80.5zM497 138q47 56 47 182q0 131 -46.5 186t-149.5 55q-102 0 -148.5 -55t-46.5 -186q0 -125 47 -181.5t148 -56.5
q102 0 149 56z" />
    <glyph glyph-name="omacron" unicode="&#x14d;" horiz-adv-x="581" 
d="M138 626h298v-71h-298v71zM43 237q0 247 247 247q248 0 248 -247t-248 -247q-247 0 -247 247zM396.5 118q31.5 36 31.5 119q0 82 -31.5 118t-106.5 36q-74 0 -105.5 -36t-31.5 -118q0 -83 31.5 -119t105.5 -36q75 0 106.5 36z" />
    <glyph glyph-name="Obreve" unicode="&#x14e;" horiz-adv-x="697" 
d="M243.5 726q-37.5 38 -37.5 103h74q0 -35 17.5 -55.5t49.5 -20.5q33 0 51.5 20.5t18.5 55.5h74q0 -65 -38.5 -103t-105.5 -38q-66 0 -103.5 38zM118.5 70.5q-75.5 80.5 -75.5 249.5q0 174 75 254t230 80t230 -80t75 -254q0 -169 -75.5 -249.5t-229.5 -80.5t-229.5 80.5z
M497 138q47 56 47 182q0 131 -46.5 186t-149.5 55q-102 0 -148.5 -55t-46.5 -186q0 -125 47 -181.5t148 -56.5q102 0 149 56z" />
    <glyph glyph-name="obreve" unicode="&#x14f;" horiz-adv-x="581" 
d="M185.5 560q-37.5 38 -37.5 103h74q0 -35 17.5 -55.5t49.5 -20.5q33 0 51.5 20.5t18.5 55.5h74q0 -65 -38.5 -103t-105.5 -38q-66 0 -103.5 38zM43 237q0 247 247 247q248 0 248 -247t-248 -247q-247 0 -247 247zM396.5 118q31.5 36 31.5 119q0 82 -31.5 118t-106.5 36
q-74 0 -105.5 -36t-31.5 -118q0 -83 31.5 -119t105.5 -36q75 0 106.5 36z" />
    <glyph glyph-name="Ohungarumlaut" unicode="&#x150;" horiz-adv-x="697" 
d="M245 851h99l-86 -164h-88zM462 851h99l-86 -164h-88zM118.5 70.5q-75.5 80.5 -75.5 249.5q0 174 75 254t230 80t230 -80t75 -254q0 -169 -75.5 -249.5t-229.5 -80.5t-229.5 80.5zM497 138q47 56 47 182q0 131 -46.5 186t-149.5 55q-102 0 -148.5 -55t-46.5 -186
q0 -125 47 -181.5t148 -56.5q102 0 149 56z" />
    <glyph glyph-name="ohungarumlaut" unicode="&#x151;" horiz-adv-x="581" 
d="M210 685h99l-86 -164h-88zM427 685h99l-86 -164h-88zM43 237q0 247 247 247q248 0 248 -247t-248 -247q-247 0 -247 247zM396.5 118q31.5 36 31.5 119q0 82 -31.5 118t-106.5 36q-74 0 -105.5 -36t-31.5 -118q0 -83 31.5 -119t105.5 -36q75 0 106.5 36z" />
    <glyph glyph-name="OE" unicode="&#x152;" horiz-adv-x="1037" 
d="M653 559v-195h303v-84h-303v-196h340v-84h-449v41q-73 -51 -196 -51q-154 0 -229.5 80.5t-75.5 249.5q0 174 75 254t230 80q124 0 196 -50v40h449v-85h-340zM497 138q47 56 47 182q0 131 -46.5 186t-149.5 55q-102 0 -148.5 -55t-46.5 -186q0 -125 47 -181.5t148 -56.5
q102 0 149 56z" />
    <glyph glyph-name="oe" unicode="&#x153;" horiz-adv-x="927" 
d="M884 194h-347q8 -68 49 -94.5t129 -26.5q36 0 73.5 7t66.5 18v-80q-63 -28 -162 -28q-140 0 -205 74q-62 -74 -198 -74q-247 0 -247 247t247 247q134 0 195 -72q61 72 182 72q105 0 161 -55t56 -147v-88zM788 298q0 51 -28 77.5t-90 26.5q-73 0 -103 -32t-30 -103v-2h251
v33zM396.5 118q31.5 36 31.5 119q0 82 -31.5 118t-106.5 36q-74 0 -105.5 -36t-31.5 -118q0 -83 31.5 -119t105.5 -36q75 0 106.5 36z" />
    <glyph glyph-name="Racute" unicode="&#x154;" horiz-adv-x="610" 
d="M314 865h96l-84 -177h-87zM63 644h296q105 0 156 -54t51 -152q0 -69 -34.5 -116.5t-97.5 -66.5q17 -12 27 -26.5t21 -41.5l81 -187h-112l-79 180q-12 27 -28 37.5t-51 10.5h-121v-228h-109v644zM330 316q127 0 127 122q0 121 -117 121h-168v-243h158z" />
    <glyph glyph-name="racute" unicode="&#x155;" horiz-adv-x="367" 
d="M144 699h96l-84 -177h-87zM63 474h100l6 -55q34 22 81 40t93 25v-83q-43 -8 -93 -24.5t-78 -34.5v-342h-109v474z" />
    <glyph glyph-name="Rcommaaccent" unicode="&#x156;" horiz-adv-x="610" 
d="M63 644h296q105 0 156 -54t51 -152q0 -69 -34.5 -116.5t-97.5 -66.5q17 -12 27 -26.5t21 -41.5l81 -187h-112l-79 180q-12 27 -28 37.5t-51 10.5h-121v-228h-109v644zM330 316q127 0 127 122q0 121 -117 121h-168v-243h158zM247 -37h90l-46 -189h-73z" />
    <glyph glyph-name="rcommaaccent" unicode="&#x157;" horiz-adv-x="367" 
d="M63 474h100l6 -55q34 22 81 40t93 25v-83q-43 -8 -93 -24.5t-78 -34.5v-342h-109v474zM70 -37h90l-46 -189h-73z" />
    <glyph glyph-name="Rcaron" unicode="&#x158;" horiz-adv-x="610" 
d="M131 848h89l74 -101l76 101h87l-125 -161h-76zM63 644h296q105 0 156 -54t51 -152q0 -69 -34.5 -116.5t-97.5 -66.5q17 -12 27 -26.5t21 -41.5l81 -187h-112l-79 180q-12 27 -28 37.5t-51 10.5h-121v-228h-109v644zM330 316q127 0 127 122q0 121 -117 121h-168v-243h158z
" />
    <glyph glyph-name="rcaron" unicode="&#x159;" horiz-adv-x="367" 
d="M-27 682h89l74 -101l76 101h87l-125 -161h-76zM63 474h100l6 -55q34 22 81 40t93 25v-83q-43 -8 -93 -24.5t-78 -34.5v-342h-109v474z" />
    <glyph glyph-name="Sacute" unicode="&#x15a;" horiz-adv-x="555" 
d="M292 868h96l-84 -177h-87zM57 22v96q93 -36 191 -36q81 0 117.5 19t36.5 71q0 33 -15.5 52.5t-50.5 33.5t-105 32q-104 27 -146 68.5t-42 114.5q0 86 63 133.5t184 47.5q53 0 102.5 -7.5t80.5 -18.5v-96q-76 29 -168 29q-76 0 -114 -20t-38 -68q0 -29 14 -46.5t46.5 -31
t97.5 -29.5q113 -29 157 -75t44 -119q0 -86 -64.5 -134t-189.5 -48t-201 32z" />
    <glyph glyph-name="sacute" unicode="&#x15b;" horiz-adv-x="464" 
d="M252 699h96l-84 -177h-87zM128 -3.5q-45 6.5 -74 17.5v92q33 -13 73.5 -20t79.5 -7q58 0 81 10t23 39q0 26 -21 38.5t-79 30.5l-30 10q-72 24 -105 53.5t-33 87.5q0 67 48 101.5t150 34.5q39 0 76.5 -6t64.5 -15v-91q-27 11 -60.5 17t-63.5 6q-55 0 -80 -9.5t-25 -35.5
q0 -23 19 -34.5t75 -29.5l22 -7q58 -18 90 -36.5t46.5 -45t14.5 -68.5q0 -139 -199 -139q-48 0 -93 6.5z" />
    <glyph glyph-name="Scircumflex" unicode="&#x15c;" horiz-adv-x="555" 
d="M237 856h76l125 -161h-87l-76 101l-74 -101h-89zM57 22v96q93 -36 191 -36q81 0 117.5 19t36.5 71q0 33 -15.5 52.5t-50.5 33.5t-105 32q-104 27 -146 68.5t-42 114.5q0 86 63 133.5t184 47.5q53 0 102.5 -7.5t80.5 -18.5v-96q-76 29 -168 29q-76 0 -114 -20t-38 -68
q0 -29 14 -46.5t46.5 -31t97.5 -29.5q113 -29 157 -75t44 -119q0 -86 -64.5 -134t-189.5 -48t-201 32z" />
    <glyph glyph-name="scircumflex" unicode="&#x15d;" horiz-adv-x="464" 
d="M198 687h76l125 -161h-87l-76 101l-74 -101h-89zM128 -3.5q-45 6.5 -74 17.5v92q33 -13 73.5 -20t79.5 -7q58 0 81 10t23 39q0 26 -21 38.5t-79 30.5l-30 10q-72 24 -105 53.5t-33 87.5q0 67 48 101.5t150 34.5q39 0 76.5 -6t64.5 -15v-91q-27 11 -60.5 17t-63.5 6
q-55 0 -80 -9.5t-25 -35.5q0 -23 19 -34.5t75 -29.5l22 -7q58 -18 90 -36.5t46.5 -45t14.5 -68.5q0 -139 -199 -139q-48 0 -93 6.5z" />
    <glyph glyph-name="Scedilla" unicode="&#x15e;" horiz-adv-x="555" 
d="M457.5 45.5q-54.5 -47.5 -161.5 -54.5l-13 -38q53 0 81 -23.5t28 -66.5q0 -103 -148 -103q-16 0 -39 2.5t-34 5.5v59q29 -8 62 -8q47 0 66 9t19 36q0 26 -18.5 33.5t-62.5 7.5h-40l26 86q-99 3 -166 31v96q93 -36 191 -36q81 0 117.5 19t36.5 71q0 33 -15.5 52.5
t-50.5 33.5t-105 32q-104 27 -146 68.5t-42 114.5q0 86 63 133.5t184 47.5q53 0 102.5 -7.5t80.5 -18.5v-96q-76 29 -168 29q-76 0 -114 -20t-38 -68q0 -29 14 -46.5t46.5 -31t97.5 -29.5q113 -29 157 -75t44 -119q0 -79 -54.5 -126.5z" />
    <glyph glyph-name="scedilla" unicode="&#x15f;" horiz-adv-x="464" 
d="M379.5 32.5q-40.5 -34.5 -118.5 -40.5l-13 -39q53 0 81 -23.5t28 -66.5q0 -103 -148 -103q-16 0 -39 2.5t-34 5.5v59q29 -8 62 -8q47 0 66 9t19 36q0 26 -18.5 33.5t-62.5 7.5h-40l26 86q-81 3 -134 23v92q33 -13 73.5 -20t79.5 -7q58 0 81 10t23 39q0 26 -21 38.5
t-79 30.5l-30 10q-72 24 -105 53.5t-33 87.5q0 67 48 101.5t150 34.5q39 0 76.5 -6t64.5 -15v-91q-27 11 -60.5 17t-63.5 6q-55 0 -80 -9.5t-25 -35.5q0 -23 19 -34.5t75 -29.5l22 -7q58 -18 90 -36.5t46.5 -45t14.5 -68.5q0 -62 -40.5 -96.5z" />
    <glyph glyph-name="Scaron" unicode="&#x160;" horiz-adv-x="555" 
d="M127 848h89l74 -101l76 101h87l-125 -161h-76zM57 22v96q93 -36 191 -36q81 0 117.5 19t36.5 71q0 33 -15.5 52.5t-50.5 33.5t-105 32q-104 27 -146 68.5t-42 114.5q0 86 63 133.5t184 47.5q53 0 102.5 -7.5t80.5 -18.5v-96q-76 29 -168 29q-76 0 -114 -20t-38 -68
q0 -29 14 -46.5t46.5 -31t97.5 -29.5q113 -29 157 -75t44 -119q0 -86 -64.5 -134t-189.5 -48t-201 32z" />
    <glyph glyph-name="scaron" unicode="&#x161;" horiz-adv-x="464" 
d="M71 682h89l74 -101l76 101h87l-125 -161h-76zM128 -3.5q-45 6.5 -74 17.5v92q33 -13 73.5 -20t79.5 -7q58 0 81 10t23 39q0 26 -21 38.5t-79 30.5l-30 10q-72 24 -105 53.5t-33 87.5q0 67 48 101.5t150 34.5q39 0 76.5 -6t64.5 -15v-91q-27 11 -60.5 17t-63.5 6
q-55 0 -80 -9.5t-25 -35.5q0 -23 19 -34.5t75 -29.5l22 -7q58 -18 90 -36.5t46.5 -45t14.5 -68.5q0 -139 -199 -139q-48 0 -93 6.5z" />
    <glyph glyph-name="uni0162" unicode="&#x162;" horiz-adv-x="568" 
d="M319 0l-16 -47q53 0 81 -23.5t28 -66.5q0 -103 -148 -103q-16 0 -39 2.5t-34 5.5v59q29 -8 62 -8q47 0 66 9t19 36q0 26 -18.5 33.5t-62.5 7.5h-40l29 95h-16v559h-206v85h520v-85h-205v-559h-20z" />
    <glyph glyph-name="uni0163" unicode="&#x163;" horiz-adv-x="374" 
d="M332 -70.5q28 -23.5 28 -66.5q0 -103 -148 -103q-16 0 -39 2.5t-34 5.5v59q29 -8 62 -8q47 0 66 9t19 36q0 26 -18.5 33.5t-62.5 7.5h-40l28 91q-50 12 -75 49t-25 96v248h-70v85h70v109l108 33v-142h126l-7 -85h-119v-242q0 -41 18.5 -57.5t62.5 -16.5q27 0 57 10v-77
q-32 -13 -75 -16l-13 -37q53 0 81 -23.5z" />
    <glyph glyph-name="Tcaron" unicode="&#x164;" horiz-adv-x="568" 
d="M121 856h89l74 -101l76 101h87l-125 -161h-76zM230 559h-206v85h520v-85h-205v-559h-109v559z" />
    <glyph glyph-name="tcaron" unicode="&#x165;" horiz-adv-x="422" 
d="M338 748h90l-46 -189h-73zM131 29.5q-38 39.5 -38 111.5v248h-70v85h70v109l108 33v-142h126l-7 -85h-119v-242q0 -41 18.5 -57.5t62.5 -16.5q27 0 57 10v-77q-39 -16 -95 -16q-75 0 -113 39.5z" />
    <glyph glyph-name="Tbar" unicode="&#x166;" horiz-adv-x="568" 
d="M230 306h-138v81h138v172h-206v85h520v-85h-205v-172h119v-81h-119v-306h-109v306z" />
    <glyph glyph-name="tbar" unicode="&#x167;" horiz-adv-x="369" 
d="M137 29.5q-38 39.5 -38 111.5v66h-76v75h76v107h-70v85h70v109l108 33v-142h126l-7 -85h-119v-107h120v-75h-120v-60q0 -41 18.5 -57.5t62.5 -16.5q27 0 57 10v-77q-39 -16 -95 -16q-75 0 -113 39.5z" />
    <glyph glyph-name="Utilde" unicode="&#x168;" horiz-adv-x="674" 
d="M375 708q-17 5 -47 16q-25 9 -39.5 13.5t-29.5 4.5q-55 0 -87 -36v80q13 13 36.5 21.5t48.5 8.5q20 0 37.5 -5t42.5 -15q23 -9 39 -14t34 -5q52 0 80 37v-80q-10 -14 -31.5 -22.5t-47.5 -8.5q-19 0 -36 5zM131 54q-73 64 -73 185v405h109v-401q0 -80 44 -120.5t127 -40.5
q82 0 126 40.5t44 120.5v401h108v-405q0 -121 -72.5 -185t-205.5 -64q-134 0 -207 64z" />
    <glyph glyph-name="utilde" unicode="&#x169;" horiz-adv-x="578" 
d="M330 542q-17 5 -47 16q-25 9 -39.5 13.5t-29.5 4.5q-55 0 -87 -36v80q13 13 36.5 21.5t48.5 8.5q20 0 37.5 -5t42.5 -15q23 -9 39 -14t34 -5q52 0 80 37v-80q-10 -14 -31.5 -22.5t-47.5 -8.5q-19 0 -36 5zM103.5 37.5q-45.5 47.5 -45.5 137.5v299h109v-299q0 -53 26 -78
t80 -25q39 0 73 14.5t60 40.5v347h108v-474h-99l-5 49q-75 -59 -176 -59q-85 0 -130.5 47.5z" />
    <glyph glyph-name="Umacron" unicode="&#x16a;" horiz-adv-x="674" 
d="M182 792h298v-71h-298v71zM131 54q-73 64 -73 185v405h109v-401q0 -80 44 -120.5t127 -40.5q82 0 126 40.5t44 120.5v401h108v-405q0 -121 -72.5 -185t-205.5 -64q-134 0 -207 64z" />
    <glyph glyph-name="umacron" unicode="&#x16b;" horiz-adv-x="578" 
d="M137 626h298v-71h-298v71zM103.5 37.5q-45.5 47.5 -45.5 137.5v299h109v-299q0 -53 26 -78t80 -25q39 0 73 14.5t60 40.5v347h108v-474h-99l-5 49q-75 -59 -176 -59q-85 0 -130.5 47.5z" />
    <glyph glyph-name="Ubreve" unicode="&#x16c;" horiz-adv-x="674" 
d="M220.5 726q-37.5 38 -37.5 103h74q0 -35 17.5 -55.5t49.5 -20.5q33 0 51.5 20.5t18.5 55.5h74q0 -65 -38.5 -103t-105.5 -38q-66 0 -103.5 38zM131 54q-73 64 -73 185v405h109v-401q0 -80 44 -120.5t127 -40.5q82 0 126 40.5t44 120.5v401h108v-405q0 -121 -72.5 -185
t-205.5 -64q-134 0 -207 64z" />
    <glyph glyph-name="ubreve" unicode="&#x16d;" horiz-adv-x="578" 
d="M184.5 560q-37.5 38 -37.5 103h74q0 -35 17.5 -55.5t49.5 -20.5q33 0 51.5 20.5t18.5 55.5h74q0 -65 -38.5 -103t-105.5 -38q-66 0 -103.5 38zM103.5 37.5q-45.5 47.5 -45.5 137.5v299h109v-299q0 -53 26 -78t80 -25q39 0 73 14.5t60 40.5v347h108v-474h-99l-5 49
q-75 -59 -176 -59q-85 0 -130.5 47.5z" />
    <glyph glyph-name="Uring" unicode="&#x16e;" horiz-adv-x="674" 
d="M246 719.5q-32 32.5 -32 80.5q0 49 32 81.5t84 32.5q53 0 85.5 -32.5t32.5 -81.5q0 -48 -32.5 -80.5t-85.5 -32.5q-52 0 -84 32.5zM374 758q17 17 17 42t-17 42t-44 17q-26 0 -42.5 -17t-16.5 -42t16.5 -42t42.5 -17q27 0 44 17zM131 54q-73 64 -73 185v405h109v-401
q0 -80 44 -120.5t127 -40.5q82 0 126 40.5t44 120.5v401h108v-405q0 -121 -72.5 -185t-205.5 -64q-134 0 -207 64z" />
    <glyph glyph-name="uring" unicode="&#x16f;" horiz-adv-x="578" 
d="M197 553.5q-32 32.5 -32 80.5q0 49 32 81.5t84 32.5q53 0 85.5 -32.5t32.5 -81.5q0 -48 -32.5 -80.5t-85.5 -32.5q-52 0 -84 32.5zM325 592q17 17 17 42t-17 42t-44 17q-26 0 -42.5 -17t-16.5 -42t16.5 -42t42.5 -17q27 0 44 17zM103.5 37.5q-45.5 47.5 -45.5 137.5v299
h109v-299q0 -53 26 -78t80 -25q39 0 73 14.5t60 40.5v347h108v-474h-99l-5 49q-75 -59 -176 -59q-85 0 -130.5 47.5z" />
    <glyph glyph-name="Uhungarumlaut" unicode="&#x170;" horiz-adv-x="674" 
d="M229 851h99l-86 -164h-88zM446 851h99l-86 -164h-88zM131 54q-73 64 -73 185v405h109v-401q0 -80 44 -120.5t127 -40.5q82 0 126 40.5t44 120.5v401h108v-405q0 -121 -72.5 -185t-205.5 -64q-134 0 -207 64z" />
    <glyph glyph-name="uhungarumlaut" unicode="&#x171;" horiz-adv-x="578" 
d="M180 685h99l-86 -164h-88zM397 685h99l-86 -164h-88zM103.5 37.5q-45.5 47.5 -45.5 137.5v299h109v-299q0 -53 26 -78t80 -25q39 0 73 14.5t60 40.5v347h108v-474h-99l-5 49q-75 -59 -176 -59q-85 0 -130.5 47.5z" />
    <glyph glyph-name="Uogonek" unicode="&#x172;" horiz-adv-x="674" 
d="M616 644v-405q0 -106 -56.5 -168.5t-160.5 -76.5q-61 -51 -61 -106q0 -22 11.5 -31t35.5 -9q13 0 27 3t23 8v-66q-13 -6 -34 -9.5t-43 -3.5q-46 0 -76.5 22.5t-30.5 66.5q0 34 16.5 66t45.5 56q-122 6 -188.5 69.5t-66.5 178.5v405h109v-401q0 -80 44 -120.5t127 -40.5
q82 0 126 40.5t44 120.5v401h108z" />
    <glyph glyph-name="uogonek" unicode="&#x173;" horiz-adv-x="579" 
d="M502 -149q14 3 23 8v-66q-13 -6 -34 -9.5t-43 -3.5q-46 0 -76.5 22.5t-30.5 66.5q0 38 20 72.5t54 58.5l-5 49q-75 -59 -176 -59q-85 0 -130.5 47.5t-45.5 137.5v299h109v-299q0 -53 26 -78t80 -25q39 0 73 14.5t60 40.5v347h108v-474h-17q-33 -25 -51 -54t-18 -58
q0 -22 11.5 -31t35.5 -9q13 0 27 3z" />
    <glyph glyph-name="Wcircumflex" unicode="&#x174;" horiz-adv-x="869" 
d="M401 848h76l125 -161h-87l-76 101l-74 -101h-89zM44 644h107l109 -483l122 405v78h89l137 -483l111 483h106l-149 -644h-107l-129 451l-137 -451h-109z" />
    <glyph glyph-name="wcircumflex" unicode="&#x175;" horiz-adv-x="746" 
d="M336 682h76l125 -161h-87l-76 101l-74 -101h-89zM43 474h109l82 -345l93 287v58h83l103 -345l82 345h108l-124 -474h-103l-101 310l-103 -310h-104z" />
    <glyph glyph-name="Ycircumflex" unicode="&#x176;" horiz-adv-x="656" 
d="M290 848h76l125 -161h-87l-76 101l-74 -101h-89zM274 239l-231 405h113l172 -313l172 313h113l-231 -405v-239h-108v239z" />
    <glyph glyph-name="ycircumflex" unicode="&#x177;" horiz-adv-x="598" 
d="M271 682h76l125 -161h-87l-76 101l-74 -101h-89zM78 -162v81q28 -10 61 -10q30 0 49 9.5t33 29.5t33 58l-211 468h113l152 -352l154 352h112l-193 -447q-43 -102 -89.5 -152.5t-121.5 -50.5q-54 0 -92 14z" />
    <glyph glyph-name="Ydieresis" unicode="&#x178;" horiz-adv-x="656" 
d="M189 798h92v-86h-92v86zM375 798h92v-86h-92v86zM274 239l-231 405h113l172 -313l172 313h113l-231 -405v-239h-108v239z" />
    <glyph glyph-name="Zacute" unicode="&#x179;" horiz-adv-x="575" 
d="M325 865h96l-84 -177h-87zM43 58l346 497h-329v89h469v-67l-343 -493h348v-84h-491v58z" />
    <glyph glyph-name="zacute" unicode="&#x17a;" horiz-adv-x="487" 
d="M274 699h96l-84 -177h-87zM43 57l259 328h-247v89h381v-67l-254 -323h261v-84h-400v57z" />
    <glyph glyph-name="Zdotaccent" unicode="&#x17b;" horiz-adv-x="575" 
d="M253 799h92v-88h-92v88zM43 58l346 497h-329v89h469v-67l-343 -493h348v-84h-491v58z" />
    <glyph glyph-name="zdotaccent" unicode="&#x17c;" horiz-adv-x="487" 
d="M200 633h92v-88h-92v88zM43 57l259 328h-247v89h381v-67l-254 -323h261v-84h-400v57z" />
    <glyph glyph-name="Zcaron" unicode="&#x17d;" horiz-adv-x="575" 
d="M144 848h89l74 -101l76 101h87l-125 -161h-76zM43 58l346 497h-329v89h469v-67l-343 -493h348v-84h-491v58z" />
    <glyph glyph-name="zcaron" unicode="&#x17e;" horiz-adv-x="487" 
d="M75 682h89l74 -101l76 101h87l-125 -161h-76zM43 57l259 328h-247v89h381v-67l-254 -323h261v-84h-400v57z" />
    <glyph glyph-name="uni018F" unicode="&#x18f;" horiz-adv-x="674" 
d="M114.5 62.5q-71.5 72.5 -71.5 196.5v111h488q-4 73 -30.5 116.5t-81.5 63.5t-147 20q-46 0 -98.5 -10.5t-91.5 -27.5v83q45 17 101.5 28t111.5 11q336 0 336 -340q0 -156 -74.5 -240t-231.5 -84q-139 0 -210.5 72.5zM480 126q51 55 51 166h-392v-54q0 -80 49 -123.5
t137 -43.5q104 0 155 55z" />
    <glyph glyph-name="florin" unicode="&#x192;" horiz-adv-x="517" 
d="M-65 -106v77q28 -11 60 -11q46 0 68 17t32 62l73 350h-68l18 85h68l13 58q18 78 64.5 118t125.5 40q28 0 46.5 -4t40.5 -13v-78q-13 5 -33 8t-37 3q-45 0 -67.5 -17t-31.5 -58l-12 -57h124l-23 -85h-119l-75 -355q-16 -78 -61.5 -117.5t-124.5 -39.5q-51 0 -81 17z" />
    <glyph glyph-name="Ohorn" unicode="&#x1a0;" horiz-adv-x="770" 
d="M118.5 70.5q-75.5 80.5 -75.5 249.5q0 174 75 254t230 80q151 0 225 -77q55 1 75.5 24.5t20.5 86.5h84q0 -90 -32 -132.5t-99 -52.5q31 -71 31 -183q0 -169 -75.5 -249.5t-229.5 -80.5t-229.5 80.5zM497 138q47 56 47 182q0 131 -46.5 186t-149.5 55q-102 0 -148.5 -55
t-46.5 -186q0 -125 47 -181.5t148 -56.5q102 0 149 56z" />
    <glyph glyph-name="ohorn" unicode="&#x1a1;" horiz-adv-x="676" 
d="M43 237q0 247 247 247q125 0 188 -65q56 1 76.5 26.5t20.5 90.5h84q0 -92 -33.5 -136t-104.5 -54q17 -48 17 -109q0 -247 -248 -247q-247 0 -247 247zM396.5 118q31.5 36 31.5 119q0 82 -31.5 118t-106.5 36q-74 0 -105.5 -36t-31.5 -118q0 -83 31.5 -119t105.5 -36
q75 0 106.5 36z" />
    <glyph glyph-name="Uhorn" unicode="&#x1af;" horiz-adv-x="821" 
d="M131 54q-73 64 -73 185v405h109v-401q0 -80 44 -120.5t127 -40.5q82 0 126 40.5t44 120.5v401h108v-70q55 2 76 26t21 88h84q0 -71 -19 -112.5t-58.5 -59.5t-103.5 -19v-258q0 -121 -72.5 -185t-205.5 -64q-134 0 -207 64z" />
    <glyph glyph-name="uhorn" unicode="&#x1b0;" horiz-adv-x="702" 
d="M103.5 37.5q-45.5 47.5 -45.5 137.5v299h109v-299q0 -53 26 -78t80 -25q39 0 73 14.5t60 40.5v347h108v-55q47 4 64.5 30t17.5 87h84q0 -98 -40.5 -143.5t-125.5 -48.5v-344h-99l-5 49q-75 -59 -176 -59q-85 0 -130.5 47.5z" />
    <glyph glyph-name="uni01CD" unicode="&#x1cd;" horiz-adv-x="700" 
d="M186 848h89l74 -101l76 101h87l-125 -161h-76zM290 644h122l244 -644h-112l-64 166h-259l-64 -166h-113zM462 250l-112 295l-112 -295h224z" />
    <glyph glyph-name="uni01CE" unicode="&#x1ce;" horiz-adv-x="547" 
d="M120 682h89l74 -101l76 101h87l-125 -161h-76zM91 27.5q-48 37.5 -48 107.5t47.5 110.5t142.5 40.5h152v21q0 35 -10.5 54.5t-38.5 28.5t-80 9q-84 0 -157 -25v81q34 13 80 21t97 8q106 0 159.5 -43t53.5 -136v-305h-93l-7 48q-30 -29 -73 -43.5t-105 -14.5
q-72 0 -120 37.5zM324 84q37 16 61 45v83h-150q-48 0 -69.5 -18t-21.5 -57q0 -36 24 -52.5t72 -16.5q47 0 84 16z" />
    <glyph glyph-name="uni01CF" unicode="&#x1cf;" horiz-adv-x="235" 
d="M-45 848h89l74 -101l76 101h87l-125 -161h-76zM63 644h109v-644h-109v644z" />
    <glyph glyph-name="uni01D0" unicode="&#x1d0;" horiz-adv-x="308" 
d="M2 682h89l74 -101l76 101h87l-125 -161h-76zM135 391h-72l10 83h171v-474h-109v391z" />
    <glyph glyph-name="uni01D1" unicode="&#x1d1;" horiz-adv-x="697" 
d="M185 848h89l74 -101l76 101h87l-125 -161h-76zM118.5 70.5q-75.5 80.5 -75.5 249.5q0 174 75 254t230 80t230 -80t75 -254q0 -169 -75.5 -249.5t-229.5 -80.5t-229.5 80.5zM497 138q47 56 47 182q0 131 -46.5 186t-149.5 55q-102 0 -148.5 -55t-46.5 -186
q0 -125 47 -181.5t148 -56.5q102 0 149 56z" />
    <glyph glyph-name="uni01D2" unicode="&#x1d2;" horiz-adv-x="581" 
d="M127 682h89l74 -101l76 101h87l-125 -161h-76zM43 237q0 247 247 247q248 0 248 -247t-248 -247q-247 0 -247 247zM396.5 118q31.5 36 31.5 119q0 82 -31.5 118t-106.5 36q-74 0 -105.5 -36t-31.5 -118q0 -83 31.5 -119t105.5 -36q75 0 106.5 36z" />
    <glyph glyph-name="uni01D3" unicode="&#x1d3;" horiz-adv-x="674" 
d="M174 848h89l74 -101l76 101h87l-125 -161h-76zM131 54q-73 64 -73 185v405h109v-401q0 -80 44 -120.5t127 -40.5q82 0 126 40.5t44 120.5v401h108v-405q0 -121 -72.5 -185t-205.5 -64q-134 0 -207 64z" />
    <glyph glyph-name="uni01D4" unicode="&#x1d4;" horiz-adv-x="578" 
d="M123 682h89l74 -101l76 101h87l-125 -161h-76zM103.5 37.5q-45.5 47.5 -45.5 137.5v299h109v-299q0 -53 26 -78t80 -25q39 0 73 14.5t60 40.5v347h108v-474h-99l-5 49q-75 -59 -176 -59q-85 0 -130.5 47.5z" />
    <glyph glyph-name="uni01D5" unicode="&#x1d5;" horiz-adv-x="674" 
d="M188 924h298v-71h-298v71zM198 789h92v-86h-92v86zM384 789h92v-86h-92v86zM131 54q-73 64 -73 185v405h109v-401q0 -80 44 -120.5t127 -40.5q82 0 126 40.5t44 120.5v401h108v-405q0 -121 -72.5 -185t-205.5 -64q-134 0 -207 64z" />
    <glyph glyph-name="uni01D6" unicode="&#x1d6;" horiz-adv-x="578" 
d="M142 743h298v-71h-298v71zM151 624h92v-86h-92v86zM337 624h92v-86h-92v86zM103.5 37.5q-45.5 47.5 -45.5 137.5v299h109v-299q0 -53 26 -78t80 -25q39 0 73 14.5t60 40.5v347h108v-474h-99l-5 49q-75 -59 -176 -59q-85 0 -130.5 47.5z" />
    <glyph glyph-name="uni01D7" unicode="&#x1d7;" horiz-adv-x="674" 
d="M357 913h83l-67 -127h-77zM193 772h90v-84h-90v84zM392 772h89v-84h-89v84zM131 54q-73 64 -73 185v405h109v-401q0 -80 44 -120.5t127 -40.5q82 0 126 40.5t44 120.5v401h108v-405q0 -121 -72.5 -185t-205.5 -64q-134 0 -207 64z" />
    <glyph glyph-name="uni01D8" unicode="&#x1d8;" horiz-adv-x="578" 
d="M302 747h83l-67 -127h-77zM138 606h90v-84h-90v84zM337 606h89v-84h-89v84zM103.5 37.5q-45.5 47.5 -45.5 137.5v299h109v-299q0 -53 26 -78t80 -25q39 0 73 14.5t60 40.5v347h108v-474h-99l-5 49q-75 -59 -176 -59q-85 0 -130.5 47.5z" />
    <glyph glyph-name="uni01D9" unicode="&#x1d9;" horiz-adv-x="674" 
d="M186 904h85l67 -78l68 78h83l-112 -120h-79zM191 772h90v-84h-90v84zM390 772h89v-84h-89v84zM131 54q-73 64 -73 185v405h109v-401q0 -80 44 -120.5t127 -40.5q82 0 126 40.5t44 120.5v401h108v-405q0 -121 -72.5 -185t-205.5 -64q-134 0 -207 64z" />
    <glyph glyph-name="uni01DA" unicode="&#x1da;" horiz-adv-x="578" 
d="M137 737h85l67 -78l68 78h83l-112 -120h-79zM142 605h90v-84h-90v84zM341 605h89v-84h-89v84zM103.5 37.5q-45.5 47.5 -45.5 137.5v299h109v-299q0 -53 26 -78t80 -25q39 0 73 14.5t60 40.5v347h108v-474h-99l-5 49q-75 -59 -176 -59q-85 0 -130.5 47.5z" />
    <glyph glyph-name="uni01DB" unicode="&#x1db;" horiz-adv-x="674" 
d="M232 913h84l60 -127h-77zM191 772h90v-84h-90v84zM390 772h89v-84h-89v84zM131 54q-73 64 -73 185v405h109v-401q0 -80 44 -120.5t127 -40.5q82 0 126 40.5t44 120.5v401h108v-405q0 -121 -72.5 -185t-205.5 -64q-134 0 -207 64z" />
    <glyph glyph-name="uni01DC" unicode="&#x1dc;" horiz-adv-x="578" 
d="M186 747h84l60 -127h-77zM145 606h90v-84h-90v84zM344 606h89v-84h-89v84zM103.5 37.5q-45.5 47.5 -45.5 137.5v299h109v-299q0 -53 26 -78t80 -25q39 0 73 14.5t60 40.5v347h108v-474h-99l-5 49q-75 -59 -176 -59q-85 0 -130.5 47.5z" />
    <glyph glyph-name="Gcaron" unicode="&#x1e6;" horiz-adv-x="641" 
d="M195 847h89l74 -101l76 101h87l-125 -161h-76zM125 74.5q-82 84.5 -82 234.5q0 163 81 254t242 91q107 0 191 -29v-94q-83 30 -182 30q-119 0 -170.5 -62.5t-51.5 -189.5q0 -227 213 -227q86 0 139 20v180h-161v71h254v-310q-36 -23 -94.5 -38t-140.5 -15
q-156 0 -238 84.5z" />
    <glyph glyph-name="gcaron" unicode="&#x1e7;" horiz-adv-x="554" 
d="M123 682h89l74 -101l76 101h87l-125 -161h-76zM147.5 -169q-52.5 7 -88.5 19v84q38 -13 90 -20t101 -7q76 0 107 8.5t31 35.5q0 21 -16.5 29.5t-60.5 8.5h-128q-63 0 -96 23.5t-33 67.5q0 31 18 55.5t53 36.5q-80 39 -80 139q0 90 54 131.5t164 41.5q40 0 87 -10h174
l-3 -71h-80q37 -33 37 -92q0 -78 -46.5 -120.5t-138.5 -42.5q-24 0 -59 5q-32 -3 -55 -16.5t-23 -34.5q0 -15 12 -21.5t40 -6.5h133q71 0 109.5 -30.5t38.5 -88.5q0 -69 -58.5 -100t-175.5 -31q-55 0 -107.5 7zM353.5 238.5q25.5 21.5 25.5 75.5t-26 77.5t-90 23.5
q-62 0 -89.5 -23.5t-27.5 -77.5q0 -52 26.5 -74.5t90.5 -22.5q65 0 90.5 21.5z" />
    <glyph glyph-name="Aringacute" unicode="&#x1fa;" horiz-adv-x="700" 
d="M380 853h-87l75 177h96zM656 0h-112l-64 166h-259l-64 -166h-113l237 620q-23 16 -35.5 40.5t-12.5 53.5q0 49 32 81.5t84 32.5q53 0 85.5 -32.5t32.5 -81.5q0 -29 -12.5 -53t-34.5 -39zM306.5 756q-16.5 -17 -16.5 -42t16.5 -42t42.5 -17q27 0 44 17t17 42t-17 42
t-44 17q-26 0 -42.5 -17zM462 250l-112 295l-112 -295h224z" />
    <glyph glyph-name="aringacute" unicode="&#x1fb;" horiz-adv-x="547" 
d="M310 925h96l-84 -141h-87zM198 549.5q-32 32.5 -32 80.5q0 49 32 81.5t84 32.5q53 0 85.5 -32.5t32.5 -81.5q0 -48 -32.5 -80.5t-85.5 -32.5q-52 0 -84 32.5zM326 588q17 17 17 42t-17 42t-44 17q-26 0 -42.5 -17t-16.5 -42t16.5 -42t42.5 -17q27 0 44 17zM91 27.5
q-48 37.5 -48 107.5t47.5 110.5t142.5 40.5h152v21q0 35 -10.5 54.5t-38.5 28.5t-80 9q-84 0 -157 -25v81q34 13 80 21t97 8q106 0 159.5 -43t53.5 -136v-305h-93l-7 48q-30 -29 -73 -43.5t-105 -14.5q-72 0 -120 37.5zM324 84q37 16 61 45v83h-150q-48 0 -69.5 -18
t-21.5 -57q0 -36 24 -52.5t72 -16.5q47 0 84 16z" />
    <glyph glyph-name="AEacute" unicode="&#x1fc;" horiz-adv-x="845" 
d="M502 865h96l-84 -177h-87zM290 644h512v-85h-287v-195h250v-84h-250v-196h287v-84h-395v167h-182l-64 -167h-117zM407 251v310h-39l-115 -310h154z" />
    <glyph glyph-name="aeacute" unicode="&#x1fd;" horiz-adv-x="881" 
d="M467 699h96l-84 -177h-87zM92.5 27.5q-49.5 37.5 -49.5 107.5t47.5 110.5t142.5 40.5h152v21q0 35 -10.5 54.5t-38.5 28.5t-80 9q-84 0 -157 -25v81q34 13 80 21t97 8q122 0 173 -63q29 30 73 46.5t99 16.5q105 0 161 -55t56 -147v-88h-347q8 -68 49 -95t129 -27
q37 0 74.5 6.5t65.5 18.5v-79q-63 -28 -162 -28q-67 0 -119 21t-82 62q-41 -40 -93 -61.5t-136 -21.5q-75 0 -124.5 37.5zM742 265v33q0 51 -28 77.5t-90 26.5q-74 0 -103.5 -32t-29.5 -105h251zM324.5 83q34.5 15 60.5 44v85h-150q-48 0 -69.5 -18t-21.5 -57
q0 -36 24 -52.5t72 -16.5q50 0 84.5 15z" />
    <glyph glyph-name="Oslashacute" unicode="&#x1fe;" horiz-adv-x="697" 
d="M360 865h96l-84 -177h-87zM192 18q-75 34 -112 109t-37 193q0 174 75 254t230 80q42 0 79 -6l17 45h74l-24 -63q81 -32 120 -108t39 -202q0 -169 -75.5 -249.5t-229.5 -80.5q-47 0 -90 8l-19 -51h-74zM393 558q-21 3 -45 3q-102 0 -148.5 -55t-46.5 -186q0 -79 18 -130
t56 -77zM497 138q47 56 47 182q0 87 -21 140t-64 77l-168 -450q28 -5 57 -5q102 0 149 56z" />
    <glyph glyph-name="oslashacute" unicode="&#x1ff;" horiz-adv-x="581" 
d="M302 699h96l-84 -177h-87zM168 10q-125 51 -125 227q0 247 247 247q29 0 53 -3l18 47h74l-24 -65q127 -50 127 -226q0 -247 -248 -247q-21 0 -55 4l-17 -48h-74zM309 390l-19 1q-74 0 -105.5 -36t-31.5 -118q0 -53 11.5 -85.5t37.5 -49.5zM396.5 118q31.5 36 31.5 119
q0 102 -52 134l-107 -288q6 -1 21 -1q75 0 106.5 36z" />
    <glyph glyph-name="Scommaaccent" unicode="&#x218;" horiz-adv-x="555" 
d="M57 22v96q93 -36 191 -36q81 0 117.5 19t36.5 71q0 33 -15.5 52.5t-50.5 33.5t-105 32q-104 27 -146 68.5t-42 114.5q0 86 63 133.5t184 47.5q53 0 102.5 -7.5t80.5 -18.5v-96q-76 29 -168 29q-76 0 -114 -20t-38 -68q0 -29 14 -46.5t46.5 -31t97.5 -29.5
q113 -29 157 -75t44 -119q0 -86 -64.5 -134t-189.5 -48t-201 32zM228 -50h96l-41 -173h-83z" />
    <glyph glyph-name="scommaaccent" unicode="&#x219;" horiz-adv-x="464" 
d="M128 -3.5q-45 6.5 -74 17.5v92q33 -13 73.5 -20t79.5 -7q58 0 81 10t23 39q0 26 -21 38.5t-79 30.5l-30 10q-72 24 -105 53.5t-33 87.5q0 67 48 101.5t150 34.5q39 0 76.5 -6t64.5 -15v-91q-27 11 -60.5 17t-63.5 6q-55 0 -80 -9.5t-25 -35.5q0 -23 19 -34.5t75 -29.5
l22 -7q58 -18 90 -36.5t46.5 -45t14.5 -68.5q0 -139 -199 -139q-48 0 -93 6.5zM186 -50h96l-41 -173h-83z" />
    <glyph glyph-name="uni021A" unicode="&#x21a;" horiz-adv-x="568" 
d="M230 559h-206v85h520v-85h-205v-559h-109v559zM242 -45h90l-46 -189h-73z" />
    <glyph glyph-name="uni021B" unicode="&#x21b;" horiz-adv-x="363" 
d="M131 29.5q-38 39.5 -38 111.5v248h-70v85h70v109l108 33v-142h126l-7 -85h-119v-242q0 -41 18.5 -57.5t62.5 -16.5q27 0 57 10v-77q-39 -16 -95 -16q-75 0 -113 39.5zM187 -45h90l-46 -189h-73z" />
    <glyph glyph-name="uni0237" unicode="&#x237;" horiz-adv-x="306" 
d="M-10 -218v79q31 -10 61 -10q47 0 65.5 16.5t18.5 56.5v467h-72l10 83h170v-560q0 -69 -39.5 -108.5t-114.5 -39.5q-58 0 -99 16z" />
    <glyph glyph-name="uni0251" unicode="&#x251;" horiz-adv-x="583" 
d="M99.5 43q-56.5 53 -56.5 175q0 81 30 141.5t82.5 92.5t116.5 32q43 0 75 -10t63 -33v33h109v-474h-93l-7 47q-33 -30 -71 -43.5t-89 -13.5q-103 0 -159.5 53zM410 122v235q-24 22 -49.5 33t-59.5 11q-73 0 -110.5 -47.5t-37.5 -136.5q0 -82 31.5 -113.5t103.5 -31.5
q73 0 122 50z" />
    <glyph glyph-name="uni0259" unicode="&#x259;" horiz-adv-x="537" 
d="M99 45q-56 55 -56 147v87h347q-8 68 -49 94.5t-129 26.5q-37 0 -74.5 -6.5t-65.5 -18.5v80q66 29 162 29q126 0 193 -62t67 -187q0 -116 -59 -180.5t-175 -64.5q-105 0 -161 55zM360.5 103.5q29.5 32.5 29.5 104.5h-251v-32q0 -51 28 -78t90 -27q74 0 103.5 32.5z" />
    <glyph glyph-name="uni02BB" unicode="&#x2bb;" horiz-adv-x="235" 
d="M109 654h82l-52 -195h-96z" />
    <glyph glyph-name="uni02BC" unicode="&#x2bc;" horiz-adv-x="235" 
d="M96 654h95l-66 -195h-82z" />
    <glyph glyph-name="uni02BE" unicode="&#x2be;" 
d="M-380 532q38 0 59 21.5t21 58.5t-20.5 58t-59.5 21v68q71 0 110 -40t39 -107t-39 -107.5t-110 -40.5v68z" />
    <glyph glyph-name="uni02BF" unicode="&#x2bf;" 
d="M-340.5 504.5q-39.5 40.5 -39.5 107.5q0 66 39.5 106.5t109.5 40.5v-68q-38 0 -58.5 -21t-20.5 -58t20.5 -58.5t58.5 -21.5v-68q-70 0 -109.5 40.5z" />
    <glyph glyph-name="circumflex" unicode="&#x2c6;" horiz-adv-x="345" 
d="M134 695h76l125 -161h-87l-76 101l-74 -101h-89z" />
    <glyph glyph-name="caron" unicode="&#x2c7;" horiz-adv-x="345" 
d="M9 695h89l74 -101l76 101h87l-125 -161h-76z" />
    <glyph glyph-name="uni02C8" unicode="&#x2c8;" 
d="M-54 660h73v-178h-73v178z" />
    <glyph glyph-name="uni02C9" unicode="&#x2c9;" 
d="M99 634h298v-71h-298v71z" />
    <glyph glyph-name="uni02CA" unicode="&#x2ca;" 
d="M-26 699h95l-83 -177h-88z" />
    <glyph glyph-name="uni02CB" unicode="&#x2cb;" 
d="M-106 699h95l76 -177h-88z" />
    <glyph glyph-name="uni02CC" unicode="&#x2cc;" 
d="M-54 -41h73v-178h-73v178z" />
    <glyph glyph-name="breve" unicode="&#x2d8;" horiz-adv-x="310" 
d="M49.5 575q-37.5 38 -37.5 104h74q0 -36 17.5 -56.5t49.5 -20.5q33 0 51.5 20.5t18.5 56.5h74q0 -65 -38.5 -103.5t-105.5 -38.5q-66 0 -103.5 38z" />
    <glyph glyph-name="dotaccent" unicode="&#x2d9;" horiz-adv-x="145" 
d="M26 646h92v-88h-92v88z" />
    <glyph glyph-name="ring" unicode="&#x2da;" horiz-adv-x="293" 
d="M65.5 557.5q-32.5 31.5 -32.5 79.5q0 47 33 79.5t82 32.5t82 -32.5t33 -79.5q0 -48 -32.5 -79.5t-82.5 -31.5t-82.5 31.5zM186.5 598.5q15.5 15.5 15.5 38.5t-15.5 38.5t-38.5 15.5t-39 -15.5t-16 -38.5t16 -38.5t39 -15.5t38.5 15.5z" />
    <glyph glyph-name="ogonek" unicode="&#x2db;" horiz-adv-x="237" 
d="M59 -197.5q-30 22.5 -30 66.5q0 38 19.5 73t54.5 58h82q-34 -25 -52 -53.5t-18 -58.5q0 -22 12 -31t36 -9q30 0 49 11v-66q-13 -6 -34 -9.5t-42 -3.5q-47 0 -77 22.5z" />
    <glyph glyph-name="tilde" unicode="&#x2dc;" horiz-adv-x="370" 
d="M228 569q-17 5 -47 16q-25 9 -39.5 13.5t-29.5 4.5q-55 0 -87 -36v80q13 13 36.5 21.5t48.5 8.5q20 0 37.5 -5t42.5 -15q23 -9 39 -14t34 -5q52 0 80 37v-80q-10 -14 -31.5 -22.5t-47.5 -8.5q-19 0 -36 5z" />
    <glyph glyph-name="hungarumlaut" unicode="&#x2dd;" horiz-adv-x="407" 
d="M84 697h99l-87 -164h-87zM301 697h99l-87 -164h-87z" />
    <glyph glyph-name="gravecomb" unicode="&#x300;" 
d="M-458 699h95l76 -177h-88z" />
    <glyph glyph-name="acutecomb" unicode="&#x301;" 
d="M-327 699h96l-84 -177h-87z" />
    <glyph glyph-name="uni0302" unicode="&#x302;" 
d="M-67 695h76l125 -161h-87l-76 101l-74 -101h-89z" />
    <glyph glyph-name="tildecomb" unicode="&#x303;" 
d="M-284 569q-17 5 -47 16q-25 9 -39.5 13.5t-29.5 4.5q-55 0 -87 -36v80q13 13 36.5 21.5t48.5 8.5q20 0 37.5 -5t42.5 -15q23 -9 39 -14t34 -5q52 0 80 37v-80q-10 -14 -31.5 -22.5t-47.5 -8.5q-19 0 -36 5z" />
    <glyph glyph-name="uni0304" unicode="&#x304;" 
d="M-175 634h298v-71h-298v71z" />
    <glyph glyph-name="uni0306" unicode="&#x306;" 
d="M-121.5 576q-37.5 38 -37.5 103h74q0 -35 17.5 -55.5t49.5 -20.5q33 0 51.5 20.5t18.5 55.5h74q0 -65 -38.5 -103t-105.5 -38q-66 0 -103.5 38z" />
    <glyph glyph-name="uni0307" unicode="&#x307;" 
d="M-63 646h92v-88h-92v88z" />
    <glyph glyph-name="uni0308" unicode="&#x308;" 
d="M-147 645h92v-86h-92v86zM39 645h92v-86h-92v86z" />
    <glyph glyph-name="hookabovecomb" unicode="&#x309;" 
d="M-365 590q55 3 73.5 13.5t18.5 36.5q0 22 -18.5 32t-55.5 10q-15 0 -33 -3.5t-31 -8.5v59q16 6 41.5 9.5t51.5 3.5q61 0 93.5 -25t32.5 -68q0 -42 -20 -64.5t-68 -29.5v-47h-85v82z" />
    <glyph glyph-name="uni030A" unicode="&#x30a;" 
d="M-102 553.5q-32 32.5 -32 80.5q0 49 32 81.5t84 32.5q53 0 85.5 -32.5t32.5 -81.5q0 -48 -32.5 -80.5t-85.5 -32.5q-52 0 -84 32.5zM26 592q17 17 17 42t-17 42t-44 17q-26 0 -42.5 -17t-16.5 -42t16.5 -42t42.5 -17q27 0 44 17z" />
    <glyph glyph-name="uni030B" unicode="&#x30b;" 
d="M-151 697h99l-86 -164h-88zM66 697h99l-86 -164h-88z" />
    <glyph glyph-name="uni030C" unicode="&#x30c;" 
d="M-192 695h89l74 -101l76 101h87l-125 -161h-76z" />
    <glyph glyph-name="uni031B" unicode="&#x31b;" 
d="M-118 600q43 0 65 9t30.5 32t8.5 68h84q0 -72 -19.5 -112t-60 -56.5t-108.5 -17.5v77z" />
    <glyph glyph-name="dotbelowcomb" unicode="&#x323;" 
d="M-364 -85h94v-88h-94v88z" />
    <glyph glyph-name="uni0324" unicode="&#x324;" 
d="M-155 -85h93v-87h-93v87zM38 -85h92v-87h-92v87z" />
    <glyph glyph-name="uni0326" unicode="&#x326;" 
d="M-136 -37h90l-46 -189h-73z" />
    <glyph glyph-name="uni0327" unicode="&#x327;" 
d="M-71 -237.5q-23 2.5 -34 5.5v59q29 -8 62 -8q47 0 66 9t19 36q0 26 -18.5 33.5t-62.5 7.5h-40l29 95h73l-16 -47q53 0 81 -23.5t28 -66.5q0 -103 -148 -103q-16 0 -39 2.5z" />
    <glyph glyph-name="uni0328" unicode="&#x328;" 
d="M-78.5 -197.5q-30.5 22.5 -30.5 66.5q0 38 20 72.5t54 58.5h82q-33 -25 -51 -54t-18 -58q0 -22 11.5 -31t35.5 -9q13 0 27 3t23 8v-66q-13 -6 -34 -9.5t-43 -3.5q-46 0 -76.5 22.5z" />
    <glyph glyph-name="uni032E" unicode="&#x32e;" 
d="M-121.5 -169q-37.5 38 -37.5 104h74q0 -36 17.5 -56.5t49.5 -20.5q33 0 51.5 20.5t18.5 56.5h74q0 -65 -38.5 -103.5t-105.5 -38.5q-66 0 -103.5 38z" />
    <glyph glyph-name="uni0331" unicode="&#x331;" 
d="M-175 -72h298v-71h-298v71z" />
    <glyph glyph-name="uni0394" unicode="&#x394;" horiz-adv-x="649" 
d="M43 60l230 584h100l232 -585v-59h-562v60zM498 84l-175 444l-175 -444h350z" />
    <glyph glyph-name="uni03A9" unicode="&#x3a9;" horiz-adv-x="764" 
d="M50 82h144q-71 45 -111 116.5t-40 165.5q0 97 40.5 172t117 117t181.5 42q104 0 180.5 -42t117 -117t40.5 -172q0 -95 -39.5 -166.5t-110.5 -115.5h143v-82h-275v84q172 93 172 276q0 72 -28 126.5t-79.5 85t-120.5 30.5t-120.5 -30.5t-80 -85.5t-28.5 -126
q0 -182 172 -276v-84h-275v82z" />
    <glyph glyph-name="uni03BC" unicode="&#x3bc;" horiz-adv-x="583" 
d="M63 474h109v-299q0 -53 26 -78t80 -25q39 0 73 14.5t60 40.5v347h108v-474h-99l-5 49q-75 -59 -176 -59q-40 0 -67 15v-148h-109v617z" />
    <glyph glyph-name="pi" unicode="&#x3c0;" horiz-adv-x="672" 
d="M434 30.5q-38 40.5 -38 112.5v247h-188v-390h-108v390h-67v84h538v-84h-66v-243q0 -41 17.5 -56.5t60.5 -15.5q27 0 58 10v-79q-41 -16 -96 -16q-73 0 -111 40.5z" />
    <glyph glyph-name="uni0E01" unicode="&#xe01;" horiz-adv-x="613" 
d="M72 195q0 100 79 124l-108 27v112q45 40 111.5 66t147.5 26q123 0 185 -51t62 -164v-335h-109v338q0 69 -32 96.5t-110 27.5q-49 0 -92.5 -14t-68.5 -37v-18l114 -29v-72q-39 -10 -55 -32t-16 -66v-194h-108v195z" />
    <glyph glyph-name="uni0E02" unicode="&#xe02;" horiz-adv-x="581" 
d="M112.5 42.5q-59.5 52.5 -59.5 149.5v53q0 32 14 59.5t41 63.5q18 24 26 37.5t8 26.5q0 15 -7 20.5t-25 5.5h-69l9 82h126q76 0 76 -73q0 -31 -11.5 -55t-34.5 -60q-22 -32 -33.5 -56t-11.5 -52v-61q0 -54 32 -80t92 -26q123 0 123 109v354h109v-347q0 -96 -61.5 -149.5
t-170.5 -53.5q-113 0 -172.5 52.5z" />
    <glyph glyph-name="uni0E03" unicode="&#xe03;" horiz-adv-x="577" 
d="M111.5 40q-58.5 50 -58.5 146v36q0 33 19 66t52 74q23 30 33.5 46.5t10.5 29.5q0 22 -20 22q-18 0 -33 -15v-40h-74v135h76v-28q16 13 33.5 20.5t42.5 7.5q37 0 56.5 -19.5t19.5 -57.5q0 -31 -14 -57.5t-41 -65.5q-26 -38 -39 -62.5t-13 -52.5v-42q0 -106 121 -106
q60 0 90.5 26.5t30.5 82.5v354h109v-347q0 -96 -60.5 -149.5t-169.5 -53.5q-113 0 -171.5 50z" />
    <glyph glyph-name="uni0E04" unicode="&#xe04;" horiz-adv-x="615" 
d="M63 342q0 100 60.5 154t184.5 54t183.5 -54t59.5 -154v-342h-109v352q0 110 -134 110q-68 0 -102 -27t-34 -83v-111q44 36 105 36h65l4 -87h-72q-61 0 -102 -34v-156h-109v342z" />
    <glyph glyph-name="uni0E05" unicode="&#xe05;" horiz-adv-x="615" 
d="M63 395q0 75 33.5 115t98.5 40q73 0 112 -52q20 26 52 39t66 13q69 0 97.5 -37.5t28.5 -118.5v-394h-108v396q0 30 -10 45.5t-36 15.5q-21 0 -36 -10.5t-28 -30.5h-52q-10 20 -22 30.5t-30 10.5q-29 0 -43.5 -16t-14.5 -45v-155q44 36 105 36h66l4 -87h-72
q-60 0 -103 -34v-156h-108v395z" />
    <glyph glyph-name="uni0E06" unicode="&#xe06;" horiz-adv-x="601" 
d="M248.5 7.5q-45.5 17.5 -84.5 51.5l-6 -59h-99v209q0 33 18.5 67.5t52.5 80.5q24 34 34 51t10 30q0 22 -20 22q-18 0 -33 -15v-40h-74v135h76v-28q16 13 33.5 20.5t42.5 7.5q37 0 56.5 -19.5t19.5 -57.5q0 -30 -13.5 -58t-41.5 -72q-26 -41 -39 -67t-13 -54v-70
q28 -29 67 -47t82 -18q57 0 84.5 27t27.5 87v349h108v-354q0 -93 -48.5 -144.5t-135.5 -51.5q-59 0 -104.5 17.5z" />
    <glyph glyph-name="uni0E07" unicode="&#xe07;" horiz-adv-x="564" 
d="M175 3l-152 370h106l123 -300q85 -4 124.5 49t39.5 165q0 66 -12 103t-40 52.5t-79 15.5h-38v82h52q115 0 168.5 -61.5t53.5 -190.5q0 -152 -66.5 -225t-179.5 -73q-64 0 -100 13z" />
    <glyph glyph-name="uni0E08" unicode="&#xe08;" horiz-adv-x="569" 
d="M232 -6.5q-25 3.5 -40 9.5l-80 213h-69l5 82h133l83 -222q71 -3 114 45t43 154q0 71 -18.5 111.5t-60.5 58t-116 17.5q-92 0 -171 -26v84q94 30 200 30q140 0 205.5 -69.5t65.5 -205.5q0 -90 -33.5 -154.5t-90 -97.5t-124.5 -33q-21 0 -46 3.5z" />
    <glyph glyph-name="uni0E09" unicode="&#xe09;" horiz-adv-x="583" 
d="M94 37.5q-44 47.5 -44 139.5v123h108v-113q0 -59 23.5 -84.5t83.5 -25.5q86 0 145 66v187q0 51 -16.5 79.5t-53.5 40.5t-102 12q-42 0 -98 -8.5t-97 -21.5v84q45 15 105 24.5t118 9.5q131 0 192 -54t61 -167v-329h-99l-6 59q-38 -33 -84 -51t-107 -18q-85 0 -129 47.5z
" />
    <glyph glyph-name="uni0E0A" unicode="&#xe0a;" horiz-adv-x="582" 
d="M113 42.5q-59 52.5 -59 149.5v53q0 32 14 59.5t41 63.5q18 24 26 37.5t8 26.5q0 15 -7 20.5t-25 5.5h-69l9 82h126q76 0 76 -73q0 -31 -11.5 -55t-34.5 -60q-22 -32 -33.5 -56t-11.5 -52v-61q0 -106 123 -106q124 0 124 109v66q0 47 -15.5 65.5t-55.5 18.5h-28l5 79h20
q41 0 57.5 19.5t16.5 64.5v51h109v-49q0 -51 -15.5 -80t-56.5 -45q43 -18 57.5 -47.5t14.5 -79.5v-56q0 -96 -62 -149.5t-171 -53.5q-113 0 -172 52.5z" />
    <glyph glyph-name="uni0E0B" unicode="&#xe0b;" horiz-adv-x="582" 
d="M113.5 40.5q-59.5 50.5 -59.5 144.5v40q0 33 19 65.5t52 72.5q24 31 34 46.5t10 28.5q0 22 -20 22q-18 0 -33 -15v-40h-74v135h76v-28q16 13 33.5 20.5t42.5 7.5q37 0 56.5 -19.5t19.5 -57.5q0 -31 -14 -57.5t-41 -65.5q-26 -38 -39 -62.5t-13 -52.5v-42q0 -54 31.5 -80
t90.5 -26q125 0 125 109v66q0 47 -16 65.5t-56 18.5h-28l5 79h20q41 0 58 20t17 64v51h108v-49q0 -50 -15 -79.5t-56 -45.5q42 -18 56.5 -47.5t14.5 -79.5v-56q0 -96 -61.5 -149.5t-171.5 -53.5q-112 0 -171.5 50.5z" />
    <glyph glyph-name="uni0E0C" unicode="&#xe0c;" horiz-adv-x="957" 
d="M614 7.5q-43 17.5 -83 51.5l-6 -59h-96v338q0 69 -30.5 96.5t-103.5 27.5q-48 0 -90.5 -14t-67.5 -37v-18l114 -29v-72q-39 -10 -55 -32t-16 -66v-65q0 -23 10 -33t32 -10h55v-86h-108q-45 0 -71 28t-26 73v94q0 100 79 124l-108 27v112q45 40 110.5 66t145.5 26
q118 0 177 -51t59 -164v-193q28 -30 65 -47.5t78 -17.5q56 0 81.5 26.5t25.5 87.5v349h108v-354q0 -94 -46.5 -145t-132.5 -51q-57 0 -100 17.5z" />
    <glyph glyph-name="uni0E0D" unicode="&#xe0d;" horiz-adv-x="970" 
d="M562.5 -50.5q-53.5 10.5 -93.5 32.5v87q40 -21 96 -32t103 -11q69 0 106.5 15.5t37.5 42.5q0 19 -14 33q-54 -32 -132 -32q-117 0 -177 55t-60 165v33q0 69 -30.5 96.5t-103.5 27.5q-48 0 -90.5 -14t-67.5 -37v-18l114 -29v-72q-39 -10 -55 -32t-16 -66v-65q0 -23 10 -33
t32 -10h55v-86h-108q-45 0 -71 28t-26 73v94q0 100 79 124l-108 27v112q45 40 110.5 66t145.5 26q118 0 177 -51t59 -164v-34q0 -67 31.5 -98t99.5 -31t99.5 31t31.5 98v239h108v-235q0 -84 -37 -134q38 -36 38 -93q0 -67 -61 -103t-175 -36q-54 0 -107.5 10.5z" />
    <glyph glyph-name="uni0E0E" unicode="&#xe0e;" horiz-adv-x="647" 
d="M168 -110q77 36 170 36q41 0 77 -7.5t60 -21.5v441q0 68 -31 96t-105 28q-50 0 -93.5 -14t-67.5 -37v-18l117 -29v-72q-37 -11 -49.5 -31.5t-12.5 -66.5v-72q0 -122 -118 -122h-67v86h37q21 0 29.5 9.5t8.5 32.5v67q0 48 15 78.5t56 45.5l-110 27v112q44 39 110.5 65.5
t147.5 26.5q119 0 180 -52t61 -163v-529h-108q-61 33 -148 33q-41 0 -83 -9.5t-76 -26.5v87z" />
    <glyph glyph-name="uni0E0F" unicode="&#xe0f;" horiz-adv-x="647" 
d="M370.5 -182.5q-30.5 12.5 -46.5 33.5q-25 -45 -91 -45h-97l6 87h71q29 0 45.5 9.5t27.5 33.5h71q9 -23 23.5 -35t39.5 -12q29 0 42 15t13 46v388q0 68 -31 96t-105 28q-50 0 -93.5 -14t-67.5 -37v-18l117 -29v-72q-37 -11 -49.5 -31.5t-12.5 -66.5v-72q0 -122 -118 -122
h-67v86h37q21 0 29.5 9.5t8.5 32.5v67q0 48 15 78.5t56 45.5l-110 27v112q44 39 110.5 65.5t147.5 26.5q119 0 180 -52t61 -163v-391q0 -66 -39 -102.5t-108 -36.5q-35 0 -65.5 12.5z" />
    <glyph glyph-name="uni0E10" unicode="&#xe10;" horiz-adv-x="604" 
d="M227 -6.5q-25 3.5 -40 9.5l-80 213h-69l5 82h133l83 -222q71 -3 114 45t43 154q0 71 -18.5 111.5t-60.5 58t-116 17.5q-92 0 -171 -26v84q94 30 200 30q48 0 96 -10h223l-5 -85h-93q50 -63 50 -180q0 -90 -33.5 -154.5t-90 -97.5t-124.5 -33q-21 0 -46 3.5zM290.5 -182.5
q-30.5 12.5 -46.5 33.5q-25 -45 -91 -45h-97l6 87h71q29 0 45.5 9.5t27.5 33.5h71q9 -23 23.5 -35t39.5 -12q29 0 42 15t13 46v9h108v-15q0 -66 -39 -102.5t-108 -36.5q-35 0 -65.5 12.5z" />
    <glyph glyph-name="uni0E11" unicode="&#xe11;" horiz-adv-x="601" 
d="M81 213q0 31 13.5 62.5t37.5 74.5q19 32 28 52t9 36q0 22 -20 22q-18 0 -33 -15v-40h-74v135h76v-28q16 13 32.5 20.5t41.5 7.5q40 0 59 -30q24 18 56.5 29t67.5 11q85 0 123.5 -45.5t38.5 -140.5v-364h-108v363q0 54 -17.5 76.5t-65.5 22.5q-20 0 -43.5 -8.5
t-37.5 -21.5q0 -23 -8 -43.5t-26 -55.5q-21 -38 -31 -64.5t-10 -59.5v-209h-109v213z" />
    <glyph glyph-name="uni0E12" unicode="&#xe12;" horiz-adv-x="989" 
d="M103 57.5q-60 67.5 -60 204.5q0 138 45 213t126 75q39 0 63 -13t44 -39q21 24 53.5 38t67.5 14q63 0 93.5 -37.5t30.5 -107.5v-263q28 -29 65 -47t79 -18q55 0 80.5 26.5t25.5 87.5v349h109v-354q0 -94 -46.5 -145t-132.5 -51q-57 0 -101 17.5t-83 51.5l-5 -59h-96v389
q0 40 -10 56.5t-40 16.5q-21 0 -37 -11.5t-24 -34.5h-60q-13 25 -25.5 35.5t-35.5 10.5q-46 0 -63.5 -51t-17.5 -149q0 -99 33.5 -142t101.5 -43q46 0 69 8v-83q-34 -12 -88 -12q-101 0 -161 67.5z" />
    <glyph glyph-name="uni0E13" unicode="&#xe13;" horiz-adv-x="960" 
d="M475.5 41q-46.5 51 -46.5 145v152q0 69 -30.5 96.5t-103.5 27.5q-48 0 -90.5 -14t-67.5 -37v-18l114 -29v-72q-39 -10 -55 -32t-16 -66v-65q0 -23 10 -33t32 -10h55v-86h-108q-45 0 -71 28t-26 73v94q0 100 79 124l-108 27v112q45 40 110.5 66t145.5 26q118 0 177 -51
t59 -164v-144q0 -61 26.5 -87.5t82.5 -26.5q41 0 78 17.5t65 47.5v398h109v-540h-99l-6 59q-38 -34 -81.5 -51.5t-101.5 -17.5q-86 0 -132.5 51z" />
    <glyph glyph-name="uni0E14" unicode="&#xe14;" horiz-adv-x="643" 
d="M103 57.5q-60 67.5 -60 204.5t70 212.5t206 75.5q88 0 146.5 -30.5t86 -80t27.5 -109.5v-330h-109v325q0 65 -35.5 101t-117.5 36q-87 0 -128 -50t-41 -150q0 -99 33.5 -142t101.5 -43q46 0 69 8v-83q-34 -12 -88 -12q-101 0 -161 67.5z" />
    <glyph glyph-name="uni0E15" unicode="&#xe15;" horiz-adv-x="646" 
d="M103 57.5q-60 67.5 -60 204.5q0 139 46.5 213.5t131.5 74.5q39 0 63.5 -13t44.5 -39q21 23 55 37.5t69 14.5q63 0 96 -38t33 -107v-405h-109v389q0 40 -11 56.5t-42 16.5q-21 0 -37.5 -11.5t-24.5 -34.5h-60q-13 25 -26 35.5t-36 10.5q-49 0 -68.5 -51t-19.5 -149
q0 -99 33.5 -142t101.5 -43q46 0 69 8v-83q-34 -12 -88 -12q-101 0 -161 67.5z" />
    <glyph glyph-name="uni0E16" unicode="&#xe16;" horiz-adv-x="613" 
d="M98 28q-26 28 -26 73v94q0 100 79 124l-108 27v112q45 40 111.5 66t147.5 26q123 0 185 -51t62 -164v-335h-109v338q0 69 -32 96.5t-110 27.5q-49 0 -92.5 -14t-68.5 -37v-18l114 -29v-72q-39 -10 -55 -32t-16 -66v-65q0 -23 10 -33t32 -10h55v-86h-108q-45 0 -71 28z
" />
    <glyph glyph-name="uni0E17" unicode="&#xe17;" horiz-adv-x="605" 
d="M63 540h99l6 -59q81 69 192 69q85 0 133 -51t48 -143v-356h-108v351q0 58 -27.5 84.5t-84.5 26.5q-43 0 -82 -18t-67 -47v-397h-109v540z" />
    <glyph glyph-name="uni0E18" unicode="&#xe18;" horiz-adv-x="526" 
d="M151.5 1q-57.5 11 -98.5 29v203h100v-138q49 -18 111 -18q63 0 93 18.5t30 65.5q0 35 -18 53.5t-46.5 27.5t-101.5 26q-58 13 -94.5 27t-60 41t-23.5 72q0 70 60 106t172 36q53 0 106 -7.5t83 -18.5v-90q-33 13 -81 20.5t-93 7.5q-67 0 -105.5 -10t-38.5 -41
q0 -27 25.5 -39.5t84.5 -25.5q13 -3 28 -6.5t32 -8.5q61 -17 97 -34t57 -49t21 -87q0 -84 -58.5 -127.5t-161.5 -43.5q-62 0 -119.5 11z" />
    <glyph glyph-name="uni0E19" unicode="&#xe19;" horiz-adv-x="605" 
d="M111.5 41.5q-48.5 51.5 -48.5 144.5v354h109v-349q0 -60 26.5 -87t84.5 -27q43 0 83 18t67 47v398h108v-540h-99l-5 59q-80 -69 -190 -69q-87 0 -135.5 51.5z" />
    <glyph glyph-name="uni0E1A" unicode="&#xe1a;" horiz-adv-x="621" 
d="M127.5 45.5q-64.5 55.5 -64.5 164.5v330h109v-334q0 -66 34.5 -97.5t103.5 -31.5t104 31.5t35 97.5v334h108v-330q0 -109 -64 -164.5t-183 -55.5q-118 0 -182.5 55.5z" />
    <glyph glyph-name="uni0E1B" unicode="&#xe1b;" horiz-adv-x="621" 
d="M127.5 45.5q-64.5 55.5 -64.5 164.5v330h109v-334q0 -66 34.5 -97.5t103.5 -31.5t104 31.5t35 97.5v494h108v-490q0 -109 -64 -164.5t-183 -55.5q-118 0 -182.5 55.5z" />
    <glyph glyph-name="uni0E1C" unicode="&#xe1c;" horiz-adv-x="644" 
d="M63 439q0 45 25 73t70 28h103l5 -84h-52q-25 0 -35.5 -11.5t-10.5 -37.5v-261l132 229h44l132 -229v394h104v-540h-107l-151 267l-152 -267h-107v439z" />
    <glyph glyph-name="uni0E1D" unicode="&#xe1d;" horiz-adv-x="644" 
d="M63 439q0 45 25 73t70 28h103l5 -84h-52q-25 0 -35.5 -11.5t-10.5 -37.5v-261l132 229h44l132 -229v554h104v-700h-107l-151 267l-152 -267h-107v439z" />
    <glyph glyph-name="uni0E1E" unicode="&#xe1e;" horiz-adv-x="726" 
d="M35 540h107l80 -386l98 309v77h78l109 -386l78 386h106l-124 -540h-100l-100 344l-108 -344h-99z" />
    <glyph glyph-name="uni0E1F" unicode="&#xe1f;" horiz-adv-x="726" 
d="M35 540h107l80 -386l98 309v77h78l109 -386l109 546h106l-155 -700h-100l-100 344l-108 -344h-99z" />
    <glyph glyph-name="uni0E20" unicode="&#xe20;" horiz-adv-x="647" 
d="M48 86h37q21 0 29.5 9.5t8.5 32.5v67q0 48 15 78.5t56 45.5l-110 27v112q44 39 110.5 65.5t147.5 26.5q119 0 180 -52t61 -163v-335h-108v338q0 68 -31 96t-105 28q-50 0 -93.5 -14t-67.5 -37v-18l117 -29v-72q-37 -11 -49.5 -31.5t-12.5 -66.5v-72q0 -122 -118 -122h-67
v86z" />
    <glyph glyph-name="uni0E21" unicode="&#xe21;" horiz-adv-x="605" 
d="M252.5 7.5q-45.5 17.5 -84.5 51.5l-6 -59h-99v540h109v-398q28 -29 67 -47t82 -18q57 0 84.5 27t27.5 87v349h108v-354q0 -93 -48.5 -144.5t-135.5 -51.5q-59 0 -104.5 17.5z" />
    <glyph glyph-name="uni0E22" unicode="&#xe22;" horiz-adv-x="597" 
d="M107 31q-67 41 -67 128q0 41 19.5 72.5t55.5 49.5q-33 12 -52.5 41.5t-19.5 71.5q0 75 46 115.5t123 40.5q51 0 88 -13v-83q-29 8 -68 8q-84 0 -84 -68q0 -71 94 -71h57l5 -81h-64q-95 0 -95 -83q0 -41 34 -61.5t105 -20.5t106 28.5t35 86.5v348h108v-335
q0 -109 -61 -162t-183 -53q-115 0 -182 41z" />
    <glyph glyph-name="uni0E23" unicode="&#xe23;" horiz-adv-x="504" 
d="M136.5 -3q-49.5 7 -80.5 20v91q37 -15 81 -23t83 -8q73 0 104 13t31 52q0 24 -12 38.5t-33 23.5t-65 23l-39 13q-82 28 -122.5 61.5t-40.5 94.5q0 73 55 113.5t162 40.5q44 0 89 -7t76 -17v-90q-32 12 -72.5 19t-76.5 7q-63 0 -95.5 -13.5t-32.5 -49.5q0 -21 13.5 -35
t36.5 -23.5t71 -25.5l29 -9q86 -29 124 -63.5t38 -100.5q0 -77 -58 -114.5t-162 -37.5q-54 0 -103.5 7z" />
    <glyph glyph-name="uni0E24" unicode="&#xe24;" horiz-adv-x="613" 
d="M440 338q0 69 -32 96.5t-110 27.5q-49 0 -92.5 -14t-68.5 -37v-18l114 -29v-72q-39 -10 -55 -32t-16 -66v-65q0 -23 10 -33t32 -10h55v-86h-108q-45 0 -71 28t-26 73v94q0 100 79 124l-108 27v112q45 40 111.5 66t147.5 26q123 0 185 -51t62 -164v-495h-109v498z" />
    <glyph glyph-name="uni0E25" unicode="&#xe25;" horiz-adv-x="594" 
d="M96.5 30.5q-50.5 40.5 -50.5 124.5q0 80 54 123.5t156 43.5h165v34q0 40 -13 63t-43 33t-83 10q-95 0 -176 -26v84q41 13 92.5 21.5t101.5 8.5q118 0 174 -49.5t56 -154.5v-346h-109v238h-158q-58 0 -85.5 -19t-27.5 -64q0 -43 25 -60.5t84 -17.5q40 0 69 8v-83
q-43 -12 -98 -12q-83 0 -133.5 40.5z" />
    <glyph glyph-name="uni0E26" unicode="&#xe26;" horiz-adv-x="647" 
d="M475 338q0 68 -31 96t-105 28q-50 0 -93.5 -14t-67.5 -37v-18l117 -29v-72q-37 -11 -49.5 -31.5t-12.5 -66.5v-72q0 -122 -118 -122h-67v86h37q21 0 29.5 9.5t8.5 32.5v67q0 48 15 78.5t56 45.5l-110 27v112q44 39 110.5 65.5t147.5 26.5q119 0 180 -52t61 -163v-495
h-108v498z" />
    <glyph glyph-name="uni0E27" unicode="&#xe27;" horiz-adv-x="497" 
d="M35 20v86q68 -29 136 -29q69 0 108.5 19t57 61t17.5 113q0 104 -42.5 148t-141.5 44q-69 0 -135 -29v87q71 30 159 30q133 0 199 -71t66 -209t-64 -209t-198 -71q-93 0 -162 30z" />
    <glyph glyph-name="uni0E28" unicode="&#xe28;" horiz-adv-x="636" 
d="M63 342q0 100 60.5 154t184.5 54q49 0 94 -10h199l-5 -85h-75q17 -23 23.5 -50t6.5 -63v-342h-109v352q0 110 -134 110q-68 0 -102 -27t-34 -83v-111q44 36 105 36h65l4 -87h-72q-61 0 -102 -34v-156h-109v342z" />
    <glyph glyph-name="uni0E29" unicode="&#xe29;" horiz-adv-x="635" 
d="M127 45.5q-64 55.5 -64 164.5v330h108v-334q0 -66 35 -97.5t104 -31.5t103.5 31.5t34.5 97.5v71h-129v83h129v180h109v-180h59l-8 -83h-51v-67q0 -109 -64.5 -164.5t-182.5 -55.5q-119 0 -183 55.5z" />
    <glyph glyph-name="uni0E2A" unicode="&#xe2a;" horiz-adv-x="609" 
d="M96.5 30q-50.5 40 -50.5 125q0 80 53.5 123.5t156.5 43.5h165v34q0 59 -30.5 82.5t-109.5 23.5q-95 0 -176 -26v84q41 13 93 21.5t102 8.5q48 0 93 -10h181l-6 -85h-63q13 -21 18.5 -47.5t5.5 -61.5v-346h-108v238h-159q-57 0 -84.5 -19t-27.5 -64q0 -43 25 -60.5
t84 -17.5q41 0 68 8v-83q-41 -12 -97 -12q-83 0 -133.5 40z" />
    <glyph glyph-name="uni0E2B" unicode="&#xe2b;" horiz-adv-x="604" 
d="M63 540h109v-170h156q57 0 80.5 24t23.5 76v70h108v-67q0 -114 -81 -143q43 -15 59.5 -48t16.5 -83v-199h-108v186q0 58 -22 79.5t-81 21.5h-152v-287h-109v540z" />
    <glyph glyph-name="uni0E2C" unicode="&#xe2c;" horiz-adv-x="726" 
d="M35 540h107l81 -386l97 269v77h77l108 -346l62 282q4 19 4 37q0 27 -13 38t-41 11h-40l13 81h44q38 0 56.5 13.5t25.5 47.5l8 36h97l-10 -49q-8 -41 -27 -62.5t-51 -28.5q37 -21 37 -73q0 -24 -5 -44l-99 -443h-99l-100 312l-108 -312h-99z" />
    <glyph glyph-name="uni0E2D" unicode="&#xe2d;" horiz-adv-x="575" 
d="M147.5 1q-56.5 11 -97.5 29v278h214l5 -83h-114v-131q46 -17 110 -17q60 0 95 18.5t51 60t16 112.5q0 75 -18 116.5t-58.5 59.5t-113.5 18q-98 0 -179 -26v84q42 14 96.5 22t109.5 8q139 0 203.5 -70.5t64.5 -211.5q0 -139 -64.5 -208.5t-202.5 -69.5q-61 0 -117.5 11z
" />
    <glyph glyph-name="uni0E2E" unicode="&#xe2e;" horiz-adv-x="603" 
d="M147.5 1q-56.5 11 -97.5 29v278h214l5 -83h-114v-131q46 -17 110 -17q60 0 95 18.5t51 60t16 112.5q0 75 -18 116.5t-58.5 59.5t-113.5 18q-98 0 -179 -26v84q42 14 96.5 22t109.5 8q47 0 94 -10h210l-5 -85h-80q49 -64 49 -187q0 -139 -64.5 -208.5t-202.5 -69.5
q-61 0 -117.5 11z" />
    <glyph glyph-name="uni0E2F" unicode="&#xe2f;" horiz-adv-x="556" 
d="M383 278q-27 -17 -63 -27t-75 -10q-89 0 -142 45.5t-53 126.5q0 65 28 127h107q-30 -60 -30 -122q0 -92 103 -92q77 0 125 36v178h109v-540h-109v278z" />
    <glyph glyph-name="uni0E30" unicode="&#xe30;" horiz-adv-x="324" 
d="M43 461h93v-49h147l-4 -81h-236v130zM43 189h93v-50h147l-4 -80h-236v130z" />
    <glyph glyph-name="uni0E31" unicode="&#xe31;" 
d="M-301 768h90v-70h259l-5 -76h-344v146z" />
    <glyph glyph-name="uni0E32" unicode="&#xe32;" horiz-adv-x="440" 
d="M267 340q0 44 -9 69.5t-34.5 39t-73.5 13.5q-32 0 -69.5 -7t-67.5 -19v84q31 13 74 21.5t84 8.5q108 0 156.5 -47t48.5 -149v-354h-109v340z" />
    <glyph glyph-name="uni0E33" unicode="&#xe33;" horiz-adv-x="440" 
d="M-199.5 629q-32.5 31 -32.5 77q0 47 32.5 78t80.5 31q47 0 79.5 -31t32.5 -78q0 -46 -32.5 -77t-79.5 -31q-48 0 -80.5 31zM-86.5 674q13.5 14 13.5 32q0 20 -13.5 34t-32.5 14q-20 0 -34 -14t-14 -34q0 -18 14.5 -32t33.5 -14t32.5 14zM267 340q0 44 -9 69.5t-34.5 39
t-73.5 13.5q-32 0 -69.5 -7t-67.5 -19v84q31 13 74 21.5t84 8.5q108 0 156.5 -47t48.5 -149v-354h-109v340z" />
    <glyph glyph-name="uni0E34" unicode="&#xe34;" 
d="M-476 698h412v-76h-417z" />
    <glyph glyph-name="uni0E35" unicode="&#xe35;" 
d="M-476 698h322v83h90v-159h-417z" />
    <glyph glyph-name="uni0E36" unicode="&#xe36;" 
d="M-476 698h248q-2 10 -2 22q0 31 24 54t65 23q45 0 68 -25t23 -60q0 -39 -25 -64.5t-70 -25.5h-336zM-111.5 684q10.5 11 10.5 27q0 17 -11 28.5t-28 11.5q-16 0 -27.5 -11t-11.5 -29q0 -16 11 -27t28 -11q18 0 28.5 11z" />
    <glyph glyph-name="uni0E37" unicode="&#xe37;" 
d="M-476 698h194v83h79v-83h60v83h79v-159h-417z" />
    <glyph glyph-name="uni0E38" unicode="&#xe38;" 
d="M-157 -128h-63l5 71h151v-195h-93v124z" />
    <glyph glyph-name="uni0E39" unicode="&#xe39;" 
d="M-271 -237q-32 24 -32 61v51h-54l4 68h128v-101q0 -16 10.5 -24.5t29.5 -8.5q20 0 30.5 8.5t10.5 24.5v101h79v-108q0 -41 -31.5 -68.5t-88.5 -27.5q-54 0 -86 24z" />
    <glyph glyph-name="uni0E3A" unicode="&#xe3a;" 
d="M-158 -148.5q-17 16.5 -17 41.5t17 41.5t42 16.5t42 -16.5t17 -41.5t-17 -41.5t-42 -16.5t-42 16.5z" />
    <glyph glyph-name="uni0E3F" unicode="&#xe3f;" horiz-adv-x="631" 
d="M264 0h-201v644h201v86h81v-86h30q94 0 141 -44.5t47 -127.5q0 -51 -20.5 -86.5t-56.5 -54.5q49 -14 75.5 -48.5t26.5 -96.5q0 -93 -50.5 -139.5t-148.5 -46.5h-44v-86h-81v86zM264 369v193h-92v-193h92zM360 369q102 0 102 94q0 52 -25 75.5t-89 23.5h-3v-193h15z
M264 80v209h-92v-209h92zM366 80q59 0 85.5 25t26.5 85q0 51 -27.5 75t-95.5 24h-10v-209h21z" />
    <glyph glyph-name="uni0E40" unicode="&#xe40;" horiz-adv-x="307" 
d="M65 104v436h108v-409q0 -23 10.5 -34t33.5 -11h46v-86h-93q-105 0 -105 104z" />
    <glyph glyph-name="uni0E41" unicode="&#xe41;" horiz-adv-x="542" 
d="M63 104v436h109v-409q0 -23 10.5 -34t33.5 -11h40v-86h-88q-105 0 -105 104zM306 104v436h108v-409q0 -23 10.5 -34t33.5 -11h41v-86h-88q-105 0 -105 104z" />
    <glyph glyph-name="uni0E42" unicode="&#xe42;" horiz-adv-x="315" 
d="M123.5 31.5q-22.5 31.5 -22.5 95.5v335q0 62 -24 95.5t-79 53.5v83h297v-86h-160q40 -23 57 -58t17 -98v-321q0 -27 8.5 -36t35.5 -9h46v-86h-93q-60 0 -82.5 31.5z" />
    <glyph glyph-name="uni0E43" unicode="&#xe43;" horiz-adv-x="294" 
d="M50 104v231q0 53 20.5 88t56.5 72q22 23 31.5 36.5t9.5 29.5q0 28 -15.5 38.5t-50.5 10.5q-54 0 -109 -30v80q29 18 68.5 27.5t77.5 9.5q70 0 105.5 -30t35.5 -85q0 -34 -14.5 -59t-43.5 -56q-32 -38 -48 -65.5t-16 -69.5v-201q0 -27 8.5 -36t35.5 -9h46v-86h-93
q-105 0 -105 104z" />
    <glyph glyph-name="uni0E44" unicode="&#xe44;" horiz-adv-x="301" 
d="M79 104v345q0 108 76 159h-157v86h289v-82q-54 -21 -77 -63.5t-23 -115.5v-302q0 -27 8.5 -36t35.5 -9h46v-86h-93q-105 0 -105 104z" />
    <glyph glyph-name="uni0E45" unicode="&#xe45;" horiz-adv-x="440" 
d="M267 340q0 44 -9 69.5t-34.5 39t-73.5 13.5q-32 0 -69.5 -7t-67.5 -19v84q31 13 74 21.5t84 8.5q108 0 156.5 -47t48.5 -149v-514h-109v500z" />
    <glyph glyph-name="uni0E46" unicode="&#xe46;" horiz-adv-x="595" 
d="M422 407q0 26 -8.5 40.5t-32.5 14.5q-38 0 -59 -48h-51q-10 26 -20 37t-30 11q-58 0 -58 -96q0 -47 21.5 -68t65.5 -21q45 0 69 8v-84q-36 -12 -89 -12q-85 0 -132.5 45.5t-47.5 131.5q0 77 39 130.5t108 53.5q35 0 58 -11.5t42 -38.5q42 50 112 50q63 0 92.5 -37
t29.5 -113v-400h-109v407z" />
    <glyph glyph-name="uni0E47" unicode="&#xe47;" 
d="M-449.5 651q-33.5 30 -33.5 85q0 56 35 88.5t98 32.5h246l-5 -64h-231q-34 0 -50.5 -13.5t-16.5 -43.5q0 -53 57 -53q53 0 53 42v21h67v-21q0 -21 11 -30t35 -9h63v-63h-70q-26 0 -45.5 7.5t-27.5 23.5q-10 -16 -37 -24.5t-56 -8.5q-59 0 -92.5 30z" />
    <glyph glyph-name="uni0E48" unicode="&#xe48;" 
d="M-173 787h109v-164h-109v164z" />
    <glyph glyph-name="uni0E49" unicode="&#xe49;" 
d="M-293 714h-79v75h154v-91h216l-4 -76h-287v92z" />
    <glyph glyph-name="uni0E4A" unicode="&#xe4a;" 
d="M-430.5 639q-29.5 26 -29.5 79q0 50 26 78t69 28q51 0 67 -39h1q7 18 26 28.5t43 10.5q45 0 66.5 -21.5t21.5 -58.5v-67h11q13 0 18 6.5t5 22.5v113h63v-118q0 -36 -21.5 -57.5t-59.5 -21.5h-80v103q0 22 -6.5 31t-25.5 9q-21 0 -27.5 -10.5t-6.5 -32.5v-13h-53v13
q0 21 -7 32t-26 11q-20 0 -28.5 -11.5t-8.5 -37.5q0 -28 12.5 -38.5t42.5 -10.5h28v-54h-37q-54 0 -83.5 26z" />
    <glyph glyph-name="uni0E4B" unicode="&#xe4b;" 
d="M-230 665h-65v80h65v49h100v-49h66v-80h-66v-43h-100v43z" />
    <glyph glyph-name="uni0E4C" unicode="&#xe4c;" 
d="M-301 768h294l-4 -76h-200v-70h-90v146z" />
    <glyph glyph-name="uni0E4D" unicode="&#xe4d;" 
d="M-199.5 629q-32.5 31 -32.5 77q0 47 32.5 78t80.5 31q47 0 79.5 -31t32.5 -78q0 -46 -32.5 -77t-79.5 -31q-48 0 -80.5 31zM-86.5 674q13.5 14 13.5 32q0 20 -13.5 34t-32.5 14q-20 0 -34 -14t-14 -34q0 -18 14.5 -32t33.5 -14t32.5 14z" />
    <glyph glyph-name="uni0E4E" unicode="&#xe4e;" 
d="M-263 640.5q-28 18.5 -28 55.5q0 36 23 57t57 25q-15 15 -15 41q0 28 26 45.5t74 17.5q15 0 31.5 -3t26.5 -8v-49q-10 5 -24.5 8.5t-25.5 3.5q-42 0 -42 -24q0 -12 9.5 -18t31.5 -11v-48q-16 8 -42 8q-57 0 -57 -35q0 -16 12.5 -23t37.5 -7q39 0 61 15v-53
q-24 -16 -74 -16q-54 0 -82 18.5z" />
    <glyph glyph-name="uni0E4F" unicode="&#xe4f;" horiz-adv-x="604" 
d="M172.5 24.5q-59.5 34.5 -94.5 93.5t-35 130q0 70 35 129t94.5 94t129.5 35t129 -35t94 -94t35 -129q0 -71 -35 -130t-94 -93.5t-129 -34.5t-129.5 34.5zM393 89.5q42 24.5 67 66.5t25 92q0 49 -25 91t-67 67t-91 25q-50 0 -92 -25t-66.5 -67t-24.5 -91q0 -50 24.5 -92
t66.5 -66.5t92 -24.5q49 0 91 24.5zM211.5 157.5q-37.5 37.5 -37.5 90.5q0 34 17 63.5t46.5 46.5t64.5 17q34 0 63.5 -17t46.5 -46.5t17 -63.5q0 -35 -17 -64.5t-46.5 -46.5t-63.5 -17q-53 0 -90.5 37.5zM347.5 202q18.5 19 18.5 46q0 26 -18.5 45t-45.5 19t-45.5 -18.5
t-18.5 -45.5t18.5 -46t45.5 -19t45.5 19z" />
    <glyph glyph-name="uni0E50" unicode="&#xe50;" horiz-adv-x="612" 
d="M113.5 52.5q-70.5 62.5 -70.5 184.5q0 120 71 183.5t192 63.5q120 0 191 -63.5t71 -183.5q0 -122 -70 -184.5t-192 -62.5t-192.5 62.5zM424 115.5q39 38.5 39 121.5t-39 121t-118 38q-78 0 -118 -38.5t-40 -120.5q0 -83 40 -121.5t118 -38.5q79 0 118 38.5z" />
    <glyph glyph-name="uni0E51" unicode="&#xe51;" horiz-adv-x="637" 
d="M297 -13q101 24 146.5 80t45.5 153q0 87 -40.5 131.5t-130.5 44.5q-88 0 -129 -34.5t-41 -107.5q0 -61 28.5 -89t87.5 -28q24 0 50 6t41 16v-83q-44 -26 -114 -26q-95 0 -146.5 53t-51.5 151q0 111 70.5 170.5t204.5 59.5q138 0 207 -69t69 -198q0 -121 -76 -206.5
t-221 -115.5v92z" />
    <glyph glyph-name="uni0E52" unicode="&#xe52;" horiz-adv-x="703" 
d="M142.5 52.5q-79.5 62.5 -79.5 181.5v306h98v-304q0 -162 199 -162q85 0 133 35t48 106v131q0 31 -9.5 45t-32.5 14q-40 0 -51 -54h-62q-9 28 -18.5 41t-30.5 13q-27 0 -38.5 -21.5t-11.5 -70.5q0 -42 19 -58.5t62 -16.5q36 0 61 9v-68q-36 -13 -78 -13q-68 0 -107.5 36.5
t-39.5 110.5q0 88 31 129.5t87 41.5q33 0 55 -11.5t40 -37.5q38 49 106 49q58 0 87 -33.5t29 -94.5v-132q0 -112 -75 -173t-204 -61q-138 0 -217.5 62.5z" />
    <glyph glyph-name="uni0E53" unicode="&#xe53;" horiz-adv-x="641" 
d="M98.5 44.5q-55.5 54.5 -55.5 180.5q0 130 45.5 194.5t125.5 64.5q73 0 112 -54q22 27 52.5 40.5t63.5 13.5q61 0 99.5 -34t38.5 -96v-354h-106v335q0 34 -12 47.5t-42 13.5q-24 0 -39 -14t-15 -39v-86l-83 1v86q0 25 -16 38.5t-39 13.5q-45 0 -63.5 -40t-18.5 -132
q0 -59 14.5 -91t42.5 -44t75 -12q45 0 69 8v-83q-34 -12 -89 -12q-104 0 -159.5 54.5z" />
    <glyph glyph-name="uni0E54" unicode="&#xe54;" horiz-adv-x="629" 
d="M105 49.5q-62 59.5 -62 173.5q0 125 84 193t238 68q83 0 132.5 8.5t89.5 33.5v-88q-36 -22 -89 -31t-129 -9q-115 0 -169 -42t-54 -133q0 -147 139 -147q26 0 45 9q-16 29 -16 73q0 64 43 100.5t114 36.5q62 0 99 -19v-75q-29 16 -71 16q-46 0 -67.5 -13.5t-21.5 -47.5
q0 -33 18 -48t47 -18t87 -3h43v-87h-76q-79 0 -129 22q-53 -32 -124 -32q-109 0 -171 59.5z" />
    <glyph glyph-name="uni0E55" unicode="&#xe55;" horiz-adv-x="626" 
d="M104.5 46.5q-61.5 56.5 -61.5 169.5q0 79 45 139t122 84q-17 3 -35 9.5t-28 12.5v82q25 -22 94 -40.5t124 -18.5q83 0 132.5 8.5t89.5 33.5v-88q-36 -22 -89 -31t-129 -9q-102 0 -162.5 -46.5t-60.5 -135.5q0 -75 35.5 -107.5t103.5 -32.5q26 0 45 9q-16 29 -16 73
q0 64 43 100.5t114 36.5q62 0 99 -19v-75q-29 16 -71 16q-46 0 -67.5 -13.5t-21.5 -47.5q0 -33 18 -48t47 -18t87 -3h43v-87h-76q-79 0 -129 22q-53 -32 -124 -32q-110 0 -171.5 56.5z" />
    <glyph glyph-name="uni0E56" unicode="&#xe56;" horiz-adv-x="646" 
d="M144 42v87q42 -28 86.5 -40t95.5 -12q86 0 129 39t43 120q0 82 -35 121t-112 39q-61 0 -101.5 -32t-56.5 -95h-77l-93 271h96l52 -158q27 48 78.5 75t117.5 27q120 0 177.5 -67t57.5 -181q0 -115 -71.5 -180.5t-196.5 -65.5q-115 0 -190 52z" />
    <glyph glyph-name="uni0E57" unicode="&#xe57;" horiz-adv-x="852" 
d="M98 44.5q-55 54.5 -55 180.5q0 131 43 195t122 64q39 0 65 -13t46 -41q45 54 117 54q65 0 99 -33.5t34 -98.5v-271h17q59 0 82 24.5t23 88.5v346h97v-327q0 -76 -21 -122.5t-67.5 -68.5t-124.5 -22h-101v335q0 35 -12.5 48.5t-43.5 13.5q-23 0 -39.5 -14t-16.5 -39v-86
h-90v85q0 26 -14.5 40t-37.5 14q-44 0 -60 -42t-16 -131q0 -62 15.5 -94.5t44 -44t76.5 -11.5q45 0 69 8v-80q-34 -12 -91 -12q-105 0 -160 54.5z" />
    <glyph glyph-name="uni0E58" unicode="&#xe58;" horiz-adv-x="628" 
d="M87 49q-44 59 -44 178q0 129 77.5 193t225.5 64q89 0 143.5 8.5t95.5 33.5v-88q-37 -22 -95.5 -31t-141.5 -9q-107 0 -154.5 -37.5t-47.5 -133.5q0 -85 20 -118t63 -33q27 0 45.5 14t18.5 39v77h77v-78q0 -25 20 -38.5t45 -13.5q21 0 34.5 4t26.5 14v132h-65l6 68h147
v-258q-28 -24 -58 -35t-74 -11q-38 0 -69 13t-51 39q-38 -52 -119 -52q-82 0 -126 59z" />
    <glyph glyph-name="uni0E59" unicode="&#xe59;" horiz-adv-x="744" 
d="M94 48.5q-51 58.5 -51 177.5q0 258 175 258q42 0 67 -13.5t40 -40.5q17 26 47 40t67 14q53 0 89.5 -28t36.5 -76v-17h6q38 0 51.5 16t13.5 65v76h85v-54q0 -70 -16.5 -109t-53 -55.5t-99.5 -16.5h-62v42q0 38 -11.5 54t-43.5 16q-24 0 -38 -11t-14 -31q0 -9 3 -21
l98 -334h-94l-102 345q-8 27 -22 39.5t-44 12.5q-42 0 -59.5 -41t-17.5 -133q0 -83 25.5 -116t78.5 -33q33 0 56 8v-85q-29 -7 -74 -7q-86 0 -137 58.5z" />
    <glyph glyph-name="uni0E5A" unicode="&#xe5a;" horiz-adv-x="880" 
d="M383 278q-27 -17 -63 -27t-75 -10q-89 0 -142 45.5t-53 126.5q0 65 28 127h107q-30 -60 -30 -122q0 -92 103 -92q77 0 125 36v178h109v-180q14 -16 38 -25t52 -9q77 0 125 36v178h109v-540h-109v278q-27 -17 -63 -27t-75 -10q-50 0 -77 20v-261h-109v278z" />
    <glyph glyph-name="uni0E5B" unicode="&#xe5b;" horiz-adv-x="1175" 
d="M116.5 93q-73.5 71 -73.5 197q0 75 27 134t79.5 92.5t124.5 33.5q102 0 154 -49.5t52 -136.5q0 -71 -38 -118.5t-110 -70.5v81q37 19 51.5 43.5t14.5 62.5q0 115 -121 115q-71 0 -108 -49.5t-37 -133.5q0 -97 48 -146t138 -49q111 0 167.5 63t56.5 176q0 72 -11 130h94
q24 -40 44 -90.5t30 -96.5h2q12 36 21.5 86.5t8.5 81.5h70q15 -31 31.5 -75t25.5 -82h2q9 27 18 68.5t11 73.5h60q13 -23 27.5 -63.5t20.5 -69.5h2q8 22 13.5 52.5t5.5 59.5h55q2 -32 -2 -59h60l-4 -60h-70q-9 -39 -34 -83h-55q-3 21 -15.5 59.5t-23.5 59.5h-2
q-2 -24 -13 -71t-20 -70h-71q-5 35 -19 78.5t-30 74.5h-2q-3 -33 -15 -85t-25 -90h-70q-2 41 -16 93t-31 90h-2q4 -99 -29.5 -173t-101.5 -114.5t-164 -40.5q-128 0 -201.5 71z" />
    <glyph glyph-name="uni1E0C" unicode="&#x1e0c;" horiz-adv-x="649" 
d="M63 644h261q145 0 213 -77t68 -249q0 -165 -68 -241.5t-213 -76.5h-261v644zM307 84q67 0 107.5 19.5t61 70.5t20.5 144q0 94 -19 146t-59.5 73.5t-110.5 21.5h-135v-475h135zM271 -85h94v-88h-94v88z" />
    <glyph glyph-name="uni1E0D" unicode="&#x1e0d;" horiz-adv-x="582" 
d="M99.5 44.5q-56.5 54.5 -56.5 177.5q0 83 29 142t80 89.5t117 30.5q42 0 76 -10t65 -31v231h109v-674h-93l-7 47q-33 -30 -71 -43.5t-89 -13.5q-103 0 -159.5 54.5zM410 122v237q-47 42 -118 42q-69 0 -104 -46t-35 -134q0 -83 31.5 -116t103.5 -33q73 0 122 50zM249 -85
h94v-88h-94v88z" />
    <glyph glyph-name="uni1E0E" unicode="&#x1e0e;" horiz-adv-x="649" 
d="M63 644h261q145 0 213 -77t68 -249q0 -165 -68 -241.5t-213 -76.5h-261v644zM307 84q67 0 107.5 19.5t61 70.5t20.5 144q0 94 -19 146t-59.5 73.5t-110.5 21.5h-135v-475h135zM131 -93h298v-71h-298v71z" />
    <glyph glyph-name="uni1E0F" unicode="&#x1e0f;" horiz-adv-x="582" 
d="M99.5 44.5q-56.5 54.5 -56.5 177.5q0 83 29 142t80 89.5t117 30.5q42 0 76 -10t65 -31v231h109v-674h-93l-7 47q-33 -30 -71 -43.5t-89 -13.5q-103 0 -159.5 54.5zM410 122v237q-47 42 -118 42q-69 0 -104 -46t-35 -134q0 -83 31.5 -116t103.5 -33q73 0 122 50zM151 -93
h298v-71h-298v71z" />
    <glyph glyph-name="uni1E20" unicode="&#x1e20;" horiz-adv-x="641" 
d="M212 788h298v-71h-298v71zM125 74.5q-82 84.5 -82 234.5q0 163 81 254t242 91q107 0 191 -29v-94q-83 30 -182 30q-119 0 -170.5 -62.5t-51.5 -189.5q0 -227 213 -227q86 0 139 20v180h-161v71h254v-310q-36 -23 -94.5 -38t-140.5 -15q-156 0 -238 84.5z" />
    <glyph glyph-name="uni1E21" unicode="&#x1e21;" horiz-adv-x="554" 
d="M131 622h298v-71h-298v71zM147.5 -169q-52.5 7 -88.5 19v84q38 -13 90 -20t101 -7q76 0 107 8.5t31 35.5q0 21 -16.5 29.5t-60.5 8.5h-128q-63 0 -96 23.5t-33 67.5q0 31 18 55.5t53 36.5q-80 39 -80 139q0 90 54 131.5t164 41.5q40 0 87 -10h174l-3 -71h-80
q37 -33 37 -92q0 -78 -46.5 -120.5t-138.5 -42.5q-24 0 -59 5q-32 -3 -55 -16.5t-23 -34.5q0 -15 12 -21.5t40 -6.5h133q71 0 109.5 -30.5t38.5 -88.5q0 -69 -58.5 -100t-175.5 -31q-55 0 -107.5 7zM353.5 238.5q25.5 21.5 25.5 75.5t-26 77.5t-90 23.5q-62 0 -89.5 -23.5
t-27.5 -77.5q0 -52 26.5 -74.5t90.5 -22.5q65 0 90.5 21.5z" />
    <glyph glyph-name="uni1E24" unicode="&#x1e24;" horiz-adv-x="654" 
d="M63 644h109v-280h310v280h109v-644h-109v280h-310v-280h-109v644zM280 -85h94v-88h-94v88z" />
    <glyph glyph-name="uni1E25" unicode="&#x1e25;" horiz-adv-x="578" 
d="M63 674h109v-246q32 26 75.5 41t95.5 15q90 0 133 -43t43 -134v-307h-108v302q0 55 -23.5 77t-81.5 22q-36 0 -73 -15.5t-61 -40.5v-345h-109v674zM248 -85h94v-88h-94v88z" />
    <glyph glyph-name="uni1E2A" unicode="&#x1e2a;" horiz-adv-x="654" 
d="M63 644h109v-280h310v280h109v-644h-109v280h-310v-280h-109v644zM221.5 -169q-37.5 38 -37.5 104h74q0 -36 17.5 -56.5t49.5 -20.5q33 0 51.5 20.5t18.5 56.5h74q0 -65 -38.5 -103.5t-105.5 -38.5q-66 0 -103.5 38z" />
    <glyph glyph-name="uni1E2B" unicode="&#x1e2b;" horiz-adv-x="578" 
d="M63 674h109v-246q32 26 75.5 41t95.5 15q90 0 133 -43t43 -134v-307h-108v302q0 55 -23.5 77t-81.5 22q-36 0 -73 -15.5t-61 -40.5v-345h-109v674zM193.5 -169q-37.5 38 -37.5 104h74q0 -36 17.5 -56.5t49.5 -20.5q33 0 51.5 20.5t18.5 56.5h74q0 -65 -38.5 -103.5
t-105.5 -38.5q-66 0 -103.5 38z" />
    <glyph glyph-name="uni1E36" unicode="&#x1e36;" horiz-adv-x="525" 
d="M63 644h109v-560h330v-84h-439v644zM228 -85h94v-88h-94v88z" />
    <glyph glyph-name="uni1E37" unicode="&#x1e37;" horiz-adv-x="280" 
d="M92 19q-29 29 -29 94v561h109v-551q0 -27 9.5 -37.5t30.5 -10.5q24 0 46 6v-79q-33 -12 -77 -12q-60 0 -89 29zM99 -85h94v-88h-94v88z" />
    <glyph glyph-name="uni1E38" unicode="&#x1e38;" horiz-adv-x="525" 
d="M-13 788h298v-71h-298v71zM63 644h109v-560h330v-84h-439v644zM228 -85h94v-88h-94v88z" />
    <glyph glyph-name="uni1E39" unicode="&#x1e39;" horiz-adv-x="280" 
d="M-31 793h298v-71h-298v71zM92 19q-29 29 -29 94v561h109v-551q0 -27 9.5 -37.5t30.5 -10.5q24 0 46 6v-79q-33 -12 -77 -12q-60 0 -89 29zM99 -85h94v-88h-94v88z" />
    <glyph glyph-name="uni1E3A" unicode="&#x1e3a;" horiz-adv-x="525" 
d="M63 644h109v-560h330v-84h-439v644zM122 -75h298v-71h-298v71z" />
    <glyph glyph-name="uni1E3B" unicode="&#x1e3b;" horiz-adv-x="280" 
d="M92 19q-29 29 -29 94v561h109v-551q0 -27 9.5 -37.5t30.5 -10.5q24 0 46 6v-79q-33 -12 -77 -12q-60 0 -89 29zM-5 -75h298v-71h-298v71z" />
    <glyph glyph-name="uni1E42" unicode="&#x1e42;" horiz-adv-x="757" 
d="M63 644h112l204 -417l203 417h112v-644h-108v467l-174 -356h-66l-175 356v-467h-108v644zM333 -85h94v-88h-94v88z" />
    <glyph glyph-name="uni1E43" unicode="&#x1e43;" horiz-adv-x="856" 
d="M63 474h100l5 -50q76 60 167 60q49 0 78 -15.5t45 -46.5q36 29 79.5 45.5t99.5 16.5q82 0 121 -42t39 -129v-313h-107v302q0 54 -23 76.5t-75 22.5q-34 0 -65 -12t-52 -36q5 -19 5 -49v-304h-101v301q0 54 -18.5 77t-67.5 23q-63 0 -123 -56v-345h-107v474zM380 -85h94
v-88h-94v88z" />
    <glyph glyph-name="uni1E44" unicode="&#x1e44;" horiz-adv-x="667" 
d="M298 799h92v-88h-92v88zM63 644h96l336 -474v474h108v-644h-96l-335 473v-473h-109v644z" />
    <glyph glyph-name="uni1E45" unicode="&#x1e45;" horiz-adv-x="578" 
d="M243 633h92v-88h-92v88zM63 474h100l5 -50q34 27 79 43.5t96 16.5q92 0 134 -43t42 -134v-307h-108v302q0 55 -23 77t-84 22q-37 0 -72.5 -15t-59.5 -39v-347h-109v474z" />
    <glyph glyph-name="uni1E46" unicode="&#x1e46;" horiz-adv-x="667" 
d="M63 644h96l336 -474v474h108v-644h-96l-335 473v-473h-109v644zM287 -85h94v-88h-94v88z" />
    <glyph glyph-name="uni1E47" unicode="&#x1e47;" horiz-adv-x="578" 
d="M63 474h100l5 -50q34 27 79 43.5t96 16.5q92 0 134 -43t42 -134v-307h-108v302q0 55 -23 77t-84 22q-37 0 -72.5 -15t-59.5 -39v-347h-109v474zM247 -85h94v-88h-94v88z" />
    <glyph glyph-name="uni1E48" unicode="&#x1e48;" horiz-adv-x="667" 
d="M63 644h96l336 -474v474h108v-644h-96l-335 473v-473h-109v644zM188 -72h298v-71h-298v71z" />
    <glyph glyph-name="uni1E49" unicode="&#x1e49;" horiz-adv-x="578" 
d="M63 474h100l5 -50q34 27 79 43.5t96 16.5q92 0 134 -43t42 -134v-307h-108v302q0 55 -23 77t-84 22q-37 0 -72.5 -15t-59.5 -39v-347h-109v474zM143 -72h298v-71h-298v71z" />
    <glyph glyph-name="uni1E5A" unicode="&#x1e5a;" horiz-adv-x="610" 
d="M63 644h296q105 0 156 -54t51 -152q0 -69 -34.5 -116.5t-97.5 -66.5q17 -12 27 -26.5t21 -41.5l81 -187h-112l-79 180q-12 27 -28 37.5t-51 10.5h-121v-228h-109v644zM330 316q127 0 127 122q0 121 -117 121h-168v-243h158zM259 -85h94v-88h-94v88z" />
    <glyph glyph-name="uni1E5B" unicode="&#x1e5b;" horiz-adv-x="367" 
d="M63 474h100l6 -55q34 22 81 40t93 25v-83q-43 -8 -93 -24.5t-78 -34.5v-342h-109v474zM69 -85h94v-88h-94v88z" />
    <glyph glyph-name="uni1E5C" unicode="&#x1e5c;" horiz-adv-x="610" 
d="M144 788h298v-71h-298v71zM63 644h296q105 0 156 -54t51 -152q0 -69 -34.5 -116.5t-97.5 -66.5q17 -12 27 -26.5t21 -41.5l81 -187h-112l-79 180q-12 27 -28 37.5t-51 10.5h-121v-228h-109v644zM330 316q127 0 127 122q0 121 -117 121h-168v-243h158zM259 -85h94v-88h-94
v88z" />
    <glyph glyph-name="uni1E5D" unicode="&#x1e5d;" horiz-adv-x="371" 
d="M11 622h298v-71h-298v71zM67 474h100l6 -55q34 22 81 40t93 25v-83q-43 -8 -93 -24.5t-78 -34.5v-342h-109v474zM74 -85h94v-88h-94v88z" />
    <glyph glyph-name="uni1E5E" unicode="&#x1e5e;" horiz-adv-x="610" 
d="M63 644h296q105 0 156 -54t51 -152q0 -69 -34.5 -116.5t-97.5 -66.5q17 -12 27 -26.5t21 -41.5l81 -187h-112l-79 180q-12 27 -28 37.5t-51 10.5h-121v-228h-109v644zM330 316q127 0 127 122q0 121 -117 121h-168v-243h158zM145 -72h298v-71h-298v71z" />
    <glyph glyph-name="uni1E5F" unicode="&#x1e5f;" horiz-adv-x="367" 
d="M63 474h100l6 -55q34 22 81 40t93 25v-83q-43 -8 -93 -24.5t-78 -34.5v-342h-109v474zM-23 -72h298v-71h-298v71z" />
    <glyph glyph-name="uni1E60" unicode="&#x1e60;" horiz-adv-x="555" 
d="M229 799h92v-88h-92v88zM57 22v96q93 -36 191 -36q81 0 117.5 19t36.5 71q0 33 -15.5 52.5t-50.5 33.5t-105 32q-104 27 -146 68.5t-42 114.5q0 86 63 133.5t184 47.5q53 0 102.5 -7.5t80.5 -18.5v-96q-76 29 -168 29q-76 0 -114 -20t-38 -68q0 -29 14 -46.5t46.5 -31
t97.5 -29.5q113 -29 157 -75t44 -119q0 -86 -64.5 -134t-189.5 -48t-201 32z" />
    <glyph glyph-name="uni1E61" unicode="&#x1e61;" horiz-adv-x="464" 
d="M189 633h92v-88h-92v88zM128 -3.5q-45 6.5 -74 17.5v92q33 -13 73.5 -20t79.5 -7q58 0 81 10t23 39q0 26 -21 38.5t-79 30.5l-30 10q-72 24 -105 53.5t-33 87.5q0 67 48 101.5t150 34.5q39 0 76.5 -6t64.5 -15v-91q-27 11 -60.5 17t-63.5 6q-55 0 -80 -9.5t-25 -35.5
q0 -23 19 -34.5t75 -29.5l22 -7q58 -18 90 -36.5t46.5 -45t14.5 -68.5q0 -139 -199 -139q-48 0 -93 6.5z" />
    <glyph glyph-name="uni1E62" unicode="&#x1e62;" horiz-adv-x="555" 
d="M57 22v96q93 -36 191 -36q81 0 117.5 19t36.5 71q0 33 -15.5 52.5t-50.5 33.5t-105 32q-104 27 -146 68.5t-42 114.5q0 86 63 133.5t184 47.5q53 0 102.5 -7.5t80.5 -18.5v-96q-76 29 -168 29q-76 0 -114 -20t-38 -68q0 -29 14 -46.5t46.5 -31t97.5 -29.5
q113 -29 157 -75t44 -119q0 -86 -64.5 -134t-189.5 -48t-201 32zM222 -85h94v-88h-94v88z" />
    <glyph glyph-name="uni1E63" unicode="&#x1e63;" horiz-adv-x="464" 
d="M128 -3.5q-45 6.5 -74 17.5v92q33 -13 73.5 -20t79.5 -7q58 0 81 10t23 39q0 26 -21 38.5t-79 30.5l-30 10q-72 24 -105 53.5t-33 87.5q0 67 48 101.5t150 34.5q39 0 76.5 -6t64.5 -15v-91q-27 11 -60.5 17t-63.5 6q-55 0 -80 -9.5t-25 -35.5q0 -23 19 -34.5t75 -29.5
l22 -7q58 -18 90 -36.5t46.5 -45t14.5 -68.5q0 -139 -199 -139q-48 0 -93 6.5zM193 -85h94v-88h-94v88z" />
    <glyph glyph-name="uni1E6C" unicode="&#x1e6c;" horiz-adv-x="568" 
d="M230 559h-206v85h520v-85h-205v-559h-109v559zM237 -78h94v-88h-94v88z" />
    <glyph glyph-name="uni1E6D" unicode="&#x1e6d;" horiz-adv-x="363" 
d="M131 29.5q-38 39.5 -38 111.5v248h-70v85h70v109l108 33v-142h126l-7 -85h-119v-242q0 -41 18.5 -57.5t62.5 -16.5q27 0 57 10v-77q-39 -16 -95 -16q-75 0 -113 39.5zM178 -78h94v-88h-94v88z" />
    <glyph glyph-name="uni1E6E" unicode="&#x1e6e;" horiz-adv-x="568" 
d="M230 559h-206v85h520v-85h-205v-559h-109v559zM135 -65h298v-71h-298v71z" />
    <glyph glyph-name="uni1E6F" unicode="&#x1e6f;" horiz-adv-x="363" 
d="M131 29.5q-38 39.5 -38 111.5v248h-70v85h70v109l108 33v-142h126l-7 -85h-119v-242q0 -41 18.5 -57.5t62.5 -16.5q27 0 57 10v-77q-39 -16 -95 -16q-75 0 -113 39.5zM51 -65h298v-71h-298v71z" />
    <glyph glyph-name="Wgrave" unicode="&#x1e80;" horiz-adv-x="869" 
d="M293 865h95l76 -177h-88zM44 644h107l109 -483l122 405v78h89l137 -483l111 483h106l-149 -644h-107l-129 451l-137 -451h-109z" />
    <glyph glyph-name="wgrave" unicode="&#x1e81;" horiz-adv-x="746" 
d="M239 699h95l76 -177h-88zM43 474h109l82 -345l93 287v58h83l103 -345l82 345h108l-124 -474h-103l-101 310l-103 -310h-104z" />
    <glyph glyph-name="Wacute" unicode="&#x1e82;" horiz-adv-x="869" 
d="M463 865h96l-84 -177h-87zM44 644h107l109 -483l122 405v78h89l137 -483l111 483h106l-149 -644h-107l-129 451l-137 -451h-109z" />
    <glyph glyph-name="wacute" unicode="&#x1e83;" horiz-adv-x="746" 
d="M399 699h96l-84 -177h-87zM43 474h109l82 -345l93 287v58h83l103 -345l82 345h108l-124 -474h-103l-101 310l-103 -310h-104z" />
    <glyph glyph-name="Wdieresis" unicode="&#x1e84;" horiz-adv-x="869" 
d="M301 796h92v-86h-92v86zM487 796h92v-86h-92v86zM44 644h107l109 -483l122 405v78h89l137 -483l111 483h106l-149 -644h-107l-129 451l-137 -451h-109z" />
    <glyph glyph-name="wdieresis" unicode="&#x1e85;" horiz-adv-x="746" 
d="M236 630h92v-86h-92v86zM422 630h92v-86h-92v86zM43 474h109l82 -345l93 287v58h83l103 -345l82 345h108l-124 -474h-103l-101 310l-103 -310h-104z" />
    <glyph glyph-name="uni1E8E" unicode="&#x1e8e;" horiz-adv-x="656" 
d="M282 799h92v-88h-92v88zM274 239l-231 405h113l172 -313l172 313h113l-231 -405v-239h-108v239z" />
    <glyph glyph-name="uni1E8F" unicode="&#x1e8f;" horiz-adv-x="598" 
d="M262 633h92v-88h-92v88zM78 -162v81q28 -10 61 -10q30 0 49 9.5t33 29.5t33 58l-211 468h113l152 -352l154 352h112l-193 -447q-43 -102 -89.5 -152.5t-121.5 -50.5q-54 0 -92 14z" />
    <glyph glyph-name="uni1E92" unicode="&#x1e92;" horiz-adv-x="575" 
d="M43 58l346 497h-329v89h469v-67l-343 -493h348v-84h-491v58zM256 -85h94v-88h-94v88z" />
    <glyph glyph-name="uni1E93" unicode="&#x1e93;" horiz-adv-x="487" 
d="M43 57l259 328h-247v89h381v-67l-254 -323h261v-84h-400v57zM195 -85h94v-88h-94v88z" />
    <glyph glyph-name="uni1E97" unicode="&#x1e97;" horiz-adv-x="363" 
d="M24 729h92v-86h-92v86zM210 729h92v-86h-92v86zM131 29.5q-38 39.5 -38 111.5v248h-70v85h70v109l108 33v-142h126l-7 -85h-119v-242q0 -41 18.5 -57.5t62.5 -16.5q27 0 57 10v-77q-39 -16 -95 -16q-75 0 -113 39.5z" />
    <glyph glyph-name="uni1E9E" unicode="&#x1e9e;" horiz-adv-x="625" 
d="M241 12v92q24 -11 57.5 -16.5t66.5 -5.5q112 0 112 102q0 46 -26 65.5t-80 19.5h-96v92l178 111q0 41 -35.5 66.5t-106.5 25.5q-76 0 -112 -33t-36 -102v-429h-105v426q0 109 65.5 168.5t187.5 59.5q123 0 184 -58.5t61 -151.5l-170 -103h36q72 0 115.5 -43.5
t43.5 -114.5q0 -87 -52.5 -140t-143.5 -53q-85 0 -144 22z" />
    <glyph glyph-name="uni1EA0" unicode="&#x1ea0;" horiz-adv-x="700" 
d="M290 644h122l244 -644h-112l-64 166h-259l-64 -166h-113zM462 250l-112 295l-112 -295h224zM303 -85h94v-88h-94v88z" />
    <glyph glyph-name="uni1EA1" unicode="&#x1ea1;" horiz-adv-x="547" 
d="M91 27.5q-48 37.5 -48 107.5t47.5 110.5t142.5 40.5h152v21q0 35 -10.5 54.5t-38.5 28.5t-80 9q-84 0 -157 -25v81q34 13 80 21t97 8q106 0 159.5 -43t53.5 -136v-305h-93l-7 48q-30 -29 -73 -43.5t-105 -14.5q-72 0 -120 37.5zM324 84q37 16 61 45v83h-150
q-48 0 -69.5 -18t-21.5 -57q0 -36 24 -52.5t72 -16.5q47 0 84 16zM241 -85h94v-88h-94v88z" />
    <glyph glyph-name="uni1EA2" unicode="&#x1ea2;" horiz-adv-x="700" 
d="M308 770q55 3 73.5 13.5t18.5 36.5q0 22 -18.5 32t-55.5 10q-15 0 -33 -3.5t-31 -8.5v59q16 6 41.5 9.5t51.5 3.5q61 0 93.5 -25t32.5 -68q0 -42 -20 -64.5t-68 -29.5v-47h-85v82zM290 644h122l244 -644h-112l-64 166h-259l-64 -166h-113zM462 250l-112 295l-112 -295
h224z" />
    <glyph glyph-name="uni1EA3" unicode="&#x1ea3;" horiz-adv-x="547" 
d="M234 603q55 3 73.5 13.5t18.5 36.5q0 22 -18.5 32t-55.5 10q-15 0 -33 -3.5t-31 -8.5v59q16 6 41.5 9.5t51.5 3.5q61 0 93.5 -25t32.5 -68q0 -42 -20 -64.5t-68 -29.5v-47h-85v82zM91 27.5q-48 37.5 -48 107.5t47.5 110.5t142.5 40.5h152v21q0 35 -10.5 54.5t-38.5 28.5
t-80 9q-84 0 -157 -25v81q34 13 80 21t97 8q106 0 159.5 -43t53.5 -136v-305h-93l-7 48q-30 -29 -73 -43.5t-105 -14.5q-72 0 -120 37.5zM324 84q37 16 61 45v83h-150q-48 0 -69.5 -18t-21.5 -57q0 -36 24 -52.5t72 -16.5q47 0 84 16z" />
    <glyph glyph-name="uni1EA4" unicode="&#x1ea4;" horiz-adv-x="700" 
d="M500 933h83l-70 -133h-77zM303 814h84l119 -127h-89l-72 82l-70 -82h-91zM290 644h122l244 -644h-112l-64 166h-259l-64 -166h-113zM462 250l-112 295l-112 -295h224z" />
    <glyph glyph-name="uni1EA5" unicode="&#x1ea5;" horiz-adv-x="547" 
d="M442 767h83l-70 -133h-77zM245 648h84l119 -127h-89l-72 82l-70 -82h-91zM91 27.5q-48 37.5 -48 107.5t47.5 110.5t142.5 40.5h152v21q0 35 -10.5 54.5t-38.5 28.5t-80 9q-84 0 -157 -25v81q34 13 80 21t97 8q106 0 159.5 -43t53.5 -136v-305h-93l-7 48
q-30 -29 -73 -43.5t-105 -14.5q-72 0 -120 37.5zM324 84q37 16 61 45v83h-150q-48 0 -69.5 -18t-21.5 -57q0 -36 24 -52.5t72 -16.5q47 0 84 16z" />
    <glyph glyph-name="uni1EA6" unicode="&#x1ea6;" horiz-adv-x="700" 
d="M109 933h84l64 -133h-77zM305 814h85l118 -127h-90l-71 82l-71 -82h-89zM290 644h122l244 -644h-112l-64 166h-259l-64 -166h-113zM462 250l-112 295l-112 -295h224z" />
    <glyph glyph-name="uni1EA7" unicode="&#x1ea7;" horiz-adv-x="547" 
d="M38 767h84l64 -133h-77zM234 648h85l118 -127h-90l-71 82l-71 -82h-89zM91 27.5q-48 37.5 -48 107.5t47.5 110.5t142.5 40.5h152v21q0 35 -10.5 54.5t-38.5 28.5t-80 9q-84 0 -157 -25v81q34 13 80 21t97 8q106 0 159.5 -43t53.5 -136v-305h-93l-7 48q-30 -29 -73 -43.5
t-105 -14.5q-72 0 -120 37.5zM324 84q37 16 61 45v83h-150q-48 0 -69.5 -18t-21.5 -57q0 -36 24 -52.5t72 -16.5q47 0 84 16z" />
    <glyph glyph-name="uni1EA8" unicode="&#x1ea8;" horiz-adv-x="700" 
d="M448 845q46 2 61.5 11t15.5 28q0 16 -11.5 23.5t-35.5 7.5q-29 0 -56 -12v53q34 12 77 12q48 0 75.5 -21t27.5 -57q0 -33 -18.5 -52t-58.5 -25v-34h-77v66zM306 814h85l118 -127h-89l-71 82l-71 -82h-90zM290 644h122l244 -644h-112l-64 166h-259l-64 -166h-113zM462 250
l-112 295l-112 -295h224z" />
    <glyph glyph-name="uni1EA9" unicode="&#x1ea9;" horiz-adv-x="547" 
d="M379 678q46 2 61.5 11t15.5 28q0 16 -11.5 23.5t-35.5 7.5q-29 0 -56 -12v53q34 12 77 12q48 0 75.5 -21t27.5 -57q0 -33 -18.5 -52t-58.5 -25v-34h-77v66zM237 647h85l118 -127h-89l-71 82l-71 -82h-90zM91 27.5q-48 37.5 -48 107.5t47.5 110.5t142.5 40.5h152v21
q0 35 -10.5 54.5t-38.5 28.5t-80 9q-84 0 -157 -25v81q34 13 80 21t97 8q106 0 159.5 -43t53.5 -136v-305h-93l-7 48q-30 -29 -73 -43.5t-105 -14.5q-72 0 -120 37.5zM324 84q37 16 61 45v83h-150q-48 0 -69.5 -18t-21.5 -57q0 -36 24 -52.5t72 -16.5q47 0 84 16z" />
    <glyph glyph-name="uni1EAA" unicode="&#x1eaa;" horiz-adv-x="700" 
d="M395.5 827q-17.5 5 -43.5 15q-24 9 -38 13.5t-29 4.5q-52 0 -83 -35v71q13 13 35.5 21t46.5 8q19 0 34.5 -4.5t42.5 -14.5q24 -9 38.5 -13.5t31.5 -4.5q51 0 77 35v-71q-10 -13 -30.5 -21.5t-45.5 -8.5q-19 0 -36.5 5zM307 814h85l118 -127h-89l-71 82l-71 -82h-90z
M290 644h122l244 -644h-112l-64 166h-259l-64 -166h-113zM462 250l-112 295l-112 -295h224z" />
    <glyph glyph-name="uni1EAB" unicode="&#x1eab;" horiz-adv-x="547" 
d="M330.5 661q-17.5 5 -43.5 15q-24 9 -38 13.5t-29 4.5q-52 0 -83 -35v71q13 13 35.5 21t46.5 8q19 0 34.5 -4.5t42.5 -14.5q24 -9 38.5 -13.5t31.5 -4.5q51 0 77 35v-71q-10 -13 -30.5 -21.5t-45.5 -8.5q-19 0 -36.5 5zM242 648h85l118 -127h-89l-71 82l-71 -82h-90z
M91 27.5q-48 37.5 -48 107.5t47.5 110.5t142.5 40.5h152v21q0 35 -10.5 54.5t-38.5 28.5t-80 9q-84 0 -157 -25v81q34 13 80 21t97 8q106 0 159.5 -43t53.5 -136v-305h-93l-7 48q-30 -29 -73 -43.5t-105 -14.5q-72 0 -120 37.5zM324 84q37 16 61 45v83h-150q-48 0 -69.5 -18
t-21.5 -57q0 -36 24 -52.5t72 -16.5q47 0 84 16z" />
    <glyph glyph-name="uni1EAC" unicode="&#x1eac;" horiz-adv-x="700" 
d="M311 848h76l125 -161h-87l-76 101l-74 -101h-89zM290 644h122l244 -644h-112l-64 166h-259l-64 -166h-113zM462 250l-112 295l-112 -295h224zM303 -85h94v-88h-94v88z" />
    <glyph glyph-name="uni1EAD" unicode="&#x1ead;" horiz-adv-x="547" 
d="M245 682h76l125 -161h-87l-76 101l-74 -101h-89zM91 27.5q-48 37.5 -48 107.5t47.5 110.5t142.5 40.5h152v21q0 35 -10.5 54.5t-38.5 28.5t-80 9q-84 0 -157 -25v81q34 13 80 21t97 8q106 0 159.5 -43t53.5 -136v-305h-93l-7 48q-30 -29 -73 -43.5t-105 -14.5
q-72 0 -120 37.5zM324 84q37 16 61 45v83h-150q-48 0 -69.5 -18t-21.5 -57q0 -36 24 -52.5t72 -16.5q47 0 84 16zM236 -85h94v-88h-94v88z" />
    <glyph glyph-name="uni1EAE" unicode="&#x1eae;" horiz-adv-x="700" 
d="M367 938h84l-71 -133h-77zM237 724q-43 36 -43 112h66q0 -43 24 -66t66 -23t66 23t24 66h66q0 -76 -43 -112t-113 -36t-113 36zM290 644h122l244 -644h-112l-64 166h-259l-64 -166h-113zM462 250l-112 295l-112 -295h224z" />
    <glyph glyph-name="uni1EAF" unicode="&#x1eaf;" horiz-adv-x="547" 
d="M311 772h84l-71 -133h-77zM181 558q-43 36 -43 112h66q0 -43 24 -66t66 -23t66 23t24 66h66q0 -76 -43 -112t-113 -36t-113 36zM91 27.5q-48 37.5 -48 107.5t47.5 110.5t142.5 40.5h152v21q0 35 -10.5 54.5t-38.5 28.5t-80 9q-84 0 -157 -25v81q34 13 80 21t97 8
q106 0 159.5 -43t53.5 -136v-305h-93l-7 48q-30 -29 -73 -43.5t-105 -14.5q-72 0 -120 37.5zM324 84q37 16 61 45v83h-150q-48 0 -69.5 -18t-21.5 -57q0 -36 24 -52.5t72 -16.5q47 0 84 16z" />
    <glyph glyph-name="uni1EB0" unicode="&#x1eb0;" horiz-adv-x="700" 
d="M249 938h84l64 -133h-77zM237 724q-43 36 -43 112h66q0 -43 24 -66t66 -23t66 23t24 66h66q0 -76 -43 -112t-113 -36t-113 36zM290 644h122l244 -644h-112l-64 166h-259l-64 -166h-113zM462 250l-112 295l-112 -295h224z" />
    <glyph glyph-name="uni1EB1" unicode="&#x1eb1;" horiz-adv-x="547" 
d="M177 772h84l64 -133h-77zM165 558q-43 36 -43 112h66q0 -43 24 -66t66 -23t66 23t24 66h66q0 -76 -43 -112t-113 -36t-113 36zM91 27.5q-48 37.5 -48 107.5t47.5 110.5t142.5 40.5h152v21q0 35 -10.5 54.5t-38.5 28.5t-80 9q-84 0 -157 -25v81q34 13 80 21t97 8
q106 0 159.5 -43t53.5 -136v-305h-93l-7 48q-30 -29 -73 -43.5t-105 -14.5q-72 0 -120 37.5zM324 84q37 16 61 45v83h-150q-48 0 -69.5 -18t-21.5 -57q0 -36 24 -52.5t72 -16.5q47 0 84 16z" />
    <glyph glyph-name="uni1EB2" unicode="&#x1eb2;" horiz-adv-x="700" 
d="M306 869q46 2 63.5 12t17.5 31q0 19 -12.5 26t-39.5 7q-28 0 -55 -12v51q34 12 81 12t73 -20.5t26 -56.5q0 -33 -18 -51t-60 -25v-33h-76v59zM237 724q-43 36 -43 112h66q0 -43 24 -66t66 -23t66 23t24 66h66q0 -76 -43 -112t-113 -36t-113 36zM290 644h122l244 -644
h-112l-64 166h-259l-64 -166h-113zM462 250l-112 295l-112 -295h224z" />
    <glyph glyph-name="uni1EB3" unicode="&#x1eb3;" horiz-adv-x="547" 
d="M234 703q46 2 63.5 12t17.5 31q0 19 -12.5 26t-39.5 7q-28 0 -55 -12v51q34 12 81 12t73 -20.5t26 -56.5q0 -33 -18 -51t-60 -25v-33h-76v59zM165 558q-43 36 -43 112h66q0 -43 24 -66t66 -23t66 23t24 66h66q0 -76 -43 -112t-113 -36t-113 36zM91 27.5
q-48 37.5 -48 107.5t47.5 110.5t142.5 40.5h152v21q0 35 -10.5 54.5t-38.5 28.5t-80 9q-84 0 -157 -25v81q34 13 80 21t97 8q106 0 159.5 -43t53.5 -136v-305h-93l-7 48q-30 -29 -73 -43.5t-105 -14.5q-72 0 -120 37.5zM324 84q37 16 61 45v83h-150q-48 0 -69.5 -18
t-21.5 -57q0 -36 24 -52.5t72 -16.5q47 0 84 16z" />
    <glyph glyph-name="uni1EB4" unicode="&#x1eb4;" horiz-adv-x="700" 
d="M391.5 862q-17.5 5 -43.5 15q-5 2 -26.5 9.5t-40.5 7.5q-52 0 -83 -34v71q13 13 35.5 21t46.5 8q19 0 36 -5t41 -15q24 -9 38.5 -13.5t31.5 -4.5q52 0 77 36v-72q-10 -13 -30.5 -21t-45.5 -8q-19 0 -36.5 5zM237 724q-43 36 -43 112h66q0 -43 24 -66t66 -23t66 23t24 66
h66q0 -76 -43 -112t-113 -36t-113 36zM290 644h122l244 -644h-112l-64 166h-259l-64 -166h-113zM462 250l-112 295l-112 -295h224z" />
    <glyph glyph-name="uni1EB5" unicode="&#x1eb5;" horiz-adv-x="547" 
d="M320.5 696q-17.5 5 -43.5 15q-5 2 -26.5 9.5t-40.5 7.5q-52 0 -83 -34v71q13 13 35.5 21t46.5 8q19 0 36 -5t41 -15q24 -9 38.5 -13.5t31.5 -4.5q52 0 77 36v-72q-10 -13 -30.5 -21t-45.5 -8q-19 0 -36.5 5zM166 558q-43 36 -43 112h66q0 -43 24 -66t66 -23t66 23t24 66
h66q0 -76 -43 -112t-113 -36t-113 36zM91 27.5q-48 37.5 -48 107.5t47.5 110.5t142.5 40.5h152v21q0 35 -10.5 54.5t-38.5 28.5t-80 9q-84 0 -157 -25v81q34 13 80 21t97 8q106 0 159.5 -43t53.5 -136v-305h-93l-7 48q-30 -29 -73 -43.5t-105 -14.5q-72 0 -120 37.5zM324 84
q37 16 61 45v83h-150q-48 0 -69.5 -18t-21.5 -57q0 -36 24 -52.5t72 -16.5q47 0 84 16z" />
    <glyph glyph-name="uni1EB6" unicode="&#x1eb6;" horiz-adv-x="700" 
d="M244.5 726q-37.5 38 -37.5 103h74q0 -35 17.5 -55.5t49.5 -20.5q33 0 51.5 20.5t18.5 55.5h74q0 -65 -38.5 -103t-105.5 -38q-66 0 -103.5 38zM290 644h122l244 -644h-112l-64 166h-259l-64 -166h-113zM462 250l-112 295l-112 -295h224zM303 -85h94v-88h-94v88z" />
    <glyph glyph-name="uni1EB7" unicode="&#x1eb7;" horiz-adv-x="547" 
d="M185.5 560q-37.5 38 -37.5 103h74q0 -35 17.5 -55.5t49.5 -20.5q33 0 51.5 20.5t18.5 55.5h74q0 -65 -38.5 -103t-105.5 -38q-66 0 -103.5 38zM91 27.5q-48 37.5 -48 107.5t47.5 110.5t142.5 40.5h152v21q0 35 -10.5 54.5t-38.5 28.5t-80 9q-84 0 -157 -25v81
q34 13 80 21t97 8q106 0 159.5 -43t53.5 -136v-305h-93l-7 48q-30 -29 -73 -43.5t-105 -14.5q-72 0 -120 37.5zM324 84q37 16 61 45v83h-150q-48 0 -69.5 -18t-21.5 -57q0 -36 24 -52.5t72 -16.5q47 0 84 16zM243 -85h94v-88h-94v88z" />
    <glyph glyph-name="uni1EB8" unicode="&#x1eb8;" horiz-adv-x="550" 
d="M63 644h449v-85h-340v-195h303v-84h-303v-196h340v-84h-449v644zM233 -85h94v-88h-94v88z" />
    <glyph glyph-name="uni1EB9" unicode="&#x1eb9;" horiz-adv-x="537" 
d="M110 52q-67 62 -67 186q0 117 59 181.5t175 64.5q105 0 161 -55t56 -147v-88h-347q8 -68 49 -94.5t129 -26.5q36 0 73.5 7t66.5 18v-80q-63 -28 -162 -28q-126 0 -193 62zM398 265v33q0 51 -28 77.5t-90 26.5q-74 0 -103.5 -32t-29.5 -105h251zM228 -85h94v-88h-94v88z
" />
    <glyph glyph-name="uni1EBA" unicode="&#x1eba;" horiz-adv-x="550" 
d="M237 769q55 3 73.5 13.5t18.5 36.5q0 22 -18.5 32t-55.5 10q-15 0 -33 -3.5t-31 -8.5v59q16 6 41.5 9.5t51.5 3.5q61 0 93.5 -25t32.5 -68q0 -42 -20 -64.5t-68 -29.5v-47h-85v82zM63 644h449v-85h-340v-195h303v-84h-303v-196h340v-84h-449v644z" />
    <glyph glyph-name="uni1EBB" unicode="&#x1ebb;" horiz-adv-x="537" 
d="M233 603q55 3 73.5 13.5t18.5 36.5q0 22 -18.5 32t-55.5 10q-15 0 -33 -3.5t-31 -8.5v59q16 6 41.5 9.5t51.5 3.5q61 0 93.5 -25t32.5 -68q0 -42 -20 -64.5t-68 -29.5v-47h-85v82zM110 52q-67 62 -67 186q0 117 59 181.5t175 64.5q105 0 161 -55t56 -147v-88h-347
q8 -68 49 -94.5t129 -26.5q36 0 73.5 7t66.5 18v-80q-63 -28 -162 -28q-126 0 -193 62zM398 265v33q0 51 -28 77.5t-90 26.5q-74 0 -103.5 -32t-29.5 -105h251z" />
    <glyph glyph-name="uni1EBC" unicode="&#x1ebc;" horiz-adv-x="550" 
d="M326 708q-17 5 -47 16q-25 9 -39.5 13.5t-29.5 4.5q-55 0 -87 -36v80q13 13 36.5 21.5t48.5 8.5q20 0 37.5 -5t42.5 -15q23 -9 39 -14t34 -5q52 0 80 37v-80q-10 -14 -31.5 -22.5t-47.5 -8.5q-19 0 -36 5zM63 644h449v-85h-340v-195h303v-84h-303v-196h340v-84h-449v644z
" />
    <glyph glyph-name="uni1EBD" unicode="&#x1ebd;" horiz-adv-x="537" 
d="M319 542q-17 5 -47 16q-25 9 -39.5 13.5t-29.5 4.5q-55 0 -87 -36v80q13 13 36.5 21.5t48.5 8.5q20 0 37.5 -5t42.5 -15q23 -9 39 -14t34 -5q52 0 80 37v-80q-10 -14 -31.5 -22.5t-47.5 -8.5q-19 0 -36 5zM110 52q-67 62 -67 186q0 117 59 181.5t175 64.5q105 0 161 -55
t56 -147v-88h-347q8 -68 49 -94.5t129 -26.5q36 0 73.5 7t66.5 18v-80q-63 -28 -162 -28q-126 0 -193 62zM398 265v33q0 51 -28 77.5t-90 26.5q-74 0 -103.5 -32t-29.5 -105h251z" />
    <glyph glyph-name="uni1EBE" unicode="&#x1ebe;" horiz-adv-x="550" 
d="M437 932h83l-70 -133h-77zM240 813h84l119 -127h-89l-72 82l-70 -82h-91zM63 644h449v-85h-340v-195h303v-84h-303v-196h340v-84h-449v644z" />
    <glyph glyph-name="uni1EBF" unicode="&#x1ebf;" horiz-adv-x="537" 
d="M432 766h83l-70 -133h-77zM235 647h84l119 -127h-89l-72 82l-70 -82h-91zM110 52q-67 62 -67 186q0 117 59 181.5t175 64.5q105 0 161 -55t56 -147v-88h-347q8 -68 49 -94.5t129 -26.5q36 0 73.5 7t66.5 18v-80q-63 -28 -162 -28q-126 0 -193 62zM398 265v33
q0 51 -28 77.5t-90 26.5q-74 0 -103.5 -32t-29.5 -105h251z" />
    <glyph glyph-name="uni1EC0" unicode="&#x1ec0;" horiz-adv-x="550" 
d="M53 932h84l64 -133h-77zM249 813h85l118 -127h-90l-71 82l-71 -82h-89zM63 644h449v-85h-340v-195h303v-84h-303v-196h340v-84h-449v644z" />
    <glyph glyph-name="uni1EC1" unicode="&#x1ec1;" horiz-adv-x="537" 
d="M45 779h84l64 -133h-77zM241 660h85l118 -127h-90l-71 82l-71 -82h-89zM110 52q-67 62 -67 186q0 117 59 181.5t175 64.5q105 0 161 -55t56 -147v-88h-347q8 -68 49 -94.5t129 -26.5q36 0 73.5 7t66.5 18v-80q-63 -28 -162 -28q-126 0 -193 62zM398 265v33q0 51 -28 77.5
t-90 26.5q-74 0 -103.5 -32t-29.5 -105h251z" />
    <glyph glyph-name="uni1EC2" unicode="&#x1ec2;" horiz-adv-x="550" 
d="M384 844q46 2 61.5 11t15.5 28q0 16 -11.5 23.5t-35.5 7.5q-29 0 -56 -12v53q34 12 77 12q48 0 75.5 -21t27.5 -57q0 -33 -18.5 -52t-58.5 -25v-34h-77v66zM242 813h85l118 -127h-89l-71 82l-71 -82h-90zM63 644h449v-85h-340v-195h303v-84h-303v-196h340v-84h-449v644z
" />
    <glyph glyph-name="uni1EC3" unicode="&#x1ec3;" horiz-adv-x="537" 
d="M372 678q46 2 61.5 11t15.5 28q0 16 -11.5 23.5t-35.5 7.5q-29 0 -56 -12v53q34 12 77 12q48 0 75.5 -21t27.5 -57q0 -33 -18.5 -52t-58.5 -25v-34h-77v66zM230 647h85l118 -127h-89l-71 82l-71 -82h-90zM110 52q-67 62 -67 186q0 117 59 181.5t175 64.5q105 0 161 -55
t56 -147v-88h-347q8 -68 49 -94.5t129 -26.5q36 0 73.5 7t66.5 18v-80q-63 -28 -162 -28q-126 0 -193 62zM398 265v33q0 51 -28 77.5t-90 26.5q-74 0 -103.5 -32t-29.5 -105h251z" />
    <glyph glyph-name="uni1EC4" unicode="&#x1ec4;" horiz-adv-x="550" 
d="M331.5 827q-17.5 5 -43.5 15q-24 9 -38 13.5t-29 4.5q-52 0 -83 -35v71q13 13 35.5 21t46.5 8q19 0 34.5 -4.5t42.5 -14.5q24 -9 38.5 -13.5t31.5 -4.5q51 0 77 35v-71q-10 -13 -30.5 -21.5t-45.5 -8.5q-19 0 -36.5 5zM243 814h85l118 -127h-89l-71 82l-71 -82h-90z
M63 644h449v-85h-340v-195h303v-84h-303v-196h340v-84h-449v644z" />
    <glyph glyph-name="uni1EC5" unicode="&#x1ec5;" horiz-adv-x="537" 
d="M322.5 661q-17.5 5 -43.5 15q-24 9 -38 13.5t-29 4.5q-52 0 -83 -35v71q13 13 35.5 21t46.5 8q19 0 34.5 -4.5t42.5 -14.5q24 -9 38.5 -13.5t31.5 -4.5q51 0 77 35v-71q-10 -13 -30.5 -21.5t-45.5 -8.5q-19 0 -36.5 5zM234 648h85l118 -127h-89l-71 82l-71 -82h-90z
M110 52q-67 62 -67 186q0 117 59 181.5t175 64.5q105 0 161 -55t56 -147v-88h-347q8 -68 49 -94.5t129 -26.5q36 0 73.5 7t66.5 18v-80q-63 -28 -162 -28q-126 0 -193 62zM398 265v33q0 51 -28 77.5t-90 26.5q-74 0 -103.5 -32t-29.5 -105h251z" />
    <glyph glyph-name="uni1EC6" unicode="&#x1ec6;" horiz-adv-x="550" 
d="M238 848h76l125 -161h-87l-76 101l-74 -101h-89zM63 644h449v-85h-340v-195h303v-84h-303v-196h340v-84h-449v644zM229 -85h94v-88h-94v88z" />
    <glyph glyph-name="uni1EC7" unicode="&#x1ec7;" horiz-adv-x="537" 
d="M236 682h76l125 -161h-87l-76 101l-74 -101h-89zM110 52q-67 62 -67 186q0 117 59 181.5t175 64.5q105 0 161 -55t56 -147v-88h-347q8 -68 49 -94.5t129 -26.5q36 0 73.5 7t66.5 18v-80q-63 -28 -162 -28q-126 0 -193 62zM398 265v33q0 51 -28 77.5t-90 26.5
q-74 0 -103.5 -32t-29.5 -105h251zM228 -85h94v-88h-94v88z" />
    <glyph glyph-name="uni1EC8" unicode="&#x1ec8;" horiz-adv-x="235" 
d="M74 769q55 3 73.5 13.5t18.5 36.5q0 22 -18.5 32t-55.5 10q-15 0 -33 -3.5t-31 -8.5v59q16 6 41.5 9.5t51.5 3.5q61 0 93.5 -25t32.5 -68q0 -42 -20 -64.5t-68 -29.5v-47h-85v82zM63 644h109v-644h-109v644z" />
    <glyph glyph-name="uni1EC9" unicode="&#x1ec9;" horiz-adv-x="308" 
d="M118 603q55 3 73.5 13.5t18.5 36.5q0 22 -18.5 32t-55.5 10q-15 0 -33 -3.5t-31 -8.5v59q16 6 41.5 9.5t51.5 3.5q61 0 93.5 -25t32.5 -68q0 -42 -20 -64.5t-68 -29.5v-47h-85v82zM135 391h-72l10 83h171v-474h-109v391z" />
    <glyph glyph-name="uni1ECA" unicode="&#x1eca;" horiz-adv-x="235" 
d="M63 644h109v-644h-109v644zM70 -85h94v-88h-94v88z" />
    <glyph glyph-name="uni1ECB" unicode="&#x1ecb;" horiz-adv-x="308" 
d="M126 663h119v-90h-119v90zM135 391h-72l10 83h171v-474h-109v391zM143 -85h94v-88h-94v88z" />
    <glyph glyph-name="uni1ECC" unicode="&#x1ecc;" horiz-adv-x="697" 
d="M118.5 70.5q-75.5 80.5 -75.5 249.5q0 174 75 254t230 80t230 -80t75 -254q0 -169 -75.5 -249.5t-229.5 -80.5t-229.5 80.5zM497 138q47 56 47 182q0 131 -46.5 186t-149.5 55q-102 0 -148.5 -55t-46.5 -186q0 -125 47 -181.5t148 -56.5q102 0 149 56zM301 -85h94v-88
h-94v88z" />
    <glyph glyph-name="uni1ECD" unicode="&#x1ecd;" horiz-adv-x="581" 
d="M43 237q0 247 247 247q248 0 248 -247t-248 -247q-247 0 -247 247zM396.5 118q31.5 36 31.5 119q0 82 -31.5 118t-106.5 36q-74 0 -105.5 -36t-31.5 -118q0 -83 31.5 -119t105.5 -36q75 0 106.5 36zM243 -85h94v-88h-94v88z" />
    <glyph glyph-name="uni1ECE" unicode="&#x1ece;" horiz-adv-x="697" 
d="M307 769q55 3 73.5 13.5t18.5 36.5q0 22 -18.5 32t-55.5 10q-15 0 -33 -3.5t-31 -8.5v59q16 6 41.5 9.5t51.5 3.5q61 0 93.5 -25t32.5 -68q0 -42 -20 -64.5t-68 -29.5v-47h-85v82zM118.5 70.5q-75.5 80.5 -75.5 249.5q0 174 75 254t230 80t230 -80t75 -254
q0 -169 -75.5 -249.5t-229.5 -80.5t-229.5 80.5zM497 138q47 56 47 182q0 131 -46.5 186t-149.5 55q-102 0 -148.5 -55t-46.5 -186q0 -125 47 -181.5t148 -56.5q102 0 149 56z" />
    <glyph glyph-name="uni1ECF" unicode="&#x1ecf;" horiz-adv-x="581" 
d="M249 603q55 3 73.5 13.5t18.5 36.5q0 22 -18.5 32t-55.5 10q-15 0 -33 -3.5t-31 -8.5v59q16 6 41.5 9.5t51.5 3.5q61 0 93.5 -25t32.5 -68q0 -42 -20 -64.5t-68 -29.5v-47h-85v82zM43 237q0 247 247 247q248 0 248 -247t-248 -247q-247 0 -247 247zM396.5 118
q31.5 36 31.5 119q0 82 -31.5 118t-106.5 36q-74 0 -105.5 -36t-31.5 -118q0 -83 31.5 -119t105.5 -36q75 0 106.5 36z" />
    <glyph glyph-name="uni1ED0" unicode="&#x1ed0;" horiz-adv-x="697" 
d="M506 933h83l-70 -133h-77zM309 814h84l119 -127h-89l-72 82l-70 -82h-91zM118.5 70.5q-75.5 80.5 -75.5 249.5q0 174 75 254t230 80t230 -80t75 -254q0 -169 -75.5 -249.5t-229.5 -80.5t-229.5 80.5zM497 138q47 56 47 182q0 131 -46.5 186t-149.5 55q-102 0 -148.5 -55
t-46.5 -186q0 -125 47 -181.5t148 -56.5q102 0 149 56z" />
    <glyph glyph-name="uni1ED1" unicode="&#x1ed1;" horiz-adv-x="581" 
d="M446 767h83l-70 -133h-77zM249 648h84l119 -127h-89l-72 82l-70 -82h-91zM43 237q0 247 247 247q248 0 248 -247t-248 -247q-247 0 -247 247zM396.5 118q31.5 36 31.5 119q0 82 -31.5 118t-106.5 36q-74 0 -105.5 -36t-31.5 -118q0 -83 31.5 -119t105.5 -36
q75 0 106.5 36z" />
    <glyph glyph-name="uni1ED2" unicode="&#x1ed2;" horiz-adv-x="697" 
d="M109 933h84l64 -133h-77zM305 814h85l118 -127h-90l-71 82l-71 -82h-89zM118.5 70.5q-75.5 80.5 -75.5 249.5q0 174 75 254t230 80t230 -80t75 -254q0 -169 -75.5 -249.5t-229.5 -80.5t-229.5 80.5zM497 138q47 56 47 182q0 131 -46.5 186t-149.5 55q-102 0 -148.5 -55
t-46.5 -186q0 -125 47 -181.5t148 -56.5q102 0 149 56z" />
    <glyph glyph-name="uni1ED3" unicode="&#x1ed3;" horiz-adv-x="581" 
d="M47 767h84l64 -133h-77zM243 648h85l118 -127h-90l-71 82l-71 -82h-89zM43 237q0 247 247 247q248 0 248 -247t-248 -247q-247 0 -247 247zM396.5 118q31.5 36 31.5 119q0 82 -31.5 118t-106.5 36q-74 0 -105.5 -36t-31.5 -118q0 -83 31.5 -119t105.5 -36q75 0 106.5 36z
" />
    <glyph glyph-name="uni1ED4" unicode="&#x1ed4;" horiz-adv-x="697" 
d="M445 845q46 2 61.5 11t15.5 28q0 16 -11.5 23.5t-35.5 7.5q-29 0 -56 -12v53q34 12 77 12q48 0 75.5 -21t27.5 -57q0 -33 -18.5 -52t-58.5 -25v-34h-77v66zM303 814h85l118 -127h-89l-71 82l-71 -82h-90zM118.5 70.5q-75.5 80.5 -75.5 249.5q0 174 75 254t230 80t230 -80
t75 -254q0 -169 -75.5 -249.5t-229.5 -80.5t-229.5 80.5zM497 138q47 56 47 182q0 131 -46.5 186t-149.5 55q-102 0 -148.5 -55t-46.5 -186q0 -125 47 -181.5t148 -56.5q102 0 149 56z" />
    <glyph glyph-name="uni1ED5" unicode="&#x1ed5;" horiz-adv-x="581" 
d="M398 679q46 2 61.5 11t15.5 28q0 16 -11.5 23.5t-35.5 7.5q-29 0 -56 -12v53q34 12 77 12q48 0 75.5 -21t27.5 -57q0 -33 -18.5 -52t-58.5 -25v-34h-77v66zM256 648h85l118 -127h-89l-71 82l-71 -82h-90zM43 237q0 247 247 247q248 0 248 -247t-248 -247q-247 0 -247 247
zM396.5 118q31.5 36 31.5 119q0 82 -31.5 118t-106.5 36q-74 0 -105.5 -36t-31.5 -118q0 -83 31.5 -119t105.5 -36q75 0 106.5 36z" />
    <glyph glyph-name="uni1ED6" unicode="&#x1ed6;" horiz-adv-x="697" 
d="M389.5 862q-17.5 5 -43.5 15q-5 2 -26.5 9.5t-40.5 7.5q-52 0 -83 -34v71q13 13 35.5 21t46.5 8q19 0 36 -5t41 -15q24 -9 38.5 -13.5t31.5 -4.5q52 0 77 36v-72q-10 -13 -30.5 -21t-45.5 -8q-19 0 -36.5 5zM235 724q-43 36 -43 112h66q0 -43 24 -66t66 -23t66 23t24 66
h66q0 -76 -43 -112t-113 -36t-113 36zM118.5 70.5q-75.5 80.5 -75.5 249.5q0 174 75 254t230 80t230 -80t75 -254q0 -169 -75.5 -249.5t-229.5 -80.5t-229.5 80.5zM497 138q47 56 47 182q0 131 -46.5 186t-149.5 55q-102 0 -148.5 -55t-46.5 -186q0 -125 47 -181.5
t148 -56.5q102 0 149 56z" />
    <glyph glyph-name="uni1ED7" unicode="&#x1ed7;" horiz-adv-x="581" 
d="M331.5 696q-17.5 5 -43.5 15q-5 2 -26.5 9.5t-40.5 7.5q-52 0 -83 -34v71q13 13 35.5 21t46.5 8q19 0 36 -5t41 -15q24 -9 38.5 -13.5t31.5 -4.5q52 0 77 36v-72q-10 -13 -30.5 -21t-45.5 -8q-19 0 -36.5 5zM177 558q-43 36 -43 112h66q0 -43 24 -66t66 -23t66 23t24 66
h66q0 -76 -43 -112t-113 -36t-113 36zM43 237q0 247 247 247q248 0 248 -247t-248 -247q-247 0 -247 247zM396.5 118q31.5 36 31.5 119q0 82 -31.5 118t-106.5 36q-74 0 -105.5 -36t-31.5 -118q0 -83 31.5 -119t105.5 -36q75 0 106.5 36z" />
    <glyph glyph-name="uni1ED8" unicode="&#x1ed8;" horiz-adv-x="697" 
d="M310 853h76l125 -161h-87l-76 101l-74 -101h-89zM118.5 70.5q-75.5 80.5 -75.5 249.5q0 174 75 254t230 80t230 -80t75 -254q0 -169 -75.5 -249.5t-229.5 -80.5t-229.5 80.5zM497 138q47 56 47 182q0 131 -46.5 186t-149.5 55q-102 0 -148.5 -55t-46.5 -186
q0 -125 47 -181.5t148 -56.5q102 0 149 56zM301 -85h94v-88h-94v88z" />
    <glyph glyph-name="uni1ED9" unicode="&#x1ed9;" horiz-adv-x="581" 
d="M252 682h76l125 -161h-87l-76 101l-74 -101h-89zM43 237q0 247 247 247q248 0 248 -247t-248 -247q-247 0 -247 247zM396.5 118q31.5 36 31.5 119q0 82 -31.5 118t-106.5 36q-74 0 -105.5 -36t-31.5 -118q0 -83 31.5 -119t105.5 -36q75 0 106.5 36zM243 -85h94v-88h-94
v88z" />
    <glyph glyph-name="uni1EDA" unicode="&#x1eda;" horiz-adv-x="770" 
d="M390 865h96l-84 -177h-87zM118.5 70.5q-75.5 80.5 -75.5 249.5q0 174 75 254t230 80q151 0 225 -77q55 1 75.5 24.5t20.5 86.5h84q0 -90 -32 -132.5t-99 -52.5q31 -71 31 -183q0 -169 -75.5 -249.5t-229.5 -80.5t-229.5 80.5zM497 138q47 56 47 182q0 131 -46.5 186
t-149.5 55q-102 0 -148.5 -55t-46.5 -186q0 -125 47 -181.5t148 -56.5q102 0 149 56z" />
    <glyph glyph-name="uni1EDB" unicode="&#x1edb;" horiz-adv-x="676" 
d="M328 699h96l-84 -177h-87zM43 237q0 247 247 247q125 0 188 -65q56 1 76.5 26.5t20.5 90.5h84q0 -92 -33.5 -136t-104.5 -54q17 -48 17 -109q0 -247 -248 -247q-247 0 -247 247zM396.5 118q31.5 36 31.5 119q0 82 -31.5 118t-106.5 36q-74 0 -105.5 -36t-31.5 -118
q0 -83 31.5 -119t105.5 -36q75 0 106.5 36z" />
    <glyph glyph-name="uni1EDC" unicode="&#x1edc;" horiz-adv-x="770" 
d="M242 865h95l76 -177h-88zM118.5 70.5q-75.5 80.5 -75.5 249.5q0 174 75 254t230 80q151 0 225 -77q55 1 75.5 24.5t20.5 86.5h84q0 -90 -32 -132.5t-99 -52.5q31 -71 31 -183q0 -169 -75.5 -249.5t-229.5 -80.5t-229.5 80.5zM497 138q47 56 47 182q0 131 -46.5 186
t-149.5 55q-102 0 -148.5 -55t-46.5 -186q0 -125 47 -181.5t148 -56.5q102 0 149 56z" />
    <glyph glyph-name="uni1EDD" unicode="&#x1edd;" horiz-adv-x="676" 
d="M178 699h95l76 -177h-88zM43 237q0 247 247 247q125 0 188 -65q56 1 76.5 26.5t20.5 90.5h84q0 -92 -33.5 -136t-104.5 -54q17 -48 17 -109q0 -247 -248 -247q-247 0 -247 247zM396.5 118q31.5 36 31.5 119q0 82 -31.5 118t-106.5 36q-74 0 -105.5 -36t-31.5 -118
q0 -83 31.5 -119t105.5 -36q75 0 106.5 36z" />
    <glyph glyph-name="uni1EDE" unicode="&#x1ede;" horiz-adv-x="770" 
d="M312 769q55 3 73.5 13.5t18.5 36.5q0 22 -18.5 32t-55.5 10q-15 0 -33 -3.5t-31 -8.5v59q16 6 41.5 9.5t51.5 3.5q61 0 93.5 -25t32.5 -68q0 -42 -20 -64.5t-68 -29.5v-47h-85v82zM118.5 70.5q-75.5 80.5 -75.5 249.5q0 174 75 254t230 80q151 0 225 -77q55 1 75.5 24.5
t20.5 86.5h84q0 -90 -32 -132.5t-99 -52.5q31 -71 31 -183q0 -169 -75.5 -249.5t-229.5 -80.5t-229.5 80.5zM497 138q47 56 47 182q0 131 -46.5 186t-149.5 55q-102 0 -148.5 -55t-46.5 -186q0 -125 47 -181.5t148 -56.5q102 0 149 56z" />
    <glyph glyph-name="uni1EDF" unicode="&#x1edf;" horiz-adv-x="676" 
d="M246 603q55 3 73.5 13.5t18.5 36.5q0 22 -18.5 32t-55.5 10q-15 0 -33 -3.5t-31 -8.5v59q16 6 41.5 9.5t51.5 3.5q61 0 93.5 -25t32.5 -68q0 -42 -20 -64.5t-68 -29.5v-47h-85v82zM43 237q0 247 247 247q125 0 188 -65q56 1 76.5 26.5t20.5 90.5h84q0 -92 -33.5 -136
t-104.5 -54q17 -48 17 -109q0 -247 -248 -247q-247 0 -247 247zM396.5 118q31.5 36 31.5 119q0 82 -31.5 118t-106.5 36q-74 0 -105.5 -36t-31.5 -118q0 -83 31.5 -119t105.5 -36q75 0 106.5 36z" />
    <glyph glyph-name="uni1EE0" unicode="&#x1ee0;" horiz-adv-x="770" 
d="M406 706q-17 5 -47 16q-25 9 -39.5 13.5t-29.5 4.5q-55 0 -87 -36v80q13 13 36.5 21.5t48.5 8.5q20 0 37.5 -5t42.5 -15q23 -9 39 -14t34 -5q52 0 80 37v-80q-10 -14 -31.5 -22.5t-47.5 -8.5q-19 0 -36 5zM118.5 70.5q-75.5 80.5 -75.5 249.5q0 174 75 254t230 80
q151 0 225 -77q55 1 75.5 24.5t20.5 86.5h84q0 -90 -32 -132.5t-99 -52.5q31 -71 31 -183q0 -169 -75.5 -249.5t-229.5 -80.5t-229.5 80.5zM497 138q47 56 47 182q0 131 -46.5 186t-149.5 55q-102 0 -148.5 -55t-46.5 -186q0 -125 47 -181.5t148 -56.5q102 0 149 56z" />
    <glyph glyph-name="uni1EE1" unicode="&#x1ee1;" horiz-adv-x="676" 
d="M340 540q-17 5 -47 16q-25 9 -39.5 13.5t-29.5 4.5q-55 0 -87 -36v80q13 13 36.5 21.5t48.5 8.5q20 0 37.5 -5t42.5 -15q23 -9 39 -14t34 -5q52 0 80 37v-80q-10 -14 -31.5 -22.5t-47.5 -8.5q-19 0 -36 5zM43 237q0 247 247 247q125 0 188 -65q56 1 76.5 26.5t20.5 90.5
h84q0 -92 -33.5 -136t-104.5 -54q17 -48 17 -109q0 -247 -248 -247q-247 0 -247 247zM396.5 118q31.5 36 31.5 119q0 82 -31.5 118t-106.5 36q-74 0 -105.5 -36t-31.5 -118q0 -83 31.5 -119t105.5 -36q75 0 106.5 36z" />
    <glyph glyph-name="uni1EE2" unicode="&#x1ee2;" horiz-adv-x="770" 
d="M118.5 70.5q-75.5 80.5 -75.5 249.5q0 174 75 254t230 80q151 0 225 -77q55 1 75.5 24.5t20.5 86.5h84q0 -90 -32 -132.5t-99 -52.5q31 -71 31 -183q0 -169 -75.5 -249.5t-229.5 -80.5t-229.5 80.5zM497 138q47 56 47 182q0 131 -46.5 186t-149.5 55q-102 0 -148.5 -55
t-46.5 -186q0 -125 47 -181.5t148 -56.5q102 0 149 56zM305 -85h94v-88h-94v88z" />
    <glyph glyph-name="uni1EE3" unicode="&#x1ee3;" horiz-adv-x="676" 
d="M43 237q0 247 247 247q125 0 188 -65q56 1 76.5 26.5t20.5 90.5h84q0 -92 -33.5 -136t-104.5 -54q17 -48 17 -109q0 -247 -248 -247q-247 0 -247 247zM396.5 118q31.5 36 31.5 119q0 82 -31.5 118t-106.5 36q-74 0 -105.5 -36t-31.5 -118q0 -83 31.5 -119t105.5 -36
q75 0 106.5 36zM248 -85h94v-88h-94v88z" />
    <glyph glyph-name="uni1EE4" unicode="&#x1ee4;" horiz-adv-x="674" 
d="M131 54q-73 64 -73 185v405h109v-401q0 -80 44 -120.5t127 -40.5q82 0 126 40.5t44 120.5v401h108v-405q0 -121 -72.5 -185t-205.5 -64q-134 0 -207 64zM290 -85h94v-88h-94v88z" />
    <glyph glyph-name="uni1EE5" unicode="&#x1ee5;" horiz-adv-x="578" 
d="M103.5 37.5q-45.5 47.5 -45.5 137.5v299h109v-299q0 -53 26 -78t80 -25q39 0 73 14.5t60 40.5v347h108v-474h-99l-5 49q-75 -59 -176 -59q-85 0 -130.5 47.5zM233 -85h94v-88h-94v88z" />
    <glyph glyph-name="uni1EE6" unicode="&#x1ee6;" horiz-adv-x="674" 
d="M292 769q55 3 73.5 13.5t18.5 36.5q0 22 -18.5 32t-55.5 10q-15 0 -33 -3.5t-31 -8.5v59q16 6 41.5 9.5t51.5 3.5q61 0 93.5 -25t32.5 -68q0 -42 -20 -64.5t-68 -29.5v-47h-85v82zM131 54q-73 64 -73 185v405h109v-401q0 -80 44 -120.5t127 -40.5q82 0 126 40.5t44 120.5
v401h108v-405q0 -121 -72.5 -185t-205.5 -64q-134 0 -207 64z" />
    <glyph glyph-name="uni1EE7" unicode="&#x1ee7;" horiz-adv-x="578" 
d="M242 603q55 3 73.5 13.5t18.5 36.5q0 22 -18.5 32t-55.5 10q-15 0 -33 -3.5t-31 -8.5v59q16 6 41.5 9.5t51.5 3.5q61 0 93.5 -25t32.5 -68q0 -42 -20 -64.5t-68 -29.5v-47h-85v82zM103.5 37.5q-45.5 47.5 -45.5 137.5v299h109v-299q0 -53 26 -78t80 -25q39 0 73 14.5
t60 40.5v347h108v-474h-99l-5 49q-75 -59 -176 -59q-85 0 -130.5 47.5z" />
    <glyph glyph-name="uni1EE8" unicode="&#x1ee8;" horiz-adv-x="821" 
d="M376 865h96l-84 -177h-87zM131 54q-73 64 -73 185v405h109v-401q0 -80 44 -120.5t127 -40.5q82 0 126 40.5t44 120.5v401h108v-70q55 2 76 26t21 88h84q0 -71 -19 -112.5t-58.5 -59.5t-103.5 -19v-258q0 -121 -72.5 -185t-205.5 -64q-134 0 -207 64z" />
    <glyph glyph-name="uni1EE9" unicode="&#x1ee9;" horiz-adv-x="702" 
d="M322 699h96l-84 -177h-87zM103.5 37.5q-45.5 47.5 -45.5 137.5v299h109v-299q0 -53 26 -78t80 -25q39 0 73 14.5t60 40.5v347h108v-55q47 4 64.5 30t17.5 87h84q0 -98 -40.5 -143.5t-125.5 -48.5v-344h-99l-5 49q-75 -59 -176 -59q-85 0 -130.5 47.5z" />
    <glyph glyph-name="uni1EEA" unicode="&#x1eea;" horiz-adv-x="821" 
d="M220 865h95l76 -177h-88zM131 54q-73 64 -73 185v405h109v-401q0 -80 44 -120.5t127 -40.5q82 0 126 40.5t44 120.5v401h108v-70q55 2 76 26t21 88h84q0 -71 -19 -112.5t-58.5 -59.5t-103.5 -19v-258q0 -121 -72.5 -185t-205.5 -64q-134 0 -207 64z" />
    <glyph glyph-name="uni1EEB" unicode="&#x1eeb;" horiz-adv-x="702" 
d="M171 699h95l76 -177h-88zM103.5 37.5q-45.5 47.5 -45.5 137.5v299h109v-299q0 -53 26 -78t80 -25q39 0 73 14.5t60 40.5v347h108v-55q47 4 64.5 30t17.5 87h84q0 -98 -40.5 -143.5t-125.5 -48.5v-344h-99l-5 49q-75 -59 -176 -59q-85 0 -130.5 47.5z" />
    <glyph glyph-name="uni1EEC" unicode="&#x1eec;" horiz-adv-x="821" 
d="M300 769q55 3 73.5 13.5t18.5 36.5q0 22 -18.5 32t-55.5 10q-15 0 -33 -3.5t-31 -8.5v59q16 6 41.5 9.5t51.5 3.5q61 0 93.5 -25t32.5 -68q0 -42 -20 -64.5t-68 -29.5v-47h-85v82zM131 54q-73 64 -73 185v405h109v-401q0 -80 44 -120.5t127 -40.5q82 0 126 40.5t44 120.5
v401h108v-70q55 2 76 26t21 88h84q0 -71 -19 -112.5t-58.5 -59.5t-103.5 -19v-258q0 -121 -72.5 -185t-205.5 -64q-134 0 -207 64z" />
    <glyph glyph-name="uni1EED" unicode="&#x1eed;" horiz-adv-x="702" 
d="M248 603q55 3 73.5 13.5t18.5 36.5q0 22 -18.5 32t-55.5 10q-15 0 -33 -3.5t-31 -8.5v59q16 6 41.5 9.5t51.5 3.5q61 0 93.5 -25t32.5 -68q0 -42 -20 -64.5t-68 -29.5v-47h-85v82zM103.5 37.5q-45.5 47.5 -45.5 137.5v299h109v-299q0 -53 26 -78t80 -25q39 0 73 14.5
t60 40.5v347h108v-55q47 4 64.5 30t17.5 87h84q0 -98 -40.5 -143.5t-125.5 -48.5v-344h-99l-5 49q-75 -59 -176 -59q-85 0 -130.5 47.5z" />
    <glyph glyph-name="uni1EEE" unicode="&#x1eee;" horiz-adv-x="821" 
d="M381 706q-17 5 -47 16q-25 9 -39.5 13.5t-29.5 4.5q-55 0 -87 -36v80q13 13 36.5 21.5t48.5 8.5q20 0 37.5 -5t42.5 -15q23 -9 39 -14t34 -5q52 0 80 37v-80q-10 -14 -31.5 -22.5t-47.5 -8.5q-19 0 -36 5zM131 54q-73 64 -73 185v405h109v-401q0 -80 44 -120.5t127 -40.5
q82 0 126 40.5t44 120.5v401h108v-70q55 2 76 26t21 88h84q0 -71 -19 -112.5t-58.5 -59.5t-103.5 -19v-258q0 -121 -72.5 -185t-205.5 -64q-134 0 -207 64z" />
    <glyph glyph-name="uni1EEF" unicode="&#x1eef;" horiz-adv-x="702" 
d="M338 540q-17 5 -47 16q-25 9 -39.5 13.5t-29.5 4.5q-55 0 -87 -36v80q13 13 36.5 21.5t48.5 8.5q20 0 37.5 -5t42.5 -15q23 -9 39 -14t34 -5q52 0 80 37v-80q-10 -14 -31.5 -22.5t-47.5 -8.5q-19 0 -36 5zM103.5 37.5q-45.5 47.5 -45.5 137.5v299h109v-299q0 -53 26 -78
t80 -25q39 0 73 14.5t60 40.5v347h108v-55q47 4 64.5 30t17.5 87h84q0 -98 -40.5 -143.5t-125.5 -48.5v-344h-99l-5 49q-75 -59 -176 -59q-85 0 -130.5 47.5z" />
    <glyph glyph-name="uni1EF0" unicode="&#x1ef0;" horiz-adv-x="821" 
d="M131 54q-73 64 -73 185v405h109v-401q0 -80 44 -120.5t127 -40.5q82 0 126 40.5t44 120.5v401h108v-70q55 2 76 26t21 88h84q0 -71 -19 -112.5t-58.5 -59.5t-103.5 -19v-258q0 -121 -72.5 -185t-205.5 -64q-134 0 -207 64zM288 -85h94v-88h-94v88z" />
    <glyph glyph-name="uni1EF1" unicode="&#x1ef1;" horiz-adv-x="702" 
d="M103.5 37.5q-45.5 47.5 -45.5 137.5v299h109v-299q0 -53 26 -78t80 -25q39 0 73 14.5t60 40.5v347h108v-55q47 4 64.5 30t17.5 87h84q0 -98 -40.5 -143.5t-125.5 -48.5v-344h-99l-5 49q-75 -59 -176 -59q-85 0 -130.5 47.5zM238 -85h94v-88h-94v88z" />
    <glyph glyph-name="Ygrave" unicode="&#x1ef2;" horiz-adv-x="656" 
d="M212 865h95l76 -177h-88zM274 239l-231 405h113l172 -313l172 313h113l-231 -405v-239h-108v239z" />
    <glyph glyph-name="ygrave" unicode="&#x1ef3;" horiz-adv-x="598" 
d="M186 699h95l76 -177h-88zM78 -162v81q28 -10 61 -10q30 0 49 9.5t33 29.5t33 58l-211 468h113l152 -352l154 352h112l-193 -447q-43 -102 -89.5 -152.5t-121.5 -50.5q-54 0 -92 14z" />
    <glyph glyph-name="uni1EF4" unicode="&#x1ef4;" horiz-adv-x="656" 
d="M274 239l-231 405h113l172 -313l172 313h113l-231 -405v-239h-108v239zM281 -73h94v-88h-94v88z" />
    <glyph glyph-name="uni1EF5" unicode="&#x1ef5;" horiz-adv-x="598" 
d="M78 -162v81q28 -10 61 -10q30 0 49 9.5t33 29.5t33 58l-211 468h113l152 -352l154 352h112l-193 -447q-43 -102 -89.5 -152.5t-121.5 -50.5q-54 0 -92 14zM404 -73h94v-88h-94v88z" />
    <glyph glyph-name="uni1EF6" unicode="&#x1ef6;" horiz-adv-x="656" 
d="M278 769q55 3 73.5 13.5t18.5 36.5q0 22 -18.5 32t-55.5 10q-15 0 -33 -3.5t-31 -8.5v59q16 6 41.5 9.5t51.5 3.5q61 0 93.5 -25t32.5 -68q0 -42 -20 -64.5t-68 -29.5v-47h-85v82zM274 239l-231 405h113l172 -313l172 313h113l-231 -405v-239h-108v239z" />
    <glyph glyph-name="uni1EF7" unicode="&#x1ef7;" horiz-adv-x="598" 
d="M267 603q55 3 73.5 13.5t18.5 36.5q0 22 -18.5 32t-55.5 10q-15 0 -33 -3.5t-31 -8.5v59q16 6 41.5 9.5t51.5 3.5q61 0 93.5 -25t32.5 -68q0 -42 -20 -64.5t-68 -29.5v-47h-85v82zM78 -162v81q28 -10 61 -10q30 0 49 9.5t33 29.5t33 58l-211 468h113l152 -352l154 352
h112l-193 -447q-43 -102 -89.5 -152.5t-121.5 -50.5q-54 0 -92 14z" />
    <glyph glyph-name="uni1EF8" unicode="&#x1ef8;" horiz-adv-x="656" 
d="M372 708q-17 5 -47 16q-25 9 -39.5 13.5t-29.5 4.5q-55 0 -87 -36v80q13 13 36.5 21.5t48.5 8.5q20 0 37.5 -5t42.5 -15q23 -9 39 -14t34 -5q52 0 80 37v-80q-10 -14 -31.5 -22.5t-47.5 -8.5q-19 0 -36 5zM274 239l-231 405h113l172 -313l172 313h113l-231 -405v-239
h-108v239z" />
    <glyph glyph-name="uni1EF9" unicode="&#x1ef9;" horiz-adv-x="598" 
d="M351 542q-17 5 -47 16q-25 9 -39.5 13.5t-29.5 4.5q-55 0 -87 -36v80q13 13 36.5 21.5t48.5 8.5q20 0 37.5 -5t42.5 -15q23 -9 39 -14t34 -5q52 0 80 37v-80q-10 -14 -31.5 -22.5t-47.5 -8.5q-19 0 -36 5zM78 -162v81q28 -10 61 -10q30 0 49 9.5t33 29.5t33 58l-211 468
h113l152 -352l154 352h112l-193 -447q-43 -102 -89.5 -152.5t-121.5 -50.5q-54 0 -92 14z" />
    <glyph glyph-name="uni2007" unicode="&#x2007;" 
 />
    <glyph glyph-name="uni2010" unicode="&#x2010;" horiz-adv-x="503" 
d="M43 312h416v-85h-416v85z" />
    <glyph glyph-name="figuredash" unicode="&#x2012;" horiz-adv-x="603" 
d="M43 312h516v-85h-516v85z" />
    <glyph glyph-name="endash" unicode="&#x2013;" horiz-adv-x="575" 
d="M43 312h489v-85h-489v85z" />
    <glyph glyph-name="emdash" unicode="&#x2014;" horiz-adv-x="858" 
d="M43 312h771v-85h-771v85z" />
    <glyph glyph-name="uni2015" unicode="&#x2015;" horiz-adv-x="903" 
d="M43 312h817v-85h-817v85z" />
    <glyph glyph-name="quoteleft" unicode="&#x2018;" horiz-adv-x="235" 
d="M109 654h82l-52 -195h-96z" />
    <glyph glyph-name="quoteright" unicode="&#x2019;" horiz-adv-x="235" 
d="M96 654h95l-66 -195h-82z" />
    <glyph glyph-name="quotesinglbase" unicode="&#x201a;" horiz-adv-x="235" 
d="M96 33h95l-66 -195h-82z" />
    <glyph glyph-name="quotedblleft" unicode="&#x201c;" horiz-adv-x="374" 
d="M109 654h75l-53 -195h-88zM256 654h74l-52 -195h-88z" />
    <glyph glyph-name="quotedblright" unicode="&#x201d;" horiz-adv-x="374" 
d="M96 654h88l-66 -195h-75zM242 654h88l-66 -195h-74z" />
    <glyph glyph-name="quotedblbase" unicode="&#x201e;" horiz-adv-x="374" 
d="M96 80h88l-66 -195h-75zM242 80h88l-66 -195h-74z" />
    <glyph glyph-name="dagger" unicode="&#x2020;" horiz-adv-x="555" 
d="M228 420l-185 -3v84l185 -3l-5 202h110l-5 -202l183 3v-84l-183 3l4 -420h-108z" />
    <glyph glyph-name="daggerdbl" unicode="&#x2021;" horiz-adv-x="555" 
d="M228 185l-185 -1v82l185 -2l-5 86l5 85l-185 -1v81l185 -2l-5 187h110l-5 -187l183 2v-81l-183 1l5 -85l-5 -86l183 2v-82l-183 1l4 -185h-108z" />
    <glyph glyph-name="bullet" unicode="&#x2022;" horiz-adv-x="334" 
d="M79 199.5q-36 35.5 -36 87.5q0 51 36 87.5t87 36.5q52 0 88 -36.5t36 -87.5q0 -52 -36 -87.5t-88 -35.5q-51 0 -87 35.5z" />
    <glyph glyph-name="ellipsis" unicode="&#x2026;" horiz-adv-x="572" 
d="M43 84h91v-84h-91v84zM241 84h90v-84h-90v84zM438 84h90v-84h-90v84z" />
    <glyph glyph-name="perthousand" unicode="&#x2030;" horiz-adv-x="1043" 
d="M79.5 398q-36.5 38 -36.5 102q0 73 36 113.5t106 40.5q69 0 105 -40.5t36 -113.5q0 -64 -36.5 -102t-104.5 -38q-69 0 -105.5 38zM482 644h102l-341 -644h-102zM258 502q0 44 -17.5 64.5t-55.5 20.5t-55.5 -20.5t-17.5 -64.5q0 -76 73 -76t73 76zM437.5 28
q-36.5 38 -36.5 102q0 73 36 113.5t106 40.5q69 0 105 -40.5t36 -113.5q0 -64 -36.5 -102t-104.5 -38q-69 0 -105.5 38zM752.5 28q-36.5 38 -36.5 102q0 73 36 113.5t106 40.5q69 0 105 -40.5t36 -113.5q0 -64 -36.5 -102t-104.5 -38q-69 0 -105.5 38zM616 132
q0 44 -17.5 64.5t-55.5 20.5t-55.5 -20.5t-17.5 -64.5q0 -76 73 -76t73 76zM931 132q0 44 -17.5 64.5t-55.5 20.5t-55.5 -20.5t-17.5 -64.5q0 -76 73 -76t73 76z" />
    <glyph glyph-name="minute" unicode="&#x2032;" horiz-adv-x="181" 
d="M43 644h94l-13 -189h-81v189z" />
    <glyph glyph-name="second" unicode="&#x2033;" horiz-adv-x="341" 
d="M43 644h94l-13 -189h-81v189zM203 644h94l-13 -189h-81v189z" />
    <glyph glyph-name="guilsinglleft" unicode="&#x2039;" horiz-adv-x="388" 
d="M43 263v46l258 190l43 -62l-204 -152l204 -151l-43 -61z" />
    <glyph glyph-name="guilsinglright" unicode="&#x203a;" horiz-adv-x="388" 
d="M43 134l204 151l-204 152l43 62l258 -190v-46l-258 -190z" />
    <glyph glyph-name="fraction" unicode="&#x2044;" horiz-adv-x="153" 
d="M180 662h109l-315 -662h-111z" />
    <glyph glyph-name="uni2070" unicode="&#x2070;" horiz-adv-x="360" 
d="M76 399q-35 37 -35 104q0 151 139 151q138 0 138 -151q0 -67 -34.5 -104t-103.5 -37t-104 37zM230.5 441q14.5 20 14.5 62q0 49 -13.5 70t-51.5 21q-37 0 -51.5 -21.5t-14.5 -69.5q0 -42 15 -62t51 -20t50.5 20z" />
    <glyph glyph-name="uni2074" unicode="&#x2074;" horiz-adv-x="297" 
d="M168 424h-145v52l140 178h79v-177h31v-53h-31v-54h-74v54zM184 478v114l-88 -114h88z" />
    <glyph glyph-name="uni2075" unicode="&#x2075;" horiz-adv-x="303" 
d="M81.5 365q-24.5 3 -38.5 9v57q30 -13 72 -13q37 0 53.5 8.5t16.5 29.5q0 22 -13 30t-47 8h-81v45l7 105h188l-4 -55h-119l-3 -46h44q102 0 102 -88q0 -43 -33 -68t-96 -25q-24 0 -48.5 3z" />
    <glyph glyph-name="uni2076" unicode="&#x2076;" horiz-adv-x="321" 
d="M74.5 389q-31.5 27 -31.5 83v62q0 56 35 88t96 32q48 0 76 -11v-55q-28 10 -72 10q-34 0 -52.5 -14.5t-18.5 -38.5v-12q30 23 71 23q53 0 76.5 -24t23.5 -73q0 -46 -28.5 -71.5t-86.5 -25.5q-57 0 -88.5 27zM200 425q11 11 11 34q0 24 -10 34t-38 10t-56 -21v-19
q0 -25 13 -37t41 -12t39 11z" />
    <glyph glyph-name="uni2077" unicode="&#x2077;" horiz-adv-x="289" 
d="M173 585h-140v59h222v-50l-96 -224h-78z" />
    <glyph glyph-name="uni2078" unicode="&#x2078;" horiz-adv-x="331" 
d="M76.5 383q-33.5 21 -33.5 60q0 48 47 68q-39 19 -39 63q0 37 31 58.5t84 21.5t83.5 -21.5t30.5 -58.5q0 -22 -8.5 -38t-31.5 -28q26 -10 37 -26t11 -39q0 -39 -33.5 -60t-88.5 -21q-56 0 -89.5 21zM205.5 545.5q7.5 8.5 7.5 26.5q0 35 -47 35q-48 0 -48 -35
q0 -15 7 -23.5t24 -12.5l27 -6q22 7 29.5 15.5zM206 417q14 9 14 27q0 16 -8.5 24t-31.5 13l-29 7q-21 -7 -30 -15.5t-9 -27.5q0 -37 54 -37q26 0 40 9z" />
    <glyph glyph-name="uni2079" unicode="&#x2079;" horiz-adv-x="321" 
d="M71 372v56q24 -10 72 -10q34 0 52.5 14t18.5 39v12q-30 -23 -69 -23q-54 0 -78 23.5t-24 73.5q0 46 28.5 71.5t86.5 25.5q120 0 120 -110v-63q0 -55 -35 -87t-96 -32q-46 0 -76 10zM214 533v19q0 26 -13 37.5t-41 11.5t-39 -11t-11 -34q0 -24 10 -33.5t38 -9.5
q29 0 56 20z" />
    <glyph glyph-name="uni207D" unicode="&#x207d;" horiz-adv-x="220" 
d="M57.5 424q-14.5 44 -14.5 90q0 45 14.5 89.5t41.5 72.5h77q-32 -32 -47 -74t-15 -88q0 -47 15 -89t47 -73h-77q-27 28 -41.5 72z" />
    <glyph glyph-name="uni207E" unicode="&#x207e;" horiz-adv-x="220" 
d="M90.5 425q15.5 42 15.5 89q0 46 -15.5 88t-47.5 74h78q27 -28 41 -72t14 -90q0 -47 -14 -91t-41 -71h-78q32 31 47.5 73z" />
    <glyph glyph-name="uni207F" unicode="&#x207f;" horiz-adv-x="358" 
d="M48 648h64l2 -27q45 32 104 32q45 0 70.5 -24t25.5 -71v-172h-67v159q0 31 -12 43t-43 12q-20 0 -41 -8.5t-35 -21.5v-184h-68v262z" />
    <glyph glyph-name="uni2080" unicode="&#x2080;" horiz-adv-x="360" 
d="M76 -91q-35 37 -35 104q0 151 139 151q138 0 138 -151q0 -67 -34.5 -104t-103.5 -37t-104 37zM230.5 -49q14.5 20 14.5 62q0 49 -13.5 70t-51.5 21q-37 0 -51.5 -21.5t-14.5 -69.5q0 -42 15 -62t51 -20t50.5 20z" />
    <glyph glyph-name="uni2081" unicode="&#x2081;" horiz-adv-x="214" 
d="M104 91l-72 -15v59l147 29v-284h-75v211z" />
    <glyph glyph-name="uni2082" unicode="&#x2082;" horiz-adv-x="301" 
d="M43 -82q13 21 29 36t47 41q36 30 48 44t12 30q0 19 -12.5 27t-42.5 8q-35 0 -73 -15v59q19 6 45.5 11t51.5 5q50 0 78.5 -24t28.5 -61q0 -27 -11.5 -46t-40.5 -46l-21 -18q-21 -18 -32 -30h107v-59h-214v38z" />
    <glyph glyph-name="uni2083" unicode="&#x2083;" horiz-adv-x="304" 
d="M83.5 -124.5q-26.5 3.5 -40.5 9.5v54q34 -14 73 -14q36 0 51 8t15 27q0 35 -59 35h-39l4 48h32q29 0 42.5 9t13.5 28q0 16 -14.5 22.5t-44.5 6.5q-36 0 -69 -13v55q15 5 39.5 9t48.5 4q119 0 119 -80q0 -22 -10 -39.5t-31 -25.5q47 -13 47 -62q0 -85 -127 -85
q-24 0 -50.5 3.5z" />
    <glyph glyph-name="uni2084" unicode="&#x2084;" horiz-adv-x="297" 
d="M168 -66h-145v52l140 178h79v-177h31v-53h-31v-54h-74v54zM184 -12v114l-88 -114h88z" />
    <glyph glyph-name="uni2085" unicode="&#x2085;" horiz-adv-x="303" 
d="M81.5 -125q-24.5 3 -38.5 9v57q30 -13 72 -13q37 0 53.5 8.5t16.5 29.5q0 22 -13 30t-47 8h-81v45l7 105h188l-4 -55h-119l-3 -46h44q102 0 102 -88q0 -43 -33 -68t-96 -25q-24 0 -48.5 3z" />
    <glyph glyph-name="uni2086" unicode="&#x2086;" horiz-adv-x="321" 
d="M74.5 -101q-31.5 27 -31.5 83v62q0 56 35 88t96 32q48 0 76 -11v-55q-28 10 -72 10q-34 0 -52.5 -14.5t-18.5 -38.5v-12q30 23 71 23q53 0 76.5 -24t23.5 -73q0 -46 -28.5 -71.5t-86.5 -25.5q-57 0 -88.5 27zM200 -65q11 11 11 34q0 24 -10 34t-38 10t-56 -21v-19
q0 -25 13 -37t41 -12t39 11z" />
    <glyph glyph-name="uni2087" unicode="&#x2087;" horiz-adv-x="289" 
d="M173 95h-140v59h222v-50l-96 -224h-78z" />
    <glyph glyph-name="uni2088" unicode="&#x2088;" horiz-adv-x="331" 
d="M76.5 -107q-33.5 21 -33.5 60q0 48 47 68q-39 19 -39 63q0 37 31 58.5t84 21.5t83.5 -21.5t30.5 -58.5q0 -22 -8.5 -38t-31.5 -28q26 -10 37 -26t11 -39q0 -39 -33.5 -60t-88.5 -21q-56 0 -89.5 21zM205.5 55.5q7.5 8.5 7.5 26.5q0 35 -47 35q-48 0 -48 -35
q0 -15 7 -23.5t24 -12.5l27 -6q22 7 29.5 15.5zM206 -73q14 9 14 27q0 15 -8.5 23t-31.5 14l-29 7q-21 -7 -30 -15.5t-9 -27.5q0 -37 54 -37q26 0 40 9z" />
    <glyph glyph-name="uni2089" unicode="&#x2089;" horiz-adv-x="321" 
d="M71 -118v56q24 -10 72 -10q34 0 52.5 14t18.5 39v12q-30 -23 -69 -23q-54 0 -78 23.5t-24 73.5q0 46 28.5 71.5t86.5 25.5q120 0 120 -110v-63q0 -55 -35 -87t-96 -32q-46 0 -76 10zM214 43v19q0 26 -13 37.5t-41 11.5t-39 -11t-11 -34q0 -24 10 -33.5t38 -9.5
q29 0 56 20z" />
    <glyph glyph-name="uni208D" unicode="&#x208d;" horiz-adv-x="220" 
d="M57.5 -74q-14.5 44 -14.5 90q0 45 14.5 89.5t41.5 72.5h77q-32 -32 -47 -74t-15 -88q0 -47 15 -89t47 -73h-77q-27 28 -41.5 72z" />
    <glyph glyph-name="uni208E" unicode="&#x208e;" horiz-adv-x="220" 
d="M90.5 -73q15.5 42 15.5 89q0 46 -15.5 88t-47.5 74h78q26 -28 40.5 -72.5t14.5 -89.5q0 -46 -14.5 -90t-40.5 -72h-78q32 31 47.5 73z" />
    <glyph glyph-name="colonmonetary" unicode="&#x20a1;" horiz-adv-x="573" 
d="M153 76q-110 69 -110 233q0 275 246 302l15 60h75l-15 -57q21 -1 54 -5l16 62h74l-19 -76q13 -3 22.5 -6.5t16.5 -5.5v-95q-26 10 -62 19l-98 -385q86 2 161 31v-96q-86 -27 -183 -27h-2l-15 -61h-74l17 66q-34 5 -52 11l-20 -77h-74zM395 519q-28 2 -42 2h-12l-97 -381
q25 -10 51 -14zM263 508q-58 -18 -84 -67t-26 -132q0 -75 29 -119z" />
    <glyph glyph-name="lira" unicode="&#x20a4;" horiz-adv-x="498" 
d="M43 84h25q28 0 42 17t14 48v32h-68v80h68v55h-68v80h68v93q0 76 48.5 120.5t126.5 44.5q70 0 117 -21v-78q-13 7 -37 11t-47 4q-51 0 -75.5 -20.5t-24.5 -66.5v-87h182l-3 -80h-179v-55h182l-3 -80h-179q0 -41 -4 -62t-21 -35h247v-84h-411v84z" />
    <glyph glyph-name="uni20A6" unicode="&#x20a6;" horiz-adv-x="662" 
d="M101 216h-58v77h58v59h-58v76h58v216h96l117 -216h138v216h109v-216h57v-76h-57v-59h57v-77h-57v-216h-97l-117 216h-137v-216h-109v216zM232 428l-22 41v-41h22zM305 293l-32 59h-63v-59h95zM452 293v59h-97l32 -59h65zM452 216h-24l24 -43v43z" />
    <glyph glyph-name="peseta" unicode="&#x20a7;" horiz-adv-x="1200" 
d="M63 644h195q106 0 160.5 -59t54.5 -156t-59 -155t-160 -58h-82v-216h-109v644zM237 303q63 0 97 33.5t34 92.5q0 62 -32 95t-94 33h-70v-254h65zM864.5 -3.5q-45.5 6.5 -74.5 17.5v90q34 -12 74.5 -19t78.5 -7q58 0 81 10.5t23 39.5q0 18 -10.5 29t-28.5 18.5t-60 21.5
l-30 10q-72 24 -105 53.5t-33 87.5q0 67 47.5 101.5t149.5 34.5q79 0 142 -21v-89q-27 11 -60.5 17t-63.5 6q-55 0 -80.5 -10.5t-25.5 -36.5q0 -23 19 -34.5t76 -29.5q5 -1 10 -3t12 -4q58 -18 90 -36.5t46.5 -45t14.5 -68.5q0 -139 -199 -139q-48 0 -93.5 6.5zM562 29.5
q-38 39.5 -38 111.5v109h-60v82h60v117l108 25v-142h126l-3 -82h-123v-105q0 -77 81 -77q27 0 57 10v-72q-39 -16 -96 -16q-74 0 -112 39.5z" />
    <glyph glyph-name="dong" unicode="&#x20ab;" horiz-adv-x="593" 
d="M100.5 50.5q-57.5 60.5 -57.5 184.5t59.5 186.5t161.5 62.5q86 0 146 -41v92h-156v78h156v61h109v-61h55v-78h-55v-535h-93l-7 47q-33 -30 -71 -43.5t-89 -13.5q-101 0 -158.5 60.5zM410 122v237q-47 42 -118 42q-70 0 -104.5 -40t-34.5 -127q0 -84 32.5 -123t102.5 -39
q73 0 122 50zM94 -51h432v-83h-432v83z" />
    <glyph glyph-name="Euro" unicode="&#x20ac;" horiz-adv-x="588" 
d="M103 196h-70v67h61q-2 28 -2 45q0 30 1 45h-60v67h67q19 113 86.5 173.5t195.5 60.5q53 0 89.5 -7.5t82.5 -23.5v-94q-42 18 -78.5 25t-85.5 7q-84 0 -125.5 -35t-55.5 -106h218v-67h-225q-1 -15 -1 -45q0 -31 1 -45h225v-67h-214q16 -59 59 -86.5t121 -27.5q47 0 84 6.5
t78 22.5v-94q-47 -14 -83 -20.5t-89 -6.5q-235 0 -280 206z" />
    <glyph glyph-name="uni20B1" unicode="&#x20b1;" horiz-adv-x="616" 
d="M61 337h-35v72h35v42h-35v72h35v121h265q77 0 127 -32t72 -89h56v-72h-41q1 -7 1 -22q0 -14 -1 -20h41v-72h-57q-23 -57 -75.5 -88.5t-126.5 -31.5h-152v-217h-109v337zM405 523q-32 37 -96 37h-142v-37h238zM433 409q2 12 2 20l-1 22h-267v-42h266zM304 300q65 0 99 37
h-236v-37h137z" />
    <glyph glyph-name="uni20B2" unicode="&#x20b2;" horiz-adv-x="641" 
d="M306 -7q-129 15 -196 97.5t-67 218.5q0 147 66 236t197 105v85h82v-81q92 -3 169 -29v-94q-78 27 -169 30v-208h210v-310q-75 -48 -210 -52v-111h-82v113zM306 554q-81 -17 -117 -77.5t-36 -167.5q0 -193 153 -222v467zM505 105v177h-117v-200q64 3 117 23z" />
    <glyph glyph-name="uni20B5" unicode="&#x20b5;" horiz-adv-x="597" 
d="M306 -6q-129 16 -196 99t-67 219q0 147 65.5 235t197.5 103v85h82v-82q88 -3 165 -30v-95q-79 30 -165 33v-479q91 2 166 31v-96q-79 -24 -166 -27v-110h-82v114zM306 555q-81 -17 -117 -77.5t-36 -165.5q0 -192 153 -224v467z" />
    <glyph glyph-name="uni20B9" unicode="&#x20b9;" horiz-adv-x="451" 
d="M150 180q-15 34 -36.5 47t-70.5 13v70h53q66 0 103.5 24.5t40.5 83.5h-196v70h194q-9 43 -42.5 64.5t-85.5 21.5h-67v70h365v-70h-115q42 -28 53 -86h62v-70h-61q-7 -126 -148 -156q25 -15 36 -29t24 -44l80 -189h-112z" />
    <glyph glyph-name="uni20BA" unicode="&#x20ba;" horiz-adv-x="580" 
d="M129 297l-86 -28v65l86 28v70l-86 -28v66l86 28v146h104v-112l182 60v-65l-182 -60v-71l182 61v-65l-182 -60v-253q101 3 150 54t49 150v43h105v-39q0 -141 -82.5 -214t-239.5 -73h-86v297z" />
    <glyph glyph-name="uni20BD" unicode="&#x20bd;" horiz-adv-x="641" 
d="M102 90h-59v86h59v62h-59v86h59v320h279q108 0 162 -53.5t54 -150.5q0 -95 -60.5 -148.5t-162.5 -53.5h-164v-62h126v-86h-126v-90h-108v90zM357 324q131 0 131 112q0 62 -31.5 92t-94.5 30h-152v-234h147z" />
    <glyph glyph-name="uni210A" unicode="&#x210a;" horiz-adv-x="583" 
d="M200 -173q-39 3 -58 7v87q20 -6 51 -9.5t55 -3.5q162 0 162 96v36q-59 -40 -147 -40q-220 0 -220 227q0 80 28 138t77 88.5t112 30.5q51 0 88.5 -14t70.5 -43l7 47h93v-453q0 -90 -65 -143.5t-188 -53.5q-27 0 -66 3zM410 124v227q-49 50 -121 50q-66 0 -101 -45
t-35 -128q0 -58 15 -89.5t44.5 -44t78.5 -12.5q71 0 119 42z" />
    <glyph glyph-name="uni2113" unicode="&#x2113;" horiz-adv-x="406" 
d="M130 32.5q-36 42.5 -36 116.5v156q-43 -17 -75 -24v84q43 10 75 27v184q0 86 35.5 130t111.5 44q66 0 99.5 -43.5t33.5 -112.5q0 -90 -46 -149t-128 -105v-201q0 -35 11 -53.5t37 -18.5q30 0 41.5 17.5t11.5 56.5h79q0 -71 -29 -111t-110 -40q-75 0 -111 42.5zM264 501
q24 36 24 85q0 80 -50 80q-29 0 -40.5 -20.5t-11.5 -64.5v-151q54 35 78 71z" />
    <glyph glyph-name="uni2117" unicode="&#x2117;" horiz-adv-x="751" 
d="M208.5 34.5q-76.5 44.5 -121 121t-44.5 166.5t44.5 166.5t121 121t166.5 44.5t166.5 -44.5t121 -121t44.5 -166.5t-44.5 -166.5t-121 -121t-166.5 -44.5t-166.5 44.5zM509 91q60 34 94 94.5t34 136.5q0 75 -34 135t-94 94.5t-134 34.5t-133 -34.5t-93 -94.5t-34 -135
q0 -76 34 -136.5t93 -94.5t133 -34t134 34zM242 526h193q65 0 100.5 -36t35.5 -95q0 -60 -37 -99t-100 -39h-123v-142h-69v411zM399 316q54 0 79 16t25 63q0 40 -19.5 56t-60.5 16h-112v-151h88z" />
    <glyph glyph-name="uni2120" unicode="&#x2120;" horiz-adv-x="653" 
d="M65 373v56q39 -16 90 -16q28 0 43 6t15 22q0 15 -11.5 22t-49.5 20q-52 19 -73 37.5t-21 51.5q0 82 118 82q50 0 88 -12v-55q-39 13 -73 13q-31 0 -46.5 -6.5t-15.5 -21.5q0 -13 13 -21t50 -20q44 -14 67.5 -33t23.5 -57q0 -43 -33.5 -62t-84.5 -19q-63 0 -100 13z
M308 644h66l89 -167l88 167h66v-282h-70v170l-69 -148h-29l-72 148v-170h-69v282z" />
    <glyph glyph-name="trademark" unicode="&#x2122;" horiz-adv-x="679" 
d="M138 579h-95v65h259v-65h-93v-217h-71v217zM326 644h66l89 -167l88 167h66v-282h-70v170l-69 -148h-29l-72 148v-170h-69v282z" />
    <glyph glyph-name="uni2126" unicode="&#x2126;" horiz-adv-x="764" 
d="M50 82h144q-71 45 -111 116.5t-40 165.5q0 97 40.5 172t117 117t181.5 42q104 0 180.5 -42t117 -117t40.5 -172q0 -95 -39.5 -166.5t-110.5 -115.5h143v-82h-275v84q172 93 172 276q0 72 -28 126.5t-79.5 85t-120.5 30.5t-120.5 -30.5t-80 -85.5t-28.5 -126
q0 -182 172 -276v-84h-275v82z" />
    <glyph glyph-name="estimated" unicode="&#x212e;" horiz-adv-x="776" 
d="M218 32q-81 45 -128 123t-47 173q0 107 47 184.5t126 117t172 39.5q91 0 170 -41.5t126.5 -115.5t47.5 -167v-17h-547v-222q28 -37 86.5 -61t125.5 -24q92 0 148.5 26.5t107.5 94.5h40q-54 -86 -124 -120.5t-172 -34.5q-98 0 -179 45zM592 362v202q-31 32 -84.5 52
t-119.5 20q-127 0 -203 -71v-203h407z" />
    <glyph glyph-name="uni2153" unicode="&#x2153;" horiz-adv-x="661" 
d="M115 581l-72 -15v59l147 29v-284h-75v211zM435 644h102l-341 -644h-102zM427 -5q-27 4 -41 9v54q35 -13 73 -13q36 0 51 7.5t15 26.5t-14.5 27t-44.5 8h-39l4 49h32q29 0 42.5 8.5t13.5 27.5q0 16 -14.5 23t-44.5 7q-32 0 -69 -13v54q14 5 38.5 9t49.5 4q62 0 90.5 -21
t28.5 -58q0 -49 -41 -66q24 -6 35.5 -22t11.5 -40q0 -85 -127 -85q-23 0 -50 4z" />
    <glyph glyph-name="uni2154" unicode="&#x2154;" horiz-adv-x="684" 
d="M43 408q13 21 29 36t47 41q36 30 48 44t12 30q0 19 -12.5 27t-42.5 8q-35 0 -73 -15v59q19 6 45.5 11t51.5 5q50 0 78.5 -24t28.5 -61q0 -27 -11.5 -46t-40.5 -46l-21 -18q-21 -18 -32 -30h107v-59h-214v38zM439 644h103l-342 -644h-102zM431.5 -5q-27.5 4 -41.5 9v54
q35 -13 73 -13q36 0 51 7.5t15 26.5t-14.5 27t-44.5 8h-39l4 49h32q29 0 42.5 8.5t13.5 27.5q0 16 -14.5 23t-44.5 7q-32 0 -69 -13v54q14 5 38.5 9t49.5 4q62 0 90.5 -21t28.5 -58q0 -49 -41 -66q24 -6 35.5 -22t11.5 -40q0 -85 -127 -85q-22 0 -49.5 4z" />
    <glyph glyph-name="oneeighth" unicode="&#x215b;" horiz-adv-x="665" 
d="M115 581l-72 -15v59l147 29v-284h-75v211zM435 644h102l-341 -644h-102zM398.5 11q-33.5 21 -33.5 60q0 48 47 68q-39 19 -39 63q0 37 31 58.5t84 21.5t83.5 -21.5t30.5 -58.5q0 -22 -8.5 -38t-31.5 -28q26 -10 37 -26t11 -39q0 -39 -33.5 -60t-88.5 -21q-56 0 -89.5 21z
M527.5 173.5q7.5 8.5 7.5 26.5q0 35 -47 35q-48 0 -48 -35q0 -15 7 -23.5t24 -12.5l27 -6q22 7 29.5 15.5zM528 45q14 9 14 27q0 16 -8.5 24t-31.5 13l-29 7q-21 -7 -30 -15.5t-9 -27.5q0 -37 54 -37q26 0 40 9z" />
    <glyph glyph-name="threeeighths" unicode="&#x215c;" horiz-adv-x="672" 
d="M83.5 365.5q-26.5 3.5 -40.5 9.5v54q34 -14 73 -14q36 0 51 8t15 27q0 35 -59 35h-39l4 48h32q29 0 42.5 9t13.5 28q0 16 -14.5 22.5t-44.5 6.5q-36 0 -69 -13v55q15 5 39.5 9t48.5 4q119 0 119 -80q0 -22 -10 -39.5t-31 -25.5q47 -13 47 -62q0 -85 -127 -85
q-24 0 -50.5 3.5zM435 644h103l-341 -644h-102zM398.5 11q-33.5 21 -33.5 60q0 48 47 68q-39 19 -39 63q0 37 31 58.5t84 21.5t83.5 -21.5t30.5 -58.5q0 -22 -8.5 -38t-31.5 -28q26 -10 37 -26t11 -39q0 -39 -33.5 -60t-88.5 -21q-56 0 -89.5 21zM527.5 173.5
q7.5 8.5 7.5 26.5q0 35 -47 35q-48 0 -48 -35q0 -15 7 -23.5t24 -12.5l27 -6q22 7 29.5 15.5zM528 45q14 9 14 27q0 16 -8.5 24t-31.5 13l-29 7q-21 -7 -30 -15.5t-9 -27.5q0 -37 54 -37q26 0 40 9z" />
    <glyph glyph-name="fiveeighths" unicode="&#x215d;" horiz-adv-x="657" 
d="M81.5 365q-24.5 3 -38.5 9v57q30 -13 72 -13q37 0 53.5 8.5t16.5 29.5q0 22 -13 30t-47 8h-81v45l7 105h188l-4 -55h-119l-3 -46h44q102 0 102 -88q0 -43 -33 -68t-96 -25q-24 0 -48.5 3zM430 644h103l-342 -644h-102zM393.5 11q-33.5 21 -33.5 60q0 48 47 68
q-39 19 -39 63q0 37 31 58.5t84 21.5t83.5 -21.5t30.5 -58.5q0 -22 -8.5 -38t-31.5 -28q26 -10 37 -26t11 -39q0 -39 -33.5 -60t-88.5 -21q-56 0 -89.5 21zM522.5 173.5q7.5 8.5 7.5 26.5q0 35 -47 35q-48 0 -48 -35q0 -15 7 -23.5t24 -12.5l27 -6q22 7 29.5 15.5zM523 45
q14 9 14 27q0 16 -8.5 24t-31.5 13l-29 7q-21 -7 -30 -15.5t-9 -27.5q0 -37 54 -37q26 0 40 9z" />
    <glyph glyph-name="seveneighths" unicode="&#x215e;" horiz-adv-x="667" 
d="M183 585h-140v59h222v-50l-96 -224h-78zM436 644h103l-342 -644h-102zM399.5 11q-33.5 21 -33.5 60q0 48 47 68q-39 19 -39 63q0 37 31 58.5t84 21.5t83.5 -21.5t30.5 -58.5q0 -22 -8.5 -38t-31.5 -28q26 -10 37 -26t11 -39q0 -39 -33.5 -60t-88.5 -21q-56 0 -89.5 21z
M528.5 173.5q7.5 8.5 7.5 26.5q0 35 -47 35q-48 0 -48 -35q0 -15 7 -23.5t24 -12.5l27 -6q22 7 29.5 15.5zM529 45q14 9 14 27q0 16 -8.5 24t-31.5 13l-29 7q-21 -7 -30 -15.5t-9 -27.5q0 -37 54 -37q26 0 40 9z" />
    <glyph glyph-name="arrowleft" unicode="&#x2190;" horiz-adv-x="764" 
d="M43 248v37l240 192l34 -47l-158 -127h561v-73h-560l157 -127l-34 -47z" />
    <glyph glyph-name="arrowup" unicode="&#x2191;" horiz-adv-x="507" 
d="M217 512l-127 -158l-47 34l192 240h37l192 -240l-47 -34l-127 158v-560h-73v560z" />
    <glyph glyph-name="arrowright" unicode="&#x2192;" horiz-adv-x="764" 
d="M446 103l157 127h-560v73h561l-158 127l35 47l239 -192v-37l-239 -192z" />
    <glyph glyph-name="arrowdown" unicode="&#x2193;" horiz-adv-x="507" 
d="M43 183l47 34l127 -157v560h73v-560l127 157l47 -34l-192 -239h-37z" />
    <glyph glyph-name="partialdiff" unicode="&#x2202;" horiz-adv-x="623" 
d="M96.5 34.5q-52.5 44.5 -52.5 118.5q0 25 6 52q23 103 87.5 155t176.5 52q40 0 82.5 -13.5t71.5 -37.5l4 22q8 42 8 70q0 58 -30.5 87.5t-102.5 29.5q-97 0 -166 -30l17 85q73 29 167 29q103 0 158 -56.5t55 -153.5q0 -38 -9 -82l-25 -123q-28 -130 -97 -189.5t-197 -59.5
q-101 0 -153.5 44.5zM437 216l14 70q-53 47 -134 47q-76 0 -115 -32.5t-53 -99.5q-5 -20 -5 -45q0 -44 28.5 -65.5t90.5 -21.5q143 0 174 147z" />
    <glyph glyph-name="product" unicode="&#x220f;" horiz-adv-x="631" 
d="M63 706h504v-835h-109v751h-286v-751h-109v835z" />
    <glyph glyph-name="summation" unicode="&#x2211;" horiz-adv-x="535" 
d="M43 -55l240 317l-240 316v66h449v-85h-311l224 -297l-224 -298h311v-84h-449v65z" />
    <glyph glyph-name="minus" unicode="&#x2212;" horiz-adv-x="468" 
d="M43 312h382v-85h-382v85z" />
    <glyph glyph-name="uni2215" unicode="&#x2215;" horiz-adv-x="513" 
d="M360 662h109l-315 -662h-111z" />
    <glyph glyph-name="uni2219" unicode="&#x2219;" horiz-adv-x="180" 
d="M43 345h93v-86h-93v86z" />
    <glyph glyph-name="radical" unicode="&#x221a;" horiz-adv-x="690" 
d="M150 364h-107v85h183l109 -322l204 587h107l-251 -714h-112z" />
    <glyph glyph-name="infinity" unicode="&#x221e;" horiz-adv-x="701" 
d="M87 170q-44 39 -44 112t44 112t116 39q47 0 85.5 -23.5t61.5 -62.5q24 40 62.5 63t85.5 23q72 0 115.5 -38.5t43.5 -112.5t-43.5 -112.5t-115.5 -38.5q-48 0 -86 23t-62 63q-23 -40 -61.5 -63t-85.5 -23q-72 0 -116 39zM311 282q-18 40 -42.5 59t-60.5 19
q-42 0 -63.5 -20.5t-21.5 -57.5t21.5 -57.5t63.5 -20.5q70 0 103 78zM556.5 224.5q21.5 20.5 21.5 57.5t-21.5 57.5t-62.5 20.5q-37 0 -61.5 -19.5t-43.5 -60.5q21 -39 45 -57.5t60 -18.5q41 0 62.5 20.5z" />
    </font>
</defs>
</svg>
