<?xml version="1.0" standalone="no"?>
<!DOCTYPE svg PUBLIC "-//W3C//DTD SVG 1.1//EN" "http://www.w3.org/Graphics/SVG/1.1/DTD/svg11.dtd" >
<svg xmlns="http://www.w3.org/2000/svg" xmlns:xlink="http://www.w3.org/1999/xlink" version="1.1">
<metadata>
Created by FontForge 20170731 at Wed Jul  4 01:38:52 2007
 By Aleksey,,,
Copyright (c) 2007 by Prinya R. nont. All rights reserved.
</metadata>
<defs>
<font id="DBXtypeX" horiz-adv-x="0" >
  <font-face 
    font-family="DB Xtype X"
    font-weight="400"
    font-stretch="normal"
    units-per-em="1000"
    panose-1="2 0 5 6 9 0 0 2 0 4"
    ascent="800"
    descent="-200"
    x-height="380"
    cap-height="514"
    bbox="-454 -334 930 795"
    underline-thickness="20"
    underline-position="-153"
    unicode-range="U+0020-F882"
  />
<missing-glyph horiz-adv-x="414" 
d="M422 400v-14h6q7 0 7 9q0 1 -1.5 3t-5.5 2h-6zM425 385h-3v-14h-5v34h11q12 0 12 -10q0 -7 -3 -8.5t-7 -1.5l10 -14h-5zM428 366q13 0 17.5 7t4.5 13q0 11 -5.5 17.5t-16.5 6.5t-17 -6.5t-6 -17.5q0 -8 5.5 -14t17.5 -6zM428 413q13 0 19 -8t6 -19q0 -8 -6 -15.5
t-19 -7.5q-12 0 -19 7.5t-7 15.5q0 11 7 19t19 8zM201 316q16 -1 37.5 -4t43 -7t39.5 -9.5t27 -12.5q-20 40 -62 61.5t-86 21.5q-34 0 -65 -13t-51 -40q18 2 36 3t36 1h22.5t22.5 -1zM375 395v-142q-48 15 -110 25.5t-130 10.5q-48 0 -94 -6q6 22 19 42.5t33 36t46.5 24.5
t58.5 9q31 0 56 -7t44 -17t31.5 -22t18.5 -21q0 -1 -0.5 6.5t-0.5 18.5v23v19h28zM153 127q0 8 -5.5 12t-11.5 4q-7 0 -12 -4t-5 -12t5 -11.5t12 -3.5q6 0 11.5 3.5t5.5 11.5zM32 139q0 23 9 41t24 30t34 18t39 6t38.5 -5.5t33 -16.5t23 -28t8.5 -41v-116h106v202h28v-228
h-189v26h29v119q0 30 -22 45t-54 15q-30 0 -54 -16.5t-24 -46.5v-107l58 58q-5 2 -13 10t-8 23q0 18 11 28.5t29 10.5q17 0 27.5 -11.5t10.5 -27.5q0 -14 -5.5 -21.5t-9.5 -11.5q-2 -2 -17 -16.5t-33 -31.5q-21 -20 -47 -45h-32v138z" />
    <glyph glyph-name="plusminus" unicode="&#x2b;&#x2d;" horiz-adv-x="520" 
d="M450 331v-73h-123q-11 0 -20.5 -9t-9.5 -20v-124h-74v124q1 11 -8.5 20t-20.5 9h-124v73h124q11 0 20.5 9.5t8.5 20.5v123h74v-123q-1 -11 8.5 -20.5t20.5 -9.5h124zM450 73v-73h-380v73h380z" />
    <glyph glyph-name="ellipsis" unicode="&#x2e;&#x2e;&#x2e;" horiz-adv-x="678" 
d="M591 33q0 -14 -10.5 -24.5t-25.5 -10.5h-35q-15 0 -25.5 10.5t-10.5 24.5v38q0 15 10.5 25.5t25.5 10.5h35q15 0 25.5 -10.5t10.5 -25.5v-38zM392 33q0 -14 -10.5 -24.5t-24.5 -10.5h-35q-15 0 -25.5 10.5t-10.5 24.5v38q0 15 10.5 25.5t25.5 10.5h35q14 0 24.5 -10.5
t10.5 -25.5v-38zM194 33q0 -14 -10.5 -24.5t-25.5 -10.5h-35q-15 0 -25.5 10.5t-10.5 24.5v38q0 15 10.5 25.5t25.5 10.5h35q15 0 25.5 -10.5t10.5 -25.5v-38z" />
    <glyph glyph-name="lessequal" unicode="&#x3c;&#x3d;" horiz-adv-x="500" 
d="M57 284v65l379 159v-79l-236 -95q-11 -5 -11 -17q0 -14 11 -17l236 -95v-79zM57 230l379 -153v-79l-379 158v74z" />
    <glyph glyph-name="greaterequal" unicode="&#x3e;&#x3d;" horiz-adv-x="500" 
d="M64 126v79l236 95q11 3 11 17q0 12 -11 17l-236 95v79l379 -159v-65zM443 230l-379 -153v-79l379 158v74z" />
    <glyph glyph-name="fongmanfunnuthai" unicode="&#xe4f;&#x22;" horiz-adv-x="584" 
d="M528 231q0 -49 -18.5 -92t-50.5 -75t-75 -50.5t-92 -18.5t-92 18.5t-75 50.5t-50.5 75t-18.5 92t18.5 92t50.5 75t75 50.5t92 18.5t92 -18.5t75 -50.5t50.5 -75t18.5 -92zM483 231q0 39 -15 74t-41 61t-61 41t-74 15t-74 -15t-61 -41t-41 -61t-15 -74t15 -74t41 -61
t61 -41t74 -15t74 15t61 41t41 61t15 74zM400 230q0 -22 -8 -41.5t-23 -34.5t-35 -23.5t-42 -8.5q-23 0 -42.5 8.5t-34.5 23.5t-23.5 34.5t-8.5 41.5t8.5 42t23.5 35t34.5 23.5t42.5 8.5q22 0 42 -8.5t34.5 -23.5t23 -35t8.5 -42zM351 520h-36l10 102h62zM259 520h-36
l10 102h62z" />
    <glyph glyph-name="dochadaphinthuthai" unicode="&#xe0e;&#xe3a;" horiz-adv-x="423" 
d="M375 -60q0 -41 -15.5 -62.5t-35.5 -30.5t-40 -9.5t-29 -0.5h-49l-24 23q-4 3 -12.5 3.5t-13.5 -4.5l-22 -22h-37q-18 1 -34 10q-14 8 -26.5 24t-17.5 46h108l31 33q12 11 21 1l33 -34h39q6 0 14 1t15.5 5t12.5 11.5t5 19.5v342q0 13 -1.5 27t-6.5 26t-16 20t-29 8h-80
q-19 0 -19 -18v-359h-138v74h39v214q0 4 4 20.5t18 29.5l30 29q6 5 6 13t-7 15l-51 51l221 2q39 0 61 -18.5t32 -46t12 -59.5t2 -59v-325zM381 -223q0 -17 -13.5 -28.5t-33.5 -11.5t-33.5 11.5t-13.5 28.5t13.5 28.5t33.5 11.5t33.5 -11.5t13.5 -28.5z" />
    <glyph glyph-name="topatakphintuthai" unicode="&#xe0f;&#xe3a;" horiz-adv-x="423" 
d="M376 -60q0 -41 -15.5 -62.5t-36 -30.5t-40.5 -9.5t-29 -0.5h-16l-21 24q-5 5 -11 4.5t-10 -5.5l-18 -23h-28l-17 23q-4 5 -11 4.5t-11 -5.5l-18 -22q-18 1 -34 10q-14 8 -27 24t-18 46h66l33 35q9 10 18 0l34 -35l33 35q9 10 18 0l34 -35q26 0 36.5 7.5t10.5 29.5v342
q0 13 -1.5 27t-6.5 26t-16 20t-29 8h-80q-19 0 -19 -18v-359h-138v74h39v214q0 4 4 20.5t18 29.5l30 29q6 5 6 13t-7 15l-51 51l221 2q39 0 61 -18.5t32 -46t12 -59.5t2 -59zM382 -223q0 -17 -13.5 -28.5t-33.5 -11.5t-33.5 11.5t-13.5 28.5t13.5 28.5t33.5 11.5t33.5 -11.5
t13.5 -28.5z" />
    <glyph glyph-name="dochadasarauthai" unicode="&#xe0e;&#xe38;" horiz-adv-x="423" 
d="M375 -60q0 -41 -15.5 -62.5t-35.5 -30.5t-40 -9.5t-29 -0.5h-49l-24 23q-4 3 -12.5 3.5t-13.5 -4.5l-22 -22h-37q-18 1 -34 10q-14 8 -26.5 24t-17.5 46h108l31 33q12 11 21 1l33 -34h39q6 0 14 1t15.5 5t12.5 11.5t5 19.5v342q0 13 -1.5 27t-6.5 26t-16 20t-29 8h-80
q-19 0 -19 -18v-359h-138v74h39v214q0 4 4 20.5t18 29.5l30 29q6 5 6 13t-7 15l-51 51l221 2q39 0 61 -18.5t32 -46t12 -59.5t2 -59v-325zM375 -278q-1 -16 -11 -27q-8 -11 -25 -19t-49 -10v76q0 12 -6.5 16.5t-11.5 4.5h-15v47h118v-88z" />
    <glyph glyph-name="topataksarauthai" unicode="&#xe0f;&#xe38;" horiz-adv-x="423" 
d="M376 -60q0 -41 -15.5 -62.5t-36 -30.5t-40.5 -9.5t-29 -0.5h-16l-21 24q-5 5 -11 4.5t-10 -5.5l-18 -23h-28l-17 23q-4 5 -11 4.5t-11 -5.5l-18 -22q-18 1 -34 10q-14 8 -27 24t-18 46h66l33 35q9 10 18 0l34 -35l33 35q9 10 18 0l34 -35q26 0 36.5 7.5t10.5 29.5v342
q0 13 -1.5 27t-6.5 26t-16 20t-29 8h-80q-19 0 -19 -18v-359h-138v74h39v214q0 4 4 20.5t18 29.5l30 29q6 5 6 13t-7 15l-51 51l221 2q39 0 61 -18.5t32 -46t12 -59.5t2 -59zM376 -278q-1 -16 -11 -27q-8 -11 -25 -19t-49 -10v76q0 12 -6.5 16.5t-11.5 4.5h-15v47h118v-88z
" />
    <glyph glyph-name="dochadasarauuthai" unicode="&#xe0e;&#xe39;" horiz-adv-x="423" 
d="M375 -60q0 -41 -15.5 -62.5t-35.5 -30.5t-40 -9.5t-29 -0.5h-49l-24 23q-4 3 -12.5 3.5t-13.5 -4.5l-22 -22h-37q-18 1 -34 10q-14 8 -26.5 24t-17.5 46h108l31 33q12 11 21 1l33 -34h39q6 0 14 1t15.5 5t12.5 11.5t5 19.5v342q0 13 -1.5 27t-6.5 26t-16 20t-29 8h-80
q-19 0 -19 -18v-359h-138v74h39v214q0 4 4 20.5t18 29.5l30 29q6 5 6 13t-7 15l-51 51l221 2q39 0 61 -18.5t32 -46t12 -59.5t2 -59v-325zM375 -247q0 -19 -9 -30.5t-23 -18t-32.5 -9t-37.5 -2.5q-43 0 -73.5 10t-30.5 36v25h-23v47h107v-52q0 -24 29 -24q10 0 16.5 5.5
t6.5 18.5v3q1 13 9 24q7 9 21 16.5t40 8.5v-58z" />
    <glyph glyph-name="topataksarauuthai" unicode="&#xe0f;&#xe39;" horiz-adv-x="423" 
d="M376 -60q0 -41 -15.5 -62.5t-36 -30.5t-40.5 -9.5t-29 -0.5h-16l-21 24q-5 5 -11 4.5t-10 -5.5l-18 -23h-28l-17 23q-4 5 -11 4.5t-11 -5.5l-18 -22q-18 1 -34 10q-14 8 -27 24t-18 46h66l33 35q9 10 18 0l34 -35l33 35q9 10 18 0l34 -35q26 0 36.5 7.5t10.5 29.5v342
q0 13 -1.5 27t-6.5 26t-16 20t-29 8h-80q-19 0 -19 -18v-359h-138v74h39v214q0 4 4 20.5t18 29.5l30 29q6 5 6 13t-7 15l-51 51l221 2q39 0 61 -18.5t32 -46t12 -59.5t2 -59zM376 -247q0 -19 -9 -30.5t-23 -18t-32.5 -9t-37.5 -2.5q-43 0 -73.5 10t-30.5 36v25h-23v47h107
v-52q0 -24 29 -24q10 0 16.5 5.5t6.5 18.5v3q1 13 9 24q7 9 21 16.5t40 8.5v-58z" />
    <glyph glyph-name=".notdef" horiz-adv-x="414" 
d="M422 400v-14h6q7 0 7 9q0 1 -1.5 3t-5.5 2h-6zM425 385h-3v-14h-5v34h11q12 0 12 -10q0 -7 -3 -8.5t-7 -1.5l10 -14h-5zM428 366q13 0 17.5 7t4.5 13q0 11 -5.5 17.5t-16.5 6.5t-17 -6.5t-6 -17.5q0 -8 5.5 -14t17.5 -6zM428 413q13 0 19 -8t6 -19q0 -8 -6 -15.5
t-19 -7.5q-12 0 -19 7.5t-7 15.5q0 11 7 19t19 8zM201 316q16 -1 37.5 -4t43 -7t39.5 -9.5t27 -12.5q-20 40 -62 61.5t-86 21.5q-34 0 -65 -13t-51 -40q18 2 36 3t36 1h22.5t22.5 -1zM375 395v-142q-48 15 -110 25.5t-130 10.5q-48 0 -94 -6q6 22 19 42.5t33 36t46.5 24.5
t58.5 9q31 0 56 -7t44 -17t31.5 -22t18.5 -21q0 -1 -0.5 6.5t-0.5 18.5v23v19h28zM153 127q0 8 -5.5 12t-11.5 4q-7 0 -12 -4t-5 -12t5 -11.5t12 -3.5q6 0 11.5 3.5t5.5 11.5zM32 139q0 23 9 41t24 30t34 18t39 6t38.5 -5.5t33 -16.5t23 -28t8.5 -41v-116h106v202h28v-228
h-189v26h29v119q0 30 -22 45t-54 15q-30 0 -54 -16.5t-24 -46.5v-107l58 58q-5 2 -13 10t-8 23q0 18 11 28.5t29 10.5q17 0 27.5 -11.5t10.5 -27.5q0 -14 -5.5 -21.5t-9.5 -11.5q-2 -2 -17 -16.5t-33 -31.5q-21 -20 -47 -45h-32v138z" />
    <glyph glyph-name=".null" 
 />
    <glyph glyph-name="nonmarkingreturn" horiz-adv-x="283" 
 />
    <glyph glyph-name="space" unicode=" " horiz-adv-x="250" 
 />
    <glyph glyph-name="exclam" unicode="!" horiz-adv-x="281" 
d="M173 187v-1q0 -14 -9.5 -24t-23.5 -10t-24 10t-10 24l-23 333h116zM194 33q0 -14 -10.5 -24.5t-25.5 -10.5h-35q-15 0 -25.5 10.5t-10.5 24.5v43q0 15 10.5 25.5t25.5 10.5h35q15 0 25.5 -10.5t10.5 -25.5v-43z" />
    <glyph glyph-name="quotedbl" unicode="&#x22;" horiz-adv-x="256" 
d="M171 416h-36l10 102h62zM86 416h-36l10 102h62z" />
    <glyph glyph-name="numbersign" unicode="#" horiz-adv-x="520" 
d="M364 112l-29 -129h-64l23 103q2 11 -2 18.5t-18 7.5h-97l-26 -129h-65l22 107q2 10 -1.5 16t-17.5 6h-34v64h71l17 79q4 24 -20 24h-68v65h105l29 131h64l-24 -109q-2 -9 2 -15.5t14 -6.5h100l28 131h65l-23 -108q-2 -12 1 -17.5t16 -5.5h35v-65h-70l-16 -77
q-2 -11 1.5 -18.5t16.5 -7.5h68v-64h-103zM328 255q5 24 -21 24h-95l-16 -79q-2 -11 1.5 -17t17.5 -6h97z" />
    <glyph glyph-name="dollar" unicode="$" horiz-adv-x="448" 
d="M397 138q0 -28 -7.5 -54t-25 -47t-45 -34.5t-67.5 -16.5v-43h-46v45q-41 6 -70 25.5t-48 41.5t-27.5 40t-9.5 20q20 1 38 -1.5t32 -5.5q16 -4 28 -9q25 -11 35.5 -20.5t21.5 -16.5v139q0 13 -6.5 18t-14.5 9q-30 15 -51.5 31.5t-34.5 35.5t-19 41.5t-6 50.5q0 25 7.5 49
t23.5 43.5t41 33t60 16.5v41h46v-41q36 -5 61 -22.5t41 -37t24 -35.5t8 -18l-65 -44q0 1 -5.5 10.5t-14.5 21.5t-21.5 23.5t-27.5 17.5v-114q0 -13 6.5 -17.5t14.5 -9.5q40 -20 64.5 -43t38 -46t17.5 -43.5t4 -33.5zM206 447q-15 -4 -24.5 -11t-15 -14.5t-7 -14t-1.5 -9.5
q0 -11 7.5 -23.5t24.5 -26.5q9 -8 12.5 -3.5t3.5 11.5v91zM307 127q0 10 -8 23.5t-25 27.5q-7 6 -14.5 6.5t-7.5 -13.5v-113q8 2 17.5 7t18 13t14 20t5.5 29z" />
    <glyph glyph-name="percent" unicode="%" horiz-adv-x="522" 
d="M244 418q0 -40 -28 -68t-68 -28t-68 28t-28 68t28 68t68 28t68 -28t28 -68zM166 0h-70l259 514h71zM469 96q0 -40 -28 -68t-68 -28t-68 28t-28 68t28 68t68 28t68 -28t28 -68zM198 418q0 19 -13 32.5t-32 13.5t-32.5 -13.5t-13.5 -32.5t13.5 -32t32.5 -13t32 13t13 32z
M414 96q0 19 -13.5 32.5t-32.5 13.5t-32 -13.5t-13 -32.5t13 -32t32 -13t32.5 13t13.5 32z" />
    <glyph glyph-name="ampersand" unicode="&#x26;" horiz-adv-x="522" 
d="M482 2q-26 -14 -55 -14q-32 0 -55 16.5t-37 31.5q-26 -19 -55 -34.5t-73 -15.5q-70 0 -110.5 39t-40.5 106q0 38 10.5 66.5t26.5 49t34 35t32 24.5q-25 58 -25 102q0 56 33.5 91t86.5 35q47 0 76 -29t29 -76q0 -30 -9.5 -51.5t-24 -37.5t-31 -27t-30.5 -19q8 -12 19 -30
l26 -39t39 -56q11 17 19 33l14 28q7 14 12 27l66 -33q-14 -35 -30 -64t-31 -52zM305 429q0 23 -13 37.5t-33 14.5q-23 0 -37.5 -15.5t-14.5 -41.5q0 -15 6.5 -33t22.5 -46q9 4 21 11t22.5 17.5t18 24t7.5 31.5zM284 95q-10 14 -20 28.5t-21 32t-24.5 39.5t-29.5 52
q-25 -18 -38 -43t-13 -51q0 -36 21.5 -61.5t53.5 -25.5q16 0 36.5 8t34.5 21z" />
    <glyph glyph-name="quotesingle" unicode="'" horiz-adv-x="186" 
d="M96 416h-36l10 102h62z" />
    <glyph glyph-name="parenleft" unicode="(" horiz-adv-x="246" 
d="M180 465q-6 -15 -10.5 -39t-8 -51.5t-5.5 -56t-2 -52.5q0 -22 1.5 -49t4 -53t6.5 -49.5t10 -38.5q8 -23 10 -46q1 -20 -5 -42t-26 -41q-13 19 -29 51.5t-30.5 74.5t-24 91t-9.5 101q0 47 9 95t23.5 90.5t31.5 77t32 55.5q20 -14 25.5 -34t4.5 -39q-1 -22 -8 -45z" />
    <glyph glyph-name="parenright" unicode=")" horiz-adv-x="246" 
d="M185 265q0 -52 -10 -101t-24 -91t-30 -74.5t-29 -51.5q-20 19 -26.5 41t-4.5 42q1 23 10 46q6 15 10 38.5t6.5 49.5t4 53t1.5 49q0 24 -2 51t-5.5 52.5t-8 48t-10.5 37.5q-8 23 -9 45q-1 19 5 39t26 34q15 -21 32 -54t31.5 -73.5t23.5 -87t9 -93.5z" />
    <glyph glyph-name="asterisk" unicode="*" horiz-adv-x="508" 
d="M291 359q-5 1 -7 -3t1 -8l75 -81l-65 -37l-34 104q-2 4 -6.5 4t-6.5 -5l-33 -103l-65 37l73 81q4 4 1.5 8.5t-7.5 3.5l-107 -24v75l104 -22q6 -2 8.5 3t-1.5 9l-71 80l65 38l32 -103q2 -6 7 -6t7 5l33 104l66 -38l-74 -81q-4 -5 -2 -9.5t7 -3.5l108 24v-75z" />
    <glyph glyph-name="plus" unicode="+" horiz-adv-x="520" 
d="M450 231v-73h-124q-11 0 -20.5 -9t-9.5 -20l1 -124h-74v124q1 11 -8.5 20t-20.5 9l-124 1v72h124q11 0 20.5 9.5t8.5 20.5v123h74v-123q-1 -11 8.5 -20.5t20.5 -9.5h124z" />
    <glyph glyph-name="comma" unicode="," horiz-adv-x="308" 
d="M206 33q0 -14 -4 -34t-10 -34l-31 -72q-6 -14 -17 -23t-21 -9t-13.5 9.5t1.5 23.5l24 70q5 14 1.5 24t-13.5 10t-16.5 10.5t-6.5 24.5v43q0 15 10.5 25.5t25.5 10.5h34q15 0 25.5 -10.5t10.5 -25.5v-43v0z" />
    <glyph glyph-name="hyphen" unicode="-" horiz-adv-x="354" 
d="M70 160v70h213v-70h-213z" />
    <glyph glyph-name="period" unicode="." horiz-adv-x="308" 
d="M206 33q0 -14 -10.5 -24.5t-24.5 -10.5h-35q-15 0 -25.5 10.5t-10.5 24.5v43q0 15 10.5 25.5t25.5 10.5h35q14 0 24.5 -10.5t10.5 -25.5v-43v0z" />
    <glyph glyph-name="slash" unicode="/" horiz-adv-x="286" 
d="M98 -114h-57l157 670h57z" />
    <glyph glyph-name="zero" unicode="0" horiz-adv-x="384" 
d="M358 251q0 -129 -42 -193.5t-123 -64.5q-61 0 -102 38q-33 32 -49 85.5t-16 142.5q0 129 42.5 192t124.5 63t123.5 -63.5t41.5 -199.5zM257 232q0 10 -0.5 30t-1.5 42.5t-2.5 44t-2.5 34.5q-3 23 -17 40t-41 17q-26 -1 -39.5 -19t-19.5 -43t-6.5 -52t-0.5 -46
q0 -10 1 -31t2 -44.5t2.5 -44.5t2.5 -31q4 -25 19 -43t41 -18q36 0 49.5 39.5t13.5 124.5z" />
    <glyph glyph-name="one" unicode="1" horiz-adv-x="384" 
d="M82 0v72h81v369h-14q-17 1 -31 9q-13 7 -25 21.5t-20 41.5h175v-441h75v-72h-241z" />
    <glyph glyph-name="two" unicode="2" horiz-adv-x="384" 
d="M27 0q6 45 18.5 78t32 61t46.5 54.5t62 59.5l17 15q26 24 36.5 47.5t10.5 51.5q0 33 -14 53.5t-44 20.5q-17 0 -31 -8t-24.5 -20t-18.5 -25.5t-12 -23.5l-72 34q45 119 160 119q68 0 108 -40t40 -108q0 -35 -10 -62t-26 -49.5t-36 -41t-40 -35.5q-30 -26 -48 -43.5
t-31 -34.5q-9 -12 -7 -20t16 -8h96q21 0 40 -8q16 -7 32.5 -22t24.5 -45h-326z" />
    <glyph glyph-name="three" unicode="3" horiz-adv-x="384" 
d="M347 137q0 -67 -40.5 -107t-108.5 -40q-117 0 -160 121q4 9 13 12.5t19 4t17.5 0t8.5 -0.5q21 -4 32 -13t19 -20q4 -5 8 -10.5t9 -9.5q10 -9 27 -9q31 0 48 22.5t15.5 51t-23.5 55t-67 34.5v54q34 6 52.5 20.5t26.5 28.5t9.5 25.5l1.5 11.5q0 32 -14 53t-43 21
q-18 0 -32 -8.5t-24.5 -20.5t-18.5 -25t-12 -23l-71 33q44 119 159 119q68 0 108.5 -40t40.5 -107q0 -24 -6 -41t-16 -30q-5 -8 -12.5 -14.5t-15.5 -13.5q-9 -7 -9 -16.5t8 -14.5l16 -12t13 -14q10 -13 16 -31t6 -46z" />
    <glyph glyph-name="four" unicode="4" horiz-adv-x="384" 
d="M382 202q-8 -35 -27 -51.5t-30 -16.5h-14v-134h-81v133h-200v93l170 288h114v-123.5v-70.5v-36v-19.5v-21.5v-41h68zM231 376q0 6 -4 9.5t-9 4t-10 -1.5t-7 -6l-85 -149q-8 -14 -3 -22.5t19 -8.5h99v174z" />
    <glyph glyph-name="five" unicode="5" horiz-adv-x="384" 
d="M356 181q0 -42 -15.5 -76.5t-44 -59t-69 -37.5t-90.5 -13q-29 0 -55 3.5t-58 11.5q10 22 27.5 34.5t34.5 18t30 6.5l13 1q29 0 53.5 8t42.5 22.5t28.5 34.5t10.5 44q0 37 -22 62.5t-57 25.5q-21 0 -37 -7t-36 -24l-65 8l30 269h256l-2 -80h-185l-14 -112q26 11 43.5 14.5
t36.5 3.5q32 0 58.5 -11.5t45.5 -32.5t29.5 -50t10.5 -64z" />
    <glyph glyph-name="six" unicode="6" horiz-adv-x="384" 
d="M356 155q0 -76 -42.5 -121.5t-113.5 -45.5q-79 0 -123 50.5t-44 142.5v66t2 55q1 25 2.5 45t5.5 37q14 65 54.5 99.5t106.5 34.5q69 0 107 -44t39 -119q-19 0 -32 3t-21 8q-10 4 -16 11q-8 9 -12.5 14.5t-6.5 9.5q-11 20 -23 32t-38 12q-1 0 -13.5 -2.5t-26 -17.5
t-23.5 -47.5t-6 -91.5q18 14 38.5 21t47.5 6q30 -1 55.5 -12.5t43.5 -32.5t28.5 -49.5t10.5 -63.5zM264 144q0 97 -65 97q-32 0 -49.5 -24t-17.5 -66t17 -66t48 -24t49 22.5t18 60.5z" />
    <glyph glyph-name="seven" unicode="7" horiz-adv-x="384" 
d="M180 1h-100l157 430h-91q-23 1 -43 10q-17 8 -34.5 24.5t-26.5 48.5h249q1 0 11 -1t20.5 -7t16 -20t-3.5 -40z" />
    <glyph glyph-name="eight" unicode="8" horiz-adv-x="384" 
d="M355 139q0 -33 -12 -60.5t-33 -47.5t-50.5 -31.5t-63.5 -11.5q-36 0 -66 11t-51.5 31t-33.5 48t-12 61t15 64t43 49q9 5 8 16t-6 15q-21 17 -32 44t-11 54q0 62 40.5 99.5t107.5 37.5q30 0 56 -10.5t44.5 -28.5t29 -43t10.5 -55q0 -61 -44 -98q-8 -7 -7.5 -16.5
t8.5 -14.5q10 -6 20.5 -14.5t19.5 -22t14.5 -32t5.5 -44.5zM250 374q0 32 -14 52.5t-40 20.5q-29 0 -43.5 -20.5t-14.5 -55.5q0 -32 14.5 -51.5t40.5 -19.5q27 0 42 20t15 54zM263 147q0 39 -17.5 62.5t-49.5 23.5q-35 0 -52.5 -22t-17.5 -63t18 -65t51 -24q32 0 50 24.5
t18 63.5z" />
    <glyph glyph-name="nine" unicode="9" horiz-adv-x="384" 
d="M353 325v-66.5t-1 -54.5t-2.5 -45.5t-5.5 -37.5q-14 -64 -54.5 -98.5t-106.5 -34.5q-69 0 -107 44t-39 119q18 -1 31 -4t21 -7q10 -4 17 -11q8 -9 12.5 -14.5t6.5 -10.5q11 -19 23 -31.5t38 -12.5q1 0 13 3t25.5 18t23.5 47t6 91q-17 -14 -37.5 -20.5t-48.5 -5.5
q-30 1 -55 12.5t-43 32t-28.5 49t-10.5 63.5q0 76 42.5 121.5t113.5 45.5q79 0 122.5 -50t43.5 -142zM254 354q0 42 -16.5 66.5t-48.5 24.5q-30 0 -48 -23t-18 -61q0 -96 64 -96q32 0 49.5 24t17.5 65z" />
    <glyph glyph-name="colon" unicode=":" horiz-adv-x="308" 
d="M206 260q0 -14 -10.5 -24.5t-24.5 -10.5h-35q-15 0 -25.5 10.5t-10.5 24.5v44q0 14 10.5 24.5t25.5 10.5h35q14 0 24.5 -10.5t10.5 -24.5v-44zM206 33q0 -14 -10.5 -24.5t-24.5 -10.5h-35q-15 0 -25.5 10.5t-10.5 24.5v43q0 15 10.5 25.5t25.5 10.5h35q14 0 24.5 -10.5
t10.5 -25.5v-43z" />
    <glyph glyph-name="semicolon" unicode=";" horiz-adv-x="308" 
d="M206 260q0 -14 -10.5 -24.5t-25.5 -10.5h-34q-15 0 -25.5 10.5t-10.5 24.5v44q0 14 10.5 24.5t25.5 10.5h34q15 0 25.5 -10.5t10.5 -24.5v-44zM206 33q0 -14 -4 -34t-10 -34l-31 -72q-6 -14 -17 -23t-21 -9t-13.5 9.5t1.5 23.5l24 70q5 14 1.5 24t-13.5 10t-16.5 10.5
t-6.5 24.5v43q0 15 10.5 25.5t25.5 10.5h34q15 0 25.5 -10.5t10.5 -25.5v-43z" />
    <glyph glyph-name="less" unicode="&#x3c;" horiz-adv-x="500" 
d="M57 196v65l379 159v-79l-236 -95q-11 -5 -11 -17q0 -14 11 -17l236 -95v-79z" />
    <glyph glyph-name="equal" unicode="=" horiz-adv-x="473" 
d="M70 234v70h333v-70h-333zM70 85v70h333v-70h-333z" />
    <glyph glyph-name="greater" unicode="&#x3e;" horiz-adv-x="500" 
d="M64 38v79l238 95q11 5 11 17q0 13 -11 16l-238 96v79l379 -158v-66z" />
    <glyph glyph-name="question" unicode="?" horiz-adv-x="388" 
d="M330 419q0 -60 -62 -115q-16 -14 -24.5 -27t-12 -25.5t-4 -24t-0.5 -22.5v-68q-32 2 -50 14.5t-27 26.5q-11 17 -13 37q-2 25 2.5 44t13.5 35t21 30t25 29q20 22 27 34.5t7 25.5q0 17 -12.5 28.5t-29.5 12.5q-12 0 -22.5 -6t-19.5 -14.5t-15.5 -18t-9.5 -17.5l-76 33
q6 12 15.5 29t26.5 32t43 25.5t64 10.5q62 0 97.5 -29t35.5 -80zM236 31q0 -14 -10.5 -24.5t-24.5 -10.5h-35q-15 0 -25.5 10.5t-10.5 24.5v43q0 15 10.5 25.5t25.5 10.5h35q14 0 24.5 -10.5t10.5 -25.5v-43z" />
    <glyph glyph-name="at" unicode="@" horiz-adv-x="675" 
d="M599 50q-15 -16 -27 -28.5t-24.5 -22.5t-27 -18.5t-33.5 -17.5q-31 -14 -70 -21t-74 -7q-160 0 -233 68.5t-56 220.5q8 72 29.5 127.5t59 93.5t93 57.5t131.5 19.5q69 0 118 -19t80 -52t43.5 -77.5t8.5 -95.5q-5 -62 -27.5 -104t-51.5 -68t-60 -37.5t-53 -11.5
q-12 0 -20 7.5t-13 17.5q-4 12 -11 13.5t-13 -3.5q-15 -14 -31 -23t-39 -9q-45 0 -74.5 37.5t-29.5 101.5q0 44 11.5 82.5t31 67t44.5 45t53 16.5q24 0 41 -10.5t30 -29.5q3 -4 7.5 -6.5t8.5 8.5q2 8 9 13q6 5 17 8.5t31 4.5l-42 -261q-1 -8 -1 -17t12 -9q7 0 22.5 8
t32 27.5t30.5 52.5t19 82q9 95 -37 143t-146 48q-54 0 -97.5 -13t-75 -42t-51.5 -76.5t-27 -116.5q-8 -73 4.5 -119.5t42 -73t74.5 -36.5t102 -10q30 0 56.5 5t48 13t38.5 16.5t29 16.5q9 8 21 12q11 4 27 5.5t39 -3.5zM400 293q0 33 -14.5 55t-40.5 22q-29 0 -47 -24
t-28.5 -55.5t-14 -62.5t-3.5 -46q0 -37 14.5 -61.5t42.5 -24.5q45 0 65 54q11 31 18.5 71.5t7.5 71.5z" />
    <glyph glyph-name="A" unicode="A" horiz-adv-x="446" 
d="M341 0q-5 15 -9 27.5t-7 21.5q-4 11 -7 20q-7 22 -14 29.5t-20 7.5h-134q-5 0 -15.5 -3t-17.5 -23q-9 -24 -25 -42q-14 -16 -35.5 -29t-52.5 -12l176 516h85l175 -513h-99zM248 288q-4 13 -11.5 20.5t-16.5 7.5t-17.5 -6.5t-13.5 -21.5q0 -2 -2 -8q-2 -5 -6 -17t-11 -32
q-8 -22 0 -36t19 -14h55q16 0 22 13.5t-1 36.5z" />
    <glyph glyph-name="B" unicode="B" horiz-adv-x="426" 
d="M401 141q-2 -40 -18 -71q-7 -13 -17.5 -25.5t-26.5 -22.5t-37 -16t-48 -6h-209v513h185q10 0 33.5 -4.5t47.5 -17t42 -35.5t18 -60q0 -25 -7 -42.5t-16.5 -29t-19 -18t-13.5 -9.5q-10 -7 -6.5 -17.5t19.5 -19.5q27 -14 42 -32.5t21.5 -35.5t8 -31t1.5 -20zM279 364
q1 7 1.5 12t-1.5 22q-1 6 -7.5 14.5t-19.5 15t-32.5 10.5t-46.5 1q-11 -1 -19.5 -7t-8.5 -13v-78q0 -11 8.5 -16t16.5 -7q30 -4 50.5 1t33 13t18.5 17.5t7 14.5zM293 166q-1 9 -8 23t-21.5 26t-36.5 19.5t-54 4.5q-11 -2 -19 -7.5t-8 -13.5v-119q0 -11 8 -16t16 -6
q61 -9 95.5 13.5t27.5 75.5z" />
    <glyph glyph-name="C" unicode="C" horiz-adv-x="384" 
d="M362 145q-8 -58 -33.5 -89.5t-51.5 -45.5q-32 -17 -68 -19q-36 0 -67.5 19t-55 50t-37.5 71t-14 82v87q0 30 8.5 68t28.5 72.5t53.5 58t83.5 23.5q37 -2 69 -18q13 -7 26 -17.5t24.5 -26t19 -36t10.5 -47.5l-81 -20q-11 48 -27 70.5t-41 24.5q-16 2 -30 -6t-24 -23
t-16 -37t-6 -49v-167q0 -17 6 -35t16 -32.5t24 -24.5t30 -11q23 -2 35.5 4.5t20.5 16t14 21.5t17 21q8 8 19 12q9 4 21 5.5t26 -2.5z" />
    <glyph glyph-name="D" unicode="D" horiz-adv-x="413" 
d="M379 265q0 -73 -14 -121t-36.5 -77t-49.5 -43.5t-53.5 -19.5t-49.5 -4.5t-36 0.5h-96v513h143q7 0 24 -3t38.5 -12t44 -25.5t41.5 -44.5t31.5 -68t12.5 -95zM167 435q-10 -2 -18.5 -7.5t-8.5 -13.5v-312q0 -11 8 -16t16 -7q40 -8 68 16.5t42.5 65t16 90t-11.5 91.5
t-41 69.5t-71 23.5z" />
    <glyph glyph-name="E" unicode="E" horiz-adv-x="386" 
d="M44 0v514h312q-1 -29 -13.5 -44t-27.5 -23q-18 -9 -39 -10h-135v-129h167v-78h-167v-152h215v-78h-312z" />
    <glyph glyph-name="F" unicode="F" horiz-adv-x="357" 
d="M358 513q-6 -29 -21 -44t-31 -23q-18 -9 -41 -10h-123v-129h167v-78h-167v-131q-2 -23 -13 -42q-9 -17 -29 -33.5t-55 -23.5v514h313v0z" />
    <glyph glyph-name="G" unicode="G" horiz-adv-x="422" 
d="M296 357q-11 48 -31 70.5t-45 24.5q-32 4 -55.5 -26t-28.5 -89q-3 -29 -4 -52.5t-1 -43t1.5 -37t3.5 -34.5t8 -35t15.5 -32.5t23 -24.5t29.5 -11q25 -2 43.5 7.5t29.5 37.5q3 13 3.5 21.5t-0.5 13.5q-1 6 -3 9q-28 1 -50 10q-19 8 -35.5 23.5t-18.5 45.5h196v-241l-52 46
q-24 -23 -47.5 -36t-65.5 -13q-36 0 -68 15.5t-56 47.5t-38.5 81.5t-14.5 118.5q0 61 10 111t32.5 84.5t57.5 53.5t85 19q37 -2 70 -18q27 -14 53 -43.5t34 -83.5z" />
    <glyph glyph-name="H" unicode="H" horiz-adv-x="431" 
d="M295 0v193q0 12 -9 26.5t-27 14.5h-89q-19 0 -26 -13t-7 -28v-193h-92v514h91v-175q0 -21 10.5 -29.5t23.5 -8.5h89q17 0 25.5 10.5t10.5 27.5v77q1 22 11 41q8 17 26.5 33t53.5 24v-514h-91z" />
    <glyph glyph-name="I" unicode="I" horiz-adv-x="257" 
d="M236 514q-5 -20 -11 -31t-12 -18q-7 -8 -15 -11q-9 -3 -16.5 -8t-7.5 -15v-348q0 -10 7 -16.5t17 -6.5h24v-60h-187v60h24q10 0 17 6.5t7 16.5v348q0 10 -6.5 15t-17.5 8q-8 3 -15 11q-6 7 -12.5 18t-10.5 31h215v0z" />
    <glyph glyph-name="J" unicode="J" horiz-adv-x="365" 
d="M320 131q0 -35 -12.5 -61t-33 -43.5t-47 -26.5t-54.5 -9q-38 2 -69 18q-13 7 -26 17.5t-24.5 25.5t-19 36t-10.5 48l72 23q1 -4 5 -19.5t12.5 -33t23 -31t36.5 -14.5t38.5 18t16.5 67v309h-15q-19 2 -35 9q-14 6 -25.5 17.5t-13.5 31.5h181v-382v0z" />
    <glyph glyph-name="K" unicode="K" horiz-adv-x="429" 
d="M329 0l-141 192q-5 6 -9.5 9t-16.5 2q-11 0 -18 -10.5t-7 -22.5v-73q-2 -21 -12 -40q-9 -17 -27 -34t-53 -28v407q0 27 11 51q8 20 27 39t54 27v-176q0 -17 16 -17q4 0 8 2l149 185h104l-192 -234l212 -279h-105z" />
    <glyph glyph-name="L" unicode="L" horiz-adv-x="360" 
d="M331 0h-286v514h92v-426q0 -11 6.5 -18.5t17.5 -9.5h87q11 2 18 9.5t7 18.5v22q2 19 9 36q6 14 17.5 26.5t31.5 16.5v-189z" />
    <glyph glyph-name="M" unicode="M" horiz-adv-x="506" 
d="M391 0v206q0 18 -6.5 30t-15.5 16t-18.5 -0.5t-15.5 -19.5l-61 -232h-33l-65 218q-4 13 -10.5 17.5t-13 3t-11.5 -8t-5 -15.5v-109q-3 -30 -14 -54q-9 -20 -27 -36.5t-50 -15.5v514h102l87 -249q2 -7 7.5 -11.5t12 -5t12.5 3.5t9 13l87 249h99v-514h-70z" />
    <glyph glyph-name="N" unicode="N" horiz-adv-x="457" 
d="M343 0l-158 317q-6 6 -13.5 7t-14.5 -3t-12 -12.5t-5 -21.5v-287h-95v514h120l138 -293q11 -22 24.5 -20t15.5 19v196q0 22 8 41q6 17 20 33t40 24v-514h-68z" />
    <glyph glyph-name="O" unicode="O" horiz-adv-x="416" 
d="M376 175q-2 -14 -10.5 -44.5t-27.5 -61.5t-51 -54.5t-80 -23.5t-79.5 23.5t-50.5 54.5t-27.5 61.5t-10.5 44.5q-3 19 -4 40.5t-1 43t1.5 41t3.5 35.5q2 14 10.5 44.5t27.5 61.5t50.5 54.5t79.5 23.5t79.5 -23.5t51 -54.5t28 -61.5t10.5 -44.5q6 -45 5 -84.5t-5 -75.5z
M286 165q3 16 4.5 38.5t1.5 46.5t-1.5 49t-4.5 46q-2 12 -6.5 30t-13.5 34.5t-23.5 28.5t-35.5 12t-34.5 -12t-22.5 -28.5t-14 -34.5t-7 -30t-3 -37t-1 -52.5t1 -52.5t3 -38q2 -12 6.5 -30t13.5 -34.5t23 -28.5t35 -12t35 12t23 28.5t13.5 34.5z" />
    <glyph glyph-name="P" unicode="P" horiz-adv-x="379" 
d="M375 354q0 -24 -7 -53t-29.5 -53.5t-65 -39t-112.5 -8.5q-13 -5 -17 -9t-4 -21v-72q-5 -23 -16 -43q-10 -17 -29 -33.5t-50 -21.5v513h184q10 0 34.5 -5.5t49 -22.5t43.5 -48t19 -83zM274 391q0 6 -6.5 14.5t-19.5 15.5t-33 11t-47 1q-11 -1 -19.5 -7t-8.5 -14v-106
q0 -11 8.5 -16t16.5 -6q30 -5 51 0t33.5 13t18.5 17.5t6 14.5v62z" />
    <glyph glyph-name="Q" unicode="Q" horiz-adv-x="416" 
d="M351 0q-23 0 -40.5 1.5t-30.5 8.5q-32 -19 -73 -19q-48 0 -79.5 23.5t-50.5 54.5t-27.5 61.5t-10.5 44.5q-3 19 -4 40.5t-1 43t1.5 41t3.5 35.5q2 14 10.5 44.5t27.5 61.5t50.5 54.5t79.5 23.5t79.5 -23.5t51 -54.5t28 -61.5t10.5 -44.5q6 -45 5 -84.5t-5 -75.5
q-2 -13 -9.5 -41.5t-24.5 -58.5h9q18 -1 34 -9q14 -7 27 -22.5t18 -43.5h-79zM286 165q3 16 4.5 38.5t1.5 46.5t-1.5 49t-4.5 46q-2 12 -6.5 30t-13.5 34.5t-23.5 28.5t-35.5 12t-34.5 -12t-22.5 -28.5t-14 -34.5t-7 -30t-3 -37t-1 -52.5t1 -52.5t3 -38q2 -12 6.5 -30
t13.5 -34.5t23 -28.5t35 -12t35 12t23 28.5t13.5 34.5z" />
    <glyph glyph-name="R" unicode="R" horiz-adv-x="409" 
d="M418 0q-20 -2 -36.5 0.5t-29.5 6.5q-15 4 -27 11q-16 9 -25.5 16.5t-15.5 13.5t-9.5 11t-6.5 9t-12 20q-8 14 -22.5 40t-37.5 73q-6 12 -15.5 17t-18 4t-15 -6t-6.5 -14v-202h-96v513h185q10 0 35 -7t51 -23t45.5 -42.5t19.5 -66.5q0 -33 -10.5 -55.5t-23.5 -36.5
t-26 -22t-17 -11q-11 -8 -11 -18t5 -19q3 -6 17 -31q12 -21 36 -63.5t67 -117.5zM275 391q0 6 -6.5 14.5t-19.5 15.5t-33.5 11t-47.5 1q-10 -1 -18.5 -7t-8.5 -14v-92q0 -11 8.5 -16t16.5 -7q30 -4 51 1t33.5 13t18.5 17.5t6 14.5v48z" />
    <glyph glyph-name="S" unicode="S" horiz-adv-x="408" 
d="M374 140q0 -29 -8.5 -55.5t-27.5 -47t-50.5 -33t-76.5 -12.5q-49 0 -83.5 18.5t-56 41.5t-32 43t-11.5 22q20 1 38 -1t32 -5q16 -4 28 -9q18 -8 28 -15t17.5 -13t15.5 -10t23 -5q4 0 16 2.5t25 10t23 21t10 36.5q0 16 -21 39.5t-74 46.5q-38 16 -64.5 33t-43 36.5
t-23.5 43t-7 53.5q0 27 9 52t27.5 44.5t48 31.5t71.5 12t71.5 -16.5t48 -37t27.5 -38t10 -19.5l-66 -43q0 1 -7.5 13t-19.5 26t-28.5 25t-35.5 11q-23 0 -37.5 -6.5t-22 -15t-10 -17t-2.5 -11.5q0 -17 22 -39t75 -44q46 -19 74 -42.5t43 -47t20 -44.5t5 -35z" />
    <glyph glyph-name="T" unicode="T" horiz-adv-x="355" 
d="M252 438q-8 -2 -15.5 -8.5t-9.5 -20.5v-409q-38 9 -58 30t-30 43q-11 26 -14 55v281q-2 11 -7 18.5t-17 10.5h-95v75h343v-75h-97z" />
    <glyph glyph-name="U" unicode="U" horiz-adv-x="420" 
d="M375 161q0 -26 -9 -56t-28.5 -56t-50.5 -43t-74 -17t-74.5 17t-52.5 43t-31 56t-10 56v353h93v-357q0 -12 2.5 -27.5t10.5 -29.5t22.5 -23.5t38.5 -9.5q18 0 31.5 9.5t22 23.5t13 29.5t4.5 27.5v226q3 31 14 57q9 23 27.5 44t50.5 29v-352v0z" />
    <glyph glyph-name="V" unicode="V" horiz-adv-x="440" 
d="M264 0h-92l-167 513q36 4 61 -13.5t41 -40.5q18 -26 30 -62l59 -196q4 -9 11 -14.5t14.5 -6.5t14 4t9.5 17l58 206q8 26 25 48q14 19 39.5 36t67.5 22z" />
    <glyph glyph-name="W" unicode="W" horiz-adv-x="576" 
d="M439 0h-79l-41 162q-4 10 -12.5 15.5t-17.5 5.5t-16.5 -5.5t-9.5 -16.5l-32 -161h-90l-135 513q40 3 66 -10.5t42 -30.5q18 -20 28 -48l39 -179q6 -14 16 -20t20 -5t17.5 8t8.5 20l23 265h45l24 -263q5 -16 13.5 -23.5t17.5 -7.5t17.5 8t13.5 23l38 167q8 27 26 49
q15 18 41.5 33t67.5 14z" />
    <glyph glyph-name="X" unicode="X" horiz-adv-x="463" 
d="M342 1l-102 156q-8 8 -19 8q-14 0 -23 -12l-100 -152h-87l166 253l-170 260h116l97 -149q8 -6 14 -6q7 0 15 6l57 88q15 18 34 32q17 12 40 21.5t53 7.5l-155 -238l180 -275h-116z" />
    <glyph glyph-name="Y" unicode="Y" horiz-adv-x="385" 
d="M238 205v-104q-1 -25 -11 -46q-8 -18 -26 -34t-51 -21v205l-145 308h100l74 -169q8 -19 18.5 -18t18.5 18l71 169h93z" />
    <glyph glyph-name="Z" unicode="Z" horiz-adv-x="428" 
d="M26 1v87l225 317q8 11 4.5 19t-19.5 8h-189v82h338v-87l-220 -312q-9 -13 -4.5 -20t15.5 -7h85q30 -1 56 -11q22 -8 43.5 -26t29.5 -50h-364z" />
    <glyph glyph-name="bracketleft" unicode="[" horiz-adv-x="246" 
d="M105 -53q-27 0 -37 9.5t-10 41.5v541q0 27 9 35.5t35 8.5h88v-81h-46v-474h46v-81h-85z" />
    <glyph glyph-name="backslash" unicode="\" horiz-adv-x="286" 
d="M198 -114l-157 670h57l157 -670h-57z" />
    <glyph glyph-name="bracketright" unicode="]" horiz-adv-x="246" 
d="M189 -2q0 -32 -10 -41.5t-37 -9.5h-85v81h46v474h-46v81h87q26 0 35.5 -8.5t9.5 -35.5v-541v0z" />
    <glyph glyph-name="asciicircum" unicode="^" horiz-adv-x="446" 
d="M294 233l-48 119q-5 12 -19 12q-15 0 -20 -13l-47 -118h-98l128 272h76l125 -272h-97z" />
    <glyph glyph-name="underscore" unicode="_" horiz-adv-x="420" 
d="M30 -110v55h361v-55h-361z" />
    <glyph glyph-name="grave" unicode="`" horiz-adv-x="249" 
d="M135 416l-93 102h107l47 -102h-61z" />
    <glyph glyph-name="a" unicode="a" horiz-adv-x="359" 
d="M327 -9q-38 0 -60.5 12t-34.5 41q-33 -28 -60.5 -40.5t-51.5 -12.5q-40 0 -67 31t-27 77q0 42 17.5 70.5t45.5 46.5t63.5 27t71.5 11v22q0 23 -19.5 38t-45.5 15q-12 0 -22.5 -4t-21.5 -9.5t-22 -9.5t-23 -4q-9 0 -17 4q-7 3 -14 10t-11 20q10 9 22.5 19.5t29 19t38 14.5
t49.5 6q69 0 108 -31t39 -88v-182q0 -35 7 -49.5t26 -15.5v-38h-20zM224 200q-34 -4 -64 -16.5t-41 -39.5v-52q8 -14 22.5 -20t28.5 -6q20 0 37 16t17 36v82z" />
    <glyph glyph-name="b" unicode="b" horiz-adv-x="385" 
d="M355 194q0 -39 -3 -67.5t-9 -50t-14.5 -36.5t-19.5 -26q-25 -25 -59 -25q-14 0 -30 5.5t-31.5 14t-29 19t-22.5 21.5l-3 3t-6 1l-6 -2l-77 -60v583q34 -4 52.5 -20.5t26.5 -36.5q10 -23 11 -51v-123q2 -5 3.5 -8.5t8.5 -3.5q6 0 9 4q3 1 10 10t19 20t28 20t37 9
q36 0 57 -21t31.5 -52t13.5 -65.5t3 -61.5zM253 263q-6 20 -17.5 34t-31.5 15q-13 1 -25 -4t-21.5 -14t-15.5 -21t-6 -24v-94q0 -24 8 -40.5t19.5 -26.5t23 -14t18.5 -4q19 0 30.5 15t17.5 37v141z" />
    <glyph glyph-name="c" unicode="c" horiz-adv-x="333" 
d="M312 117q-7 -62 -44 -94t-101 -32q-73 0 -106 48t-33 156q0 107 37 153.5t111 46.5q116 0 129 -121h-77q-2 12 -5 22.5t-8.5 18.5t-14 12.5t-21.5 3.5q-14 -2 -27.5 -17t-21.5 -53v-142q7 -39 21 -51t31 -12q13 0 26.5 10.5t19.5 21.5q11 20 36.5 28t47.5 1z" />
    <glyph glyph-name="d" unicode="d" horiz-adv-x="385" 
d="M263 51q-8 3 -8.5 2t-6.5 -4q-9 -11 -22.5 -21.5t-29 -19t-32 -14t-29.5 -5.5q-34 0 -59 25q-23 22 -34.5 62.5t-11.5 117.5q0 27 3 61.5t13.5 65.5t31.5 52t57 21q21 0 37 -9t28 -20t19 -20t10 -10q3 -4 9 -4q7 0 8.5 3.5t3.5 8.5v123q1 28 11 51q8 20 26.5 36.5
t52.5 20.5v-583zM249 249q0 12 -6 24t-15.5 21t-21.5 14t-25 4q-20 -1 -31.5 -15t-17.5 -34v-141q6 -22 17.5 -37t30.5 -15q7 0 18.5 4t22.5 14t19.5 26.5t8.5 40.5v94z" />
    <glyph glyph-name="e" unicode="e" horiz-adv-x="332" 
d="M303 21q-35 -17 -69 -23.5t-49 -6.5q-57 0 -87.5 22t-44.5 53.5t-16.5 66.5t-2.5 61q0 105 31.5 152.5t102.5 47.5q133 0 133 -179v-44h-145q-14 0 -20 -6.5t-6 -15.5v-26q0 -32 18.5 -50t53.5 -18q14 0 21 1.5t12.5 3t12.5 3t20 1.5q9 -1 17 -5q7 -4 12.5 -13t5.5 -25z
M221 257q0 80 -46 80q-45 0 -45 -69v-18q0 -13 7 -18t15 -5h50q19 0 19 18v12z" />
    <glyph glyph-name="f" unicode="f" horiz-adv-x="259" 
d="M260 542q-2 -29 -12 -43.5t-21 -20.5q-13 -7 -29 -6q-15 0 -22.5 -2.5t-10.5 -8t-3 -14v-19.5v-48h81v-71h-81v-309h-90v309h-56v71h56v36q0 68 29 97t102 29h57v0z" />
    <glyph glyph-name="g" unicode="g" horiz-adv-x="382" 
d="M337 46q0 -41 -7.5 -72.5t-26 -54t-49 -34t-75.5 -11.5q-43 0 -76 12t-59 45q15 21 31.5 24.5t33.5 -0.5t33 -11t31 -7q35 0 54.5 22.5t19.5 68.5v31q0 5 -4 8.5t-9 3.5t-8 -3q-25 -27 -46.5 -41t-49.5 -14q-33 0 -52 20t-29 49.5t-12.5 62t-2.5 56.5q0 25 2 58t11.5 63
t29 51t54.5 21q29 0 52 -15.5t45 -40.5q6 -5 13 -2t7 11v33h89v-334zM247 241q0 28 -10.5 42.5t-23.5 21.5q-15 8 -34 8q-20 -1 -33.5 -24t-13.5 -72q0 -53 10 -87t34 -37q31 -4 51 19.5t20 59.5v69z" />
    <glyph glyph-name="h" unicode="h" horiz-adv-x="389" 
d="M344 -1q-36 2 -55 18.5t-27 35.5q-10 22 -10 49v145q0 38 -8 55t-34 17q-8 0 -19.5 -4t-23 -13t-20.5 -22t-10 -30v-250h-93v574q35 -3 53.5 -20t27.5 -37q11 -23 12 -52v-113q0 -13 13 -13q4 0 9 3q54 50 107 50q78 0 78 -97v-296z" />
    <glyph glyph-name="i" unicode="i" horiz-adv-x="183" 
d="M138 463q0 -8 -6.5 -14.5t-14.5 -6.5h-51q-8 0 -14.5 6.5t-6.5 14.5v45q0 9 6.5 15t14.5 6h51q8 0 14.5 -6t6.5 -15v-45zM138 0q-35 7 -53.5 22t-27.5 31q-11 18 -12 39v288h93v-380z" />
    <glyph glyph-name="j" unicode="j" horiz-adv-x="222" 
d="M177 465q0 -9 -6.5 -15.5t-14.5 -6.5h-49q-8 0 -14.5 6.5t-6.5 15.5v43q0 9 6.5 15t14.5 6h49q8 0 14.5 -6t6.5 -15v-43zM177 83q0 -43 -1.5 -79t-13 -61.5t-37 -39.5t-73.5 -14q-6 0 -15 1t-18 2.5t-16 3t-10 1.5q0 23 8.5 36.5t19.5 19.5q12 7 29 8q11 0 18 3.5
t10.5 12.5t5 25.5t1.5 42.5v335h92v-297z" />
    <glyph glyph-name="k" unicode="k" horiz-adv-x="354" 
d="M251 0l-77 156q-3 6 -9 8.5t-11.5 1.5t-10 -5t-4.5 -11v-150h-94v574q35 -2 53.5 -19.5t27.5 -37.5q11 -24 12 -52v-224q0 -6 4.5 -10.5t10.5 -4.5q8 0 12 7l77 147h90l-87 -162l111 -218h-105z" />
    <glyph glyph-name="l" unicode="l" horiz-adv-x="195" 
d="M50 0v465q1 28 12 52q9 20 28 37.5t55 19.5v-574h-95z" />
    <glyph glyph-name="m" unicode="m" horiz-adv-x="616" 
d="M571 -1q-36 2 -55 18.5t-28 35.5q-11 22 -12 49v176q0 19 -8.5 26t-22.5 7q-16 0 -32 -10t-28.5 -26t-20.5 -36.5t-8 -42.5v-196h-96v271q0 22 -8.5 30.5t-23.5 8.5q-14 0 -29.5 -10t-28.5 -25t-21 -32t-8 -32v-211h-96v385l99 -64q4 0 6 1l4 2q25 26 59.5 45t69.5 19
q29 0 47.5 -13.5t23.5 -45.5q1 -4 5 -6t8 -2q6 0 11 5q20 24 47 43t63 19q40 0 61.5 -23t21.5 -74v-292v0z" />
    <glyph glyph-name="n" unicode="n" horiz-adv-x="388" 
d="M343 -1q-35 2 -54 18.5t-28 35.5q-11 22 -12 49v167q0 23 -9.5 31t-25.5 8q-14 0 -27.5 -9t-25 -24t-18.5 -35.5t-7 -43.5v-196h-91v385l92 -56q6 0 9 2q27 29 59.5 42t60.5 13q38 0 57.5 -22.5t19.5 -77.5v-287v0z" />
    <glyph glyph-name="o" unicode="o" horiz-adv-x="357" 
d="M329 192q0 -60 -13.5 -99.5t-35 -62t-48.5 -31.5t-54 -9q-23 0 -49.5 9t-49 31.5t-37 62t-14.5 99.5t14.5 99.5t37 62t49 31.5t49.5 9q27 0 54 -9t48.5 -31.5t35 -62t13.5 -99.5zM239 192q0 40 -4.5 66.5t-13 42t-19.5 21.5t-24 6q-18 0 -33 -14t-22 -54v-133
q8 -42 23 -56.5t32 -14.5q13 0 24.5 6t19.5 21.5t12.5 41.5t4.5 67z" />
    <glyph glyph-name="p" unicode="p" horiz-adv-x="385" 
d="M355 183q0 -27 -3 -61t-13.5 -65t-31.5 -52t-57 -21q-21 0 -37 9t-28 19.5t-19 20t-10 10.5q-3 3 -9 3q-7 0 -8.5 -3t-3.5 -8v-123q-1 -28 -11 -51q-8 -20 -26.5 -37.5t-52.5 -20.5v584l77 -60q2 -2 4 -2q1 -1 2 -1q5 0 6 1.5t3 2.5q9 11 22.5 22t29 19.5t31.5 14t30 5.5
q17 0 32 -7t27 -18q11 -11 19.5 -26t14.5 -36.5t9 -50.5t3 -68zM253 255q-6 22 -17.5 37t-30.5 15q-7 0 -18.5 -4t-23 -13.5t-19.5 -26t-8 -40.5v-95q0 -12 6 -24t15.5 -21t21.5 -14t25 -4q20 2 31.5 15.5t17.5 33.5v141z" />
    <glyph glyph-name="q" unicode="q" horiz-adv-x="385" 
d="M340 -197q-34 3 -52.5 20.5t-26.5 37.5q-10 23 -11 51v123q-2 5 -3 8t-9 3q-5 0 -8 -3q-3 -1 -10.5 -10.5t-19 -20t-27.5 -19.5t-37 -9q-36 0 -57 21t-31.5 52t-13.5 65t-3 61q0 39 3 68t8.5 50.5t14 36.5t19.5 26q12 11 27.5 18t32.5 7q13 0 29 -5.5t32 -14t29.5 -19.5
t22.5 -22q2 -1 3 -2.5t5 -1.5q1 0 6 3l77 60v-584zM249 223q0 24 -8 40.5t-19 26t-22.5 13.5t-18.5 4q-19 0 -30.5 -15t-17.5 -37v-141q6 -20 17.5 -33.5t31.5 -15.5q12 -1 24 4t21.5 14t15.5 21t6 24v95z" />
    <glyph glyph-name="r" unicode="r" horiz-adv-x="289" 
d="M260 294q-15 15 -36.5 10.5t-41.5 -22.5t-34 -46.5t-14 -61.5v-176q-34 9 -52 28t-26 38q-10 22 -11 47v269h89v-51q0 -10 5 -8q2 1 5 3q10 19 24.5 36.5t32.5 26.5t38.5 5.5t42.5 -25.5z" />
    <glyph glyph-name="s" unicode="s" horiz-adv-x="297" 
d="M274 106q0 -23 -10.5 -44t-28.5 -37t-41.5 -25t-49.5 -9q-39 0 -69 15.5t-53 35.5q15 29 32 35.5t33.5 3t31.5 -11.5t25 -8q18 0 31.5 12.5t12.5 42.5q-1 19 -18.5 33.5t-43.5 27.5q-17 9 -35 18.5t-33 22t-24.5 30t-9.5 42.5q0 48 37.5 76t95.5 28q28 0 52 -8t54 -28
l-35 -58q-19 13 -35.5 20t-31.5 7q-20 0 -33.5 -7.5t-13.5 -27.5q0 -19 16.5 -33t51.5 -30q7 -3 22.5 -11t31 -22t27 -36t11.5 -54z" />
    <glyph glyph-name="t" unicode="t" horiz-adv-x="268" 
d="M195 308q-19 0 -19 -19v-181q0 -11 3 -20.5t11.5 -14t23.5 -4t40 8.5v-76q-22 -7 -34 -9.5t-34 -2.5q-39 0 -60 13t-30.5 32t-10.5 39.5t-1 34.5v181q0 18 -20 18h-52v72h73v35q1 32 11 58q8 22 26.5 41t53.5 21v-155h79v-72h-60z" />
    <glyph glyph-name="u" unicode="u" horiz-adv-x="377" 
d="M332 -9q-32 23 -50 36t-27 19q-11 7 -13 9q-8 6 -13 -4q-6 -13 -22 -26t-36.5 -21.5t-42.5 -9.5t-40.5 10.5t-30.5 38t-12 72.5v265h89v-256q0 -19 13 -30.5t29 -11.5q26 0 46 22t20 57v125q1 25 11 45q8 17 26.5 32t52.5 17v-389v0z" />
    <glyph glyph-name="v" unicode="v" horiz-adv-x="298" 
d="M190 1h-83l-99 379h80l57 -215q2 -10 12 -10t12 9l32 125q8 25 20 44q11 17 27.5 31t41.5 16z" />
    <glyph glyph-name="w" unicode="w" horiz-adv-x="470" 
d="M363 1h-78l-39 147q-4 13 -15.5 14.5t-15.5 -12.5l-44 -149h-63l-100 379q32 0 52.5 -11t31.5 -24q13 -16 19 -35l29 -111q2 -8 9 -8t9 5l61 184h47l53 -204q2 -8 10 -8.5t10 7.5l35 135q6 18 17 33q10 13 27 24t44 13z" />
    <glyph glyph-name="x" unicode="x" horiz-adv-x="343" 
d="M247 1l-70 114q-4 5 -10.5 4.5t-10.5 -5.5l-75 -113h-79l128 189l-118 190h93l64 -102q4 -7 9 -8t10 7l28 41q12 18 30 31q15 11 37 20.5t51 10.5l-119 -177l126 -202h-94z" />
    <glyph glyph-name="y" unicode="y" horiz-adv-x="310" 
d="M211 58q-9 -29 -19.5 -59t-26 -54.5t-39 -40t-57.5 -15.5q-15 0 -36 5t-36 14l20 65q27 -16 46 -13t31.5 16t20.5 32.5t13 36.5l-123 335h86l63 -181q4 -12 12 -11.5t10 8.5l33 113q7 17 19 32q11 13 29.5 24t47.5 15z" />
    <glyph glyph-name="z" unicode="z" horiz-adv-x="344" 
d="M36 0v73l160 220q6 8 3.5 14t-14.5 6h-134v67h253v-72l-156 -215q-7 -9 -3.5 -14.5t11.5 -5.5h54q23 -1 42 -9q17 -7 32 -22t22 -42h-270z" />
    <glyph glyph-name="braceleft" unicode="{" horiz-adv-x="246" 
d="M170 487q-4 -11 -5 -35.5t-1 -52v-54t-1 -41.5q-1 -6 -4.5 -10l-7 -8t-6.5 -9t-3 -11t3 -10.5t6.5 -8l7 -7t3.5 -9.5q1 -14 0.5 -39t-1.5 -52t-0.5 -51t4.5 -35q8 -23 11 -43q2 -17 -1.5 -35t-20.5 -29q-14 1 -25 13t-19 31.5t-13.5 44t-8.5 49.5q-8 59 -9 134q0 4 -3 11
q-2 6 -7 15t-14 21q17 23 22 36q3 7 3 12q0 71 9 128q3 24 8.5 48t14 43.5t19.5 33t25 16.5q17 -5 21 -20.5t2 -32.5q-2 -19 -9 -43z" />
    <glyph glyph-name="bar" unicode="|" horiz-adv-x="238" 
d="M82 -176v698h74v-698h-74z" />
    <glyph glyph-name="braceright" unicode="}" horiz-adv-x="246" 
d="M192 266q-9 -12 -14 -21t-7 -15q-3 -7 -3 -11q-1 -75 -9 -134q-3 -25 -8.5 -49.5t-14 -44t-19 -31.5t-24.5 -13q-17 11 -20.5 29t-1.5 35q3 20 11 43q4 11 4.5 35t-0.5 51t-1.5 52t0.5 39q0 6 3.5 9.5l7 7t6.5 8t3 10.5t-3 11t-7 9t-7 8t-4 10q-2 15 -1.5 41.5t0.5 54
t-1 52t-5 35.5q-8 24 -10 43q-2 17 2.5 32.5t21.5 20.5q14 -3 25 -16.5t18.5 -33t13 -43.5t9.5 -48q8 -57 10 -128q0 -5 3 -12q2 -6 7 -15t15 -21z" />
    <glyph glyph-name="asciitilde" unicode="~" horiz-adv-x="473" 
d="M424 227q-59 -47 -103 -47q-11 0 -20.5 1.5t-21 5t-26.5 10t-36 16.5q-24 12 -39.5 17t-28.5 5q-48 0 -103 -50v76q55 46 108 46q19 0 38.5 -5.5t53.5 -22.5q32 -15 48 -20.5t30 -5.5q16 0 31.5 5.5t28 13.5t23 16.5t17.5 14.5v-76v0z" />
    <glyph glyph-name="uni00A0" unicode="&#xa0;" horiz-adv-x="250" 
 />
    <glyph glyph-name="cent" unicode="&#xa2;" horiz-adv-x="484" 
d="M226 16v53q-63 2 -95.5 46.5t-32.5 140.5q0 93 33 135.5t95 47.5v54h42v-55q81 -12 92 -109h-70q-3 14 -7.5 27.5t-14.5 19.5v-240q7 4 12.5 10t9.5 12q10 19 33.5 26t43.5 1q-7 -56 -41 -87q-24 -21 -58 -27v-55h-42zM192 187q4 -25 13.5 -37t20.5 -17v241
q-11 -6 -20 -20t-14 -37v-130z" />
    <glyph glyph-name="sterling" unicode="&#xa3;" horiz-adv-x="441" 
d="M216 436q-29 0 -29 -30v-99h104v-73h-104v-130q0 -12 8 -20t21 -8h140v-76h-335v76h42q12 0 19.5 7t7.5 21v133q-9 2 -19.5 6t-20.5 12t-17.5 20.5t-11.5 31.5h69v206h313v-170q-23 3 -37 12t-22 20.5t-11.5 23t-5.5 19.5q-1 6 -7.5 12t-16.5 6h-87z" />
    <glyph glyph-name="yen" unicode="&#xa5;" horiz-adv-x="385" 
d="M13 308h88l-96 205h100l74 -169q8 -19 18.5 -18t18.5 18l71 169h93l-95 -205h87v-46h-108l-26 -57v-7h134v-46h-134v-51q-1 -25 -11 -46q-8 -18 -26 -34t-51 -21v152h-137v46h137v7l-27 57h-110v46z" />
    <glyph glyph-name="copyright" unicode="&#xa9;" horiz-adv-x="584" 
d="M528 231q0 -49 -18.5 -92t-50.5 -75t-75 -50.5t-92 -18.5t-92 18.5t-75 50.5t-50.5 75t-18.5 92t18.5 92t50.5 75t75 50.5t92 18.5t92 -18.5t75 -50.5t50.5 -75t18.5 -92zM483 231q0 39 -15 74t-41 61t-61 41t-74 15t-74 -15t-61 -41t-41 -61t-15 -74t15 -74t41 -61
t61 -41t74 -15t74 15t61 41t41 61t15 74zM377 181q-4 -40 -28 -60q-23 -20 -64 -20q-47 0 -67.5 30.5t-20.5 98.5q0 69 23 98t71 29q74 0 81 -76h-49q-2 14 -8 25.5t-23 9.5q-8 -1 -16.5 -10.5t-13.5 -33.5v-90q4 -25 12.5 -32.5t19.5 -7.5q8 0 17 6t12 14q7 14 23.5 18.5
t30.5 0.5z" />
    <glyph glyph-name="guillemotleft" unicode="&#xab;" horiz-adv-x="398" 
d="M259 191l98 -78l-39 -41l-143 119l142 120l40 -41zM169 72l-143 120l143 119l39 -41l-98 -79l99 -78z" />
    <glyph glyph-name="registered" unicode="&#xae;" horiz-adv-x="584" 
d="M528 231q0 -49 -18.5 -92t-50.5 -75t-75 -50.5t-92 -18.5t-92 18.5t-75 50.5t-50.5 75t-18.5 92t18.5 92t50.5 75t75 50.5t92 18.5t92 -18.5t75 -50.5t50.5 -75t18.5 -92zM483 231q0 39 -15 74t-41 61t-61 41t-74 15t-74 -15t-61 -41t-41 -61t-15 -74t15 -74t41 -61
t61 -41t74 -15t74 15t61 41t41 61t15 74zM398 102q-10 -2 -19 0t-17 4q-9 3 -17 7q-11 7 -15 11.5t-8 11.5q-2 2 -6 10q-4 7 -11 19.5t-18 35.5q-5 8 -13.5 7.5t-8.5 -6.5v-100h-53v254h94q6 0 18.5 -3.5t25.5 -11.5t23 -21.5t10 -33.5q0 -16 -4.5 -27t-11 -18.5t-13 -11.5
t-10.5 -6v1q-4 -3 -4 -7.5t2 -7.5q1 -3 8 -15q6 -11 18 -31.5t33 -56.5zM325 294q0 6 -13 13t-36 5q-4 -1 -7.5 -3t-3.5 -4v-46q0 -4 3.5 -5.5t6.5 -2.5q25 -2 37.5 6.5t12.5 13.5v23z" />
    <glyph glyph-name="guillemotright" unicode="&#xbb;" horiz-adv-x="398" 
d="M230 72l-41 41l99 78l-97 79l39 41l142 -119zM81 72l-39 41l97 78l-98 79l41 41l141 -120z" />
    <glyph glyph-name="onequarter" unicode="&#xbc;" horiz-adv-x="645" 
d="M78 220v41h46v211h-8q-9 1 -17 5q-7 4 -14.5 12t-11.5 24h100v-252h43v-41h-138zM219 0h-57l291 513h57zM614 115q-5 -20 -15.5 -29t-16.5 -9h-8v-77h-46v76h-114v53l97 164h65v-178h38zM528 215q0 7 -7 7.5t-10 -4.5l-48 -85q-5 -8 -2 -13t11 -5h56v100z" />
    <glyph glyph-name="onehalf" unicode="&#xbd;" horiz-adv-x="645" 
d="M427 0q3 26 10.5 45t18.5 35.5t27 32t36 34.5l10 8q15 14 21 27t6 30q0 19 -8 31t-25 12q-20 0 -32.5 -16.5t-17.5 -28.5l-42 20q25 69 93 69q39 0 62 -23.5t23 -62.5q0 -20 -5.5 -35.5t-14.5 -28.5t-20.5 -23.5t-23.5 -20.5q-17 -15 -27.5 -25t-18.5 -20q-11 -16 5 -16
h56q12 -1 23 -5q9 -4 18 -13t14 -26h-188zM219 0h-57l291 513h57zM78 220v41h46v211h-8q-9 1 -17 5q-7 4 -14.5 12t-11.5 24h100v-252h43v-41h-138z" />
    <glyph glyph-name="threequarters" unicode="&#xbe;" horiz-adv-x="645" 
d="M614 115q-5 -20 -15.5 -29t-16.5 -9h-8v-77h-46v76h-114v53l97 164h65v-178h38zM528 215q0 7 -7 7.5t-10 -4.5l-48 -85q-5 -8 -2 -13t11 -5h56v100zM243 300q0 -38 -23 -61t-62 -23q-66 0 -91 69q2 5 7.5 7.5t11 3t10 0l4.5 -0.5q12 -2 18 -7.5t11 -11.5q2 -3 4.5 -6.5
t5.5 -5.5q7 -5 15 -5q18 0 27.5 13t9 29t-13 31t-38.5 20v31q19 4 29.5 12t15.5 16t5.5 14.5l0.5 6.5q0 19 -7.5 30.5t-24.5 11.5q-10 0 -18 -5t-14.5 -11.5t-10.5 -14t-7 -13.5l-40 19q24 68 90 68q39 0 62 -23t23 -61q0 -25 -12 -40q-3 -5 -7 -8.5t-9 -7.5t-5.5 -9.5
t4.5 -8.5q5 -4 9.5 -7t7.5 -8q5 -8 8.5 -18t3.5 -26zM229 0h-57l291 513h57z" />
    <glyph glyph-name="multiply" unicode="&#xd7;" horiz-adv-x="495" 
d="M196 194l-128 128l52 51l107 -107q8 -8 21 -8t20 8l107 107l52 -51l-127 -128l127 -126l-51 -52l-106 106q-8 8 -21 8t-21 -8l-107 -106l-52 52z" />
    <glyph glyph-name="divide" unicode="&#xf7;" horiz-adv-x="519" 
d="M303 335q0 -19 -13 -31.5t-31 -12.5t-31 12.5t-13 30.5q0 19 13 32t31 13t31 -13t13 -31zM70 160v70h379v-70h-379zM303 55q0 -19 -13 -31.5t-31 -12.5t-31 12.5t-13 30.5t13 31t31 13t31 -12.5t13 -30.5z" />
    <glyph glyph-name="kokaithai" unicode="&#xe01;" horiz-adv-x="415" 
d="M367 0q-32 2 -47.5 18t-22.5 36q-8 23 -7 51v191q0 13 -1.5 27t-6.5 26t-16 20t-29 8h-72q-19 0 -19 -18v-359h-99v289q0 4 4 20t18 30l29 28q6 6 6.5 14t-6.5 14l-51 51l213 2q39 0 61 -18.5t32 -46t12 -59.5t2 -59v-265v0z" />
    <glyph glyph-name="khokhaithai" unicode="&#xe02;" horiz-adv-x="362" 
d="M215 0h-104l-100 446h95l59 -282q1 -7 11 -7q4 0 7.5 3t3.5 6l34 196q8 20 21 37q11 14 29.5 28t47.5 19z" />
    <glyph glyph-name="khokhuatthai" unicode="&#xe03;" horiz-adv-x="387" 
d="M238 0h-105l-63 296l-64 145q23 8 40.5 4.5t29.5 -10.5q13 -8 23 -21l39 32l56 -282q1 -7 11 -7q4 0 7.5 3t3.5 6l32 196q7 18 20 35q11 14 30 28t48 21z" />
    <glyph glyph-name="khokhwaithai" unicode="&#xe04;" horiz-adv-x="415" 
d="M368 0q-32 2 -49 18t-25 34q-10 21 -11 47v94q0 36 -0.5 67.5t-0.5 38.5q0 32 -17.5 55t-52.5 23t-52.5 -23t-18.5 -55v-20q0 -19 18 -19h67v-74h-48q-15 0 -26 -10t-11 -27v-149h-93v299q0 31 13 59t35.5 48.5t52 32.5t63.5 12q33 0 61.5 -12t49 -32.5t32.5 -48.5
t13 -59v-299v0z" />
    <glyph glyph-name="khokhonthai" unicode="&#xe05;" horiz-adv-x="415" 
d="M179 186q-15 0 -26.5 -10t-11.5 -27v-149h-94v304q2 53 35.5 92.5t84.5 53.5l48 -31l45 30q50 -14 78 -54t30 -91v-304q-32 5 -49.5 23t-25.5 38q-10 23 -11 50v193h1q-1 21 -8.5 38t-22.5 28l-37 -29l-41 31q-16 -10 -24.5 -27.5t-8.5 -40.5v-23q0 -12 4.5 -16.5
t15.5 -4.5h65v-74h-47z" />
    <glyph glyph-name="khorakhangthai" unicode="&#xe06;" horiz-adv-x="442" 
d="M394 113q0 -47 -21 -77.5t-59 -38.5q-23 -4 -42.5 -0.5t-35.5 11.5t-28.5 18.5t-20.5 20.5l-2 2q-2 2 -6 2l-96 -51v302l-61 139q24 8 42 4.5t30 -11.5q14 -9 23 -23l58 35v-273q0 -15 7 -33t20 -33t30 -25t38 -9q23 2 35.5 20.5t12.5 50.5v234q0 17 9 31q7 12 22.5 23
t44.5 14v-333v0z" />
    <glyph glyph-name="ngonguthai" unicode="&#xe07;" horiz-adv-x="344" 
d="M297 120q0 -60 -35.5 -90t-97.5 -30q-41 3 -72 22q-13 8 -25 21t-20.5 31.5t-12 43.5t0.5 58h82q0 -15 -0.5 -33.5t3 -35.5t13.5 -28.5t31 -11.5q8 0 15.5 2.5t13 9.5t9 20t3.5 33v258h-3q-16 1 -29 7q-11 5 -20.5 16.5t-11.5 32.5h156v-326v0z" />
    <glyph glyph-name="chochanthai" unicode="&#xe08;" horiz-adv-x="356" 
d="M309 118q-1 -29 -12 -54q-9 -21 -29 -40t-57 -24v145q0 14 -10 26.5t-28 12.5h-63v78h85q14 0 15 7.5t0 18.5q-3 36 -19 62t-59 30q-26 2 -47.5 -5t-36.5 -17l-24 60q20 12 51.5 22.5t76.5 8.5q42 -2 71.5 -15t48 -36.5t27 -57t10.5 -74.5v-148z" />
    <glyph glyph-name="chochingthai" unicode="&#xe09;" horiz-adv-x="404" 
d="M261 48q-9 -8 -21 -18.5t-27.5 -19.5t-34 -13.5t-40.5 -1.5q-45 6 -68 36t-23 90v134h85v-108q0 -29 7 -49t33 -20q18 -1 33 6.5t26 19.5t18.5 26.5t10.5 27.5v106q0 51 -18 80t-67 31q-19 -1 -37 -5q-15 -5 -32 -14t-29 -26l-41 53q17 26 43.5 39.5t51.5 19.5q29 7 61 7
q85 -3 123.5 -51.5t41.5 -131.5v-266z" />
    <glyph glyph-name="chochangthai" unicode="&#xe0a;" horiz-adv-x="384" 
d="M373 452q-33 -51 -51.5 -79.5t-28.5 -42.5q-11 -17 -14 -22q-8 -12 -3 -15q4 -3 15 -11.5t22 -25t20 -42.5t9 -65q0 -52 -17.5 -81.5t-41 -44.5t-46 -19t-31.5 -4h-159v446h87v-78q0 -35 11 -46.5t25 -8.5t28.5 15.5t22.5 24.5l35 57q10 16 26 27q14 9 36 14.5t55 0.5z
M255 188q0 7 -5 19t-17 23t-31 17.5t-46 0.5q-7 -1 -14.5 -8t-7.5 -21v-122q0 -9 8 -17t17 -10q24 -3 42 2t30 14t18 20t6 19v63z" />
    <glyph glyph-name="sosothai" unicode="&#xe0b;" horiz-adv-x="413" 
d="M403 452q-32 -51 -51 -79.5t-28 -42.5q-11 -17 -14 -22q-5 -7 -5 -10t2 -5q4 -3 14.5 -11.5t22 -25t20.5 -42.5t9 -65q0 -52 -17.5 -81.5t-41 -44.5t-46 -19t-31.5 -4h-159v298l-63 146q24 8 42 4.5t30 -11.5q14 -9 23 -23l55 35v-81q0 -35 11 -46.5t25 -8.5t28.5 15.5
t21.5 24.5l36 57q10 16 26 27q14 9 36 14.5t54 0.5zM285 188q0 7 -5 19t-17 23t-30.5 17.5t-45.5 0.5q-7 -1 -14.5 -8t-7.5 -21v-122q0 -9 7.5 -17t16.5 -10q24 -3 42 2t30 14t18 20t6 19v63z" />
    <glyph glyph-name="chochoethai" unicode="&#xe0c;" horiz-adv-x="598" 
d="M551 113q0 -47 -24.5 -80t-62.5 -38q-25 -3 -42.5 2t-30 13.5t-21.5 19t-17 20.5l-87 -50v296q0 13 -1.5 27t-6.5 26t-16 20t-29 8h-48q-19 0 -19 -18v-285h36v-74h-135v289q0 4 4 20t18 30l29 28q6 6 6.5 14t-6.5 14l-51 51l189 2q39 0 61 -18.5t32.5 -46t12.5 -59.5
t2 -59v-83q0 -16 3 -34t11 -34t21.5 -26t34.5 -9q43 1 43 65v234q4 17 15 31q10 12 28.5 23t50.5 14v-333v0z" />
    <glyph glyph-name="yoyingthai" unicode="&#xe0d;" horiz-adv-x="603" 
d="M556 14q0 -14 -4.5 -42t-22 -56.5t-51.5 -50t-92 -21.5q-21 1 -44 6q-20 5 -43 14t-45 27q8 20 22 27.5t27 9.5q15 2 31 -1q12 -3 25 -7.5t27 -4.5q42 0 61 28t19 79q0 9 -4.5 10.5t-7.5 -2.5q-11 -13 -30 -26.5t-48 -13.5q-35 0 -56.5 15.5t-33.5 37.5t-16 46t-4 40v167
q0 13 -1.5 27t-6.5 26t-16 20t-29 8h-48q-19 0 -19 -18v-285h36v-74h-135v289q0 4 4 20t18 30l29 28q6 6 6.5 14t-6.5 14l-51 51l189 2q39 0 61 -18.5t32.5 -46t12.5 -59.5t2 -59v-123q0 -32 14 -47.5t46 -15.5q53 0 53 65v234q4 17 16 31q11 12 30 23t53 14v-432v0z" />
    <glyph glyph-name="dochadathai" unicode="&#xe0e;" horiz-adv-x="423" 
d="M375 -60q0 -41 -15.5 -62.5t-35.5 -30.5t-40 -9.5t-29 -0.5h-49l-24 23q-4 3 -12.5 3.5t-13.5 -4.5l-22 -22h-37q-18 1 -34 10q-14 8 -26.5 24t-17.5 46h108l31 33q12 11 21 1l33 -34h39q6 0 14 1t15.5 5t12.5 11.5t5 19.5v342q0 13 -1.5 27t-6.5 26t-16 20t-29 8h-80
q-19 0 -19 -18v-359h-138v74h39v214q0 4 4 20.5t18 29.5l30 29q6 5 6 13t-7 15l-51 51l221 2q39 0 61 -18.5t32 -46t12 -59.5t2 -59v-325v0z" />
    <glyph glyph-name="topatakthai" unicode="&#xe0f;" horiz-adv-x="423" 
d="M376 -60q0 -41 -15.5 -62.5t-36 -30.5t-40.5 -9.5t-29 -0.5h-16l-21 24q-5 5 -11 4.5t-10 -5.5l-18 -23h-28l-17 23q-4 5 -11 4.5t-11 -5.5l-18 -22q-18 1 -34 10q-14 8 -27 24t-18 46h66l33 35q9 10 18 0l34 -35l33 35q9 10 18 0l34 -35q26 0 36.5 7.5t10.5 29.5v342
q0 13 -1.5 27t-6.5 26t-16 20t-29 8h-80q-19 0 -19 -18v-359h-138v74h39v214q0 4 4 20.5t18 29.5l30 29q6 5 6 13t-7 15l-51 51l221 2q39 0 61 -18.5t32 -46t12 -59.5t2 -59l1 -325v0z" />
    <glyph glyph-name="thothanthai" unicode="&#xe10;" horiz-adv-x="410" 
d="M363 218q-1 -71 -18.5 -114t-40 -66t-42.5 -30.5t-25 -7.5h-102l-55 240l74 18l36 -151q5 -20 10.5 -26t18.5 -6q14 0 31 34t17 99v72q0 49 -20 76.5t-61 27.5q-3 0 -15.5 -1.5t-28.5 -8.5t-32 -21.5t-25 -39.5l-65 29q14 41 39 63.5t50.5 33.5t46 13t26.5 2
q25 0 44 -7.5t32 -14t19.5 -8t6.5 11.5v9l79 47v-274zM352 -60q0 -41 -16 -62.5t-37 -30.5t-41.5 -9.5t-29.5 -0.5h-16l-26 27q-5 5 -12.5 4t-11.5 -5l-25 -26h-19q-18 1 -34 10q-14 8 -26 24t-16 46h89l33 35q9 10 18 0l34 -35q28 0 34.5 5.5t6.5 28.5v21h95v-32z" />
    <glyph glyph-name="thonangmonthothai" unicode="&#xe11;" horiz-adv-x="440" 
d="M393 0q-35 3 -53.5 13.5t-27.5 22.5q-11 14 -12 31v234q0 32 -12.5 51t-35.5 20q-21 1 -38 -9t-30 -25t-20 -32.5t-7 -33.5v-272h-92v300l-61 144q24 8 41.5 4.5t29.5 -11.5q13 -9 23 -23l59 35v-43q0 -11 12 -11q5 0 8 3q14 18 40.5 35.5t62.5 17.5q24 -1 44.5 -10.5
t35.5 -25t24 -37t9 -45.5v-333v0z" />
    <glyph glyph-name="thophuthaothai" unicode="&#xe12;" horiz-adv-x="626" 
d="M579 133q0 -33 -9.5 -59t-25.5 -44t-36 -28t-41 -10q-26 0 -49.5 16.5t-42.5 51.5l-82 -62v359q0 9 -8.5 8.5t-11.5 -2.5l-29 -28q-7 14 -19 27t-29 13q-26 1 -42 -19.5t-23 -47.5v-164q7 -26 23.5 -46t46.5 -23q10 -1 20.5 0.5t18.5 7.5l11 -67q-24 -24 -69 -24
q-44 0 -73 23t-46.5 57.5t-25 75t-7.5 76.5t8 76.5t26.5 74.5t48.5 56t74 21q19 -1 33.5 -11.5t25.5 -24.5q2 -2 6.5 -2.5t7.5 2.5l30 30h83v-273q0 -14 3 -30t10.5 -30.5t21 -24t33.5 -9.5q18 0 28.5 9.5t16.5 23t7.5 29.5t1.5 30v194q0 18 10 34q8 14 25 26.5t49 18.5
v-311v0z" />
    <glyph glyph-name="nonenthai" unicode="&#xe13;" horiz-adv-x="600" 
d="M476 56q-3 -6 -10 -17t-19.5 -22t-30 -19t-40.5 -8q-35 0 -56.5 16t-33.5 38.5t-16 46t-4 37.5v168q0 13 -1.5 27t-6.5 26t-16 20t-29 8h-48q-19 0 -19 -18v-285h36v-74h-135v289q0 4 4 20t18 30l29 28q6 6 6.5 14t-6.5 14l-51 51l189 2q39 0 61 -18.5t32.5 -46
t12.5 -59.5t2 -59v-94q0 -15 1.5 -31.5t8 -30t19 -22t34.5 -8.5q23 0 41.5 16.5t18.5 48.5v234q1 17 11 31q8 12 25.5 22.5t49.5 14.5v-446z" />
    <glyph glyph-name="dodekthai" unicode="&#xe14;" horiz-adv-x="419" 
d="M371 0q-32 11 -48 26.5t-23 29.5q-8 17 -7 35v179q0 19 -3.5 38t-11.5 34t-23 24t-37 10q-36 1 -57.5 -18t-32.5 -47v-174q9 -24 26.5 -41.5t46.5 -20.5q10 -3 20.5 0.5t18.5 9.5l10 -67q-11 -13 -30 -19q-9 -3 -23.5 -4.5t-24.5 -1.5q-43 0 -70.5 23t-44 57.5t-23 75.5
t-6.5 77q0 45 11.5 86t34.5 72.5t59 50t84 18.5q38 0 67 -12.5t48.5 -34.5t29 -52t9.5 -66v-288v0z" />
    <glyph glyph-name="totaothai" unicode="&#xe15;" horiz-adv-x="415" 
d="M368 0q-32 5 -48 19.5t-23 30.5q-8 18 -7 41v265q0 9 -8.5 8.5t-11.5 -2.5l-29 -27q-7 14 -19 27t-29 13q-26 1 -42 -19.5t-23 -47.5v-164q7 -26 23.5 -45t46.5 -22q9 -1 20 0t19 8l10 -67q-14 -14 -32 -19.5t-37 -5.5q-44 0 -73.5 23t-47 58t-24.5 75.5t-7 76.5
q0 35 7.5 75t25.5 74t47 56.5t72 22.5q22 0 34.5 -8t26.5 -24q5 -7 9 -7t10 5l28 26h82v-446v0z" />
    <glyph glyph-name="thothungthai" unicode="&#xe16;" horiz-adv-x="422" 
d="M375 0q-32 2 -47.5 18t-22.5 36q-8 23 -7 51v191q0 13 -1.5 27t-6.5 26t-16 20t-29 8h-80q-19 0 -19 -18v-284h51v-75h-150v289q0 4 4 20t18 30l29 28q6 6 6.5 14t-6.5 14l-51 51l221 2q39 0 61 -18.5t32 -46t12 -59.5t2 -59v-265v0z" />
    <glyph glyph-name="thothahanthai" unicode="&#xe17;" horiz-adv-x="414" 
d="M367 0q-32 3 -49 13.5t-25 22.5q-10 14 -11 31v234q0 32 -12.5 51t-35.5 20q-21 1 -38 -9t-29 -25t-19 -32.5t-7 -33.5v-272h-94v446h94v-31q0 -8 4.5 -16t15.5 -1q8 10 19 21t25.5 19t32.5 11t40 -1q38 -8 63.5 -38.5t25.5 -76.5v-333v0z" />
    <glyph glyph-name="thothongthai" unicode="&#xe18;" horiz-adv-x="395" 
d="M361 388q-6 -19 -17 -27t-22 -10q-13 -3 -27 0q-15 1 -24.5 5.5t-18 9.5t-17.5 10.5t-23 8.5t-27.5 1.5t-24 -6t-17 -11.5t-6.5 -16q0 -8 5.5 -16t20.5 -16l124 -67q29 -17 51 -46.5t22 -78.5q0 -65 -44 -99.5t-118 -34.5q-18 0 -42 0.5t-45 1.5q-26 1 -51 3v195h70v-93
v-13t3 -13t11 -10t25 -4h29q29 0 52.5 16t23.5 51q0 12 -5.5 22t-12.5 17q-8 8 -17 14l-118 61q-27 13 -41.5 29t-21.5 31t-8.5 27.5t-1.5 20.5q0 33 17 53.5t42.5 32t55.5 15t56 1.5q27 -2 52 -12t44 -21.5t31.5 -21t14.5 -10.5z" />
    <glyph glyph-name="nonuthai" unicode="&#xe19;" horiz-adv-x="412" 
d="M286 60q-9 -8 -23 -20.5t-32 -23t-38.5 -17t-42.5 -3.5q-45 7 -72.5 37t-27.5 90v323h98v-306q0 -29 15.5 -46t41.5 -18q23 0 39.5 12.5t26.5 30t14.5 36t4.5 29.5v167q0 22 8 41q7 17 22.5 32t47.5 22v-446z" />
    <glyph glyph-name="bobaimaithai" unicode="&#xe1a;" horiz-adv-x="417" 
d="M370 155v-24.5t-4 -33t-13 -35.5t-27.5 -32.5t-47.5 -24t-73 -9.5q-43 0 -71.5 9t-46 23.5t-26 32.5t-12 35t-3 32t0.5 24v294h98v-282q0 -7 -0.5 -22.5t5.5 -31.5t21.5 -28t47.5 -12q30 0 45.5 12t22 28.5t7 32t0.5 23.5v185q-1 22 7 41q7 17 22.5 32t46.5 22v-291v0z
" />
    <glyph glyph-name="poplathai" unicode="&#xe1b;" horiz-adv-x="420" 
d="M370 155v-24.5t-4 -33t-13 -35.5t-27.5 -32.5t-47.5 -24t-73 -9.5q-43 0 -71.5 9t-46 23.5t-26 32.5t-12 35t-3 32t0.5 24v294h98v-282q0 -7 -0.5 -22.5t5.5 -31.5t21.5 -28t47.5 -12q30 0 45.5 12t22 28.5t7 32t0.5 23.5v324q-1 22 7 41q7 17 22.5 32t46.5 22v-430v0z
" />
    <glyph glyph-name="phophungthai" unicode="&#xe1c;" horiz-adv-x="474" 
d="M392 0h-77l-49 141q-3 10 -11.5 14.5t-17.5 4t-17 -5t-11 -12.5l-57 -142h-77q-12 110 -20.5 179.5t-13.5 110.5q-6 48 -10 71q-3 26 2 42.5t14 26t19 13t16 3.5h89v-59q-17 -1 -25.5 -3.5t-12.5 -5.5q-4 -4 -5 -8q1 -4 3.5 -23t6 -44.5t7 -53t5.5 -49.5q2 -10 12 -10
q7 0 10 6l57 120h32l49 -137q3 -7 10 -7q9 0 11 9l18 198q3 18 14 32q9 12 26 22.5t46 12.5z" />
    <glyph glyph-name="fofathai" unicode="&#xe1d;" horiz-adv-x="474" 
d="M393 0h-78l-49 141q-3 10 -11.5 14.5t-17.5 4t-17 -5t-11 -12.5l-57 -142h-76q-12 110 -21 179.5t-14 110.5q-6 48 -10 71q-3 26 2 42.5t14 26t19 13t16 3.5h89v-59q-17 -1 -25.5 -3.5t-12.5 -5.5q-4 -4 -4 -8q1 -4 3.5 -23t6 -44.5t7 -53.5t5.5 -50q2 -10 11 -10
q6 0 10 6l58 121h31l49 -137q3 -7 11 -7q9 0 11 10l32 316q4 18 15 35q9 14 26.5 29t47.5 24z" />
    <glyph glyph-name="phophanthai" unicode="&#xe1e;" horiz-adv-x="474" 
d="M402 0h-101l-35 125q-5 25 -22.5 25t-25.5 -25l-38 -125h-101l-53 446h100l32 -257q2 -11 9 -10.5t9 7.5l55 260h26q13 -63 23 -108.5t16.5 -77t11 -51t6.5 -30.5q5 -26 3 -15q1 -7 11 -7q5 0 8 3t3 6l23 196q4 18 15 35q9 14 26.5 28t46.5 21z" />
    <glyph glyph-name="fofanthai" unicode="&#xe1f;" horiz-adv-x="474" 
d="M401 0h-101l-35 125q-5 25 -22.5 25t-25.5 -25l-38 -125h-101l-53 446h100q7 -58 12 -99.5t9 -70.5t6 -46.5t3 -27.5q3 -23 2 -14q1 -11 8 -11.5t9 7.5l56 262h26l61 -283v-1q1 -6 10 -6t11 8l37 324q5 21 16 40q10 16 27 32.5t46 25.5z" />
    <glyph glyph-name="phosamphaothai" unicode="&#xe20;" horiz-adv-x="423" 
d="M376 0q-32 2 -48 18t-23 36q-8 23 -7 51v42.5t0.5 49t0.5 51v48.5q0 13 -1.5 27.5t-7 26.5t-16.5 20t-29 8l-80 -1q-19 0 -19 -18v-359h-138v74h39v214q0 4 4 20.5t18 29.5l30 29q6 5 6 13t-7 15l-51 51l221 2q39 0 61 -18.5t32.5 -46t12.5 -59.5t2 -59v-265v0z" />
    <glyph glyph-name="momathai" unicode="&#xe21;" horiz-adv-x="414" 
d="M367 112q0 -24 -8 -45t-22.5 -37t-35 -25.5t-44.5 -9.5q-20 0 -38 6t-34 16t-29 21.5t-22 22.5l-87 -61v446h97v-273q0 -15 5.5 -32.5t16.5 -32.5t26.5 -25t35.5 -10q29 0 45.5 21.5t16.5 49.5v234q-1 17 7 31q7 12 22.5 22.5t47.5 14.5v-334v0z" />
    <glyph glyph-name="yoyakthai" unicode="&#xe22;" horiz-adv-x="402" 
d="M355 133q0 -24 -9.5 -48t-28.5 -44t-49 -32.5t-70 -12.5q-45 0 -77 11.5t-52.5 31t-30 45.5t-9.5 54t15 54.5t42 41.5q11 6 10.5 17t-10.5 16q-27 14 -39 35t-12 53q0 44 32 69t78 25q28 0 51.5 -4t31.5 -8l-10 -57q-10 4 -22.5 6t-25 1t-23 -6t-16.5 -15v-45
q13 -22 46 -28q9 -2 18.5 -2.5t17.5 -2.5v-53q-28 0 -51.5 -18t-30.5 -36v-79q5 -12 24 -27t48 -15q35 0 54.5 24t19.5 53v205q-1 25 7 46q7 18 23 35t48 23v-313v0z" />
    <glyph glyph-name="roruathai" unicode="&#xe23;" horiz-adv-x="369" 
d="M336 123q0 -24 -7.5 -47t-25 -41t-45.5 -28.5t-68 -10.5q-44 0 -75 17t-50.5 37.5t-28.5 38.5l-10 20q15 8 29.5 8.5t25.5 -1.5q13 -3 25 -9q16 -7 25.5 -14.5t17 -13.5t16.5 -10.5t24 -6.5q3 0 12 1t18.5 6.5t17 16t7.5 28.5q0 7 -2.5 15.5t-10.5 18t-22.5 19.5
t-38.5 20q-34 14 -57.5 28.5t-38 31.5t-21 37t-6.5 46q0 23 8 44.5t24.5 38t43 27t63.5 11.5q23 0 46 -3q20 -2 42.5 -7.5t42.5 -16.5l-18 -63q-14 5 -39 14.5t-63 8.5q-32 -1 -48 -16t-16 -28q0 -15 14.5 -34t61.5 -38q42 -16 67 -36t38.5 -40.5t17.5 -38.5t4 -30z" />
    <glyph glyph-name="ruthai" unicode="&#xe24;" horiz-adv-x="423" 
d="M375 -166q-32 2 -47.5 18t-22.5 36q-8 23 -7 51v357q0 13 -1.5 27t-6.5 26t-16 20t-29 8h-80q-19 0 -19 -18v-284h51v-75h-150v289q0 4 4 20t18 30l29 28q6 6 6.5 14t-6.5 14l-51 51l221 2q39 0 61 -18.5t32 -46t12 -59.5t2 -59v-431v0z" />
    <glyph glyph-name="lolingthai" unicode="&#xe25;" horiz-adv-x="402" 
d="M355 0q-32 5 -49 22t-25 34q-10 20 -10 45v63q0 15 -10 26t-27 11t-37.5 -4.5t-38 -15t-28 -26.5t-8.5 -40q2 -17 15.5 -25.5t30.5 -12t32 -3.5h20v-71q0 -1 -13 -3.5t-33 -2.5t-43.5 4.5t-44 18t-34.5 38t-15 65.5q-1 33 10.5 59t32.5 44.5t49.5 29.5t61.5 15
q47 5 66.5 23t17 37.5t-23.5 35t-54 15.5q-25 -1 -48 -6q-20 -5 -41.5 -15.5t-37.5 -29.5l-35 56q22 23 51.5 35t55.5 18q31 7 63 8q43 0 72 -10.5t46 -27.5t24.5 -40.5t7.5 -48.5v-321v0z" />
    <glyph glyph-name="luthai" unicode="&#xe26;" horiz-adv-x="423" 
d="M376 -166q-32 2 -48 18t-23 36q-8 23 -7 51v40v61.5t0.5 73t0.5 74v64v44.5q0 13 -1.5 27.5t-7 26.5t-16.5 20t-29 8l-80 -1q-19 0 -19 -18v-359h-138v74h39v214q0 4 4 20.5t18 29.5l30 29q6 5 6 13t-7 15l-51 51l221 2q39 0 61 -18.5t32.5 -46t12.5 -59.5t2 -59v-431v0z
" />
    <glyph glyph-name="wowaenthai" unicode="&#xe27;" horiz-adv-x="382" 
d="M334 185q0 -26 -5.5 -58.5t-22.5 -62t-48.5 -49.5t-84.5 -20q-31 0 -53 9t-37 23l48 63q9 -10 21 -17t26 -7q38 0 48.5 23.5t10.5 69.5v132q0 15 -3.5 32t-11.5 31t-20.5 23t-31.5 9q-17 0 -27.5 -5.5t-18.5 -14t-15 -18t-17 -17.5q-8 -6 -18 -10q-8 -3 -20.5 -4.5
t-26.5 2.5q3 49 27.5 75.5t53.5 39.5q33 14 74 17q40 0 68.5 -16t47 -42.5t27.5 -61t9 -71.5v-75v0z" />
    <glyph glyph-name="sosalathai" unicode="&#xe28;" horiz-adv-x="415" 
d="M282 0v311q0 30 -18.5 48.5t-51.5 18.5q-35 0 -52.5 -22.5t-18.5 -54.5v-23q0 -18 16 -18h69v-74h-48q-15 0 -26 -10t-11 -27v-40q-1 -28 -12 -51q-9 -20 -28 -37t-54 -21v301h1q0 31 13 59t35.5 48t52 32t63.5 12q38 0 70 -15v6l86 63v-506h-86z" />
    <glyph glyph-name="sorusithai" unicode="&#xe29;" horiz-adv-x="426" 
d="M443 271q-8 -24 -19 -37t-21 -20q-11 -8 -24 -10v-50q0 -13 -0.5 -39t-14.5 -52t-47.5 -45.5t-99.5 -19.5q-65 0 -99.5 19t-50.5 44.5t-18 51t-2 38.5v295h105v-294q0 -7 1 -22.5t7.5 -31.5t22.5 -28t46 -12q25 0 39 12t21.5 28.5t9.5 32t2 23.5v28q0 14 -5.5 18t-15.5 4
h-50v67h48q11 0 17 4.5t6 20.5v57q-1 22 7 40q7 16 23 31t48 21v-174h64v0z" />
    <glyph glyph-name="sosuathai" unicode="&#xe2a;" horiz-adv-x="403" 
d="M355 0q-32 5 -48.5 22t-24.5 34q-9 20 -10 45v63q0 15 -10.5 26t-27.5 11t-37.5 -4.5t-38 -15t-28 -26.5t-8.5 -40q2 -17 15.5 -25.5t30.5 -12t32 -3.5h20v-71q0 -1 -13 -3.5t-33 -2.5t-43.5 4.5t-44 18t-34.5 38t-15 65.5q-1 33 10.5 59t32.5 44.5t49.5 29.5t61.5 15
q48 5 67.5 23.5t17 38t-23.5 35t-55 14.5q-19 -2 -40 -7q-18 -5 -40.5 -15t-46.5 -29l-29 60q25 21 53.5 33t53.5 17q29 6 57 7q37 0 66 -8v1l84 63v-504v0z" />
    <glyph glyph-name="hohipthai" unicode="&#xe2b;" horiz-adv-x="415" 
d="M284 356q-8 -7 -7.5 -16t14.5 -13q12 -3 22 -7.5t21 -13.5q10 -10 17 -20t10.5 -22.5t5 -29t1.5 -39.5v-195q-32 6 -49 21.5t-25 32.5q-10 19 -11 42v89q0 35 -7 53.5t-27 28.5q-17 8 -38 8.5t-38 -1.5q-11 -2 -20.5 -9.5t-9.5 -18.5v-246h-96v446h96v-84q0 -11 7 -16
t12 -5t11.5 2t14.5 11l56 56q8 9 19 15t20 11l22 8q11 3 24 4q11 1 25.5 0.5t30.5 -2.5z" />
    <glyph glyph-name="lochulathai" unicode="&#xe2c;" horiz-adv-x="451" 
d="M389 438q-8 -8 -5.5 -15t6.5 -9q21 -11 29.5 -39t8.5 -62l-35 -313h-95l-34 123q-2 7 -9 11.5t-15 5t-15 -3t-10 -11.5l-38 -125h-98l-53 446h94q7 -58 12 -99.5t9 -70.5t6 -46.5t3 -27.5q3 -23 2 -14q2 -14 10 -13t10 9l56 186h26l58 -198q2 -8 8.5 -9.5t8.5 9.5l15 133
q0 13 -2 30t-9.5 33.5t-21 30t-36.5 18.5l57 58q13 13 29 20q8 4 16 6t19 2q9 0 22.5 -1.5t30.5 -7.5z" />
    <glyph glyph-name="oangthai" unicode="&#xe2d;" horiz-adv-x="415" 
d="M380 220q0 -57 -13.5 -99.5t-37.5 -70t-55.5 -41.5t-67.5 -14q-37 0 -67.5 10.5t-52 30t-33 47t-11.5 60.5v110h161q-1 -25 -10 -38.5t-20 -19.5q-13 -7 -29 -8h-10v-50q0 -27 10.5 -41t24.5 -21q15 -8 35 -9q29 0 48.5 13.5t29.5 46.5v181q-13 42 -35.5 58.5t-42.5 16.5
q-24 0 -47.5 -16t-34.5 -58l-81 17q11 47 37.5 71.5t54.5 36.5q33 13 71 16q50 0 83.5 -17t54 -47.5t29.5 -72.5t9 -92z" />
    <glyph glyph-name="honokhukthai" unicode="&#xe2e;" horiz-adv-x="430" 
d="M382 218q0 -58 -14.5 -100t-38.5 -69.5t-56 -40.5t-68 -13q-37 0 -67.5 10.5t-52 30t-33 47t-11.5 60.5v110h151q-1 -25 -10 -38.5t-20 -19.5q-13 -7 -29 -8v-50q0 -27 10.5 -41t24.5 -21q15 -8 35 -9q35 0 57 22t28 79v107q-7 58 -26.5 83t-57.5 25q-24 0 -48 -16
t-35 -58l-81 17q11 47 37.5 71.5t54.5 36.5q33 13 71 16q49 0 86 -17v3l93 70v-287z" />
    <glyph glyph-name="paiyannoithai" unicode="&#xe2f;" horiz-adv-x="440" 
d="M368 0q-32 7 -49.5 24t-25.5 34q-10 20 -11 44v144q0 17 -6 28t-23 5q-12 -5 -31 -7.5t-46 2.5q-17 3 -33 10.5t-29 21t-21 33t-8 45.5v62h93v-55q0 -27 16 -39t35.5 -12.5t35.5 10.5t16 31v65h87v-446v0z" />
    <glyph glyph-name="saraathai" unicode="&#xe30;" horiz-adv-x="249" 
d="M218 351q-7 -23 -21.5 -35.5t-28.5 -17.5q-18 -7 -37 -7h-84v94h80v-12q0 -8 5.5 -15t13.5 -7h72zM218 124q-7 -23 -21.5 -35t-28.5 -18q-18 -7 -37 -8h-84v94h80v-12q0 -8 5.5 -14.5t13.5 -6.5h72z" />
    <glyph glyph-name="maihanakatthai" unicode="&#xe31;" 
d="M-13 567q-14 -25 -32 -37.5t-35 -17.5q-19 -6 -39 -6h-176v105h90v-14q0 -11 9.5 -20.5t23.5 -9.5h159v0z" />
    <glyph glyph-name="saraaathai" unicode="&#xe32;" horiz-adv-x="299" 
d="M252 0q-35 3 -54 19.5t-27 35.5q-11 22 -11 49v185q0 59 -10.5 80.5t-42.5 21.5q-17 0 -32 -10.5t-24 -36.5l-52 41q14 23 32.5 35.5t36.5 18.5q20 7 43 8q39 0 66 -13t43.5 -38t24 -60t7.5 -78v-258v0z" />
    <glyph glyph-name="saraamthai" unicode="&#xe33;" horiz-adv-x="299" 
d="M6 568q0 -32 -23 -54.5t-55 -22.5t-54.5 22.5t-22.5 54.5t22.5 54.5t54.5 22.5t55 -22.5t23 -54.5zM252 0q-35 3 -54 19.5t-27 35.5q-11 22 -11 49v185q0 59 -10.5 80.5t-42.5 21.5q-17 0 -32 -10.5t-24 -36.5l-52 41q14 23 32.5 35.5t36.5 18.5q20 7 43 8q39 0 66 -13
t43.5 -38t24 -60t7.5 -78v-258zM-38 568q0 12 -8.5 20.5t-20.5 8.5q-11 0 -19.5 -8.5t-8.5 -20.5t8.5 -20.5t19.5 -8.5q12 0 20.5 8.5t8.5 20.5z" />
    <glyph glyph-name="saraithai" unicode="&#xe34;" 
d="M-362 512q12 26 30 40t35 20q19 7 41 6h209v-66h-315z" />
    <glyph glyph-name="saraiithai" unicode="&#xe35;" 
d="M-366 512q14 26 34.5 40t38.5 20q21 7 43 6h110v29l92 48v-143h-318z" />
    <glyph glyph-name="sarauethai" unicode="&#xe36;" 
d="M-43 582q0 -29 -20.5 -49.5t-49.5 -20.5h-252q12 26 30 40t35 20q19 7 41 6h62q11 0 12.5 6t2.5 11q5 24 24 40.5t45 16.5q29 0 49.5 -20.5t20.5 -49.5zM-83 582q0 11 -7.5 18t-18.5 7t-18 -7t-7 -18t7 -18.5t18 -7.5t18.5 7.5t7.5 18.5z" />
    <glyph glyph-name="saraueethai" unicode="&#xe37;" 
d="M-365 512q13 26 31.5 40t35.5 20q20 7 42 6h42v76l69 -38v-38h28v38l69 38v-142h-317z" />
    <glyph glyph-name="sarauthai" unicode="&#xe38;" 
d="M-47 -134q-1 -16 -11 -27q-8 -11 -25 -19t-49 -10v69q0 12 -9 20t-19 8h-15v47h128v-88v0z" />
    <glyph glyph-name="sarauuthai" unicode="&#xe39;" 
d="M-48 -103q0 -19 -9 -31t-23 -18.5t-32.5 -9t-37.5 -2.5q-43 0 -73.5 10t-30.5 36v26h-23v47h107v-53q0 -23 29 -23q10 0 16.5 5t6.5 18v4q1 13 9 24q7 9 21 16.5t40 8.5v-58v0z" />
    <glyph glyph-name="phinthuthai" unicode="&#xe3a;" 
d="M-42 -81q0 -17 -13.5 -28.5t-33.5 -11.5t-33.5 11.5t-13.5 28.5t13.5 28.5t33.5 11.5t33.5 -11.5t13.5 -28.5z" />
    <glyph glyph-name="PUCR2005" unicode="&#xe3e;" 
 />
    <glyph glyph-name="bahtthai" unicode="&#xe3f;" horiz-adv-x="454" 
d="M421 141q-8 -40 -28 -71q-17 -26 -50.5 -48t-88.5 -22h-9v-47h-46v47h-154v513h154v47h46v-48q16 -2 41 -8t48 -19t40 -34.5t17 -54.5q0 -25 -7 -42.5t-16.5 -29t-19 -18t-13.5 -9.5q-10 -7 -6.5 -17.5t19.5 -19.5q27 -14 42 -32.5t21.5 -35.5t8 -31t1.5 -20zM301 379
q-2 30 -17.5 43.5t-38.5 16.5v-119q23 5 40 18t16 41zM199 441q-5 -1 -8.5 -1t-7.5 -1q-11 -1 -24.5 -4.5t-13.5 -15.5v-78q0 -8 4 -12t9.5 -6.5t11.5 -3t10 -1.5t9 -1t10 -1v125zM314 158q-1 25 -18 46.5t-51 30.5v-159q32 6 51 26t18 56zM199 240q-4 0 -8 -0.5t-8 -0.5
q-11 -2 -24 -5.5t-13 -15.5v-119q0 -7 4 -11t9.5 -6.5t11 -3.5t9.5 -1q5 -1 9.5 -1.5t9.5 -0.5v165z" />
    <glyph glyph-name="saraethai" unicode="&#xe40;" horiz-adv-x="188" 
d="M47 0v446q35 -11 53.5 -28.5t27.5 -34.5q11 -20 12 -41v-342h-93z" />
    <glyph glyph-name="saraaethai" unicode="&#xe41;" horiz-adv-x="331" 
d="M196 0v446q35 -10 53 -27t26 -34q9 -20 9 -43v-342h-88zM47 0v446q35 -9 53 -26.5t26 -34.5q9 -20 9 -43v-342h-88z" />
    <glyph glyph-name="saraothai" unicode="&#xe42;" horiz-adv-x="205" 
d="M239 717q-3 -24 -16 -37.5t-27 -19.5q-17 -7 -37 -8q-7 0 -17 1t-37 1q-26 0 -39 -13v-40q1 -1 1.5 -1t1.5 -1l71 -67q14 -12 15.5 -27.5t1.5 -20.5v-484q-35 2 -54 21t-28 42q-11 26 -12 60v355q0 10 -2 16.5t-9 13.5l-60 58q-10 9 -13.5 22.5t-3.5 25.5q0 26 11.5 46
t30 33.5t41.5 20.5t47 7q31 0 43 -0.5t20 -1.5q3 0 10.5 -0.5t18 -1t21.5 -0.5h21z" />
    <glyph glyph-name="saraaimaimuanthai" unicode="&#xe43;" horiz-adv-x="205" 
d="M244 594q0 -24 -7.5 -41.5t-18.5 -29.5t-24 -20.5t-23 -15.5q-3 -2 -8 -8.5t-5 -15.5v-463q-35 4 -54 23t-28 42q-11 26 -12 58v342q0 29 18 46.5t35 29.5q29 20 37 38v47q-11 26 -45 26q-22 0 -33.5 -10.5t-19.5 -23.5t-20 -23q-11 -8 -28 -13t-40 1q0 20 8 44
t25.5 44.5t44.5 35t66 15.5q28 1 52.5 -8.5t42 -26.5t27.5 -41t10 -52z" />
    <glyph glyph-name="saraaimaimalaithai" unicode="&#xe44;" horiz-adv-x="204" 
d="M158 0q-35 4 -54 23t-28 42q-11 26 -12 58v449h-43l-107 147q29 5 49 0.5t34 -12.5q16 -9 27 -22l15 -25q4 -6 12.5 -6t11.5 6l15 29q7 15 20.5 22t27 5.5t23 -13t9.5 -33.5v-670v0z" />
    <glyph glyph-name="lakkhangyaothai" unicode="&#xe45;" horiz-adv-x="303" 
d="M257 -166q-35 3 -54 20t-27 36q-11 22 -11 49v350q0 59 -10.5 80.5t-42.5 21.5q-17 0 -32 -10.5t-24 -36.5l-52 41q14 23 32.5 35.5t36.5 18.5q20 7 43 8q39 0 66 -13t43.5 -38t24 -60t7.5 -78v-424v0z" />
    <glyph glyph-name="maiyamokthai" unicode="&#xe46;" horiz-adv-x="404" 
d="M357 -139q-35 3 -54 20t-27 37q-11 23 -11 50v363q0 27 -4.5 38t-17.5 13q-8 2 -17.5 -5.5t-20.5 -30.5h-15q-7 17 -14.5 25t-14.5 11q-8 4 -16 2q-11 -3 -13 -12.5t-0.5 -19t4.5 -16.5t3 -6l-56 -21q-6 15 -10 35.5t-1.5 40.5t13 36.5t34.5 23.5q12 4 32 1t34 -24
q6 -9 14 -8.5t13 5.5q10 12 18.5 19t23.5 11q14 4 25.5 3t21 -4.5t16.5 -8.5t11 -9q12 -12 18 -28t8.5 -40.5t2.5 -59.5v-85v-356v0z" />
    <glyph glyph-name="maitaikhuthai" unicode="&#xe47;" 
d="M-22 645q-9 -16 -19.5 -24.5t-19.5 -12.5q-11 -4 -21 -5l-160 -1q-18 0 -27 -14v-25q5 -7 13 -10.5t16 1.5l41 24q10 -6 19 -11q8 -5 14.5 -9t8.5 -6q5 -4 9.5 -2t4.5 8v10l65 25v-86h-76l-31 18q-5 2 -13.5 2.5t-13.5 -2.5l-30 -18h-50q-29 0 -42 21t-13 42q0 37 22 57
t60 19l243 -1v0z" />
    <glyph glyph-name="maiekthai" unicode="&#xe48;" 
d="M-140 673v118h92v-70z" />
    <glyph glyph-name="maithothai" unicode="&#xe49;" 
d="M-11 747q-5 -21 -17 -32.5t-24 -16.5q-14 -6 -30 -7h-111v45h-37v55h122v-34q0 -10 9 -10h88v0z" />
    <glyph glyph-name="maitrithai" unicode="&#xe4a;" 
d="M-36 745q2 -21 -5.5 -32.5t-18.5 -16.5q-12 -6 -28 -7h-62l3 39l-39 -35h-12l-38 35l3 -39h-62v101h65l26 -31q5 -6 14 -5t14 7l23 29h66v-43q0 -13 11 -10l40 8v0z" />
    <glyph glyph-name="maichattawathai" unicode="&#xe4b;" 
d="M-47 716v-30l-76 -13v43h-54v42h54v37h76v-37h54v-42h-54z" />
    <glyph glyph-name="thanthakhatthai" unicode="&#xe4c;" 
d="M3 730q-3 -19 -13 -28.5t-21 -14.5q-13 -5 -29 -6h-43v-44h-83q-9 35 -4.5 53.5t14.5 27.5q11 11 28 12h151v0z" />
    <glyph glyph-name="nikhahitthai" unicode="&#xe4d;" 
d="M16 568q0 -32 -23 -54.5t-55 -22.5t-54.5 22.5t-22.5 54.5t22.5 54.5t54.5 22.5t55 -22.5t23 -54.5zM-33 568q0 12 -8.5 20.5t-20.5 8.5q-11 0 -19.5 -8.5t-8.5 -20.5t8.5 -20.5t19.5 -8.5q12 0 20.5 8.5t8.5 20.5z" />
    <glyph glyph-name="yamakkanthai" unicode="&#xe4e;" 
d="M-129 507v11l-35 34q-10 9 0 18l35 33l-35 34q-10 9 0 18l86 81q17 -10 22 -22t4 -23q-2 -13 -9 -26l-14 -11q-5 -4 -5.5 -11t4.5 -11l20 -15v-28l-19 -15q-5 -4 -5.5 -10t4.5 -11l27 -23v-23h-80z" />
    <glyph glyph-name="fongmanthai" unicode="&#xe4f;" horiz-adv-x="584" 
d="M528 231q0 -49 -18.5 -92t-50.5 -75t-75 -50.5t-92 -18.5t-92 18.5t-75 50.5t-50.5 75t-18.5 92t18.5 92t50.5 75t75 50.5t92 18.5t92 -18.5t75 -50.5t50.5 -75t18.5 -92zM483 231q0 39 -15 74t-41 61t-61 41t-74 15t-74 -15t-61 -41t-41 -61t-15 -74t15 -74t41 -61
t61 -41t74 -15t74 15t61 41t41 61t15 74zM400 230q0 -22 -8 -41.5t-23 -34.5t-35 -23.5t-42 -8.5q-23 0 -42.5 8.5t-34.5 23.5t-23.5 34.5t-8.5 41.5t8.5 42t23.5 35t34.5 23.5t42.5 8.5q22 0 42 -8.5t34.5 -23.5t23 -35t8.5 -42z" />
    <glyph glyph-name="uni0E50" unicode="&#xe50;" horiz-adv-x="467" 
d="M340 286q-15 26 -41.5 35.5t-55.5 8.5q-33 -1 -62.5 -13.5t-42.5 -42.5v-156q9 -26 37 -38.5t60 -13.5q33 -1 63 11t42 41v168zM33 194q0 52 15.5 90.5t42 64t62 37.5t76.5 12t78 -11t64.5 -35.5t44 -63.5t16.5 -94q0 -54 -18 -92.5t-46.5 -63.5t-64 -36t-70.5 -11
q-38 0 -73.5 11.5t-64 36t-45.5 63t-17 92.5z" />
    <glyph glyph-name="onethai" unicode="&#xe51;" horiz-adv-x="465" 
d="M251 63q36 0 60 20.5t24 50.5v108q-11 41 -42.5 61t-63.5 19q-29 -1 -58 -12t-43 -43v-79q4 -12 13.5 -17.5t20.5 -5.5t20.5 5.5t12.5 15.5v63q23 -4 42 -18t22 -37v-13q-2 -21 -12.5 -35t-25.5 -23t-33 -13t-35 -4q-24 0 -45.5 8t-38.5 23t-27 37.5t-10 51.5
q0 37 14.5 68.5t40.5 54.5t62 36.5t80 13.5q103 0 153 -57.5t50 -157.5q0 -29 -7 -62t-26.5 -60.5t-54.5 -45.5t-91 -18h-196l48 65h146z" />
    <glyph glyph-name="twothai" unicode="&#xe52;" horiz-adv-x="569" 
d="M121 436v-290q0 -30 24.5 -49t69.5 -19h145q36 0 52.5 19.5t19.5 48.5v131q-15 41 -52 40q-17 -1 -24.5 -8.5t-14.5 -21.5q-14 30 -45 30q-11 0 -22.5 -5t-18.5 -22v-48q0 -10 2.5 -20t12.5 -12q2 0 10.5 -0.5t20 -5.5t24 -17.5t22.5 -36.5h-65q-24 0 -46 8t-38.5 23.5
t-26.5 37t-10 48.5q0 63 27 96t88 33q14 0 27.5 -9.5t25.5 -22.5q6 -6 13 -6.5t12 6.5q14 16 23.5 24t20.5 8q43 0 69.5 -14t41.5 -39t20.5 -60t5.5 -78q0 -41 -7 -78t-26 -65.5t-53 -45t-87 -16.5h-149q-53 0 -86.5 12t-52 33t-25 49t-6.5 61v341z" />
    <glyph glyph-name="threethai" unicode="&#xe53;" horiz-adv-x="506" 
d="M256 274q-10 14 -26 30t-33 16t-36.5 -10t-26.5 -37v-158q4 -20 14.5 -31.5t24 -16t28 -2.5t25.5 9l27 -56q-14 -14 -32 -19.5t-37 -5.5q-44 0 -73.5 18.5t-47.5 48t-25.5 66t-7.5 72.5q0 35 7.5 70.5t25 64.5t46 47.5t71.5 18.5q22 0 40.5 -14.5t26.5 -27.5
q5 -6 11.5 -6.5t11.5 4.5q13 16 24.5 29t33.5 13q41 0 66.5 -15.5t40.5 -38t20.5 -47.5t5.5 -44v-153q0 -15 -2 -29.5t-9.5 -28t-23 -25.5t-42.5 -21v276q-7 27 -27 37t-37 10t-35.5 -15t-28.5 -29z" />
    <glyph glyph-name="fourthai" unicode="&#xe54;" horiz-adv-x="536" 
d="M32 202q1 38 9.5 72.5t28.5 60.5t53 41t84 15h306l-38 -74h-266q-25 0 -44.5 -15.5t-27.5 -44.5v-127q8 -22 24 -38t48 -16h42q-13 14 -19.5 34.5t-6.5 34.5q0 35 28 57t73 22h64q-5 -30 -16.5 -42.5t-28.5 -15.5q-9 -2 -16.5 -8t-11 -17t-0.5 -27t16 -38h130l-37 -76
h-219q-51 0 -84.5 15t-53.5 41t-28.5 60.5t-8.5 72.5v13z" />
    <glyph glyph-name="fivethai" unicode="&#xe55;" horiz-adv-x="536" 
d="M32 202q1 38 9.5 72.5t28.5 60.5t53 41t84 15h10q0 35 25.5 58.5t60.5 23.5q18 0 33.5 -6.5t27.5 -17.5t19.5 -26t7.5 -32h122l-38 -74h-266q-25 0 -46 -18.5t-26 -46.5v-122q8 -22 24 -38t48 -16h42q-13 14 -19 34.5t-6 34.5q0 35 27.5 57t72.5 22h64
q-5 -30 -16.5 -42.5t-28.5 -15.5q-9 -2 -16.5 -8t-11 -17t-0.5 -27t16 -38h130l-37 -76h-219q-51 0 -84.5 15t-53.5 41t-28.5 60.5t-8.5 72.5v13zM341 390q0 14 -9 22.5t-23 8.5q-13 0 -22.5 -8.5t-9.5 -22.5q0 -12 9.5 -20.5t22.5 -8.5q14 0 23 8.5t9 20.5z" />
    <glyph glyph-name="sixthai" unicode="&#xe56;" horiz-adv-x="458" 
d="M122 384q3 -20 11.5 -17.5t23.5 10.5q17 9 38.5 14.5t42.5 5.5q99 0 152 -50.5t53 -143.5q0 -106 -48 -155.5t-158 -49.5q-97 0 -144.5 34t-47.5 89q0 12 4.5 28.5t20 30t44.5 21t78 2.5q-4 -18 -11 -28t-14.5 -17t-14 -13t-8.5 -14q-3 -14 5 -24.5t22.5 -17.5t32.5 -10
t35 -3q15 0 31 3.5t30 10.5t24.5 17.5t13.5 24.5v125q-6 18 -20.5 30t-31.5 18.5t-33.5 9.5t-26.5 3q-11 0 -24.5 -1t-27.5 -4t-26.5 -9.5t-21.5 -16.5h-78v236l74 -55v-84z" />
    <glyph glyph-name="seventhai" unicode="&#xe57;" horiz-adv-x="597" 
d="M475 436l79 60v-321q0 -33 -12.5 -65t-38.5 -57.5t-66 -41.5t-95 -16q8 17 12 36t7 43v197q-7 27 -19.5 37t-29.5 10t-31.5 -15t-25.5 -28q-10 14 -24 29.5t-31 15.5t-34.5 -10t-24.5 -37v-158q8 -40 33.5 -47.5t48.5 6.5l27 -56q-14 -14 -32 -19.5t-37 -5.5
q-44 0 -72 18.5t-44 48t-22 66t-6 72.5q0 35 7.5 70.5t25 64.5t46 47.5t71.5 18.5q22 0 36.5 -14.5t22.5 -27.5q4 -8 11 -7.5t12 5.5q13 16 23.5 29t32.5 13q37 0 58.5 -12.5t33.5 -31.5t16 -41t6 -40l-2 -170q17 15 27.5 35t10.5 40v259z" />
    <glyph glyph-name="eightthai" unicode="&#xe58;" horiz-adv-x="480" 
d="M417 316h-203q-30 0 -47 -12.5t-29 -35.5v-160q19 -35 57 -33q17 1 32.5 17t24.5 30q9 -14 24 -30.5t32 -16.5q11 0 26 2t23 18v38q0 10 -3.5 20.5t-13.5 12.5q-2 0 -10.5 2t-19 9t-20.5 19.5t-15 35.5h53q121 0 121 -110q0 -63 -27 -94.5t-88 -31.5q-20 0 -39 13t-31 26
q-6 6 -13 6.5t-12 -6.5q-14 -16 -28.5 -27.5t-29.5 -11.5q-43 0 -71 13.5t-44.5 38t-23.5 60t-7 79.5q0 41 7 78t26 65t53 44.5t87 16.5h264z" />
    <glyph glyph-name="ninethai" unicode="&#xe59;" horiz-adv-x="560" 
d="M30 187q0 102 37.5 155t106.5 53q22 0 39.5 -3t32.5 -10.5t29 -19.5t28 -31q4 -6 9.5 -10.5t18.5 6.5q6 11 14.5 22.5t21 20.5t30 15t40.5 6h122l-55 -72h-61q-27 0 -42.5 -8.5t-30.5 -31.5l-12 -23l153 -256h-89l-158 261q-5 8 -11.5 18t-14.5 18.5t-17.5 14t-21.5 5.5
q-23 0 -41.5 -12t-23.5 -32v-158q0 -17 4.5 -26.5t10.5 -14t12.5 -6t10.5 -1.5q9 0 16 1t13 4t12.5 8.5t15.5 14.5q5 7 16 12q9 5 23 7.5t35 0.5q-2 -9 -7 -28.5t-19 -38.5t-40 -33.5t-68 -14.5q-40 0 -67 15t-43 41t-22.5 59.5t-6.5 71.5z" />
    <glyph glyph-name="angkhankhuthai" unicode="&#xe5a;" horiz-adv-x="600" 
d="M368 0q-32 7 -49.5 24t-25.5 34q-10 20 -11 44v144q0 17 -6 28t-23 5q-12 -5 -31 -7.5t-46 2.5q-17 3 -33 10.5t-29 21t-21 33t-8 45.5v62h93v-55q0 -27 16 -39t35.5 -12.5t35.5 10.5t16 31v65h87v-446zM442 446h86v-446q-32 7 -49.5 24t-25.5 34q-10 20 -11 44v344z" />
    <glyph glyph-name="khomutthai" unicode="&#xe5b;" horiz-adv-x="978" 
d="M194 22q-73 0 -106 48t-33 156q0 107 37 153.5t111 46.5q116 0 129 -121h-77q-2 12 -5 22.5t-8.5 18.5t-14 12.5t-21.5 3.5q-14 -2 -27.5 -17t-21.5 -53v-142q7 -39 21 -51t41 -12h16q42 0 75 22.5t52 57t22 74t-13 74.5l50 34q12 -10 30 -31.5t35 -45.5t32 -46t21 -34
q2 3 8 16t13 29t12.5 30.5t7.5 19.5l45 28q4 -4 14.5 -18.5t22 -31t21.5 -31t13 -20.5q1 1 3.5 7t6 13.5t6 14t3.5 8.5h215l-12 -62h-171q-2 -5 -9.5 -18t-17 -28t-18 -28t-11.5 -16q-2 6 -8.5 19t-15 28.5t-18 31.5t-16.5 27q-9 13 -14.5 7t-8.5 -11q-8 -15 -19 -35
t-22.5 -39t-21.5 -34t-15 -20q-4 8 -11.5 21.5t-16.5 28.5t-18.5 31t-18.5 30q-8 14 -16 13t-12 -15q-7 -31 -22 -61t-39 -53.5t-59 -38t-83 -14.5z" />
    <glyph glyph-name="ZWSP" unicode="&#x200b;" 
 />
    <glyph glyph-name="endash" unicode="&#x2013;" horiz-adv-x="450" 
d="M0 160v70h450v-70h-450z" />
    <glyph glyph-name="emdash" unicode="&#x2014;" horiz-adv-x="800" 
d="M0 160v70h800v-70h-800z" />
    <glyph glyph-name="quoteleft" unicode="&#x2018;" horiz-adv-x="284" 
d="M195 351q0 -15 -10.5 -25.5t-25.5 -10.5h-34q-15 0 -25.5 10.5t-10.5 25.5v43q0 14 4 34t10 34l31 72q6 13 17 22.5t21 9.5q9 0 12.5 -9.5t-1.5 -23.5l-23 -70q-5 -14 -1.5 -24t13.5 -10q9 0 16 -10.5t7 -24.5v-43v0z" />
    <glyph glyph-name="quoteright" unicode="&#x2019;" horiz-adv-x="284" 
d="M195 487q0 -14 -4 -34t-10 -34l-31 -71q-6 -14 -17 -23.5t-21 -9.5t-13.5 10t1.5 24l24 69q5 14 1.5 24t-13.5 10t-16.5 10.5t-6.5 24.5v44q0 14 10.5 24.5t25.5 10.5h34q15 0 25.5 -10.5t10.5 -24.5v-44v0z" />
    <glyph glyph-name="quotedblleft" unicode="&#x201c;" horiz-adv-x="429" 
d="M340 351q0 -15 -10.5 -25.5t-25.5 -10.5h-34q-15 0 -25.5 10.5t-10.5 25.5v43q0 14 4 34t10 34l31 72q6 13 17 22.5t21 9.5q9 0 12.5 -9.5t-1.5 -23.5l-23 -70q-5 -14 -1.5 -24t13.5 -10q9 0 16 -10.5t7 -24.5v-43zM195 351q0 -15 -10.5 -25.5t-25.5 -10.5h-34
q-15 0 -25.5 10.5t-10.5 25.5v43q0 14 4 34t10 34l31 72q6 13 17 22.5t21 9.5q9 0 12.5 -9.5t-1.5 -23.5l-23 -70q-5 -14 -1.5 -24t13.5 -10q9 0 16 -10.5t7 -24.5v-43z" />
    <glyph glyph-name="quotedblright" unicode="&#x201d;" horiz-adv-x="429" 
d="M340 487q0 -14 -4 -34t-10 -34l-31 -71q-6 -14 -17 -23.5t-21 -9.5t-13.5 10t1.5 24l24 69q5 14 1.5 24t-13.5 10t-16.5 10.5t-6.5 24.5v44q0 14 10.5 24.5t25.5 10.5h34q15 0 25.5 -10.5t10.5 -24.5v-44zM195 487q0 -14 -4 -34t-10 -34l-31 -71q-6 -14 -17 -23.5
t-21 -9.5t-13.5 10t1.5 24l24 69q5 14 1.5 24t-13.5 10t-16.5 10.5t-6.5 24.5v44q0 14 10.5 24.5t25.5 10.5h34q15 0 25.5 -10.5t10.5 -24.5v-44z" />
    <glyph glyph-name="bullet" unicode="&#x2022;" horiz-adv-x="414" 
d="M360 210q0 -32 -12 -60t-33 -49t-49 -33t-59 -12q-32 0 -60 12t-49 33t-33 49t-12 60t12 60t33 49t48.5 33t59.5 12t60 -12t49 -33t33 -49t12 -60z" />
    <glyph glyph-name="Euro" unicode="&#x20ac;" horiz-adv-x="419" 
d="M18 333h54q4 30 15 63.5t31.5 61t51 46t74.5 18.5q37 -2 69 -18q13 -7 26 -17.5t24.5 -26t19 -36t10.5 -47.5l-81 -20q-11 48 -27 70.5t-41 24.5q-16 2 -30 -6t-24 -23t-16 -37t-6 -49v-4h89v-46h-89v-64h89v-46h-89v-7q0 -17 6 -35t16 -32.5t24 -24.5t30 -11
q23 -2 35.5 4.5t20.5 16t14 21.5t17 21q8 8 19 12q9 4 21 5.5t26 -2.5q-8 -58 -33.5 -89.5t-51.5 -45.5q-32 -17 -68 -19q-32 0 -60.5 15t-51.5 40.5t-38.5 59.5t-20.5 71h-55v46h52v64h-52v46z" />
    <glyph glyph-name="trademark" unicode="&#x2122;" horiz-adv-x="570" 
d="M185 470q-4 -2 -8 -5.5t-6 -11.5v-236q-22 5 -33.5 17t-17.5 25q-7 15 -8 32v162q-3 15 -14 17h-55v43h198v-43h-56zM480 217v119q0 10 -4 17t-9 9.5t-10.5 0t-9.5 -11.5l-35 -134h-19l-38 126q-4 15 -13.5 12t-9.5 -14v-63q-2 -18 -8 -31q-5 -11 -15.5 -21t-28.5 -9v297
h59l50 -144q3 -8 11.5 -9.5t12.5 9.5l50 144h57v-297h-40z" />
    <glyph glyph-name="uni25CC" unicode="&#x25cc;" horiz-adv-x="670" 
d="M259 179l-48 -15l17 47q13 -19 31 -32zM312 413l23 45l22 -44q-11 1 -21 1q-12 0 -24 -2zM355 156l-20 -42l-21 42q11 -2 22 -2q10 0 19 2zM465 307l42 -22l-42 -19q2 9 2 19q0 11 -2 22zM208 264l-45 23l45 22q-2 -12 -2 -24q0 -11 2 -21zM231 363l-13 46l45 -16
q-19 -12 -32 -30zM440 205l12 -41l-41 13q17 12 29 28zM410 393l49 16l-17 -47q-13 18 -32 31z" />
    <glyph glyph-name="thothannobasethai" unicode="&#xf700;" horiz-adv-x="410" 
d="M363 218q-1 -71 -18.5 -114t-40 -66t-42.5 -30.5t-25 -7.5h-102l-55 240l74 18l36 -151q5 -20 10.5 -26t18.5 -6q14 0 31 34t17 99v76q0 49 -20 76.5t-61 27.5q-3 0 -15.5 -1.5t-28.5 -8.5t-32 -21.5t-25 -39.5l-65 29q14 41 39 63.5t50.5 33.5t46 13t26.5 2
q25 0 44 -7.5t32 -14t19.5 -8t6.5 11.5v9l79 47v-278z" />
    <glyph glyph-name="saraileftthai" unicode="&#xf701;" 
d="M-445 512q12 26 30 39.5t35 19.5q19 7 41 7h189v-66h-295z" />
    <glyph glyph-name="saraiileftthai" unicode="&#xf702;" 
d="M-449 512q14 26 34 40t38 20q21 7 44 6h90v29l92 48v-143h-298z" />
    <glyph glyph-name="saraueleftthai" unicode="&#xf703;" 
d="M-147 582q0 -29 -20.5 -49.5t-49.5 -20.5h-237q12 26 30 40t35 20q19 7 41 6h47q11 0 12.5 6t2.5 11q5 24 24 40.5t45 16.5q29 0 49.5 -20.5t20.5 -49.5zM-187 582q0 11 -7 18t-18 7t-18.5 -7t-7.5 -18t7.5 -18.5t18.5 -7.5t18 7.5t7 18.5z" />
    <glyph glyph-name="saraueeleftthai" unicode="&#xf704;" 
d="M-448 512q12 26 31 39.5t36 19.5q20 7 42 7h22v76l69 -38v-38h28v38l69 38v-142h-297z" />
    <glyph glyph-name="maieklowleftthai" unicode="&#xf705;" 
d="M-256 494v136h92v-89z" />
    <glyph glyph-name="maitholowleftthai" unicode="&#xf706;" 
d="M-133 564q-6 -21 -18 -32.5t-24 -16.5q-14 -6 -30 -7h-111v50h-37v55h122v-39q0 -10 10 -10h88v0z" />
    <glyph glyph-name="maitrilowleftthai" unicode="&#xf707;" 
d="M-134 564q2 -22 -5.5 -33.5t-18.5 -16.5q-12 -6 -28 -7h-62l3 39l-39 -34h-12l-38 34l3 -39h-62v101h65l26 -30q5 -6 14 -5.5t14 6.5l23 29h66v-43q0 -5 3 -8t8 -2l40 9v0z" />
    <glyph glyph-name="maichattawalowleftthai" unicode="&#xf708;" 
d="M-197 545v-30l-76 -13v43h-54v42h54v37h76v-37h54v-42h-54z" />
    <glyph glyph-name="thanthakhatlowleftthai" unicode="&#xf709;" 
d="M-108 600q-3 -19 -13.5 -28.5t-21.5 -14.5q-13 -5 -29 -6h-42v-44h-84q-9 35 -4 53.5t15 27.5q11 11 28 12h151v0z" />
    <glyph glyph-name="maieklowrightthai" unicode="&#xf70a;" 
d="M-139 494v136h92v-89z" />
    <glyph glyph-name="maitholowrightthai" unicode="&#xf70b;" 
d="M-36 564q-6 -21 -18 -32.5t-24 -16.5q-14 -6 -30 -7h-121v50h-37v55h122v-39q0 -10 10 -10h98v0z" />
    <glyph glyph-name="maitrilowrightthai" unicode="&#xf70c;" 
d="M-37 564q2 -22 -5 -33.5t-18 -16.5q-12 -6 -29 -7h-72l3 39l-39 -34h-11l-38 34l2 -39h-62v101h65l26 -30q5 -6 14 -5.5t14 6.5l23 29h66v-43q0 -5 3.5 -8t8.5 -2l49 9v0z" />
    <glyph glyph-name="maichattawalowrightthai" unicode="&#xf70d;" 
d="M-101 555v-35l-77 -13v48h-54v42h54v42h76v-42h54v-42h-53z" />
    <glyph glyph-name="thanthakhatlowrightthai" unicode="&#xf70e;" 
d="M3 600q-3 -19 -13 -28.5t-21 -14.5q-13 -5 -29 -6h-43v-44h-83q-9 35 -4.5 53.5t14.5 27.5q11 11 28 12h151v0z" />
    <glyph glyph-name="yoyingnobasethai" unicode="&#xf70f;" horiz-adv-x="603" 
d="M556 155q0 -9 -0.5 -24.5t-5 -33t-13.5 -35.5t-25.5 -32.5t-42 -24t-62.5 -9.5q-51 0 -78.5 19.5t-40.5 45.5t-15 51.5t-2 38.5v145q0 13 -0.5 27t-5 26t-14.5 20t-28 8h-58q-19 0 -19 -18v-285h36v-74h-135v288q0 4 4 20.5t18 29.5l29 29q6 5 6.5 13t-6.5 15l-51 51
l199 2q39 0 62 -18.5t35 -46t15 -59.5t3 -59l1 -107q0 -7 -0.5 -21.5t3 -29.5t14 -26t32.5 -11q26 0 39 11.5t18 27t5 32v25.5v185q1 22 11 41q8 17 24.5 32t47.5 22v-291v0z" />
    <glyph glyph-name="maihanakatleftthai" unicode="&#xf710;" 
d="M-118 573q-14 -25 -32.5 -37.5t-34.5 -17.5q-19 -6 -38 -6h-150v105h90v-14q0 -11 9.5 -20.5t23.5 -9.5h132v0z" />
    <glyph glyph-name="nikhahitleftthai" unicode="&#xf711;" 
d="M-143 563q0 -32 -23 -54.5t-55 -22.5t-54.5 22.5t-22.5 54.5t22.5 54.5t54.5 22.5t55 -22.5t23 -54.5zM-187 563q0 12 -8.5 20.5t-20.5 8.5q-11 0 -19.5 -8.5t-8.5 -20.5t8.5 -20.5t19.5 -8.5q12 0 20.5 8.5t8.5 20.5z" />
    <glyph glyph-name="maitaikhuleftthai" unicode="&#xf712;" 
d="M-120 655q-11 -17 -25 -25.5t-26 -12.5q-14 -4 -29 -4h-103q-12 0 -17 -8t-6 -18t1 -19t4 -11q1 -1 4 -2q6 -2 12 2l37 36h13l37 -36q5 -5 9.5 -2.5t4.5 8.5v16l65 25v-92h-87l-33 34l-36 -34h-113v63q0 17 4.5 29.5t13.5 25.5q21 29 64 27l206 -2v0z" />
    <glyph glyph-name="maiekupperleftthai" unicode="&#xf713;" 
d="M-241 673v118h92v-70z" />
    <glyph glyph-name="maithoupperleftthai" unicode="&#xf714;" 
d="M-60 747q-5 -21 -17 -32.5t-24 -16.5q-14 -6 -30 -7h-111v45h-37v55h122v-34q0 -10 9 -10h88v0z" />
    <glyph glyph-name="maitriupperleftthai" unicode="&#xf715;" 
d="M-53 745q2 -21 -5 -32.5t-18 -16.5q-12 -6 -28 -7h-62l3 39l-39 -35h-12l-38 35l3 -39h-62v101h65l26 -31q5 -6 14 -5t14 7l23 29h66v-43q0 -13 11 -10l39 8v0z" />
    <glyph glyph-name="maichattawaupperleftthai" unicode="&#xf716;" 
d="M-151 716v-30l-76 -13v43h-54v42h54v37h76v-37h54v-42h-54z" />
    <glyph glyph-name="thanthakhatupperleftthai" unicode="&#xf717;" 
d="M-45 730q-3 -19 -13.5 -28.5t-21.5 -14.5q-13 -5 -29 -6h-42v-44h-84q-9 35 -4 53.5t15 27.5q11 11 28 12h151v0z" />
    <glyph glyph-name="saraulowthai" unicode="&#xf718;" 
d="M-47 -278q-1 -16 -11 -27q-8 -11 -25 -19t-49 -10v76q0 12 -6.5 16.5t-11.5 4.5h-15v47h118v-88v0z" />
    <glyph glyph-name="sarauulowthai" unicode="&#xf719;" 
d="M-48 -247q0 -19 -9 -30.5t-23 -18t-32.5 -9t-37.5 -2.5q-43 0 -73.5 10t-30.5 36v25h-23v47h107v-52q0 -24 29 -24q10 0 16.5 5.5t6.5 18.5v3q1 13 9 24q7 9 21 16.5t40 8.5v-58v0z" />
    <glyph glyph-name="phinthulowthai" unicode="&#xf71a;" 
d="M-42 -223q0 -17 -13.5 -28.5t-33.5 -11.5t-33.5 11.5t-13.5 28.5t13.5 28.5t33.5 11.5t33.5 -11.5t13.5 -28.5z" />
    <glyph glyph-name="lochula.short" unicode="&#xf71d;" horiz-adv-x="451" 
d="M389 438q-8 -8 -5.5 -15t6.5 -9q21 -11 29.5 -39t8.5 -62l-35 -313h-95l-34 123q-2 7 -9 11.5t-15 5t-15 -3t-10 -11.5l-38 -125h-98l-53 446h94q7 -58 12 -99.5t9 -70.5t6 -46.5t3 -27.5q3 -23 2 -14q2 -14 10 -13t10 9l56 186h26l58 -198q2 -8 8.5 -9.5t8.5 9.5l15 133
q0 13 -2 30t-9.5 33.5t-21 30t-36.5 18.5l57 58q13 13 29 20q8 4 16 6t19 2q9 0 22.5 -1.5t30.5 -7.5z" />
    <glyph glyph-name="rulakkhangyao" unicode="&#xf881;" horiz-adv-x="619" 
d="M571 -166q-35 3 -54 20t-27 36q-11 22 -11 49v350q0 59 -10.5 80.5t-42.5 21.5q-17 0 -32 -10t-24 -36q4 -21 4.5 -41.5t0.5 -38.5v-431q-32 2 -47.5 18t-22.5 36q-8 23 -7 51v357q0 13 -1.5 27t-6.5 26t-16 20t-29 8h-80q-19 0 -19 -18v-284h51v-75h-150v289q0 4 4 20
t18 30l29 28q6 6 6.5 14t-6.5 14l-51 51l221 2q27 0 45 -9t30 -24q14 12 29.5 18.5t28.5 9.5q15 4 29 4q39 0 66 -13t43.5 -38t24 -60t7.5 -78v-424v0z" />
    <glyph glyph-name="lulakkhangyao" unicode="&#xf882;" horiz-adv-x="619" 
d="M571 -166q-35 3 -54 20t-27 36q-11 22 -11 49v350q0 59 -10.5 80.5t-42.5 21.5q-17 0 -31.5 -10t-23.5 -35q3 -21 4 -42t1 -39v-431q-32 2 -48 18t-23 36q-8 23 -7 51v40v61.5t0.5 73t0.5 74v64v44.5q0 13 -1.5 27.5t-7 26.5t-16.5 20t-29 8l-80 -1q-19 0 -19 -18v-359
h-138v74h39v214q0 4 4 20.5t18 29.5l30 29q6 5 6 13t-7 15l-51 51l221 2q26 0 44.5 -9t30.5 -24q14 12 29.5 18.5t28.5 9.5q15 4 29 4q39 0 66 -13t43.5 -38t24 -60t7.5 -78v-424v0z" />
    <glyph glyph-name="yamakkanleftthai" 
d="M-237 507v11l-35 34q-10 9 0 18l35 33l-35 34q-10 9 0 18l86 81q17 -10 22 -22t4 -23q-2 -13 -9 -26l-14 -11q-5 -4 -5.5 -11t4.5 -11l20 -15v-28l-19 -15q-5 -4 -5.5 -10t4.5 -11l27 -23v-23h-80z" />
    <glyph glyph-name="copyright.001" horiz-adv-x="584" 
d="M528 231q0 -49 -18.5 -92t-50.5 -75t-75 -50.5t-92 -18.5t-92 18.5t-75 50.5t-50.5 75t-18.5 92t18.5 92t50.5 75t75 50.5t92 18.5t92 -18.5t75 -50.5t50.5 -75t18.5 -92zM483 231q0 39 -15 74t-41 61t-61 41t-74 15t-74 -15t-61 -41t-41 -61t-15 -74t15 -74t41 -61
t61 -41t74 -15t74 15t61 41t41 61t15 74zM377 181q-4 -40 -28 -60q-23 -20 -64 -20q-47 0 -67.5 30.5t-20.5 98.5q0 69 23 98t71 29q74 0 81 -76h-49q-2 14 -8 25.5t-23 9.5q-8 -1 -16.5 -10.5t-13.5 -33.5v-90q4 -25 12.5 -32.5t19.5 -7.5q8 0 17 6t12 14q7 14 23.5 18.5
t30.5 0.5z" />
    <glyph glyph-name="saraamleft" horiz-adv-x="299" 
d="M252 0q-35 3 -54 19.5t-27 35.5q-11 22 -11 49v185q0 59 -10.5 80.5t-42.5 21.5q-17 0 -32 -10.5t-24 -36.5l-52 41q14 23 32.5 35.5t36.5 18.5q20 7 43 8q39 0 66 -13t43.5 -38t24 -60t7.5 -78v-258zM-143 563q0 -32 -23 -54.5t-55 -22.5t-54.5 22.5t-22.5 54.5
t22.5 54.5t54.5 22.5t55 -22.5t23 -54.5zM-187 563q0 12 -8.5 20.5t-20.5 8.5q-11 0 -19.5 -8.5t-8.5 -20.5t8.5 -20.5t19.5 -8.5q12 0 20.5 8.5t8.5 20.5z" />
    <glyph glyph-name="uni0E33.alt1" horiz-adv-x="299" 
d="M252 0q-35 3 -54 19.5t-27 35.5q-11 22 -11 49v185q0 59 -10.5 80.5t-42.5 21.5q-17 0 -32 -10.5t-24 -36.5l-52 41q14 23 32.5 35.5t36.5 18.5q20 7 43 8q39 0 66 -13t43.5 -38t24 -60t7.5 -78v-258zM-143 563q0 -32 -23 -54.5t-55 -22.5t-54.5 22.5t-22.5 54.5
t22.5 54.5t54.5 22.5t55 -22.5t23 -54.5zM-187 563q0 12 -8.5 20.5t-20.5 8.5q-11 0 -19.5 -8.5t-8.5 -20.5t8.5 -20.5t19.5 -8.5q12 0 20.5 8.5t8.5 20.5z" />
    <glyph glyph-name="guillemotleft.001" horiz-adv-x="398" 
d="M259 191l98 -78l-39 -41l-143 119l142 120l40 -41zM169 72l-143 120l143 119l39 -41l-98 -79l99 -78z" />
    </font>
</defs>
</svg>
