<?xml version="1.0" standalone="no"?>
<!DOCTYPE svg PUBLIC "-//W3C//DTD SVG 1.1//EN" "http://www.w3.org/Graphics/SVG/1.1/DTD/svg11.dtd" >
<svg xmlns="http://www.w3.org/2000/svg" xmlns:xlink="http://www.w3.org/1999/xlink" version="1.1">
<metadata>
Created by FontForge 20170731 at Tue Jul 31 15:39:16 2018
 By Aleksey,,,
Copyright (c) 2018 by Cadson Demak Co.,Ltd.. All rights reserved.
</metadata>
<defs>
<font id="Anakotmai-Medium" horiz-adv-x="0" >
  <font-face 
    font-family="Anakotmai Medium"
    font-weight="500"
    font-stretch="normal"
    units-per-em="1000"
    panose-1="0 0 6 0 0 0 0 0 0 0"
    ascent="800"
    descent="-200"
    x-height="520"
    cap-height="710"
    bbox="-676 -437 1266 1090"
    underline-thickness="50"
    underline-position="-170"
    unicode-range="U+000D-FB02"
  />
<missing-glyph horiz-adv-x="600" 
 />
    <glyph glyph-name="fi" unicode="fi" horiz-adv-x="723" 
d="M115 420h-85v100h85v29q0 95 39 138t125 43q32 0 67.5 -6.5t66.5 -17.5l-28 -94q-44 16 -76 16t-45.5 -16.5t-13.5 -53.5v-38h136v-105h-136v-415h-135v420zM512.5 590.5q-22.5 21.5 -22.5 54.5q0 32 23 53.5t57 21.5t57 -21.5t23 -53.5q0 -33 -22.5 -54.5t-57.5 -21.5
t-57.5 21.5zM503 520h135v-520h-135v520z" />
    <glyph glyph-name="fl" unicode="fl" horiz-adv-x="754" 
d="M115 420h-85v100h85v29q0 95 39 138t125 43q32 0 67.5 -6.5t66.5 -17.5l-28 -94q-44 16 -76 16t-45.5 -16.5t-13.5 -53.5v-38h136v-105h-136v-415h-135v420zM535 29q-28 35 -28 106v575h135v-563q0 -27 10 -36.5t29 -9.5q15 0 33 3l8 -99q-36 -11 -84 -11q-75 0 -103 35z
" />
    <glyph glyph-name="uni0E240E45" unicode="&#xe24;&#xe45;" horiz-adv-x="988" 
d="M868 495q56 -55 56 -158v-568h-136v559q0 61 -27 90.5t-83 29.5q-73 0 -119 -49q10 -34 10 -79v-551h-136v558q0 57 -34.5 86.5t-101.5 29.5q-56 0 -88 -21.5t-36 -62.5h125v-82h-63q-20 -20 -32 -49.5t-12 -60.5q0 -38 16 -57.5t47 -19.5q21 0 46 9l25 -85
q-42 -22 -106 -22q-76 0 -120 37t-44 102q0 41 23.5 79t66.5 67h-100v35q0 116 67.5 177t195.5 61q143 0 209 -74q34 36 82.5 55t107.5 19q105 0 161 -55z" />
    <glyph glyph-name="uni0E260E45" unicode="&#xe26;&#xe45;" horiz-adv-x="1009" 
d="M889 495q56 -55 56 -158v-568h-136v559q0 61 -27 90.5t-83 29.5q-73 0 -120 -49q11 -38 11 -79v-551h-136v558q0 57 -35.5 86.5t-103.5 29.5q-58 0 -91 -22t-37 -62h128v-82h-59q-8 -14 -11 -36.5t-3 -64.5v-75q0 -109 -114 -109q-55 0 -98 19l22 84q12 -5 28 -5
q26 0 26 26v45q0 75 49 116h-95v35q0 116 67 177t195 61q148 0 215 -75q34 36 83 55.5t108 19.5q105 0 161 -55z" />
    <glyph glyph-name=".notdef" horiz-adv-x="600" 
 />
    <glyph glyph-name=".null" horiz-adv-x="600" 
 />
    <glyph glyph-name="nonmarkingreturn" unicode="&#xd;" horiz-adv-x="280" 
 />
    <glyph glyph-name="space" unicode=" " horiz-adv-x="280" 
 />
    <glyph glyph-name="exclam" unicode="!" horiz-adv-x="348" 
d="M90 710h168l-30 -460h-108zM116 15q-23 23 -23 57q0 35 23 57.5t57 22.5q35 0 57.5 -22.5t22.5 -57.5q0 -34 -22.5 -57t-57.5 -23q-34 0 -57 23z" />
    <glyph glyph-name="quotedbl" unicode="&#x22;" horiz-adv-x="424" 
d="M56 710h122l-21 -317h-80zM246 710h122l-21 -317h-80z" />
    <glyph glyph-name="numbersign" unicode="#" horiz-adv-x="791" 
d="M577 429l-31 -147h158l-21 -103h-159l-38 -179h-113l38 179h-107l-38 -179h-113l38 179h-158l21 103h159l31 147h-158l22 103h157l38 178h113l-38 -178h107l38 178h113l-38 -178h160l-22 -103h-159zM464 429h-107l-31 -147h107z" />
    <glyph glyph-name="dollar" unicode="$" horiz-adv-x="565" 
d="M481 69.5q-56 -56.5 -156 -67.5v-96h-70v95q-62 3 -122.5 20t-104.5 42l37 112q105 -55 190 -60v187l-11 3q-62 16 -103 34.5t-69 58.5t-28 108q0 87 55.5 139.5t155.5 62.5v78h70v-77q101 -5 180 -45l-41 -106q-67 33 -139 38v-173l5 -2q76 -22 118.5 -43.5t65.5 -58.5
t23 -100q0 -93 -56 -149.5zM206.5 477q15.5 -17 48.5 -30v143q-64 -15 -64 -71q0 -25 15.5 -42zM373.5 150q16.5 20 16.5 48q0 32 -15.5 50.5t-49.5 31.5v-160q32 10 48.5 30z" />
    <glyph glyph-name="percent" unicode="%" horiz-adv-x="906" 
d="M87 390.5q-47 51.5 -47 139.5q0 87 47 138.5t126 51.5t126 -51.5t47 -138.5q0 -88 -47 -139.5t-126 -51.5t-126 51.5zM613 710h99l-420 -710h-99zM258 447q16 29 16 83q0 53 -16 82t-45 29t-45 -29t-16 -82q0 -54 16 -83t45 -29t45 29zM567 40.5q-47 51.5 -47 139.5
q0 87 47 138.5t126 51.5t126 -51.5t47 -138.5q0 -88 -47 -139.5t-126 -51.5t-126 51.5zM738 97q16 29 16 83q0 53 -16 82t-45 29t-45 -29t-16 -82q0 -54 16 -83t45 -29t45 29z" />
    <glyph glyph-name="ampersand" unicode="&#x26;" horiz-adv-x="714" 
d="M704 3v-3h-159l-53 57q-89 -66 -212 -66q-75 0 -131.5 24.5t-87.5 69.5t-31 105q0 66 35 114t119 97q-29 43 -42.5 82t-13.5 78q0 72 53.5 115.5t142.5 43.5q83 0 132 -40.5t49 -109.5q0 -60 -31 -104.5t-108 -92.5l21 -23l97 -106q21 51 30 118h137q-16 -125 -76 -218z
M276.5 597.5q-15.5 -16.5 -15.5 -46.5q0 -38 34 -90q42 26 61.5 50t19.5 51q0 25 -14.5 38.5t-40.5 13.5q-29 0 -44.5 -16.5zM410 146l-142 154l-10 11q-44 -28 -61.5 -53t-17.5 -58q0 -39 31 -66t77 -27q72 0 123 39z" />
    <glyph glyph-name="quotesingle" unicode="'" horiz-adv-x="234" 
d="M56 710h122l-21 -317h-80z" />
    <glyph glyph-name="parenleft" unicode="(" horiz-adv-x="432" 
d="M139.5 1.5q-74.5 132.5 -74.5 293.5q0 162 74.5 294.5t220.5 230.5l62 -76q-99 -75 -153 -191.5t-54 -257.5q0 -140 54 -256.5t153 -192.5l-62 -76q-146 99 -220.5 231.5z" />
    <glyph glyph-name="parenright" unicode=")" horiz-adv-x="432" 
d="M10 -154q99 76 153 192.5t54 256.5q0 141 -54 257.5t-153 191.5l62 76q146 -98 220.5 -230.5t74.5 -294.5q0 -161 -74.5 -293.5t-220.5 -231.5z" />
    <glyph glyph-name="asterisk" unicode="*" horiz-adv-x="408" 
d="M169 543l-76 -49l-40 69l79 42l-79 42l40 69l76 -49l-6 90h82l-6 -90l76 49l40 -69l-79 -42l79 -42l-40 -69l-76 49l6 -90h-82z" />
    <glyph glyph-name="plus" unicode="+" horiz-adv-x="640" 
d="M590 209h-209v-209h-121v209h-210v102h210v209h121v-209h209v-102z" />
    <glyph glyph-name="comma" unicode="," horiz-adv-x="306" 
d="M100 138h138l-138 -317h-88z" />
    <glyph glyph-name="hyphen" unicode="-" horiz-adv-x="472" 
d="M60 326h352v-110h-352v110z" />
    <glyph glyph-name="period" unicode="." horiz-adv-x="306" 
d="M96 18q-23 23 -23 57q0 35 23 57.5t57 22.5q35 0 57.5 -22.5t22.5 -57.5q0 -34 -22.5 -57t-57.5 -23q-34 0 -57 23z" />
    <glyph glyph-name="slash" unicode="/" horiz-adv-x="530" 
d="M350 740h120l-340 -900h-120z" />
    <glyph glyph-name="zero" unicode="0" horiz-adv-x="689" 
d="M182.5 34q-68.5 44 -105.5 126.5t-37 194.5t37 194.5t105.5 126.5t161.5 44q94 0 162.5 -44t105.5 -126.5t37 -194.5t-37 -194.5t-105.5 -126.5t-162.5 -44q-93 0 -161.5 44zM457.5 171q41.5 67 41.5 184t-41.5 184t-113.5 67q-71 0 -112.5 -67.5t-41.5 -183.5
t41.5 -183.5t112.5 -67.5q72 0 113.5 67z" />
    <glyph glyph-name="one" unicode="1" horiz-adv-x="447" 
d="M347 710v-710h-148v557l-115 -78l-64 91l209 140h118z" />
    <glyph glyph-name="two" unicode="2" horiz-adv-x="608" 
d="M553 113v-112h-508v112l236 216q56 51 78 86.5t22 76.5q0 53 -31 83.5t-84 30.5q-71 0 -171 -60l-52 105q63 35 121.5 52t119.5 17q118 0 184 -60.5t66 -168.5q0 -63 -26.5 -113t-89.5 -108l-173 -157h308z" />
    <glyph glyph-name="three" unicode="3" horiz-adv-x="601" 
d="M509 302.5q34 -44.5 34 -108.5q0 -61 -32.5 -107t-92.5 -71.5t-139 -25.5q-122 0 -250 64l47 107q48 -27 97 -42t90 -15q58 0 92.5 28t34.5 74q0 50 -42.5 76t-125.5 26h-58v100h55q74 0 112.5 26.5t38.5 77.5q0 45 -28.5 69.5t-81.5 24.5q-78 0 -167 -59l-53 104
q122 69 241 69q73 0 127.5 -24t84.5 -68.5t30 -103.5q0 -56 -27.5 -97t-80.5 -64q60 -16 94 -60.5z" />
    <glyph glyph-name="four" unicode="4" horiz-adv-x="590" 
d="M562 248v-107h-84v-141h-143v141h-319v94l312 475h150v-462h84zM335 248v290l-186 -290h186z" />
    <glyph glyph-name="five" unicode="5" horiz-adv-x="601" 
d="M492.5 400q62.5 -62 62.5 -168q0 -73 -33 -128t-94.5 -84.5t-143.5 -29.5q-62 0 -126.5 17.5t-124.5 50.5l47 105q56 -31 100 -45t83 -14q65 0 103.5 34.5t38.5 93.5q0 55 -34 88t-92 33q-33 0 -61.5 -12.5t-44.5 -33.5l-93 23v380h418v-112h-281v-158q45 22 107 22
q106 0 168.5 -62z" />
    <glyph glyph-name="six" unicode="6" horiz-adv-x="601" 
d="M508 398.5q63 -61.5 63 -166.5q0 -73 -32 -128t-91 -84.5t-138 -29.5q-134 0 -203 88t-69 259q0 190 83 286.5t246 96.5q90 0 170 -33l-39 -109q-68 28 -130 28q-85 0 -131.5 -54t-51.5 -159q58 67 153 67q107 0 170 -61.5zM399 136q32 34 32 91t-32.5 90.5t-88.5 33.5
q-46 0 -78 -23.5t-46 -67.5q14 -158 127 -158q54 0 86 34z" />
    <glyph glyph-name="seven" unicode="7" horiz-adv-x="497" 
d="M487 710v-103l-260 -607h-152l265 596h-330v114h477z" />
    <glyph glyph-name="eight" unicode="8" horiz-adv-x="601" 
d="M540.5 312.5q32.5 -43.5 32.5 -107.5q0 -100 -72 -157.5t-198 -57.5q-82 0 -144 24.5t-96.5 69.5t-34.5 104q0 57 33 101t92 67q-105 61 -105 164q0 59 32 104.5t89.5 70.5t132.5 25q70 0 124 -23t84 -64t30 -95q0 -50 -27 -88.5t-78 -62.5q73 -31 105.5 -74.5zM227 588
q-27 -22 -27 -60q0 -27 13.5 -45t45.5 -33.5t93 -33.5q51 45 51 103q0 43 -27.5 67t-75.5 24q-46 0 -73 -22zM391.5 126q31.5 26 31.5 71q0 26 -11 42.5t-38 30t-81 28.5q-35 10 -63 21q-52 -40 -52 -105q0 -53 34.5 -83.5t93.5 -30.5q54 0 85.5 26z" />
    <glyph glyph-name="nine" unicode="9" horiz-adv-x="601" 
d="M560 365q0 -189 -74 -282t-225 -93q-95 0 -180 33l35 109q68 -28 130 -28q81 0 121.5 52t45.5 161q-58 -67 -153 -67q-107 0 -170 61.5t-63 167.5q0 73 31 127.5t88 84t133 29.5q281 0 281 -355zM366 382.5q32 23.5 46 67.5q-14 158 -127 158q-54 0 -86 -34t-32 -91
t32.5 -90.5t88.5 -33.5q46 0 78 23.5z" />
    <glyph glyph-name="colon" unicode=":" horiz-adv-x="306" 
d="M96 18q-23 23 -23 57q0 35 23 57.5t57 22.5q35 0 57.5 -22.5t22.5 -57.5q0 -34 -22.5 -57t-57.5 -23q-34 0 -57 23zM96 363q-23 23 -23 57q0 35 23 57.5t57 22.5q35 0 57.5 -22.5t22.5 -57.5q0 -34 -22.5 -57t-57.5 -23q-34 0 -57 23z" />
    <glyph glyph-name="semicolon" unicode=";" horiz-adv-x="306" 
d="M80 138h138l-138 -317h-88zM96 363q-23 23 -23 57q0 35 23 57.5t57 22.5q35 0 57.5 -22.5t22.5 -57.5q0 -34 -22.5 -57t-57.5 -23q-34 0 -57 23z" />
    <glyph glyph-name="less" unicode="&#x3c;" horiz-adv-x="640" 
d="M580 405l-410 -143l410 -143v-108l-540 200v102l540 200v-108z" />
    <glyph glyph-name="equal" unicode="=" horiz-adv-x="640" 
d="M50 208h540v-102h-540v102zM50 414h540v-102h-540v102z" />
    <glyph glyph-name="greater" unicode="&#x3e;" horiz-adv-x="640" 
d="M600 313v-102l-540 -200v108l410 143l-410 143v108z" />
    <glyph glyph-name="question" unicode="?" horiz-adv-x="442" 
d="M136 260q0 52 6 82t23.5 54.5t54.5 56.5q30 25 44 45t14 43q0 32 -23.5 52t-62.5 20q-59 0 -133 -39l-40 99q48 23 97 35t91 12q100 0 150.5 -42.5t50.5 -115.5q0 -46 -19.5 -78.5t-63.5 -73.5q-32 -30 -46 -50t-18 -41t-4 -59v-30h-121v30zM139 18q-23 23 -23 57
q0 35 23 57.5t57 22.5q35 0 57.5 -22.5t22.5 -57.5q0 -34 -22.5 -57t-57.5 -23q-34 0 -57 23z" />
    <glyph glyph-name="at" unicode="@" horiz-adv-x="906" 
d="M520 307q1 4 1 14q0 49 -68 49q-57 0 -131 -36l-29 80q30 17 81.5 30.5t103.5 13.5q78 0 117 -32t39 -94q0 -14 -1 -21l-10 -104q-1 -8 -1 -23q0 -23 9 -36.5t32 -13.5q50 0 79 53.5t29 126.5q0 74 -35.5 130t-99.5 86.5t-147 30.5q-112 0 -191.5 -42.5t-120 -117
t-40.5 -171.5q0 -135 80.5 -206t235.5 -71q60 0 109.5 11.5t113.5 33.5l27 -79q-56 -24 -123.5 -37t-135.5 -13q-189 0 -296.5 92t-107.5 266q0 120 52.5 214t155 147.5t246.5 53.5q113 0 197 -40t129.5 -113t45.5 -169q0 -74 -25.5 -134.5t-75 -95.5t-118.5 -35
q-86 0 -120 56q-54 -57 -144 -57q-65 0 -98 29.5t-33 79.5q0 77 74.5 108.5t192.5 30.5zM460.5 149.5q26.5 9.5 46.5 29.5v8q0 14 1 21l3 25q-77 -4 -109.5 -18t-32.5 -41q0 -15 10 -24.5t31 -9.5q24 0 50.5 9.5z" />
    <glyph glyph-name="A" unicode="A" horiz-adv-x="742" 
d="M514 138h-292l-50 -138h-152l272 710h158l272 -710h-158zM475 246l-107 299l-107 -299h214z" />
    <glyph glyph-name="B" unicode="B" horiz-adv-x="717" 
d="M629 313.5q38 -45.5 38 -118.5q0 -95 -65 -145t-188 -50h-324v710h314q107 0 165 -47t58 -132q0 -113 -109 -158q73 -14 111 -59.5zM238 598v-181h135q51 0 77.5 23t26.5 68q0 90 -104 90h-135zM489.5 137q27.5 25 27.5 73q0 47 -27.5 71t-81.5 24h-170v-193h170
q54 0 81.5 25z" />
    <glyph glyph-name="C" unicode="C" horiz-adv-x="636" 
d="M208.5 34q-81.5 44 -125 126.5t-43.5 194.5t43.5 194.5t124.5 126.5t192 44q67 0 127.5 -15.5t98.5 -43.5l-49 -103q-35 22 -80 35t-88 13q-102 0 -160.5 -67t-58.5 -183q0 -117 59 -184.5t161 -67.5q81 0 167 49l49 -102q-40 -28 -100 -44.5t-125 -16.5
q-111 0 -192.5 44z" />
    <glyph glyph-name="D" unicode="D" horiz-adv-x="757" 
d="M618.5 619q98.5 -91 98.5 -264t-98.5 -264t-285.5 -91h-243v710h243q187 0 285.5 -91zM507.5 174q59.5 62 59.5 181t-59.5 181t-174.5 62h-97v-486h97q115 0 174.5 62z" />
    <glyph glyph-name="E" unicode="E" horiz-adv-x="627" 
d="M577 112v-112h-487v710h477v-112h-329v-188h309v-110h-309v-188h339z" />
    <glyph glyph-name="F" unicode="F" horiz-adv-x="577" 
d="M238 598v-202h279v-110h-279v-286h-148v710h457v-112h-309z" />
    <glyph glyph-name="G" unicode="G" horiz-adv-x="768" 
d="M713 396v-396h-124v75q-67 -85 -207 -85q-101 0 -179 45t-120.5 127.5t-42.5 189.5q0 113 45.5 196t130.5 127.5t200 44.5q81 0 153 -22.5t124 -63.5l-63 -99q-48 37 -98.5 54t-109.5 17q-114 0 -173 -64.5t-59 -189.5q0 -75 26 -131t74.5 -86.5t112.5 -30.5
q120 0 182 82v102h-196v108h324z" />
    <glyph glyph-name="H" unicode="H" horiz-adv-x="786" 
d="M696 710v-710h-148v306h-310v-306h-148v710h148v-292h310v292h148z" />
    <glyph glyph-name="I" unicode="I" horiz-adv-x="348" 
d="M100 710h148v-710h-148v710z" />
    <glyph glyph-name="J" unicode="J" horiz-adv-x="478" 
d="M9 30l38 106q63 -30 116 -30q47 0 67 23t20 76v505h148v-490q0 -120 -49 -174t-158 -54q-97 0 -182 38z" />
    <glyph glyph-name="K" unicode="K" horiz-adv-x="747" 
d="M345 326l-109 -116v-210h-146v710h146v-322l298 322h174l-264 -279l293 -431h-180z" />
    <glyph glyph-name="L" unicode="L" horiz-adv-x="577" 
d="M557 112v-112h-467v710h148v-598h319z" />
    <glyph glyph-name="M" unicode="M" horiz-adv-x="887" 
d="M797 710v-710h-142v441l-162 -311h-99l-162 311v-441h-142v710h136l218 -421l217 421h136z" />
    <glyph glyph-name="N" unicode="N" horiz-adv-x="786" 
d="M696 710v-710h-126l-343 487v-487h-137v710h136l333 -470v470h137z" />
    <glyph glyph-name="O" unicode="O" horiz-adv-x="808" 
d="M213.5 35.5q-82.5 45.5 -128 128.5t-45.5 191t45.5 191t128 128.5t190.5 45.5t190.5 -45.5t128 -128.5t45.5 -191t-45.5 -191t-128 -128.5t-190.5 -45.5t-190.5 45.5zM516.5 135q48.5 31 75 88t26.5 132t-26.5 132t-75 88t-112.5 31t-112.5 -31t-75 -88t-26.5 -132
t26.5 -132t75 -88t112.5 -31t112.5 31z" />
    <glyph glyph-name="P" unicode="P" horiz-adv-x="627" 
d="M535 648.5q72 -61.5 72 -171.5t-72 -171.5t-199 -61.5h-98v-244h-148v710h246q127 0 199 -61.5zM437 388q36 32 36 89t-36 89t-101 32h-98v-242h98q65 0 101 32z" />
    <glyph glyph-name="Q" unicode="Q" horiz-adv-x="799" 
d="M621 -40q16 -16 31.5 -21.5t41.5 -5.5h18v-103h-30q-58 0 -93 8.5t-62 29.5t-57 63l-43 60q-8 -1 -23 -1q-108 0 -190.5 45.5t-128 128.5t-45.5 191t45.5 191t128 128.5t190.5 45.5t190.5 -45.5t128 -128.5t45.5 -191q0 -118 -52.5 -204.5t-146.5 -127.5l8 -11
q28 -36 44 -52zM216.5 223q26.5 -57 75 -88t112.5 -31t112.5 31t75 88t26.5 132t-26.5 132t-75 88t-112.5 31t-112.5 -31t-75 -88t-26.5 -132t26.5 -132z" />
    <glyph glyph-name="R" unicode="R" horiz-adv-x="687" 
d="M672 107v-107h-30q-59 0 -92.5 8t-57.5 28.5t-52 64.5l-89 137q-16 25 -29 33.5t-36 8.5h-48v-280h-148v710h274q120 0 186.5 -55.5t66.5 -156.5q0 -74 -42 -125.5t-117 -67.5q17 -13 39 -45l50 -74q25 -38 39 -53.5t28.5 -20.5t39.5 -5h18zM364 384q56 0 87.5 28
t31.5 79t-31.5 79t-87.5 28h-126v-214h126z" />
    <glyph glyph-name="S" unicode="S" horiz-adv-x="613" 
d="M156.5 8q-74.5 18 -128.5 45l41 112q127 -61 229 -61q69 0 103 25t34 69q0 32 -18 50.5t-51 29.5t-102 27q-68 16 -112 34t-75 58t-31 109q0 103 73.5 158.5t204.5 55.5q128 0 226 -46l-45 -106q-83 38 -171 38q-62 0 -100 -19.5t-38 -64.5q0 -28 17.5 -45t48 -28
t96.5 -28q85 -22 132 -44t71 -58.5t24 -97.5q0 -111 -73.5 -171t-206.5 -60q-74 0 -148.5 18z" />
    <glyph glyph-name="T" unicode="T" horiz-adv-x="628" 
d="M240 598h-220v112h588v-112h-220v-598h-148v598z" />
    <glyph glyph-name="U" unicode="U" horiz-adv-x="772" 
d="M225 23.5q-68 33.5 -104 96.5t-36 148v442h148v-456q0 -70 40.5 -110t111.5 -40t112.5 40t41.5 110v456h148v-442q0 -85 -36.5 -148t-104.5 -96.5t-161 -33.5q-92 0 -160 33.5z" />
    <glyph glyph-name="V" unicode="V" horiz-adv-x="706" 
d="M696 710l-272 -710h-152l-262 710h152l184 -544l192 544h158z" />
    <glyph glyph-name="W" unicode="W" horiz-adv-x="1034" 
d="M1019 710l-198 -710h-167l-137 509l-136 -509h-167l-199 710h152l144 -518l132 518h148l134 -518l142 518h152z" />
    <glyph glyph-name="X" unicode="X" horiz-adv-x="727" 
d="M278 362l-253 348h172l167 -243l166 243h172l-253 -348l263 -362h-172l-176 257l-177 -257h-172z" />
    <glyph glyph-name="Y" unicode="Y" horiz-adv-x="686" 
d="M415 285v-285h-144v285l-256 425h158l170 -301l170 301h158z" />
    <glyph glyph-name="Z" unicode="Z" horiz-adv-x="678" 
d="M630 115v-115h-580v96l376 499h-346v115h530v-106l-371 -489h391z" />
    <glyph glyph-name="bracketleft" unicode="[" horiz-adv-x="377" 
d="M90 810h267v-92h-141v-857h141v-92h-267v1041z" />
    <glyph glyph-name="backslash" unicode="\" horiz-adv-x="530" 
d="M40 740h120l340 -900h-120z" />
    <glyph glyph-name="bracketright" unicode="]" horiz-adv-x="377" 
d="M20 -231v92h141v857h-141v92h267v-1041h-267z" />
    <glyph glyph-name="asciicircum" unicode="^" horiz-adv-x="595" 
d="M460 167l-162 416l-163 -416h-115l220 543h115l220 -543h-115z" />
    <glyph glyph-name="underscore" unicode="_" horiz-adv-x="598" 
d="M-2 -74h602v-84h-602v84z" />
    <glyph glyph-name="grave" unicode="`" horiz-adv-x="600" 
d="M147 765h171l110 -160h-113z" />
    <glyph glyph-name="a" unicode="a" horiz-adv-x="572" 
d="M562 6q-37 -13 -68 -13q-96 0 -120 70q-30 -34 -74 -52.5t-96 -18.5q-80 0 -127 41.5t-47 112.5q0 84 85.5 127.5t250.5 42.5v27q0 44 -23 64t-75 20q-75 0 -169 -49l-41 97q41 24 106 39.5t126 15.5q105 0 156.5 -45.5t51.5 -138.5v-214q0 -31 30 -31q18 0 25 3z
M306.5 107q34.5 14 59.5 38v85q-84 -4 -126 -12t-58.5 -23t-16.5 -44q0 -58 70 -58q37 0 71.5 14z" />
    <glyph glyph-name="b" unicode="b" horiz-adv-x="639" 
d="M535.5 460.5q68.5 -69.5 68.5 -189.5q0 -83 -30.5 -146.5t-86 -99t-127.5 -35.5q-91 0 -148 52v-42h-132v710h135v-215q55 35 133 35q119 0 187.5 -69.5zM426 138.5q41 48.5 41 128.5q0 76 -38.5 118t-109.5 42q-60 0 -104 -33v-273q42 -31 102 -31q68 0 109 48.5z" />
    <glyph glyph-name="c" unicode="c" horiz-adv-x="523" 
d="M161 23.5q-63 33.5 -97 94.5t-34 142q0 82 33.5 143t95.5 94t145 33q54 0 103 -15t86 -43l-52 -88q-32 22 -63.5 32.5t-66.5 10.5q-67 0 -105.5 -45t-38.5 -122q0 -76 40 -121.5t108 -45.5q35 0 66.5 10.5t63.5 32.5l52 -87q-35 -28 -84.5 -43.5t-104.5 -15.5
q-84 0 -147 33.5z" />
    <glyph glyph-name="d" unicode="d" horiz-adv-x="633" 
d="M558 710v-710h-132v49q-56 -59 -151 -59q-70 0 -124.5 33.5t-85 93.5t-30.5 137q0 82 34.5 144.5t98 97t146.5 34.5q57 0 109 -18v198h135zM423 121v286q-43 20 -94 20q-73 0 -116 -45.5t-43 -121.5q0 -77 42.5 -123.5t113.5 -46.5q58 0 97 31z" />
    <glyph glyph-name="e" unicode="e" horiz-adv-x="577" 
d="M546 223h-378q8 -61 49.5 -96.5t106.5 -35.5q40 0 77 14t68 40l59 -85q-82 -70 -210 -70q-87 0 -152 33t-100.5 94t-35.5 143q0 80 34 141.5t95.5 95t142.5 33.5q115 0 181 -67.5t66 -185.5q0 -18 -3 -54zM422 313q-1 54 -33.5 85.5t-88.5 31.5q-53 0 -88 -31t-44 -86
h254z" />
    <glyph glyph-name="f" unicode="f" horiz-adv-x="417" 
d="M115 420h-85v100h85v29q0 95 39 138t125 43q32 0 67.5 -6.5t66.5 -17.5l-28 -94q-44 16 -76 16t-45.5 -16.5t-13.5 -53.5v-38h136v-105h-136v-415h-135v420z" />
    <glyph glyph-name="g" unicode="g" horiz-adv-x="633" 
d="M558 520v-490q0 -121 -63 -180.5t-192 -59.5q-119 0 -219 49l38 97q41 -21 85 -32t85 -11q65 0 98 28t33 83v25q-49 -29 -122 -29q-80 0 -140 32t-93 91t-33 136q0 79 33 140.5t92.5 96t135.5 34.5q82 0 133 -42v32h129zM423 137v264q-40 26 -93 26q-73 0 -116.5 -45
t-43.5 -122q0 -71 40 -114t107 -43q61 0 106 34z" />
    <glyph glyph-name="h" unicode="h" horiz-adv-x="646" 
d="M527 478q49 -52 49 -153v-325h-135v313q0 56 -23.5 83.5t-71.5 27.5q-40 0 -75.5 -18.5t-55.5 -49.5v-356h-135v710h135v-260q54 80 166 80q97 0 146 -52z" />
    <glyph glyph-name="i" unicode="i" horiz-adv-x="306" 
d="M95.5 590.5q-22.5 21.5 -22.5 54.5q0 32 23 53.5t57 21.5t57 -21.5t23 -53.5q0 -33 -22.5 -54.5t-57.5 -21.5t-57.5 21.5zM86 520h135v-520h-135v520z" />
    <glyph glyph-name="j" unicode="j" horiz-adv-x="325" 
d="M114.5 590.5q-22.5 21.5 -22.5 54.5q0 32 23 53.5t57 21.5t57 -21.5t23 -53.5q0 -33 -22.5 -54.5t-57.5 -21.5t-57.5 21.5zM-63 -186l25 96q45 -16 81 -16q34 0 48 16.5t14 55.5v554h135v-552q0 -94 -40.5 -136t-130.5 -42q-60 0 -132 24z" />
    <glyph glyph-name="k" unicode="k" horiz-adv-x="587" 
d="M290 220l-75 -80v-140h-135v710h135v-409l203 219h153l-195 -208l206 -312h-155z" />
    <glyph glyph-name="l" unicode="l" horiz-adv-x="337" 
d="M118 29q-28 35 -28 106v575h135v-563q0 -27 10 -36.5t29 -9.5q15 0 33 3l8 -99q-36 -11 -84 -11q-75 0 -103 35z" />
    <glyph glyph-name="m" unicode="m" horiz-adv-x="962" 
d="M844 478.5q48 -50.5 48 -148.5v-330h-135v318q0 105 -89 105q-37 0 -69 -17t-49 -46q1 -10 1 -30v-330h-135v318q0 105 -89 105q-36 0 -67.5 -16.5t-49.5 -44.5v-362h-135v520h132v-69q50 78 155 78q127 0 169 -92q51 92 171 92q94 0 142 -50.5z" />
    <glyph glyph-name="n" unicode="n" horiz-adv-x="641" 
d="M522 478q49 -52 49 -153v-325h-135v313q0 56 -23.5 83.5t-71.5 27.5q-40 0 -75.5 -18.5t-55.5 -49.5v-356h-135v520h132v-75q52 85 169 85q97 0 146 -52z" />
    <glyph glyph-name="o" unicode="o" horiz-adv-x="610" 
d="M162.5 24.5q-62.5 34.5 -97.5 95.5t-35 140t35 140t97.5 95.5t142.5 34.5t142.5 -34.5t97.5 -95.5t35 -140t-35 -140t-97.5 -95.5t-142.5 -34.5t-142.5 34.5zM404.5 139.5q38.5 46.5 38.5 120.5t-38.5 120.5t-99.5 46.5t-99.5 -46.5t-38.5 -120.5t38.5 -120.5t99.5 -46.5
t99.5 46.5z" />
    <glyph glyph-name="p" unicode="p" horiz-adv-x="633" 
d="M479 497.5q57 -32.5 88 -91.5t31 -137q0 -83 -32.5 -146.5t-91.5 -98t-136 -34.5q-72 0 -128 28v-208h-135v710h129v-38q56 48 143 48q75 0 132 -32.5zM421.5 135.5q41.5 49.5 41.5 131.5q0 77 -39.5 121t-109.5 44q-62 0 -104 -36v-277q44 -33 102 -33q68 0 109.5 49.5z
" />
    <glyph glyph-name="q" unicode="q" horiz-adv-x="633" 
d="M558 520v-710h-135v209q-51 -29 -123 -29q-79 0 -139 32.5t-93 92.5t-33 139q0 81 33 143.5t92 97.5t136 35q83 0 133 -41v31h129zM423 124v282q-40 26 -93 26q-73 0 -116.5 -49t-43.5 -130q0 -76 40 -120.5t107 -44.5q61 0 106 36z" />
    <glyph glyph-name="r" unicode="r" horiz-adv-x="426" 
d="M406 522v-111h-23q-113 0 -173 -120v-291h-135v520h132v-103q30 57 73 83t93 26q21 0 33 -4z" />
    <glyph glyph-name="s" unicode="s" horiz-adv-x="512" 
d="M132.5 3q-57.5 13 -101.5 32l32 99q103 -44 176 -44q93 0 93 59q0 17 -9.5 26.5t-31.5 18t-74 23.5q-58 17 -92 33t-54.5 45.5t-20.5 78.5q0 78 53 117t153 39q54 0 104 -10t87 -26l-29 -96q-93 32 -156 32q-39 0 -59.5 -11t-20.5 -33q0 -25 26 -38t79 -26q32 -8 48 -13
q62 -19 95 -54.5t33 -96.5q0 -81 -57 -124.5t-158 -43.5q-58 0 -115.5 13z" />
    <glyph glyph-name="t" unicode="t" horiz-adv-x="418" 
d="M136.5 36.5q-36.5 42.5 -36.5 145.5v238h-85v95h24q43 0 58 15.5t15 58.5v53h123v-122h136v-100h-136v-254q0 -37 13.5 -53.5t43.5 -16.5q35 0 78 20l28 -92q-54 -30 -137 -30q-88 0 -124.5 42.5z" />
    <glyph glyph-name="u" unicode="u" horiz-adv-x="639" 
d="M564 520v-520h-132v71q-54 -81 -168 -81q-96 0 -145 52t-49 153v325h135v-313q0 -111 94 -111q39 0 74.5 17.5t55.5 47.5v359h135z" />
    <glyph glyph-name="v" unicode="v" horiz-adv-x="560" 
d="M550 520l-200 -520h-140l-200 520h140l130 -370l130 370h140z" />
    <glyph glyph-name="w" unicode="w" horiz-adv-x="838" 
d="M818 520l-148 -520h-156l-95 363l-95 -363h-156l-148 520h132l100 -391l106 391h122l106 -391l100 391h132z" />
    <glyph glyph-name="x" unicode="x" horiz-adv-x="561" 
d="M208 264l-184 256h149l108 -156l107 156h149l-184 -256l190 -264h-149l-113 165l-114 -165h-149z" />
    <glyph glyph-name="y" unicode="y" horiz-adv-x="567" 
d="M557 520l-218 -544q-29 -72 -58.5 -111t-69 -56t-99.5 -17q-50 0 -97 12l16 100q41 -9 76 -9q40 0 62 17t40 62l14 37l-213 509h140l135 -351l136 351h136z" />
    <glyph glyph-name="z" unicode="z" horiz-adv-x="505" 
d="M465 100v-100h-425v70l238 350h-221v100h388v-78l-233 -342h253z" />
    <glyph glyph-name="braceleft" unicode="{" horiz-adv-x="376" 
d="M224 349q-21 -37 -68 -59q47 -22 68 -59t21 -95v-185q0 -48 24.5 -74t69.5 -26h17v-82h-17q-118 0 -169 46.5t-51 153.5v179q0 100 -87 100v84q87 0 87 100v178q0 107 51 153.5t169 46.5h17v-82h-17q-45 0 -69.5 -26t-24.5 -74v-184q0 -58 -21 -95z" />
    <glyph glyph-name="bar" unicode="|" horiz-adv-x="368" 
d="M125 750h118v-910h-118v910z" />
    <glyph glyph-name="braceright" unicode="}" horiz-adv-x="376" 
d="M344 332v-84q-87 0 -87 -100v-179q0 -107 -51 -153.5t-169 -46.5h-17v82h17q45 0 69.5 26t24.5 74v185q0 58 21 95t68 59q-47 22 -68 59t-21 95v184q0 48 -24.5 74t-69.5 26h-17v82h17q118 0 169 -46.5t51 -153.5v-178q0 -100 87 -100z" />
    <glyph glyph-name="asciitilde" unicode="~" horiz-adv-x="518" 
d="M64.5 331.5q29.5 40.5 90.5 40.5q29 0 55 -8t61 -24q29 -13 46 -19t34 -6q23 0 33.5 14t10.5 43h88q0 -82 -28.5 -121.5t-90.5 -39.5q-31 0 -56 8t-61 25q-24 12 -41 18t-33 6q-25 0 -37.5 -16t-12.5 -43h-88q0 82 29.5 122.5z" />
    <glyph glyph-name="uni00A0" unicode="&#xa0;" horiz-adv-x="280" 
 />
    <glyph glyph-name="exclamdown" unicode="&#xa1;" horiz-adv-x="348" 
d="M230.5 507.5q22.5 -22.5 22.5 -57.5q0 -34 -22.5 -57t-57.5 -23q-34 0 -57 23t-23 57q0 35 23 57.5t57 22.5q35 0 57.5 -22.5zM228 272l30 -460h-168l30 460h108z" />
    <glyph glyph-name="cent" unicode="&#xa2;" horiz-adv-x="523" 
d="M426 20.5q-41 -14.5 -86 -19.5v-95h-70v96q-111 11 -175.5 83t-64.5 184q0 114 64.5 185.5t175.5 82.5v89h70v-90q91 -9 153 -56l-52 -88q-50 35 -101 41v-329q54 6 105 42l52 -87q-30 -24 -71 -38.5zM194.5 165q27.5 -42 75.5 -56v321q-49 -13 -76 -55t-27 -106
q0 -62 27.5 -104z" />
    <glyph glyph-name="sterling" unicode="&#xa3;" horiz-adv-x="608" 
d="M552 113v-112h-507v92q67 21 100 50.5t33 80.5q0 49 -25 104h-108v102h67q-10 38 -10 81q0 99 68.5 154t188.5 55q96 0 191 -46l-45 -107q-68 39 -128 39q-56 0 -89 -28.5t-33 -74.5q0 -32 13 -73h182v-102h-144q9 -40 9 -76q0 -42 -15 -78t-42 -61h294z" />
    <glyph glyph-name="currency" unicode="&#xa4;" horiz-adv-x="460" 
d="M363 197l40 -36l-53 -53l-42 38q-33 -18 -78 -18t-78 18l-42 -38l-53 53l40 36q-18 32 -18 72q0 41 18 72l-40 36l53 53l42 -38q33 18 78 18t78 -18l42 38l53 -53l-40 -36q18 -31 18 -72q0 -40 -18 -72zM173 209q22 -23 57 -23t57 23t22 60t-22 60t-57 23t-57 -23
t-22 -60t22 -60z" />
    <glyph glyph-name="yen" unicode="&#xa5;" horiz-adv-x="686" 
d="M449 389h164v-81h-201v-67h201v-81h-201v-160h-138v160h-201v81h201v67h-201v81h164l-202 321h158l150 -261l150 261h158z" />
    <glyph glyph-name="brokenbar" unicode="&#xa6;" horiz-adv-x="368" 
d="M125 750h118v-360h-118v360zM125 200h118v-360h-118v360z" />
    <glyph glyph-name="section" unicode="&#xa7;" horiz-adv-x="509" 
d="M461 127q0 -81 -57.5 -124t-162.5 -43q-54 0 -111.5 13.5t-100.5 31.5l32 99q103 -44 176 -44q93 0 93 55q0 28 -24.5 42.5t-90.5 29.5q-63 14 -102 29.5t-62 43t-23 73.5q0 41 22.5 71.5t65.5 47.5q-58 41 -58 116q0 74 52.5 113t147.5 39q51 0 100.5 -10t86.5 -26
l-29 -96q-93 32 -159 32q-34 0 -50.5 -10t-16.5 -31q0 -22 27.5 -37.5t99.5 -35.5q92 -26 128 -58t36 -86q0 -38 -19.5 -67t-55.5 -47q55 -42 55 -121zM173 335q13 -12 43 -22.5t95 -26.5q39 12 39 46q0 19 -12 30.5t-37 20.5t-86 26l-6 2q-49 -6 -49 -45q0 -19 13 -31z" />
    <glyph glyph-name="dieresis" unicode="&#xa8;" horiz-adv-x="600" 
d="M143 630q-20 19 -20 48t20 48t51 19t51 -19t20 -48t-20 -48t-51 -19t-51 19zM355 630q-20 19 -20 48t20 48t51 19t51 -19t20 -48t-20 -48t-51 -19t-51 19z" />
    <glyph glyph-name="copyright" unicode="&#xa9;" horiz-adv-x="791" 
d="M207.5 37q-83.5 47 -130.5 130t-47 188t47 188t130.5 130t188.5 47t188 -47t130 -130t47 -188t-47 -188t-130 -130t-188 -47t-188.5 47zM541 105q64 37 100 102.5t36 147.5t-36 147.5t-100 102.5t-145 37t-145 -37t-100.5 -102.5t-36.5 -147.5t36.5 -147.5t100.5 -102.5
t145 -37t145 37zM271 216.5q-52 50.5 -52 134.5t51 134.5t138 50.5q37 0 70.5 -10.5t58.5 -29.5l-35 -60q-44 29 -90 29t-72.5 -30.5t-26.5 -83.5q0 -52 28 -83t74 -31q47 0 89 29l36 -59q-26 -20 -59.5 -30.5t-70.5 -10.5q-87 0 -139 50.5z" />
    <glyph glyph-name="ordfeminine" unicode="&#xaa;" horiz-adv-x="403" 
d="M393 354q-28 -9 -51 -9q-29 0 -51.5 10.5t-35.5 28.5q-42 -39 -106 -39q-55 0 -87 28.5t-32 75.5q0 55 53.5 84t157.5 32v9q0 29 -13 43t-41 14q-47 0 -110 -34l-28 76q29 17 73.5 27.5t84.5 10.5q142 0 142 -125v-146q0 -11 4.5 -16t15.5 -5q9 0 17 2zM178 423
q34 0 63 19v63q-57 -4 -80.5 -15t-23.5 -32q0 -35 41 -35z" />
    <glyph glyph-name="guillemotleft" unicode="&#xab;" horiz-adv-x="692" 
d="M80 266l170 180h132l-170 -180l170 -180h-132zM310 266l170 180h132l-170 -180l170 -180h-132z" />
    <glyph glyph-name="logicalnot" unicode="&#xac;" horiz-adv-x="580" 
d="M417 211h-367v102h480v-236h-113v134z" />
    <glyph glyph-name="uni00AD" unicode="&#xad;" horiz-adv-x="472" 
d="M60 326h352v-110h-352v110z" />
    <glyph glyph-name="registered" unicode="&#xae;" horiz-adv-x="459" 
d="M142.5 415q-38.5 21 -60.5 58t-22 84t22 84t60.5 58t87.5 21q48 0 86.5 -21t60.5 -58t22 -84t-22 -84t-60.5 -58t-86.5 -21q-49 0 -87.5 21zM322.5 464q36.5 37 36.5 93t-36.5 93t-92.5 37t-93 -37t-37 -93t37 -93t93 -37t92.5 37zM173 637h61q27 0 41.5 -12.5
t14.5 -35.5q0 -16 -9.5 -27.5t-25.5 -15.5q2 -1 9 -10l11 -16q7 -11 11 -13.5t13 -2.5h4v-26h-7q-20 0 -31 5t-19 18l-19 30q-4 6 -7 8t-8 2h-3v-63h-36v159zM231 567q24 0 24 23q0 21 -24 21h-22v-44h22z" />
    <glyph glyph-name="macron" unicode="&#xaf;" horiz-adv-x="602" 
d="M108 733h386v-92h-386v92z" />
    <glyph glyph-name="degree" unicode="&#xb0;" horiz-adv-x="402" 
d="M118.5 428q-36.5 20 -57.5 55t-21 79t21 79t57.5 55t82.5 20t82.5 -20t57.5 -55t21 -79t-21 -79t-57.5 -55t-82.5 -20t-82.5 20zM262 501q24 24 24 61t-24 61t-61 24t-61 -24t-24 -61t24 -61t61 -24t61 24z" />
    <glyph glyph-name="plusminus" unicode="&#xb1;" horiz-adv-x="640" 
d="M590 411v-102h-208v-155h-121v155h-210v102h210v155h121v-155h208zM50 102h540v-102h-540v102z" />
    <glyph glyph-name="uni00B2" unicode="&#xb2;" horiz-adv-x="360" 
d="M305 429v-76h-260v56l98 108q32 35 41.5 50.5t9.5 31.5q0 19 -12 30t-33 11q-14 0 -28.5 -4.5t-46.5 -20.5l-31 73q66 32 124 32q61 0 95 -29t34 -80q0 -30 -13.5 -57t-45.5 -64l-55 -61h123z" />
    <glyph glyph-name="uni00B3" unicode="&#xb3;" horiz-adv-x="346" 
d="M270.5 507q17.5 -23 17.5 -56q0 -47 -38 -75t-102 -28q-67 0 -119 29l27 72q18 -8 37 -13.5t33 -5.5q21 0 33.5 10.5t12.5 27.5q0 19 -14.5 27.5t-45.5 8.5h-22v60h21q58 0 58 39q0 18 -11.5 27.5t-32.5 9.5q-27 0 -67 -22l-28 71q54 31 120 31q59 0 93.5 -26.5
t34.5 -72.5q0 -59 -55 -83q30 -8 47.5 -31z" />
    <glyph glyph-name="acute" unicode="&#xb4;" horiz-adv-x="600" 
d="M327 765h171l-168 -160h-113z" />
    <glyph glyph-name="uni00B5" unicode="&#xb5;" horiz-adv-x="644" 
d="M569 520v-520h-132v70q-24 -39 -59.5 -59.5t-78.5 -20.5q-47 0 -89 21v-201h-135v710h135v-313q0 -111 94 -111q39 0 74.5 17.5t55.5 47.5v359h135z" />
    <glyph glyph-name="paragraph" unicode="&#xb6;" horiz-adv-x="600" 
d="M202 301q-50 0 -91.5 26.5t-66 73t-24.5 104.5q0 60 26.5 106.5t76.5 72.5t119 26h278v-810h-118v719h-82v-719h-118v401z" />
    <glyph glyph-name="periodcentered" unicode="&#xb7;" horiz-adv-x="304" 
d="M95 218q-23 23 -23 57q0 35 23 57.5t57 22.5q35 0 57.5 -22.5t22.5 -57.5q0 -34 -22.5 -57t-57.5 -23q-34 0 -57 23z" />
    <glyph glyph-name="cedilla" unicode="&#xb8;" horiz-adv-x="600" 
d="M381 -76.5q27 -24.5 27 -64.5q0 -48 -35 -73.5t-100 -25.5q-36 0 -78 14l15 55q27 -7 54 -7q28 0 42.5 8.5t14.5 25.5q0 16 -10 24.5t-28 8.5q-12 0 -22.5 -3.5t-14.5 -9.5l-45 22l48 102h76l-32 -53q5 1 16 1q45 0 72 -24.5z" />
    <glyph glyph-name="uni00B9" unicode="&#xb9;" horiz-adv-x="332" 
d="M232 710v-357h-108v251l-61 -40l-43 71l115 75h97z" />
    <glyph glyph-name="ordmasculine" unicode="&#xba;" horiz-adv-x="434" 
d="M120.5 366q-42.5 23 -66.5 65t-24 95q0 54 24 95.5t66.5 65t96.5 23.5t96.5 -23.5t66.5 -65t24 -95.5q0 -53 -24 -95t-66.5 -65t-96.5 -23t-96.5 23zM274.5 452q21.5 28 21.5 74q0 47 -21.5 75t-57.5 28t-57.5 -28t-21.5 -75q0 -46 21.5 -74t57.5 -28t57.5 28z" />
    <glyph glyph-name="guillemotright" unicode="&#xbb;" horiz-adv-x="692" 
d="M480 266l-170 180h132l170 -180l-170 -180h-132zM250 266l-170 180h132l170 -180l-170 -180h-132z" />
    <glyph glyph-name="onequarter" unicode="&#xbc;" horiz-adv-x="727" 
d="M618 755l-410 -755h-87l410 755h87zM124 604l-61 -40l-43 71l115 75h97v-357h-108v251zM699 126v-64h-43v-62h-99v62h-163v58l149 241h113v-235h43zM557 126v127l-75 -127h75z" />
    <glyph glyph-name="onehalf" unicode="&#xbd;" horiz-adv-x="779" 
d="M232 710v-357h-108v251l-61 -40l-43 71l115 75h97zM531 755h87l-410 -755h-87zM724 76v-76h-260v56l98 108q32 35 41.5 50.5t9.5 31.5q0 19 -12 30t-33 11q-14 0 -28.5 -4.5t-46.5 -20.5l-31 73q66 32 124 32q61 0 95 -29t34 -80q0 -30 -13.5 -57t-45.5 -64l-55 -61h123z
" />
    <glyph glyph-name="threequarters" unicode="&#xbe;" horiz-adv-x="747" 
d="M638 755l-410 -755h-87l410 755h87zM159.5 440.5q12.5 10.5 12.5 27.5q0 19 -14.5 27.5t-45.5 8.5h-22v60h21q58 0 58 39q0 18 -11.5 27.5t-32.5 9.5q-27 0 -67 -22l-28 71q54 31 120 31q59 0 93.5 -26.5t34.5 -72.5q0 -59 -55 -83q30 -8 47.5 -31t17.5 -56
q0 -47 -38 -75t-102 -28q-67 0 -119 29l27 72q18 -8 37 -13.5t33 -5.5q21 0 33.5 10.5zM719 126v-64h-43v-62h-99v62h-163v58l149 241h113v-235h43zM577 126v127l-75 -127h75z" />
    <glyph glyph-name="questiondown" unicode="&#xbf;" horiz-adv-x="442" 
d="M303.5 507.5q22.5 -22.5 22.5 -57.5q0 -34 -22.5 -57t-57.5 -23q-34 0 -57 23t-23 57q0 35 23 57.5t57 22.5q35 0 57.5 -22.5zM306 265q0 -52 -6 -82t-23.5 -54.5t-54.5 -56.5q-30 -25 -44 -45t-14 -43q0 -32 23.5 -52t62.5 -20q59 0 133 39l40 -99q-48 -23 -97 -35
t-91 -12q-100 0 -150.5 42.5t-50.5 115.5q0 46 19.5 78.5t63.5 73.5q32 30 46 50t18 41t4 59v30h121v-30z" />
    <glyph glyph-name="Agrave" unicode="&#xc0;" horiz-adv-x="742" 
d="M514 138h-292l-50 -138h-152l272 710h158l272 -710h-158zM475 246l-107 299l-107 -299h214zM150 955h171l110 -160h-113z" />
    <glyph glyph-name="Aacute" unicode="&#xc1;" horiz-adv-x="742" 
d="M514 138h-292l-50 -138h-152l272 710h158l272 -710h-158zM475 246l-107 299l-107 -299h214zM429 955h171l-168 -160h-113z" />
    <glyph glyph-name="Acircumflex" unicode="&#xc2;" horiz-adv-x="742" 
d="M514 138h-292l-50 -138h-152l272 710h158l272 -710h-158zM475 246l-107 299l-107 -299h214zM308 945h125l128 -150h-111l-79 76l-80 -76h-111z" />
    <glyph glyph-name="Atilde" unicode="&#xc3;" horiz-adv-x="742" 
d="M514 138h-292l-50 -138h-152l272 710h158l272 -710h-158zM475 246l-107 299l-107 -299h214zM395.5 829q-19.5 7 -42.5 19q-15 9 -26 13t-23 4q-18 0 -29.5 -10.5t-11.5 -30.5h-79q0 57 30 89t81 32q27 0 47 -6.5t43 -18.5q18 -9 28.5 -13t23.5 -4q19 0 30.5 11t11.5 30
h78q0 -57 -30.5 -89.5t-83.5 -32.5q-28 0 -47.5 7z" />
    <glyph glyph-name="Adieresis" unicode="&#xc4;" horiz-adv-x="742" 
d="M514 138h-292l-50 -138h-152l272 710h158l272 -710h-158zM475 246l-107 299l-107 -299h214zM213 820q-20 19 -20 48t20 48t51 19t51 -19t20 -48t-20 -48t-51 -19t-51 19zM425 820q-20 19 -20 48t20 48t51 19t51 -19t20 -48t-20 -48t-51 -19t-51 19z" />
    <glyph glyph-name="Aring" unicode="&#xc5;" horiz-adv-x="742" 
d="M514 138h-292l-50 -138h-152l272 710h158l272 -710h-158zM475 246l-107 299l-107 -299h214zM283 811.5q-34 32.5 -34 81.5t34 81.5t87 32.5q52 0 86.5 -32.5t34.5 -81.5t-34 -81.5t-87 -32.5t-87 32.5zM404.5 857q13.5 14 13.5 36t-13.5 36t-34.5 14t-34.5 -14t-13.5 -36
t13.5 -36t34.5 -14t34.5 14z" />
    <glyph glyph-name="AE" unicode="&#xc6;" horiz-adv-x="1047" 
d="M997 112v-112h-487v138h-247l-91 -138h-162l492 710h485v-112h-329v-188h309v-110h-309v-188h339zM510 246v268l-176 -268h176z" />
    <glyph glyph-name="Ccedilla" unicode="&#xc7;" horiz-adv-x="636" 
d="M529 7q-58 -16 -120 -17l-26 -43q5 1 16 1q45 0 72 -24.5t27 -64.5q0 -48 -35 -73.5t-100 -25.5q-36 0 -78 14l15 55q27 -7 54 -7q28 0 42.5 8.5t14.5 25.5q0 16 -10 24.5t-28 8.5q-12 0 -22.5 -3.5t-14.5 -9.5l-45 22l45 96q-139 19 -217.5 114t-78.5 247
q0 112 43.5 194.5t124.5 126.5t192 44q67 0 127.5 -15.5t98.5 -43.5l-49 -103q-35 22 -80 35t-88 13q-102 0 -160.5 -67t-58.5 -183q0 -117 59 -184.5t161 -67.5q81 0 167 49l49 -102q-39 -28 -97 -44z" />
    <glyph glyph-name="Egrave" unicode="&#xc8;" horiz-adv-x="627" 
d="M577 112v-112h-487v710h477v-112h-329v-188h309v-110h-309v-188h339zM103 955h171l110 -160h-113z" />
    <glyph glyph-name="Eacute" unicode="&#xc9;" horiz-adv-x="627" 
d="M577 112v-112h-487v710h477v-112h-329v-188h309v-110h-309v-188h339zM382 955h171l-168 -160h-113z" />
    <glyph glyph-name="Ecircumflex" unicode="&#xca;" horiz-adv-x="627" 
d="M577 112v-112h-487v710h477v-112h-329v-188h309v-110h-309v-188h339zM261 945h125l128 -150h-111l-79 76l-80 -76h-111z" />
    <glyph glyph-name="Edieresis" unicode="&#xcb;" horiz-adv-x="627" 
d="M577 112v-112h-487v710h477v-112h-329v-188h309v-110h-309v-188h339zM166 820q-20 19 -20 48t20 48t51 19t51 -19t20 -48t-20 -48t-51 -19t-51 19zM378 820q-20 19 -20 48t20 48t51 19t51 -19t20 -48t-20 -48t-51 -19t-51 19z" />
    <glyph glyph-name="Igrave" unicode="&#xcc;" horiz-adv-x="348" 
d="M100 710h148v-710h-148v710zM-47 955h171l110 -160h-113z" />
    <glyph glyph-name="Iacute" unicode="&#xcd;" horiz-adv-x="348" 
d="M100 710h148v-710h-148v710zM232 955h171l-168 -160h-113z" />
    <glyph glyph-name="Icircumflex" unicode="&#xce;" horiz-adv-x="348" 
d="M100 710h148v-710h-148v710zM111 945h125l128 -150h-111l-79 76l-80 -76h-111z" />
    <glyph glyph-name="Idieresis" unicode="&#xcf;" horiz-adv-x="348" 
d="M100 710h148v-710h-148v710zM16 820q-20 19 -20 48t20 48t51 19t51 -19t20 -48t-20 -48t-51 -19t-51 19zM228 820q-20 19 -20 48t20 48t51 19t51 -19t20 -48t-20 -48t-51 -19t-51 19z" />
    <glyph glyph-name="Eth" unicode="&#xd0;" horiz-adv-x="772" 
d="M633.5 619q98.5 -91 98.5 -264t-98.5 -264t-285.5 -91h-243v300h-85v110h85v300h243q187 0 285.5 -91zM522.5 174q59.5 62 59.5 181t-59.5 181t-174.5 62h-97v-188h171v-110h-171v-188h97q115 0 174.5 62z" />
    <glyph glyph-name="Ntilde" unicode="&#xd1;" horiz-adv-x="786" 
d="M696 710v-710h-126l-343 487v-487h-137v710h136l333 -470v470h137zM417.5 829q-19.5 7 -42.5 19q-15 9 -26 13t-23 4q-18 0 -29.5 -10.5t-11.5 -30.5h-79q0 57 30 89t81 32q27 0 47 -6.5t43 -18.5q18 -9 28.5 -13t23.5 -4q19 0 30.5 11t11.5 30h78q0 -57 -30.5 -89.5
t-83.5 -32.5q-28 0 -47.5 7z" />
    <glyph glyph-name="Ograve" unicode="&#xd2;" horiz-adv-x="808" 
d="M213.5 35.5q-82.5 45.5 -128 128.5t-45.5 191t45.5 191t128 128.5t190.5 45.5t190.5 -45.5t128 -128.5t45.5 -191t-45.5 -191t-128 -128.5t-190.5 -45.5t-190.5 45.5zM516.5 135q48.5 31 75 88t26.5 132t-26.5 132t-75 88t-112.5 31t-112.5 -31t-75 -88t-26.5 -132
t26.5 -132t75 -88t112.5 -31t112.5 31zM183 955h171l110 -160h-113z" />
    <glyph glyph-name="Oacute" unicode="&#xd3;" horiz-adv-x="808" 
d="M213.5 35.5q-82.5 45.5 -128 128.5t-45.5 191t45.5 191t128 128.5t190.5 45.5t190.5 -45.5t128 -128.5t45.5 -191t-45.5 -191t-128 -128.5t-190.5 -45.5t-190.5 45.5zM516.5 135q48.5 31 75 88t26.5 132t-26.5 132t-75 88t-112.5 31t-112.5 -31t-75 -88t-26.5 -132
t26.5 -132t75 -88t112.5 -31t112.5 31zM462 955h171l-168 -160h-113z" />
    <glyph glyph-name="Ocircumflex" unicode="&#xd4;" horiz-adv-x="808" 
d="M213.5 35.5q-82.5 45.5 -128 128.5t-45.5 191t45.5 191t128 128.5t190.5 45.5t190.5 -45.5t128 -128.5t45.5 -191t-45.5 -191t-128 -128.5t-190.5 -45.5t-190.5 45.5zM516.5 135q48.5 31 75 88t26.5 132t-26.5 132t-75 88t-112.5 31t-112.5 -31t-75 -88t-26.5 -132
t26.5 -132t75 -88t112.5 -31t112.5 31zM341 945h125l128 -150h-111l-79 76l-80 -76h-111z" />
    <glyph glyph-name="Otilde" unicode="&#xd5;" horiz-adv-x="808" 
d="M213.5 35.5q-82.5 45.5 -128 128.5t-45.5 191t45.5 191t128 128.5t190.5 45.5t190.5 -45.5t128 -128.5t45.5 -191t-45.5 -191t-128 -128.5t-190.5 -45.5t-190.5 45.5zM516.5 135q48.5 31 75 88t26.5 132t-26.5 132t-75 88t-112.5 31t-112.5 -31t-75 -88t-26.5 -132
t26.5 -132t75 -88t112.5 -31t112.5 31zM428.5 829q-19.5 7 -42.5 19q-15 9 -26 13t-23 4q-18 0 -29.5 -10.5t-11.5 -30.5h-79q0 57 30 89t81 32q27 0 47 -6.5t43 -18.5q18 -9 28.5 -13t23.5 -4q19 0 30.5 11t11.5 30h78q0 -57 -30.5 -89.5t-83.5 -32.5q-28 0 -47.5 7z" />
    <glyph glyph-name="Odieresis" unicode="&#xd6;" horiz-adv-x="808" 
d="M213.5 35.5q-82.5 45.5 -128 128.5t-45.5 191t45.5 191t128 128.5t190.5 45.5t190.5 -45.5t128 -128.5t45.5 -191t-45.5 -191t-128 -128.5t-190.5 -45.5t-190.5 45.5zM516.5 135q48.5 31 75 88t26.5 132t-26.5 132t-75 88t-112.5 31t-112.5 -31t-75 -88t-26.5 -132
t26.5 -132t75 -88t112.5 -31t112.5 31zM246 820q-20 19 -20 48t20 48t51 19t51 -19t20 -48t-20 -48t-51 -19t-51 19zM458 820q-20 19 -20 48t20 48t51 19t51 -19t20 -48t-20 -48t-51 -19t-51 19z" />
    <glyph glyph-name="multiply" unicode="&#xd7;" horiz-adv-x="640" 
d="M406 261l141 -142l-85 -85l-141 142l-142 -142l-85 85l142 142l-142 141l85 85l142 -141l141 141l85 -85z" />
    <glyph glyph-name="Oslash" unicode="&#xd8;" horiz-adv-x="808" 
d="M744 499.5q24 -65.5 24 -144.5q0 -108 -45.5 -191t-128 -128.5t-190.5 -45.5q-118 0 -208 55l-63 -75l-65 54l63 75q-44 49 -67.5 114t-23.5 142q0 108 45.5 191t128 128.5t190.5 45.5q117 0 204 -53l53 63l65 -54l-52 -62q46 -49 70 -114.5zM223 209l303 360
q-52 37 -122 37q-64 0 -112.5 -31t-75 -88t-26.5 -132q0 -83 33 -146zM516.5 135q48.5 31 75 88t26.5 132q0 87 -36 150l-303 -361q52 -40 125 -40q64 0 112.5 31z" />
    <glyph glyph-name="Ugrave" unicode="&#xd9;" horiz-adv-x="772" 
d="M225 23.5q-68 33.5 -104 96.5t-36 148v442h148v-456q0 -70 40.5 -110t111.5 -40t112.5 40t41.5 110v456h148v-442q0 -85 -36.5 -148t-104.5 -96.5t-161 -33.5q-92 0 -160 33.5zM165 955h171l110 -160h-113z" />
    <glyph glyph-name="Uacute" unicode="&#xda;" horiz-adv-x="772" 
d="M225 23.5q-68 33.5 -104 96.5t-36 148v442h148v-456q0 -70 40.5 -110t111.5 -40t112.5 40t41.5 110v456h148v-442q0 -85 -36.5 -148t-104.5 -96.5t-161 -33.5q-92 0 -160 33.5zM444 955h171l-168 -160h-113z" />
    <glyph glyph-name="Ucircumflex" unicode="&#xdb;" horiz-adv-x="772" 
d="M225 23.5q-68 33.5 -104 96.5t-36 148v442h148v-456q0 -70 40.5 -110t111.5 -40t112.5 40t41.5 110v456h148v-442q0 -85 -36.5 -148t-104.5 -96.5t-161 -33.5q-92 0 -160 33.5zM323 945h125l128 -150h-111l-79 76l-80 -76h-111z" />
    <glyph glyph-name="Udieresis" unicode="&#xdc;" horiz-adv-x="772" 
d="M225 23.5q-68 33.5 -104 96.5t-36 148v442h148v-456q0 -70 40.5 -110t111.5 -40t112.5 40t41.5 110v456h148v-442q0 -85 -36.5 -148t-104.5 -96.5t-161 -33.5q-92 0 -160 33.5zM228 820q-20 19 -20 48t20 48t51 19t51 -19t20 -48t-20 -48t-51 -19t-51 19zM440 820
q-20 19 -20 48t20 48t51 19t51 -19t20 -48t-20 -48t-51 -19t-51 19z" />
    <glyph glyph-name="Yacute" unicode="&#xdd;" horiz-adv-x="686" 
d="M415 285v-285h-144v285l-256 425h158l170 -301l170 301h158zM401 955h171l-168 -160h-113z" />
    <glyph glyph-name="Thorn" unicode="&#xde;" horiz-adv-x="627" 
d="M536 542.5q71 -59.5 71 -165.5t-71 -165.5t-196 -59.5h-102v-152h-148v710h148v-108h102q125 0 196 -59.5zM438 294q35 30 35 83t-35 83t-98 30h-102v-226h102q63 0 98 30z" />
    <glyph glyph-name="germandbls" unicode="&#xdf;" horiz-adv-x="695" 
d="M357.5 1.5q-52.5 11.5 -92.5 29.5l33 97q90 -38 153 -38q34 0 50.5 14t16.5 39q0 24 -16 36.5t-58 29.5q-71 30 -104.5 59.5t-33.5 77.5q0 37 18.5 61t48.5 44q3 2 23.5 15t31 31t10.5 41q0 40 -27.5 61t-71.5 21q-58 0 -88.5 -36.5t-30.5 -105.5v-478h-135v463
q0 124 65 190.5t189 66.5q109 0 171.5 -49t62.5 -131q0 -41 -16.5 -68t-52.5 -52q-4 -3 -21.5 -14.5t-27.5 -25.5t-10 -29q0 -20 15.5 -29t52.5 -20l40 -13q50 -19 73.5 -53t23.5 -86q0 -77 -49.5 -118.5t-140.5 -41.5q-50 0 -102.5 11.5z" />
    <glyph glyph-name="agrave" unicode="&#xe0;" horiz-adv-x="572" 
d="M562 6q-37 -13 -68 -13q-96 0 -120 70q-30 -34 -74 -52.5t-96 -18.5q-80 0 -127 41.5t-47 112.5q0 84 85.5 127.5t250.5 42.5v27q0 44 -23 64t-75 20q-75 0 -169 -49l-41 97q41 24 106 39.5t126 15.5q105 0 156.5 -45.5t51.5 -138.5v-214q0 -31 30 -31q18 0 25 3z
M306.5 107q34.5 14 59.5 38v85q-84 -4 -126 -12t-58.5 -23t-16.5 -44q0 -58 70 -58q37 0 71.5 14zM65 765h171l110 -160h-113z" />
    <glyph glyph-name="aacute" unicode="&#xe1;" horiz-adv-x="572" 
d="M562 6q-37 -13 -68 -13q-96 0 -120 70q-30 -34 -74 -52.5t-96 -18.5q-80 0 -127 41.5t-47 112.5q0 84 85.5 127.5t250.5 42.5v27q0 44 -23 64t-75 20q-75 0 -169 -49l-41 97q41 24 106 39.5t126 15.5q105 0 156.5 -45.5t51.5 -138.5v-214q0 -31 30 -31q18 0 25 3z
M306.5 107q34.5 14 59.5 38v85q-84 -4 -126 -12t-58.5 -23t-16.5 -44q0 -58 70 -58q37 0 71.5 14zM344 765h171l-168 -160h-113z" />
    <glyph glyph-name="acircumflex" unicode="&#xe2;" horiz-adv-x="572" 
d="M562 6q-37 -13 -68 -13q-96 0 -120 70q-30 -34 -74 -52.5t-96 -18.5q-80 0 -127 41.5t-47 112.5q0 84 85.5 127.5t250.5 42.5v27q0 44 -23 64t-75 20q-75 0 -169 -49l-41 97q41 24 106 39.5t126 15.5q105 0 156.5 -45.5t51.5 -138.5v-214q0 -31 30 -31q18 0 25 3z
M306.5 107q34.5 14 59.5 38v85q-84 -4 -126 -12t-58.5 -23t-16.5 -44q0 -58 70 -58q37 0 71.5 14zM223 755h125l128 -150h-111l-79 76l-80 -76h-111z" />
    <glyph glyph-name="atilde" unicode="&#xe3;" horiz-adv-x="572" 
d="M562 6q-37 -13 -68 -13q-96 0 -120 70q-30 -34 -74 -52.5t-96 -18.5q-80 0 -127 41.5t-47 112.5q0 84 85.5 127.5t250.5 42.5v27q0 44 -23 64t-75 20q-75 0 -169 -49l-41 97q41 24 106 39.5t126 15.5q105 0 156.5 -45.5t51.5 -138.5v-214q0 -31 30 -31q18 0 25 3z
M306.5 107q34.5 14 59.5 38v85q-84 -4 -126 -12t-58.5 -23t-16.5 -44q0 -58 70 -58q37 0 71.5 14zM310.5 639q-19.5 7 -42.5 19q-15 9 -26 13t-23 4q-18 0 -29.5 -10.5t-11.5 -30.5h-79q0 57 30 89t81 32q27 0 47 -6.5t43 -18.5q18 -9 28.5 -13t23.5 -4q19 0 30.5 11
t11.5 30h78q0 -57 -30.5 -89.5t-83.5 -32.5q-28 0 -47.5 7z" />
    <glyph glyph-name="adieresis" unicode="&#xe4;" horiz-adv-x="572" 
d="M562 6q-37 -13 -68 -13q-96 0 -120 70q-30 -34 -74 -52.5t-96 -18.5q-80 0 -127 41.5t-47 112.5q0 84 85.5 127.5t250.5 42.5v27q0 44 -23 64t-75 20q-75 0 -169 -49l-41 97q41 24 106 39.5t126 15.5q105 0 156.5 -45.5t51.5 -138.5v-214q0 -31 30 -31q18 0 25 3z
M306.5 107q34.5 14 59.5 38v85q-84 -4 -126 -12t-58.5 -23t-16.5 -44q0 -58 70 -58q37 0 71.5 14zM128 630q-20 19 -20 48t20 48t51 19t51 -19t20 -48t-20 -48t-51 -19t-51 19zM340 630q-20 19 -20 48t20 48t51 19t51 -19t20 -48t-20 -48t-51 -19t-51 19z" />
    <glyph glyph-name="aring" unicode="&#xe5;" horiz-adv-x="572" 
d="M562 6q-37 -13 -68 -13q-96 0 -120 70q-30 -34 -74 -52.5t-96 -18.5q-80 0 -127 41.5t-47 112.5q0 84 85.5 127.5t250.5 42.5v27q0 44 -23 64t-75 20q-75 0 -169 -49l-41 97q41 24 106 39.5t126 15.5q105 0 156.5 -45.5t51.5 -138.5v-214q0 -31 30 -31q18 0 25 3z
M306.5 107q34.5 14 59.5 38v85q-84 -4 -126 -12t-58.5 -23t-16.5 -44q0 -58 70 -58q37 0 71.5 14zM198 621.5q-34 32.5 -34 81.5t34 81.5t87 32.5q52 0 86.5 -32.5t34.5 -81.5t-34 -81.5t-87 -32.5t-87 32.5zM319.5 667q13.5 14 13.5 36t-13.5 36t-34.5 14t-34.5 -14
t-13.5 -36t13.5 -36t34.5 -14t34.5 14z" />
    <glyph glyph-name="ae" unicode="&#xe6;" horiz-adv-x="909" 
d="M878 223h-378q8 -61 49.5 -96.5t106.5 -35.5q40 0 77 14t68 40l59 -85q-40 -34 -94 -52t-116 -18q-68 0 -122.5 22t-91.5 63q-43 -43 -99.5 -63t-132.5 -20q-80 0 -127 41.5t-47 112.5q0 84 85.5 127.5t250.5 42.5v27q0 44 -23 64t-75 20q-75 0 -169 -49l-41 97
q41 24 106 39.5t126 15.5q119 0 168 -61q33 30 78 45.5t98 15.5q115 0 181 -67.5t66 -185.5q0 -19 -3 -54zM754 313q-1 54 -33.5 85.5t-88.5 31.5q-53 0 -88 -31t-44 -86h254zM235 93q37 0 71.5 14t59.5 38v85q-84 -4 -126 -12t-58.5 -23t-16.5 -44q0 -58 70 -58z" />
    <glyph glyph-name="ccedilla" unicode="&#xe7;" horiz-adv-x="523" 
d="M395 -76.5q27 -24.5 27 -64.5q0 -48 -35 -73.5t-100 -25.5q-36 0 -78 14l15 55q27 -7 54 -7q28 0 42.5 8.5t14.5 25.5q0 16 -10 24.5t-28 8.5q-12 0 -22.5 -3.5t-14.5 -9.5l-45 22l45 95q-106 14 -168 85.5t-62 181.5q0 82 33.5 143t95.5 94t145 33q54 0 103 -15t86 -43
l-52 -88q-32 22 -63.5 32.5t-66.5 10.5q-67 0 -105.5 -45t-38.5 -122q0 -76 40 -121.5t108 -45.5q35 0 66.5 10.5t63.5 32.5l52 -87q-31 -25 -73.5 -40t-90.5 -18l-26 -44q5 1 16 1q45 0 72 -24.5z" />
    <glyph glyph-name="egrave" unicode="&#xe8;" horiz-adv-x="577" 
d="M546 223h-378q8 -61 49.5 -96.5t106.5 -35.5q40 0 77 14t68 40l59 -85q-82 -70 -210 -70q-87 0 -152 33t-100.5 94t-35.5 143q0 80 34 141.5t95.5 95t142.5 33.5q115 0 181 -67.5t66 -185.5q0 -18 -3 -54zM422 313q-1 54 -33.5 85.5t-88.5 31.5q-53 0 -88 -31t-44 -86
h254zM77 765h171l110 -160h-113z" />
    <glyph glyph-name="eacute" unicode="&#xe9;" horiz-adv-x="577" 
d="M546 223h-378q8 -61 49.5 -96.5t106.5 -35.5q40 0 77 14t68 40l59 -85q-82 -70 -210 -70q-87 0 -152 33t-100.5 94t-35.5 143q0 80 34 141.5t95.5 95t142.5 33.5q115 0 181 -67.5t66 -185.5q0 -18 -3 -54zM422 313q-1 54 -33.5 85.5t-88.5 31.5q-53 0 -88 -31t-44 -86
h254zM356 765h171l-168 -160h-113z" />
    <glyph glyph-name="ecircumflex" unicode="&#xea;" horiz-adv-x="577" 
d="M546 223h-378q8 -61 49.5 -96.5t106.5 -35.5q40 0 77 14t68 40l59 -85q-82 -70 -210 -70q-87 0 -152 33t-100.5 94t-35.5 143q0 80 34 141.5t95.5 95t142.5 33.5q115 0 181 -67.5t66 -185.5q0 -18 -3 -54zM422 313q-1 54 -33.5 85.5t-88.5 31.5q-53 0 -88 -31t-44 -86
h254zM235 755h125l128 -150h-111l-79 76l-80 -76h-111z" />
    <glyph glyph-name="edieresis" unicode="&#xeb;" horiz-adv-x="577" 
d="M546 223h-378q8 -61 49.5 -96.5t106.5 -35.5q40 0 77 14t68 40l59 -85q-82 -70 -210 -70q-87 0 -152 33t-100.5 94t-35.5 143q0 80 34 141.5t95.5 95t142.5 33.5q115 0 181 -67.5t66 -185.5q0 -18 -3 -54zM422 313q-1 54 -33.5 85.5t-88.5 31.5q-53 0 -88 -31t-44 -86
h254zM140 630q-20 19 -20 48t20 48t51 19t51 -19t20 -48t-20 -48t-51 -19t-51 19zM352 630q-20 19 -20 48t20 48t51 19t51 -19t20 -48t-20 -48t-51 -19t-51 19z" />
    <glyph glyph-name="igrave" unicode="&#xec;" horiz-adv-x="306" 
d="M86 520h135v-520h-135v520zM-68 765h171l110 -160h-113z" />
    <glyph glyph-name="iacute" unicode="&#xed;" horiz-adv-x="306" 
d="M86 520h135v-520h-135v520zM211 765h171l-168 -160h-113z" />
    <glyph glyph-name="icircumflex" unicode="&#xee;" horiz-adv-x="306" 
d="M86 520h135v-520h-135v520zM90 755h125l128 -150h-111l-79 76l-80 -76h-111z" />
    <glyph glyph-name="idieresis" unicode="&#xef;" horiz-adv-x="306" 
d="M86 520h135v-520h-135v520zM-5 630q-20 19 -20 48t20 48t51 19t51 -19t20 -48t-20 -48t-51 -19t-51 19zM207 630q-20 19 -20 48t20 48t51 19t51 -19t20 -48t-20 -48t-51 -19t-51 19z" />
    <glyph glyph-name="eth" unicode="&#xf0;" horiz-adv-x="610" 
d="M580 266q0 -83 -34 -145.5t-96 -96.5t-144 -34q-81 0 -144 33.5t-97.5 94.5t-34.5 140q0 77 33 136.5t92 92.5t135 33q50 0 86 -12q-23 38 -49 74l-125 -33l-16 65l99 26q-28 36 -42 52l101 66q36 -44 66 -84l102 27l17 -65l-78 -21q129 -193 129 -349zM405 138.5
q38 45.5 38 118.5q0 74 -38.5 122t-99.5 48t-99.5 -48t-38.5 -122q0 -73 38 -118.5t100 -45.5t100 45.5z" />
    <glyph glyph-name="ntilde" unicode="&#xf1;" horiz-adv-x="641" 
d="M522 478q49 -52 49 -153v-325h-135v313q0 56 -23.5 83.5t-71.5 27.5q-40 0 -75.5 -18.5t-55.5 -49.5v-356h-135v520h132v-75q52 85 169 85q97 0 146 -52zM345.5 639q-19.5 7 -42.5 19q-15 9 -26 13t-23 4q-18 0 -29.5 -10.5t-11.5 -30.5h-79q0 57 30 89t81 32
q27 0 47 -6.5t43 -18.5q18 -9 28.5 -13t23.5 -4q19 0 30.5 11t11.5 30h78q0 -57 -30.5 -89.5t-83.5 -32.5q-28 0 -47.5 7z" />
    <glyph glyph-name="ograve" unicode="&#xf2;" horiz-adv-x="610" 
d="M162.5 24.5q-62.5 34.5 -97.5 95.5t-35 140t35 140t97.5 95.5t142.5 34.5t142.5 -34.5t97.5 -95.5t35 -140t-35 -140t-97.5 -95.5t-142.5 -34.5t-142.5 34.5zM404.5 139.5q38.5 46.5 38.5 120.5t-38.5 120.5t-99.5 46.5t-99.5 -46.5t-38.5 -120.5t38.5 -120.5t99.5 -46.5
t99.5 46.5zM84 765h171l110 -160h-113z" />
    <glyph glyph-name="oacute" unicode="&#xf3;" horiz-adv-x="610" 
d="M162.5 24.5q-62.5 34.5 -97.5 95.5t-35 140t35 140t97.5 95.5t142.5 34.5t142.5 -34.5t97.5 -95.5t35 -140t-35 -140t-97.5 -95.5t-142.5 -34.5t-142.5 34.5zM404.5 139.5q38.5 46.5 38.5 120.5t-38.5 120.5t-99.5 46.5t-99.5 -46.5t-38.5 -120.5t38.5 -120.5t99.5 -46.5
t99.5 46.5zM363 765h171l-168 -160h-113z" />
    <glyph glyph-name="ocircumflex" unicode="&#xf4;" horiz-adv-x="610" 
d="M162.5 24.5q-62.5 34.5 -97.5 95.5t-35 140t35 140t97.5 95.5t142.5 34.5t142.5 -34.5t97.5 -95.5t35 -140t-35 -140t-97.5 -95.5t-142.5 -34.5t-142.5 34.5zM404.5 139.5q38.5 46.5 38.5 120.5t-38.5 120.5t-99.5 46.5t-99.5 -46.5t-38.5 -120.5t38.5 -120.5t99.5 -46.5
t99.5 46.5zM242 755h125l128 -150h-111l-79 76l-80 -76h-111z" />
    <glyph glyph-name="otilde" unicode="&#xf5;" horiz-adv-x="610" 
d="M162.5 24.5q-62.5 34.5 -97.5 95.5t-35 140t35 140t97.5 95.5t142.5 34.5t142.5 -34.5t97.5 -95.5t35 -140t-35 -140t-97.5 -95.5t-142.5 -34.5t-142.5 34.5zM404.5 139.5q38.5 46.5 38.5 120.5t-38.5 120.5t-99.5 46.5t-99.5 -46.5t-38.5 -120.5t38.5 -120.5t99.5 -46.5
t99.5 46.5zM329.5 639q-19.5 7 -42.5 19q-15 9 -26 13t-23 4q-18 0 -29.5 -10.5t-11.5 -30.5h-79q0 57 30 89t81 32q27 0 47 -6.5t43 -18.5q18 -9 28.5 -13t23.5 -4q19 0 30.5 11t11.5 30h78q0 -57 -30.5 -89.5t-83.5 -32.5q-28 0 -47.5 7z" />
    <glyph glyph-name="odieresis" unicode="&#xf6;" horiz-adv-x="610" 
d="M162.5 24.5q-62.5 34.5 -97.5 95.5t-35 140t35 140t97.5 95.5t142.5 34.5t142.5 -34.5t97.5 -95.5t35 -140t-35 -140t-97.5 -95.5t-142.5 -34.5t-142.5 34.5zM404.5 139.5q38.5 46.5 38.5 120.5t-38.5 120.5t-99.5 46.5t-99.5 -46.5t-38.5 -120.5t38.5 -120.5t99.5 -46.5
t99.5 46.5zM147 630q-20 19 -20 48t20 48t51 19t51 -19t20 -48t-20 -48t-51 -19t-51 19zM359 630q-20 19 -20 48t20 48t51 19t51 -19t20 -48t-20 -48t-51 -19t-51 19z" />
    <glyph glyph-name="divide" unicode="&#xf7;" horiz-adv-x="640" 
d="M266.5 399.5q-21.5 21.5 -21.5 53.5t21.5 53.5t53.5 21.5t53.5 -21.5t21.5 -53.5t-21.5 -53.5t-53.5 -21.5t-53.5 21.5zM50 312h540v-102h-540v102zM266.5 15.5q-21.5 21.5 -21.5 53.5t21.5 53.5t53.5 21.5t53.5 -21.5t21.5 -53.5t-21.5 -53.5t-53.5 -21.5t-53.5 21.5z
" />
    <glyph glyph-name="oslash" unicode="&#xf8;" horiz-adv-x="610" 
d="M559.5 369.5q20.5 -50.5 20.5 -109.5q0 -79 -35 -140t-97.5 -95.5t-142.5 -34.5q-90 0 -158 44l-54 -64l-49 41l54 64q-33 36 -50.5 83t-17.5 102q0 79 35 140t97.5 95.5t142.5 34.5q81 0 145 -36l59 71l47 -44l-54 -65q37 -36 57.5 -86.5zM183 177l193 229
q-30 21 -71 21q-61 0 -99.5 -46.5t-38.5 -120.5q0 -45 16 -83zM404.5 139.5q38.5 46.5 38.5 120.5q0 59 -24 99l-197 -236q35 -30 83 -30q61 0 99.5 46.5z" />
    <glyph glyph-name="ugrave" unicode="&#xf9;" horiz-adv-x="639" 
d="M564 520v-520h-132v71q-54 -81 -168 -81q-96 0 -145 52t-49 153v325h135v-313q0 -111 94 -111q39 0 74.5 17.5t55.5 47.5v359h135zM99 765h171l110 -160h-113z" />
    <glyph glyph-name="uacute" unicode="&#xfa;" horiz-adv-x="639" 
d="M564 520v-520h-132v71q-54 -81 -168 -81q-96 0 -145 52t-49 153v325h135v-313q0 -111 94 -111q39 0 74.5 17.5t55.5 47.5v359h135zM378 765h171l-168 -160h-113z" />
    <glyph glyph-name="ucircumflex" unicode="&#xfb;" horiz-adv-x="639" 
d="M564 520v-520h-132v71q-54 -81 -168 -81q-96 0 -145 52t-49 153v325h135v-313q0 -111 94 -111q39 0 74.5 17.5t55.5 47.5v359h135zM257 755h125l128 -150h-111l-79 76l-80 -76h-111z" />
    <glyph glyph-name="udieresis" unicode="&#xfc;" horiz-adv-x="639" 
d="M564 520v-520h-132v71q-54 -81 -168 -81q-96 0 -145 52t-49 153v325h135v-313q0 -111 94 -111q39 0 74.5 17.5t55.5 47.5v359h135zM162 630q-20 19 -20 48t20 48t51 19t51 -19t20 -48t-20 -48t-51 -19t-51 19zM374 630q-20 19 -20 48t20 48t51 19t51 -19t20 -48t-20 -48
t-51 -19t-51 19z" />
    <glyph glyph-name="yacute" unicode="&#xfd;" horiz-adv-x="567" 
d="M557 520l-218 -544q-29 -72 -58.5 -111t-69 -56t-99.5 -17q-50 0 -97 12l16 100q41 -9 76 -9q40 0 62 17t40 62l14 37l-213 509h140l135 -351l136 351h136zM350 765h171l-168 -160h-113z" />
    <glyph glyph-name="thorn" unicode="&#xfe;" horiz-adv-x="633" 
d="M479 497.5q57 -32.5 88 -91.5t31 -137q0 -83 -32.5 -146.5t-91.5 -98t-136 -34.5q-72 0 -128 28v-208h-135v900h135v-223q53 43 137 43q75 0 132 -32.5zM421.5 135.5q41.5 49.5 41.5 131.5q0 77 -39.5 121t-109.5 44q-62 0 -104 -36v-277q44 -33 102 -33q68 0 109.5 49.5
z" />
    <glyph glyph-name="ydieresis" unicode="&#xff;" horiz-adv-x="567" 
d="M557 520l-218 -544q-29 -72 -58.5 -111t-69 -56t-99.5 -17q-50 0 -97 12l16 100q41 -9 76 -9q40 0 62 17t40 62l14 37l-213 509h140l135 -351l136 351h136zM134 630q-20 19 -20 48t20 48t51 19t51 -19t20 -48t-20 -48t-51 -19t-51 19zM346 630q-20 19 -20 48t20 48t51 19
t51 -19t20 -48t-20 -48t-51 -19t-51 19z" />
    <glyph glyph-name="dotlessi" unicode="&#x131;" horiz-adv-x="306" 
d="M86 520h135v-520h-135v520z" />
    <glyph glyph-name="Lslash" unicode="&#x141;" horiz-adv-x="592" 
d="M572 112v-112h-467v270l-85 -40v110l85 40v330h148v-260l189 90v-110l-189 -90v-228h319z" />
    <glyph glyph-name="lslash" unicode="&#x142;" horiz-adv-x="337" 
d="M225 361v-214q0 -27 10 -36.5t29 -9.5q15 0 33 3l8 -99q-36 -11 -84 -11q-75 0 -103 35t-28 106v143l-70 -43v100l70 43v332h135v-249l87 54v-100z" />
    <glyph glyph-name="OE" unicode="&#x152;" horiz-adv-x="1035" 
d="M985 112v-112h-561q-187 0 -285.5 91t-98.5 264t98.5 264t285.5 91h551v-112h-329v-188h309v-110h-309v-188h339zM498 112v486h-74q-115 0 -174.5 -62t-59.5 -181t59.5 -181t174.5 -62h74z" />
    <glyph glyph-name="oe" unicode="&#x153;" horiz-adv-x="978" 
d="M947 223h-378q8 -61 49.5 -96.5t106.5 -35.5q40 0 77 14t68 40l59 -85q-40 -34 -93 -52t-112 -18q-74 0 -131 28t-90 80q-34 -51 -89.5 -79.5t-123.5 -28.5q-78 0 -137 33.5t-91 94.5t-32 142t32 142t91 94.5t137 33.5q68 0 123 -28t90 -79q32 51 85 79t121 28
q73 0 127.5 -31t84 -88.5t29.5 -133.5q0 -18 -3 -54zM823 313q-1 54 -33.5 85.5t-88.5 31.5q-53 0 -88 -31t-44 -86h254zM404.5 139.5q38.5 46.5 38.5 120.5t-38.5 120.5t-99.5 46.5t-99.5 -46.5t-38.5 -120.5t38.5 -120.5t99.5 -46.5t99.5 46.5z" />
    <glyph glyph-name="Scaron" unicode="&#x160;" horiz-adv-x="613" 
d="M156.5 8q-74.5 18 -128.5 45l41 112q127 -61 229 -61q69 0 103 25t34 69q0 32 -18 50.5t-51 29.5t-102 27q-68 16 -112 34t-75 58t-31 109q0 103 73.5 158.5t204.5 55.5q128 0 226 -46l-45 -106q-83 38 -171 38q-62 0 -100 -19.5t-38 -64.5q0 -28 17.5 -45t48 -28
t96.5 -28q85 -22 132 -44t71 -58.5t24 -97.5q0 -111 -73.5 -171t-206.5 -60q-74 0 -148.5 18zM116 945h111l80 -76l79 76h111l-128 -150h-125z" />
    <glyph glyph-name="scaron" unicode="&#x161;" horiz-adv-x="512" 
d="M132.5 3q-57.5 13 -101.5 32l32 99q103 -44 176 -44q93 0 93 59q0 17 -9.5 26.5t-31.5 18t-74 23.5q-58 17 -92 33t-54.5 45.5t-20.5 78.5q0 78 53 117t153 39q54 0 104 -10t87 -26l-29 -96q-93 32 -156 32q-39 0 -59.5 -11t-20.5 -33q0 -25 26 -38t79 -26q32 -8 48 -13
q62 -19 95 -54.5t33 -96.5q0 -81 -57 -124.5t-158 -43.5q-58 0 -115.5 13zM65 755h111l80 -76l79 76h111l-128 -150h-125z" />
    <glyph glyph-name="Ydieresis" unicode="&#x178;" horiz-adv-x="686" 
d="M415 285v-285h-144v285l-256 425h158l170 -301l170 301h158zM185 820q-20 19 -20 48t20 48t51 19t51 -19t20 -48t-20 -48t-51 -19t-51 19zM397 820q-20 19 -20 48t20 48t51 19t51 -19t20 -48t-20 -48t-51 -19t-51 19z" />
    <glyph glyph-name="Zcaron" unicode="&#x17d;" horiz-adv-x="678" 
d="M630 115v-115h-580v96l376 499h-346v115h530v-106l-371 -489h391zM148 945h111l80 -76l79 76h111l-128 -150h-125z" />
    <glyph glyph-name="zcaron" unicode="&#x17e;" horiz-adv-x="505" 
d="M465 100v-100h-425v70l238 350h-221v100h388v-78l-233 -342h253zM62 755h111l80 -76l79 76h111l-128 -150h-125z" />
    <glyph glyph-name="florin" unicode="&#x192;" horiz-adv-x="458" 
d="M320.5 606.5q-18.5 -21.5 -25.5 -68.5l-11 -78h127v-102h-142l-43 -306q-14 -98 -58 -139.5t-135 -41.5q-39 0 -90 12l21 102q35 -6 58 -6q31 0 47 17t21 53l44 309h-99v102h113l10 69q14 100 65 150.5t136 50.5q34 0 66 -7.5t53 -20.5l-38 -90q-37 16 -66 16
q-35 0 -53.5 -21.5z" />
    <glyph glyph-name="circumflex" unicode="&#x2c6;" horiz-adv-x="601" 
d="M238 755h125l128 -150h-111l-79 76l-80 -76h-111z" />
    <glyph glyph-name="caron" unicode="&#x2c7;" horiz-adv-x="601" 
d="M110 755h111l80 -76l79 76h111l-128 -150h-125z" />
    <glyph glyph-name="breve" unicode="&#x2d8;" horiz-adv-x="599" 
d="M181 641.5q-45 41.5 -49 113.5h95q4 -35 23.5 -54t48.5 -19t49.5 19t24.5 54h94q-5 -72 -50 -113.5t-118 -41.5t-118 41.5z" />
    <glyph glyph-name="dotaccent" unicode="&#x2d9;" horiz-adv-x="600" 
d="M249 630q-20 19 -20 48t20 48t51 19t51 -19t20 -48t-20 -48t-51 -19t-51 19z" />
    <glyph glyph-name="ring" unicode="&#x2da;" horiz-adv-x="600" 
d="M213 621.5q-34 32.5 -34 81.5t34 81.5t87 32.5q52 0 86.5 -32.5t34.5 -81.5t-34 -81.5t-87 -32.5t-87 32.5zM334.5 667q13.5 14 13.5 36t-13.5 36t-34.5 14t-34.5 -14t-13.5 -36t13.5 -36t34.5 -14t34.5 14z" />
    <glyph glyph-name="ogonek" unicode="&#x2db;" horiz-adv-x="600" 
d="M215 -162q-32 20 -32 58q0 32 31.5 64t82.5 50h65q-30 -15 -47.5 -35.5t-17.5 -41.5q0 -31 39 -31q15 0 31.5 3.5t28.5 9.5l21 -74q-49 -23 -110 -23q-60 0 -92 20z" />
    <glyph glyph-name="tilde" unicode="&#x2dc;" horiz-adv-x="600" 
d="M321.5 639q-19.5 7 -42.5 19q-15 9 -26 13t-23 4q-18 0 -29.5 -10.5t-11.5 -30.5h-79q0 57 30 89t81 32q27 0 47 -6.5t43 -18.5q18 -9 28.5 -13t23.5 -4q19 0 30.5 11t11.5 30h78q0 -57 -30.5 -89.5t-83.5 -32.5q-28 0 -47.5 7z" />
    <glyph glyph-name="hungarumlaut" unicode="&#x2dd;" horiz-adv-x="601" 
d="M195 765h141l-148 -160h-103zM375 765h141l-148 -160h-103z" />
    <glyph glyph-name="uni0394" unicode="&#x394;" horiz-adv-x="742" 
d="M292 710h158l272 -710h-702zM525 108l-157 437l-157 -437h314z" />
    <glyph glyph-name="uni03A9" unicode="&#x3a9;" horiz-adv-x="808" 
d="M793 112v-112h-359v94q73 42 118.5 127t45.5 180q0 96 -51.5 150.5t-142.5 54.5t-142.5 -54.5t-51.5 -150.5q0 -95 45.5 -180t118.5 -127v-94h-359v112h182q-63 48 -100 127.5t-37 168.5q0 94 42.5 164.5t120 109t181.5 38.5t181.5 -38.5t120 -109t42.5 -164.5
q0 -89 -37 -168.5t-100 -127.5h182z" />
    <glyph glyph-name="uni03BC" unicode="&#x3bc;" horiz-adv-x="644" 
d="M569 520v-520h-132v70q-24 -39 -59.5 -59.5t-78.5 -20.5q-47 0 -89 21v-201h-135v710h135v-313q0 -111 94 -111q39 0 74.5 17.5t55.5 47.5v359h135z" />
    <glyph glyph-name="pi" unicode="&#x3c0;" horiz-adv-x="725" 
d="M469.5 26.5q-30.5 32.5 -30.5 108.5v285h-159v-420h-135v420h-95v100h625v-100h-101v-273q0 -25 9 -35.5t30 -10.5t33 3l8 -99q-39 -11 -84 -11q-70 0 -100.5 32.5z" />
    <glyph glyph-name="uni0E01" unicode="&#xe01;" horiz-adv-x="638" 
d="M507.5 490.5q66.5 -59.5 66.5 -170.5v-320h-136v327q0 56 -34.5 86.5t-98.5 30.5q-57 0 -89 -22t-36 -63h123v-82h-64q-13 -15 -18.5 -38.5t-5.5 -62.5v-176h-136v135q0 91 60 142h-87v35q0 116 67.5 177t196.5 61q125 0 191.5 -59.5z" />
    <glyph glyph-name="uni0E02" unicode="&#xe02;" horiz-adv-x="612" 
d="M148.5 44q-61.5 54 -61.5 148v92q0 58 16.5 95.5t51.5 60.5h-100v100h232v-71q-64 -36 -64 -166v-104q0 -53 23 -79t71 -26q47 0 69.5 26t22.5 79v341h136v-348q0 -94 -61 -148t-167 -54q-107 0 -168.5 54z" />
    <glyph glyph-name="uni0E03" unicode="&#xe03;" horiz-adv-x="613" 
d="M546 540v-348q0 -94 -62.5 -148t-171.5 -54t-171.5 54t-62.5 148v86q0 29 11.5 53t46.5 68l11 14q-13 -4 -31 -4q-41 0 -63.5 22.5t-22.5 65.5v43h113v-42q0 -17 5.5 -24.5t17.5 -7.5t25 5q6 12 26 69h92v-41q0 -31 -7.5 -49.5t-37.5 -61.5q-33 -48 -41.5 -67.5
t-8.5 -47.5v-74q0 -51 25 -78t73 -27t73 27t25 78v341h136z" />
    <glyph glyph-name="uni0E04" unicode="&#xe04;" horiz-adv-x="646" 
d="M515.5 493q66.5 -57 66.5 -165v-328h-136v325q0 58 -31.5 88.5t-91.5 30.5t-91.5 -30.5t-31.5 -88.5v-94q25 35 60 52t83 17h24v-106h-24q-59 0 -93 -16t-50 -53v-125h-136v328q0 108 66.5 165t192.5 57t192.5 -57z" />
    <glyph glyph-name="uni0E05" unicode="&#xe05;" horiz-adv-x="646" 
d="M540 480q42 -47 42 -128v-352h-136v324q0 77 -53 98l-61 -36h-18l-61 36q-53 -21 -53 -98v-98q25 35 60 52t83 17h24v-106h-24q-59 0 -93 -16t-50 -53v-120h-136v352q0 81 42 128t128 64l89 -59l89 59q86 -17 128 -64z" />
    <glyph glyph-name="uni0E06" unicode="&#xe06;" horiz-adv-x="657" 
d="M590 540v-338q0 -104 -51 -158t-148 -54q-111 0 -167 80v-70h-132v278q0 29 11.5 53t46.5 68l11 14q-13 -4 -31 -4q-41 0 -63.5 22.5t-22.5 65.5v43h113v-42q0 -17 5.5 -24.5t17.5 -7.5q13 0 25 6q6 11 26 68h92v-41q0 -31 -7.5 -49.5t-37.5 -61.5q-34 -49 -42.5 -68
t-8.5 -47v-113q22 -28 56 -44t72 -16q99 0 99 115v325h136z" />
    <glyph glyph-name="uni0E07" unicode="&#xe07;" horiz-adv-x="573" 
d="M164 0l-160 540h139l132 -441q39 0 69.5 24.5t48 68t17.5 98.5q0 68 -34 109t-91 41q-16 0 -36 -3l-10 103q17 4 57 4q122 0 186 -64.5t64 -187.5q0 -142 -80 -219.5t-226 -77.5q-46 0 -76 5z" />
    <glyph glyph-name="uni0E08" unicode="&#xe08;" horiz-adv-x="558" 
d="M463 482.5q72 -67.5 72 -195.5q0 -90 -33 -156.5t-95 -102.5t-146 -36q-36 0 -77 9l-59 218h-71v84h178l56 -208q51 10 81 58.5t30 122.5q0 82 -40 125t-116 43q-87 0 -166 -55l-49 96q92 65 226 65q137 0 209 -67.5z" />
    <glyph glyph-name="uni0E09" unicode="&#xe09;" horiz-adv-x="635" 
d="M501.5 497.5q69.5 -52.5 69.5 -152.5v-345h-132v81q-28 -44 -73.5 -67.5t-102.5 -23.5q-76 0 -120 45t-44 124v58h-52v84h184v-124q0 -40 19.5 -60.5t57.5 -20.5t72.5 20t55.5 55v155q0 58 -37.5 88t-110.5 30q-48 0 -93.5 -14t-94.5 -45l-58 96q51 34 117 51.5t141 17.5
q132 0 201.5 -52.5z" />
    <glyph glyph-name="uni0E0A" unicode="&#xe0a;" horiz-adv-x="618" 
d="M531.5 346q31.5 -38 31.5 -100v-39q0 -106 -63 -161.5t-184 -55.5q-122 0 -185.5 54.5t-63.5 157.5v338h136v-331q0 -56 28.5 -85.5t83.5 -29.5t83.5 29.5t28.5 85.5v37q0 46 -18.5 66t-60.5 20h-69v92h7q33 0 49.5 9.5t48.5 46.5q27 32 46.5 46t44.5 19t72 5h12v-100
h-14q-46 0 -72 -26q-23 -23 -32 -29q59 -11 90.5 -49z" />
    <glyph glyph-name="uni0E0B" unicode="&#xe0b;" horiz-adv-x="629" 
d="M542.5 346q31.5 -38 31.5 -100v-39q0 -107 -62.5 -162t-184.5 -55t-185.5 54.5t-63.5 157.5v76q0 29 11.5 53t46.5 68l11 14q-13 -4 -31 -4q-41 0 -63.5 22.5t-22.5 65.5v43h113v-42q0 -17 5.5 -24.5t17.5 -7.5t25 5q6 12 26 69h92v-41q0 -31 -7.5 -49.5t-37.5 -61.5
q-33 -48 -41.5 -67.5t-8.5 -47.5v-64q0 -56 28.5 -85.5t83.5 -29.5t83.5 29.5t28.5 85.5v37q0 46 -18.5 66t-62.5 20h-37v92h7q12 0 25.5 11t42.5 45q27 31 47 45t45.5 19.5t70.5 5.5h12v-100h-14q-46 0 -72 -26q-23 -23 -32 -29q59 -11 90.5 -49z" />
    <glyph glyph-name="uni0E0C" unicode="&#xe0c;" horiz-adv-x="951" 
d="M884 540v-368q0 -88 -46 -135t-132 -47q-50 0 -91.5 24t-70.5 69v-83h-132v327q0 56 -33 86.5t-93 30.5q-51 0 -80 -22t-33 -63h129v-82h-67q-20 -20 -32 -49.5t-12 -60.5q0 -38 16 -57.5t47 -19.5q21 0 46 9l25 -85q-42 -22 -106 -22q-76 0 -120 37t-44 102
q0 41 23.5 79t66.5 67h-100v35q0 116 64.5 177t187.5 61q122 0 186.5 -59t64.5 -171v-141q20 -35 53.5 -57t67.5 -22q38 0 58.5 22t20.5 63v355h136z" />
    <glyph glyph-name="uni0E0D" unicode="&#xe0d;" horiz-adv-x="958" 
d="M889 540v-497q0 -135 -65 -196t-209 -61q-50 0 -106.5 11.5t-98.5 29.5l36 103q30 -17 74 -27.5t83 -10.5q80 0 115 31.5t35 102.5v63q-52 -89 -159 -89q-86 0 -132 44t-46 126v160q0 54 -33 84t-92 30q-49 0 -79.5 -23t-34.5 -62h125v-82h-67q-20 -20 -32 -49.5
t-12 -60.5q0 -38 16 -57.5t47 -19.5q21 0 46 9l25 -85q-42 -22 -106 -22q-76 0 -120 37t-44 102q0 41 23.5 79t66.5 67h-100v38q0 116 66 175.5t193 59.5q121 0 184.5 -55t63.5 -159v-141q0 -85 78 -85q37 0 70 21.5t53 57.5v351h136z" />
    <glyph glyph-name="uni0E0E" unicode="&#xe0e;" horiz-adv-x="654" 
d="M521 491q69 -59 69 -171v-485l-92 -58q-16 -11 -31 -11q-11 0 -21 5t-29 19q-34 24 -60 34.5t-52 10.5q-30 0 -46.5 -15t-16.5 -43v-8h-136v13q0 71 46 113t124 42q48 0 97 -16.5t81 -42.5v449q0 57 -35.5 86.5t-103.5 29.5q-58 0 -91 -22t-37 -62h128v-82h-59
q-8 -14 -11 -36.5t-3 -64.5v-75q0 -109 -114 -109q-55 0 -98 19l22 84q12 -5 28 -5q26 0 26 26v45q0 75 49 116h-95v35q0 116 67 177t195 61q130 0 199 -59z" />
    <glyph glyph-name="uni0E0F" unicode="&#xe0f;" horiz-adv-x="654" 
d="M521 491q69 -59 69 -171v-444l-159 -93q-17 -9 -25 -12t-16 -3q-10 0 -20 4t-27 14q-40 24 -54.5 31t-22.5 7q-7 0 -16 -4.5t-38 -21.5q-28 -19 -43.5 -24t-48.5 -5h-29v110h20q24 0 39.5 3.5t38.5 14.5q40 21 56 28t26 7q11 0 22.5 -5.5t37.5 -22.5q24 -16 32.5 -20
t16.5 -4t15.5 3.5t26.5 15.5l32 20v408q0 57 -35.5 86.5t-103.5 29.5q-58 0 -91 -22t-37 -62h128v-82h-59q-8 -14 -11 -36.5t-3 -64.5v-75q0 -109 -114 -109q-55 0 -98 19l22 84q12 -5 28 -5q26 0 26 26v45q0 75 49 116h-95v35q0 116 67 177t195 61q130 0 199 -59z" />
    <glyph glyph-name="uni0E10" unicode="&#xe10;" horiz-adv-x="600" 
d="M580 570v-104q-22 3 -50 3q-27 0 -51 -3q56 -67 56 -179q0 -90 -33 -156.5t-95 -102.5t-146 -36q-36 0 -77 9l-59 218h-71v84h178l56 -208q51 10 81 58.5t30 122.5q0 82 -40 125t-116 43q-87 0 -166 -55l-49 96q92 65 226 65q102 0 166 -36q26 29 62 42.5t86 13.5h12z
M483 -63l61 -88l-113 -66q-17 -9 -25 -12t-16 -3q-10 0 -20 4t-27 14q-39 24 -54 31t-23 7q-7 0 -16 -4.5t-38 -21.5q-27 -19 -43 -24t-49 -5h-29v110h20q23 0 38.5 3.5t39.5 14.5q39 21 55.5 28t26.5 7q11 0 22.5 -5.5t37.5 -22.5q24 -16 32.5 -20t16.5 -4t15.5 3.5
t26.5 15.5z" />
    <glyph glyph-name="uni0E11" unicode="&#xe11;" horiz-adv-x="660" 
d="M558 503.5q35 -41.5 35 -135.5v-368h-136v358q0 38 -17.5 56.5t-53.5 18.5q-28 0 -52 -12t-55 -40q-56 -53 -56 -103v-278h-136v278q0 35 12.5 59.5t46.5 66.5l8 10q-20 -5 -37 -5q-41 0 -61.5 23.5t-20.5 64.5v43h108v-43q0 -19 6 -25.5t17 -6.5q14 0 28 7q3 7 8 27
l11 41h77v-68q51 73 154 73q79 0 114 -41.5z" />
    <glyph glyph-name="uni0E12" unicode="&#xe12;" horiz-adv-x="975" 
d="M908 540v-348q0 -100 -46 -151t-137 -51q-102 0 -157 79v-69h-132v322q0 79 -53 100l-61 -36h-14l-65 40q-35 -17 -53.5 -57.5t-18.5 -103.5q0 -81 30 -125t85 -44q19 0 52 9l26 -91q-41 -22 -103 -22q-108 0 -167.5 72t-59.5 202q0 117 50 188t145 90l84 -59l89 59
q86 -17 128 -65t42 -129v-171q21 -34 54.5 -56.5t66.5 -22.5q79 0 79 105v335h136z" />
    <glyph glyph-name="uni0E13" unicode="&#xe13;" horiz-adv-x="962" 
d="M889 540v-540h-133v91q-56 -101 -173 -101q-83 0 -125 43t-42 127v170q0 54 -33 84t-92 30q-53 0 -84 -22.5t-34 -62.5h129v-82h-67q-20 -20 -32 -49.5t-12 -60.5q0 -38 16 -57.5t47 -19.5q21 0 46 9l25 -85q-42 -22 -106 -22q-76 0 -120 37t-44 102q0 41 23.5 79
t66.5 67h-100v38q0 116 66 175.5t193 59.5q121 0 184.5 -55t63.5 -159v-151q0 -85 78 -85q37 0 70 21.5t53 57.5v361h136z" />
    <glyph glyph-name="uni0E14" unicode="&#xe14;" horiz-adv-x="638" 
d="M90 60q-56 68 -56 195q0 142 72 218.5t206 76.5q122 0 191 -61.5t69 -170.5v-318h-136v305q0 71 -30 105t-92 34q-73 0 -108 -45.5t-35 -140.5q0 -162 105 -162q18 0 52 9l26 -91q-41 -22 -103 -22q-105 0 -161 68z" />
    <glyph glyph-name="uni0E15" unicode="&#xe15;" horiz-adv-x="638" 
d="M93.5 64q-59.5 72 -59.5 202q0 117 50 188t145 90l84 -59l89 59q87 -17 128.5 -64.5t41.5 -127.5v-352h-136v324q0 77 -53 98l-61 -36h-14l-65 40q-35 -16 -53.5 -57.5t-18.5 -103.5q0 -80 30 -124.5t85 -44.5q19 0 52 9l26 -91q-41 -22 -103 -22q-108 0 -167.5 72z" />
    <glyph glyph-name="uni0E16" unicode="&#xe16;" horiz-adv-x="633" 
d="M502 491q67 -59 67 -171v-320h-136v327q0 57 -34.5 86.5t-101.5 29.5q-56 0 -88 -21.5t-36 -62.5h125v-82h-63q-20 -20 -32 -49.5t-12 -60.5q0 -38 16 -57.5t47 -19.5q21 0 46 9l25 -85q-42 -22 -106 -22q-76 0 -120 37t-44 102q0 41 23.5 79t66.5 67h-100v35
q0 116 67.5 177t195.5 61q127 0 194 -59z" />
    <glyph glyph-name="uni0E17" unicode="&#xe17;" horiz-adv-x="646" 
d="M528 496q51 -54 51 -158v-338h-136v325q0 115 -97 115q-43 0 -80.5 -19.5t-57.5 -51.5v-369h-135v540h131v-66q59 76 174 76q99 0 150 -54z" />
    <glyph glyph-name="uni0E18" unicode="&#xe18;" horiz-adv-x="576" 
d="M487 291.5q44 -41.5 44 -116.5q0 -91 -59 -138t-172 -47q-62 0 -126.5 12.5t-106.5 32.5v207h131v-136q51 -12 93 -12q104 0 104 80q0 39 -26.5 59.5t-92.5 33.5l-222 44v61q0 91 55.5 134.5t170.5 43.5q61 0 127 -13.5t113 -35.5l-36 -100q-50 21 -105.5 33t-101.5 12
q-44 0 -65.5 -11.5t-21.5 -35.5v-10l149 -33q104 -23 148 -64.5z" />
    <glyph glyph-name="uni0E19" unicode="&#xe19;" horiz-adv-x="646" 
d="M573 540v-540h-132v82q-56 -92 -175 -92q-97 0 -148 54t-51 158v338h136v-325q0 -115 99 -115q42 0 79 19.5t57 51.5v369h135z" />
    <glyph glyph-name="uni0E1A" unicode="&#xe1a;" horiz-adv-x="640" 
d="M134 47q-67 57 -67 155v338h136v-329q0 -53 31 -84t84 -31q55 0 87 31t32 84v329h136v-338q0 -98 -68.5 -155t-186.5 -57q-117 0 -184 57z" />
    <glyph glyph-name="uni0E1B" unicode="&#xe1b;" horiz-adv-x="640" 
d="M573 710v-508q0 -98 -68.5 -155t-186.5 -57q-117 0 -184 57t-67 155v338h136v-329q0 -53 31 -84t84 -31q55 0 87 31t32 84v499h136z" />
    <glyph glyph-name="uni0E1C" unicode="&#xe1c;" horiz-adv-x="667" 
d="M70 406q0 71 38 105t118 34q53 0 98 -17l-27 -95q-24 8 -44 8q-29 0 -40 -16.5t-11 -60.5v-211l101 147h58l101 -147v387h132v-540h-132l-130 171l-130 -171h-132v406z" />
    <glyph glyph-name="uni0E1D" unicode="&#xe1d;" horiz-adv-x="667" 
d="M70 406q0 71 38 105t118 34q53 0 98 -17l-27 -95q-24 8 -44 8q-29 0 -40 -16.5t-11 -60.5v-211l101 147h58l101 -147v557h132v-710h-132l-130 171l-130 -171h-132v406z" />
    <glyph glyph-name="uni0E1E" unicode="&#xe1e;" horiz-adv-x="766" 
d="M34 540h132l63 -377l93 377h122l93 -377l63 377h132l-98 -540h-156l-95 361l-95 -361h-156z" />
    <glyph glyph-name="uni0E1F" unicode="&#xe1f;" horiz-adv-x="746" 
d="M34 540h132l63 -377l93 377h122l93 -377l63 547h132l-95 -710h-159l-95 361l-95 -361h-156z" />
    <glyph glyph-name="uni0E20" unicode="&#xe20;" horiz-adv-x="654" 
d="M521 491q69 -59 69 -171v-320h-136v327q0 57 -35.5 86.5t-103.5 29.5q-58 0 -91 -22t-37 -62h128v-82h-59q-8 -14 -11 -36.5t-3 -64.5v-75q0 -109 -114 -109q-55 0 -98 19l22 84q12 -5 28 -5q26 0 26 26v45q0 75 49 116h-95v35q0 116 67 177t195 61q130 0 199 -59z" />
    <glyph glyph-name="uni0E21" unicode="&#xe21;" horiz-adv-x="646" 
d="M579 540v-338q0 -104 -51 -158t-148 -54q-120 0 -176 94v-84h-131v540h135v-369q20 -32 57 -51.5t79 -19.5q99 0 99 115v325h136z" />
    <glyph glyph-name="uni0E22" unicode="&#xe22;" horiz-adv-x="623" 
d="M109.5 33.5q-67.5 43.5 -67.5 123.5q0 56 30.5 89.5t88.5 43.5q-57 10 -88 42t-31 79q0 64 50.5 100.5t137.5 36.5q42 0 78 -11l-10 -94q-22 5 -45 5q-37 0 -56 -13.5t-19 -39.5q0 -57 97 -57h36v-94h-24q-59 0 -84 -16.5t-25 -54.5t31.5 -58t89.5 -20q64 0 92.5 27.5
t28.5 89.5v328h136v-327q0 -116 -61 -169.5t-193 -53.5q-125 0 -192.5 43.5z" />
    <glyph glyph-name="uni0E23" unicode="&#xe23;" horiz-adv-x="527" 
d="M138 2.5q-60 12.5 -100 32.5l31 103q102 -44 185 -44q48 0 70.5 14.5t22.5 43.5q0 22 -12.5 35t-36 22t-70.5 21q-56 15 -92 32t-58.5 48t-22.5 82q0 78 56 118t165 40q51 0 102.5 -10t87.5 -26l-30 -98q-95 30 -160 30q-85 0 -85 -46q0 -28 27.5 -42t84.5 -29
q32 -8 47 -13q65 -20 99 -56t34 -99q0 -82 -58.5 -126.5t-166.5 -44.5q-60 0 -120 12.5z" />
    <glyph glyph-name="uni0E24" unicode="&#xe24;" horiz-adv-x="633" 
d="M502 491q67 -59 67 -171v-551h-136v558q0 57 -34.5 86.5t-101.5 29.5q-56 0 -88 -21.5t-36 -62.5h125v-82h-63q-20 -20 -32 -49.5t-12 -60.5q0 -38 16 -57.5t47 -19.5q21 0 46 9l25 -85q-42 -22 -106 -22q-76 0 -120 37t-44 102q0 41 23.5 79t66.5 67h-100v35
q0 116 67.5 177t195.5 61q127 0 194 -59z" />
    <glyph glyph-name="uni0E25" unicode="&#xe25;" horiz-adv-x="605" 
d="M477 501q62 -49 62 -142v-359h-136v228l-54 1q-94 0 -136 -17.5t-42 -57.5q0 -31 20 -47.5t57 -16.5q27 0 64 10l19 -90q-40 -18 -105 -18q-95 0 -143 45t-48 116q0 86 75 128.5t227 42.5l66 -2v22q0 53 -29.5 77.5t-93.5 24.5q-47 0 -89 -10.5t-91 -35.5l-42 95
q50 26 113.5 40.5t126.5 14.5q117 0 179 -49z" />
    <glyph glyph-name="uni0E26" unicode="&#xe26;" horiz-adv-x="654" 
d="M521 491q69 -59 69 -171v-551h-136v558q0 57 -35.5 86.5t-103.5 29.5q-58 0 -91 -22t-37 -62h128v-82h-59q-8 -14 -11 -36.5t-3 -64.5v-75q0 -109 -114 -109q-55 0 -98 19l22 84q12 -5 28 -5q26 0 26 26v45q0 75 49 116h-95v35q0 116 67 177t195 61q130 0 199 -59z" />
    <glyph glyph-name="uni0E27" unicode="&#xe27;" horiz-adv-x="517" 
d="M115 3q-54 13 -95 35l40 97q80 -41 143 -41q67 0 105 48t38 133q0 83 -36 127t-105 44q-59 0 -142 -38l-40 99q36 19 90.5 31t104.5 12q127 0 195.5 -71t68.5 -203q0 -134 -70 -210t-194 -76q-49 0 -103 13z" />
    <glyph glyph-name="uni0E28" unicode="&#xe28;" horiz-adv-x="653" 
d="M640 570v-104q-24 3 -50 3t-49 -3q41 -53 41 -138v-328h-136v325q0 58 -31.5 88.5t-91.5 30.5t-91.5 -30.5t-31.5 -88.5v-94q25 35 60 52t83 17h24v-106h-24q-59 0 -93 -16t-50 -53v-125h-136v328q0 108 66.5 165t192.5 57q96 0 159 -34q26 28 61.5 41t84.5 13h12z" />
    <glyph glyph-name="uni0E29" unicode="&#xe29;" horiz-adv-x="650" 
d="M635 264h-60v-62q0 -98 -69 -155t-188 -57q-117 0 -184 57t-67 155v338h136v-329q0 -53 31 -84t85 -31q56 0 88 31t32 84v53h-139v98h139v178h136v-178h60v-98z" />
    <glyph glyph-name="uni0E2A" unicode="&#xe2a;" horiz-adv-x="630" 
d="M620 570v-104q-24 3 -50 3q-37 0 -67 -6q36 -36 36 -114v-349h-136v229h-54q-95 0 -136.5 -17.5t-41.5 -58.5q0 -30 20 -46.5t57 -16.5q27 0 64 10l19 -90q-40 -18 -105 -18q-89 0 -140 42.5t-51 117.5q0 87 74.5 129.5t228.5 42.5q41 0 65 -1v21q0 53 -29.5 77.5
t-93.5 24.5q-47 0 -89 -10.5t-91 -35.5l-42 95q48 25 110 40t121 15q112 0 167 -41q26 31 63 46t89 15h12z" />
    <glyph glyph-name="uni0E2B" unicode="&#xe2b;" horiz-adv-x="639" 
d="M540 313q39 -45 39 -135v-178h-136v163q0 67 -22.5 98.5t-77.5 38.5l-134 -132v-168h-136v540h136v-228l158 168q31 34 63.5 47t88.5 13h54v-106h-25q-41 0 -63 -7.5t-43 -28.5l-29 -29q88 -11 127 -56z" />
    <glyph glyph-name="uni0E2C" unicode="&#xe2c;" horiz-adv-x="766" 
d="M682 513q19 -33 19 -80q0 -13 -4 -43l-63 -390h-156l-99 311l-91 -311h-166l-62 540h132l37 -377l89 277h122l97 -277l29 219q5 40 5 61q0 48 -20.5 66.5t-71.5 18.5h-99v92h117q56 0 86.5 21.5t39.5 68.5h127q-14 -66 -42.5 -100.5t-81.5 -47.5q37 -16 56 -49z" />
    <glyph glyph-name="uni0E2D" unicode="&#xe2d;" horiz-adv-x="602" 
d="M101 62q-71 71 -71 195q0 34 3 50h292v-93h-165q4 -55 40.5 -87t92.5 -32q68 0 106.5 46.5t38.5 127.5q0 82 -44 128.5t-121 46.5q-42 0 -87.5 -15t-85.5 -41l-55 94q47 31 111.5 49.5t127.5 18.5q90 0 155.5 -33.5t100.5 -96t35 -147.5q0 -86 -33.5 -150t-96.5 -98
t-149 -34q-124 0 -195 71z" />
    <glyph glyph-name="uni0E2E" unicode="&#xe2e;" horiz-adv-x="620" 
d="M560 469q-29 0 -53 -3q68 -73 68 -193q0 -86 -33.5 -150t-96.5 -98t-149 -34q-124 0 -195 71t-71 195q0 34 3 50h292v-93h-165q4 -55 40.5 -87t92.5 -32q68 0 106.5 46.5t38.5 127.5q0 82 -44 128.5t-121 46.5q-42 0 -87.5 -15t-85.5 -41l-55 94q47 31 111.5 49.5
t127.5 18.5q96 0 164 -38q49 58 150 58h12v-104q-24 3 -50 3z" />
    <glyph glyph-name="uni0E2F" unicode="&#xe2f;" horiz-adv-x="547" 
d="M480 540v-540h-132v277q-27 -28 -64 -43.5t-81 -15.5q-85 0 -134 45t-49 123q0 77 50.5 120.5t140.5 43.5q29 0 51 -6l-12 -93q-5 1 -15 1q-38 0 -58.5 -17.5t-20.5 -50.5t24 -52t67 -19q29 0 55 12t46 35v180h132z" />
    <glyph glyph-name="uni0E30" unicode="&#xe30;" horiz-adv-x="362" 
d="M68 368q-33 33 -33 107v27h126v-29q0 -21 12 -30.5t38 -9.5h121v-98h-157q-74 0 -107 33zM68 88q-33 33 -33 107v27h126v-29q0 -21 12 -30.5t38 -9.5h121v-98h-157q-74 0 -107 33z" />
    <glyph glyph-name="uni0E31" unicode="&#xe31;" 
d="M-310 658q-33 33 -33 107v27h126v-29q0 -21 12 -30.5t38 -9.5h230v-98h-266q-74 0 -107 33z" />
    <glyph glyph-name="uni0E32" unicode="&#xe32;" horiz-adv-x="432" 
d="M232 369q0 79 -82 79q-46 0 -116 -29l-28 99q82 32 169 32q99 0 146 -44.5t47 -138.5v-367h-136v369z" />
    <glyph glyph-name="uni0E33" unicode="&#xe33;" horiz-adv-x="432" 
d="M232 369q0 79 -82 79q-46 0 -116 -29l-28 99q82 32 169 32q99 0 146 -44.5t47 -138.5v-367h-136v369zM-234 638q-34 30 -34 78t34 78t89 30t89 -30t34 -78t-34 -78t-89 -30t-89 30zM-114.5 684q11.5 12 11.5 32t-11.5 32t-30.5 12t-30.5 -12t-11.5 -32t11.5 -32t30.5 -12
t30.5 12z" />
    <glyph glyph-name="uni0E34" unicode="&#xe34;" 
d="M-524 723h457v-98h-457v98z" />
    <glyph glyph-name="uni0E35" unicode="&#xe35;" 
d="M-67 811v-186h-457v98h329v88h128z" />
    <glyph glyph-name="uni0E36" unicode="&#xe36;" 
d="M-69 791q32 -29 32 -75t-32 -75t-82 -29q-31 0 -59 13h-314v98h259q3 43 34.5 70t79.5 27q50 0 82 -29zM-118 684.5q13 12.5 13 31.5t-13 31.5t-33 12.5t-33 -12.5t-13 -31.5t13 -31.5t33 -12.5t33 12.5z" />
    <glyph glyph-name="uni0E37" unicode="&#xe37;" 
d="M-67 803v-178h-457v98h195v80h102v-80h58v80h102z" />
    <glyph glyph-name="uni0E38" unicode="&#xe38;" 
d="M-186 -154h-65v85h184v-206h-119v121z" />
    <glyph glyph-name="uni0E39" unicode="&#xe39;" 
d="M-326.5 -265.5q-40.5 30.5 -40.5 80.5v31h-45v85h156v-97q0 -21 10 -32.5t28 -11.5q17 0 26.5 11.5t9.5 32.5v97h115v-96q0 -61 -40.5 -96t-111.5 -35q-67 0 -107.5 30.5z" />
    <glyph glyph-name="uni0E3A" unicode="&#xe3a;" 
d="M-197 -201.5q-23 22.5 -23 58.5t23 59t59 23t58.5 -23t22.5 -59t-22.5 -58.5t-58.5 -22.5t-59 22.5z" />
    <glyph glyph-name="uni0E3F" unicode="&#xe3f;" horiz-adv-x="667" 
d="M552 50q-65 -50 -187 -50v-94h-70v94h-205v710h205v76h70v-76q101 -2 156.5 -49t55.5 -130q0 -113 -109 -158q73 -14 111 -59.5t38 -118.5q0 -95 -65 -145zM238 598v-181h57v181h-57zM365 593v-171q62 17 62 86q0 68 -62 85zM295 112v193h-57v-193h57zM441 138
q26 25 26 72q0 45 -26 69.5t-76 25.5v-193q50 1 76 26z" />
    <glyph glyph-name="uni0E40" unicode="&#xe40;" horiz-adv-x="327" 
d="M119.5 27.5q-30.5 32.5 -30.5 108.5v404h136v-392q0 -25 9 -35.5t30 -10.5t33 3l8 -99q-39 -11 -84 -11q-71 0 -101.5 32.5z" />
    <glyph glyph-name="uni0E41" unicode="&#xe41;" horiz-adv-x="614" 
d="M119.5 27.5q-30.5 32.5 -30.5 108.5v404h136v-392q0 -25 9 -35.5t30 -10.5t33 3l8 -99q-39 -11 -84 -11q-71 0 -101.5 32.5zM406.5 27.5q-30.5 32.5 -30.5 108.5v404h136v-392q0 -25 9 -35.5t30 -10.5t33 3l8 -99q-39 -11 -84 -11q-71 0 -101.5 32.5z" />
    <glyph glyph-name="uni0E42" unicode="&#xe42;" horiz-adv-x="337" 
d="M154 749v-3q40 -14 60.5 -56.5t20.5 -110.5v-431q0 -25 9 -35.5t30 -10.5t33 3l8 -99q-39 -11 -84 -11q-71 0 -101.5 32.5t-30.5 108.5v443q0 83 -30.5 126.5t-89.5 43.5h-8l-5 9l67 86h384v-95h-263z" />
    <glyph glyph-name="uni0E43" unicode="&#xe43;" horiz-adv-x="337" 
d="M130 27.5q-31 32.5 -31 108.5v353q0 56 11.5 85t49.5 68q19 19 27 33t8 29q0 21 -13.5 33.5t-37.5 12.5q-27 0 -41 -17.5t-14 -50.5l-123 13q1 75 48.5 115t134.5 40q83 0 129.5 -36.5t46.5 -101.5q0 -30 -10.5 -54.5t-34.5 -51.5q-27 -30 -36 -53.5t-9 -63.5v-341
q0 -24 9 -35t30 -11q18 0 33 3l8 -99q-36 -11 -81 -11q-73 0 -104 32.5z" />
    <glyph glyph-name="uni0E44" unicode="&#xe44;" horiz-adv-x="337" 
d="M244 112.5q9 -10.5 30 -10.5t33 3l8 -99q-39 -11 -84 -11q-71 0 -101.5 32.5t-30.5 108.5v413q0 71 21 116.5t70 80.5v3h-223v95h381v-75q-60 -24 -86.5 -68.5t-26.5 -121.5v-431q0 -25 9 -35.5z" />
    <glyph glyph-name="uni0E45" unicode="&#xe45;" horiz-adv-x="432" 
d="M321 505.5q47 -44.5 47 -138.5v-598h-136v600q0 79 -82 79q-46 0 -116 -29l-28 99q82 32 169 32q99 0 146 -44.5z" />
    <glyph glyph-name="uni0E46" unicode="&#xe46;" horiz-adv-x="589" 
d="M385 348q0 31 -12.5 49.5t-40.5 30.5l-57 -29l-60 29q-27 -13 -39.5 -33.5t-12.5 -52.5q0 -39 21 -63.5t54 -24.5q23 0 45 7l25 -93q-37 -18 -90 -18q-54 0 -97 24t-67 66.5t-24 95.5q0 80 48 134.5t130 69.5l68 -38l75 38q90 -18 130 -61t40 -121v-589h-136v579z" />
    <glyph glyph-name="uni0E47" unicode="&#xe47;" 
d="M-435 661.5q-36 36.5 -36 100.5t38 101t105 37h252v-92h-250q-21 0 -33 -13t-12 -35q0 -45 56 -45l43 53h45q4 -27 20.5 -41.5t43.5 -14.5t57 12l20 -85q-40 -18 -74 -18q-68 0 -95 61l-43 -57h-37q-64 0 -100 36.5z" />
    <glyph glyph-name="uni0E48" unicode="&#xe48;" 
d="M-199 831h128v-206h-128v206z" />
    <glyph glyph-name="uni0E49" unicode="&#xe49;" 
d="M-332 701q23 1 41 5q36 8 36 38q0 17 -10 25t-31 8q-7 0 -34 -4v76q56 16 98 16q51 0 79 -22t28 -62q0 -20 -6.5 -38t-18.5 -30h183v-88h-365v76z" />
    <glyph glyph-name="uni0E4A" unicode="&#xe4a;" 
d="M-442 729q0 56 33 88.5t93 33.5l65 -38l60 38q64 -4 94 -30.5t30 -79.5v-22h91v-94h-206v95q0 39 -25 42l-42 -20l-45 20q-15 -1 -23 -11t-8 -27q0 -18 10 -28t28 -10q8 0 20 2l6 -63q-28 -5 -52 -5q-129 0 -129 109z" />
    <glyph glyph-name="uni0E4B" unicode="&#xe4b;" 
d="M3 699h-78v-74h-120v74h-78v88h78v74h120v-74h78v-88z" />
    <glyph glyph-name="uni0E4C" unicode="&#xe4c;" 
d="M-268 661q0 74 33 107t107 33h137v-98h-91q-32 0 -46 -14t-14 -46v-18h-126v36z" />
    <glyph glyph-name="uni0E4D" unicode="&#xe4d;" 
d="M-244 638q-34 30 -34 78t34 78t89 30t89 -30t34 -78t-34 -78t-89 -30t-89 30zM-124.5 684q11.5 12 11.5 32t-11.5 32t-30.5 12t-30.5 -12t-11.5 -32t11.5 -32t30.5 -12t30.5 12z" />
    <glyph glyph-name="uni0E4E" unicode="&#xe4e;" 
d="M-133 802q0 -12 8.5 -20t30.5 -13l-7 -42q-5 1 -15 1q-33 0 -33 -24q0 -12 11 -20t37 -8l-6 -66q-2 0 -5.5 -0.5t-16.5 -0.5q-72 0 -111 24.5t-39 68.5q0 28 18 48.5t48 25.5q-25 19 -25 52t23.5 51.5t60.5 18.5q44 0 82 -21l-12 -53q-13 3 -24 3q-25 -1 -25 -25z" />
    <glyph glyph-name="uni0E4F" unicode="&#xe4f;" horiz-adv-x="576" 
d="M154 48.5q-57 28.5 -88 81.5t-31 123t31 123t88 81.5t134 28.5t134 -28.5t88 -81.5t31 -123t-31 -123t-88 -81.5t-134 -28.5t-134 28.5zM399 140.5q41 41.5 41 112.5t-41 112.5t-111 41.5t-111 -41.5t-41 -112.5t41 -112.5t111 -41.5t111 41.5zM212 174q-28 29 -28 79
t28 79t76 29t76 -29t28 -79t-28 -79t-76 -29t-76 29zM312 219.5q9 12.5 9 33.5t-9 33.5t-24 12.5t-24 -12.5t-9 -33.5t9 -33.5t24 -12.5t24 12.5z" />
    <glyph glyph-name="uni0E50" unicode="&#xe50;" horiz-adv-x="576" 
d="M154.5 22q-58.5 32 -91.5 89.5t-33 131.5t33 131.5t91.5 89.5t133.5 32t133.5 -32t91.5 -89.5t33 -131.5t-33 -131.5t-91.5 -89.5t-133.5 -32t-133.5 32zM376.5 136q32.5 40 32.5 107t-32.5 107t-88.5 40t-88.5 -40t-32.5 -107t32.5 -107t88.5 -40t88.5 40z" />
    <glyph glyph-name="uni0E51" unicode="&#xe51;" horiz-adv-x="572" 
d="M180 -12q110 15 167.5 75.5t57.5 160.5q0 80 -32.5 123t-93.5 43q-55 0 -85.5 -32.5t-30.5 -90.5q0 -51 23.5 -81t63.5 -30q15 0 29 4l14 -91q-36 -12 -76 -12q-55 0 -97.5 26t-66 74t-23.5 110q0 106 67.5 167.5t182.5 61.5q124 0 193 -68.5t69 -191.5
q0 -143 -89.5 -237.5t-248.5 -118.5z" />
    <glyph glyph-name="uni0E52" unicode="&#xe52;" horiz-adv-x="737" 
d="M149 49.5q-82 59.5 -82 170.5v384h134v-382q0 -61 47.5 -93.5t135.5 -32.5q77 0 118 32t41 92v110q0 26 -10 40t-32 21l-41 -19l-48 19q-20 -5 -31 -21t-11 -40q0 -31 14 -45.5t44 -14.5q13 0 18 1l7 -93q-18 -6 -49 -6q-75 0 -118.5 44t-43.5 120q0 44 19.5 79.5
t54 55.5t77.5 20l62 -29l63 29q75 -5 117 -44t42 -104v-123q0 -111 -76 -170.5t-218 -59.5q-152 0 -234 59.5z" />
    <glyph glyph-name="uni0E53" unicode="&#xe53;" horiz-adv-x="675" 
d="M90.5 58q-56.5 66 -56.5 193q0 121 46 183t135 62q47 0 75 -17.5t45 -56.5q20 39 51.5 56.5t81.5 17.5q71 0 112 -40t41 -109v-348h-134v334q0 28 -12.5 42.5t-35.5 14.5t-35 -14.5t-12 -42.5v-157h-115v157q0 28 -12 42.5t-34 14.5q-32 0 -46.5 -30.5t-14.5 -100.5
q0 -87 26 -125t85 -38q21 0 36 4l17 -96q-36 -12 -78 -12q-109 0 -165.5 66z" />
    <glyph glyph-name="uni0E54" unicode="&#xe54;" horiz-adv-x="573" 
d="M530 104v-104h-261q-115 0 -177 62.5t-62 177.5q0 120 68 183.5t196 63.5h34q37 0 53 15.5t16 50.5v51h130v-77q0 -146 -147 -146h-67q-71 0 -109 -36t-38 -104q0 -65 34.5 -101t97.5 -36h52q-25 17 -38.5 42.5t-13.5 56.5q0 52 38 82t105 30q28 0 79 -11l-22 -93
q-12 4 -28 4q-24 0 -37.5 -12.5t-13.5 -34.5q0 -31 20 -47.5t58 -16.5h33z" />
    <glyph glyph-name="uni0E55" unicode="&#xe55;" horiz-adv-x="573" 
d="M530 104v-104h-261q-115 0 -177 62.5t-62 177.5q0 156 115 207q-25 25 -25 64q0 46 32.5 74.5t84.5 28.5q53 0 85 -26.5t32 -69.5q0 -18 -4 -31h7q21 0 30.5 13t9.5 42v62h130v-77q0 -146 -147 -146h-67q-71 0 -109 -36t-38 -104q0 -65 34.5 -101t97.5 -36h52
q-25 17 -38.5 42.5t-13.5 56.5q0 52 38 82t105 30q28 0 79 -11l-22 -93q-12 4 -28 4q-24 0 -37.5 -12.5t-13.5 -34.5q0 -31 20 -47.5t58 -16.5h33zM208 541.5q-11 -11.5 -11 -30.5t11 -30.5t29 -11.5t29 11.5t11 30.5t-11 30.5t-29 11.5t-29 -11.5z" />
    <glyph glyph-name="uni0E56" unicode="&#xe56;" horiz-adv-x="580" 
d="M431.5 464.5q56.5 -31.5 87.5 -88.5t31 -132q0 -77 -32 -134.5t-90.5 -88.5t-136.5 -31q-109 0 -173 56t-64 152q0 18 5 43h199v-84h-71q4 -31 29.5 -47t67.5 -16q61 0 95.5 40t34.5 110q0 69 -37 107.5t-104 38.5q-80 0 -115 -61h-85l-49 275h127l25 -147q48 39 125 39
q74 0 130.5 -31.5z" />
    <glyph glyph-name="uni0E57" unicode="&#xe57;" horiz-adv-x="864" 
d="M90.5 58q-56.5 66 -56.5 196q0 119 45 180.5t131 61.5q45 0 72 -17.5t43 -56.5q19 39 48 56.5t75 17.5q71 0 112 -40t41 -109v-243q44 3 63 34t19 100v366h134v-360q0 -120 -55.5 -182t-162.5 -62h-132v333q0 57 -45 57q-44 0 -44 -57v-157h-107v157q0 28 -11.5 42.5
t-32.5 14.5q-30 0 -43.5 -30.5t-13.5 -97.5q0 -89 26 -127.5t85 -38.5q21 0 36 4l17 -96q-36 -12 -77 -12q-110 0 -166.5 66z" />
    <glyph glyph-name="uni0E58" unicode="&#xe58;" horiz-adv-x="609" 
d="M305 79l-42 -79h-18q-104 0 -159.5 60t-55.5 173q0 124 65 188.5t189 64.5h94q37 0 53 16t16 51v51h130v-77q0 -73 -37 -110t-110 -37h-127q-137 0 -137 -149q0 -53 17 -85t47 -34l42 72h66q0 -32 17 -52.5t43 -20.5q25 0 38 18t13 52q0 21 -2 29h-54v76h176q4 -13 7 -39
t3 -55q0 -101 -35 -150t-108 -49q-102 0 -131 86z" />
    <glyph glyph-name="uni0E59" unicode="&#xe59;" horiz-adv-x="588" 
d="M420.5 387q-15.5 -15 -15.5 -39q0 -17 11 -42l150 -306h-137l-165 342q-13 28 -23 38t-24 10q-24 0 -35.5 -32t-11.5 -99q0 -85 24.5 -124t77.5 -39q15 0 35 4l17 -96q-34 -12 -75 -12q-105 0 -160 66.5t-55 193.5q0 119 44.5 181.5t130.5 62.5q39 0 72.5 -14t55.5 -40
q4 19 18.5 30t40.5 18q33 7 43 21t10 51v42h125v-45q0 -53 -10 -83.5t-33 -46t-66 -22.5q-29 -5 -44.5 -20z" />
    <glyph glyph-name="uni0E5A" unicode="&#xe5a;" horiz-adv-x="797" 
d="M730 540v-540h-132v277q-48 -50 -118 -57v-220h-132v277q-27 -28 -64 -43.5t-81 -15.5q-85 0 -134 45t-49 123q0 77 50.5 120.5t140.5 43.5q29 0 51 -6l-12 -93q-5 1 -15 1q-38 0 -58.5 -17.5t-20.5 -50.5t24 -52t67 -19q29 0 55 12t46 35v180h132v-226l17 -1q29 0 55 12
t46 35v180h132z" />
    <glyph glyph-name="uni0E5B" unicode="&#xe5b;" horiz-adv-x="995" 
d="M152.5 62.5q-59.5 32.5 -92.5 91t-33 135.5q0 70 30.5 123.5t86.5 83t130 29.5q98 0 158 -51l-55 -88q-39 27 -86 27q-55 0 -89 -35t-34 -91q0 -65 38.5 -104t102.5 -39q82 0 127.5 70t67.5 230h122l61 -214l46 159h88q8 -68 34 -94t84 -26q12 0 24 2l12 -119
q-21 -5 -42 -5q-55 0 -91 30t-47 84l-49 -175h-126l-51 210q-20 -127 -92.5 -196.5t-187.5 -69.5q-77 0 -136.5 32.5z" />
    <glyph glyph-name="endash" unicode="&#x2013;" horiz-adv-x="582" 
d="M60 326h462v-110h-462v110z" />
    <glyph glyph-name="emdash" unicode="&#x2014;" horiz-adv-x="832" 
d="M60 326h712v-110h-712v110z" />
    <glyph glyph-name="quoteleft" unicode="&#x2018;" horiz-adv-x="305" 
d="M190 710h88l-88 -317h-138z" />
    <glyph glyph-name="quoteright" unicode="&#x2019;" horiz-adv-x="305" 
d="M115 710h138l-138 -317h-88z" />
    <glyph glyph-name="quotesinglbase" unicode="&#x201a;" horiz-adv-x="305" 
d="M115 138h138l-138 -317h-88z" />
    <glyph glyph-name="quotedblleft" unicode="&#x201c;" horiz-adv-x="510" 
d="M395 710h88l-88 -317h-138zM190 710h88l-88 -317h-138z" />
    <glyph glyph-name="quotedblright" unicode="&#x201d;" horiz-adv-x="510" 
d="M320 710h138l-138 -317h-88zM115 710h138l-138 -317h-88z" />
    <glyph glyph-name="quotedblbase" unicode="&#x201e;" horiz-adv-x="510" 
d="M320 138h138l-138 -317h-88zM115 138h138l-138 -317h-88z" />
    <glyph glyph-name="dagger" unicode="&#x2020;" horiz-adv-x="468" 
d="M176 427h-150v93h150v190h118v-190h148v-93h-148v-481h-118v481z" />
    <glyph glyph-name="daggerdbl" unicode="&#x2021;" horiz-adv-x="468" 
d="M176 136h-150v93h150v198h-150v93h150v190h118v-190h148v-93h-148v-198h148v-93h-148v-190h-118v190z" />
    <glyph glyph-name="bullet" unicode="&#x2022;" horiz-adv-x="400" 
d="M114 189q-34 34 -34 86t34 86t86 34t86 -34t34 -86t-34 -86t-86 -34t-86 34z" />
    <glyph glyph-name="ellipsis" unicode="&#x2026;" horiz-adv-x="786" 
d="M96 18q-23 23 -23 57q0 35 23 57.5t57 22.5q35 0 57.5 -22.5t22.5 -57.5q0 -34 -22.5 -57t-57.5 -23q-34 0 -57 23zM336 18q-23 23 -23 57q0 35 23 57.5t57 22.5q35 0 57.5 -22.5t22.5 -57.5q0 -34 -22.5 -57t-57.5 -23q-34 0 -57 23zM576 18q-23 23 -23 57q0 35 23 57.5
t57 22.5q35 0 57.5 -22.5t22.5 -57.5q0 -34 -22.5 -57t-57.5 -23q-34 0 -57 23z" />
    <glyph glyph-name="perthousand" unicode="&#x2030;" horiz-adv-x="1306" 
d="M87 390.5q-47 51.5 -47 139.5q0 87 47 138.5t126 51.5t126 -51.5t47 -138.5q0 -88 -47 -139.5t-126 -51.5t-126 51.5zM613 710h99l-420 -710h-99zM258 447q16 29 16 83q0 53 -16 82t-45 29t-45 -29t-16 -82q0 -54 16 -83t45 -29t45 29zM567 40.5q-47 51.5 -47 139.5
q0 87 47 138.5t126 51.5t126 -51.5t47 -138.5q0 -88 -47 -139.5t-126 -51.5t-126 51.5zM967 40.5q-47 51.5 -47 139.5q0 87 47 138.5t126 51.5t126 -51.5t47 -138.5q0 -88 -47 -139.5t-126 -51.5t-126 51.5zM738 97q16 29 16 83q0 53 -16 82t-45 29t-45 -29t-16 -82
q0 -54 16 -83t45 -29t45 29zM1138 97q16 29 16 83q0 53 -16 82t-45 29t-45 -29t-16 -82q0 -54 16 -83t45 -29t45 29z" />
    <glyph glyph-name="guilsinglleft" unicode="&#x2039;" horiz-adv-x="462" 
d="M80 266l170 180h132l-170 -180l170 -180h-132z" />
    <glyph glyph-name="guilsinglright" unicode="&#x203a;" horiz-adv-x="462" 
d="M250 266l-170 180h132l170 -180l-170 -180h-132z" />
    <glyph glyph-name="fraction" unicode="&#x2044;" horiz-adv-x="600" 
d="M452 755h87l-410 -755h-87z" />
    <glyph glyph-name="Euro" unicode="&#x20ac;" horiz-adv-x="646" 
d="M636 57q-38 -27 -91 -42t-113 -15q-127 0 -211 66t-110 184h-91v81h81q-1 9 -1 26q0 21 1 31h-81v81h92q27 115 109 178t206 63q60 0 113.5 -14.5t90.5 -40.5l-49 -103q-29 20 -68.5 32t-77.5 12q-62 0 -106 -33t-64 -94h294v-81h-309q-1 -10 -1 -30q0 -18 1 -27h309v-81
h-295q20 -65 66 -100.5t111 -35.5q72 0 145 45z" />
    <glyph glyph-name="trademark" unicode="&#x2122;" horiz-adv-x="653" 
d="M20 710h256v-60h-89v-224h-79v224h-88v60zM613 710v-284h-77v154l-50 -93h-40l-49 92v-153h-77v284h75l72 -128l71 128h75z" />
    <glyph glyph-name="partialdiff" unicode="&#x2202;" horiz-adv-x="601" 
d="M477 670.5q91 -104.5 91 -301.5q0 -128 -38.5 -213t-105 -125.5t-150.5 -40.5q-76 0 -130 31.5t-82.5 87.5t-28.5 130q0 76 29.5 134t83 90.5t124.5 32.5q100 0 155 -74q-4 231 -199 231q-67 0 -137 -31l-35 118q83 35 171 35q161 0 252 -104.5zM419 280q-13 51 -45 74.5
t-75 23.5q-57 0 -91.5 -38t-34.5 -103q0 -58 31 -92.5t83 -34.5q112 0 132 170z" />
    <glyph glyph-name="product" unicode="&#x220f;" horiz-adv-x="718" 
d="M130 568h-110v112h678v-112h-110v-638h-148v638h-162v-638h-148v638z" />
    <glyph glyph-name="summation" unicode="&#x2211;" horiz-adv-x="620" 
d="M590 45v-115h-540v96l242 278l-222 280v96h500v-115h-330l200 -249v-24l-218 -247h368z" />
    <glyph glyph-name="minus" unicode="&#x2212;" horiz-adv-x="640" 
d="M50 313h540v-102h-540v102z" />
    <glyph glyph-name="radical" unicode="&#x221a;" horiz-adv-x="544" 
d="M554 830l-216 -882h-91l-142 413l-85 -26l-16 63l182 56l108 -344l167 720h93z" />
    <glyph glyph-name="infinity" unicode="&#x221e;" horiz-adv-x="850" 
d="M103 181.5q-50 47.5 -50 125.5q0 79 50 125t133 46q64 0 109.5 -27.5t88.5 -76.5q44 49 86.5 76.5t100.5 27.5q77 0 126.5 -47t49.5 -125t-50 -125t-131 -47q-62 0 -105.5 28t-85.5 77q-44 -49 -89 -77t-104 -28q-79 0 -129 47.5zM307.5 250q30.5 19 62.5 54
q-31 38 -61.5 58.5t-69.5 20.5t-62 -20.5t-23 -55.5q0 -36 23 -56t62 -20q38 0 68.5 19zM673 251.5q23 20.5 23 55.5t-23 55.5t-60 20.5q-34 0 -63 -18.5t-61 -54.5q33 -39 61 -59t64 -20t59 20.5z" />
    <glyph glyph-name="integral" unicode="&#x222b;" horiz-adv-x="439" 
d="M-10 -168l28 94q36 -16 66 -16q36 0 52.5 20t16.5 70q0 107 -10 315q-10 206 -10 314q0 105 40.5 153t131.5 48q59 0 114 -24l-28 -94q-36 16 -66 16q-36 0 -52.5 -20t-16.5 -70q0 -108 10 -314q10 -208 10 -315q0 -105 -41.5 -153t-130.5 -48q-59 0 -114 24z" />
    <glyph glyph-name="approxequal" unicode="&#x2248;" horiz-adv-x="640" 
d="M198 453q35 0 63.5 -7.5t70.5 -22.5q35 -13 55 -18.5t43 -5.5q29 0 42 12.5t16 41.5h84q-3 -73 -32.5 -108t-96.5 -35q-38 0 -67 7.5t-68 22.5q-31 12 -50.5 17.5t-41.5 5.5q-31 0 -46 -13.5t-18 -41.5h-84q5 145 130 145zM198 233q35 0 63.5 -7.5t70.5 -22.5
q35 -13 55.5 -18.5t42.5 -5.5q29 0 42 12.5t16 41.5h84q-3 -73 -32.5 -108t-96.5 -35q-38 0 -67 7.5t-68 22.5q-31 12 -50.5 17.5t-41.5 5.5q-31 0 -46 -13.5t-18 -41.5h-84q5 145 130 145z" />
    <glyph glyph-name="notequal" unicode="&#x2260;" horiz-adv-x="640" 
d="M404 312l-50 -104h236v-102h-286l-52 -106h-100l52 106h-154v102h204l50 104h-254v102h304l52 106h100l-52 -106h136v-102h-186z" />
    <glyph glyph-name="lessequal" unicode="&#x2264;" horiz-adv-x="640" 
d="M590 465l-389 -112l389 -104v-108l-540 160v102l540 170v-108zM50 102h540v-102h-540v102z" />
    <glyph glyph-name="greaterequal" unicode="&#x2265;" horiz-adv-x="640" 
d="M590 403v-102l-540 -160v108l389 104l-389 112v108zM50 102h540v-102h-540v102z" />
    <glyph glyph-name="lozenge" unicode="&#x25ca;" horiz-adv-x="582" 
d="M20 354l202 374h138l202 -374l-202 -373h-138zM433 354l-142 274l-142 -274l142 -273z" />
    <glyph glyph-name="yoYingthai.less" horiz-adv-x="953" 
d="M886 540v-348q0 -94 -63 -148t-173 -54q-111 0 -172.5 53t-61.5 149v138q0 54 -33 84t-92 30q-49 0 -79.5 -23t-34.5 -62h125v-82h-67q-20 -20 -32 -49.5t-12 -60.5q0 -38 16 -57.5t47 -19.5q21 0 46 9l25 -85q-42 -22 -106 -22q-76 0 -120 37t-44 102q0 41 23.5 79
t66.5 67h-100v38q0 116 66 175.5t193 59.5q121 0 184.5 -55t63.5 -159v-135q0 -51 25 -78t72 -27q46 0 73.5 28.5t27.5 76.5v339h136z" />
    <glyph glyph-name="doChadathai.short" horiz-adv-x="654" 
d="M521 491q69 -59 69 -171v-425l-92 -58q-16 -11 -31 -11q-11 0 -21 5t-29 19q-34 24 -60 34.5t-52 10.5q-63 0 -63 -62v-4h-136v13q0 71 46 113t124 42q48 0 97 -16.5t81 -42.5v389q0 57 -35.5 86.5t-103.5 29.5q-58 0 -91 -22t-37 -62h128v-82h-59q-8 -14 -11 -36.5
t-3 -64.5v-65q0 -109 -114 -109q-55 0 -98 19l22 84q12 -5 28 -5q26 0 26 26v35q0 75 49 116h-95v35q0 116 67 177t195 61q130 0 199 -59z" />
    <glyph glyph-name="toPatakthai.short" horiz-adv-x="654" 
d="M521 491q69 -59 69 -171v-384l-159 -93q-17 -9 -25 -12t-16 -3q-10 0 -20 4t-27 14q-40 24 -54.5 31t-22.5 7q-7 0 -16 -4.5t-38 -21.5q-28 -19 -43.5 -24t-48.5 -5h-29v110h20q24 0 39.5 3.5t38.5 14.5q40 21 56 28t26 7q11 0 22.5 -5.5t37.5 -22.5q24 -16 32.5 -20
t16.5 -4t15.5 3.5t26.5 15.5l32 20v348q0 57 -35.5 86.5t-103.5 29.5q-58 0 -91 -22t-37 -62h128v-82h-59q-8 -14 -11 -36.5t-3 -64.5v-65q0 -109 -114 -109q-55 0 -98 19l22 84q12 -5 28 -5q26 0 26 26v35q0 75 49 116h-95v35q0 116 67 177t195 61q130 0 199 -59z" />
    <glyph glyph-name="thoThanthai.less" horiz-adv-x="600" 
d="M530 469q-27 0 -51 -3q56 -67 56 -179q0 -90 -33 -156.5t-95 -102.5t-146 -36q-36 0 -77 9l-59 218h-71v84h178l56 -208q51 10 81 58.5t30 122.5q0 82 -40 125t-116 43q-87 0 -166 -55l-49 96q92 65 226 65q102 0 166 -36q26 29 62 42.5t86 13.5h12v-104q-22 3 -50 3z
" />
    <glyph glyph-name="uni0E24.short" horiz-adv-x="633" 
d="M502 491q67 -59 67 -171v-491h-136v498q0 57 -34.5 86.5t-101.5 29.5q-56 0 -88 -21.5t-36 -62.5h125v-82h-63q-20 -20 -32 -49.5t-12 -60.5q0 -38 16 -57.5t47 -19.5q21 0 46 9l25 -85q-42 -22 -106 -22q-76 0 -120 37t-44 102q0 41 23.5 79t66.5 67h-100v35
q0 116 67.5 177t195.5 61q127 0 194 -59z" />
    <glyph glyph-name="uni0E26.short" horiz-adv-x="654" 
d="M521 491q69 -59 69 -171v-491h-136v498q0 57 -35.5 86.5t-103.5 29.5q-58 0 -91 -22t-37 -62h128v-82h-59q-8 -14 -11 -36.5t-3 -64.5v-75q0 -109 -114 -109q-55 0 -98 19l22 84q12 -5 28 -5q26 0 26 26v45q0 75 49 116h-95v35q0 116 67 177t195 61q130 0 199 -59z" />
    <glyph glyph-name="loChulathai.short" horiz-adv-x="766" 
d="M696.5 514q-25.5 -28 -81.5 -39q35 -17 54 -49.5t19 -78.5q0 -23 -4 -43l-50 -304h-156l-100 251l-90 -251h-166l-62 540h132l42 -377l84 217h122l92 -217l29 163q4 21 4 42q0 38 -19 56t-60 18h-119v92h117q44 0 68 6t37 20.5t21 43.5h127q-15 -62 -40.5 -90z" />
    <glyph glyph-name="zero.tf" horiz-adv-x="640" 
d="M110 83.5q-72 93.5 -72 271.5t72 271.5t209 93.5q138 0 210.5 -93.5t72.5 -271.5t-72.5 -271.5t-210.5 -93.5q-137 0 -209 93.5zM418 168.5q34 64.5 34 186.5t-34 186.5t-99 64.5q-64 0 -97.5 -64.5t-33.5 -186.5t33.5 -186.5t97.5 -64.5q65 0 99 64.5z" />
    <glyph glyph-name="one.tf" horiz-adv-x="640" 
d="M464 710v-710h-148v557l-115 -78l-64 91l209 140h118z" />
    <glyph glyph-name="two.tf" horiz-adv-x="640" 
d="M575 113v-112h-508v112l236 216q56 51 78 86.5t22 76.5q0 53 -31 83.5t-84 30.5q-71 0 -171 -60l-52 105q63 35 121.5 52t119.5 17q118 0 184 -60.5t66 -168.5q0 -63 -26.5 -113t-89.5 -108l-173 -157h308z" />
    <glyph glyph-name="three.tf" horiz-adv-x="640" 
d="M535 302.5q34 -44.5 34 -108.5q0 -61 -32.5 -107t-92.5 -71.5t-139 -25.5q-122 0 -250 64l47 107q48 -27 97 -42t90 -15q58 0 92.5 28t34.5 74q0 50 -42.5 76t-125.5 26h-58v100h55q74 0 112.5 26.5t38.5 77.5q0 45 -28.5 69.5t-81.5 24.5q-78 0 -167 -59l-53 104
q122 69 241 69q73 0 127.5 -24t84.5 -68.5t30 -103.5q0 -56 -27.5 -97t-80.5 -64q60 -16 94 -60.5z" />
    <glyph glyph-name="four.tf" horiz-adv-x="640" 
d="M593 248v-107h-84v-141h-143v141h-319v94l312 475h150v-462h84zM366 248v290l-186 -290h186z" />
    <glyph glyph-name="five.tf" horiz-adv-x="640" 
d="M518.5 400q62.5 -62 62.5 -168q0 -73 -33 -128t-94.5 -84.5t-143.5 -29.5q-62 0 -126.5 17.5t-124.5 50.5l47 105q56 -31 100 -45t83 -14q65 0 103.5 34.5t38.5 93.5q0 55 -34 88t-92 33q-33 0 -61.5 -12.5t-44.5 -33.5l-93 23v380h418v-112h-281v-158q45 22 107 22
q106 0 168.5 -62z" />
    <glyph glyph-name="six.tf" horiz-adv-x="640" 
d="M524 398.5q63 -61.5 63 -166.5q0 -73 -32 -128t-91 -84.5t-138 -29.5q-134 0 -203 88t-69 259q0 190 83 286.5t246 96.5q90 0 170 -33l-39 -109q-68 28 -130 28q-85 0 -131.5 -54t-51.5 -159q58 67 153 67q107 0 170 -61.5zM415 136q32 34 32 91t-32.5 90.5t-88.5 33.5
q-46 0 -78 -23.5t-46 -67.5q14 -158 127 -158q54 0 86 34z" />
    <glyph glyph-name="seven.tf" horiz-adv-x="640" 
d="M559 710v-103l-260 -607h-152l265 596h-330v114h477z" />
    <glyph glyph-name="eight.tf" horiz-adv-x="640" 
d="M560.5 312.5q32.5 -43.5 32.5 -107.5q0 -100 -72 -157.5t-198 -57.5q-82 0 -144 24.5t-96.5 69.5t-34.5 104q0 57 33 101t92 67q-105 61 -105 164q0 59 32 104.5t89.5 70.5t132.5 25q70 0 124 -23t84 -64t30 -95q0 -50 -27 -88.5t-78 -62.5q73 -31 105.5 -74.5zM247 588
q-27 -22 -27 -60q0 -27 13.5 -45t45.5 -33.5t93 -33.5q51 45 51 103q0 43 -27.5 67t-75.5 24q-46 0 -73 -22zM411.5 126q31.5 26 31.5 71q0 26 -11 42.5t-38 30t-81 28.5q-35 10 -63 21q-52 -40 -52 -105q0 -53 34.5 -83.5t93.5 -30.5q54 0 85.5 26z" />
    <glyph glyph-name="nine.tf" horiz-adv-x="640" 
d="M582 365q0 -189 -74 -282t-225 -93q-95 0 -180 33l35 109q68 -28 130 -28q81 0 121.5 52t45.5 161q-58 -67 -153 -67q-107 0 -170 61.5t-63 167.5q0 73 31 127.5t88 84t133 29.5q281 0 281 -355zM388 382.5q32 23.5 46 67.5q-14 158 -127 158q-54 0 -86 -34t-32 -91
t32.5 -90.5t88.5 -33.5q46 0 78 23.5z" />
    <glyph glyph-name="uni0E31.narrow" 
d="M-553 658q-33 33 -33 107v27h126v-29q0 -21 12 -30.5t38 -9.5h161v-98h-197q-74 0 -107 33z" />
    <glyph glyph-name="uni0E48.small" 
d="M-193 1033h124v-168h-124v168z" />
    <glyph glyph-name="uni0E48.narrow" 
d="M-411 831h128v-206h-128v206z" />
    <glyph glyph-name="uni0E49.small" 
d="M-278 932q21 2 37 5q32 7 32 33q0 14 -8.5 20.5t-27.5 6.5q-15 0 -26 -4l-13 71q51 14 95 14q43 0 67.5 -20t24.5 -55q0 -18 -6 -34.5t-16 -25.5h164v-78h-323v67z" />
    <glyph glyph-name="uni0E49.narrow" 
d="M-544 701q23 1 41 5q36 8 36 38q0 33 -39 33q-19 0 -36 -7l-9 77q53 18 106 18q49 0 76 -22t27 -62q0 -20 -6.5 -38t-18.5 -30h108v-88h-285v76z" />
    <glyph glyph-name="uni0E4A.small" 
d="M-311.5 885q-27.5 24 -27.5 73q0 51 27.5 79t80.5 29l62 -22l58 22q55 -3 79.5 -26t24.5 -72v-24h87v-79h-183v85q0 34 -22 37l-43 -15l-43 15q-28 -2 -28 -34q0 -16 9 -24.5t25 -8.5q13 0 18 1l7 -55q-28 -5 -48 -5q-56 0 -83.5 24z" />
    <glyph glyph-name="uni0E4A.narrow" 
d="M-605.5 649q-31.5 29 -31.5 80q0 55 31 87.5t85 34.5l61 -35l56 35q59 -4 86.5 -30.5t27.5 -79.5v-31h51v-85h-156v95q0 39 -25 42l-39 -21l-40 21q-15 -1 -23 -11t-8 -27q0 -18 10 -28t28 -10q8 0 20 2l7 -63q-30 -5 -53 -5q-56 0 -87.5 29z" />
    <glyph glyph-name="uni0E4B.small" 
d="M2 924h-79v-59h-108v59h-79v88h79v59h108v-59h79v-88z" />
    <glyph glyph-name="uni0E4C.small" 
d="M-288 899q0 70 31 101t101 31h129v-92h-81q-30 0 -43 -13.5t-13 -43.5v-17h-124v34z" />
    <glyph glyph-name="uni0E4C.narrow" 
d="M-494 661q0 74 33 107t107 33h107v-98h-61q-32 0 -46 -14t-14 -46v-18h-126v36z" />
    <glyph glyph-name="uni0E47.narrow" 
d="M-584.5 661.5q-38.5 36.5 -38.5 101.5q0 64 38 100.5t105 36.5h252v-92h-250q-21 0 -33 -13t-12 -36q0 -44 46 -44l46 53h42q5 -27 17 -41.5t31 -14.5q22 0 53 12l20 -85q-39 -18 -72 -18q-30 0 -51 14t-26 37l-43 -47h-18q-68 0 -106.5 36.5z" />
    <glyph glyph-name="uni0E34.narrow" 
d="M-676 723h397v-98h-397v98z" />
    <glyph glyph-name="uni0E35.narrow" 
d="M-279 811v-186h-397v98h269v88h128z" />
    <glyph glyph-name="uni0E36.narrow" 
d="M-288 791.5q29 -28.5 29 -75.5q0 -46 -29 -75t-75 -29q-29 0 -53 13h-260v98h209q2 43 31 70t73 27q46 0 75 -28.5zM-333 684.5q12 12.5 12 31.5t-12 31.5t-30 12.5q-19 0 -30.5 -12t-11.5 -32t11.5 -32t30.5 -12q18 0 30 12.5z" />
    <glyph glyph-name="uni0E37.narrow" 
d="M-279 803v-178h-397v98h175v80h82v-80h48v80h92z" />
    <glyph glyph-name="uni0E4D0E48" 
d="M-244 638q-34 30 -34 78t34 78t89 30t89 -30t34 -78t-34 -78t-89 -30t-89 30zM-124.5 684q11.5 12 11.5 32t-11.5 32t-30.5 12t-30.5 -12t-11.5 -32t11.5 -32t30.5 -12t30.5 12zM-217 1033h124v-168h-124v168z" />
    <glyph glyph-name="uni0E4D0E49" 
d="M-244 638q-34 30 -34 78t34 78t89 30t89 -30t34 -78t-34 -78t-89 -30t-89 30zM-124.5 684q11.5 12 11.5 32t-11.5 32t-30.5 12t-30.5 -12t-11.5 -32t11.5 -32t30.5 -12t30.5 12zM-302 932q21 2 37 5q32 7 32 33q0 14 -8.5 20.5t-27.5 6.5q-15 0 -26 -4l-13 71
q51 14 95 14q43 0 67.5 -20t24.5 -55q0 -18 -6 -34.5t-16 -25.5h164v-78h-323v67z" />
    <glyph glyph-name="uni0E4D0E4A" 
d="M-244 638q-34 30 -34 78t34 78t89 30t89 -30t34 -78t-34 -78t-89 -30t-89 30zM-124.5 684q11.5 12 11.5 32t-11.5 32t-30.5 12t-30.5 -12t-11.5 -32t11.5 -32t30.5 -12t30.5 12zM-325.5 885q-27.5 24 -27.5 73q0 51 27.5 79t80.5 29l62 -22l58 22q55 -3 79.5 -26
t24.5 -72v-24h87v-79h-183v85q0 34 -22 37l-43 -15l-43 15q-28 -2 -28 -34q0 -16 9 -24.5t25 -8.5q13 0 18 1l7 -55q-28 -5 -48 -5q-56 0 -83.5 24z" />
    <glyph glyph-name="uni0E4D0E4B" 
d="M-244 638q-34 30 -34 78t34 78t89 30t89 -30t34 -78t-34 -78t-89 -30t-89 30zM-124.5 684q11.5 12 11.5 32t-11.5 32t-30.5 12t-30.5 -12t-11.5 -32t11.5 -32t30.5 -12t30.5 12zM-22 924h-79v-59h-108v59h-79v88h79v59h108v-59h79v-88z" />
    <glyph glyph-name="uni0E3A.small" 
d="M-197 -362.5q-23 22.5 -23 58.5t23 59t59 23t58.5 -23t22.5 -59t-22.5 -58.5t-58.5 -22.5t-59 22.5z" />
    <glyph glyph-name="uni0E38.small" 
d="M-186 -316h-65v85h184v-206h-119v121z" />
    <glyph glyph-name="uni0E39.small" 
d="M-367 -337v21h-45v85h156v-84q0 -39 38 -39q36 0 36 39v84h115v-86q0 -113 -152 -113q-148 0 -148 93z" />
    <glyph glyph-name="uni0E4B.narrow" 
d="M-239 689h-78v-64h-120v64h-78v88h78v64h120v-64h78v-88z" />
    <glyph glyph-name="uni0E4D.narrow" 
d="M-471 638q-34 30 -34 78t34 78t89 30t89 -30t34 -78t-34 -78t-89 -30t-89 30zM-351.5 684q11.5 12 11.5 32t-11.5 32t-30.5 12t-30.5 -12t-11.5 -32t11.5 -32t30.5 -12t30.5 12z" />
    <glyph glyph-name="uni0E4D0E48.narrow" 
d="M-471 638q-34 30 -34 78t34 78t89 30t89 -30t34 -78t-34 -78t-89 -30t-89 30zM-351.5 684q11.5 12 11.5 32t-11.5 32t-30.5 12t-30.5 -12t-11.5 -32t11.5 -32t30.5 -12t30.5 12zM-445 1033h124v-168h-124v168z" />
    <glyph glyph-name="uni0E4D0E49.narrow" 
d="M-471 638q-34 30 -34 78t34 78t89 30t89 -30t34 -78t-34 -78t-89 -30t-89 30zM-351.5 684q11.5 12 11.5 32t-11.5 32t-30.5 12t-30.5 -12t-11.5 -32t11.5 -32t30.5 -12t30.5 12zM-530 932q21 2 37 5q32 7 32 33q0 14 -8.5 20.5t-27.5 6.5q-15 0 -26 -4l-13 71
q51 14 95 14q43 0 67.5 -20t24.5 -55q0 -18 -6 -34.5t-16 -25.5h164v-78h-323v67z" />
    <glyph glyph-name="uni0E4D0E4A.narrow" 
d="M-471 638q-34 30 -34 78t34 78t89 30t89 -30t34 -78t-34 -78t-89 -30t-89 30zM-351.5 684q11.5 12 11.5 32t-11.5 32t-30.5 12t-30.5 -12t-11.5 -32t11.5 -32t30.5 -12t30.5 12zM-546.5 885q-27.5 24 -27.5 73q0 51 27.5 79t80.5 29l62 -22l58 22q55 -3 79.5 -26
t24.5 -72v-24h87v-79h-183v85q0 34 -22 37l-43 -15l-43 15q-28 -2 -28 -34q0 -16 9 -24.5t25 -8.5q13 0 18 1l7 -55q-28 -5 -48 -5q-56 0 -83.5 24z" />
    <glyph glyph-name="uni0E4D0E4B.narrow" 
d="M-471 638q-34 30 -34 78t34 78t89 30t89 -30t34 -78t-34 -78t-89 -30t-89 30zM-351.5 684q11.5 12 11.5 32t-11.5 32t-30.5 12t-30.5 -12t-11.5 -32t11.5 -32t30.5 -12t30.5 12zM-250 924h-79v-59h-108v59h-79v88h79v59h108v-59h79v-88z" />
    <glyph glyph-name="uni0E47.small" 
d="M-331 894q-30 30 -30 83t31.5 83t86.5 30h207v-75h-205q-17 0 -27 -11t-10 -29q0 -37 46 -37l35 44h37q3 -22 17 -34t36 -12q23 0 46 10l17 -70q-31 -15 -61 -15q-55 0 -78 50l-35 -47h-31q-52 0 -82 30z" />
    </font>
</defs>
</svg>
