<?xml version="1.0" standalone="no"?>
<!DOCTYPE svg PUBLIC "-//W3C//DTD SVG 1.1//EN" "http://www.w3.org/Graphics/SVG/1.1/DTD/svg11.dtd" >
<svg>
<metadata>
Created by FontForge 20120731 at Fri Sep 20 07:44:22 2019
 By www-data
Copyright (c) 2015, Cadson Demak (info@cadsondemak.com)
</metadata>
<defs>
<font id="Kanit-ExtraLight" horiz-adv-x="0" >
  <font-face 
    font-family="Kanit ExtraLight"
    font-weight="275"
    font-stretch="normal"
    units-per-em="1000"
    panose-1="0 0 3 0 0 0 0 0 0 0"
    ascent="750"
    descent="-250"
    x-height="474"
    cap-height="644"
    bbox="-555 -337 1110 1008"
    underline-thickness="50"
    underline-position="-50"
    unicode-range="U+000D-FB02"
  />
<missing-glyph horiz-adv-x="509" 
d="M49 714h411v-714h-411v714zM409 51v612h-309v-612h309z" />
    <glyph glyph-name="fi" unicode="fi" horiz-adv-x="494" 
d="M108 428h-73v46h73v69q0 70 45 111t119 41q67 0 102 -16v-44q-14 7 -38 10.5t-50 3.5q-62 0 -92.5 -26t-30.5 -79v-70h256v-474h-55v428h-201v-428h-55v428z" />
    <glyph glyph-name="fl" unicode="fl" horiz-adv-x="494" 
d="M108 428h-73v46h73v69q0 70 45 111t119 41q60 0 104 -16h43v-679h-55v428h-201v-428h-55v428zM364 474v161q-33 14 -78 14q-62 0 -92.5 -26t-30.5 -79v-70h201z" />
    <glyph glyph-name="ru_lakkhangyaothai" unicode="&#xe24;&#xe45;" horiz-adv-x="852" 
d="M479 356q0 80 -41 113t-131 33q-61 0 -114.5 -18.5t-81.5 -48.5v-28l120 -26v-48q-80 -19 -80 -93v-139q0 -28 13 -41.5t39 -13.5h59v-46h-80q-41 0 -63.5 24.5t-22.5 66.5v152q0 40 21 68.5t62 40.5l-118 26v80q39 39 103 65.5t144 26.5q82 0 134 -26q30 12 69.5 19
t78.5 7q98 0 142.5 -44t44.5 -144v-522h-55v517q0 53 -11 83.5t-41.5 46t-89.5 15.5q-43 0 -92 -11q46 -49 46 -138v-513h-55v516z" />
    <glyph glyph-name="lu_lakkhangyaothai" unicode="&#xe26;&#xe45;" horiz-adv-x="891" 
d="M515 356q0 80 -41 113t-131 33q-61 0 -114.5 -18.5t-81.5 -48.5v-28l123 -26v-48q-37 -10 -51.5 -30.5t-14.5 -62.5v-142q0 -47 -23 -72.5t-66 -25.5h-57v46h43q25 0 36.5 13t11.5 41v143q0 42 15.5 69.5t53.5 39.5l-121 26v80q39 39 103 65.5t144 26.5q84 0 137 -27v1
q30 12 69.5 19t78.5 7q98 0 142.5 -44t44.5 -144v-522h-55v517q0 53 -11 83.5t-41.5 46t-89.5 15.5q-47 0 -95 -12q46 -49 46 -137v-513h-55v516z" />
    <glyph glyph-name=".notdef" horiz-adv-x="509" 
d="M49 714h411v-714h-411v714zM409 51v612h-309v-612h309z" />
    <glyph glyph-name=".null" horiz-adv-x="500" 
 />
    <glyph glyph-name="nonmarkingreturn" unicode="&#xd;" horiz-adv-x="400" 
 />
    <glyph glyph-name="space" unicode=" " horiz-adv-x="390" 
 />
    <glyph glyph-name="A" unicode="A" horiz-adv-x="667" 
d="M299 644h70l243 -644h-56l-71 188h-302l-71 -188h-57zM472 233l-139 367l-138 -367h277z" />
    <glyph glyph-name="Aacute" unicode="&#xc1;" horiz-adv-x="667" 
d="M367 846h52l-74 -158h-45zM299 644h70l243 -644h-56l-71 188h-302l-71 -188h-57zM472 233l-139 367l-138 -367h277z" />
    <glyph glyph-name="Abreve" unicode="&#x102;" horiz-adv-x="667" 
d="M252.5 718q-30.5 31 -30.5 80h42q0 -34 19 -53t50 -19q32 0 51 19t19 53h42q0 -49 -30.5 -80t-81.5 -31q-50 0 -80.5 31zM299 644h70l243 -644h-56l-71 188h-302l-71 -188h-57zM472 233l-139 367l-138 -367h277z" />
    <glyph glyph-name="uni1EAE" unicode="&#x1eae;" horiz-adv-x="667" 
d="M362 903h47l-66 -117h-41zM234 720q-39 32 -39 100h39q0 -48 27 -72t73 -24t73 24t27 72h38q0 -68 -39 -100t-99 -32q-61 0 -100 32zM299 644h70l243 -644h-56l-71 188h-302l-71 -188h-57zM472 233l-139 367l-138 -367h277z" />
    <glyph glyph-name="uni1EB6" unicode="&#x1eb6;" horiz-adv-x="667" 
d="M252.5 718q-30.5 31 -30.5 80h42q0 -34 19 -53t50 -19q32 0 51 19t19 53h42q0 -49 -30.5 -80t-81.5 -31q-50 0 -80.5 31zM299 644h70l243 -644h-56l-71 188h-302l-71 -188h-57zM472 233l-139 367l-138 -367h277zM304 -95h59v-57h-59v57z" />
    <glyph glyph-name="uni1EB0" unicode="&#x1eb0;" horiz-adv-x="667" 
d="M259 903h47l59 -117h-40zM234 720q-39 32 -39 100h39q0 -48 27 -72t73 -24t73 24t27 72h38q0 -68 -39 -100t-99 -32q-61 0 -100 32zM299 644h70l243 -644h-56l-71 188h-302l-71 -188h-57zM472 233l-139 367l-138 -367h277z" />
    <glyph glyph-name="uni1EB2" unicode="&#x1eb2;" horiz-adv-x="667" 
d="M299 833q49 2 66 13t17 34q0 42 -54 42q-30 0 -59 -13v33q31 12 67 12q41 0 64 -18.5t23 -52.5q0 -32 -18.5 -49t-61.5 -23v-35h-44v57zM234 720q-39 32 -39 100h39q0 -48 27 -72t73 -24t73 24t27 72h38q0 -68 -39 -100t-99 -32q-61 0 -100 32zM299 644h70l243 -644h-56
l-71 188h-302l-71 -188h-57zM472 233l-139 367l-138 -367h277z" />
    <glyph glyph-name="uni1EB4" unicode="&#x1eb4;" horiz-adv-x="667" 
d="M363.5 852.5q-14.5 4.5 -35.5 13.5q-18 8 -30 12t-24 4q-23 0 -41 -7t-34 -25v43q12 13 32 20t41 7q17 0 32 -4.5t33 -13.5q18 -8 30.5 -12t26.5 -4q23 0 40.5 7.5t31.5 25.5v-44q-10 -13 -29 -20t-42 -7q-17 0 -31.5 4.5zM233 720q-39 32 -39 100h39q0 -48 27 -72
t73 -24t73 24t27 72h38q0 -68 -39 -100t-99 -32q-61 0 -100 32zM299 644h70l243 -644h-56l-71 188h-302l-71 -188h-57zM472 233l-139 367l-138 -367h277z" />
    <glyph glyph-name="uni01CD" unicode="&#x1cd;" horiz-adv-x="667" 
d="M204 823h50l79 -103l79 103h50l-105 -135h-48zM299 644h70l243 -644h-56l-71 188h-302l-71 -188h-57zM472 233l-139 367l-138 -367h277z" />
    <glyph glyph-name="Acircumflex" unicode="&#xc2;" horiz-adv-x="667" 
d="M309 822h48l105 -135h-50l-79 103l-79 -103h-50zM299 644h70l243 -644h-56l-71 188h-302l-71 -188h-57zM472 233l-139 367l-138 -367h277z" />
    <glyph glyph-name="uni1EA4" unicode="&#x1ea4;" horiz-adv-x="667" 
d="M459 910h47l-66 -117h-41zM306 797h48l103 -110h-49l-78 85l-78 -85h-49zM299 644h70l243 -644h-56l-71 188h-302l-71 -188h-57zM472 233l-139 367l-138 -367h277z" />
    <glyph glyph-name="uni1EAC" unicode="&#x1eac;" horiz-adv-x="667" 
d="M309 822h48l105 -135h-50l-79 103l-79 -103h-50zM299 644h70l243 -644h-56l-71 188h-302l-71 -188h-57zM472 233l-139 367l-138 -367h277zM304 -95h59v-57h-59v57z" />
    <glyph glyph-name="uni1EA6" unicode="&#x1ea6;" horiz-adv-x="667" 
d="M159 910h47l59 -117h-40zM311 797h48l103 -110h-50l-77 85l-78 -85h-49zM299 644h70l243 -644h-56l-71 188h-302l-71 -188h-57zM472 233l-139 367l-138 -367h277z" />
    <glyph glyph-name="uni1EA8" unicode="&#x1ea8;" horiz-adv-x="667" 
d="M410 831q50 3 66.5 13.5t16.5 32.5q0 41 -53 41q-31 0 -59 -13v34q29 12 66 12q41 0 64.5 -19t23.5 -53q0 -32 -19 -49.5t-61 -21.5v-36h-45v59zM309 797h48l103 -110h-49l-78 85l-77 -85h-50zM299 644h70l243 -644h-56l-71 188h-302l-71 -188h-57zM472 233l-139 367
l-138 -367h277z" />
    <glyph glyph-name="uni1EAA" unicode="&#x1eaa;" horiz-adv-x="667" 
d="M364.5 809.5q-14.5 4.5 -35.5 13.5q-34 15 -54 15q-23 0 -41 -7t-34 -25v44q12 12 32 19t41 7q17 0 30.5 -4t34.5 -13q18 -8 30.5 -12t26.5 -4q23 0 40.5 7.5t31.5 24.5v-44q-11 -12 -30 -19t-41 -7q-17 0 -31.5 4.5zM307 797h48l103 -110h-49l-78 85l-77 -85h-50z
M299 644h70l243 -644h-56l-71 188h-302l-71 -188h-57zM472 233l-139 367l-138 -367h277z" />
    <glyph glyph-name="Adieresis" unicode="&#xc4;" horiz-adv-x="667" 
d="M222 768h57v-55h-57v55zM389 768h56v-55h-56v55zM299 644h70l243 -644h-56l-71 188h-302l-71 -188h-57zM472 233l-139 367l-138 -367h277z" />
    <glyph glyph-name="uni1EA0" unicode="&#x1ea0;" horiz-adv-x="667" 
d="M299 644h70l243 -644h-56l-71 188h-302l-71 -188h-57zM472 233l-139 367l-138 -367h277zM304 -95h59v-57h-59v57z" />
    <glyph glyph-name="Agrave" unicode="&#xc0;" horiz-adv-x="667" 
d="M230 846h52l67 -158h-45zM299 644h70l243 -644h-56l-71 188h-302l-71 -188h-57zM472 233l-139 367l-138 -367h277z" />
    <glyph glyph-name="uni1EA2" unicode="&#x1ea2;" horiz-adv-x="667" 
d="M309 767q39 2 59.5 8.5t27.5 18.5t7 32q0 27 -20 40t-63 13q-16 0 -35 -3.5t-32 -8.5v38q13 5 35.5 8.5t41.5 3.5q57 0 86.5 -23t29.5 -65q0 -41 -20.5 -62.5t-69.5 -26.5v-52h-47v79zM299 644h70l243 -644h-56l-71 188h-302l-71 -188h-57zM472 233l-139 367l-138 -367
h277z" />
    <glyph glyph-name="Amacron" unicode="&#x100;" horiz-adv-x="667" 
d="M195 757h277v-42h-277v42zM299 644h70l243 -644h-56l-71 188h-302l-71 -188h-57zM472 233l-139 367l-138 -367h277z" />
    <glyph glyph-name="Aogonek" unicode="&#x104;" horiz-adv-x="667" 
d="M506 -199.5q-25 20.5 -25 65.5q0 39 21 75t54 59l-71 188h-302l-71 -188h-57l244 644h70l243 -644q-84 -45 -84 -128q0 -27 12.5 -39t40.5 -12q13 0 27 3t23 8v-41q-21 -11 -59 -11q-41 0 -66 20.5zM472 233l-139 367l-138 -367h277z" />
    <glyph glyph-name="Aring" unicode="&#xc5;" horiz-adv-x="667" 
d="M292 626q-28 11 -44.5 36.5t-16.5 56.5q0 43 29 72.5t73 29.5q45 0 74 -29.5t29 -72.5q0 -31 -16.5 -56t-44.5 -37l237 -626h-56l-71 188h-302l-71 -188h-57zM380.5 672.5q18.5 18.5 18.5 46.5q0 29 -18.5 47.5t-47.5 18.5q-28 0 -47 -18.5t-19 -47.5q0 -28 19 -46.5
t47 -18.5q29 0 47.5 18.5zM472 233l-139 367l-138 -367h277z" />
    <glyph glyph-name="Aringacute" unicode="&#x1fa;" horiz-adv-x="667" 
d="M367 994h52l-75 -143h-44zM292 626q-28 11 -44.5 36.5t-16.5 56.5q0 43 29 72.5t73 29.5q45 0 74 -29.5t29 -72.5q0 -31 -16.5 -56t-44.5 -37l237 -626h-56l-71 188h-302l-71 -188h-57zM380.5 672.5q18.5 18.5 18.5 46.5q0 29 -18.5 47.5t-47.5 18.5q-28 0 -47 -18.5
t-19 -47.5q0 -28 19 -46.5t47 -18.5q29 0 47.5 18.5zM472 233l-139 367l-138 -367h277z" />
    <glyph glyph-name="Atilde" unicode="&#xc3;" horiz-adv-x="667" 
d="M370 715q-17 5 -39 15q-40 17 -60 17q-50 0 -79 -35v47q12 13 33.5 21t44.5 8q18 0 32.5 -4.5t37.5 -14.5q20 -9 33.5 -13.5t28.5 -4.5q24 0 42 8.5t31 26.5v-47q-10 -14 -28.5 -21.5t-42.5 -7.5q-17 0 -34 5zM299 644h70l243 -644h-56l-71 188h-302l-71 -188h-57z
M472 233l-139 367l-138 -367h277z" />
    <glyph glyph-name="AE" unicode="&#xc6;" horiz-adv-x="832" 
d="M299 644h478v-46h-312v-254h277v-45h-277v-255h312v-44h-367v189h-225l-72 -189h-58zM410 233v365h-70l-138 -365h208z" />
    <glyph glyph-name="AEacute" unicode="&#x1fc;" horiz-adv-x="832" 
d="M504 846h52l-74 -158h-45zM299 644h478v-46h-312v-254h277v-45h-277v-255h312v-44h-367v189h-225l-72 -189h-58zM410 233v365h-70l-138 -365h208z" />
    <glyph glyph-name="B" unicode="B" horiz-adv-x="619" 
d="M75 644h283q93 0 136.5 -43t43.5 -125q0 -53 -22 -89t-62 -54q110 -25 110 -151q0 -94 -46.5 -138t-140.5 -44h-302v644zM363 354q64 0 93.5 32t29.5 87q0 65 -30.5 96t-109.5 31h-216v-246h233zM372 43q72 0 105 32.5t33 108.5q0 65 -34.5 96t-118.5 31h-227v-268h242z
" />
    <glyph glyph-name="C" unicode="C" horiz-adv-x="589" 
d="M129 74q-74 84 -74 230q0 166 70.5 258t224.5 92q102 0 184 -29v-49q-81 30 -179 30q-133 0 -189.5 -77.5t-56.5 -224.5q0 -267 249 -267q46 0 92.5 7t83.5 20v-49q-80 -25 -183 -25q-148 0 -222 84z" />
    <glyph glyph-name="Cacute" unicode="&#x106;" horiz-adv-x="589" 
d="M381 846h52l-74 -158h-45zM129 74q-74 84 -74 230q0 166 70.5 258t224.5 92q102 0 184 -29v-49q-81 30 -179 30q-133 0 -189.5 -77.5t-56.5 -224.5q0 -267 249 -267q46 0 92.5 7t83.5 20v-49q-80 -25 -183 -25q-148 0 -222 84z" />
    <glyph glyph-name="Ccaron" unicode="&#x10c;" horiz-adv-x="589" 
d="M230 822h50l79 -103l79 103h50l-105 -135h-48zM129 74q-74 84 -74 230q0 166 70.5 258t224.5 92q102 0 184 -29v-49q-81 30 -179 30q-133 0 -189.5 -77.5t-56.5 -224.5q0 -267 249 -267q46 0 92.5 7t83.5 20v-49q-80 -25 -183 -25q-148 0 -222 84z" />
    <glyph glyph-name="Ccedilla" unicode="&#xc7;" horiz-adv-x="589" 
d="M165.5 528.5q-56.5 -77.5 -56.5 -224.5q0 -267 249 -267q46 0 92.5 7t83.5 20v-49q-75 -24 -171 -25l-14 -41q56 0 85 -22.5t29 -65.5q0 -50 -33.5 -75.5t-105.5 -25.5q-15 0 -34.5 2.5t-31.5 5.5v37q29 -8 63 -8q52 0 75.5 14.5t23.5 49.5q0 31 -21.5 43t-70.5 12h-33
l25 75q-132 9 -198.5 92t-66.5 221q0 166 70.5 258t224.5 92q102 0 184 -29v-49q-81 30 -179 30q-133 0 -189.5 -77.5z" />
    <glyph glyph-name="Ccircumflex" unicode="&#x108;" horiz-adv-x="589" 
d="M311 822h48l105 -135h-50l-79 103l-79 -103h-50zM129 74q-74 84 -74 230q0 166 70.5 258t224.5 92q102 0 184 -29v-49q-81 30 -179 30q-133 0 -189.5 -77.5t-56.5 -224.5q0 -267 249 -267q46 0 92.5 7t83.5 20v-49q-80 -25 -183 -25q-148 0 -222 84z" />
    <glyph glyph-name="Cdotaccent" unicode="&#x10a;" horiz-adv-x="589" 
d="M321 770h57v-56h-57v56zM129 74q-74 84 -74 230q0 166 70.5 258t224.5 92q102 0 184 -29v-49q-81 30 -179 30q-133 0 -189.5 -77.5t-56.5 -224.5q0 -267 249 -267q46 0 92.5 7t83.5 20v-49q-80 -25 -183 -25q-148 0 -222 84z" />
    <glyph glyph-name="D" unicode="D" horiz-adv-x="632" 
d="M75 644h242q93 0 150 -33.5t83.5 -105t26.5 -188.5q0 -111 -26 -180.5t-83 -103t-151 -33.5h-242v644zM305 44q77 0 123.5 23t70 82t23.5 168q0 110 -21.5 171t-68 86t-127.5 25h-175v-555h175z" />
    <glyph glyph-name="Eth" unicode="&#xd0;" horiz-adv-x="673" 
d="M116 294h-81v45h81v305h243q93 0 149.5 -33.5t83 -105t26.5 -188.5q0 -111 -26 -180.5t-83 -103t-150 -33.5h-243v294zM346 44q78 0 124.5 23t70 82t23.5 168q0 110 -21.5 170.5t-68 85.5t-128.5 25h-175v-259h190v-45h-190v-250h175z" />
    <glyph glyph-name="Dcaron" unicode="&#x10e;" horiz-adv-x="632" 
d="M174 844h50l79 -103l79 103h50l-105 -135h-48zM75 644h242q93 0 150 -33.5t83.5 -105t26.5 -188.5q0 -111 -26 -180.5t-83 -103t-151 -33.5h-242v644zM305 44q77 0 123.5 23t70 82t23.5 168q0 110 -21.5 171t-68 86t-127.5 25h-175v-555h175z" />
    <glyph glyph-name="Dcroat" unicode="&#x110;" horiz-adv-x="663" 
d="M106 294h-81v45h81v305h243q93 0 149.5 -33.5t83 -105t26.5 -188.5q0 -111 -26 -180.5t-83 -103t-150 -33.5h-243v294zM336 44q78 0 124.5 23t70 82t23.5 168q0 110 -21.5 170.5t-68 85.5t-128.5 25h-175v-259h190v-45h-190v-250h175z" />
    <glyph glyph-name="uni1E0C" unicode="&#x1e0c;" horiz-adv-x="632" 
d="M75 644h242q93 0 150 -33.5t83.5 -105t26.5 -188.5q0 -111 -26 -180.5t-83 -103t-151 -33.5h-242v644zM305 44q77 0 123.5 23t70 82t23.5 168q0 110 -21.5 171t-68 86t-127.5 25h-175v-555h175zM296 -95h59v-57h-59v57z" />
    <glyph glyph-name="uni1E0E" unicode="&#x1e0e;" horiz-adv-x="632" 
d="M75 644h242q93 0 150 -33.5t83.5 -105t26.5 -188.5q0 -111 -26 -180.5t-83 -103t-151 -33.5h-242v644zM305 44q77 0 123.5 23t70 82t23.5 168q0 110 -21.5 171t-68 86t-127.5 25h-175v-555h175zM149 -81h277v-42h-277v42z" />
    <glyph glyph-name="E" unicode="E" horiz-adv-x="541" 
d="M75 644h421v-45h-366v-255h331v-44h-331v-256h366v-44h-421v644z" />
    <glyph glyph-name="Eacute" unicode="&#xc9;" horiz-adv-x="541" 
d="M324 846h52l-74 -158h-45zM75 644h421v-45h-366v-255h331v-44h-331v-256h366v-44h-421v644z" />
    <glyph glyph-name="Ebreve" unicode="&#x114;" horiz-adv-x="541" 
d="M210.5 718q-30.5 31 -30.5 80h42q0 -34 19 -53t50 -19q32 0 51 19t19 53h42q0 -49 -30.5 -80t-81.5 -31q-50 0 -80.5 31zM75 644h421v-45h-366v-255h331v-44h-331v-256h366v-44h-421v644z" />
    <glyph glyph-name="Ecaron" unicode="&#x11a;" horiz-adv-x="541" 
d="M163 822h50l79 -103l79 103h50l-105 -135h-48zM75 644h421v-45h-366v-255h331v-44h-331v-256h366v-44h-421v644z" />
    <glyph glyph-name="Ecircumflex" unicode="&#xca;" horiz-adv-x="541" 
d="M253 822h48l105 -135h-50l-79 103l-79 -103h-50zM75 644h421v-45h-366v-255h331v-44h-331v-256h366v-44h-421v644z" />
    <glyph glyph-name="uni1EBE" unicode="&#x1ebe;" horiz-adv-x="541" 
d="M407 910h47l-66 -117h-41zM254 797h48l103 -110h-49l-78 85l-78 -85h-49zM75 644h421v-45h-366v-255h331v-44h-331v-256h366v-44h-421v644z" />
    <glyph glyph-name="uni1EC6" unicode="&#x1ec6;" horiz-adv-x="541" 
d="M249 822h48l105 -135h-50l-79 103l-79 -103h-50zM75 644h421v-45h-366v-255h331v-44h-331v-256h366v-44h-421v644zM244 -95h59v-57h-59v57z" />
    <glyph glyph-name="uni1EC0" unicode="&#x1ec0;" horiz-adv-x="541" 
d="M118 910h47l59 -117h-40zM270 797h48l103 -110h-50l-77 85l-78 -85h-49zM75 644h421v-45h-366v-255h331v-44h-331v-256h366v-44h-421v644z" />
    <glyph glyph-name="uni1EC2" unicode="&#x1ec2;" horiz-adv-x="541" 
d="M362 831q50 3 66.5 13.5t16.5 32.5q0 41 -53 41q-31 0 -59 -13v34q29 12 66 12q41 0 64.5 -19t23.5 -53q0 -32 -19 -49.5t-61 -21.5v-36h-45v59zM261 797h48l103 -110h-49l-78 85l-77 -85h-50zM75 644h421v-45h-366v-255h331v-44h-331v-256h366v-44h-421v644z" />
    <glyph glyph-name="uni1EC4" unicode="&#x1ec4;" horiz-adv-x="541" 
d="M319.5 809.5q-14.5 4.5 -35.5 13.5q-34 15 -54 15q-23 0 -41 -7t-34 -25v44q12 12 32 19t41 7q17 0 30.5 -4t34.5 -13q18 -8 30.5 -12t26.5 -4q23 0 40.5 7.5t31.5 24.5v-44q-11 -12 -30 -19t-41 -7q-17 0 -31.5 4.5zM262 797h48l103 -110h-49l-78 85l-77 -85h-50z
M75 644h421v-45h-366v-255h331v-44h-331v-256h366v-44h-421v644z" />
    <glyph glyph-name="Edieresis" unicode="&#xcb;" horiz-adv-x="541" 
d="M172 769h57v-55h-57v55zM339 769h56v-55h-56v55zM75 644h421v-45h-366v-255h331v-44h-331v-256h366v-44h-421v644z" />
    <glyph glyph-name="Edotaccent" unicode="&#x116;" horiz-adv-x="541" 
d="M256 770h57v-56h-57v56zM75 644h421v-45h-366v-255h331v-44h-331v-256h366v-44h-421v644z" />
    <glyph glyph-name="uni1EB8" unicode="&#x1eb8;" horiz-adv-x="541" 
d="M75 644h421v-45h-366v-255h331v-44h-331v-256h366v-44h-421v644zM252 -95h59v-57h-59v57z" />
    <glyph glyph-name="Egrave" unicode="&#xc8;" horiz-adv-x="541" 
d="M197 846h52l67 -158h-45zM75 644h421v-45h-366v-255h331v-44h-331v-256h366v-44h-421v644z" />
    <glyph glyph-name="uni1EBA" unicode="&#x1eba;" horiz-adv-x="541" 
d="M253 767q39 2 59.5 8.5t27.5 18.5t7 32q0 27 -20 40t-63 13q-16 0 -35 -3.5t-32 -8.5v38q13 5 35.5 8.5t41.5 3.5q57 0 86.5 -23t29.5 -65q0 -41 -20.5 -62.5t-69.5 -26.5v-52h-47v79zM75 644h421v-45h-366v-255h331v-44h-331v-256h366v-44h-421v644z" />
    <glyph glyph-name="Emacron" unicode="&#x112;" horiz-adv-x="541" 
d="M142 761h277v-42h-277v42zM75 644h421v-45h-366v-255h331v-44h-331v-256h366v-44h-421v644z" />
    <glyph glyph-name="Eogonek" unicode="&#x118;" horiz-adv-x="541" 
d="M130 599v-255h331v-44h-331v-256h366v-44h-41q-37 -27 -55.5 -60t-18.5 -68q0 -27 12.5 -39t40.5 -12q13 0 27 3t23 8v-41q-21 -11 -59 -11q-41 0 -66 20.5t-25 65.5q0 39 21 75t54 59h-334v644h421v-45h-366z" />
    <glyph glyph-name="uni1EBC" unicode="&#x1ebc;" horiz-adv-x="541" 
d="M318 718q-17 5 -39 15q-40 17 -60 17q-50 0 -79 -35v47q12 13 33.5 21t44.5 8q18 0 32.5 -4.5t37.5 -14.5q20 -9 33.5 -13.5t28.5 -4.5q24 0 42 8.5t31 26.5v-47q-10 -14 -28.5 -21.5t-42.5 -7.5q-17 0 -34 5zM75 644h421v-45h-366v-255h331v-44h-331v-256h366v-44h-421
v644z" />
    <glyph glyph-name="F" unicode="F" horiz-adv-x="516" 
d="M75 644h406v-45h-351v-255h314v-44h-314v-300h-55v644z" />
    <glyph glyph-name="G" unicode="G" horiz-adv-x="633" 
d="M129 74q-74 84 -74 230q0 166 70.5 258t224.5 92q103 0 184 -27v-49q-84 28 -178 28q-134 0 -190.5 -77.5t-56.5 -224.5q0 -267 248 -267q46 0 92 8t79 22v229h-183v44h233v-301q-32 -21 -88 -35t-139 -14q-148 0 -222 84z" />
    <glyph glyph-name="Gbreve" unicode="&#x11e;" horiz-adv-x="633" 
d="M269.5 718q-30.5 31 -30.5 80h42q0 -34 19 -53t50 -19q32 0 51 19t19 53h42q0 -49 -30.5 -80t-81.5 -31q-50 0 -80.5 31zM129 74q-74 84 -74 230q0 166 70.5 258t224.5 92q103 0 184 -27v-49q-84 28 -178 28q-134 0 -190.5 -77.5t-56.5 -224.5q0 -267 248 -267q46 0 92 8
t79 22v229h-183v44h233v-301q-32 -21 -88 -35t-139 -14q-148 0 -222 84z" />
    <glyph glyph-name="Gcaron" unicode="&#x1e6;" horiz-adv-x="633" 
d="M222 822h50l79 -103l79 103h50l-105 -135h-48zM129 74q-74 84 -74 230q0 166 70.5 258t224.5 92q103 0 184 -27v-49q-84 28 -178 28q-134 0 -190.5 -77.5t-56.5 -224.5q0 -267 248 -267q46 0 92 8t79 22v229h-183v44h233v-301q-32 -21 -88 -35t-139 -14q-148 0 -222 84z
" />
    <glyph glyph-name="Gcircumflex" unicode="&#x11c;" horiz-adv-x="633" 
d="M329 822h48l105 -135h-50l-79 103l-79 -103h-50zM129 74q-74 84 -74 230q0 166 70.5 258t224.5 92q103 0 184 -27v-49q-84 28 -178 28q-134 0 -190.5 -77.5t-56.5 -224.5q0 -267 248 -267q46 0 92 8t79 22v229h-183v44h233v-301q-32 -21 -88 -35t-139 -14q-148 0 -222 84
z" />
    <glyph glyph-name="Gcommaaccent" unicode="&#x122;" horiz-adv-x="633" 
d="M129 74q-74 84 -74 230q0 166 70.5 258t224.5 92q103 0 184 -27v-49q-84 28 -178 28q-134 0 -190.5 -77.5t-56.5 -224.5q0 -267 248 -267q46 0 92 8t79 22v229h-183v44h233v-301q-32 -21 -88 -35t-139 -14q-148 0 -222 84zM338 -42h53l-38 -165h-41z" />
    <glyph glyph-name="Gdotaccent" unicode="&#x120;" horiz-adv-x="633" 
d="M322 770h57v-56h-57v56zM129 74q-74 84 -74 230q0 166 70.5 258t224.5 92q103 0 184 -27v-49q-84 28 -178 28q-134 0 -190.5 -77.5t-56.5 -224.5q0 -267 248 -267q46 0 92 8t79 22v229h-183v44h233v-301q-32 -21 -88 -35t-139 -14q-148 0 -222 84z" />
    <glyph glyph-name="uni1E20" unicode="&#x1e20;" horiz-adv-x="633" 
d="M213 759h277v-42h-277v42zM129 74q-74 84 -74 230q0 166 70.5 258t224.5 92q103 0 184 -27v-49q-84 28 -178 28q-134 0 -190.5 -77.5t-56.5 -224.5q0 -267 248 -267q46 0 92 8t79 22v229h-183v44h233v-301q-32 -21 -88 -35t-139 -14q-148 0 -222 84z" />
    <glyph glyph-name="H" unicode="H" horiz-adv-x="630" 
d="M75 644h55v-300h370v300h55v-644h-55v300h-370v-300h-55v644z" />
    <glyph glyph-name="Hbar" unicode="&#x126;" horiz-adv-x="671" 
d="M89 471h-64v45h64v128h55v-128h370v128h55v-128h77v-45h-77v-471h-55v300h-370v-300h-55v471zM514 344v127h-370v-127h370z" />
    <glyph glyph-name="uni1E2A" unicode="&#x1e2a;" horiz-adv-x="630" 
d="M75 644h55v-300h370v300h55v-644h-55v300h-370v-300h-55v644zM216.5 -152q-37.5 33 -37.5 97h42q0 -47 25.5 -69.5t68.5 -22.5q44 0 69.5 22.5t25.5 69.5h41q0 -64 -37.5 -97t-98.5 -33t-98.5 33z" />
    <glyph glyph-name="Hcircumflex" unicode="&#x124;" horiz-adv-x="630" 
d="M291 822h48l105 -135h-50l-79 103l-79 -103h-50zM75 644h55v-300h370v300h55v-644h-55v300h-370v-300h-55v644z" />
    <glyph glyph-name="uni1E24" unicode="&#x1e24;" horiz-adv-x="630" 
d="M75 644h55v-300h370v300h55v-644h-55v300h-370v-300h-55v644zM286 -95h59v-57h-59v57z" />
    <glyph glyph-name="I" unicode="I" horiz-adv-x="205" 
d="M75 644h55v-644h-55v644z" />
    <glyph glyph-name="IJ" unicode="&#x132;" horiz-adv-x="602" 
d="M75 644h55v-644h-55v644zM218 13v48q24 -11 57 -17.5t66 -6.5q74 0 105 31t31 100v476h55v-479q0 -175 -184 -175q-73 0 -130 23z" />
    <glyph glyph-name="Iacute" unicode="&#xcd;" horiz-adv-x="205" 
d="M145 846h52l-74 -158h-45zM75 644h55v-644h-55v644z" />
    <glyph glyph-name="Ibreve" unicode="&#x12c;" horiz-adv-x="205" 
d="M21.5 722q-30.5 31 -30.5 80h42q0 -34 19 -53t50 -19q32 0 51 19t19 53h42q0 -49 -30.5 -80t-81.5 -31q-50 0 -80.5 31zM75 644h55v-644h-55v644z" />
    <glyph glyph-name="uni01CF" unicode="&#x1cf;" horiz-adv-x="205" 
d="M-27 822h50l79 -103l79 103h50l-105 -135h-48zM75 644h55v-644h-55v644z" />
    <glyph glyph-name="Icircumflex" unicode="&#xce;" horiz-adv-x="205" 
d="M78 822h48l105 -135h-50l-79 103l-79 -103h-50zM75 644h55v-644h-55v644z" />
    <glyph glyph-name="Idieresis" unicode="&#xcf;" horiz-adv-x="205" 
d="M-10 770h57v-55h-57v55zM157 770h56v-55h-56v55zM75 644h55v-644h-55v644z" />
    <glyph glyph-name="Idotaccent" unicode="&#x130;" horiz-adv-x="205" 
d="M74 771h57v-56h-57v56zM75 644h55v-644h-55v644z" />
    <glyph glyph-name="uni1ECA" unicode="&#x1eca;" horiz-adv-x="205" 
d="M75 644h55v-644h-55v644zM73 -95h59v-57h-59v57z" />
    <glyph glyph-name="Igrave" unicode="&#xcc;" horiz-adv-x="205" 
d="M6 846h52l67 -158h-45zM75 644h55v-644h-55v644z" />
    <glyph glyph-name="uni1EC8" unicode="&#x1ec8;" horiz-adv-x="205" 
d="M78 767q39 2 59.5 8.5t27.5 18.5t7 32q0 27 -20 40t-63 13q-16 0 -35 -3.5t-32 -8.5v38q13 5 35.5 8.5t41.5 3.5q57 0 86.5 -23t29.5 -65q0 -41 -20.5 -62.5t-69.5 -26.5v-52h-47v79zM75 644h55v-644h-55v644z" />
    <glyph glyph-name="Imacron" unicode="&#x12a;" horiz-adv-x="205" 
d="M-36 761h277v-42h-277v42zM75 644h55v-644h-55v644z" />
    <glyph glyph-name="Iogonek" unicode="&#x12e;" horiz-adv-x="205" 
d="M132 -176q14 3 23 8v-41q-21 -11 -59 -11q-41 0 -66 20.5t-25 65.5q0 39 21 75t54 59h-5v644h55v-644h-4q-37 -27 -55.5 -60t-18.5 -68q0 -27 12.5 -39t40.5 -12q13 0 27 3z" />
    <glyph glyph-name="Itilde" unicode="&#x128;" horiz-adv-x="205" 
d="M139 695q-17 5 -39 15q-40 17 -60 17q-50 0 -79 -35v47q12 13 33.5 21t44.5 8q18 0 32.5 -4.5t37.5 -14.5q20 -9 33.5 -13.5t28.5 -4.5q24 0 42 8.5t31 26.5v-47q-10 -14 -28.5 -21.5t-42.5 -7.5q-17 0 -34 5zM75 644h55v-644h-55v644z" />
    <glyph glyph-name="J" unicode="J" horiz-adv-x="419" 
d="M35 13v48q24 -11 57 -17.5t66 -6.5q74 0 105 31t31 100v476h55v-479q0 -175 -184 -175q-73 0 -130 23z" />
    <glyph glyph-name="Jcircumflex" unicode="&#x134;" horiz-adv-x="419" 
d="M295 822h48l105 -135h-50l-79 103l-79 -103h-50zM35 13v48q24 -11 57 -17.5t66 -6.5q74 0 105 31t31 100v476h55v-479q0 -175 -184 -175q-73 0 -130 23z" />
    <glyph glyph-name="K" unicode="K" horiz-adv-x="585" 
d="M75 644h55v-342l327 342h67l-245 -256l251 -388h-60l-225 352l-115 -121v-231h-55v644z" />
    <glyph glyph-name="Kcommaaccent" unicode="&#x136;" horiz-adv-x="585" 
d="M75 644h55v-342l327 342h67l-245 -256l251 -388h-60l-225 352l-115 -121v-231h-55v644zM267 -37h53l-38 -165h-41z" />
    <glyph glyph-name="L" unicode="L" horiz-adv-x="521" 
d="M75 644h55v-600h356v-44h-411v644z" />
    <glyph glyph-name="Lacute" unicode="&#x139;" horiz-adv-x="521" 
d="M144 846h52l-74 -158h-45zM75 644h55v-600h356v-44h-411v644z" />
    <glyph glyph-name="Lcaron" unicode="&#x13d;" horiz-adv-x="521" 
d="M317 735h53l-38 -165h-41zM75 644h55v-600h356v-44h-411v644z" />
    <glyph glyph-name="Lcommaaccent" unicode="&#x13b;" horiz-adv-x="521" 
d="M75 644h55v-600h356v-44h-411v644zM251 -37h53l-38 -165h-41z" />
    <glyph glyph-name="Ldot" unicode="&#x13f;" horiz-adv-x="521" 
d="M75 644h55v-600h356v-44h-411v644zM307 309h59v-57h-59v57z" />
    <glyph glyph-name="uni1E36" unicode="&#x1e36;" horiz-adv-x="521" 
d="M75 644h55v-600h356v-44h-411v644zM246 -95h59v-57h-59v57z" />
    <glyph glyph-name="uni1E38" unicode="&#x1e38;" horiz-adv-x="521" 
d="M0 759h277v-42h-277v42zM75 644h55v-600h356v-44h-411v644zM246 -95h59v-57h-59v57z" />
    <glyph glyph-name="uni1E3A" unicode="&#x1e3a;" horiz-adv-x="521" 
d="M75 644h55v-600h356v-44h-411v644zM134 -75h277v-42h-277v42z" />
    <glyph glyph-name="Lslash" unicode="&#x141;" horiz-adv-x="545" 
d="M98 292l-98 -43v48l98 43v304h55v-280l153 67v-48l-153 -67v-272h357v-44h-412v292z" />
    <glyph glyph-name="M" unicode="M" horiz-adv-x="744" 
d="M75 644h64l233 -477l233 477h64v-644h-54v564l-221 -452h-43l-222 452v-564h-54v644z" />
    <glyph glyph-name="uni1E42" unicode="&#x1e42;" horiz-adv-x="744" 
d="M75 644h64l233 -477l233 477h64v-644h-54v564l-221 -452h-43l-222 452v-564h-54v644zM343 -95h59v-57h-59v57z" />
    <glyph glyph-name="N" unicode="N" horiz-adv-x="656" 
d="M75 644h52l399 -562v562h55v-644h-53l-398 561v-561h-55v644z" />
    <glyph glyph-name="Nacute" unicode="&#x143;" horiz-adv-x="656" 
d="M376 846h52l-74 -158h-45zM75 644h52l399 -562v562h55v-644h-53l-398 561v-561h-55v644z" />
    <glyph glyph-name="Ncaron" unicode="&#x147;" horiz-adv-x="656" 
d="M219 822h50l79 -103l79 103h50l-105 -135h-48zM75 644h52l399 -562v562h55v-644h-53l-398 561v-561h-55v644z" />
    <glyph glyph-name="Ncommaaccent" unicode="&#x145;" horiz-adv-x="656" 
d="M75 644h52l399 -562v562h55v-644h-53l-398 561v-561h-55v644zM306 -37h53l-38 -165h-41z" />
    <glyph glyph-name="uni1E44" unicode="&#x1e44;" horiz-adv-x="656" 
d="M315 770h57v-56h-57v56zM75 644h52l399 -562v562h55v-644h-53l-398 561v-561h-55v644z" />
    <glyph glyph-name="uni1E46" unicode="&#x1e46;" horiz-adv-x="656" 
d="M75 644h52l399 -562v562h55v-644h-53l-398 561v-561h-55v644zM296 -95h59v-57h-59v57z" />
    <glyph glyph-name="Eng" unicode="&#x14a;" horiz-adv-x="656" 
d="M366 -222v45q33 -10 61 -10q54 0 76.5 21t22.5 67v102l-396 558v-561h-55v644h52l399 -562v562h55v-746q0 -62 -35.5 -97t-99.5 -35q-47 0 -80 12z" />
    <glyph glyph-name="uni1E48" unicode="&#x1e48;" horiz-adv-x="656" 
d="M75 644h52l399 -562v562h55v-644h-53l-398 561v-561h-55v644zM190 -74h277v-42h-277v42z" />
    <glyph glyph-name="Ntilde" unicode="&#xd1;" horiz-adv-x="656" 
d="M365 718q-17 5 -39 15q-40 17 -60 17q-50 0 -79 -35v47q12 13 33.5 21t44.5 8q18 0 32.5 -4.5t37.5 -14.5q20 -9 33.5 -13.5t28.5 -4.5q24 0 42 8.5t31 26.5v-47q-10 -14 -28.5 -21.5t-42.5 -7.5q-17 0 -34 5zM75 644h52l399 -562v562h55v-644h-53l-398 561v-561h-55v644
z" />
    <glyph glyph-name="O" unicode="O" horiz-adv-x="688" 
d="M126 73q-71 83 -71 246q0 173 70 254t219 81t219 -81t70 -254q0 -163 -71 -246t-218 -83t-218 83zM520.5 105.5q57.5 68.5 57.5 213.5q0 105 -25.5 168t-76.5 91t-132 28t-132.5 -28t-77 -91t-25.5 -168q0 -145 57.5 -213.5t177.5 -68.5q119 0 176.5 68.5z" />
    <glyph glyph-name="Oacute" unicode="&#xd3;" horiz-adv-x="688" 
d="M389 846h52l-74 -158h-45zM126 73q-71 83 -71 246q0 173 70 254t219 81t219 -81t70 -254q0 -163 -71 -246t-218 -83t-218 83zM520.5 105.5q57.5 68.5 57.5 213.5q0 105 -25.5 168t-76.5 91t-132 28t-132.5 -28t-77 -91t-25.5 -168q0 -145 57.5 -213.5t177.5 -68.5
q119 0 176.5 68.5z" />
    <glyph glyph-name="Obreve" unicode="&#x14e;" horiz-adv-x="688" 
d="M263.5 718q-30.5 31 -30.5 80h42q0 -34 19 -53t50 -19q32 0 51 19t19 53h42q0 -49 -30.5 -80t-81.5 -31q-50 0 -80.5 31zM126 73q-71 83 -71 246q0 173 70 254t219 81t219 -81t70 -254q0 -163 -71 -246t-218 -83t-218 83zM520.5 105.5q57.5 68.5 57.5 213.5
q0 105 -25.5 168t-76.5 91t-132 28t-132.5 -28t-77 -91t-25.5 -168q0 -145 57.5 -213.5t177.5 -68.5q119 0 176.5 68.5z" />
    <glyph glyph-name="uni01D1" unicode="&#x1d1;" horiz-adv-x="688" 
d="M215 822h50l79 -103l79 103h50l-105 -135h-48zM126 73q-71 83 -71 246q0 173 70 254t219 81t219 -81t70 -254q0 -163 -71 -246t-218 -83t-218 83zM520.5 105.5q57.5 68.5 57.5 213.5q0 105 -25.5 168t-76.5 91t-132 28t-132.5 -28t-77 -91t-25.5 -168q0 -145 57.5 -213.5
t177.5 -68.5q119 0 176.5 68.5z" />
    <glyph glyph-name="Ocircumflex" unicode="&#xd4;" horiz-adv-x="688" 
d="M320 822h48l105 -135h-50l-79 103l-79 -103h-50zM126 73q-71 83 -71 246q0 173 70 254t219 81t219 -81t70 -254q0 -163 -71 -246t-218 -83t-218 83zM520.5 105.5q57.5 68.5 57.5 213.5q0 105 -25.5 168t-76.5 91t-132 28t-132.5 -28t-77 -91t-25.5 -168
q0 -145 57.5 -213.5t177.5 -68.5q119 0 176.5 68.5z" />
    <glyph glyph-name="uni1ED0" unicode="&#x1ed0;" horiz-adv-x="688" 
d="M478 910h47l-66 -117h-41zM325 797h48l103 -110h-49l-78 85l-78 -85h-49zM126 73q-71 83 -71 246q0 173 70 254t219 81t219 -81t70 -254q0 -163 -71 -246t-218 -83t-218 83zM520.5 105.5q57.5 68.5 57.5 213.5q0 105 -25.5 168t-76.5 91t-132 28t-132.5 -28t-77 -91
t-25.5 -168q0 -145 57.5 -213.5t177.5 -68.5q119 0 176.5 68.5z" />
    <glyph glyph-name="uni1ED8" unicode="&#x1ed8;" horiz-adv-x="688" 
d="M320 832h48l105 -135h-50l-79 103l-79 -103h-50zM126 73q-71 83 -71 246q0 173 70 254t219 81t219 -81t70 -254q0 -163 -71 -246t-218 -83t-218 83zM520.5 105.5q57.5 68.5 57.5 213.5q0 105 -25.5 168t-76.5 91t-132 28t-132.5 -28t-77 -91t-25.5 -168
q0 -145 57.5 -213.5t177.5 -68.5q119 0 176.5 68.5zM315 -95h59v-57h-59v57z" />
    <glyph glyph-name="uni1ED2" unicode="&#x1ed2;" horiz-adv-x="688" 
d="M163 910h47l59 -117h-40zM315 797h48l103 -110h-50l-77 85l-78 -85h-49zM126 73q-71 83 -71 246q0 173 70 254t219 81t219 -81t70 -254q0 -163 -71 -246t-218 -83t-218 83zM520.5 105.5q57.5 68.5 57.5 213.5q0 105 -25.5 168t-76.5 91t-132 28t-132.5 -28t-77 -91
t-25.5 -168q0 -145 57.5 -213.5t177.5 -68.5q119 0 176.5 68.5z" />
    <glyph glyph-name="uni1ED4" unicode="&#x1ed4;" horiz-adv-x="688" 
d="M421 831q50 3 66.5 13.5t16.5 32.5q0 41 -53 41q-31 0 -59 -13v34q29 12 66 12q41 0 64.5 -19t23.5 -53q0 -32 -19 -49.5t-61 -21.5v-36h-45v59zM320 797h48l103 -110h-49l-78 85l-77 -85h-50zM126 73q-71 83 -71 246q0 173 70 254t219 81t219 -81t70 -254
q0 -163 -71 -246t-218 -83t-218 83zM520.5 105.5q57.5 68.5 57.5 213.5q0 105 -25.5 168t-76.5 91t-132 28t-132.5 -28t-77 -91t-25.5 -168q0 -145 57.5 -213.5t177.5 -68.5q119 0 176.5 68.5z" />
    <glyph glyph-name="uni1ED6" unicode="&#x1ed6;" horiz-adv-x="688" 
d="M374.5 852.5q-14.5 4.5 -35.5 13.5q-18 8 -30 12t-24 4q-23 0 -41 -7t-34 -25v43q12 13 32 20t41 7q17 0 32 -4.5t33 -13.5q18 -8 30.5 -12t26.5 -4q23 0 40.5 7.5t31.5 25.5v-44q-10 -13 -29 -20t-42 -7q-17 0 -31.5 4.5zM244 720q-39 32 -39 100h39q0 -48 27 -72
t73 -24t73 24t27 72h38q0 -68 -39 -100t-99 -32q-61 0 -100 32zM126 73q-71 83 -71 246q0 173 70 254t219 81t219 -81t70 -254q0 -163 -71 -246t-218 -83t-218 83zM520.5 105.5q57.5 68.5 57.5 213.5q0 105 -25.5 168t-76.5 91t-132 28t-132.5 -28t-77 -91t-25.5 -168
q0 -145 57.5 -213.5t177.5 -68.5q119 0 176.5 68.5z" />
    <glyph glyph-name="Odieresis" unicode="&#xd6;" horiz-adv-x="688" 
d="M233 769h57v-55h-57v55zM400 769h56v-55h-56v55zM126 73q-71 83 -71 246q0 173 70 254t219 81t219 -81t70 -254q0 -163 -71 -246t-218 -83t-218 83zM520.5 105.5q57.5 68.5 57.5 213.5q0 105 -25.5 168t-76.5 91t-132 28t-132.5 -28t-77 -91t-25.5 -168
q0 -145 57.5 -213.5t177.5 -68.5q119 0 176.5 68.5z" />
    <glyph glyph-name="uni1ECC" unicode="&#x1ecc;" horiz-adv-x="688" 
d="M126 73q-71 83 -71 246q0 173 70 254t219 81t219 -81t70 -254q0 -163 -71 -246t-218 -83t-218 83zM520.5 105.5q57.5 68.5 57.5 213.5q0 105 -25.5 168t-76.5 91t-132 28t-132.5 -28t-77 -91t-25.5 -168q0 -145 57.5 -213.5t177.5 -68.5q119 0 176.5 68.5zM314 -95h59
v-57h-59v57z" />
    <glyph glyph-name="Ograve" unicode="&#xd2;" horiz-adv-x="688" 
d="M253 846h52l67 -158h-45zM126 73q-71 83 -71 246q0 173 70 254t219 81t219 -81t70 -254q0 -163 -71 -246t-218 -83t-218 83zM520.5 105.5q57.5 68.5 57.5 213.5q0 105 -25.5 168t-76.5 91t-132 28t-132.5 -28t-77 -91t-25.5 -168q0 -145 57.5 -213.5t177.5 -68.5
q119 0 176.5 68.5z" />
    <glyph glyph-name="uni1ECE" unicode="&#x1ece;" horiz-adv-x="688" 
d="M323 767q39 2 59.5 8.5t27.5 18.5t7 32q0 27 -20 40t-63 13q-16 0 -35 -3.5t-32 -8.5v38q13 5 35.5 8.5t41.5 3.5q57 0 86.5 -23t29.5 -65q0 -41 -20.5 -62.5t-69.5 -26.5v-52h-47v79zM126 73q-71 83 -71 246q0 173 70 254t219 81t219 -81t70 -254q0 -163 -71 -246
t-218 -83t-218 83zM520.5 105.5q57.5 68.5 57.5 213.5q0 105 -25.5 168t-76.5 91t-132 28t-132.5 -28t-77 -91t-25.5 -168q0 -145 57.5 -213.5t177.5 -68.5q119 0 176.5 68.5z" />
    <glyph glyph-name="Ohorn" unicode="&#x1a0;" horiz-adv-x="749" 
d="M126 73q-71 83 -71 246q0 173 70 254t219 81q152 0 224 -88q41 1 64.5 12t33.5 37t10 73h48q0 -84 -32 -122t-97 -44q38 -79 38 -203q0 -163 -71 -246t-218 -83t-218 83zM520.5 105.5q57.5 68.5 57.5 213.5q0 105 -25.5 168t-76.5 91t-132 28t-132.5 -28t-77 -91
t-25.5 -168q0 -145 57.5 -213.5t177.5 -68.5q119 0 176.5 68.5z" />
    <glyph glyph-name="uni1EDA" unicode="&#x1eda;" horiz-adv-x="749" 
d="M400 846h52l-74 -158h-45zM126 73q-71 83 -71 246q0 173 70 254t219 81q152 0 224 -88q41 1 64.5 12t33.5 37t10 73h48q0 -84 -32 -122t-97 -44q38 -79 38 -203q0 -163 -71 -246t-218 -83t-218 83zM520.5 105.5q57.5 68.5 57.5 213.5q0 105 -25.5 168t-76.5 91t-132 28
t-132.5 -28t-77 -91t-25.5 -168q0 -145 57.5 -213.5t177.5 -68.5q119 0 176.5 68.5z" />
    <glyph glyph-name="uni1EE2" unicode="&#x1ee2;" horiz-adv-x="749" 
d="M126 73q-71 83 -71 246q0 173 70 254t219 81q152 0 224 -88q41 1 64.5 12t33.5 37t10 73h48q0 -84 -32 -122t-97 -44q38 -79 38 -203q0 -163 -71 -246t-218 -83t-218 83zM520.5 105.5q57.5 68.5 57.5 213.5q0 105 -25.5 168t-76.5 91t-132 28t-132.5 -28t-77 -91
t-25.5 -168q0 -145 57.5 -213.5t177.5 -68.5q119 0 176.5 68.5zM318 -95h59v-57h-59v57z" />
    <glyph glyph-name="uni1EDC" unicode="&#x1edc;" horiz-adv-x="749" 
d="M271 846h52l67 -158h-45zM126 73q-71 83 -71 246q0 173 70 254t219 81q152 0 224 -88q41 1 64.5 12t33.5 37t10 73h48q0 -84 -32 -122t-97 -44q38 -79 38 -203q0 -163 -71 -246t-218 -83t-218 83zM520.5 105.5q57.5 68.5 57.5 213.5q0 105 -25.5 168t-76.5 91t-132 28
t-132.5 -28t-77 -91t-25.5 -168q0 -145 57.5 -213.5t177.5 -68.5q119 0 176.5 68.5z" />
    <glyph glyph-name="uni1EDE" unicode="&#x1ede;" horiz-adv-x="749" 
d="M330 767q39 2 59.5 8.5t27.5 18.5t7 32q0 27 -20 40t-63 13q-16 0 -35 -3.5t-32 -8.5v38q13 5 35.5 8.5t41.5 3.5q57 0 86.5 -23t29.5 -65q0 -41 -20.5 -62.5t-69.5 -26.5v-52h-47v79zM126 73q-71 83 -71 246q0 173 70 254t219 81q152 0 224 -88q41 1 64.5 12t33.5 37
t10 73h48q0 -84 -32 -122t-97 -44q38 -79 38 -203q0 -163 -71 -246t-218 -83t-218 83zM520.5 105.5q57.5 68.5 57.5 213.5q0 105 -25.5 168t-76.5 91t-132 28t-132.5 -28t-77 -91t-25.5 -168q0 -145 57.5 -213.5t177.5 -68.5q119 0 176.5 68.5z" />
    <glyph glyph-name="uni1EE0" unicode="&#x1ee0;" horiz-adv-x="749" 
d="M398 717q-17 5 -39 15q-40 17 -60 17q-50 0 -79 -35v47q12 13 33.5 21t44.5 8q18 0 32.5 -4.5t37.5 -14.5q20 -9 33.5 -13.5t28.5 -4.5q24 0 42 8.5t31 26.5v-47q-10 -14 -28.5 -21.5t-42.5 -7.5q-17 0 -34 5zM126 73q-71 83 -71 246q0 173 70 254t219 81q152 0 224 -88
q41 1 64.5 12t33.5 37t10 73h48q0 -84 -32 -122t-97 -44q38 -79 38 -203q0 -163 -71 -246t-218 -83t-218 83zM520.5 105.5q57.5 68.5 57.5 213.5q0 105 -25.5 168t-76.5 91t-132 28t-132.5 -28t-77 -91t-25.5 -168q0 -145 57.5 -213.5t177.5 -68.5q119 0 176.5 68.5z" />
    <glyph glyph-name="Ohungarumlaut" unicode="&#x150;" horiz-adv-x="688" 
d="M269 828h54l-76 -141h-45zM468 828h54l-76 -141h-45zM126 73q-71 83 -71 246q0 173 70 254t219 81t219 -81t70 -254q0 -163 -71 -246t-218 -83t-218 83zM520.5 105.5q57.5 68.5 57.5 213.5q0 105 -25.5 168t-76.5 91t-132 28t-132.5 -28t-77 -91t-25.5 -168
q0 -145 57.5 -213.5t177.5 -68.5q119 0 176.5 68.5z" />
    <glyph glyph-name="Omacron" unicode="&#x14c;" horiz-adv-x="688" 
d="M205 761h277v-42h-277v42zM126 73q-71 83 -71 246q0 173 70 254t219 81t219 -81t70 -254q0 -163 -71 -246t-218 -83t-218 83zM520.5 105.5q57.5 68.5 57.5 213.5q0 105 -25.5 168t-76.5 91t-132 28t-132.5 -28t-77 -91t-25.5 -168q0 -145 57.5 -213.5t177.5 -68.5
q119 0 176.5 68.5z" />
    <glyph glyph-name="Oslash" unicode="&#xd8;" horiz-adv-x="688" 
d="M199 17q-144 68 -144 302q0 173 70 254t219 81q47 0 82 -7l17 46h50l-21 -59q82 -30 121.5 -107.5t39.5 -207.5q0 -163 -71 -246t-218 -83q-56 0 -100 12l-20 -55h-50zM409 600q-30 6 -65 6q-81 0 -132.5 -28t-77 -91t-25.5 -168q0 -99 26.5 -162t80.5 -93zM520.5 105.5
q57.5 68.5 57.5 213.5q0 114 -30 179t-93 90l-195 -541q36 -10 84 -10q119 0 176.5 68.5z" />
    <glyph glyph-name="Oslashacute" unicode="&#x1fe;" horiz-adv-x="688" 
d="M382 846h52l-74 -158h-45zM199 17q-144 68 -144 302q0 173 70 254t219 81q47 0 82 -7l17 46h50l-21 -59q82 -30 121.5 -107.5t39.5 -207.5q0 -163 -71 -246t-218 -83q-56 0 -100 12l-20 -55h-50zM409 600q-30 6 -65 6q-81 0 -132.5 -28t-77 -91t-25.5 -168
q0 -99 26.5 -162t80.5 -93zM520.5 105.5q57.5 68.5 57.5 213.5q0 114 -30 179t-93 90l-195 -541q36 -10 84 -10q119 0 176.5 68.5z" />
    <glyph glyph-name="Otilde" unicode="&#xd5;" horiz-adv-x="688" 
d="M381 720q-17 5 -39 15q-40 17 -60 17q-50 0 -79 -35v47q12 13 33.5 21t44.5 8q18 0 32.5 -4.5t37.5 -14.5q20 -9 33.5 -13.5t28.5 -4.5q24 0 42 8.5t31 26.5v-47q-10 -14 -28.5 -21.5t-42.5 -7.5q-17 0 -34 5zM126 73q-71 83 -71 246q0 173 70 254t219 81t219 -81
t70 -254q0 -163 -71 -246t-218 -83t-218 83zM520.5 105.5q57.5 68.5 57.5 213.5q0 105 -25.5 168t-76.5 91t-132 28t-132.5 -28t-77 -91t-25.5 -168q0 -145 57.5 -213.5t177.5 -68.5q119 0 176.5 68.5z" />
    <glyph glyph-name="OE" unicode="&#x152;" horiz-adv-x="1056" 
d="M634 599v-255h331v-44h-331v-256h366v-44h-421v95q-72 -105 -235 -105q-147 0 -218 83t-71 246q0 173 70 254t219 81q167 0 235 -102v92h421v-45h-366zM520.5 105.5q57.5 68.5 57.5 213.5q0 105 -25.5 168t-76.5 91t-132 28t-132.5 -28t-77 -91t-25.5 -168
q0 -145 57.5 -213.5t177.5 -68.5q119 0 176.5 68.5z" />
    <glyph glyph-name="P" unicode="P" horiz-adv-x="571" 
d="M75 644h256q102 0 153.5 -54t51.5 -147q0 -91 -56 -143.5t-153 -52.5h-197v-247h-55v644zM322 291q77 0 118 40.5t41 111.5q0 76 -39 116t-115 40h-197v-308h192z" />
    <glyph glyph-name="Thorn" unicode="&#xde;" horiz-adv-x="571" 
d="M75 644h55v-125h201q102 0 153.5 -53t51.5 -146q0 -92 -56 -145t-153 -53h-197v-122h-55v644zM322 167q77 0 118 41t41 112q0 75 -38.5 114.5t-115.5 39.5h-197v-307h192z" />
    <glyph glyph-name="Q" unicode="Q" horiz-adv-x="688" 
d="M341.5 -130.5q-29.5 41.5 -30.5 122.5q-130 8 -193 90.5t-63 236.5q0 173 70 254t219 81t219 -81t70 -254q0 -316 -268 -328q0 -64 17.5 -89.5t64.5 -25.5q38 0 71 10v-48q-35 -10 -79 -10q-68 0 -97.5 41.5zM520.5 105.5q57.5 68.5 57.5 213.5q0 105 -25.5 168t-76.5 91
t-132 28t-132.5 -28t-77 -91t-25.5 -168q0 -145 57.5 -213.5t177.5 -68.5q119 0 176.5 68.5z" />
    <glyph glyph-name="R" unicode="R" horiz-adv-x="592" 
d="M75 644h269q98 0 145 -50.5t47 -141.5q0 -75 -36 -122t-106 -60q21 -10 31.5 -24.5t24.5 -44.5l86 -201h-56l-85 194q-11 25 -23 38t-33 19.5t-58 6.5h-151v-258h-55v644zM328 302q153 0 153 150q0 147 -141 147h-210v-297h198z" />
    <glyph glyph-name="Racute" unicode="&#x154;" horiz-adv-x="592" 
d="M328 846h52l-74 -158h-45zM75 644h269q98 0 145 -50.5t47 -141.5q0 -75 -36 -122t-106 -60q21 -10 31.5 -24.5t24.5 -44.5l86 -201h-56l-85 194q-11 25 -23 38t-33 19.5t-58 6.5h-151v-258h-55v644zM328 302q153 0 153 150q0 147 -141 147h-210v-297h198z" />
    <glyph glyph-name="Rcaron" unicode="&#x158;" horiz-adv-x="592" 
d="M164 822h50l79 -103l79 103h50l-105 -135h-48zM75 644h269q98 0 145 -50.5t47 -141.5q0 -75 -36 -122t-106 -60q21 -10 31.5 -24.5t24.5 -44.5l86 -201h-56l-85 194q-11 25 -23 38t-33 19.5t-58 6.5h-151v-258h-55v644zM328 302q153 0 153 150q0 147 -141 147h-210v-297
h198z" />
    <glyph glyph-name="Rcommaaccent" unicode="&#x156;" horiz-adv-x="592" 
d="M75 644h269q98 0 145 -50.5t47 -141.5q0 -75 -36 -122t-106 -60q21 -10 31.5 -24.5t24.5 -44.5l86 -201h-56l-85 194q-11 25 -23 38t-33 19.5t-58 6.5h-151v-258h-55v644zM328 302q153 0 153 150q0 147 -141 147h-210v-297h198zM251 -37h53l-38 -165h-41z" />
    <glyph glyph-name="uni1E5A" unicode="&#x1e5a;" horiz-adv-x="592" 
d="M75 644h269q98 0 145 -50.5t47 -141.5q0 -75 -36 -122t-106 -60q21 -10 31.5 -24.5t24.5 -44.5l86 -201h-56l-85 194q-11 25 -23 38t-33 19.5t-58 6.5h-151v-258h-55v644zM328 302q153 0 153 150q0 147 -141 147h-210v-297h198zM266 -95h59v-57h-59v57z" />
    <glyph glyph-name="uni1E5C" unicode="&#x1e5c;" horiz-adv-x="592" 
d="M153 759h277v-42h-277v42zM75 644h269q98 0 145 -50.5t47 -141.5q0 -75 -36 -122t-106 -60q21 -10 31.5 -24.5t24.5 -44.5l86 -201h-56l-85 194q-11 25 -23 38t-33 19.5t-58 6.5h-151v-258h-55v644zM328 302q153 0 153 150q0 147 -141 147h-210v-297h198zM266 -95h59v-57
h-59v57z" />
    <glyph glyph-name="uni1E5E" unicode="&#x1e5e;" horiz-adv-x="592" 
d="M75 644h269q98 0 145 -50.5t47 -141.5q0 -75 -36 -122t-106 -60q21 -10 31.5 -24.5t24.5 -44.5l86 -201h-56l-85 194q-11 25 -23 38t-33 19.5t-58 6.5h-151v-258h-55v644zM328 302q153 0 153 150q0 147 -141 147h-210v-297h198zM149 -74h277v-42h-277v42z" />
    <glyph glyph-name="S" unicode="S" horiz-adv-x="553" 
d="M71 18v49q82 -30 183 -30q96 0 143 30t47 97q0 41 -18.5 67t-59 43.5t-113.5 33.5q-109 24 -153.5 64t-44.5 109q0 81 58 127t173 46q50 0 97.5 -7.5t75.5 -16.5v-49q-72 25 -162 25q-93 0 -140.5 -30t-47.5 -95q0 -37 16.5 -60t54.5 -39.5t112 -33.5q115 -27 160.5 -70
t45.5 -114q0 -86 -61 -130t-179 -44q-116 0 -187 28z" />
    <glyph glyph-name="Sacute" unicode="&#x15a;" horiz-adv-x="553" 
d="M306 852h52l-74 -158h-45zM71 18v49q82 -30 183 -30q96 0 143 30t47 97q0 41 -18.5 67t-59 43.5t-113.5 33.5q-109 24 -153.5 64t-44.5 109q0 81 58 127t173 46q50 0 97.5 -7.5t75.5 -16.5v-49q-72 25 -162 25q-93 0 -140.5 -30t-47.5 -95q0 -37 16.5 -60t54.5 -39.5
t112 -33.5q115 -27 160.5 -70t45.5 -114q0 -86 -61 -130t-179 -44q-116 0 -187 28z" />
    <glyph glyph-name="Scaron" unicode="&#x160;" horiz-adv-x="553" 
d="M162 822h50l79 -103l79 103h50l-105 -135h-48zM71 18v49q82 -30 183 -30q96 0 143 30t47 97q0 41 -18.5 67t-59 43.5t-113.5 33.5q-109 24 -153.5 64t-44.5 109q0 81 58 127t173 46q50 0 97.5 -7.5t75.5 -16.5v-49q-72 25 -162 25q-93 0 -140.5 -30t-47.5 -95
q0 -37 16.5 -60t54.5 -39.5t112 -33.5q115 -27 160.5 -70t45.5 -114q0 -86 -61 -130t-179 -44q-116 0 -187 28z" />
    <glyph glyph-name="Scedilla" unicode="&#x15e;" horiz-adv-x="553" 
d="M444.5 39.5q-53.5 -43.5 -157.5 -48.5l-14 -42q56 0 85 -22.5t29 -65.5q0 -50 -33.5 -75.5t-105.5 -25.5q-15 0 -34.5 2.5t-31.5 5.5v37q29 -8 63 -8q52 0 75.5 14.5t23.5 49.5q0 31 -21.5 43t-70.5 12h-33l25 74q-107 1 -173 28v49q82 -30 183 -30q96 0 143 30t47 97
q0 41 -18.5 67t-59 43.5t-113.5 33.5q-109 24 -153.5 64t-44.5 109q0 81 58 127t173 46q50 0 97.5 -7.5t75.5 -16.5v-49q-72 25 -162 25q-93 0 -140.5 -30t-47.5 -95q0 -37 16.5 -60t54.5 -39.5t112 -33.5q115 -27 160.5 -70t45.5 -114q0 -81 -53.5 -124.5z" />
    <glyph glyph-name="Scircumflex" unicode="&#x15c;" horiz-adv-x="553" 
d="M252 838h48l105 -135h-50l-79 103l-79 -103h-50zM71 18v49q82 -30 183 -30q96 0 143 30t47 97q0 41 -18.5 67t-59 43.5t-113.5 33.5q-109 24 -153.5 64t-44.5 109q0 81 58 127t173 46q50 0 97.5 -7.5t75.5 -16.5v-49q-72 25 -162 25q-93 0 -140.5 -30t-47.5 -95
q0 -37 16.5 -60t54.5 -39.5t112 -33.5q115 -27 160.5 -70t45.5 -114q0 -86 -61 -130t-179 -44q-116 0 -187 28z" />
    <glyph glyph-name="Scommaaccent" unicode="&#x218;" horiz-adv-x="553" 
d="M71 18v49q82 -30 183 -30q96 0 143 30t47 97q0 41 -18.5 67t-59 43.5t-113.5 33.5q-109 24 -153.5 64t-44.5 109q0 81 58 127t173 46q50 0 97.5 -7.5t75.5 -16.5v-49q-72 25 -162 25q-93 0 -140.5 -30t-47.5 -95q0 -37 16.5 -60t54.5 -39.5t112 -33.5q115 -27 160.5 -70
t45.5 -114q0 -86 -61 -130t-179 -44q-116 0 -187 28zM246 -55h54l-37 -160h-43z" />
    <glyph glyph-name="uni1E60" unicode="&#x1e60;" horiz-adv-x="553" 
d="M246 770h57v-56h-57v56zM71 18v49q82 -30 183 -30q96 0 143 30t47 97q0 41 -18.5 67t-59 43.5t-113.5 33.5q-109 24 -153.5 64t-44.5 109q0 81 58 127t173 46q50 0 97.5 -7.5t75.5 -16.5v-49q-72 25 -162 25q-93 0 -140.5 -30t-47.5 -95q0 -37 16.5 -60t54.5 -39.5
t112 -33.5q115 -27 160.5 -70t45.5 -114q0 -86 -61 -130t-179 -44q-116 0 -187 28z" />
    <glyph glyph-name="uni1E62" unicode="&#x1e62;" horiz-adv-x="553" 
d="M71 18v49q82 -30 183 -30q96 0 143 30t47 97q0 41 -18.5 67t-59 43.5t-113.5 33.5q-109 24 -153.5 64t-44.5 109q0 81 58 127t173 46q50 0 97.5 -7.5t75.5 -16.5v-49q-72 25 -162 25q-93 0 -140.5 -30t-47.5 -95q0 -37 16.5 -60t54.5 -39.5t112 -33.5q115 -27 160.5 -70
t45.5 -114q0 -86 -61 -130t-179 -44q-116 0 -187 28zM239 -95h59v-57h-59v57z" />
    <glyph glyph-name="uni1E9E" unicode="&#x1e9e;" horiz-adv-x="618" 
d="M225 12v48q54 -23 138 -23q73 0 109 35.5t36 107.5q0 64 -31.5 93t-106.5 29h-100v53l207 129q0 56 -41 89t-131 33q-92 0 -136 -39.5t-44 -124.5v-442h-55v444q0 103 61 156.5t174 53.5q114 0 169.5 -51.5t55.5 -136.5l-197 -121h58q84 0 128 -43.5t44 -122.5
q0 -91 -50 -140t-144 -49q-89 0 -144 22z" />
    <glyph glyph-name="uni018F" unicode="&#x18f;" horiz-adv-x="662" 
d="M119.5 60.5q-64.5 70.5 -64.5 186.5v104h501q-3 89 -31 145t-89.5 84t-165.5 28q-89 0 -174 -35v46q41 16 90 25.5t96 9.5q171 0 248 -82t77 -256q0 -158 -70 -242t-222 -84q-131 0 -195.5 70.5zM498 103.5q58 68.5 58 204.5h-451v-67q0 -100 54 -153t156 -53
q125 0 183 68.5z" />
    <glyph glyph-name="T" unicode="T" horiz-adv-x="569" 
d="M257 599h-222v45h499v-45h-222v-599h-55v599z" />
    <glyph glyph-name="Tbar" unicode="&#x166;" horiz-adv-x="569" 
d="M257 333h-160v44h160v222h-222v45h499v-45h-222v-222h143v-44h-143v-333h-55v333z" />
    <glyph glyph-name="Tcaron" unicode="&#x164;" horiz-adv-x="569" 
d="M155 838h50l79 -103l79 103h50l-105 -135h-48zM257 599h-222v45h499v-45h-222v-599h-55v599z" />
    <glyph glyph-name="uni0162" unicode="&#x162;" horiz-adv-x="569" 
d="M305 0l-17 -51q56 0 85 -22.5t29 -65.5q0 -50 -33.5 -75.5t-105.5 -25.5q-15 0 -34.5 2.5t-31.5 5.5v37q29 -8 63 -8q52 0 75.5 14.5t23.5 49.5q0 31 -21.5 43t-70.5 12h-33l28 84h-5v599h-222v45h499v-45h-222v-599h-7z" />
    <glyph glyph-name="uni021A" unicode="&#x21a;" horiz-adv-x="569" 
d="M257 599h-222v45h499v-45h-222v-599h-55v599zM258 -40h53l-38 -165h-41z" />
    <glyph glyph-name="uni1E6C" unicode="&#x1e6c;" horiz-adv-x="569" 
d="M257 599h-222v45h499v-45h-222v-599h-55v599zM255 -93h59v-57h-59v57z" />
    <glyph glyph-name="uni1E6E" unicode="&#x1e6e;" horiz-adv-x="569" 
d="M257 599h-222v45h499v-45h-222v-599h-55v599zM146 -72h277v-42h-277v42z" />
    <glyph glyph-name="U" unicode="U" horiz-adv-x="663" 
d="M136 52q-66 62 -66 181v411h55v-417q0 -94 53.5 -141.5t153.5 -47.5q99 0 152.5 47.5t53.5 141.5v417h55v-411q0 -119 -65.5 -181t-195.5 -62t-196 62z" />
    <glyph glyph-name="Uacute" unicode="&#xda;" horiz-adv-x="663" 
d="M368 846h52l-74 -158h-45zM136 52q-66 62 -66 181v411h55v-417q0 -94 53.5 -141.5t153.5 -47.5q99 0 152.5 47.5t53.5 141.5v417h55v-411q0 -119 -65.5 -181t-195.5 -62t-196 62z" />
    <glyph glyph-name="Ubreve" unicode="&#x16c;" horiz-adv-x="663" 
d="M250.5 718q-30.5 31 -30.5 80h42q0 -34 19 -53t50 -19q32 0 51 19t19 53h42q0 -49 -30.5 -80t-81.5 -31q-50 0 -80.5 31zM136 52q-66 62 -66 181v411h55v-417q0 -94 53.5 -141.5t153.5 -47.5q99 0 152.5 47.5t53.5 141.5v417h55v-411q0 -119 -65.5 -181t-195.5 -62
t-196 62z" />
    <glyph glyph-name="uni01D3" unicode="&#x1d3;" horiz-adv-x="663" 
d="M202 822h50l79 -103l79 103h50l-105 -135h-48zM136 52q-66 62 -66 181v411h55v-417q0 -94 53.5 -141.5t153.5 -47.5q99 0 152.5 47.5t53.5 141.5v417h55v-411q0 -119 -65.5 -181t-195.5 -62t-196 62z" />
    <glyph glyph-name="Ucircumflex" unicode="&#xdb;" horiz-adv-x="663" 
d="M307 822h48l105 -135h-50l-79 103l-79 -103h-50zM136 52q-66 62 -66 181v411h55v-417q0 -94 53.5 -141.5t153.5 -47.5q99 0 152.5 47.5t53.5 141.5v417h55v-411q0 -119 -65.5 -181t-195.5 -62t-196 62z" />
    <glyph glyph-name="Udieresis" unicode="&#xdc;" horiz-adv-x="663" 
d="M213 769h57v-55h-57v55zM380 769h56v-55h-56v55zM136 52q-66 62 -66 181v411h55v-417q0 -94 53.5 -141.5t153.5 -47.5q99 0 152.5 47.5t53.5 141.5v417h55v-411q0 -119 -65.5 -181t-195.5 -62t-196 62z" />
    <glyph glyph-name="uni01D7" unicode="&#x1d7;" horiz-adv-x="663" 
d="M365 881h51l-66 -117h-45zM212 742h57v-55h-57v55zM389 742h56v-55h-56v55zM136 52q-66 62 -66 181v411h55v-417q0 -94 53.5 -141.5t153.5 -47.5q99 0 152.5 47.5t53.5 141.5v417h55v-411q0 -119 -65.5 -181t-195.5 -62t-196 62z" />
    <glyph glyph-name="uni01D9" unicode="&#x1d9;" horiz-adv-x="663" 
d="M204 874h49l78 -85l78 85h49l-103 -110h-48zM212 742h57v-55h-57v55zM389 742h56v-55h-56v55zM136 52q-66 62 -66 181v411h55v-417q0 -94 53.5 -141.5t153.5 -47.5q99 0 152.5 47.5t53.5 141.5v417h55v-411q0 -119 -65.5 -181t-195.5 -62t-196 62z" />
    <glyph glyph-name="uni01DB" unicode="&#x1db;" horiz-adv-x="663" 
d="M244 881h51l60 -117h-45zM215 742h56v-55h-56v55zM391 742h57v-55h-57v55zM136 52q-66 62 -66 181v411h55v-417q0 -94 53.5 -141.5t153.5 -47.5q99 0 152.5 47.5t53.5 141.5v417h55v-411q0 -119 -65.5 -181t-195.5 -62t-196 62z" />
    <glyph glyph-name="uni01D5" unicode="&#x1d5;" horiz-adv-x="663" 
d="M193 861h277v-42h-277v42zM220 766h57v-55h-57v55zM387 766h56v-55h-56v55zM136 52q-66 62 -66 181v411h55v-417q0 -94 53.5 -141.5t153.5 -47.5q99 0 152.5 47.5t53.5 141.5v417h55v-411q0 -119 -65.5 -181t-195.5 -62t-196 62z" />
    <glyph glyph-name="uni1EE4" unicode="&#x1ee4;" horiz-adv-x="663" 
d="M136 52q-66 62 -66 181v411h55v-417q0 -94 53.5 -141.5t153.5 -47.5q99 0 152.5 47.5t53.5 141.5v417h55v-411q0 -119 -65.5 -181t-195.5 -62t-196 62zM302 -95h59v-57h-59v57z" />
    <glyph glyph-name="Ugrave" unicode="&#xd9;" horiz-adv-x="663" 
d="M255 846h52l67 -158h-45zM136 52q-66 62 -66 181v411h55v-417q0 -94 53.5 -141.5t153.5 -47.5q99 0 152.5 47.5t53.5 141.5v417h55v-411q0 -119 -65.5 -181t-195.5 -62t-196 62z" />
    <glyph glyph-name="uni1EE6" unicode="&#x1ee6;" horiz-adv-x="663" 
d="M305 767q39 2 59.5 8.5t27.5 18.5t7 32q0 27 -20 40t-63 13q-16 0 -35 -3.5t-32 -8.5v38q13 5 35.5 8.5t41.5 3.5q57 0 86.5 -23t29.5 -65q0 -41 -20.5 -62.5t-69.5 -26.5v-52h-47v79zM136 52q-66 62 -66 181v411h55v-417q0 -94 53.5 -141.5t153.5 -47.5q99 0 152.5 47.5
t53.5 141.5v417h55v-411q0 -119 -65.5 -181t-195.5 -62t-196 62z" />
    <glyph glyph-name="Uhorn" unicode="&#x1af;" horiz-adv-x="785" 
d="M136 52q-66 62 -66 181v411h55v-417q0 -94 53.5 -141.5t153.5 -47.5q99 0 152.5 47.5t53.5 141.5v417h55v-80q42 0 65.5 11.5t33.5 38t10 74.5h48q0 -93 -38.5 -130.5t-118.5 -38.5v-286q0 -119 -65.5 -181t-195.5 -62t-196 62z" />
    <glyph glyph-name="uni1EE8" unicode="&#x1ee8;" horiz-adv-x="785" 
d="M385 846h52l-74 -158h-45zM136 52q-66 62 -66 181v411h55v-417q0 -94 53.5 -141.5t153.5 -47.5q99 0 152.5 47.5t53.5 141.5v417h55v-80q42 0 65.5 11.5t33.5 38t10 74.5h48q0 -93 -38.5 -130.5t-118.5 -38.5v-286q0 -119 -65.5 -181t-195.5 -62t-196 62z" />
    <glyph glyph-name="uni1EF0" unicode="&#x1ef0;" horiz-adv-x="785" 
d="M136 52q-66 62 -66 181v411h55v-417q0 -94 53.5 -141.5t153.5 -47.5q99 0 152.5 47.5t53.5 141.5v417h55v-80q42 0 65.5 11.5t33.5 38t10 74.5h48q0 -93 -38.5 -130.5t-118.5 -38.5v-286q0 -119 -65.5 -181t-195.5 -62t-196 62zM299 -95h59v-57h-59v57z" />
    <glyph glyph-name="uni1EEA" unicode="&#x1eea;" horiz-adv-x="785" 
d="M245 846h52l67 -158h-45zM136 52q-66 62 -66 181v411h55v-417q0 -94 53.5 -141.5t153.5 -47.5q99 0 152.5 47.5t53.5 141.5v417h55v-80q42 0 65.5 11.5t33.5 38t10 74.5h48q0 -93 -38.5 -130.5t-118.5 -38.5v-286q0 -119 -65.5 -181t-195.5 -62t-196 62z" />
    <glyph glyph-name="uni1EEC" unicode="&#x1eec;" horiz-adv-x="785" 
d="M315 767q39 2 59.5 8.5t27.5 18.5t7 32q0 27 -20 40t-63 13q-16 0 -35 -3.5t-32 -8.5v38q13 5 35.5 8.5t41.5 3.5q57 0 86.5 -23t29.5 -65q0 -41 -20.5 -62.5t-69.5 -26.5v-52h-47v79zM136 52q-66 62 -66 181v411h55v-417q0 -94 53.5 -141.5t153.5 -47.5q99 0 152.5 47.5
t53.5 141.5v417h55v-80q42 0 65.5 11.5t33.5 38t10 74.5h48q0 -93 -38.5 -130.5t-118.5 -38.5v-286q0 -119 -65.5 -181t-195.5 -62t-196 62z" />
    <glyph glyph-name="uni1EEE" unicode="&#x1eee;" horiz-adv-x="785" 
d="M366 717q-17 5 -39 15q-40 17 -60 17q-50 0 -79 -35v47q12 13 33.5 21t44.5 8q18 0 32.5 -4.5t37.5 -14.5q20 -9 33.5 -13.5t28.5 -4.5q24 0 42 8.5t31 26.5v-47q-10 -14 -28.5 -21.5t-42.5 -7.5q-17 0 -34 5zM136 52q-66 62 -66 181v411h55v-417q0 -94 53.5 -141.5
t153.5 -47.5q99 0 152.5 47.5t53.5 141.5v417h55v-80q42 0 65.5 11.5t33.5 38t10 74.5h48q0 -93 -38.5 -130.5t-118.5 -38.5v-286q0 -119 -65.5 -181t-195.5 -62t-196 62z" />
    <glyph glyph-name="Uhungarumlaut" unicode="&#x170;" horiz-adv-x="663" 
d="M242 828h54l-76 -141h-45zM441 828h54l-76 -141h-45zM136 52q-66 62 -66 181v411h55v-417q0 -94 53.5 -141.5t153.5 -47.5q99 0 152.5 47.5t53.5 141.5v417h55v-411q0 -119 -65.5 -181t-195.5 -62t-196 62z" />
    <glyph glyph-name="Umacron" unicode="&#x16a;" horiz-adv-x="663" 
d="M193 761h277v-42h-277v42zM136 52q-66 62 -66 181v411h55v-417q0 -94 53.5 -141.5t153.5 -47.5q99 0 152.5 47.5t53.5 141.5v417h55v-411q0 -119 -65.5 -181t-195.5 -62t-196 62z" />
    <glyph glyph-name="Uogonek" unicode="&#x172;" horiz-adv-x="663" 
d="M593 644v-411q0 -110 -55.5 -171t-166.5 -70q-63 -54 -63 -120q0 -27 12.5 -39t40.5 -12q13 0 27 3t23 8v-41q-21 -11 -59 -11q-41 0 -66 20.5t-25 65.5q0 35 17 68t45 56q-126 2 -189.5 64t-63.5 179v411h55v-417q0 -94 53.5 -141.5t153.5 -47.5q99 0 152.5 47.5
t53.5 141.5v417h55z" />
    <glyph glyph-name="Uring" unicode="&#x16e;" horiz-adv-x="663" 
d="M258 716.5q-29 29.5 -29 71.5q0 43 29 72.5t73 29.5q45 0 74 -29.5t29 -72.5q0 -42 -29 -71.5t-74 -29.5q-44 0 -73 29.5zM378.5 741.5q18.5 18.5 18.5 46.5q0 29 -18.5 47.5t-47.5 18.5q-28 0 -47 -18.5t-19 -47.5q0 -28 19 -46.5t47 -18.5q29 0 47.5 18.5zM136 52
q-66 62 -66 181v411h55v-417q0 -94 53.5 -141.5t153.5 -47.5q99 0 152.5 47.5t53.5 141.5v417h55v-411q0 -119 -65.5 -181t-195.5 -62t-196 62z" />
    <glyph glyph-name="Utilde" unicode="&#x168;" horiz-adv-x="663" 
d="M368 718q-17 5 -39 15q-40 17 -60 17q-50 0 -79 -35v47q12 13 33.5 21t44.5 8q18 0 32.5 -4.5t37.5 -14.5q20 -9 33.5 -13.5t28.5 -4.5q24 0 42 8.5t31 26.5v-47q-10 -14 -28.5 -21.5t-42.5 -7.5q-17 0 -34 5zM136 52q-66 62 -66 181v411h55v-417q0 -94 53.5 -141.5
t153.5 -47.5q99 0 152.5 47.5t53.5 141.5v417h55v-411q0 -119 -65.5 -181t-195.5 -62t-196 62z" />
    <glyph glyph-name="V" unicode="V" horiz-adv-x="668" 
d="M55 644h57l222 -595l222 595h57l-243 -644h-72z" />
    <glyph glyph-name="W" unicode="W" horiz-adv-x="850" 
d="M55 644h55l133 -577l156 512v65h45l163 -577l134 577h54l-149 -644h-66l-149 530l-159 -530h-67z" />
    <glyph glyph-name="Wacute" unicode="&#x1e82;" horiz-adv-x="850" 
d="M476 846h52l-74 -158h-45zM55 644h55l133 -577l156 512v65h45l163 -577l134 577h54l-149 -644h-66l-149 530l-159 -530h-67z" />
    <glyph glyph-name="Wcircumflex" unicode="&#x174;" horiz-adv-x="850" 
d="M406 822h48l105 -135h-50l-79 103l-79 -103h-50zM55 644h55l133 -577l156 512v65h45l163 -577l134 577h54l-149 -644h-66l-149 530l-159 -530h-67z" />
    <glyph glyph-name="Wdieresis" unicode="&#x1e84;" horiz-adv-x="850" 
d="M319 767h57v-55h-57v55zM486 767h56v-55h-56v55zM55 644h55l133 -577l156 512v65h45l163 -577l134 577h54l-149 -644h-66l-149 530l-159 -530h-67z" />
    <glyph glyph-name="Wgrave" unicode="&#x1e80;" horiz-adv-x="850" 
d="M327 846h52l67 -158h-45zM55 644h55l133 -577l156 512v65h45l163 -577l134 577h54l-149 -644h-66l-149 530l-159 -530h-67z" />
    <glyph glyph-name="X" unicode="X" horiz-adv-x="624" 
d="M279 318l-223 326h62l194 -287l194 287h61l-223 -326l225 -318h-62l-195 278l-195 -278h-62z" />
    <glyph glyph-name="Y" unicode="Y" horiz-adv-x="624" 
d="M284 241l-229 403h57l200 -355l200 355h57l-230 -403v-241h-55v241z" />
    <glyph glyph-name="Yacute" unicode="&#xdd;" horiz-adv-x="624" 
d="M343 846h52l-74 -158h-45zM284 241l-229 403h57l200 -355l200 355h57l-230 -403v-241h-55v241z" />
    <glyph glyph-name="Ycircumflex" unicode="&#x176;" horiz-adv-x="624" 
d="M287 822h48l105 -135h-50l-79 103l-79 -103h-50zM284 241l-229 403h57l200 -355l200 355h57l-230 -403v-241h-55v241z" />
    <glyph glyph-name="Ydieresis" unicode="&#x178;" horiz-adv-x="624" 
d="M201 769h57v-55h-57v55zM368 769h56v-55h-56v55zM284 241l-229 403h57l200 -355l200 355h57l-230 -403v-241h-55v241z" />
    <glyph glyph-name="uni1E8E" unicode="&#x1e8e;" horiz-adv-x="624" 
d="M283 770h57v-56h-57v56zM284 241l-229 403h57l200 -355l200 355h57l-230 -403v-241h-55v241z" />
    <glyph glyph-name="uni1EF4" unicode="&#x1ef4;" horiz-adv-x="624" 
d="M284 241l-229 403h57l200 -355l200 355h57l-230 -403v-241h-55v241zM283 -78h59v-57h-59v57z" />
    <glyph glyph-name="Ygrave" unicode="&#x1ef2;" horiz-adv-x="624" 
d="M229 846h52l67 -158h-45zM284 241l-229 403h57l200 -355l200 355h57l-230 -403v-241h-55v241z" />
    <glyph glyph-name="uni1EF6" unicode="&#x1ef6;" horiz-adv-x="624" 
d="M277 767q39 2 59.5 8.5t27.5 18.5t7 32q0 27 -20 40t-63 13q-16 0 -35 -3.5t-32 -8.5v38q13 5 35.5 8.5t41.5 3.5q57 0 86.5 -23t29.5 -65q0 -41 -20.5 -62.5t-69.5 -26.5v-52h-47v79zM284 241l-229 403h57l200 -355l200 355h57l-230 -403v-241h-55v241z" />
    <glyph glyph-name="uni1EF8" unicode="&#x1ef8;" horiz-adv-x="624" 
d="M349 718q-17 5 -39 15q-40 17 -60 17q-50 0 -79 -35v47q12 13 33.5 21t44.5 8q18 0 32.5 -4.5t37.5 -14.5q20 -9 33.5 -13.5t28.5 -4.5q24 0 42 8.5t31 26.5v-47q-10 -14 -28.5 -21.5t-42.5 -7.5q-17 0 -34 5zM284 241l-229 403h57l200 -355l200 355h57l-230 -403v-241
h-55v241z" />
    <glyph glyph-name="Z" unicode="Z" horiz-adv-x="568" 
d="M55 34l390 565h-373v45h441v-39l-387 -561h392v-44h-463v34z" />
    <glyph glyph-name="Zacute" unicode="&#x179;" horiz-adv-x="568" 
d="M346 846h52l-74 -158h-45zM55 34l390 565h-373v45h441v-39l-387 -561h392v-44h-463v34z" />
    <glyph glyph-name="Zcaron" unicode="&#x17d;" horiz-adv-x="568" 
d="M178 822h50l79 -103l79 103h50l-105 -135h-48zM55 34l390 565h-373v45h441v-39l-387 -561h392v-44h-463v34z" />
    <glyph glyph-name="Zdotaccent" unicode="&#x17b;" horiz-adv-x="568" 
d="M271 770h57v-56h-57v56zM55 34l390 565h-373v45h441v-39l-387 -561h392v-44h-463v34z" />
    <glyph glyph-name="uni1E92" unicode="&#x1e92;" horiz-adv-x="568" 
d="M55 34l390 565h-373v45h441v-39l-387 -561h392v-44h-463v34zM261 -95h59v-57h-59v57z" />
    <glyph glyph-name="a" unicode="a" horiz-adv-x="531" 
d="M101.5 24q-46.5 34 -46.5 102q0 67 42 104.5t134 37.5h177v45q0 47 -12 73.5t-44 38.5t-92 12q-78 0 -151 -26v47q67 26 161 26q99 0 145 -40t46 -130v-314h-45l-5 59q-33 -36 -78.5 -52.5t-112.5 -16.5q-72 0 -118.5 34zM408 110v114h-175q-68 0 -96 -24t-28 -74
q0 -48 32 -69t93 -21q111 0 174 74z" />
    <glyph glyph-name="aacute" unicode="&#xe1;" horiz-adv-x="531" 
d="M319 680h52l-74 -158h-45zM101.5 24q-46.5 34 -46.5 102q0 67 42 104.5t134 37.5h177v45q0 47 -12 73.5t-44 38.5t-92 12q-78 0 -151 -26v47q67 26 161 26q99 0 145 -40t46 -130v-314h-45l-5 59q-33 -36 -78.5 -52.5t-112.5 -16.5q-72 0 -118.5 34zM408 110v114h-175
q-68 0 -96 -24t-28 -74q0 -48 32 -69t93 -21q111 0 174 74z" />
    <glyph glyph-name="abreve" unicode="&#x103;" horiz-adv-x="531" 
d="M204.5 552q-30.5 31 -30.5 80h42q0 -34 19 -53t50 -19q32 0 51 19t19 53h42q0 -49 -30.5 -80t-81.5 -31q-50 0 -80.5 31zM101.5 24q-46.5 34 -46.5 102q0 67 42 104.5t134 37.5h177v45q0 47 -12 73.5t-44 38.5t-92 12q-78 0 -151 -26v47q67 26 161 26q99 0 145 -40
t46 -130v-314h-45l-5 59q-33 -36 -78.5 -52.5t-112.5 -16.5q-72 0 -118.5 34zM408 110v114h-175q-68 0 -96 -24t-28 -74q0 -48 32 -69t93 -21q111 0 174 74z" />
    <glyph glyph-name="uni1EAF" unicode="&#x1eaf;" horiz-adv-x="531" 
d="M316 737h47l-66 -117h-41zM188 554q-39 32 -39 100h39q0 -48 27 -72t73 -24t73 24t27 72h38q0 -68 -39 -100t-99 -32q-61 0 -100 32zM101.5 24q-46.5 34 -46.5 102q0 67 42 104.5t134 37.5h177v45q0 47 -12 73.5t-44 38.5t-92 12q-78 0 -151 -26v47q67 26 161 26
q99 0 145 -40t46 -130v-314h-45l-5 59q-33 -36 -78.5 -52.5t-112.5 -16.5q-72 0 -118.5 34zM408 110v114h-175q-68 0 -96 -24t-28 -74q0 -48 32 -69t93 -21q111 0 174 74z" />
    <glyph glyph-name="uni1EB7" unicode="&#x1eb7;" horiz-adv-x="531" 
d="M198.5 552q-30.5 31 -30.5 80h42q0 -34 19 -53t50 -19q32 0 51 19t19 53h42q0 -49 -30.5 -80t-81.5 -31q-50 0 -80.5 31zM101.5 24q-46.5 34 -46.5 102q0 67 42 104.5t134 37.5h177v45q0 47 -12 73.5t-44 38.5t-92 12q-78 0 -151 -26v47q67 26 161 26q99 0 145 -40
t46 -130v-314h-45l-5 59q-33 -36 -78.5 -52.5t-112.5 -16.5q-72 0 -118.5 34zM408 110v114h-175q-68 0 -96 -24t-28 -74q0 -48 32 -69t93 -21q111 0 174 74zM251 -95h59v-57h-59v57z" />
    <glyph glyph-name="uni1EB1" unicode="&#x1eb1;" horiz-adv-x="531" 
d="M204 737h47l59 -117h-40zM179 554q-39 32 -39 100h39q0 -48 27 -72t73 -24t73 24t27 72h38q0 -68 -39 -100t-99 -32q-61 0 -100 32zM101.5 24q-46.5 34 -46.5 102q0 67 42 104.5t134 37.5h177v45q0 47 -12 73.5t-44 38.5t-92 12q-78 0 -151 -26v47q67 26 161 26
q99 0 145 -40t46 -130v-314h-45l-5 59q-33 -36 -78.5 -52.5t-112.5 -16.5q-72 0 -118.5 34zM408 110v114h-175q-68 0 -96 -24t-28 -74q0 -48 32 -69t93 -21q111 0 174 74z" />
    <glyph glyph-name="uni1EB3" unicode="&#x1eb3;" horiz-adv-x="531" 
d="M244 667q49 2 66 13t17 34q0 42 -54 42q-30 0 -59 -13v33q31 12 67 12q41 0 64 -18.5t23 -52.5q0 -32 -18.5 -49t-61.5 -23v-35h-44v57zM179 554q-39 32 -39 100h39q0 -48 27 -72t73 -24t73 24t27 72h38q0 -68 -39 -100t-99 -32q-61 0 -100 32zM101.5 24
q-46.5 34 -46.5 102q0 67 42 104.5t134 37.5h177v45q0 47 -12 73.5t-44 38.5t-92 12q-78 0 -151 -26v47q67 26 161 26q99 0 145 -40t46 -130v-314h-45l-5 59q-33 -36 -78.5 -52.5t-112.5 -16.5q-72 0 -118.5 34zM408 110v114h-175q-68 0 -96 -24t-28 -74q0 -48 32 -69
t93 -21q111 0 174 74z" />
    <glyph glyph-name="uni1EB5" unicode="&#x1eb5;" horiz-adv-x="531" 
d="M310.5 686.5q-14.5 4.5 -35.5 13.5q-18 8 -30 12t-24 4q-23 0 -41 -7t-34 -25v43q12 13 32 20t41 7q17 0 32 -4.5t33 -13.5q18 -8 30.5 -12t26.5 -4q23 0 40.5 7.5t31.5 25.5v-44q-10 -13 -29 -20t-42 -7q-17 0 -31.5 4.5zM180 554q-39 32 -39 100h39q0 -48 27 -72
t73 -24t73 24t27 72h38q0 -68 -39 -100t-99 -32q-61 0 -100 32zM101.5 24q-46.5 34 -46.5 102q0 67 42 104.5t134 37.5h177v45q0 47 -12 73.5t-44 38.5t-92 12q-78 0 -151 -26v47q67 26 161 26q99 0 145 -40t46 -130v-314h-45l-5 59q-33 -36 -78.5 -52.5t-112.5 -16.5
q-72 0 -118.5 34zM408 110v114h-175q-68 0 -96 -24t-28 -74q0 -48 32 -69t93 -21q111 0 174 74z" />
    <glyph glyph-name="uni01CE" unicode="&#x1ce;" horiz-adv-x="531" 
d="M147 656h50l79 -103l79 103h50l-105 -135h-48zM101.5 24q-46.5 34 -46.5 102q0 67 42 104.5t134 37.5h177v45q0 47 -12 73.5t-44 38.5t-92 12q-78 0 -151 -26v47q67 26 161 26q99 0 145 -40t46 -130v-314h-45l-5 59q-33 -36 -78.5 -52.5t-112.5 -16.5q-72 0 -118.5 34z
M408 110v114h-175q-68 0 -96 -24t-28 -74q0 -48 32 -69t93 -21q111 0 174 74z" />
    <glyph glyph-name="acircumflex" unicode="&#xe2;" horiz-adv-x="531" 
d="M254 656h48l105 -135h-50l-79 103l-79 -103h-50zM101.5 24q-46.5 34 -46.5 102q0 67 42 104.5t134 37.5h177v45q0 47 -12 73.5t-44 38.5t-92 12q-78 0 -151 -26v47q67 26 161 26q99 0 145 -40t46 -130v-314h-45l-5 59q-33 -36 -78.5 -52.5t-112.5 -16.5q-72 0 -118.5 34z
M408 110v114h-175q-68 0 -96 -24t-28 -74q0 -48 32 -69t93 -21q111 0 174 74z" />
    <glyph glyph-name="uni1EA5" unicode="&#x1ea5;" horiz-adv-x="531" 
d="M410 744h47l-66 -117h-41zM257 631h48l103 -110h-49l-78 85l-78 -85h-49zM101.5 24q-46.5 34 -46.5 102q0 67 42 104.5t134 37.5h177v45q0 47 -12 73.5t-44 38.5t-92 12q-78 0 -151 -26v47q67 26 161 26q99 0 145 -40t46 -130v-314h-45l-5 59q-33 -36 -78.5 -52.5
t-112.5 -16.5q-72 0 -118.5 34zM408 110v114h-175q-68 0 -96 -24t-28 -74q0 -48 32 -69t93 -21q111 0 174 74z" />
    <glyph glyph-name="uni1EAD" unicode="&#x1ead;" horiz-adv-x="531" 
d="M252 656h48l105 -135h-50l-79 103l-79 -103h-50zM101.5 24q-46.5 34 -46.5 102q0 67 42 104.5t134 37.5h177v45q0 47 -12 73.5t-44 38.5t-92 12q-78 0 -151 -26v47q67 26 161 26q99 0 145 -40t46 -130v-314h-45l-5 59q-33 -36 -78.5 -52.5t-112.5 -16.5q-72 0 -118.5 34z
M408 110v114h-175q-68 0 -96 -24t-28 -74q0 -48 32 -69t93 -21q111 0 174 74zM247 -95h59v-57h-59v57z" />
    <glyph glyph-name="uni1EA7" unicode="&#x1ea7;" horiz-adv-x="531" 
d="M97 744h47l59 -117h-40zM249 631h48l103 -110h-50l-77 85l-78 -85h-49zM101.5 24q-46.5 34 -46.5 102q0 67 42 104.5t134 37.5h177v45q0 47 -12 73.5t-44 38.5t-92 12q-78 0 -151 -26v47q67 26 161 26q99 0 145 -40t46 -130v-314h-45l-5 59q-33 -36 -78.5 -52.5
t-112.5 -16.5q-72 0 -118.5 34zM408 110v114h-175q-68 0 -96 -24t-28 -74q0 -48 32 -69t93 -21q111 0 174 74z" />
    <glyph glyph-name="uni1EA9" unicode="&#x1ea9;" horiz-adv-x="531" 
d="M351 665q50 3 66.5 13.5t16.5 32.5q0 41 -53 41q-31 0 -59 -13v34q29 12 66 12q41 0 64.5 -19t23.5 -53q0 -32 -19 -49.5t-61 -21.5v-36h-45v59zM250 631h48l103 -110h-49l-78 85l-77 -85h-50zM101.5 24q-46.5 34 -46.5 102q0 67 42 104.5t134 37.5h177v45q0 47 -12 73.5
t-44 38.5t-92 12q-78 0 -151 -26v47q67 26 161 26q99 0 145 -40t46 -130v-314h-45l-5 59q-33 -36 -78.5 -52.5t-112.5 -16.5q-72 0 -118.5 34zM408 110v114h-175q-68 0 -96 -24t-28 -74q0 -48 32 -69t93 -21q111 0 174 74z" />
    <glyph glyph-name="uni1EAB" unicode="&#x1eab;" horiz-adv-x="531" 
d="M313.5 643.5q-14.5 4.5 -35.5 13.5q-34 15 -54 15q-23 0 -41 -7t-34 -25v44q12 12 32 19t41 7q17 0 30.5 -4t34.5 -13q18 -8 30.5 -12t26.5 -4q23 0 40.5 7.5t31.5 24.5v-44q-11 -12 -30 -19t-41 -7q-17 0 -31.5 4.5zM256 631h48l103 -110h-49l-78 85l-77 -85h-50z
M101.5 24q-46.5 34 -46.5 102q0 67 42 104.5t134 37.5h177v45q0 47 -12 73.5t-44 38.5t-92 12q-78 0 -151 -26v47q67 26 161 26q99 0 145 -40t46 -130v-314h-45l-5 59q-33 -36 -78.5 -52.5t-112.5 -16.5q-72 0 -118.5 34zM408 110v114h-175q-68 0 -96 -24t-28 -74
q0 -48 32 -69t93 -21q111 0 174 74z" />
    <glyph glyph-name="adieresis" unicode="&#xe4;" horiz-adv-x="531" 
d="M171 603h57v-55h-57v55zM338 603h56v-55h-56v55zM101.5 24q-46.5 34 -46.5 102q0 67 42 104.5t134 37.5h177v45q0 47 -12 73.5t-44 38.5t-92 12q-78 0 -151 -26v47q67 26 161 26q99 0 145 -40t46 -130v-314h-45l-5 59q-33 -36 -78.5 -52.5t-112.5 -16.5q-72 0 -118.5 34z
M408 110v114h-175q-68 0 -96 -24t-28 -74q0 -48 32 -69t93 -21q111 0 174 74z" />
    <glyph glyph-name="uni1EA1" unicode="&#x1ea1;" horiz-adv-x="531" 
d="M101.5 24q-46.5 34 -46.5 102q0 67 42 104.5t134 37.5h177v45q0 47 -12 73.5t-44 38.5t-92 12q-78 0 -151 -26v47q67 26 161 26q99 0 145 -40t46 -130v-314h-45l-5 59q-33 -36 -78.5 -52.5t-112.5 -16.5q-72 0 -118.5 34zM408 110v114h-175q-68 0 -96 -24t-28 -74
q0 -48 32 -69t93 -21q111 0 174 74zM249 -95h59v-57h-59v57z" />
    <glyph glyph-name="agrave" unicode="&#xe0;" horiz-adv-x="531" 
d="M194 680h52l67 -158h-45zM101.5 24q-46.5 34 -46.5 102q0 67 42 104.5t134 37.5h177v45q0 47 -12 73.5t-44 38.5t-92 12q-78 0 -151 -26v47q67 26 161 26q99 0 145 -40t46 -130v-314h-45l-5 59q-33 -36 -78.5 -52.5t-112.5 -16.5q-72 0 -118.5 34zM408 110v114h-175
q-68 0 -96 -24t-28 -74q0 -48 32 -69t93 -21q111 0 174 74z" />
    <glyph glyph-name="uni1EA3" unicode="&#x1ea3;" horiz-adv-x="531" 
d="M246 596q39 2 59.5 8.5t27.5 18.5t7 32q0 27 -20 40t-63 13q-16 0 -35 -3.5t-32 -8.5v38q13 5 35.5 8.5t41.5 3.5q57 0 86.5 -23t29.5 -65q0 -41 -20.5 -62.5t-69.5 -26.5v-52h-47v79zM101.5 24q-46.5 34 -46.5 102q0 67 42 104.5t134 37.5h177v45q0 47 -12 73.5
t-44 38.5t-92 12q-78 0 -151 -26v47q67 26 161 26q99 0 145 -40t46 -130v-314h-45l-5 59q-33 -36 -78.5 -52.5t-112.5 -16.5q-72 0 -118.5 34zM408 110v114h-175q-68 0 -96 -24t-28 -74q0 -48 32 -69t93 -21q111 0 174 74z" />
    <glyph glyph-name="uni0251" unicode="&#x251;" horiz-adv-x="564" 
d="M111 44q-56 54 -56 177q0 84 28 143t78.5 89.5t115.5 30.5q49 0 85 -11.5t72 -38.5v40h55v-474h-46l-5 53q-35 -33 -76 -48t-95 -15q-100 0 -156 54zM434 99v287q-30 26 -63 39t-78 13q-89 0 -136.5 -56t-47.5 -161q0 -100 41 -143t130 -43q94 0 154 64z" />
    <glyph glyph-name="amacron" unicode="&#x101;" horiz-adv-x="531" 
d="M138 591h277v-42h-277v42zM101.5 24q-46.5 34 -46.5 102q0 67 42 104.5t134 37.5h177v45q0 47 -12 73.5t-44 38.5t-92 12q-78 0 -151 -26v47q67 26 161 26q99 0 145 -40t46 -130v-314h-45l-5 59q-33 -36 -78.5 -52.5t-112.5 -16.5q-72 0 -118.5 34zM408 110v114h-175
q-68 0 -96 -24t-28 -74q0 -48 32 -69t93 -21q111 0 174 74z" />
    <glyph glyph-name="aogonek" unicode="&#x105;" horiz-adv-x="531" 
d="M365 -199.5q-25 20.5 -25 65.5q0 39 21.5 75t54.5 59l-5 59q-33 -36 -78.5 -52.5t-112.5 -16.5q-72 0 -118.5 34t-46.5 102q0 67 42 104.5t134 37.5h177v45q0 47 -12 73.5t-44 38.5t-92 12q-78 0 -151 -26v47q67 26 161 26q99 0 145 -40t46 -130v-314q-37 -27 -55.5 -60
t-18.5 -68q0 -27 12.5 -39t40.5 -12q13 0 27 3t23 8v-41q-21 -11 -59 -11q-41 0 -66 20.5zM408 110v114h-175q-68 0 -96 -24t-28 -74q0 -48 32 -69t93 -21q111 0 174 74z" />
    <glyph glyph-name="aring" unicode="&#xe5;" horiz-adv-x="531" 
d="M211 550.5q-29 29.5 -29 71.5q0 43 29 72.5t73 29.5q45 0 74 -29.5t29 -72.5q0 -42 -29 -71.5t-74 -29.5q-44 0 -73 29.5zM331.5 575.5q18.5 18.5 18.5 46.5q0 29 -18.5 47.5t-47.5 18.5q-28 0 -47 -18.5t-19 -47.5q0 -28 19 -46.5t47 -18.5q29 0 47.5 18.5zM101.5 24
q-46.5 34 -46.5 102q0 67 42 104.5t134 37.5h177v45q0 47 -12 73.5t-44 38.5t-92 12q-78 0 -151 -26v47q67 26 161 26q99 0 145 -40t46 -130v-314h-45l-5 59q-33 -36 -78.5 -52.5t-112.5 -16.5q-72 0 -118.5 34zM408 110v114h-175q-68 0 -96 -24t-28 -74q0 -48 32 -69
t93 -21q111 0 174 74z" />
    <glyph glyph-name="aringacute" unicode="&#x1fb;" horiz-adv-x="531" 
d="M319 907h52l-74 -126h-45zM204 549.5q-29 29.5 -29 71.5q0 43 29 72.5t73 29.5q45 0 74 -29.5t29 -72.5q0 -42 -29 -71.5t-74 -29.5q-44 0 -73 29.5zM324.5 574.5q18.5 18.5 18.5 46.5q0 29 -18.5 47.5t-47.5 18.5q-28 0 -47 -18.5t-19 -47.5q0 -28 19 -46.5t47 -18.5
q29 0 47.5 18.5zM101.5 24q-46.5 34 -46.5 102q0 67 42 104.5t134 37.5h177v45q0 47 -12 73.5t-44 38.5t-92 12q-78 0 -151 -26v47q67 26 161 26q99 0 145 -40t46 -130v-314h-45l-5 59q-33 -36 -78.5 -52.5t-112.5 -16.5q-72 0 -118.5 34zM408 110v114h-175q-68 0 -96 -24
t-28 -74q0 -48 32 -69t93 -21q111 0 174 74z" />
    <glyph glyph-name="atilde" unicode="&#xe3;" horiz-adv-x="531" 
d="M315 552q-17 5 -39 15q-40 17 -60 17q-50 0 -79 -35v47q12 13 33.5 21t44.5 8q18 0 32.5 -4.5t37.5 -14.5q20 -9 33.5 -13.5t28.5 -4.5q24 0 42 8.5t31 26.5v-47q-10 -14 -28.5 -21.5t-42.5 -7.5q-17 0 -34 5zM101.5 24q-46.5 34 -46.5 102q0 67 42 104.5t134 37.5h177
v45q0 47 -12 73.5t-44 38.5t-92 12q-78 0 -151 -26v47q67 26 161 26q99 0 145 -40t46 -130v-314h-45l-5 59q-33 -36 -78.5 -52.5t-112.5 -16.5q-72 0 -118.5 34zM408 110v114h-175q-68 0 -96 -24t-28 -74q0 -48 32 -69t93 -21q111 0 174 74z" />
    <glyph glyph-name="ae" unicode="&#xe6;" horiz-adv-x="879" 
d="M101.5 24q-46.5 34 -46.5 102q0 67 42 104.5t134 37.5h177v33q0 68 -33.5 102t-112.5 34q-80 0 -153 -26v47q67 26 161 26q134 0 169 -91q24 45 71 68t115 23q98 0 148.5 -53t50.5 -137v-86h-361q2 -64 22 -101.5t63 -54.5t116 -17q65 0 129 25v-45q-63 -25 -139 -25
q-84 0 -136.5 25t-78.5 79q-29 -48 -83.5 -76t-135.5 -28q-72 0 -118.5 34zM773 251v45q0 68 -36 105t-111 37q-91 0 -127 -44.5t-36 -142.5h310zM408 136v88h-175q-68 0 -96 -24t-28 -74q0 -48 32 -69t93 -21q139 0 174 100z" />
    <glyph glyph-name="aeacute" unicode="&#x1fd;" horiz-adv-x="879" 
d="M479 680h52l-74 -158h-45zM101.5 24q-46.5 34 -46.5 102q0 67 42 104.5t134 37.5h177v33q0 68 -33.5 102t-112.5 34q-80 0 -153 -26v47q67 26 161 26q134 0 169 -91q24 45 71 68t115 23q98 0 148.5 -53t50.5 -137v-86h-361q2 -64 22 -101.5t63 -54.5t116 -17q65 0 129 25
v-45q-63 -25 -139 -25q-84 0 -136.5 25t-78.5 79q-29 -48 -83.5 -76t-135.5 -28q-72 0 -118.5 34zM773 251v45q0 68 -36 105t-111 37q-91 0 -127 -44.5t-36 -142.5h310zM408 136v88h-175q-68 0 -96 -24t-28 -74q0 -48 32 -69t93 -21q139 0 174 100z" />
    <glyph glyph-name="b" unicode="b" horiz-adv-x="564" 
d="M202 5q-41 15 -76 48l-5 -53h-46v674h55v-240q69 50 167 50q212 0 212 -243q0 -127 -55 -189t-157 -62q-54 0 -95 15zM414.5 86q40.5 51 40.5 155t-42 150.5t-131 46.5q-90 0 -152 -52v-287q60 -64 154 -64q90 0 130.5 51z" />
    <glyph glyph-name="c" unicode="c" horiz-adv-x="483" 
d="M55 237q0 122 64.5 184.5t178.5 62.5q43 0 71.5 -6t57.5 -20v-45q-53 25 -120 25q-198 0 -198 -201q0 -105 45 -153.5t149 -48.5q65 0 125 26v-46q-59 -25 -138 -25q-235 0 -235 247z" />
    <glyph glyph-name="cacute" unicode="&#x107;" horiz-adv-x="483" 
d="M310 680h52l-74 -158h-45zM55 237q0 122 64.5 184.5t178.5 62.5q43 0 71.5 -6t57.5 -20v-45q-53 25 -120 25q-198 0 -198 -201q0 -105 45 -153.5t149 -48.5q65 0 125 26v-46q-59 -25 -138 -25q-235 0 -235 247z" />
    <glyph glyph-name="ccaron" unicode="&#x10d;" horiz-adv-x="483" 
d="M144 656h50l79 -103l79 103h50l-105 -135h-48zM55 237q0 122 64.5 184.5t178.5 62.5q43 0 71.5 -6t57.5 -20v-45q-53 25 -120 25q-198 0 -198 -201q0 -105 45 -153.5t149 -48.5q65 0 125 26v-46q-59 -25 -138 -25q-235 0 -235 247z" />
    <glyph glyph-name="ccedilla" unicode="&#xe7;" horiz-adv-x="483" 
d="M293 -10l-14 -41q56 0 85 -22.5t29 -65.5q0 -50 -33.5 -75.5t-105.5 -25.5q-15 0 -34.5 2.5t-31.5 5.5v37q29 -8 63 -8q52 0 75.5 14.5t23.5 49.5q0 31 -21.5 43t-70.5 12h-33l25 76q-195 20 -195 245q0 122 64.5 184.5t178.5 62.5q43 0 71.5 -6t57.5 -20v-45
q-53 25 -120 25q-198 0 -198 -201q0 -105 45 -153.5t149 -48.5q65 0 125 26v-46q-58 -25 -135 -25z" />
    <glyph glyph-name="ccircumflex" unicode="&#x109;" horiz-adv-x="483" 
d="M251 656h48l105 -135h-50l-79 103l-79 -103h-50zM55 237q0 122 64.5 184.5t178.5 62.5q43 0 71.5 -6t57.5 -20v-45q-53 25 -120 25q-198 0 -198 -201q0 -105 45 -153.5t149 -48.5q65 0 125 26v-46q-59 -25 -138 -25q-235 0 -235 247z" />
    <glyph glyph-name="cdotaccent" unicode="&#x10b;" horiz-adv-x="483" 
d="M254 604h57v-56h-57v56zM55 237q0 122 64.5 184.5t178.5 62.5q43 0 71.5 -6t57.5 -20v-45q-53 25 -120 25q-198 0 -198 -201q0 -105 45 -153.5t149 -48.5q65 0 125 26v-46q-59 -25 -138 -25q-235 0 -235 247z" />
    <glyph glyph-name="d" unicode="d" horiz-adv-x="564" 
d="M111.5 49.5q-56.5 59.5 -56.5 183.5q0 126 57 188.5t160 62.5q49 0 87.5 -11.5t74.5 -38.5v240h55v-674h-46l-5 53q-35 -33 -76 -48t-95 -15q-99 0 -155.5 59.5zM434 99v287q-60 52 -147 52q-89 0 -133.5 -50t-44.5 -155q0 -101 42 -149.5t129 -48.5q94 0 154 64z" />
    <glyph glyph-name="eth" unicode="&#xf0;" horiz-adv-x="570" 
d="M112.5 44.5q-57.5 54.5 -57.5 150.5q0 99 56 152t162 53q43 0 91 -15.5t89 -45.5v56q0 99 -32 152l-136 -60v39l112 49q-41 36 -113 36q-81 0 -141 -21v44q67 20 146 20q100 0 155 -58l96 42v-39l-74 -33q40 -65 40 -175v-160q0 -125 -56.5 -183t-169.5 -58
q-110 0 -167.5 54.5zM453 208v88q-38 28 -83 44.5t-88 16.5q-94 0 -135.5 -42t-41.5 -120q0 -77 44.5 -119.5t130.5 -42.5q173 0 173 175z" />
    <glyph glyph-name="dcaron" unicode="&#x10f;" horiz-adv-x="685" 
d="M609 708h51l-75 -161h-44zM111.5 49.5q-56.5 59.5 -56.5 183.5q0 126 57 188.5t160 62.5q49 0 87.5 -11.5t74.5 -38.5v240h55v-674h-46l-5 53q-35 -33 -76 -48t-95 -15q-99 0 -155.5 59.5zM434 99v287q-60 52 -147 52q-89 0 -133.5 -50t-44.5 -155q0 -101 42 -149.5
t129 -48.5q94 0 154 64z" />
    <glyph glyph-name="dcroat" unicode="&#x111;" horiz-adv-x="573" 
d="M111.5 49.5q-56.5 59.5 -56.5 183.5q0 126 57 188.5t160 62.5q49 0 87.5 -11.5t74.5 -38.5v122h-176v45h176v81h55v-81h59v-45h-59v-556h-46l-5 53q-35 -33 -76 -48t-95 -15q-99 0 -155.5 59.5zM434 99v287q-60 52 -147 52q-89 0 -133.5 -50t-44.5 -155q0 -101 42 -149.5
t129 -48.5q94 0 154 64z" />
    <glyph glyph-name="uni1E0D" unicode="&#x1e0d;" horiz-adv-x="564" 
d="M111.5 49.5q-56.5 59.5 -56.5 183.5q0 126 57 188.5t160 62.5q49 0 87.5 -11.5t74.5 -38.5v240h55v-674h-46l-5 53q-35 -33 -76 -48t-95 -15q-99 0 -155.5 59.5zM434 99v287q-60 52 -147 52q-89 0 -133.5 -50t-44.5 -155q0 -101 42 -149.5t129 -48.5q94 0 154 64z
M273 -95h59v-57h-59v57z" />
    <glyph glyph-name="uni1E0F" unicode="&#x1e0f;" horiz-adv-x="564" 
d="M111.5 49.5q-56.5 59.5 -56.5 183.5q0 126 57 188.5t160 62.5q49 0 87.5 -11.5t74.5 -38.5v240h55v-674h-46l-5 53q-35 -33 -76 -48t-95 -15q-99 0 -155.5 59.5zM434 99v287q-60 52 -147 52q-89 0 -133.5 -50t-44.5 -155q0 -101 42 -149.5t129 -48.5q94 0 154 64z
M153 -81h277v-42h-277v42z" />
    <glyph glyph-name="e" unicode="e" horiz-adv-x="525" 
d="M113.5 50.5q-58.5 60.5 -58.5 189.5q0 244 219 244q98 0 147 -52.5t49 -137.5v-86h-360q3 -63 23 -100.5t62.5 -55t115.5 -17.5q66 0 128 25v-45q-61 -25 -139 -25q-128 0 -186.5 60.5zM420 251v45q0 142 -145 142q-90 0 -127.5 -46.5t-37.5 -140.5h310z" />
    <glyph glyph-name="eacute" unicode="&#xe9;" horiz-adv-x="525" 
d="M306 680h52l-74 -158h-45zM113.5 50.5q-58.5 60.5 -58.5 189.5q0 244 219 244q98 0 147 -52.5t49 -137.5v-86h-360q3 -63 23 -100.5t62.5 -55t115.5 -17.5q66 0 128 25v-45q-61 -25 -139 -25q-128 0 -186.5 60.5zM420 251v45q0 142 -145 142q-90 0 -127.5 -46.5
t-37.5 -140.5h310z" />
    <glyph glyph-name="ebreve" unicode="&#x115;" horiz-adv-x="525" 
d="M191.5 552q-30.5 31 -30.5 80h42q0 -34 19 -53t50 -19q32 0 51 19t19 53h42q0 -49 -30.5 -80t-81.5 -31q-50 0 -80.5 31zM113.5 50.5q-58.5 60.5 -58.5 189.5q0 244 219 244q98 0 147 -52.5t49 -137.5v-86h-360q3 -63 23 -100.5t62.5 -55t115.5 -17.5q66 0 128 25v-45
q-61 -25 -139 -25q-128 0 -186.5 60.5zM420 251v45q0 142 -145 142q-90 0 -127.5 -46.5t-37.5 -140.5h310z" />
    <glyph glyph-name="ecaron" unicode="&#x11b;" horiz-adv-x="525" 
d="M149 656h50l79 -103l79 103h50l-105 -135h-48zM113.5 50.5q-58.5 60.5 -58.5 189.5q0 244 219 244q98 0 147 -52.5t49 -137.5v-86h-360q3 -63 23 -100.5t62.5 -55t115.5 -17.5q66 0 128 25v-45q-61 -25 -139 -25q-128 0 -186.5 60.5zM420 251v45q0 142 -145 142
q-90 0 -127.5 -46.5t-37.5 -140.5h310z" />
    <glyph glyph-name="ecircumflex" unicode="&#xea;" horiz-adv-x="525" 
d="M244 656h48l105 -135h-50l-79 103l-79 -103h-50zM113.5 50.5q-58.5 60.5 -58.5 189.5q0 244 219 244q98 0 147 -52.5t49 -137.5v-86h-360q3 -63 23 -100.5t62.5 -55t115.5 -17.5q66 0 128 25v-45q-61 -25 -139 -25q-128 0 -186.5 60.5zM420 251v45q0 142 -145 142
q-90 0 -127.5 -46.5t-37.5 -140.5h310z" />
    <glyph glyph-name="uni1EBF" unicode="&#x1ebf;" horiz-adv-x="525" 
d="M400 744h47l-66 -117h-41zM247 631h48l103 -110h-49l-78 85l-78 -85h-49zM113.5 50.5q-58.5 60.5 -58.5 189.5q0 244 219 244q98 0 147 -52.5t49 -137.5v-86h-360q3 -63 23 -100.5t62.5 -55t115.5 -17.5q66 0 128 25v-45q-61 -25 -139 -25q-128 0 -186.5 60.5zM420 251
v45q0 142 -145 142q-90 0 -127.5 -46.5t-37.5 -140.5h310z" />
    <glyph glyph-name="uni1EC7" unicode="&#x1ec7;" horiz-adv-x="525" 
d="M250 656h48l105 -135h-50l-79 103l-79 -103h-50zM113.5 50.5q-58.5 60.5 -58.5 189.5q0 244 219 244q98 0 147 -52.5t49 -137.5v-86h-360q3 -63 23 -100.5t62.5 -55t115.5 -17.5q66 0 128 25v-45q-61 -25 -139 -25q-128 0 -186.5 60.5zM420 251v45q0 142 -145 142
q-90 0 -127.5 -46.5t-37.5 -140.5h310zM245 -95h59v-57h-59v57z" />
    <glyph glyph-name="uni1EC1" unicode="&#x1ec1;" horiz-adv-x="525" 
d="M106 761h47l59 -117h-40zM258 648h48l103 -110h-50l-77 85l-78 -85h-49zM113.5 50.5q-58.5 60.5 -58.5 189.5q0 244 219 244q98 0 147 -52.5t49 -137.5v-86h-360q3 -63 23 -100.5t62.5 -55t115.5 -17.5q66 0 128 25v-45q-61 -25 -139 -25q-128 0 -186.5 60.5zM420 251v45
q0 142 -145 142q-90 0 -127.5 -46.5t-37.5 -140.5h310z" />
    <glyph glyph-name="uni1EC3" unicode="&#x1ec3;" horiz-adv-x="525" 
d="M346 665q50 3 66.5 13.5t16.5 32.5q0 41 -53 41q-31 0 -59 -13v34q29 12 66 12q41 0 64.5 -19t23.5 -53q0 -32 -19 -49.5t-61 -21.5v-36h-45v59zM245 631h48l103 -110h-49l-78 85l-77 -85h-50zM113.5 50.5q-58.5 60.5 -58.5 189.5q0 244 219 244q98 0 147 -52.5
t49 -137.5v-86h-360q3 -63 23 -100.5t62.5 -55t115.5 -17.5q66 0 128 25v-45q-61 -25 -139 -25q-128 0 -186.5 60.5zM420 251v45q0 142 -145 142q-90 0 -127.5 -46.5t-37.5 -140.5h310z" />
    <glyph glyph-name="uni1EC5" unicode="&#x1ec5;" horiz-adv-x="525" 
d="M307.5 643.5q-14.5 4.5 -35.5 13.5q-34 15 -54 15q-23 0 -41 -7t-34 -25v44q12 12 32 19t41 7q17 0 30.5 -4t34.5 -13q18 -8 30.5 -12t26.5 -4q23 0 40.5 7.5t31.5 24.5v-44q-11 -12 -30 -19t-41 -7q-17 0 -31.5 4.5zM250 631h48l103 -110h-49l-78 85l-77 -85h-50z
M113.5 50.5q-58.5 60.5 -58.5 189.5q0 244 219 244q98 0 147 -52.5t49 -137.5v-86h-360q3 -63 23 -100.5t62.5 -55t115.5 -17.5q66 0 128 25v-45q-61 -25 -139 -25q-128 0 -186.5 60.5zM420 251v45q0 142 -145 142q-90 0 -127.5 -46.5t-37.5 -140.5h310z" />
    <glyph glyph-name="edieresis" unicode="&#xeb;" horiz-adv-x="525" 
d="M155 603h57v-55h-57v55zM322 603h56v-55h-56v55zM113.5 50.5q-58.5 60.5 -58.5 189.5q0 244 219 244q98 0 147 -52.5t49 -137.5v-86h-360q3 -63 23 -100.5t62.5 -55t115.5 -17.5q66 0 128 25v-45q-61 -25 -139 -25q-128 0 -186.5 60.5zM420 251v45q0 142 -145 142
q-90 0 -127.5 -46.5t-37.5 -140.5h310z" />
    <glyph glyph-name="edotaccent" unicode="&#x117;" horiz-adv-x="525" 
d="M242 604h57v-56h-57v56zM113.5 50.5q-58.5 60.5 -58.5 189.5q0 244 219 244q98 0 147 -52.5t49 -137.5v-86h-360q3 -63 23 -100.5t62.5 -55t115.5 -17.5q66 0 128 25v-45q-61 -25 -139 -25q-128 0 -186.5 60.5zM420 251v45q0 142 -145 142q-90 0 -127.5 -46.5
t-37.5 -140.5h310z" />
    <glyph glyph-name="uni1EB9" unicode="&#x1eb9;" horiz-adv-x="525" 
d="M113.5 50.5q-58.5 60.5 -58.5 189.5q0 244 219 244q98 0 147 -52.5t49 -137.5v-86h-360q3 -63 23 -100.5t62.5 -55t115.5 -17.5q66 0 128 25v-45q-61 -25 -139 -25q-128 0 -186.5 60.5zM420 251v45q0 142 -145 142q-90 0 -127.5 -46.5t-37.5 -140.5h310zM239 -95h59v-57
h-59v57z" />
    <glyph glyph-name="egrave" unicode="&#xe8;" horiz-adv-x="525" 
d="M173 680h52l67 -158h-45zM113.5 50.5q-58.5 60.5 -58.5 189.5q0 244 219 244q98 0 147 -52.5t49 -137.5v-86h-360q3 -63 23 -100.5t62.5 -55t115.5 -17.5q66 0 128 25v-45q-61 -25 -139 -25q-128 0 -186.5 60.5zM420 251v45q0 142 -145 142q-90 0 -127.5 -46.5
t-37.5 -140.5h310z" />
    <glyph glyph-name="uni1EBB" unicode="&#x1ebb;" horiz-adv-x="525" 
d="M249 601q39 2 59.5 8.5t27.5 18.5t7 32q0 27 -20 40t-63 13q-16 0 -35 -3.5t-32 -8.5v38q13 5 35.5 8.5t41.5 3.5q57 0 86.5 -23t29.5 -65q0 -41 -20.5 -62.5t-69.5 -26.5v-52h-47v79zM113.5 50.5q-58.5 60.5 -58.5 189.5q0 244 219 244q98 0 147 -52.5t49 -137.5v-86
h-360q3 -63 23 -100.5t62.5 -55t115.5 -17.5q66 0 128 25v-45q-61 -25 -139 -25q-128 0 -186.5 60.5zM420 251v45q0 142 -145 142q-90 0 -127.5 -46.5t-37.5 -140.5h310z" />
    <glyph glyph-name="emacron" unicode="&#x113;" horiz-adv-x="525" 
d="M132 595h277v-42h-277v42zM113.5 50.5q-58.5 60.5 -58.5 189.5q0 244 219 244q98 0 147 -52.5t49 -137.5v-86h-360q3 -63 23 -100.5t62.5 -55t115.5 -17.5q66 0 128 25v-45q-61 -25 -139 -25q-128 0 -186.5 60.5zM420 251v45q0 142 -145 142q-90 0 -127.5 -46.5
t-37.5 -140.5h310z" />
    <glyph glyph-name="eogonek" unicode="&#x119;" horiz-adv-x="525" 
d="M470 208h-360q3 -63 23 -100.5t62.5 -55t115.5 -17.5q66 0 128 25v-45q-21 -8 -49 -15q-37 -27 -55.5 -60t-18.5 -68q0 -27 12.5 -39t40.5 -12q13 0 27 3t23 8v-41q-21 -11 -59 -11q-41 0 -66 20.5t-25 65.5q0 35 17.5 68t45.5 57q-10 -1 -32 -1q-128 0 -186.5 60.5
t-58.5 189.5q0 244 219 244q98 0 147 -52.5t49 -137.5v-86zM420 296q0 142 -145 142q-90 0 -127.5 -46.5t-37.5 -140.5h310v45z" />
    <glyph glyph-name="uni1EBD" unicode="&#x1ebd;" horiz-adv-x="525" 
d="M306 552q-17 5 -39 15q-40 17 -60 17q-50 0 -79 -35v47q12 13 33.5 21t44.5 8q18 0 32.5 -4.5t37.5 -14.5q20 -9 33.5 -13.5t28.5 -4.5q24 0 42 8.5t31 26.5v-47q-10 -14 -28.5 -21.5t-42.5 -7.5q-17 0 -34 5zM113.5 50.5q-58.5 60.5 -58.5 189.5q0 244 219 244
q98 0 147 -52.5t49 -137.5v-86h-360q3 -63 23 -100.5t62.5 -55t115.5 -17.5q66 0 128 25v-45q-61 -25 -139 -25q-128 0 -186.5 60.5zM420 251v45q0 142 -145 142q-90 0 -127.5 -46.5t-37.5 -140.5h310z" />
    <glyph glyph-name="f" unicode="f" horiz-adv-x="339" 
d="M108 428h-73v46h73v80q0 65 36 100.5t103 35.5q43 0 77 -13v-44q-31 11 -63 11q-55 0 -76.5 -20.5t-21.5 -68.5v-81h132l-3 -46h-129v-428h-55v428z" />
    <glyph glyph-name="g" unicode="g" horiz-adv-x="542" 
d="M71 -152v47q78 -26 182 -26q86 0 123 13.5t37 55.5q0 34 -21.5 47.5t-77.5 13.5h-129q-65 0 -96.5 20.5t-31.5 62.5q0 30 21.5 54.5t60.5 34.5q-82 33 -82 143q0 88 49 129t152 41q32 0 77 -10h167l-2 -41h-92q49 -42 49 -119q0 -166 -189 -166q-28 0 -64 6
q-40 -4 -66.5 -21.5t-26.5 -44.5q0 -22 18 -32t64 -10h133q142 0 142 -105q0 -66 -52.5 -91.5t-160.5 -25.5q-118 0 -184 24zM371 219q32 28 32 95t-33.5 97t-111.5 30t-112 -29t-34 -98q0 -65 33 -94t113 -29q81 0 113 28z" />
    <glyph glyph-name="gbreve" unicode="&#x11f;" horiz-adv-x="542" 
d="M192.5 552q-30.5 31 -30.5 80h42q0 -34 19 -53t50 -19q32 0 51 19t19 53h42q0 -49 -30.5 -80t-81.5 -31q-50 0 -80.5 31zM71 -152v47q78 -26 182 -26q86 0 123 13.5t37 55.5q0 34 -21.5 47.5t-77.5 13.5h-129q-65 0 -96.5 20.5t-31.5 62.5q0 30 21.5 54.5t60.5 34.5
q-82 33 -82 143q0 88 49 129t152 41q32 0 77 -10h167l-2 -41h-92q49 -42 49 -119q0 -166 -189 -166q-28 0 -64 6q-40 -4 -66.5 -21.5t-26.5 -44.5q0 -22 18 -32t64 -10h133q142 0 142 -105q0 -66 -52.5 -91.5t-160.5 -25.5q-118 0 -184 24zM371 219q32 28 32 95t-33.5 97
t-111.5 30t-112 -29t-34 -98q0 -65 33 -94t113 -29q81 0 113 28z" />
    <glyph glyph-name="gcaron" unicode="&#x1e7;" horiz-adv-x="542" 
d="M156 656h50l79 -103l79 103h50l-105 -135h-48zM71 -152v47q78 -26 182 -26q86 0 123 13.5t37 55.5q0 34 -21.5 47.5t-77.5 13.5h-129q-65 0 -96.5 20.5t-31.5 62.5q0 30 21.5 54.5t60.5 34.5q-82 33 -82 143q0 88 49 129t152 41q32 0 77 -10h167l-2 -41h-92
q49 -42 49 -119q0 -166 -189 -166q-28 0 -64 6q-40 -4 -66.5 -21.5t-26.5 -44.5q0 -22 18 -32t64 -10h133q142 0 142 -105q0 -66 -52.5 -91.5t-160.5 -25.5q-118 0 -184 24zM371 219q32 28 32 95t-33.5 97t-111.5 30t-112 -29t-34 -98q0 -65 33 -94t113 -29q81 0 113 28z
" />
    <glyph glyph-name="gcircumflex" unicode="&#x11d;" horiz-adv-x="542" 
d="M244 656h48l105 -135h-50l-79 103l-79 -103h-50zM71 -152v47q78 -26 182 -26q86 0 123 13.5t37 55.5q0 34 -21.5 47.5t-77.5 13.5h-129q-65 0 -96.5 20.5t-31.5 62.5q0 30 21.5 54.5t60.5 34.5q-82 33 -82 143q0 88 49 129t152 41q32 0 77 -10h167l-2 -41h-92
q49 -42 49 -119q0 -166 -189 -166q-28 0 -64 6q-40 -4 -66.5 -21.5t-26.5 -44.5q0 -22 18 -32t64 -10h133q142 0 142 -105q0 -66 -52.5 -91.5t-160.5 -25.5q-118 0 -184 24zM371 219q32 28 32 95t-33.5 97t-111.5 30t-112 -29t-34 -98q0 -65 33 -94t113 -29q81 0 113 28z
" />
    <glyph glyph-name="gcommaaccent" unicode="&#x123;" horiz-adv-x="542" 
d="M262 687h41l-26 -165h-53zM71 -152v47q78 -26 182 -26q86 0 123 13.5t37 55.5q0 34 -21.5 47.5t-77.5 13.5h-129q-65 0 -96.5 20.5t-31.5 62.5q0 30 21.5 54.5t60.5 34.5q-82 33 -82 143q0 88 49 129t152 41q32 0 77 -10h167l-2 -41h-92q49 -42 49 -119q0 -166 -189 -166
q-28 0 -64 6q-40 -4 -66.5 -21.5t-26.5 -44.5q0 -22 18 -32t64 -10h133q142 0 142 -105q0 -66 -52.5 -91.5t-160.5 -25.5q-118 0 -184 24zM371 219q32 28 32 95t-33.5 97t-111.5 30t-112 -29t-34 -98q0 -65 33 -94t113 -29q81 0 113 28z" />
    <glyph glyph-name="gdotaccent" unicode="&#x121;" horiz-adv-x="542" 
d="M240 601h57v-56h-57v56zM71 -152v47q78 -26 182 -26q86 0 123 13.5t37 55.5q0 34 -21.5 47.5t-77.5 13.5h-129q-65 0 -96.5 20.5t-31.5 62.5q0 30 21.5 54.5t60.5 34.5q-82 33 -82 143q0 88 49 129t152 41q32 0 77 -10h167l-2 -41h-92q49 -42 49 -119q0 -166 -189 -166
q-28 0 -64 6q-40 -4 -66.5 -21.5t-26.5 -44.5q0 -22 18 -32t64 -10h133q142 0 142 -105q0 -66 -52.5 -91.5t-160.5 -25.5q-118 0 -184 24zM371 219q32 28 32 95t-33.5 97t-111.5 30t-112 -29t-34 -98q0 -65 33 -94t113 -29q81 0 113 28z" />
    <glyph glyph-name="uni1E21" unicode="&#x1e21;" horiz-adv-x="542" 
d="M143 593h277v-42h-277v42zM71 -152v47q78 -26 182 -26q86 0 123 13.5t37 55.5q0 34 -21.5 47.5t-77.5 13.5h-129q-65 0 -96.5 20.5t-31.5 62.5q0 30 21.5 54.5t60.5 34.5q-82 33 -82 143q0 88 49 129t152 41q32 0 77 -10h167l-2 -41h-92q49 -42 49 -119q0 -166 -189 -166
q-28 0 -64 6q-40 -4 -66.5 -21.5t-26.5 -44.5q0 -22 18 -32t64 -10h133q142 0 142 -105q0 -66 -52.5 -91.5t-160.5 -25.5q-118 0 -184 24zM371 219q32 28 32 95t-33.5 97t-111.5 30t-112 -29t-34 -98q0 -65 33 -94t113 -29q81 0 113 28z" />
    <glyph glyph-name="h" unicode="h" horiz-adv-x="559" 
d="M75 674h55v-257q38 32 84 49.5t106 17.5q87 0 128 -41.5t41 -129.5v-313h-55v312q0 70 -30 98t-105 28q-47 0 -91.5 -19t-77.5 -51v-368h-55v674z" />
    <glyph glyph-name="hbar" unicode="&#x127;" horiz-adv-x="581" 
d="M97 548h-62v45h62v81h55v-81h175v-45h-175v-131q79 67 191 67q86 0 127 -41.5t41 -129.5v-313h-55v312q0 70 -30 98t-105 28q-47 0 -92 -19t-77 -51v-368h-55v548z" />
    <glyph glyph-name="uni1E2B" unicode="&#x1e2b;" horiz-adv-x="559" 
d="M75 674h55v-257q38 32 84 49.5t106 17.5q87 0 128 -41.5t41 -129.5v-313h-55v312q0 70 -30 98t-105 28q-47 0 -91.5 -19t-77.5 -51v-368h-55v674zM186.5 -152q-37.5 33 -37.5 97h42q0 -47 25.5 -69.5t68.5 -22.5q44 0 69.5 22.5t25.5 69.5h41q0 -64 -37.5 -97t-98.5 -33
t-98.5 33z" />
    <glyph glyph-name="hcircumflex" unicode="&#x125;" horiz-adv-x="559" 
d="M183 834h48l105 -135h-50l-79 103l-79 -103h-50zM75 674h55v-257q38 32 84 49.5t106 17.5q87 0 128 -41.5t41 -129.5v-313h-55v312q0 70 -30 98t-105 28q-47 0 -91.5 -19t-77.5 -51v-368h-55v674z" />
    <glyph glyph-name="uni1E25" unicode="&#x1e25;" horiz-adv-x="559" 
d="M75 674h55v-257q38 32 84 49.5t106 17.5q87 0 128 -41.5t41 -129.5v-313h-55v312q0 70 -30 98t-105 28q-47 0 -91.5 -19t-77.5 -51v-368h-55v674zM250 -95h59v-57h-59v57z" />
    <glyph glyph-name="i" unicode="i" horiz-adv-x="270" 
d="M132 657h63v-60h-63v60zM139 428h-74l6 46h123v-474h-55v428z" />
    <glyph glyph-name="dotlessi" unicode="&#x131;" horiz-adv-x="270" 
d="M140 428h-75l4 46h126v-474h-55v428z" />
    <glyph glyph-name="iacute" unicode="&#xed;" horiz-adv-x="270" 
d="M200 680h52l-74 -158h-45zM140 428h-75l4 46h126v-474h-55v428z" />
    <glyph glyph-name="ibreve" unicode="&#x12d;" horiz-adv-x="270" 
d="M67 551.5q-30 30.5 -30 79.5h41q0 -33 19 -52.5t50 -19.5q33 0 52 19.5t19 52.5h41q0 -49 -30.5 -79.5t-81.5 -30.5q-50 0 -80 30.5zM140 428h-75l4 46h126v-474h-55v428z" />
    <glyph glyph-name="uni01D0" unicode="&#x1d0;" horiz-adv-x="270" 
d="M29 656h50l79 -103l79 103h50l-105 -135h-48zM140 428h-75l4 46h126v-474h-55v428z" />
    <glyph glyph-name="icircumflex" unicode="&#xee;" horiz-adv-x="270" 
d="M124 656h48l105 -135h-50l-79 103l-79 -103h-50zM140 428h-75l4 46h126v-474h-55v428z" />
    <glyph glyph-name="idieresis" unicode="&#xef;" horiz-adv-x="270" 
d="M31 603h57v-55h-57v55zM198 603h56v-55h-56v55zM140 428h-75l4 46h126v-474h-55v428z" />
    <glyph glyph-name="uni1ECB" unicode="&#x1ecb;" horiz-adv-x="270" 
d="M132 657h63v-60h-63v60zM139 428h-74l6 46h123v-474h-55v428zM138 -95h59v-57h-59v57z" />
    <glyph glyph-name="igrave" unicode="&#xec;" horiz-adv-x="270" 
d="M71 680h52l67 -158h-45zM140 428h-75l4 46h126v-474h-55v428z" />
    <glyph glyph-name="uni1EC9" unicode="&#x1ec9;" horiz-adv-x="270" 
d="M121 601q39 2 59.5 8.5t27.5 18.5t7 32q0 27 -20 40t-63 13q-16 0 -35 -3.5t-32 -8.5v38q13 5 35.5 8.5t41.5 3.5q57 0 86.5 -23t29.5 -65q0 -41 -20.5 -62.5t-69.5 -26.5v-52h-47v79zM140 428h-75l4 46h126v-474h-55v428z" />
    <glyph glyph-name="ij" unicode="&#x133;" horiz-adv-x="469" 
d="M132 657h63v-60h-63v60zM331 657h63v-60h-63v60zM139 428h-74l6 46h123v-474h-55v428zM179 -222v45q31 -10 61 -10q54 0 76 21t22 67v527h-74l6 46h123v-576q0 -62 -35.5 -97t-99.5 -35q-46 0 -79 12z" />
    <glyph glyph-name="imacron" unicode="&#x12b;" horiz-adv-x="270" 
d="M1 598h267v-42h-267v42zM140 428h-75l4 46h126v-474h-55v428z" />
    <glyph glyph-name="iogonek" unicode="&#x12f;" horiz-adv-x="270" 
d="M195 597h-63v60h63v-60zM192 -176q14 3 23 8v-41q-21 -11 -59 -11q-41 0 -66 20.5t-25 65.5q0 39 21 75t54 59h-1v428h-74l6 46h123v-474h-8q-37 -27 -55.5 -60t-18.5 -68q0 -27 12.5 -39t40.5 -12q13 0 27 3z" />
    <glyph glyph-name="itilde" unicode="&#x129;" horiz-adv-x="270" 
d="M176 529q-17 5 -39 15q-40 17 -60 17q-50 0 -79 -35v47q12 13 33.5 21t44.5 8q18 0 32.5 -4.5t37.5 -14.5q20 -9 33.5 -13.5t28.5 -4.5q24 0 42 8.5t31 26.5v-47q-10 -14 -28.5 -21.5t-42.5 -7.5q-17 0 -34 5zM140 428h-75l4 46h126v-474h-55v428z" />
    <glyph glyph-name="j" unicode="j" horiz-adv-x="270" 
d="M132 657h63v-60h-63v60zM-20 -222v45q31 -10 61 -10q54 0 76 21t22 67v527h-74l6 46h123v-576q0 -62 -35.5 -97t-99.5 -35q-46 0 -79 12z" />
    <glyph glyph-name="uni0237" unicode="&#x237;" horiz-adv-x="269" 
d="M-20 -222v45q31 -10 61 -10q54 0 76 21t22 67v527h-74l6 46h123v-576q0 -62 -35.5 -97t-99.5 -35q-46 0 -79 12z" />
    <glyph glyph-name="jcircumflex" unicode="&#x135;" horiz-adv-x="269" 
d="M121 656h48l105 -135h-50l-79 103l-79 -103h-50zM-20 -222v45q31 -10 61 -10q54 0 76 21t22 67v527h-74l6 46h123v-576q0 -62 -35.5 -97t-99.5 -35q-46 0 -79 12z" />
    <glyph glyph-name="k" unicode="k" horiz-adv-x="506" 
d="M75 674h55v-428l244 228h66l-195 -185l206 -289h-58l-184 258l-79 -74v-184h-55v674z" />
    <glyph glyph-name="kcommaaccent" unicode="&#x137;" horiz-adv-x="506" 
d="M75 674h55v-428l244 228h66l-195 -185l206 -289h-58l-184 258l-79 -74v-184h-55v674zM226 -37h53l-38 -165h-41z" />
    <glyph glyph-name="kgreenlandic" unicode="&#x138;" horiz-adv-x="506" 
d="M75 474h55v-249l244 249h66l-195 -200l206 -274h-58l-183 243l-80 -82v-161h-55v474z" />
    <glyph glyph-name="l" unicode="l" horiz-adv-x="246" 
d="M97.5 13.5q-22.5 23.5 -22.5 77.5v583h55v-581q0 -31 10 -43.5t32 -12.5t44 6v-46q-21 -7 -53 -7q-43 0 -65.5 23.5z" />
    <glyph glyph-name="lacute" unicode="&#x13a;" horiz-adv-x="246" 
d="M144 881h52l-74 -158h-45zM97.5 13.5q-22.5 23.5 -22.5 77.5v583h55v-581q0 -31 10 -43.5t32 -12.5t44 6v-46q-21 -7 -53 -7q-43 0 -65.5 23.5z" />
    <glyph glyph-name="lcaron" unicode="&#x13e;" horiz-adv-x="296" 
d="M218 794h53l-38 -165h-41zM97.5 13.5q-22.5 23.5 -22.5 77.5v583h55v-581q0 -31 10 -43.5t32 -12.5t44 6v-46q-21 -7 -53 -7q-43 0 -65.5 23.5z" />
    <glyph glyph-name="lcommaaccent" unicode="&#x13c;" horiz-adv-x="246" 
d="M97.5 13.5q-22.5 23.5 -22.5 77.5v583h55v-581q0 -31 10 -43.5t32 -12.5t44 6v-46q-21 -7 -53 -7q-43 0 -65.5 23.5zM135 -37h53l-38 -165h-41z" />
    <glyph glyph-name="ldot" unicode="&#x140;" horiz-adv-x="270" 
d="M97.5 13.5q-22.5 23.5 -22.5 77.5v583h55v-581q0 -31 10 -43.5t32 -12.5t44 6v-46q-21 -7 -53 -7q-43 0 -65.5 23.5zM191 312h59v-57h-59v57z" />
    <glyph glyph-name="uni1E37" unicode="&#x1e37;" horiz-adv-x="246" 
d="M97.5 13.5q-22.5 23.5 -22.5 77.5v583h55v-581q0 -31 10 -43.5t32 -12.5t44 6v-46q-21 -7 -53 -7q-43 0 -65.5 23.5zM108 -95h59v-57h-59v57z" />
    <glyph glyph-name="uni1E39" unicode="&#x1e39;" horiz-adv-x="246" 
d="M-35 762h277v-42h-277v42zM97.5 13.5q-22.5 23.5 -22.5 77.5v583h55v-581q0 -31 10 -43.5t32 -12.5t44 6v-46q-21 -7 -53 -7q-43 0 -65.5 23.5zM108 -95h59v-57h-59v57z" />
    <glyph glyph-name="uni1E3B" unicode="&#x1e3b;" horiz-adv-x="246" 
d="M97.5 13.5q-22.5 23.5 -22.5 77.5v583h55v-581q0 -31 10 -43.5t32 -12.5t44 6v-46q-21 -7 -53 -7q-43 0 -65.5 23.5zM-14 -75h277v-42h-277v42z" />
    <glyph glyph-name="lslash" unicode="&#x142;" horiz-adv-x="246" 
d="M97.5 13.5q-22.5 23.5 -22.5 77.5v205l-108 -47v48l108 47v330h55v-306l122 53v-48l-122 -53v-227q0 -31 10 -43.5t32 -12.5t44 6v-46q-21 -7 -53 -7q-43 0 -65.5 23.5z" />
    <glyph glyph-name="m" unicode="m" horiz-adv-x="850" 
d="M75 474h48l5 -58q82 68 177 68q53 0 83.5 -17.5t45.5 -50.5q81 68 187 68q81 0 120 -41t39 -126v-317h-54v312q0 70 -29.5 98t-96.5 28q-46 0 -86 -15.5t-67 -45.5q7 -33 7 -67v-310h-53v309q0 70 -24 99.5t-88 29.5q-42 0 -84.5 -19t-75.5 -50v-369h-54v474z" />
    <glyph glyph-name="uni1E43" unicode="&#x1e43;" horiz-adv-x="850" 
d="M75 474h48l5 -58q82 68 177 68q53 0 83.5 -17.5t45.5 -50.5q81 68 187 68q81 0 120 -41t39 -126v-317h-54v312q0 70 -29.5 98t-96.5 28q-46 0 -86 -15.5t-67 -45.5q7 -33 7 -67v-310h-53v309q0 70 -24 99.5t-88 29.5q-42 0 -84.5 -19t-75.5 -50v-369h-54v474zM397 -95h59
v-57h-59v57z" />
    <glyph glyph-name="n" unicode="n" horiz-adv-x="559" 
d="M75 474h48l5 -58q39 33 85.5 50.5t106.5 17.5q88 0 128.5 -41t40.5 -130v-313h-55v312q0 48 -12.5 75t-42 39t-82.5 12q-49 0 -91.5 -18.5t-75.5 -50.5v-369h-55v474z" />
    <glyph glyph-name="nacute" unicode="&#x144;" horiz-adv-x="559" 
d="M321 680h52l-74 -158h-45zM75 474h48l5 -58q39 33 85.5 50.5t106.5 17.5q88 0 128.5 -41t40.5 -130v-313h-55v312q0 48 -12.5 75t-42 39t-82.5 12q-49 0 -91.5 -18.5t-75.5 -50.5v-369h-55v474z" />
    <glyph glyph-name="napostrophe" unicode="&#x149;" horiz-adv-x="625" 
d="M58 650h53l-38 -165h-41zM141 474h48l5 -58q39 33 85.5 50.5t106.5 17.5q88 0 128.5 -41t40.5 -130v-313h-55v312q0 48 -12.5 75t-42 39t-82.5 12q-49 0 -91.5 -18.5t-75.5 -50.5v-369h-55v474z" />
    <glyph glyph-name="ncaron" unicode="&#x148;" horiz-adv-x="559" 
d="M148 656h50l79 -103l79 103h50l-105 -135h-48zM75 474h48l5 -58q39 33 85.5 50.5t106.5 17.5q88 0 128.5 -41t40.5 -130v-313h-55v312q0 48 -12.5 75t-42 39t-82.5 12q-49 0 -91.5 -18.5t-75.5 -50.5v-369h-55v474z" />
    <glyph glyph-name="ncommaaccent" unicode="&#x146;" horiz-adv-x="559" 
d="M75 474h48l5 -58q39 33 85.5 50.5t106.5 17.5q88 0 128.5 -41t40.5 -130v-313h-55v312q0 48 -12.5 75t-42 39t-82.5 12q-49 0 -91.5 -18.5t-75.5 -50.5v-369h-55v474zM265 -37h53l-38 -165h-41z" />
    <glyph glyph-name="uni1E45" unicode="&#x1e45;" horiz-adv-x="559" 
d="M256 604h57v-56h-57v56zM75 474h48l5 -58q39 33 85.5 50.5t106.5 17.5q88 0 128.5 -41t40.5 -130v-313h-55v312q0 48 -12.5 75t-42 39t-82.5 12q-49 0 -91.5 -18.5t-75.5 -50.5v-369h-55v474z" />
    <glyph glyph-name="uni1E47" unicode="&#x1e47;" horiz-adv-x="559" 
d="M75 474h48l5 -58q39 33 85.5 50.5t106.5 17.5q88 0 128.5 -41t40.5 -130v-313h-55v312q0 48 -12.5 75t-42 39t-82.5 12q-49 0 -91.5 -18.5t-75.5 -50.5v-369h-55v474zM259 -95h59v-57h-59v57z" />
    <glyph glyph-name="eng" unicode="&#x14b;" horiz-adv-x="559" 
d="M274 -222v45q33 -10 61 -10q54 0 76.5 21t22.5 67v411q0 48 -12.5 75t-42 39t-82.5 12q-49 0 -91.5 -18.5t-75.5 -50.5v-369h-55v474h48l5 -58q39 33 85.5 50.5t106.5 17.5q88 0 128.5 -41t40.5 -130v-415q0 -62 -35.5 -97t-99.5 -35q-47 0 -80 12z" />
    <glyph glyph-name="uni1E49" unicode="&#x1e49;" horiz-adv-x="559" 
d="M75 474h48l5 -58q39 33 85.5 50.5t106.5 17.5q88 0 128.5 -41t40.5 -130v-313h-55v312q0 48 -12.5 75t-42 39t-82.5 12q-49 0 -91.5 -18.5t-75.5 -50.5v-369h-55v474zM146 -74h277v-42h-277v42z" />
    <glyph glyph-name="ntilde" unicode="&#xf1;" horiz-adv-x="559" 
d="M324 552q-17 5 -39 15q-40 17 -60 17q-50 0 -79 -35v47q12 13 33.5 21t44.5 8q18 0 32.5 -4.5t37.5 -14.5q20 -9 33.5 -13.5t28.5 -4.5q24 0 42 8.5t31 26.5v-47q-10 -14 -28.5 -21.5t-42.5 -7.5q-17 0 -34 5zM75 474h48l5 -58q39 33 85.5 50.5t106.5 17.5
q88 0 128.5 -41t40.5 -130v-313h-55v312q0 48 -12.5 75t-42 39t-82.5 12q-49 0 -91.5 -18.5t-75.5 -50.5v-369h-55v474z" />
    <glyph glyph-name="o" unicode="o" horiz-adv-x="563" 
d="M109 52q-54 62 -54 185q0 122 55 184.5t171 62.5t171.5 -62.5t55.5 -184.5q0 -123 -54.5 -185t-172.5 -62t-172 62zM413.5 85q39.5 48 39.5 152q0 103 -40 151t-132 48t-132 -48t-40 -151q0 -104 39.5 -152t132.5 -48t132.5 48z" />
    <glyph glyph-name="oacute" unicode="&#xf3;" horiz-adv-x="563" 
d="M328 680h52l-74 -158h-45zM109 52q-54 62 -54 185q0 122 55 184.5t171 62.5t171.5 -62.5t55.5 -184.5q0 -123 -54.5 -185t-172.5 -62t-172 62zM413.5 85q39.5 48 39.5 152q0 103 -40 151t-132 48t-132 -48t-40 -151q0 -104 39.5 -152t132.5 -48t132.5 48z" />
    <glyph glyph-name="obreve" unicode="&#x14f;" horiz-adv-x="563" 
d="M200.5 552q-30.5 31 -30.5 80h42q0 -34 19 -53t50 -19q32 0 51 19t19 53h42q0 -49 -30.5 -80t-81.5 -31q-50 0 -80.5 31zM109 52q-54 62 -54 185q0 122 55 184.5t171 62.5t171.5 -62.5t55.5 -184.5q0 -123 -54.5 -185t-172.5 -62t-172 62zM413.5 85q39.5 48 39.5 152
q0 103 -40 151t-132 48t-132 -48t-40 -151q0 -104 39.5 -152t132.5 -48t132.5 48z" />
    <glyph glyph-name="uni01D2" unicode="&#x1d2;" horiz-adv-x="563" 
d="M152 656h50l79 -103l79 103h50l-105 -135h-48zM109 52q-54 62 -54 185q0 122 55 184.5t171 62.5t171.5 -62.5t55.5 -184.5q0 -123 -54.5 -185t-172.5 -62t-172 62zM413.5 85q39.5 48 39.5 152q0 103 -40 151t-132 48t-132 -48t-40 -151q0 -104 39.5 -152t132.5 -48
t132.5 48z" />
    <glyph glyph-name="ocircumflex" unicode="&#xf4;" horiz-adv-x="563" 
d="M257 656h48l105 -135h-50l-79 103l-79 -103h-50zM109 52q-54 62 -54 185q0 122 55 184.5t171 62.5t171.5 -62.5t55.5 -184.5q0 -123 -54.5 -185t-172.5 -62t-172 62zM413.5 85q39.5 48 39.5 152q0 103 -40 151t-132 48t-132 -48t-40 -151q0 -104 39.5 -152t132.5 -48
t132.5 48z" />
    <glyph glyph-name="uni1ED1" unicode="&#x1ed1;" horiz-adv-x="563" 
d="M417 744h47l-66 -117h-41zM264 631h48l103 -110h-49l-78 85l-78 -85h-49zM109 52q-54 62 -54 185q0 122 55 184.5t171 62.5t171.5 -62.5t55.5 -184.5q0 -123 -54.5 -185t-172.5 -62t-172 62zM413.5 85q39.5 48 39.5 152q0 103 -40 151t-132 48t-132 -48t-40 -151
q0 -104 39.5 -152t132.5 -48t132.5 48z" />
    <glyph glyph-name="uni1ED9" unicode="&#x1ed9;" horiz-adv-x="563" 
d="M257 656h48l105 -135h-50l-79 103l-79 -103h-50zM109 52q-54 62 -54 185q0 122 55 184.5t171 62.5t171.5 -62.5t55.5 -184.5q0 -123 -54.5 -185t-172.5 -62t-172 62zM413.5 85q39.5 48 39.5 152q0 103 -40 151t-132 48t-132 -48t-40 -151q0 -104 39.5 -152t132.5 -48
t132.5 48zM252 -95h59v-57h-59v57z" />
    <glyph glyph-name="uni1ED3" unicode="&#x1ed3;" horiz-adv-x="563" 
d="M104 744h47l59 -117h-40zM256 631h48l103 -110h-50l-77 85l-78 -85h-49zM109 52q-54 62 -54 185q0 122 55 184.5t171 62.5t171.5 -62.5t55.5 -184.5q0 -123 -54.5 -185t-172.5 -62t-172 62zM413.5 85q39.5 48 39.5 152q0 103 -40 151t-132 48t-132 -48t-40 -151
q0 -104 39.5 -152t132.5 -48t132.5 48z" />
    <glyph glyph-name="uni1ED5" unicode="&#x1ed5;" horiz-adv-x="563" 
d="M371 665q50 3 66.5 13.5t16.5 32.5q0 41 -53 41q-31 0 -59 -13v34q29 12 66 12q41 0 64.5 -19t23.5 -53q0 -32 -19 -49.5t-61 -21.5v-36h-45v59zM270 631h48l103 -110h-49l-78 85l-77 -85h-50zM109 52q-54 62 -54 185q0 122 55 184.5t171 62.5t171.5 -62.5t55.5 -184.5
q0 -123 -54.5 -185t-172.5 -62t-172 62zM413.5 85q39.5 48 39.5 152q0 103 -40 151t-132 48t-132 -48t-40 -151q0 -104 39.5 -152t132.5 -48t132.5 48z" />
    <glyph glyph-name="uni1ED7" unicode="&#x1ed7;" horiz-adv-x="563" 
d="M311.5 686.5q-14.5 4.5 -35.5 13.5q-18 8 -30 12t-24 4q-23 0 -41 -7t-34 -25v43q12 13 32 20t41 7q17 0 32 -4.5t33 -13.5q18 -8 30.5 -12t26.5 -4q23 0 40.5 7.5t31.5 25.5v-44q-10 -13 -29 -20t-42 -7q-17 0 -31.5 4.5zM181 554q-39 32 -39 100h39q0 -48 27 -72
t73 -24t73 24t27 72h38q0 -68 -39 -100t-99 -32q-61 0 -100 32zM109 52q-54 62 -54 185q0 122 55 184.5t171 62.5t171.5 -62.5t55.5 -184.5q0 -123 -54.5 -185t-172.5 -62t-172 62zM413.5 85q39.5 48 39.5 152q0 103 -40 151t-132 48t-132 -48t-40 -151q0 -104 39.5 -152
t132.5 -48t132.5 48z" />
    <glyph glyph-name="odieresis" unicode="&#xf6;" horiz-adv-x="563" 
d="M170 603h57v-55h-57v55zM337 603h56v-55h-56v55zM109 52q-54 62 -54 185q0 122 55 184.5t171 62.5t171.5 -62.5t55.5 -184.5q0 -123 -54.5 -185t-172.5 -62t-172 62zM413.5 85q39.5 48 39.5 152q0 103 -40 151t-132 48t-132 -48t-40 -151q0 -104 39.5 -152t132.5 -48
t132.5 48z" />
    <glyph glyph-name="uni1ECD" unicode="&#x1ecd;" horiz-adv-x="563" 
d="M109 52q-54 62 -54 185q0 122 55 184.5t171 62.5t171.5 -62.5t55.5 -184.5q0 -123 -54.5 -185t-172.5 -62t-172 62zM413.5 85q39.5 48 39.5 152q0 103 -40 151t-132 48t-132 -48t-40 -151q0 -104 39.5 -152t132.5 -48t132.5 48zM252 -95h59v-57h-59v57z" />
    <glyph glyph-name="ograve" unicode="&#xf2;" horiz-adv-x="563" 
d="M192 680h52l67 -158h-45zM109 52q-54 62 -54 185q0 122 55 184.5t171 62.5t171.5 -62.5t55.5 -184.5q0 -123 -54.5 -185t-172.5 -62t-172 62zM413.5 85q39.5 48 39.5 152q0 103 -40 151t-132 48t-132 -48t-40 -151q0 -104 39.5 -152t132.5 -48t132.5 48z" />
    <glyph glyph-name="uni1ECF" unicode="&#x1ecf;" horiz-adv-x="563" 
d="M259 601q39 2 59.5 8.5t27.5 18.5t7 32q0 27 -20 40t-63 13q-16 0 -35 -3.5t-32 -8.5v38q13 5 35.5 8.5t41.5 3.5q57 0 86.5 -23t29.5 -65q0 -41 -20.5 -62.5t-69.5 -26.5v-52h-47v79zM109 52q-54 62 -54 185q0 122 55 184.5t171 62.5t171.5 -62.5t55.5 -184.5
q0 -123 -54.5 -185t-172.5 -62t-172 62zM413.5 85q39.5 48 39.5 152q0 103 -40 151t-132 48t-132 -48t-40 -151q0 -104 39.5 -152t132.5 -48t132.5 48z" />
    <glyph glyph-name="ohorn" unicode="&#x1a1;" horiz-adv-x="639" 
d="M109 52q-54 62 -54 185q0 122 55 184.5t171 62.5q125 0 180 -73q59 1 82 28t23 97h48q0 -85 -32 -123t-97 -44q23 -55 23 -132q0 -123 -54.5 -185t-172.5 -62t-172 62zM413.5 85q39.5 48 39.5 152q0 103 -40 151t-132 48t-132 -48t-40 -151q0 -104 39.5 -152t132.5 -48
t132.5 48z" />
    <glyph glyph-name="uni1EDB" unicode="&#x1edb;" horiz-adv-x="639" 
d="M336 680h52l-74 -158h-45zM109 52q-54 62 -54 185q0 122 55 184.5t171 62.5q125 0 180 -73q59 1 82 28t23 97h48q0 -85 -32 -123t-97 -44q23 -55 23 -132q0 -123 -54.5 -185t-172.5 -62t-172 62zM413.5 85q39.5 48 39.5 152q0 103 -40 151t-132 48t-132 -48t-40 -151
q0 -104 39.5 -152t132.5 -48t132.5 48z" />
    <glyph glyph-name="uni1EE3" unicode="&#x1ee3;" horiz-adv-x="639" 
d="M109 52q-54 62 -54 185q0 122 55 184.5t171 62.5q125 0 180 -73q59 1 82 28t23 97h48q0 -85 -32 -123t-97 -44q23 -55 23 -132q0 -123 -54.5 -185t-172.5 -62t-172 62zM413.5 85q39.5 48 39.5 152q0 103 -40 151t-132 48t-132 -48t-40 -151q0 -104 39.5 -152t132.5 -48
t132.5 48zM261 -95h59v-57h-59v57z" />
    <glyph glyph-name="uni1EDD" unicode="&#x1edd;" horiz-adv-x="639" 
d="M204 680h52l67 -158h-45zM109 52q-54 62 -54 185q0 122 55 184.5t171 62.5q125 0 180 -73q59 1 82 28t23 97h48q0 -85 -32 -123t-97 -44q23 -55 23 -132q0 -123 -54.5 -185t-172.5 -62t-172 62zM413.5 85q39.5 48 39.5 152q0 103 -40 151t-132 48t-132 -48t-40 -151
q0 -104 39.5 -152t132.5 -48t132.5 48z" />
    <glyph glyph-name="uni1EDF" unicode="&#x1edf;" horiz-adv-x="639" 
d="M256 601q39 2 59.5 8.5t27.5 18.5t7 32q0 27 -20 40t-63 13q-16 0 -35 -3.5t-32 -8.5v38q13 5 35.5 8.5t41.5 3.5q57 0 86.5 -23t29.5 -65q0 -41 -20.5 -62.5t-69.5 -26.5v-52h-47v79zM109 52q-54 62 -54 185q0 122 55 184.5t171 62.5q125 0 180 -73q59 1 82 28t23 97h48
q0 -85 -32 -123t-97 -44q23 -55 23 -132q0 -123 -54.5 -185t-172.5 -62t-172 62zM413.5 85q39.5 48 39.5 152q0 103 -40 151t-132 48t-132 -48t-40 -151q0 -104 39.5 -152t132.5 -48t132.5 48z" />
    <glyph glyph-name="uni1EE1" unicode="&#x1ee1;" horiz-adv-x="639" 
d="M324 551q-17 5 -39 15q-40 17 -60 17q-50 0 -79 -35v47q12 13 33.5 21t44.5 8q18 0 32.5 -4.5t37.5 -14.5q20 -9 33.5 -13.5t28.5 -4.5q24 0 42 8.5t31 26.5v-47q-10 -14 -28.5 -21.5t-42.5 -7.5q-17 0 -34 5zM109 52q-54 62 -54 185q0 122 55 184.5t171 62.5
q125 0 180 -73q59 1 82 28t23 97h48q0 -85 -32 -123t-97 -44q23 -55 23 -132q0 -123 -54.5 -185t-172.5 -62t-172 62zM413.5 85q39.5 48 39.5 152q0 103 -40 151t-132 48t-132 -48t-40 -151q0 -104 39.5 -152t132.5 -48t132.5 48z" />
    <glyph glyph-name="ohungarumlaut" unicode="&#x151;" horiz-adv-x="563" 
d="M233 662h54l-76 -141h-45zM432 662h54l-76 -141h-45zM109 52q-54 62 -54 185q0 122 55 184.5t171 62.5t171.5 -62.5t55.5 -184.5q0 -123 -54.5 -185t-172.5 -62t-172 62zM413.5 85q39.5 48 39.5 152q0 103 -40 151t-132 48t-132 -48t-40 -151q0 -104 39.5 -152t132.5 -48
t132.5 48z" />
    <glyph glyph-name="omacron" unicode="&#x14d;" horiz-adv-x="563" 
d="M143 595h277v-42h-277v42zM109 52q-54 62 -54 185q0 122 55 184.5t171 62.5t171.5 -62.5t55.5 -184.5q0 -123 -54.5 -185t-172.5 -62t-172 62zM413.5 85q39.5 48 39.5 152q0 103 -40 151t-132 48t-132 -48t-40 -151q0 -104 39.5 -152t132.5 -48t132.5 48z" />
    <glyph glyph-name="oslash" unicode="&#xf8;" horiz-adv-x="563" 
d="M179 5q-64 24 -94 81.5t-30 150.5q0 122 55 184.5t171 62.5q39 0 68 -7l18 51h49l-23 -64q115 -51 115 -227q0 -123 -54.5 -185t-172.5 -62q-33 0 -57 4l-17 -48h-49zM332 431q-25 5 -51 5q-92 0 -132 -48t-40 -151q0 -77 20.5 -122.5t66.5 -63.5zM413.5 85
q39.5 48 39.5 152q0 71 -18.5 115t-58.5 65l-135 -378q24 -2 40 -2q93 0 132.5 48z" />
    <glyph glyph-name="oslashacute" unicode="&#x1ff;" horiz-adv-x="563" 
d="M317 680h52l-74 -158h-45zM179 5q-64 24 -94 81.5t-30 150.5q0 122 55 184.5t171 62.5q39 0 68 -7l18 51h49l-23 -64q115 -51 115 -227q0 -123 -54.5 -185t-172.5 -62q-33 0 -57 4l-17 -48h-49zM332 431q-25 5 -51 5q-92 0 -132 -48t-40 -151q0 -77 20.5 -122.5
t66.5 -63.5zM413.5 85q39.5 48 39.5 152q0 71 -18.5 115t-58.5 65l-135 -378q24 -2 40 -2q93 0 132.5 48z" />
    <glyph glyph-name="otilde" unicode="&#xf5;" horiz-adv-x="563" 
d="M318 554q-17 5 -39 15q-40 17 -60 17q-50 0 -79 -35v47q12 13 33.5 21t44.5 8q18 0 32.5 -4.5t37.5 -14.5q20 -9 33.5 -13.5t28.5 -4.5q24 0 42 8.5t31 26.5v-47q-10 -14 -28.5 -21.5t-42.5 -7.5q-17 0 -34 5zM109 52q-54 62 -54 185q0 122 55 184.5t171 62.5
t171.5 -62.5t55.5 -184.5q0 -123 -54.5 -185t-172.5 -62t-172 62zM413.5 85q39.5 48 39.5 152q0 103 -40 151t-132 48t-132 -48t-40 -151q0 -104 39.5 -152t132.5 -48t132.5 48z" />
    <glyph glyph-name="oe" unicode="&#x153;" horiz-adv-x="924" 
d="M109 52q-54 62 -54 185q0 122 55 184.5t171 62.5q150 0 199 -110q47 110 193 110q97 0 146.5 -53t49.5 -137v-86h-361q3 -63 23 -100.5t63 -55t115 -17.5q65 0 129 25v-45q-62 -25 -139 -25q-86 0 -139 27t-79 83q-48 -110 -200 -110q-118 0 -172 62zM818 251v45
q0 142 -144 142q-90 0 -128 -46.5t-38 -140.5h310zM413.5 85.5q39.5 48.5 39.5 153.5q0 102 -40.5 149.5t-131.5 47.5q-92 0 -132 -48t-40 -151q0 -104 39.5 -152t132.5 -48t132.5 48.5z" />
    <glyph glyph-name="p" unicode="p" horiz-adv-x="564" 
d="M75 474h46l5 -54q35 33 76 48.5t95 15.5q212 0 212 -246q0 -126 -56.5 -187t-159.5 -61q-50 0 -89 11.5t-74 37.5v-255h-55v690zM411.5 84q43.5 49 43.5 154q0 103 -40 151.5t-131 48.5q-94 0 -154 -64v-286q61 -53 149 -53q89 0 132.5 49z" />
    <glyph glyph-name="thorn" unicode="&#xfe;" horiz-adv-x="564" 
d="M75 700h55v-272q68 56 167 56q212 0 212 -246q0 -126 -56.5 -187t-159.5 -61q-50 0 -89 11.5t-74 37.5v-255h-55v916zM411.5 84q43.5 49 43.5 154q0 103 -40 151.5t-131 48.5q-94 0 -154 -64v-286q61 -53 149 -53q89 0 132.5 49z" />
    <glyph glyph-name="q" unicode="q" horiz-adv-x="603" 
d="M459.5 -213.5q-25.5 28.5 -25.5 87.5v165q-35 -26 -74 -37.5t-89 -11.5q-103 0 -159.5 61t-56.5 187q0 246 212 246q54 0 95 -15.5t76 -48.5l5 54h46v-598q0 -40 12.5 -55.5t49.5 -15.5q15 0 37 6v-46q-22 -7 -51 -7q-52 0 -77.5 28.5zM434 88v286q-60 64 -154 64
q-91 0 -131 -48.5t-40 -151.5q0 -105 43.5 -154t132.5 -49q88 0 149 53z" />
    <glyph glyph-name="r" unicode="r" horiz-adv-x="342" 
d="M75 474h48l6 -66q36 25 83.5 45t94.5 31v-45q-45 -11 -96.5 -32.5t-80.5 -42.5v-364h-55v474z" />
    <glyph glyph-name="racute" unicode="&#x155;" horiz-adv-x="342" 
d="M186 680h52l-74 -158h-45zM75 474h48l6 -66q36 25 83.5 45t94.5 31v-45q-45 -11 -96.5 -32.5t-80.5 -42.5v-364h-55v474z" />
    <glyph glyph-name="rcaron" unicode="&#x159;" horiz-adv-x="342" 
d="M0 656h50l79 -103l79 103h50l-105 -135h-48zM75 474h48l6 -66q36 25 83.5 45t94.5 31v-45q-45 -11 -96.5 -32.5t-80.5 -42.5v-364h-55v474z" />
    <glyph glyph-name="rcommaaccent" unicode="&#x157;" horiz-adv-x="342" 
d="M75 474h48l6 -66q36 25 83.5 45t94.5 31v-45q-45 -11 -96.5 -32.5t-80.5 -42.5v-364h-55v474zM74 -37h53l-38 -165h-41z" />
    <glyph glyph-name="uni1E5B" unicode="&#x1e5b;" horiz-adv-x="342" 
d="M75 474h48l6 -66q36 25 83.5 45t94.5 31v-45q-45 -11 -96.5 -32.5t-80.5 -42.5v-364h-55v474zM72 -95h59v-57h-59v57z" />
    <glyph glyph-name="uni1E5D" unicode="&#x1e5d;" horiz-adv-x="342" 
d="M23 593h277v-42h-277v42zM75 474h48l6 -66q36 25 83.5 45t94.5 31v-45q-45 -11 -96.5 -32.5t-80.5 -42.5v-364h-55v474zM72 -95h59v-57h-59v57z" />
    <glyph glyph-name="uni1E5F" unicode="&#x1e5f;" horiz-adv-x="342" 
d="M75 474h48l6 -66q36 25 83.5 45t94.5 31v-45q-45 -11 -96.5 -32.5t-80.5 -42.5v-364h-55v474zM-25 -74h277v-42h-277v42z" />
    <glyph glyph-name="s" unicode="s" horiz-adv-x="447" 
d="M68 10v49q65 -22 139 -22q70 0 100 19t30 64q0 28 -11.5 44t-33.5 26t-69 26l-25 9q-54 18 -80.5 30.5t-44.5 37t-18 66.5q0 63 41.5 94t132.5 31q68 0 126 -17v-49q-58 18 -118 18q-70 0 -99 -17.5t-29 -58.5q0 -27 12 -42.5t35.5 -25.5t76.5 -27q60 -19 92.5 -35.5
t49.5 -42t17 -67.5q0 -130 -178 -130q-86 0 -146 20z" />
    <glyph glyph-name="sacute" unicode="&#x15b;" horiz-adv-x="447" 
d="M264 680h52l-74 -158h-45zM68 10v49q65 -22 139 -22q70 0 100 19t30 64q0 28 -11.5 44t-33.5 26t-69 26l-25 9q-54 18 -80.5 30.5t-44.5 37t-18 66.5q0 63 41.5 94t132.5 31q68 0 126 -17v-49q-58 18 -118 18q-70 0 -99 -17.5t-29 -58.5q0 -27 12 -42.5t35.5 -25.5
t76.5 -27q60 -19 92.5 -35.5t49.5 -42t17 -67.5q0 -130 -178 -130q-86 0 -146 20z" />
    <glyph glyph-name="scaron" unicode="&#x161;" horiz-adv-x="447" 
d="M100 656h50l79 -103l79 103h50l-105 -135h-48zM68 10v49q65 -22 139 -22q70 0 100 19t30 64q0 28 -11.5 44t-33.5 26t-69 26l-25 9q-54 18 -80.5 30.5t-44.5 37t-18 66.5q0 63 41.5 94t132.5 31q68 0 126 -17v-49q-58 18 -118 18q-70 0 -99 -17.5t-29 -58.5
q0 -27 12 -42.5t35.5 -25.5t76.5 -27q60 -19 92.5 -35.5t49.5 -42t17 -67.5q0 -130 -178 -130q-86 0 -146 20z" />
    <glyph glyph-name="scedilla" unicode="&#x15f;" horiz-adv-x="447" 
d="M247 -9l-14 -42q56 0 85 -22.5t29 -65.5q0 -50 -33.5 -75.5t-105.5 -25.5q-15 0 -34.5 2.5t-31.5 5.5v37q29 -8 63 -8q52 0 75.5 14.5t23.5 49.5q0 31 -21.5 43t-70.5 12h-33l25 74q-79 1 -136 20v49q65 -22 139 -22q70 0 100 19t30 64q0 28 -11.5 44t-33.5 26t-69 26
l-25 9q-54 18 -80.5 30.5t-44.5 37t-18 66.5q0 63 41.5 94t132.5 31q68 0 126 -17v-49q-58 18 -118 18q-70 0 -99 -17.5t-29 -58.5q0 -27 12 -42.5t35.5 -25.5t76.5 -27q60 -19 92.5 -35.5t49.5 -42t17 -67.5q0 -118 -145 -129z" />
    <glyph glyph-name="scircumflex" unicode="&#x15d;" horiz-adv-x="447" 
d="M208 666h48l105 -135h-50l-79 103l-79 -103h-50zM68 10v49q65 -22 139 -22q70 0 100 19t30 64q0 28 -11.5 44t-33.5 26t-69 26l-25 9q-54 18 -80.5 30.5t-44.5 37t-18 66.5q0 63 41.5 94t132.5 31q68 0 126 -17v-49q-58 18 -118 18q-70 0 -99 -17.5t-29 -58.5
q0 -27 12 -42.5t35.5 -25.5t76.5 -27q60 -19 92.5 -35.5t49.5 -42t17 -67.5q0 -130 -178 -130q-86 0 -146 20z" />
    <glyph glyph-name="scommaaccent" unicode="&#x219;" horiz-adv-x="447" 
d="M68 10v49q65 -22 139 -22q70 0 100 19t30 64q0 28 -11.5 44t-33.5 26t-69 26l-25 9q-54 18 -80.5 30.5t-44.5 37t-18 66.5q0 63 41.5 94t132.5 31q68 0 126 -17v-49q-58 18 -118 18q-70 0 -99 -17.5t-29 -58.5q0 -27 12 -42.5t35.5 -25.5t76.5 -27q60 -19 92.5 -35.5
t49.5 -42t17 -67.5q0 -130 -178 -130q-86 0 -146 20zM200 -55h54l-37 -160h-43z" />
    <glyph glyph-name="uni1E61" unicode="&#x1e61;" horiz-adv-x="447" 
d="M206 604h57v-56h-57v56zM68 10v49q65 -22 139 -22q70 0 100 19t30 64q0 28 -11.5 44t-33.5 26t-69 26l-25 9q-54 18 -80.5 30.5t-44.5 37t-18 66.5q0 63 41.5 94t132.5 31q68 0 126 -17v-49q-58 18 -118 18q-70 0 -99 -17.5t-29 -58.5q0 -27 12 -42.5t35.5 -25.5
t76.5 -27q60 -19 92.5 -35.5t49.5 -42t17 -67.5q0 -130 -178 -130q-86 0 -146 20z" />
    <glyph glyph-name="uni1E63" unicode="&#x1e63;" horiz-adv-x="447" 
d="M68 10v49q65 -22 139 -22q70 0 100 19t30 64q0 28 -11.5 44t-33.5 26t-69 26l-25 9q-54 18 -80.5 30.5t-44.5 37t-18 66.5q0 63 41.5 94t132.5 31q68 0 126 -17v-49q-58 18 -118 18q-70 0 -99 -17.5t-29 -58.5q0 -27 12 -42.5t35.5 -25.5t76.5 -27q60 -19 92.5 -35.5
t49.5 -42t17 -67.5q0 -130 -178 -130q-86 0 -146 20zM206 -95h59v-57h-59v57z" />
    <glyph glyph-name="germandbls" unicode="&#xdf;" horiz-adv-x="620" 
d="M224 12v48q54 -23 138 -23q71 0 109.5 40t38.5 114q0 70 -35.5 107t-117.5 37h-87v44h91q64 0 94.5 37t30.5 96q0 66 -41.5 103t-139.5 37q-89 0 -134.5 -45t-45.5 -133v-474h-55v478q0 103 62.5 162.5t172.5 59.5q115 0 174 -52.5t59 -135.5q0 -55 -24 -95.5t-64 -58.5
q54 -15 84.5 -58t30.5 -111q0 -95 -51 -147t-146 -52q-89 0 -144 22z" />
    <glyph glyph-name="uni0259" unicode="&#x259;" horiz-adv-x="525" 
d="M104 42.5q-49 52.5 -49 137.5v85h360q-3 63 -23 100.5t-62.5 55t-115.5 17.5q-69 0 -128 -25v45q60 26 139 26q128 0 186.5 -60.5t58.5 -189.5q0 -244 -219 -244q-98 0 -147 52.5zM377.5 81.5q37.5 46.5 37.5 141.5h-310v-46q0 -142 145 -142q90 0 127.5 46.5z" />
    <glyph glyph-name="t" unicode="t" horiz-adv-x="350" 
d="M143 25q-34 35 -34 98v305h-74v46h74v124l55 18v-142h137l-3 -46h-134v-303q0 -46 22 -68t70 -22q27 0 59 11v-44q-33 -12 -75 -12q-63 0 -97 35z" />
    <glyph glyph-name="tbar" unicode="&#x167;" horiz-adv-x="350" 
d="M143 25q-34 35 -34 98v109h-69v42h69v154h-74v46h74v124l55 18v-142h137l-3 -46h-134v-154h142v-42h-142v-107q0 -46 22 -68t72 -22q25 0 57 11v-44q-33 -12 -75 -12q-63 0 -97 35z" />
    <glyph glyph-name="tcaron" unicode="&#x165;" horiz-adv-x="386" 
d="M318 725h53l-38 -165h-41zM143 25q-34 35 -34 98v305h-74v46h74v124l55 18v-142h137l-3 -46h-134v-303q0 -46 22 -68t70 -22q27 0 59 11v-44q-33 -12 -75 -12q-63 0 -97 35z" />
    <glyph glyph-name="uni0163" unicode="&#x163;" horiz-adv-x="350" 
d="M313 -73.5q29 -22.5 29 -65.5q0 -50 -33.5 -75.5t-105.5 -25.5q-15 0 -34.5 2.5t-31.5 5.5v37q29 -8 63 -8q52 0 75.5 14.5t23.5 49.5q0 31 -21.5 43t-70.5 12h-33l26 78q-44 11 -67.5 44t-23.5 85v305h-74v46h74v124l55 18v-142h137l-3 -46h-134v-303q0 -46 22 -68
t70 -22q27 0 59 11v-44q-33 -12 -73 -12l-14 -41q56 0 85 -22.5z" />
    <glyph glyph-name="uni021B" unicode="&#x21b;" horiz-adv-x="350" 
d="M143 25q-34 35 -34 98v305h-74v46h74v124l55 18v-142h137l-3 -46h-134v-303q0 -46 22 -68t70 -22q27 0 59 11v-44q-33 -12 -75 -12q-63 0 -97 35zM209 -40h53l-38 -165h-41z" />
    <glyph glyph-name="uni1E97" unicode="&#x1e97;" horiz-adv-x="350" 
d="M31 701h57v-55h-57v55zM198 701h56v-55h-56v55zM143 25q-34 35 -34 98v305h-74v46h74v124l55 18v-142h137l-3 -46h-134v-303q0 -46 22 -68t70 -22q27 0 59 11v-44q-33 -12 -75 -12q-63 0 -97 35z" />
    <glyph glyph-name="uni1E6D" unicode="&#x1e6d;" horiz-adv-x="350" 
d="M143 25q-34 35 -34 98v305h-74v46h74v124l55 18v-142h137l-3 -46h-134v-303q0 -46 22 -68t70 -22q27 0 59 11v-44q-33 -12 -75 -12q-63 0 -97 35zM200 -93h59v-57h-59v57z" />
    <glyph glyph-name="uni1E6F" unicode="&#x1e6f;" horiz-adv-x="350" 
d="M143 25q-34 35 -34 98v305h-74v46h74v124l55 18v-142h137l-3 -46h-134v-303q0 -46 22 -68t70 -22q27 0 59 11v-44q-33 -12 -75 -12q-63 0 -97 35zM65 -72h277v-42h-277v42z" />
    <glyph glyph-name="u" unicode="u" horiz-adv-x="559" 
d="M114 37.5q-44 47.5 -44 136.5v300h55v-302q0 -69 34 -103t107 -34q48 0 89.5 18.5t73.5 50.5v370h55v-474h-49l-5 58q-38 -33 -83 -50.5t-104 -17.5q-85 0 -129 47.5z" />
    <glyph glyph-name="uacute" unicode="&#xfa;" horiz-adv-x="559" 
d="M309 680h52l-74 -158h-45zM114 37.5q-44 47.5 -44 136.5v300h55v-302q0 -69 34 -103t107 -34q48 0 89.5 18.5t73.5 50.5v370h55v-474h-49l-5 58q-38 -33 -83 -50.5t-104 -17.5q-85 0 -129 47.5z" />
    <glyph glyph-name="ubreve" unicode="&#x16d;" horiz-adv-x="559" 
d="M199.5 552q-30.5 31 -30.5 80h42q0 -34 19 -53t50 -19q32 0 51 19t19 53h42q0 -49 -30.5 -80t-81.5 -31q-50 0 -80.5 31zM114 37.5q-44 47.5 -44 136.5v300h55v-302q0 -69 34 -103t107 -34q48 0 89.5 18.5t73.5 50.5v370h55v-474h-49l-5 58q-38 -33 -83 -50.5t-104 -17.5
q-85 0 -129 47.5z" />
    <glyph glyph-name="uni01D4" unicode="&#x1d4;" horiz-adv-x="559" 
d="M149 656h50l79 -103l79 103h50l-105 -135h-48zM114 37.5q-44 47.5 -44 136.5v300h55v-302q0 -69 34 -103t107 -34q48 0 89.5 18.5t73.5 50.5v370h55v-474h-49l-5 58q-38 -33 -83 -50.5t-104 -17.5q-85 0 -129 47.5z" />
    <glyph glyph-name="ucircumflex" unicode="&#xfb;" horiz-adv-x="559" 
d="M252 656h48l105 -135h-50l-79 103l-79 -103h-50zM114 37.5q-44 47.5 -44 136.5v300h55v-302q0 -69 34 -103t107 -34q48 0 89.5 18.5t73.5 50.5v370h55v-474h-49l-5 58q-38 -33 -83 -50.5t-104 -17.5q-85 0 -129 47.5z" />
    <glyph glyph-name="udieresis" unicode="&#xfc;" horiz-adv-x="559" 
d="M162 601h57v-55h-57v55zM329 601h56v-55h-56v55zM114 37.5q-44 47.5 -44 136.5v300h55v-302q0 -69 34 -103t107 -34q48 0 89.5 18.5t73.5 50.5v370h55v-474h-49l-5 58q-38 -33 -83 -50.5t-104 -17.5q-85 0 -129 47.5z" />
    <glyph glyph-name="uni01D8" unicode="&#x1d8;" horiz-adv-x="559" 
d="M312 715h51l-66 -117h-45zM159 576h57v-55h-57v55zM336 576h56v-55h-56v55zM114 37.5q-44 47.5 -44 136.5v300h55v-302q0 -69 34 -103t107 -34q48 0 89.5 18.5t73.5 50.5v370h55v-474h-49l-5 58q-38 -33 -83 -50.5t-104 -17.5q-85 0 -129 47.5z" />
    <glyph glyph-name="uni01DA" unicode="&#x1da;" horiz-adv-x="559" 
d="M150 708h49l78 -85l78 85h49l-103 -110h-48zM158 576h57v-55h-57v55zM335 576h56v-55h-56v55zM114 37.5q-44 47.5 -44 136.5v300h55v-302q0 -69 34 -103t107 -34q48 0 89.5 18.5t73.5 50.5v370h55v-474h-49l-5 58q-38 -33 -83 -50.5t-104 -17.5q-85 0 -129 47.5z" />
    <glyph glyph-name="uni01DC" unicode="&#x1dc;" horiz-adv-x="559" 
d="M191 715h51l60 -117h-45zM162 576h56v-55h-56v55zM338 576h57v-55h-57v55zM114 37.5q-44 47.5 -44 136.5v300h55v-302q0 -69 34 -103t107 -34q48 0 89.5 18.5t73.5 50.5v370h55v-474h-49l-5 58q-38 -33 -83 -50.5t-104 -17.5q-85 0 -129 47.5z" />
    <glyph glyph-name="uni01D6" unicode="&#x1d6;" horiz-adv-x="559" 
d="M144 708h277v-42h-277v42zM170 600h57v-55h-57v55zM337 600h56v-55h-56v55zM114 37.5q-44 47.5 -44 136.5v300h55v-302q0 -69 34 -103t107 -34q48 0 89.5 18.5t73.5 50.5v370h55v-474h-49l-5 58q-38 -33 -83 -50.5t-104 -17.5q-85 0 -129 47.5z" />
    <glyph glyph-name="uni1EE5" unicode="&#x1ee5;" horiz-adv-x="559" 
d="M114 37.5q-44 47.5 -44 136.5v300h55v-302q0 -69 34 -103t107 -34q48 0 89.5 18.5t73.5 50.5v370h55v-474h-49l-5 58q-38 -33 -83 -50.5t-104 -17.5q-85 0 -129 47.5zM240 -95h59v-57h-59v57z" />
    <glyph glyph-name="ugrave" unicode="&#xf9;" horiz-adv-x="559" 
d="M187 680h52l67 -158h-45zM114 37.5q-44 47.5 -44 136.5v300h55v-302q0 -69 34 -103t107 -34q48 0 89.5 18.5t73.5 50.5v370h55v-474h-49l-5 58q-38 -33 -83 -50.5t-104 -17.5q-85 0 -129 47.5z" />
    <glyph glyph-name="uni1EE7" unicode="&#x1ee7;" horiz-adv-x="559" 
d="M250 601q39 2 59.5 8.5t27.5 18.5t7 32q0 27 -20 40t-63 13q-16 0 -35 -3.5t-32 -8.5v38q13 5 35.5 8.5t41.5 3.5q57 0 86.5 -23t29.5 -65q0 -41 -20.5 -62.5t-69.5 -26.5v-52h-47v79zM114 37.5q-44 47.5 -44 136.5v300h55v-302q0 -69 34 -103t107 -34q48 0 89.5 18.5
t73.5 50.5v370h55v-474h-49l-5 58q-38 -33 -83 -50.5t-104 -17.5q-85 0 -129 47.5z" />
    <glyph glyph-name="uhorn" unicode="&#x1b0;" horiz-adv-x="659" 
d="M114 37.5q-44 47.5 -44 136.5v300h55v-302q0 -69 34 -103t107 -34q48 0 89.5 18.5t73.5 50.5v370h55v-63q51 4 71.5 31.5t20.5 93.5h48q0 -86 -35.5 -125.5t-104.5 -42.5v-368h-49l-5 58q-38 -33 -83 -50.5t-104 -17.5q-85 0 -129 47.5z" />
    <glyph glyph-name="uni1EE9" unicode="&#x1ee9;" horiz-adv-x="659" 
d="M330 680h52l-74 -158h-45zM114 37.5q-44 47.5 -44 136.5v300h55v-302q0 -69 34 -103t107 -34q48 0 89.5 18.5t73.5 50.5v370h55v-63q51 4 71.5 31.5t20.5 93.5h48q0 -86 -35.5 -125.5t-104.5 -42.5v-368h-49l-5 58q-38 -33 -83 -50.5t-104 -17.5q-85 0 -129 47.5z" />
    <glyph glyph-name="uni1EF1" unicode="&#x1ef1;" horiz-adv-x="659" 
d="M114 37.5q-44 47.5 -44 136.5v300h55v-302q0 -69 34 -103t107 -34q48 0 89.5 18.5t73.5 50.5v370h55v-63q51 4 71.5 31.5t20.5 93.5h48q0 -86 -35.5 -125.5t-104.5 -42.5v-368h-49l-5 58q-38 -33 -83 -50.5t-104 -17.5q-85 0 -129 47.5zM246 -95h59v-57h-59v57z" />
    <glyph glyph-name="uni1EEB" unicode="&#x1eeb;" horiz-adv-x="659" 
d="M196 680h52l67 -158h-45zM114 37.5q-44 47.5 -44 136.5v300h55v-302q0 -69 34 -103t107 -34q48 0 89.5 18.5t73.5 50.5v370h55v-63q51 4 71.5 31.5t20.5 93.5h48q0 -86 -35.5 -125.5t-104.5 -42.5v-368h-49l-5 58q-38 -33 -83 -50.5t-104 -17.5q-85 0 -129 47.5z" />
    <glyph glyph-name="uni1EED" unicode="&#x1eed;" horiz-adv-x="659" 
d="M259 601q39 2 59.5 8.5t27.5 18.5t7 32q0 27 -20 40t-63 13q-16 0 -35 -3.5t-32 -8.5v38q13 5 35.5 8.5t41.5 3.5q57 0 86.5 -23t29.5 -65q0 -41 -20.5 -62.5t-69.5 -26.5v-52h-47v79zM114 37.5q-44 47.5 -44 136.5v300h55v-302q0 -69 34 -103t107 -34q48 0 89.5 18.5
t73.5 50.5v370h55v-63q51 4 71.5 31.5t20.5 93.5h48q0 -86 -35.5 -125.5t-104.5 -42.5v-368h-49l-5 58q-38 -33 -83 -50.5t-104 -17.5q-85 0 -129 47.5z" />
    <glyph glyph-name="uni1EEF" unicode="&#x1eef;" horiz-adv-x="659" 
d="M325 551q-17 5 -39 15q-40 17 -60 17q-50 0 -79 -35v47q12 13 33.5 21t44.5 8q18 0 32.5 -4.5t37.5 -14.5q20 -9 33.5 -13.5t28.5 -4.5q24 0 42 8.5t31 26.5v-47q-10 -14 -28.5 -21.5t-42.5 -7.5q-17 0 -34 5zM114 37.5q-44 47.5 -44 136.5v300h55v-302q0 -69 34 -103
t107 -34q48 0 89.5 18.5t73.5 50.5v370h55v-63q51 4 71.5 31.5t20.5 93.5h48q0 -86 -35.5 -125.5t-104.5 -42.5v-368h-49l-5 58q-38 -33 -83 -50.5t-104 -17.5q-85 0 -129 47.5z" />
    <glyph glyph-name="uhungarumlaut" unicode="&#x171;" horiz-adv-x="559" 
d="M197 662h54l-76 -141h-45zM396 662h54l-76 -141h-45zM114 37.5q-44 47.5 -44 136.5v300h55v-302q0 -69 34 -103t107 -34q48 0 89.5 18.5t73.5 50.5v370h55v-474h-49l-5 58q-38 -33 -83 -50.5t-104 -17.5q-85 0 -129 47.5z" />
    <glyph glyph-name="umacron" unicode="&#x16b;" horiz-adv-x="559" 
d="M139 595h277v-42h-277v42zM114 37.5q-44 47.5 -44 136.5v300h55v-302q0 -69 34 -103t107 -34q48 0 89.5 18.5t73.5 50.5v370h55v-474h-49l-5 58q-38 -33 -83 -50.5t-104 -17.5q-85 0 -129 47.5z" />
    <glyph glyph-name="uogonek" unicode="&#x173;" horiz-adv-x="559" 
d="M388 -199.5q-25 20.5 -25 65.5q0 39 20.5 75t51.5 59l-5 58q-38 -33 -83 -50.5t-104 -17.5q-85 0 -129 47.5t-44 136.5v300h55v-302q0 -69 34 -103t107 -34q48 0 89.5 18.5t73.5 50.5v370h55v-474q-74 -55 -74 -128q0 -27 12.5 -39t40.5 -12q13 0 27 3t23 8v-41
q-21 -11 -59 -11q-41 0 -66 20.5z" />
    <glyph glyph-name="uring" unicode="&#x16f;" horiz-adv-x="559" 
d="M209 550.5q-29 29.5 -29 71.5q0 43 29 72.5t73 29.5q45 0 74 -29.5t29 -72.5q0 -42 -29 -71.5t-74 -29.5q-44 0 -73 29.5zM329.5 575.5q18.5 18.5 18.5 46.5q0 29 -18.5 47.5t-47.5 18.5q-28 0 -47 -18.5t-19 -47.5q0 -28 19 -46.5t47 -18.5q29 0 47.5 18.5zM114 37.5
q-44 47.5 -44 136.5v300h55v-302q0 -69 34 -103t107 -34q48 0 89.5 18.5t73.5 50.5v370h55v-474h-49l-5 58q-38 -33 -83 -50.5t-104 -17.5q-85 0 -129 47.5z" />
    <glyph glyph-name="utilde" unicode="&#x169;" horiz-adv-x="559" 
d="M317 552q-17 5 -39 15q-40 17 -60 17q-50 0 -79 -35v47q12 13 33.5 21t44.5 8q18 0 32.5 -4.5t37.5 -14.5q20 -9 33.5 -13.5t28.5 -4.5q24 0 42 8.5t31 26.5v-47q-10 -14 -28.5 -21.5t-42.5 -7.5q-17 0 -34 5zM114 37.5q-44 47.5 -44 136.5v300h55v-302q0 -69 34 -103
t107 -34q48 0 89.5 18.5t73.5 50.5v370h55v-474h-49l-5 58q-38 -33 -83 -50.5t-104 -17.5q-85 0 -129 47.5z" />
    <glyph glyph-name="v" unicode="v" horiz-adv-x="546" 
d="M55 474h57l161 -428l162 428h56l-185 -474h-66z" />
    <glyph glyph-name="w" unicode="w" horiz-adv-x="719" 
d="M55 474h55l104 -418l119 366v52h43l130 -418l103 418h55l-123 -474h-59l-121 377l-123 -377h-60z" />
    <glyph glyph-name="wacute" unicode="&#x1e83;" horiz-adv-x="719" 
d="M400 680h52l-74 -158h-45zM55 474h55l104 -418l119 366v52h43l130 -418l103 418h55l-123 -474h-59l-121 377l-123 -377h-60z" />
    <glyph glyph-name="wcircumflex" unicode="&#x175;" horiz-adv-x="719" 
d="M337 656h48l105 -135h-50l-79 103l-79 -103h-50zM55 474h55l104 -418l119 366v52h43l130 -418l103 418h55l-123 -474h-59l-121 377l-123 -377h-60z" />
    <glyph glyph-name="wdieresis" unicode="&#x1e85;" horiz-adv-x="719" 
d="M249 601h57v-55h-57v55zM416 601h56v-55h-56v55zM55 474h55l104 -418l119 366v52h43l130 -418l103 418h55l-123 -474h-59l-121 377l-123 -377h-60z" />
    <glyph glyph-name="wgrave" unicode="&#x1e81;" horiz-adv-x="719" 
d="M256 680h52l67 -158h-45zM55 474h55l104 -418l119 366v52h43l130 -418l103 418h55l-123 -474h-59l-121 377l-123 -377h-60z" />
    <glyph glyph-name="x" unicode="x" horiz-adv-x="528" 
d="M234 241l-174 233h60l143 -195l144 195h59l-171 -233l178 -241h-60l-150 204l-149 -204h-59z" />
    <glyph glyph-name="y" unicode="y" horiz-adv-x="566" 
d="M74 -165v46q27 -10 61 -10q33 0 54 14.5t35.5 40t37.5 77.5l-207 471h57l178 -412l185 412h56l-205 -459q-30 -68 -51.5 -106t-53 -61.5t-75.5 -23.5q-43 0 -72 11z" />
    <glyph glyph-name="yacute" unicode="&#xfd;" horiz-adv-x="566" 
d="M325 680h52l-74 -158h-45zM74 -165v46q27 -10 61 -10q33 0 54 14.5t35.5 40t37.5 77.5l-207 471h57l178 -412l185 412h56l-205 -459q-30 -68 -51.5 -106t-53 -61.5t-75.5 -23.5q-43 0 -72 11z" />
    <glyph glyph-name="ycircumflex" unicode="&#x177;" horiz-adv-x="566" 
d="M269 656h48l105 -135h-50l-79 103l-79 -103h-50zM74 -165v46q27 -10 61 -10q33 0 54 14.5t35.5 40t37.5 77.5l-207 471h57l178 -412l185 412h56l-205 -459q-30 -68 -51.5 -106t-53 -61.5t-75.5 -23.5q-43 0 -72 11z" />
    <glyph glyph-name="ydieresis" unicode="&#xff;" horiz-adv-x="566" 
d="M184 606h57v-55h-57v55zM351 606h56v-55h-56v55zM74 -165v46q27 -10 61 -10q33 0 54 14.5t35.5 40t37.5 77.5l-207 471h57l178 -412l185 412h56l-205 -459q-30 -68 -51.5 -106t-53 -61.5t-75.5 -23.5q-43 0 -72 11z" />
    <glyph glyph-name="uni1E8F" unicode="&#x1e8f;" horiz-adv-x="566" 
d="M263 604h57v-56h-57v56zM74 -165v46q27 -10 61 -10q33 0 54 14.5t35.5 40t37.5 77.5l-207 471h57l178 -412l185 412h56l-205 -459q-30 -68 -51.5 -106t-53 -61.5t-75.5 -23.5q-43 0 -72 11z" />
    <glyph glyph-name="uni1EF5" unicode="&#x1ef5;" horiz-adv-x="566" 
d="M74 -165v46q27 -10 61 -10q33 0 54 14.5t35.5 40t37.5 77.5l-207 471h57l178 -412l185 412h56l-205 -459q-30 -68 -51.5 -106t-53 -61.5t-75.5 -23.5q-43 0 -72 11zM375 -78h59v-57h-59v57z" />
    <glyph glyph-name="ygrave" unicode="&#x1ef3;" horiz-adv-x="566" 
d="M202 680h52l67 -158h-45zM74 -165v46q27 -10 61 -10q33 0 54 14.5t35.5 40t37.5 77.5l-207 471h57l178 -412l185 412h56l-205 -459q-30 -68 -51.5 -106t-53 -61.5t-75.5 -23.5q-43 0 -72 11z" />
    <glyph glyph-name="uni1EF7" unicode="&#x1ef7;" horiz-adv-x="566" 
d="M268 601q39 2 59.5 8.5t27.5 18.5t7 32q0 27 -20 40t-63 13q-16 0 -35 -3.5t-32 -8.5v38q13 5 35.5 8.5t41.5 3.5q57 0 86.5 -23t29.5 -65q0 -41 -20.5 -62.5t-69.5 -26.5v-52h-47v79zM74 -165v46q27 -10 61 -10q33 0 54 14.5t35.5 40t37.5 77.5l-207 471h57l178 -412
l185 412h56l-205 -459q-30 -68 -51.5 -106t-53 -61.5t-75.5 -23.5q-43 0 -72 11z" />
    <glyph glyph-name="uni1EF9" unicode="&#x1ef9;" horiz-adv-x="566" 
d="M327 552q-17 5 -39 15q-40 17 -60 17q-50 0 -79 -35v47q12 13 33.5 21t44.5 8q18 0 32.5 -4.5t37.5 -14.5q20 -9 33.5 -13.5t28.5 -4.5q24 0 42 8.5t31 26.5v-47q-10 -14 -28.5 -21.5t-42.5 -7.5q-17 0 -34 5zM74 -165v46q27 -10 61 -10q33 0 54 14.5t35.5 40t37.5 77.5
l-207 471h57l178 -412l185 412h56l-205 -459q-30 -68 -51.5 -106t-53 -61.5t-75.5 -23.5q-43 0 -72 11z" />
    <glyph glyph-name="z" unicode="z" horiz-adv-x="479" 
d="M55 34l298 394h-284v46h349v-38l-296 -391h302v-45h-369v34z" />
    <glyph glyph-name="zacute" unicode="&#x17a;" horiz-adv-x="479" 
d="M290 680h52l-74 -158h-45zM55 34l298 394h-284v46h349v-38l-296 -391h302v-45h-369v34z" />
    <glyph glyph-name="zcaron" unicode="&#x17e;" horiz-adv-x="479" 
d="M106 656h50l79 -103l79 103h50l-105 -135h-48zM55 34l298 394h-284v46h349v-38l-296 -391h302v-45h-369v34z" />
    <glyph glyph-name="zdotaccent" unicode="&#x17c;" horiz-adv-x="479" 
d="M219 604h57v-56h-57v56zM55 34l298 394h-284v46h349v-38l-296 -391h302v-45h-369v34z" />
    <glyph glyph-name="uni1E93" unicode="&#x1e93;" horiz-adv-x="479" 
d="M55 34l298 394h-284v46h349v-38l-296 -391h302v-45h-369v34zM217 -95h59v-57h-59v57z" />
    <glyph glyph-name="ordfeminine" unicode="&#xaa;" horiz-adv-x="348" 
d="M81.5 399q-26.5 19 -26.5 57q0 84 103 84h94v17q0 34 -16.5 48t-65.5 14q-42 0 -81 -14v35q40 14 90 14q114 0 114 -95v-173h-37l-3 32q-20 -20 -44.5 -29t-58.5 -9q-42 0 -68.5 19zM212.5 422q21.5 10 39.5 32v54h-91q-37 0 -52 -11.5t-15 -39.5q0 -45 66 -45
q31 0 52.5 10z" />
    <glyph glyph-name="ordmasculine" unicode="&#xba;" horiz-adv-x="363" 
d="M55 517q0 67 31.5 102t94.5 35t95 -35t32 -102q0 -137 -127 -137q-126 0 -126 137zM247.5 439.5q19.5 25.5 19.5 77.5q0 51 -20 76.5t-66 25.5t-66 -25.5t-20 -76.5q0 -52 19.5 -77.5t66.5 -25.5t66.5 25.5z" />
    <glyph glyph-name="uni207F" unicode="&#x207f;" horiz-adv-x="363" 
d="M60 648h38l2 -32q22 18 48 27.5t60 9.5q48 0 74 -23t26 -70v-174h-41v163q0 40 -15.5 55t-57.5 15q-27 0 -51 -10.5t-42 -28.5v-194h-41v262z" />
    <glyph glyph-name="uni0394" unicode="&#x394;" horiz-adv-x="655" 
d="M55 34l240 610h64l241 -611v-33h-545v34zM542 44l-216 550l-216 -550h432z" />
    <glyph glyph-name="uni03A9" unicode="&#x3a9;" horiz-adv-x="771" 
d="M62 44h176q-84 50 -133.5 130.5t-49.5 187.5q0 94 40 170t115.5 119.5t175.5 43.5t175 -43.5t115 -119.5t40 -170q0 -107 -49 -187.5t-133 -130.5h175v-44h-252v44q102 54 153.5 134.5t51.5 183.5q0 82 -35 147t-98 101.5t-143 36.5q-81 0 -144 -36.5t-98 -101.5
t-35 -147q0 -103 51.5 -183.5t153.5 -134.5v-44h-252v44z" />
    <glyph glyph-name="uni03BC" unicode="&#x3bc;" horiz-adv-x="564" 
d="M75 474h55v-302q0 -69 34.5 -103t106.5 -34q48 0 89.5 18.5t73.5 50.5v370h55v-474h-49l-5 58q-38 -33 -83 -50.5t-104 -17.5q-38 0 -69 12.5t-49 35.5v-181h-55v617z" />
    <glyph glyph-name="pi" unicode="&#x3c0;" horiz-adv-x="658" 
d="M445.5 26q-31.5 36 -31.5 99v304h-245v-429h-55v429h-69v45h494v-45h-70v-304q0 -47 19.5 -67.5t67.5 -20.5q24 0 57 10v-45q-33 -12 -76 -12q-60 0 -91.5 36z" />
    <glyph glyph-name="uni0E01" unicode="&#xe01;" horiz-adv-x="600" 
d="M90 243q0 40 21 68.5t62 40.5l-118 26v80q40 40 102.5 66t141.5 26q115 0 170.5 -49.5t55.5 -147.5v-353h-55v356q0 79 -40.5 112.5t-130.5 33.5q-61 0 -113.5 -18.5t-80.5 -48.5v-28l120 -26v-48q-40 -9 -60 -31t-20 -62v-240h-55v243z" />
    <glyph glyph-name="uni0E16" unicode="&#xe16;" horiz-adv-x="600" 
d="M112.5 24.5q-22.5 24.5 -22.5 66.5v152q0 40 21 68.5t62 40.5l-118 26v80q39 39 103 65.5t144 26.5q114 0 168.5 -49.5t54.5 -147.5v-353h-55v356q0 80 -39.5 113t-129.5 33q-61 0 -114.5 -18.5t-81.5 -48.5v-28l120 -26v-48q-80 -19 -80 -93v-139q0 -28 13 -41.5
t39 -13.5h59v-46h-80q-41 0 -63.5 24.5z" />
    <glyph glyph-name="uni0E20" unicode="&#xe20;" horiz-adv-x="639" 
d="M55 46h43q24 0 35.5 13t11.5 41v143q0 42 15.5 69.5t53.5 39.5l-121 26v80q39 39 103.5 65.5t143.5 26.5q115 0 169.5 -49.5t54.5 -147.5v-353h-55v356q0 80 -40 113t-129 33q-61 0 -114.5 -18.5t-82.5 -48.5v-28l123 -26v-48q-37 -10 -51.5 -30.5t-14.5 -62.5v-142
q0 -48 -22.5 -73t-66.5 -25h-56v46z" />
    <glyph glyph-name="uni0E24" unicode="&#xe24;" horiz-adv-x="603" 
d="M473 356q0 80 -41 113t-131 33q-61 0 -114.5 -18.5t-81.5 -48.5v-28l120 -26v-48q-80 -19 -80 -93v-139q0 -28 13 -41.5t39 -13.5h59v-46h-80q-41 0 -63.5 24.5t-22.5 66.5v152q0 40 21 68.5t62 40.5l-118 26v80q39 39 103 65.5t144 26.5q226 0 226 -197v-513h-55v516z
" />
    <glyph glyph-name="uni0E24.short" horiz-adv-x="603" 
d="M473 356q0 80 -41 113t-131 33q-61 0 -114.5 -18.5t-81.5 -48.5v-28l120 -26v-48q-80 -19 -80 -93v-139q0 -28 13 -41.5t39 -13.5h59v-46h-80q-41 0 -63.5 24.5t-22.5 66.5v152q0 40 21 68.5t62 40.5l-118 26v80q39 39 103 65.5t144 26.5q226 0 226 -197v-463h-55v466z
" />
    <glyph glyph-name="uni0E26" unicode="&#xe26;" horiz-adv-x="641" 
d="M511 356q0 79 -40.5 112.5t-130.5 33.5q-61 0 -114.5 -18.5t-82.5 -48.5v-28l123 -26v-48q-37 -10 -51.5 -30.5t-14.5 -62.5v-142q0 -48 -22.5 -73t-66.5 -25h-56v46h43q24 0 35.5 13t11.5 41v143q0 42 15.5 69.5t53.5 39.5l-121 26v80q39 39 103.5 65.5t143.5 26.5
q115 0 170.5 -49.5t55.5 -147.5v-513h-55v516z" />
    <glyph glyph-name="uni0E26.short" horiz-adv-x="641" 
d="M511 356q0 79 -40.5 112.5t-130.5 33.5q-61 0 -114.5 -18.5t-82.5 -48.5v-28l123 -26v-48q-37 -10 -51.5 -30.5t-14.5 -62.5v-142q0 -48 -22.5 -73t-66.5 -25h-56v46h43q24 0 35.5 13t11.5 41v143q0 42 15.5 69.5t53.5 39.5l-121 26v80q39 39 103.5 65.5t143.5 26.5
q115 0 170.5 -49.5t55.5 -147.5v-463h-55v466z" />
    <glyph glyph-name="uni0E0E" unicode="&#xe0e;" horiz-adv-x="641" 
d="M183 -147q81 39 172 39q95 0 156 -37v501q0 79 -40.5 112.5t-130.5 33.5q-61 0 -114.5 -18.5t-82.5 -48.5v-28l123 -26v-48q-37 -10 -51.5 -30.5t-14.5 -62.5v-142q0 -48 -22.5 -73t-66.5 -25h-56v46h43q24 0 35.5 13t11.5 41v143q0 42 15.5 69.5t53.5 39.5l-121 26v80
q39 39 103.5 65.5t143.5 26.5q115 0 170.5 -49.5t55.5 -147.5v-547h-53q-38 20 -75 29.5t-86 9.5q-46 0 -85.5 -9.5t-83.5 -30.5v48z" />
    <glyph glyph-name="doChadathai.short" horiz-adv-x="641" 
d="M183 -77q81 39 172 39q95 0 156 -37v431q0 79 -40.5 112.5t-130.5 33.5q-61 0 -114.5 -18.5t-82.5 -48.5v-28l123 -26v-48q-37 -10 -51.5 -30.5t-14.5 -62.5v-142q0 -48 -22.5 -73t-66.5 -25h-56v46h43q24 0 35.5 13t11.5 41v143q0 42 15.5 69.5t53.5 39.5l-121 26v80
q39 39 103.5 65.5t143.5 26.5q115 0 170.5 -49.5t55.5 -147.5v-477h-53q-38 20 -75 29.5t-86 9.5q-46 0 -85.5 -9.5t-83.5 -30.5v48z" />
    <glyph glyph-name="uni0E0F" unicode="&#xe0f;" horiz-adv-x="641" 
d="M384 -182.5q-27 12.5 -40 31.5q-11 -20 -34 -31.5t-57 -11.5h-83l4 49h71q30 0 48 9.5t33 33.5h33q26 -45 80 -45q39 0 55.5 18.5t16.5 61.5v423q0 79 -40.5 112.5t-130.5 33.5q-61 0 -114.5 -18.5t-82.5 -48.5v-28l123 -26v-48q-37 -10 -51.5 -30.5t-14.5 -62.5v-142
q0 -48 -22.5 -73t-66.5 -25h-56v46h43q24 0 35.5 13t11.5 41v143q0 42 15.5 69.5t53.5 39.5l-121 26v80q39 39 103.5 65.5t143.5 26.5q115 0 170.5 -49.5t55.5 -147.5v-425q0 -61 -32 -92t-90 -31q-33 0 -60 12.5z" />
    <glyph glyph-name="toPatakthai.short" horiz-adv-x="641" 
d="M383.5 -112q-26.5 12 -39.5 31q-11 -20 -34 -31t-57 -11h-83l4 49h71q30 0 48 9t33 33h33q27 -45 80 -45q39 0 55.5 19t16.5 62v352q0 79 -40.5 112.5t-130.5 33.5q-61 0 -114.5 -18.5t-82.5 -48.5v-28l123 -26v-48q-37 -10 -51.5 -30.5t-14.5 -62.5v-142
q0 -48 -22.5 -73t-66.5 -25h-56v46h43q24 0 35.5 13t11.5 41v143q0 42 15.5 69.5t53.5 39.5l-121 26v80q39 39 103.5 65.5t143.5 26.5q115 0 170.5 -49.5t55.5 -147.5v-355q0 -60 -32 -91t-90 -31q-34 0 -60.5 12z" />
    <glyph glyph-name="uni0E0D" unicode="&#xe0d;" horiz-adv-x="962" 
d="M566 -39.5q-49 10.5 -85 30.5v49q37 -21 89 -32t101 -11q164 0 164 77q0 17 -5 29t-17 21q-53 -39 -142 -39q-110 0 -163.5 51.5t-53.5 155.5v64q0 80 -36.5 113t-124.5 33q-59 0 -109 -18.5t-79 -48.5v-28l120 -26v-48q-80 -19 -80 -93v-139q0 -28 13 -41.5t39 -13.5h59
v-46h-80q-41 0 -63.5 24.5t-22.5 66.5v152q0 40 21 68.5t62 40.5l-118 26v80q40 40 100.5 66t138.5 26q112 0 163.5 -49t51.5 -148v-68q0 -79 39.5 -116t122.5 -37q82 0 121.5 37t39.5 116v255h55v-248q0 -45 -9.5 -77t-28.5 -57q38 -28 38 -84q0 -124 -216 -124
q-56 0 -105 10.5z" />
    <glyph glyph-name="yoYingthai.less" horiz-adv-x="962" 
d="M507.5 41.5q-53.5 51.5 -53.5 155.5v159q0 80 -36.5 113t-124.5 33q-59 0 -109 -18.5t-79 -48.5v-28l120 -26v-48q-80 -19 -80 -93v-139q0 -28 13 -41.5t39 -13.5h59v-46h-80q-41 0 -63.5 24.5t-22.5 66.5v152q0 40 21 68.5t62 40.5l-118 26v80q40 40 100.5 66t138.5 26
q112 0 163.5 -49t51.5 -148v-163q0 -79 39.5 -116t122.5 -37q82 0 121.5 37t39.5 116v350h55v-343q0 -103 -53.5 -155t-162.5 -52q-110 0 -163.5 51.5z" />
    <glyph glyph-name="uni0E02" unicode="&#xe02;" horiz-adv-x="556" 
d="M118.5 38q-53.5 48 -53.5 140v92q0 27 15 54.5t42 63.5q21 29 31 46t10 31q0 18 -6.5 24t-26.5 6h-75l5 45h96q31 0 46.5 -16.5t15.5 -46.5q0 -25 -12.5 -49t-36.5 -57q-25 -35 -37 -58t-12 -48v-96q0 -68 40 -100t112 -32t113 32.5t41 100.5v370h55v-362
q0 -92 -54.5 -140t-154.5 -48t-153.5 48z" />
    <glyph glyph-name="uni0E03" unicode="&#xe03;" horiz-adv-x="543" 
d="M67 176v80q0 26 15.5 52t47.5 68q26 32 38.5 53t12.5 38q0 29 -28 29q-27 0 -53 -24v-38h-45v106h45v-28q32 28 70 28q30 0 47 -17t17 -48q0 -27 -14 -52t-43 -61q-28 -37 -41.5 -61t-13.5 -49v-83q0 -132 145 -132q146 0 146 133v370h55v-362q0 -93 -51 -140.5
t-150 -47.5q-200 0 -200 186z" />
    <glyph glyph-name="uni0E0A" unicode="&#xe0a;" horiz-adv-x="562" 
d="M119.5 38q-54.5 48 -54.5 140v92q0 27 15 54.5t42 63.5q21 29 31 46t10 31q0 18 -6.5 24t-26.5 6h-75l5 45h96q31 0 46.5 -16.5t15.5 -46.5q0 -25 -12.5 -49t-36.5 -57q-25 -35 -37 -58t-12 -48v-96q0 -68 41.5 -100t113.5 -32q74 0 115 32t41 101v71q0 65 -21 89.5
t-77 24.5h-28l4 45h24q57 0 77.5 26.5t20.5 85.5v38h55v-37q0 -56 -16 -88.5t-61 -46.5q48 -16 62.5 -47.5t14.5 -89.5v-63q0 -92 -56 -140t-155 -48q-101 0 -155.5 48z" />
    <glyph glyph-name="uni0E0B" unicode="&#xe0b;" horiz-adv-x="559" 
d="M120.5 38q-53.5 48 -53.5 140v78q0 26 15.5 52t47.5 68q26 32 38.5 53t12.5 38q0 29 -28 29q-27 0 -53 -24v-38h-45v106h45v-28q32 28 70 28q30 0 47 -17t17 -48q0 -27 -14 -52t-43 -61q-28 -37 -41.5 -61t-13.5 -49v-83q0 -68 40 -100t112 -32q154 0 154 133v71
q0 65 -21 89.5t-77 24.5h-28l4 45h24q57 0 77.5 26.5t20.5 85.5v38h55v-37q0 -56 -16 -88.5t-61 -46.5q48 -16 62.5 -47.5t14.5 -89.5v-63q0 -92 -54.5 -140t-154.5 -48t-153.5 48z" />
    <glyph glyph-name="uni0E04" unicode="&#xe04;" horiz-adv-x="594" 
d="M75 358q0 96 54.5 144t168.5 48q113 0 167 -48t54 -144v-358h-55v366q0 71 -41.5 103.5t-124.5 32.5q-85 0 -126.5 -32.5t-41.5 -103.5v-139q56 45 127 45h67l3 -46h-71q-36 0 -66.5 -11t-59.5 -34v-181h-55v358z" />
    <glyph glyph-name="uni0E05" unicode="&#xe05;" horiz-adv-x="594" 
d="M75 416q0 66 32 100t88 34q67 0 102 -52q18 26 48 39t63 13q58 0 84.5 -32.5t26.5 -102.5v-415h-55v421q0 41 -14 61t-51 20q-26 0 -48 -13t-38 -37h-33q-14 25 -31 37.5t-41 12.5q-78 0 -78 -82v-193q56 45 127 45h67l3 -46h-71q-36 0 -66.5 -11t-59.5 -34v-181h-55v416
z" />
    <glyph glyph-name="uni0E28" unicode="&#xe28;" horiz-adv-x="609" 
d="M75 358q0 96 54.5 144t168.5 48q47 0 90 -10h181l-3 -47h-96q49 -48 49 -135v-358h-55v366q0 71 -41.5 103.5t-124.5 32.5q-85 0 -126.5 -32.5t-41.5 -103.5v-139q56 45 127 45h67l3 -46h-71q-36 0 -66.5 -11t-59.5 -34v-181h-55v358z" />
    <glyph glyph-name="uni0E14" unicode="&#xe14;" horiz-adv-x="628" 
d="M110.5 59q-55.5 69 -55.5 209q0 134 65 208t198 74q119 0 177 -59.5t58 -150.5v-340h-55v343q0 72 -43.5 115.5t-137.5 43.5q-208 0 -208 -234q0 -122 41.5 -176.5t124.5 -54.5q44 0 68 8v-47q-29 -8 -79 -8q-98 0 -153.5 69z" />
    <glyph glyph-name="uni0E15" unicode="&#xe15;" horiz-adv-x="628" 
d="M110.5 59q-55.5 69 -55.5 209q0 136 40 209t118 73q37 0 62 -12.5t48 -39.5q23 26 54 39t64 13q54 0 83 -30.5t29 -92.5v-427h-55v421q0 45 -16 63t-55 18q-26 0 -49.5 -12.5t-37.5 -37.5h-35q-19 27 -37.5 38.5t-47.5 11.5q-60 0 -85.5 -61t-25.5 -173q0 -123 42 -177
t124 -54q44 0 68 8v-47q-29 -8 -79 -8q-98 0 -153.5 69z" />
    <glyph glyph-name="uni0E17" unicode="&#xe17;" horiz-adv-x="585" 
d="M75 540h48l5 -71q42 39 90 60t114 21q86 0 132 -49t46 -143v-358h-55v361q0 73 -34.5 107t-107.5 34q-102 0 -183 -84v-418h-55v540z" />
    <glyph glyph-name="uni0E11" unicode="&#xe11;" horiz-adv-x="580" 
d="M90 246q0 27 13 56t38 68q22 37 31.5 57.5t9.5 38.5q0 30 -28 30t-54 -24v-38h-45v106h45v-28q32 28 70 28q40 0 54 -31q58 41 126 41q84 0 119.5 -44.5t35.5 -141.5v-364h-55v367q0 50 -9.5 79t-34 42.5t-71.5 13.5q-27 0 -55.5 -10.5t-47.5 -28.5q0 -23 -10.5 -46
t-31.5 -60q-22 -37 -33.5 -63t-11.5 -53v-241h-55v246z" />
    <glyph glyph-name="uni0E19" unicode="&#xe19;" horiz-adv-x="585" 
d="M119.5 38.5q-44.5 48.5 -44.5 143.5v358h55v-361q0 -73 33 -107.5t106 -34.5q105 0 186 84v419h55v-540h-48l-5 71q-41 -39 -91 -60t-115 -21q-87 0 -131.5 48.5z" />
    <glyph glyph-name="uni0E21" unicode="&#xe21;" horiz-adv-x="585" 
d="M217.5 10.5q-47.5 20.5 -89.5 60.5l-5 -71h-48v540h55v-419q81 -84 183 -84q73 0 107.5 34.5t34.5 107.5v361h55v-358q0 -95 -46 -143.5t-133 -48.5q-66 0 -113.5 20.5z" />
    <glyph glyph-name="uni0E0C" unicode="&#xe0c;" horiz-adv-x="951" 
d="M597 10.5q-44 20.5 -87 60.5l-5 -71h-48v356q0 80 -38 113t-126 33q-59 0 -109 -18.5t-79 -48.5v-28l120 -26v-48q-80 -19 -80 -93v-139q0 -28 13 -41.5t39 -13.5h59v-46h-80q-41 0 -63.5 24.5t-22.5 66.5v152q0 40 21 68.5t62 40.5l-118 26v80q40 40 100.5 66t138.5 26
q113 0 165 -49t52 -148v-232q39 -40 81 -62t94 -22q70 0 102.5 34t32.5 108v361h55v-358q0 -95 -44 -143.5t-128 -48.5q-63 0 -107 20.5z" />
    <glyph glyph-name="uni0E13" unicode="&#xe13;" horiz-adv-x="951" 
d="M499.5 38.5q-42.5 48.5 -42.5 143.5v174q0 80 -38 113t-126 33q-59 0 -109 -18.5t-79 -48.5v-28l120 -26v-48q-80 -19 -80 -93v-139q0 -28 13 -41.5t39 -13.5h59v-46h-80q-41 0 -63.5 24.5t-22.5 66.5v152q0 40 21 68.5t62 40.5l-118 26v80q40 40 100.5 66t138.5 26
q113 0 165 -49t52 -148v-174q0 -73 31.5 -107.5t100.5 -34.5q97 0 178 84v419h55v-540h-49l-5 71q-42 -40 -88 -60.5t-109 -20.5q-83 0 -125.5 48.5z" />
    <glyph glyph-name="uni0E12" unicode="&#xe12;" horiz-adv-x="977" 
d="M110.5 59q-55.5 69 -55.5 209q0 136 39.5 209t114.5 73q36 0 59 -12t47 -40q48 52 115 52q52 0 79.5 -30.5t27.5 -92.5v-306q39 -40 81 -62t94 -22q70 0 102.5 34t32.5 108v361h55v-358q0 -95 -44 -143.5t-128 -48.5q-63 0 -107 20.5t-87 60.5l-5 -71h-48v421
q0 45 -15 63t-53 18q-54 0 -83 -50h-35q-19 28 -36 39t-46 11q-57 0 -81.5 -61t-24.5 -173q0 -123 42 -177t124 -54q44 0 68 8v-47q-29 -8 -79 -8q-98 0 -153.5 69z" />
    <glyph glyph-name="uni0E06" unicode="&#xe06;" horiz-adv-x="577" 
d="M209.5 10.5q-47.5 20.5 -89.5 60.5l-5 -71h-48v244q0 27 16 55.5t47 70.5q27 39 39 59.5t12 37.5q0 29 -28 29q-27 0 -53 -24v-38h-45v106h45v-28q32 28 70 28q30 0 47 -17t17 -48q0 -27 -14.5 -54.5t-42.5 -64.5q-28 -41 -41.5 -66t-13.5 -50v-119q81 -84 183 -84
q73 0 107.5 34.5t34.5 107.5v361h55v-358q0 -95 -46 -143.5t-133 -48.5q-66 0 -113.5 20.5z" />
    <glyph glyph-name="uni0E18" unicode="&#xe18;" horiz-adv-x="520" 
d="M156 0.5q-52 10.5 -91 25.5v207h52v-172q69 -24 143 -24q76 0 113.5 26t37.5 86q0 49 -18.5 75t-50 37.5t-99.5 26.5q-69 15 -102.5 26t-59.5 37t-26 73q0 67 55 96.5t158 29.5q45 0 94.5 -7.5t79.5 -18.5v-49q-33 12 -79 19.5t-87 7.5q-83 0 -126 -15.5t-43 -61.5
q0 -28 16 -44.5t42 -25t80 -21.5q13 -2 23 -4.5l18 -4.5q62 -15 97.5 -31t58.5 -50t23 -95q0 -81 -53 -120t-148 -39q-56 0 -108 10.5z" />
    <glyph glyph-name="uni0E23" unicode="&#xe23;" horiz-adv-x="502" 
d="M145.5 -3.5q-45.5 6.5 -75.5 18.5v49q74 -27 162 -27q82 0 121.5 20.5t39.5 76.5q0 33 -16 53.5t-42 32t-74 26.5q-10 4 -30 10q-58 19 -92.5 35t-59 45.5t-24.5 75.5q0 138 201 138q40 0 80.5 -6.5t72.5 -17.5v-49q-66 25 -145 25q-82 0 -118.5 -19.5t-36.5 -69.5
q0 -32 19 -52.5t50.5 -34t94.5 -33.5q57 -18 92.5 -35.5t58.5 -47t23 -75.5q0 -78 -54.5 -111.5t-152.5 -33.5q-49 0 -94.5 6.5z" />
    <glyph glyph-name="uni0E08" unicode="&#xe08;" horiz-adv-x="555" 
d="M205 -1l-90 240h-60l3 47h93l93 -249q8 -1 23 -1q48 0 88.5 25t65.5 79.5t25 136.5t-20.5 130.5t-67 71.5t-126.5 23q-95 0 -169 -25v47q80 26 184 26q131 0 192 -69t61 -204q0 -92 -30.5 -157t-83.5 -97.5t-119 -32.5q-39 0 -62 9z" />
    <glyph glyph-name="uni0E27" unicode="&#xe27;" horiz-adv-x="490" 
d="M55 16v47q64 -26 127 -26q78 0 121 24.5t60 74.5t17 134q0 121 -46.5 176.5t-155.5 55.5q-63 0 -123 -26v48q29 13 59.5 19.5t73.5 6.5q126 0 186.5 -70t60.5 -210t-54.5 -210t-185.5 -70q-82 0 -140 26z" />
    <glyph glyph-name="uni0E07" unicode="&#xe07;" horiz-adv-x="559" 
d="M207 -1l-152 370h54l137 -332q9 -1 25 -1q179 0 179 253q0 77 -14 121t-47 63.5t-92 19.5h-32v47h36q111 0 157 -59.5t46 -190.5q0 -153 -60.5 -226.5t-160.5 -73.5q-53 0 -76 9z" />
    <glyph glyph-name="uni0E10" unicode="&#xe10;" horiz-adv-x="592" 
d="M205 -1l-90 240h-60l3 47h93l93 -249q8 -1 23 -1q48 0 88.5 25t65.5 79.5t25 136.5t-20.5 130.5t-67 71.5t-126.5 23q-95 0 -169 -25v47q80 26 184 26q45 0 88 -10h202l-3 -47h-111q77 -66 77 -216q0 -92 -30.5 -157t-83.5 -97.5t-119 -32.5q-39 0 -62 9zM304 -182.5
q-27 12.5 -40 31.5q-11 -20 -34 -31.5t-57 -11.5h-83l4 49h71q30 0 48 9.5t33 33.5h33q26 -45 80 -45q39 0 55.5 18.5t16.5 61.5v27h55v-32q0 -61 -32 -92t-90 -31q-33 0 -60 12.5z" />
    <glyph glyph-name="thoThanthai.less" horiz-adv-x="592" 
d="M205 -1l-90 240h-60l3 47h93l93 -249q8 -1 23 -1q48 0 88.5 25t65.5 79.5t25 136.5t-20.5 130.5t-67 71.5t-126.5 23q-95 0 -169 -25v47q80 26 184 26q45 0 88 -10h202l-3 -47h-111q77 -66 77 -216q0 -92 -30.5 -157t-83.5 -97.5t-119 -32.5q-39 0 -62 9z" />
    <glyph glyph-name="uni0E09" unicode="&#xe09;" horiz-adv-x="564" 
d="M62 179v121h55v-124q0 -74 29.5 -106.5t104.5 -32.5q104 0 183 84v232q0 56 -18.5 88t-59.5 46.5t-111 14.5q-43 0 -97 -8t-93 -21v47q39 13 95.5 21.5t109.5 8.5q116 0 172.5 -48t56.5 -149v-353h-48l-5 71q-41 -39 -89.5 -60t-114.5 -21q-170 0 -170 189z" />
    <glyph glyph-name="uni0E25" unicode="&#xe25;" horiz-adv-x="578" 
d="M102.5 28.5q-47.5 38.5 -47.5 117.5q0 76 50 118.5t153 42.5h190v53q0 53 -15 83.5t-50.5 44.5t-99.5 14q-95 0 -170 -25v47q78 26 182 26q110 0 159 -46t49 -146v-358h-55v260h-186q-80 0 -117 -27.5t-37 -86.5q0 -57 33.5 -83t103.5 -26q39 0 68 8v-47q-35 -8 -83 -8
q-80 0 -127.5 38.5z" />
    <glyph glyph-name="uni0E2A" unicode="&#xe2a;" horiz-adv-x="603" 
d="M102.5 28.5q-47.5 38.5 -47.5 117.5q0 76 50 118.5t153 42.5h190v53q0 53 -15 83.5t-50.5 44.5t-99.5 14q-95 0 -170 -25v47q78 26 182 26q53 0 90 -10h163l-3 -47h-81q39 -45 39 -135v-358h-55v260h-186q-80 0 -117 -27.5t-37 -86.5q0 -57 33.5 -83t103.5 -26q39 0 68 8
v-47q-35 -8 -83 -8q-80 0 -127.5 38.5z" />
    <glyph glyph-name="uni0E1A" unicode="&#xe1a;" horiz-adv-x="603" 
d="M132.5 42q-57.5 52 -57.5 155v343h55v-350q0 -153 172 -153q171 0 171 153v350h55v-343q0 -102 -57.5 -154.5t-168.5 -52.5q-112 0 -169.5 52z" />
    <glyph glyph-name="uni0E1B" unicode="&#xe1b;" horiz-adv-x="603" 
d="M132.5 42q-57.5 52 -57.5 155v343h55v-350q0 -153 172 -153q171 0 171 153v510h55v-503q0 -102 -57.5 -154.5t-168.5 -52.5q-112 0 -169.5 52z" />
    <glyph glyph-name="uni0E29" unicode="&#xe29;" horiz-adv-x="623" 
d="M132.5 42q-57.5 52 -57.5 155v343h55v-350q0 -153 172 -153q171 0 171 153v94h-157v46h157v210h55v-210h65l-5 -46h-60v-87q0 -102 -57.5 -154.5t-168.5 -52.5q-112 0 -169.5 52z" />
    <glyph glyph-name="uni0E22" unicode="&#xe22;" horiz-adv-x="578" 
d="M113.5 30.5q-58.5 40.5 -58.5 118.5q0 51 23.5 84.5t65.5 48.5q-39 10 -62.5 41t-23.5 81q0 72 41.5 109t108.5 37q42 0 79 -10v-47q-28 9 -68 9q-106 0 -106 -98q0 -99 119 -99h58l5 -44h-66q-58 0 -89 -29t-31 -83q0 -112 172 -112q84 0 125.5 34t41.5 105v364h55v-332
q0 -110 -50 -164t-171 -54q-110 0 -168.5 40.5z" />
    <glyph glyph-name="uni0E1C" unicode="&#xe1c;" horiz-adv-x="637" 
d="M75 447q0 41 23.5 67t63.5 26h76l2 -47h-57q-28 0 -41 -13.5t-13 -43.5v-363l173 302h33l173 -302v467h54v-540h-61l-182 319l-183 -319h-61v447z" />
    <glyph glyph-name="uni0E1D" unicode="&#xe1d;" horiz-adv-x="637" 
d="M75 447q0 41 23.5 67t63.5 26h76l2 -47h-57q-28 0 -41 -13.5t-13 -43.5v-363l173 302h33l173 -302v627h54v-700h-61l-182 319l-183 -319h-61v447z" />
    <glyph glyph-name="uni0E1F" unicode="&#xe1f;" horiz-adv-x="707" 
d="M45 540h56l101 -469l129 410v59h41l135 -469l134 629h55l-155 -700h-60l-122 420l-132 -420h-60z" />
    <glyph glyph-name="uni0E1E" unicode="&#xe1e;" horiz-adv-x="707" 
d="M45 540h56l101 -469l129 410v59h41l135 -469l100 469h55l-121 -540h-60l-122 420l-132 -420h-60z" />
    <glyph glyph-name="uni0E2B" unicode="&#xe2b;" horiz-adv-x="585" 
d="M75 540h55v-182h201q71 0 100 29t29 89v64h55v-64q0 -115 -90 -141q50 -15 66.5 -49t16.5 -91v-195h-55v191q0 47 -11.5 73t-38.5 36.5t-77 10.5h-196v-311h-55v540z" />
    <glyph glyph-name="uni0E2C" unicode="&#xe2c;" horiz-adv-x="707" 
d="M45 540h56l102 -469l128 370v59h41l133 -429l83 381q6 26 6 42q0 26 -13.5 37t-44.5 11h-40l7 45h39q43 0 63 15t28 54l9 44h54l-11 -49q-9 -42 -27.5 -63t-47.5 -26q37 -16 37 -66q0 -16 -5 -41l-101 -455h-60l-122 383l-133 -383h-59z" />
    <glyph glyph-name="loChulathai.short" horiz-adv-x="707" 
d="M45 540h56l102 -474l128 263v59h41l133 -322l61 285q6 26 6 42q0 26 -13.5 37t-44.5 11h-40l7 45h39q43 0 63 15.5t28 53.5l10 50h54l-12 -55q-9 -42 -27.5 -63t-47.5 -26q37 -16 37 -66q0 -16 -5 -41l-79 -354h-60l-122 279l-133 -279h-59z" />
    <glyph glyph-name="uni0E2D" unicode="&#xe2d;" horiz-adv-x="551" 
d="M146 0.5q-52 10.5 -91 25.5v266h182l3 -47h-130v-184q69 -24 140 -24q70 0 112 23t61 73.5t19 135.5q0 88 -19.5 138t-64.5 72.5t-124 22.5q-96 0 -171 -25v47q76 26 186 26q132 0 189.5 -68t57.5 -213q0 -141 -57.5 -210t-185.5 -69q-55 0 -107 10.5z" />
    <glyph glyph-name="uni0E2E" unicode="&#xe2e;" horiz-adv-x="583" 
d="M146 0.5q-52 10.5 -91 25.5v266h182l3 -47h-130v-184q69 -24 140 -24q70 0 112 23t61 73.5t19 135.5q0 88 -19.5 138t-64.5 72.5t-124 22.5q-96 0 -171 -25v47q76 26 186 26q47 0 90 -10h189l-3 -47h-102q39 -34 56 -89t17 -135q0 -141 -57.5 -210t-185.5 -69
q-55 0 -107 10.5z" />
    <glyph glyph-name="uni0E32" unicode="&#xe32;" horiz-adv-x="435" 
d="M305 357q0 53 -11 83.5t-41.5 46t-89.5 15.5q-32 0 -70 -6.5t-68 -18.5v47q30 12 69.5 19t78.5 7q98 0 142.5 -44t44.5 -144v-362h-55v357z" />
    <glyph glyph-name="uni0E33" unicode="&#xe33;" horiz-adv-x="435" 
d="M-174 628.5q-28 27.5 -28 67.5t28 67.5t69 27.5q40 0 68 -27.5t28 -67.5t-28 -67.5t-68 -27.5q-41 0 -69 27.5zM-65.5 656.5q16.5 16.5 16.5 39.5t-16.5 39.5t-39.5 16.5q-24 0 -40.5 -16.5t-16.5 -39.5t16.5 -39.5t40.5 -16.5q23 0 39.5 16.5zM305 357q0 53 -11 83.5
t-41.5 46t-89.5 15.5q-32 0 -70 -6.5t-68 -18.5v47q30 12 69.5 19t78.5 7q98 0 142.5 -44t44.5 -144v-362h-55v357z" />
    <glyph glyph-name="uni0E45" unicode="&#xe45;" horiz-adv-x="435" 
d="M305 357q0 53 -11 83.5t-41.5 46t-89.5 15.5q-32 0 -70 -6.5t-68 -18.5v47q30 12 69.5 19t78.5 7q98 0 142.5 -44t44.5 -144v-522h-55v517z" />
    <glyph glyph-name="uni0E30" unicode="&#xe30;" horiz-adv-x="322" 
d="M55 443h49v-49h163l-2 -45h-210v94zM55 163h49v-50h163l-2 -44h-210v94z" />
    <glyph glyph-name="uni0E40" unicode="&#xe40;" horiz-adv-x="286" 
d="M97.5 24.5q-22.5 24.5 -22.5 66.5v449h55v-439q0 -28 13 -41.5t39 -13.5h49v-46h-70q-41 0 -63.5 24.5z" />
    <glyph glyph-name="uni0E41" unicode="&#xe41;" horiz-adv-x="496" 
d="M97.5 24.5q-22.5 24.5 -22.5 66.5v449h55v-439q0 -28 13 -41.5t39 -13.5h44v-46h-65q-41 0 -63.5 24.5zM312.5 24.5q-22.5 24.5 -22.5 66.5v449h55v-417q0 -42 10.5 -59.5t41.5 -17.5h44v-46h-65q-41 0 -63.5 24.5z" />
    <glyph glyph-name="uni0E44" unicode="&#xe44;" horiz-adv-x="285" 
d="M115.5 24.5q-22.5 24.5 -22.5 66.5v374q0 64 26.5 110t71.5 73h-181v46h250v-48q-59 -27 -85.5 -73t-26.5 -122v-350q0 -28 13 -41.5t39 -13.5h49v-46h-70q-41 0 -63.5 24.5z" />
    <glyph glyph-name="uni0E43" unicode="&#xe43;" horiz-adv-x="278" 
d="M84.5 24.5q-22.5 24.5 -22.5 66.5v260q0 39 12 68t28.5 48t43.5 44q27 24 39.5 40.5t12.5 37.5q0 35 -19 48t-61 13q-58 0 -113 -31v45q27 16 60.5 24.5t65.5 8.5q62 0 92 -27t30 -78q0 -31 -15 -52.5t-46 -49.5q-37 -33 -56 -62t-19 -76v-251q0 -28 13 -41.5t39 -13.5
h49v-46h-70q-41 0 -63.5 24.5z" />
    <glyph glyph-name="uni0E42" unicode="&#xe42;" horiz-adv-x="300" 
d="M141.5 24.5q-22.5 24.5 -22.5 66.5v372q0 57 -10 89.5t-32.5 52.5t-66.5 40v49h256v-46h-185q37 -20 56.5 -42.5t28 -59t8.5 -97.5v-326q0 -42 10.5 -59.5t41.5 -17.5h49v-46h-70q-41 0 -63.5 24.5z" />
    <glyph glyph-name="uni210A" unicode="&#x210a;" horiz-adv-x="564" 
d="M216.5 -173q-34.5 3 -52.5 7v48q20 -6 50 -9t54 -3q76 0 121 31t45 91v57q-35 -26 -73.5 -37.5t-89.5 -11.5q-105 0 -160.5 56t-55.5 180q0 127 54.5 187.5t157.5 60.5q54 0 95 -15.5t76 -48.5l5 54h46v-477q0 -79 -58 -126t-153 -47q-27 0 -61.5 3zM434 98v276
q-60 64 -154 64q-90 0 -130.5 -49.5t-40.5 -152.5t42.5 -147t133.5 -44q90 0 149 53z" />
    <glyph glyph-name="zero" unicode="0" horiz-adv-x="639" 
d="M119.5 74q-64.5 84 -64.5 236q0 170 61 257t204 87q142 0 203 -87t61 -257q0 -152 -64.5 -236t-199.5 -84q-136 0 -200.5 84zM479.5 110q50.5 73 50.5 200q0 149 -48 222.5t-162 73.5q-115 0 -163 -73.5t-48 -222.5q0 -127 50.5 -200t160.5 -73q109 0 159.5 73z" />
    <glyph glyph-name="one" unicode="1" horiz-adv-x="286" 
d="M156 600l-101 -17v46l156 25v-654h-55v600z" />
    <glyph glyph-name="two" unicode="2" horiz-adv-x="499" 
d="M55 34q22 59 67.5 110.5t114.5 109.5q59 51 89 83.5t43.5 64.5t13.5 73q0 131 -155 131q-77 0 -148 -27v50q31 11 73 18t79 7q99 0 152 -47t53 -132q0 -48 -17 -85.5t-46 -69t-80 -77.5l-23 -21q-60 -52 -96 -91t-56 -87h325v-44h-389v34z" />
    <glyph glyph-name="three" unicode="3" horiz-adv-x="506" 
d="M128.5 -3q-45.5 7 -73.5 18v49q74 -27 158 -27q94 0 139 33t45 104q0 66 -42.5 98.5t-121.5 32.5h-88l6 43h74q78 0 117.5 35.5t39.5 100.5q0 62 -40 92t-125 30q-77 0 -150 -27v49q26 11 70 18.5t85 7.5q108 0 161 -45.5t53 -124.5q0 -55 -29 -98.5t-87 -57.5
q66 -14 98.5 -55t32.5 -99q0 -91 -61 -137.5t-172 -46.5q-44 0 -89.5 7z" />
    <glyph glyph-name="four" unicode="4" horiz-adv-x="536" 
d="M376 155h-341v47l345 442h51v-443h70v-46h-70v-155h-55v155zM381 200v376l-293 -376h293z" />
    <glyph glyph-name="five" unicode="5" horiz-adv-x="506" 
d="M130 -3.5q-45 6.5 -72 18.5v50q73 -28 159 -28q180 0 180 152q0 75 -35 109.5t-125 34.5h-182v47l17 264h331l-6 -45h-280l-14 -221h133q113 0 164 -46t51 -143q0 -95 -59.5 -147t-170.5 -52q-46 0 -91 6.5z" />
    <glyph glyph-name="six" unicode="6" horiz-adv-x="561" 
d="M111.5 48q-56.5 58 -56.5 183v159q0 79 30 139t86 92.5t131 32.5q82 0 144 -20v-48q-57 20 -142 20q-97 0 -146.5 -56t-49.5 -151v-58q41 30 90.5 45.5t92.5 15.5q107 0 161 -52t54 -153q0 -96 -58 -151.5t-167 -55.5q-113 0 -169.5 58zM410 78q44 43 44 118
q0 80 -38 121t-130 41q-48 0 -94.5 -16.5t-83.5 -44.5v-87q0 -175 172 -175q86 0 130 43z" />
    <glyph glyph-name="seven" unicode="7" horiz-adv-x="495" 
d="M395 599h-350v45h405v-45l-253 -599h-55z" />
    <glyph glyph-name="eight" unicode="8" horiz-adv-x="575" 
d="M115 35q-60 45 -60 131q0 62 34.5 106.5t98.5 60.5q-58 15 -86.5 54.5t-28.5 90.5q0 82 55 129t159 47q106 0 160 -46.5t54 -129.5q0 -117 -121 -156q73 -16 106.5 -54.5t33.5 -101.5q0 -86 -60 -131t-173 -45q-112 0 -172 45zM419.5 388q31.5 31 31.5 90q0 63 -42 97
t-122 34q-79 0 -121 -33.5t-42 -97.5q0 -48 28 -79.5t83 -42.5l81 -16q72 17 103.5 48zM469 166q0 57 -31.5 84.5t-101.5 42.5l-91 19q-68 -14 -104 -48t-36 -97q0 -66 46 -99t136 -33q182 0 182 131z" />
    <glyph glyph-name="nine" unicode="9" horiz-adv-x="561" 
d="M115 9v49q56 -21 144 -21q97 0 145.5 56.5t48.5 150.5v56q-41 -31 -88 -46t-94 -15q-107 0 -161.5 52.5t-54.5 152.5q0 97 58.5 153.5t168.5 56.5q113 0 168.5 -58t55.5 -184v-158q0 -80 -29.5 -139.5t-85 -92t-130.5 -32.5q-89 0 -146 19zM371 299.5q45 16.5 82 44.5v90
q0 175 -170 175q-87 0 -132.5 -44t-45.5 -120q0 -79 39 -120.5t132 -41.5q50 0 95 16.5z" />
    <glyph glyph-name="fraction" unicode="&#x2044;" horiz-adv-x="119" 
d="M190 662h54l-314 -662h-55z" />
    <glyph glyph-name="onehalf" unicode="&#xbd;" horiz-adv-x="615" 
d="M131 614l-76 -17v34l116 23v-284h-40v244zM447 644h52l-344 -644h-52zM374 26q12 24 30.5 43t51.5 46q37 30 48.5 47t11.5 40q0 24 -14.5 35.5t-46.5 11.5q-33 0 -71 -12v34q14 5 36.5 9t42.5 4q45 0 70 -23t25 -59q0 -29 -13.5 -48.5t-49.5 -50.5l-19 -16
q-14 -12 -27 -25.5t-22 -27.5h133v-34h-186v26z" />
    <glyph glyph-name="uni2153" unicode="&#x2153;" horiz-adv-x="627" 
d="M131 614l-76 -17v34l116 23v-284h-40v244zM447 644h52l-344 -644h-52zM416.5 -6.5q-21.5 3.5 -32.5 8.5v33q33 -12 69 -12q42 0 59 12t17 39q0 25 -17.5 36.5t-53.5 11.5h-35l4 32h27q36 0 52.5 12t16.5 39q0 24 -15.5 34t-53.5 10q-28 0 -65 -11v33q12 5 32 8t40 3
q56 0 80.5 -19.5t24.5 -56.5q0 -24 -12 -42.5t-37 -25.5q55 -11 55 -65q0 -83 -113 -83q-21 0 -42.5 3.5z" />
    <glyph glyph-name="uni2154" unicode="&#x2154;" horiz-adv-x="640" 
d="M55 396q11 24 30 43.5t52 45.5q36 30 48 47t12 40q0 24 -14.5 35.5t-46.5 11.5q-35 0 -71 -12v34q14 5 36.5 9t42.5 4q45 0 69.5 -23t24.5 -59q0 -29 -13.5 -48.5t-49.5 -50.5l-19 -16q-14 -12 -27 -25.5t-22 -27.5h134v-34h-186v26zM459 644h53l-344 -644h-52z
M429.5 -6.5q-21.5 3.5 -33.5 8.5v33q33 -12 69 -12q42 0 59.5 12t17.5 39q0 25 -17.5 36.5t-54.5 11.5h-34l4 32h27q36 0 52.5 12t16.5 39q0 24 -16 34t-53 10q-29 0 -66 -11v33q12 5 32.5 8t39.5 3q56 0 80.5 -19.5t24.5 -56.5q0 -24 -11.5 -42.5t-36.5 -25.5
q55 -11 55 -65q0 -41 -28.5 -62t-85.5 -21q-20 0 -41.5 3.5z" />
    <glyph glyph-name="onequarter" unicode="&#xbc;" horiz-adv-x="616" 
d="M131 614l-76 -17v34l116 23v-284h-40v244zM447 644h52l-344 -644h-52zM490 62h-155v34l147 188h48v-189h31v-33h-31v-62h-40v62zM497 95v158l-123 -158h123z" />
    <glyph glyph-name="threequarters" unicode="&#xbe;" horiz-adv-x="630" 
d="M87.5 365q-21.5 3 -32.5 8v33q33 -12 69 -12q42 0 59 12t17 40q0 25 -17.5 36.5t-53.5 11.5h-35l4 31h27q36 0 52.5 12t16.5 39q0 24 -16 34.5t-53 10.5q-34 0 -65 -11v33q13 4 33 7.5t39 3.5q105 0 105 -76q0 -24 -12 -42.5t-37 -26.5q55 -11 55 -64q0 -83 -113 -83
q-21 0 -42.5 3zM460 644h52l-343 -644h-52zM504 62h-155v34l146 188h49v-189h31v-33h-31v-62h-40v62zM510 95v158l-122 -158h122z" />
    <glyph glyph-name="oneeighth" unicode="&#x215b;" horiz-adv-x="633" 
d="M131 614l-76 -17v34l116 23v-284h-40v244zM447 644h52l-344 -644h-52zM390 10q-30 20 -30 57q0 27 15.5 46t43.5 25q-51 15 -51 67q0 35 27 56t74 21q48 0 74.5 -21t26.5 -56q0 -52 -52 -68q30 -7 45 -25.5t15 -44.5q0 -37 -29.5 -57t-79.5 -20q-49 0 -79 20z
M520.5 171.5q10.5 11.5 10.5 33.5t-16 34t-46 12t-46 -12t-16 -34q0 -44 53 -49l26 -2q24 6 34.5 17.5zM520 32q18 12 18 35q0 26 -16.5 37.5t-52.5 14.5h-9q-8 0 -22 -2q-19 -7 -28 -18.5t-9 -30.5q0 -24 17.5 -36t50.5 -12t51 12z" />
    <glyph glyph-name="threeeighths" unicode="&#x215c;" horiz-adv-x="634" 
d="M87.5 365q-21.5 3 -32.5 8v34q33 -12 69 -12q42 0 59 11.5t17 39.5q0 25 -17.5 36.5t-53.5 11.5h-35l4 31h27q36 0 52.5 12t16.5 39q0 25 -15.5 34.5t-53.5 9.5q-34 0 -65 -11v34q13 4 33 7.5t39 3.5q105 0 105 -76q0 -24 -12 -42.5t-37 -26.5q55 -11 55 -64
q0 -83 -113 -83q-21 0 -42.5 3zM448 644h52l-343 -644h-52zM391 10q-30 20 -30 57q0 27 15.5 46t43.5 25q-51 15 -51 67q0 35 27 56t74 21q48 0 74.5 -21t26.5 -56q0 -52 -52 -68q30 -7 45 -25.5t15 -44.5q0 -37 -29.5 -57t-79.5 -20q-49 0 -79 20zM521.5 171.5
q10.5 11.5 10.5 33.5t-16 34t-46 12t-46 -12t-16 -34q0 -44 53 -49l26 -2q24 6 34.5 17.5zM521 32q18 12 18 35q0 26 -16.5 37.5t-52.5 14.5h-9q-8 0 -22 -2q-19 -7 -28 -18.5t-9 -30.5q0 -24 17.5 -36t50.5 -12t51 12z" />
    <glyph glyph-name="fiveeighths" unicode="&#x215d;" horiz-adv-x="618" 
d="M87.5 365q-20.5 3 -32.5 7v36q28 -12 69 -12t60 12t19 42q0 29 -14.5 40t-53.5 11h-80v33l7 110h162l-3 -35h-124l-4 -76h54q51 0 74.5 -21t23.5 -63q0 -41 -29.5 -64t-87.5 -23q-20 0 -40.5 3zM432 644h53l-344 -644h-52zM375.5 10q-29.5 20 -29.5 57q0 27 15 46t43 25
q-50 15 -50 67q0 35 26.5 56t74.5 21q47 0 73.5 -21t26.5 -56q0 -52 -51 -68q30 -7 44.5 -25t14.5 -45q0 -37 -29.5 -57t-78.5 -20q-50 0 -79.5 20zM506 171.5q10 11.5 10 33.5t-16 34t-45 12q-30 0 -46 -12t-16 -34q0 -44 52 -49l27 -2q24 6 34 17.5zM505 32q18 12 18 35
q0 26 -16 37.5t-52 14.5h-9q-8 0 -22 -2q-19 -7 -28.5 -18.5t-9.5 -30.5q0 -24 18 -36t51 -12q32 0 50 12z" />
    <glyph glyph-name="seveneighths" unicode="&#x215e;" horiz-adv-x="636" 
d="M207 607h-152v37h196v-38l-100 -236h-44zM450 644h53l-344 -644h-52zM393.5 10q-29.5 20 -29.5 57q0 27 15 46t43 25q-50 15 -50 67q0 35 26.5 56t74.5 21q47 0 73.5 -21t26.5 -56q0 -52 -51 -68q30 -7 44.5 -25t14.5 -45q0 -37 -29.5 -57t-78.5 -20q-50 0 -79.5 20z
M524 171.5q10 11.5 10 33.5t-16 34t-45 12q-30 0 -46 -12t-16 -34q0 -44 52 -49l27 -2q24 6 34 17.5zM523 32q18 12 18 35q0 26 -16 37.5t-52 14.5h-9q-8 0 -22 -2q-19 -7 -28.5 -18.5t-9.5 -30.5q0 -24 18 -36t51 -12q32 0 50 12z" />
    <glyph glyph-name="uni2080" unicode="&#x2080;" horiz-adv-x="352" 
d="M85.5 -91q-30.5 37 -30.5 102q0 74 28.5 113.5t92.5 39.5q65 0 93 -39.5t28 -113.5q0 -65 -30 -102t-91 -37q-60 0 -90.5 37zM238 -66.5q18 27.5 18 77.5q0 61 -17 89.5t-63 28.5q-45 0 -62.5 -29t-17.5 -89q0 -50 18.5 -77.5t61.5 -27.5q44 0 62 27.5z" />
    <glyph glyph-name="uni2081" unicode="&#x2081;" horiz-adv-x="206" 
d="M131 124l-76 -17v34l116 23v-284h-40v244z" />
    <glyph glyph-name="uni2082" unicode="&#x2082;" horiz-adv-x="296" 
d="M55 -94q11 24 30 43.5t52 45.5q36 30 48 47t12 40q0 24 -14.5 35.5t-46.5 11.5q-35 0 -71 -12v34q14 5 36.5 9t42.5 4q45 0 69.5 -23t24.5 -59q0 -29 -13.5 -48.5t-49.5 -50.5l-19 -16q-14 -12 -27 -25.5t-22 -27.5h134v-34h-186v26z" />
    <glyph glyph-name="uni2083" unicode="&#x2083;" horiz-adv-x="298" 
d="M87.5 -125q-21.5 3 -32.5 8v34q33 -12 69 -12q42 0 59 11.5t17 39.5q0 25 -17.5 36.5t-53.5 11.5h-35l4 31h27q36 0 52.5 12t16.5 39q0 24 -15.5 34t-53.5 10q-34 0 -65 -11v34q13 4 33 7.5t39 3.5q105 0 105 -76q0 -24 -12 -42.5t-37 -26.5q55 -11 55 -64
q0 -83 -113 -83q-21 0 -42.5 3z" />
    <glyph glyph-name="uni2084" unicode="&#x2084;" horiz-adv-x="296" 
d="M190 -58h-155v34l146 188h49v-189h31v-33h-31v-62h-40v62zM192 -25v146l-113 -146h113z" />
    <glyph glyph-name="uni2085" unicode="&#x2085;" horiz-adv-x="300" 
d="M87.5 -125q-20.5 3 -32.5 7v36q28 -12 69 -12t60 12t19 42q0 29 -14.5 40t-53.5 11h-80v33l7 110h162l-3 -35h-124l-4 -76h54q51 0 74.5 -21t23.5 -63q0 -41 -29.5 -64t-87.5 -23q-20 0 -40.5 3z" />
    <glyph glyph-name="uni2086" unicode="&#x2086;" horiz-adv-x="321" 
d="M55 -22v69q0 56 31 86.5t86 30.5q36 0 67 -9v-34q-26 8 -65 8q-41 0 -61.5 -19.5t-20.5 -56.5v-24q34 27 77 27q52 0 74.5 -22.5t22.5 -68.5q0 -44 -25.5 -68.5t-77.5 -24.5q-108 0 -108 106zM212.5 -81q14.5 14 14.5 46t-13 45.5t-51 13.5q-35 0 -71 -27v-28
q0 -34 17 -49t54 -15q35 0 49.5 14z" />
    <glyph glyph-name="uni2087" unicode="&#x2087;" horiz-adv-x="286" 
d="M197 117h-152v37h196v-38l-100 -236h-44z" />
    <glyph glyph-name="uni2088" unicode="&#x2088;" horiz-adv-x="327" 
d="M85 -108q-30 20 -30 57q0 27 12.5 44.5t40.5 27.5q-25 10 -35 26.5t-10 40.5q0 34 27.5 55t73.5 21t73 -21t27 -55q0 -25 -10 -41.5t-38 -29.5q31 -10 43.5 -26t12.5 -42q0 -37 -29.5 -57t-78.5 -20t-79 20zM215.5 52.5q9.5 10.5 9.5 35.5q0 22 -16.5 33.5t-44.5 11.5
q-29 0 -45.5 -11.5t-16.5 -33.5q0 -20 8.5 -32t31.5 -17l34 -7q30 10 39.5 20.5zM214.5 -86q18.5 12 18.5 36q0 20 -11.5 31t-40.5 18l-33 7q-28 -8 -40.5 -19.5t-12.5 -36.5q0 -24 18 -36t51 -12q32 0 50.5 12z" />
    <glyph glyph-name="uni2089" unicode="&#x2089;" horiz-adv-x="321" 
d="M81 -119v34q26 -9 66 -9q81 0 81 77v23q-36 -27 -77 -27q-52 0 -74 22.5t-22 69.5q0 44 25.5 68.5t77.5 24.5q108 0 108 -107v-69q0 -55 -31.5 -85.5t-86.5 -30.5q-36 0 -67 9zM228 39v28q0 33 -16.5 48.5t-52.5 15.5t-50.5 -14.5t-14.5 -45.5q0 -33 13 -46t51 -13
q36 0 70 27z" />
    <glyph glyph-name="uni2070" unicode="&#x2070;" horiz-adv-x="352" 
d="M85.5 399q-30.5 37 -30.5 102q0 74 28.5 113.5t92.5 39.5q65 0 93 -39.5t28 -113.5q0 -65 -30 -102t-91 -37q-60 0 -90.5 37zM238 423.5q18 27.5 18 77.5q0 61 -17 89.5t-63 28.5q-45 0 -62.5 -29t-17.5 -89q0 -50 18.5 -77.5t61.5 -27.5q44 0 62 27.5z" />
    <glyph glyph-name="uni00B9" unicode="&#xb9;" horiz-adv-x="206" 
d="M131 614l-76 -17v34l116 23v-284h-40v244z" />
    <glyph glyph-name="uni00B2" unicode="&#xb2;" horiz-adv-x="296" 
d="M55 396q11 24 30 43.5t52 45.5q36 30 48 47t12 40q0 24 -14.5 35.5t-46.5 11.5q-35 0 -71 -12v34q14 5 36.5 9t42.5 4q45 0 69.5 -23t24.5 -59q0 -29 -13.5 -48.5t-49.5 -50.5l-19 -16q-14 -12 -27 -25.5t-22 -27.5h134v-34h-186v26z" />
    <glyph glyph-name="uni00B3" unicode="&#xb3;" horiz-adv-x="298" 
d="M87.5 365q-21.5 3 -32.5 8v34q33 -12 69 -12q42 0 59 11.5t17 39.5q0 25 -17.5 36.5t-53.5 11.5h-35l4 31h27q36 0 52.5 12t16.5 39q0 24 -15.5 34t-53.5 10q-34 0 -65 -11v34q13 4 33 7.5t39 3.5q105 0 105 -76q0 -24 -12 -42.5t-37 -26.5q55 -11 55 -64q0 -83 -113 -83
q-21 0 -42.5 3z" />
    <glyph glyph-name="uni2074" unicode="&#x2074;" horiz-adv-x="296" 
d="M190 432h-155v34l146 188h49v-189h31v-33h-31v-62h-40v62zM196 465v158l-122 -158h122z" />
    <glyph glyph-name="uni2075" unicode="&#x2075;" horiz-adv-x="300" 
d="M87.5 365q-20.5 3 -32.5 7v36q28 -12 69 -12t60 12t19 42q0 29 -14.5 40t-53.5 11h-80v33l7 110h162l-3 -35h-124l-4 -76h54q51 0 74.5 -21t23.5 -63q0 -41 -29.5 -64t-87.5 -23q-20 0 -40.5 3z" />
    <glyph glyph-name="uni2076" unicode="&#x2076;" horiz-adv-x="321" 
d="M55 468v69q0 56 31 86.5t86 30.5q36 0 67 -9v-34q-26 8 -65 8q-41 0 -61.5 -19.5t-20.5 -56.5v-24q34 27 77 27q52 0 74.5 -22.5t22.5 -68.5q0 -44 -25.5 -68.5t-77.5 -24.5q-108 0 -108 106zM212.5 409q14.5 14 14.5 46t-13 45.5t-51 13.5q-35 0 -71 -27v-28
q0 -34 17 -49t54 -15q35 0 49.5 14z" />
    <glyph glyph-name="uni2077" unicode="&#x2077;" horiz-adv-x="286" 
d="M197 607h-152v37h196v-38l-100 -236h-44z" />
    <glyph glyph-name="uni2078" unicode="&#x2078;" horiz-adv-x="327" 
d="M85 382q-30 20 -30 57q0 27 12.5 44.5t40.5 27.5q-25 10 -35 26.5t-10 40.5q0 34 27.5 55t73.5 21t73 -21t27 -55q0 -25 -10 -41.5t-38 -29.5q31 -10 43.5 -26t12.5 -42q0 -37 -29.5 -57t-78.5 -20t-79 20zM215.5 542.5q9.5 10.5 9.5 35.5q0 22 -16.5 33.5t-44.5 11.5
q-29 0 -45.5 -11.5t-16.5 -33.5q0 -20 8.5 -32t31.5 -17l34 -7q30 10 39.5 20.5zM214.5 404.5q18.5 12.5 18.5 35.5q0 20 -11.5 31t-40.5 18l-33 7q-28 -8 -40.5 -19.5t-12.5 -36.5q0 -24 18 -36t51 -12q32 0 50.5 12.5z" />
    <glyph glyph-name="uni2079" unicode="&#x2079;" horiz-adv-x="321" 
d="M81 371v34q26 -9 66 -9q81 0 81 77v23q-36 -27 -77 -27q-52 0 -74 22.5t-22 69.5q0 44 25.5 68.5t77.5 24.5q108 0 108 -107v-69q0 -55 -31.5 -85.5t-86.5 -30.5q-36 0 -67 9zM228 529v28q0 33 -16.5 48.5t-52.5 15.5t-50.5 -14.5t-14.5 -45.5q0 -33 13 -46t51 -13
q36 0 70 27z" />
    <glyph glyph-name="uni0E50" unicode="&#xe50;" horiz-adv-x="613" 
d="M121.5 53.5q-66.5 63.5 -66.5 183.5q0 119 67 183t184 64t184.5 -64t67.5 -183q0 -120 -67 -183.5t-185 -63.5t-184.5 63.5zM503 237q0 199 -197 199q-96 0 -146.5 -49.5t-50.5 -149.5q0 -101 50.5 -150.5t146.5 -49.5q197 0 197 200z" />
    <glyph glyph-name="uni0E51" unicode="&#xe51;" horiz-adv-x="641" 
d="M294 -53q238 53 238 271t-211 218q-212 0 -212 -186q0 -78 36.5 -115.5t111.5 -37.5q28 0 55.5 6.5t44.5 18.5v-46q-44 -26 -108 -26q-95 0 -144.5 51.5t-49.5 148.5q0 112 68 173t198 61q132 0 198.5 -70t66.5 -197q0 -122 -73.5 -205t-218.5 -115v50z" />
    <glyph glyph-name="uni0E52" unicode="&#xe52;" horiz-adv-x="686" 
d="M149 48q-74 58 -74 173v319h52v-324q0 -90 58.5 -135t160.5 -45q94 0 153.5 39.5t59.5 117.5v164q0 44 -14.5 63t-49.5 19q-52 0 -74 -53h-35q-15 29 -29 41t-42 12q-37 0 -54.5 -29.5t-17.5 -92.5q0 -56 24 -76.5t75 -20.5q42 0 66 8v-41q-31 -9 -77 -9q-63 0 -99 34
t-36 105q0 85 30.5 126t83.5 41q34 0 54 -11.5t39 -38.5q22 27 47.5 38.5t56.5 11.5q104 0 104 -120v-162q0 -102 -73 -157t-192 -55q-123 0 -197 58z" />
    <glyph glyph-name="uni0E53" unicode="&#xe53;" horiz-adv-x="629" 
d="M107 42.5q-52 52.5 -52 182.5q0 259 157 259q73 0 107 -54q21 26 51 40t62 14q54 0 88 -29.5t34 -88.5v-366h-55v358q0 43 -18.5 60.5t-59.5 17.5q-30 0 -54 -17t-24 -48v-95h-48v95q0 32 -22.5 48.5t-53.5 16.5q-61 0 -85.5 -51t-24.5 -160q0 -77 19 -118t54 -55.5
t92 -14.5q44 0 68 8v-47q-28 -8 -80 -8q-103 0 -155 52.5z" />
    <glyph glyph-name="uni0E54" unicode="&#xe54;" horiz-adv-x="631" 
d="M115 51q-60 61 -60 174q0 122 84 190.5t230 68.5q79 0 125 8.5t85 33.5v-49q-36 -24 -84 -32.5t-125 -8.5q-128 0 -194.5 -54t-66.5 -157q0 -94 46 -141t131 -47q43 0 77 20q-30 36 -30 95t38 92t102 33q57 0 88 -17v-44q-26 17 -70 17q-55 0 -81 -19t-26 -63
q0 -61 40.5 -82t131.5 -21h40v-48h-55q-88 0 -137 26q-49 -36 -122 -36q-107 0 -167 61z" />
    <glyph glyph-name="uni0E55" unicode="&#xe55;" horiz-adv-x="631" 
d="M115 51q-60 61 -60 174q0 92 51.5 153t140.5 84q-46 11 -72 28v55q32 -28 92.5 -44.5t111.5 -16.5q73 0 118 8.5t82 33.5v-49q-36 -24 -84 -32.5t-125 -8.5q-124 0 -192.5 -54.5t-68.5 -156.5q0 -94 46 -141t131 -47q43 0 77 20q-30 36 -30 95t38 92t102 33q57 0 88 -17
v-44q-26 17 -70 17q-55 0 -81 -19t-26 -63q0 -61 40.5 -82t131.5 -21h40v-48h-55q-88 0 -137 26q-49 -36 -122 -36q-107 0 -167 61z" />
    <glyph glyph-name="uni0E56" unicode="&#xe56;" horiz-adv-x="648" 
d="M237 5q-51 15 -86 43v50q44 -33 90 -47t101 -14q95 0 146 50.5t51 147.5q0 99 -41.5 150t-138.5 51q-73 0 -120 -35.5t-70 -115.5h-46l-88 255h51l66 -193q25 64 79 100.5t134 36.5q117 0 172.5 -67t55.5 -182q0 -113 -66.5 -179t-182.5 -66q-56 0 -107 15z" />
    <glyph glyph-name="uni0E57" unicode="&#xe57;" horiz-adv-x="852" 
d="M107 43q-52 53 -52 182q0 132 39 195.5t116 63.5q72 0 107 -54q21 26 51 40t62 14q56 0 88.5 -29.5t32.5 -89.5v-320h15q85 0 122 34t37 121v340h52v-329q0 -76 -22 -122t-70 -67.5t-129 -21.5h-57v358q0 43 -19 61t-60 18q-29 0 -54 -17.5t-25 -47.5v-96h-50v95
q0 32 -22.5 49t-52.5 17q-61 0 -84.5 -52t-23.5 -160q0 -78 19.5 -119t54.5 -55.5t92 -14.5q44 0 69 8v-46q-29 -8 -81 -8q-103 0 -155 53z" />
    <glyph glyph-name="uni0E58" unicode="&#xe58;" horiz-adv-x="623" 
d="M95 47.5q-40 57.5 -40 182.5q0 133 70.5 193.5t208.5 60.5q88 0 141 8.5t93 33.5v-49q-36 -24 -92 -32.5t-141 -8.5q-77 0 -126 -18.5t-74.5 -63.5t-25.5 -124q0 -105 26 -149t86 -44q34 0 58.5 17t24.5 49v91h45v-92q0 -31 28 -48t58 -17q27 0 46 5t37 17v180h-82l4 41
h128v-251q-30 -21 -57.5 -30t-69.5 -9q-36 0 -66.5 13.5t-47.5 39.5q-17 -26 -46 -39.5t-67 -13.5q-79 0 -119 57.5z" />
    <glyph glyph-name="uni0E59" unicode="&#xe59;" horiz-adv-x="740" 
d="M104.5 48.5q-49.5 58.5 -49.5 177.5q0 258 161 258q42 0 66.5 -13.5t39.5 -40.5q32 54 111 54q49 0 82 -27.5t33 -82.5v-21h8q54 0 76.5 24t22.5 86v57h50v-45q0 -91 -37 -129.5t-124 -38.5h-40v48q0 43 -18.5 62.5t-58.5 19.5q-33 0 -53.5 -15t-20.5 -39q0 -8 3 -17
l107 -366h-50l-110 373q-10 32 -28.5 48t-54.5 16q-60 0 -86 -52.5t-26 -159.5q0 -102 37 -145.5t105 -43.5q40 0 64 8v-47q-29 -7 -75 -7q-85 0 -134.5 58.5z" />
    <glyph glyph-name="asterisk" unicode="*" horiz-adv-x="421" 
d="M84 373l95 110l-124 50l18 39l118 -55l-4 127h47l-4 -127l117 55l19 -39l-126 -51l97 -109l-36 -27l-91 117l-91 -117z" />
    <glyph glyph-name="backslash" unicode="\" horiz-adv-x="418" 
d="M55 662h55l253 -716h-55z" />
    <glyph glyph-name="periodcentered" unicode="&#xb7;" horiz-adv-x="163" 
d="M55 309h53v-51h-53v51z" />
    <glyph glyph-name="bullet" unicode="&#x2022;" horiz-adv-x="341" 
d="M88.5 205q-33.5 33 -33.5 82q0 48 33.5 82t81.5 34t82 -34t34 -82t-34 -81.5t-82 -33.5t-81.5 33z" />
    <glyph glyph-name="colon" unicode=":" horiz-adv-x="164" 
d="M55 384h54v-52h-54v52zM55 82h54v-52h-54v52z" />
    <glyph glyph-name="comma" unicode="," horiz-adv-x="189" 
d="M81 45h53l-38 -165h-41z" />
    <glyph glyph-name="ellipsis" unicode="&#x2026;" horiz-adv-x="539" 
d="M55 50h52v-50h-52v50zM243 50h52v-50h-52v50zM432 50h52v-50h-52v50z" />
    <glyph glyph-name="exclam" unicode="!" horiz-adv-x="171" 
d="M58 491v153h55v-153l-5 -345h-44zM55 48h61v-48h-61v48z" />
    <glyph glyph-name="exclamdown" unicode="&#xa1;" horiz-adv-x="171" 
d="M55 632h61v-48h-61v48zM58 141l6 345h44l5 -345v-153h-55v153z" />
    <glyph glyph-name="numbersign" unicode="#" horiz-adv-x="694" 
d="M151 187h-96v41h109l59 186h-120v42h133l59 188h50l-59 -188h207l59 188h51l-59 -188h95v-42h-109l-58 -186h119v-41h-132l-59 -187h-50l58 187h-207l-59 -187h-49zM421 228l59 186h-208l-58 -186h207z" />
    <glyph glyph-name="period" unicode="." horiz-adv-x="163" 
d="M55 51h53v-51h-53v51z" />
    <glyph glyph-name="question" unicode="?" horiz-adv-x="488" 
d="M176 172q0 40 16 70t33 45.5t64 54.5q47 38 68.5 66t21.5 70q0 65 -37.5 96.5t-124.5 31.5q-89 0 -162 -35v48q30 16 75 25.5t97 9.5q102 0 154 -45.5t52 -129.5q0 -36 -13 -64t-33.5 -48.5t-56.5 -50.5l-17 -14q-32 -26 -48 -42t-25 -37.5t-9 -53.5v-21h-55v24zM173 48
h61v-48h-61v48z" />
    <glyph glyph-name="questiondown" unicode="&#xbf;" horiz-adv-x="488" 
d="M264 632h61v-48h-61v48zM117 23.5q-52 45.5 -52 129.5q0 36 13 64t33.5 48.5t56.5 50.5l17 14q32 26 48 42t25 37.5t9 53.5v21h55v-24q0 -40 -16 -70t-33 -45.5t-64 -54.5q-47 -38 -68.5 -66t-21.5 -70q0 -65 37.5 -96.5t124.5 -31.5q89 0 162 35v-48q-30 -16 -75 -25.5
t-97 -9.5q-102 0 -154 45.5z" />
    <glyph glyph-name="quotedbl" unicode="&#x22;" horiz-adv-x="297" 
d="M55 644h53l-12 -165h-41v165zM189 644h53l-12 -165h-41v165z" />
    <glyph glyph-name="quotesingle" unicode="'" horiz-adv-x="163" 
d="M55 644h53l-12 -165h-41v165z" />
    <glyph glyph-name="semicolon" unicode=";" horiz-adv-x="190" 
d="M82 384h53v-52h-53v52zM81 71h53l-38 -165h-41z" />
    <glyph glyph-name="slash" unicode="/" horiz-adv-x="399" 
d="M289 662h55l-234 -662h-55z" />
    <glyph glyph-name="underscore" unicode="_" horiz-adv-x="554" 
d="M55 0h444v-45h-444v45z" />
    <glyph glyph-name="uni208D" unicode="&#x208d;" horiz-adv-x="213" 
d="M69.5 -73.5q-14.5 45.5 -14.5 89.5q0 43 14.5 88.5t41.5 73.5h47q-31 -31 -46.5 -74t-15.5 -88q0 -46 15 -88.5t47 -73.5h-47q-27 27 -41.5 72.5z" />
    <glyph glyph-name="uni208E" unicode="&#x208e;" horiz-adv-x="213" 
d="M102 -72.5q15 42.5 15 88.5q0 45 -15.5 88t-46.5 74h46q27 -28 42 -73.5t15 -88.5q0 -44 -15 -89.5t-42 -72.5h-46q32 31 47 73.5z" />
    <glyph glyph-name="braceleft" unicode="{" horiz-adv-x="285" 
d="M128.5 -82q-24.5 22 -24.5 76v185q0 48 -14 71t-55 28v40q41 5 55 28t14 71v185q0 54 24.5 76t79.5 22h32v-45h-24q-33 0 -45 -12.5t-12 -47.5v-205q0 -31 -14.5 -57t-46.5 -35q32 -9 46.5 -35t14.5 -57v-205q0 -35 12 -47.5t45 -12.5h24v-45h-32q-55 0 -79.5 22z" />
    <glyph glyph-name="braceright" unicode="}" horiz-adv-x="285" 
d="M45 -59h24q33 0 45 12.5t12 47.5v205q0 31 14.5 57t46.5 35q-32 9 -46.5 35t-14.5 57v205q0 35 -12 47.5t-45 12.5h-24v45h32q55 0 79.5 -22t24.5 -76v-185q0 -48 14 -71t55 -28v-40q-41 -5 -55 -28t-14 -71v-185q0 -54 -24.5 -76t-79.5 -22h-32v45z" />
    <glyph glyph-name="bracketleft" unicode="[" horiz-adv-x="333" 
d="M55 706h231l2 -45h-178v-716h178l-2 -44h-231v805z" />
    <glyph glyph-name="bracketright" unicode="]" horiz-adv-x="333" 
d="M45 -55h178v716h-178l2 45h231v-805h-231z" />
    <glyph glyph-name="parenleft" unicode="(" horiz-adv-x="292" 
d="M87.5 90q-32.5 102 -32.5 213q0 110 32.5 212t106.5 163h63q-148 -123 -148 -375q0 -123 35.5 -217t112.5 -158h-63q-74 60 -106.5 162z" />
    <glyph glyph-name="parenright" unicode=")" horiz-adv-x="292" 
d="M182 303q0 252 -147 375h63q74 -61 106.5 -163t32.5 -212q0 -111 -32.5 -213t-106.5 -162h-63q147 123 147 375z" />
    <glyph glyph-name="uni207D" unicode="&#x207d;" horiz-adv-x="213" 
d="M69.5 424.5q-14.5 45.5 -14.5 89.5q0 43 14.5 88.5t41.5 73.5h47q-31 -31 -46.5 -74t-15.5 -88q0 -46 15 -88.5t47 -73.5h-47q-27 27 -41.5 72.5z" />
    <glyph glyph-name="uni207E" unicode="&#x207e;" horiz-adv-x="213" 
d="M102 425.5q15 42.5 15 88.5q0 45 -15.5 88t-46.5 74h47q27 -28 41.5 -73.5t14.5 -88.5q0 -44 -14.5 -89.5t-41.5 -72.5h-47q32 31 47 73.5z" />
    <glyph glyph-name="emdash" unicode="&#x2014;" horiz-adv-x="893" 
d="M55 280h783v-45h-783v45z" />
    <glyph glyph-name="endash" unicode="&#x2013;" horiz-adv-x="591" 
d="M55 280h481v-45h-481v45z" />
    <glyph glyph-name="figuredash" unicode="&#x2012;" horiz-adv-x="620" 
d="M55 280h510v-45h-510v45z" />
    <glyph glyph-name="uni2015" unicode="&#x2015;" horiz-adv-x="941" 
d="M55 280h831v-45h-831v45z" />
    <glyph glyph-name="hyphen" unicode="-" horiz-adv-x="482" 
d="M55 280h372v-45h-372v45z" />
    <glyph glyph-name="uni2010" unicode="&#x2010;" horiz-adv-x="513" 
d="M55 280h403v-45h-403v45z" />
    <glyph glyph-name="uni00AD" unicode="&#xad;" horiz-adv-x="482" 
d="M55 280h372v-45h-372v45z" />
    <glyph glyph-name="guillemotleft" unicode="&#xab;" horiz-adv-x="581" 
d="M55 271v32l250 184l23 -34l-222 -166l222 -166l-23 -34zM252 271v32l250 184l24 -34l-223 -166l223 -166l-24 -34z" />
    <glyph glyph-name="guillemotright" unicode="&#xbb;" horiz-adv-x="581" 
d="M55 121l222 166l-222 166l23 34l250 -184v-32l-250 -184zM252 121l223 166l-223 166l24 34l250 -184v-32l-250 -184z" />
    <glyph glyph-name="guilsinglleft" unicode="&#x2039;" horiz-adv-x="383" 
d="M55 271v32l250 184l23 -34l-222 -166l222 -166l-23 -34z" />
    <glyph glyph-name="guilsinglright" unicode="&#x203a;" horiz-adv-x="383" 
d="M55 121l222 166l-222 166l23 34l250 -184v-32l-250 -184z" />
    <glyph glyph-name="quotedblbase" unicode="&#x201e;" horiz-adv-x="333" 
d="M101 48h51l-58 -171h-39zM227 48h51l-58 -171h-39z" />
    <glyph glyph-name="quotedblleft" unicode="&#x201c;" horiz-adv-x="333" 
d="M113 654h39l-46 -171h-51zM239 654h39l-46 -171h-51z" />
    <glyph glyph-name="quotedblright" unicode="&#x201d;" horiz-adv-x="333" 
d="M101 654h51l-58 -171h-39zM227 654h51l-58 -171h-39z" />
    <glyph glyph-name="quoteleft" unicode="&#x2018;" horiz-adv-x="210" 
d="M113 654h42l-46 -171h-54z" />
    <glyph glyph-name="quoteright" unicode="&#x2019;" horiz-adv-x="210" 
d="M101 654h54l-58 -171h-42z" />
    <glyph glyph-name="quotesinglbase" unicode="&#x201a;" horiz-adv-x="210" 
d="M101 33h54l-58 -171h-42z" />
    <glyph glyph-name="uni0E5A" unicode="&#xe5a;" horiz-adv-x="760" 
d="M364 342q-60 -42 -143 -42q-77 0 -121.5 39.5t-44.5 102.5q0 55 17 98h55q-19 -38 -19 -95q0 -46 29 -71.5t88 -25.5q86 0 139 42v150h55v-177q25 -15 73 -15q86 0 138 42v150h55v-540h-55v342q-60 -42 -142 -42q-43 0 -69 13v-313h-55v342z" />
    <glyph glyph-name="uni0E4F" unicode="&#xe4f;" horiz-adv-x="611" 
d="M180 23.5q-58 33.5 -91.5 91t-33.5 125.5t33.5 125.5t91.5 91.5t126 34t125.5 -34t91 -91.5t33.5 -125.5t-33.5 -125.5t-91 -91t-125.5 -33.5t-126 33.5zM407.5 64.5q46.5 27.5 74 74t27.5 101.5t-27.5 101.5t-74 74t-101.5 27.5t-101.5 -27.5t-74 -74t-27.5 -101.5
t27.5 -101.5t74 -74t101.5 -27.5t101.5 27.5zM240.5 127.5q-29.5 17.5 -47 47t-17.5 65.5q0 54 37.5 91.5t92.5 37.5q35 0 64.5 -17t47 -47t17.5 -65t-17.5 -65t-47 -47.5t-64.5 -17.5q-36 0 -65.5 17.5zM366 180q25 25 25 60t-25 60.5t-60 25.5q-36 0 -61 -25.5t-25 -60.5
t25 -60t61 -25q35 0 60 25z" />
    <glyph glyph-name="uni0E5B" unicode="&#xe5b;" horiz-adv-x="1165" 
d="M123.5 93.5q-68.5 71.5 -68.5 198.5q0 75 25.5 133.5t75.5 91.5t120 33q98 0 146 -49t48 -135q0 -131 -128 -183v49q42 23 59 55.5t17 78.5q0 139 -141 139q-85 0 -128 -56.5t-43 -154.5q0 -112 54 -169.5t158 -57.5q118 0 178 72t60 193q0 39 -3 69t-10 67h65
q27 -47 50 -108.5t32 -112.5h2q15 43 25.5 103.5t7.5 96.5h52q15 -29 35 -85t32 -103h2q10 31 20.5 84.5t12.5 91.5h46q15 -28 33 -79t25 -83h2q22 47 22 115l-1 23h37q0 -48 -2 -65h69l-3 -38h-73q-4 -22 -11.5 -41t-20.5 -46h-42q-4 26 -20 77t-30 78h-2q-2 -28 -15 -88
t-23 -88h-52q-6 43 -22.5 96t-35.5 90h-2q-1 -33 -16 -98.5t-30 -108.5h-51q-1 45 -20.5 109t-41.5 112h-2q5 -40 5 -71q0 -92 -33 -161.5t-97 -107.5t-154 -38q-126 0 -194.5 71.5z" />
    <glyph glyph-name="uni0E46" unicode="&#xe46;" horiz-adv-x="553" 
d="M423 423q0 32 -8 51t-30 24q-12 2 -17 2q-8 0 -26 -4q-37 -8 -56 -45h-34q-15 28 -28.5 39.5t-39.5 11.5q-35 0 -55 -28.5t-20 -88.5q0 -57 26.5 -82t77.5 -25q44 0 69 8v-47q-33 -9 -79 -9q-70 0 -109 39t-39 116q0 80 34 122.5t88 42.5q34 0 54.5 -11.5t37.5 -38.5
q38 50 104 50q61 0 83 -35.5t22 -119.5v-395h-55v423z" />
    <glyph glyph-name="uni0E2F" unicode="&#xe2f;" horiz-adv-x="494" 
d="M364 342q-60 -42 -143 -42q-77 0 -121.5 39.5t-44.5 102.5q0 55 17 98h55q-19 -38 -19 -95q0 -46 29 -71.5t88 -25.5q86 0 139 42v150h55v-540h-55v342z" />
    <glyph glyph-name="uni2007" unicode="&#x2007;" 
 />
    <glyph glyph-name="uni00A0" unicode="&#xa0;" horiz-adv-x="390" 
 />
    <glyph glyph-name="uni0E3F" unicode="&#xe3f;" horiz-adv-x="619" 
d="M268 0h-193v644h193v86h45v-86h45q93 0 136.5 -43t43.5 -125q0 -53 -22 -89t-62 -54q110 -25 110 -151q0 -94 -46.5 -138t-140.5 -44h-64v-86h-45v86zM268 354v245h-138v-245h138zM363 354q64 0 93.5 32t29.5 87q0 65 -30 95.5t-110 30.5h-33v-245h50zM268 43v268h-138
v-268h138zM372 43q72 0 105 32.5t33 108.5q0 65 -34.5 96t-118.5 31h-44v-268h59z" />
    <glyph glyph-name="uni20B5" unicode="&#x20b5;" horiz-adv-x="589" 
d="M323 -9q-135 8 -201.5 91t-66.5 222q0 158 64 249t204 100v82h46v-81q88 -3 165 -29v-49q-77 27 -165 30v-569q93 2 165 27v-49q-69 -22 -165 -25v-110h-46v111zM323 604q-116 -9 -165 -86t-49 -214q0 -247 214 -266v566z" />
    <glyph glyph-name="cent" unicode="&#xa2;" horiz-adv-x="483" 
d="M266 -9q-211 11 -211 246q0 113 55.5 175t155.5 70v78h44v-76q38 -1 64 -7t53 -19v-45q-52 24 -117 25v-403q61 1 118 26v-46q-50 -21 -118 -24v-77h-44v77zM266 435q-157 -19 -157 -198q0 -95 37 -144t120 -57v399z" />
    <glyph glyph-name="colonmonetary" unicode="&#x20a1;" horiz-adv-x="574" 
d="M147 80q-92 68 -92 224q0 138 54 215t173 91l15 61h48l-15 -57h8q25 0 65 -4l16 61h48l-17 -67q27 -6 69 -19v-49q-43 15 -81 22l-122 -481h29q98 0 174 27v-49q-80 -25 -181 -25q-23 0 -34 1l-15 -62h-48l17 67q-38 7 -70 21l-22 -88h-47zM392 564q-32 2 -49 2t-25 -1
l-117 -460q31 -16 69 -22zM269 559q-87 -17 -123.5 -79t-36.5 -176t52 -169z" />
    <glyph glyph-name="currency" unicode="&#xa4;" horiz-adv-x="571" 
d="M55 100l84 63q-36 45 -36 106q0 60 36 105l-84 64l26 33l85 -67q24 22 54.5 34t64.5 12q68 0 119 -46l86 67l26 -33l-84 -64q36 -47 36 -105t-36 -107l84 -63l-26 -33l-86 66q-50 -45 -118 -45q-69 0 -120 45l-85 -66zM354.5 148q31.5 19 50 51t18.5 70t-18.5 70
t-50.5 50.5t-69 18.5q-38 0 -69.5 -18.5t-49.5 -50.5t-18 -70t18.5 -70t50 -51t68.5 -19q38 0 69.5 19z" />
    <glyph glyph-name="dollar" unicode="$" horiz-adv-x="553" 
d="M253 -10q-113 1 -182 28v49q81 -30 182 -30v270l-2 1q-108 24 -152 64t-44 109q0 74 49.5 119.5t148.5 52.5v77h46v-76q47 -1 90.5 -8.5t69.5 -15.5v-49q-72 25 -160 25v-260q110 -27 154.5 -69.5t44.5 -112.5q0 -78 -50.5 -121.5t-148.5 -50.5v-78h-46v76zM253 604
q-72 -7 -108 -37t-36 -86q0 -34 13 -56t44 -37.5t87 -30.5v247zM408 74.5q36 30.5 36 89.5q0 53 -33 82t-112 50v-258q73 6 109 36.5z" />
    <glyph glyph-name="dong" unicode="&#x20ab;" horiz-adv-x="589" 
d="M111.5 49.5q-56.5 59.5 -56.5 183.5q0 126 57 188.5t160 62.5q49 0 87.5 -11.5t74.5 -38.5v122h-170v45h170v81h55v-81h65v-45h-65v-556h-46l-5 53q-35 -33 -76 -48t-95 -15q-99 0 -155.5 59.5zM434 99v287q-60 52 -147 52q-89 0 -133.5 -50t-44.5 -155q0 -101 42 -149.5
t129 -48.5q94 0 154 64zM107 -62h403v-45h-403v45z" />
    <glyph glyph-name="Euro" unicode="&#x20ac;" horiz-adv-x="586" 
d="M195 43q-62 53 -82 151h-68v41h62q-3 32 -3 68q0 24 2 68h-61v41h65q16 117 77 179.5t183 62.5q51 0 90 -7t81 -22v-49q-41 16 -79.5 23t-87.5 7q-100 0 -147.5 -49t-61.5 -145h261v-41h-265q-2 -22 -2 -68q0 -47 3 -68h264v-41h-258q17 -78 67 -117.5t142 -39.5
q86 0 164 26v-48q-41 -13 -80 -19t-91 -6q-113 0 -175 53z" />
    <glyph glyph-name="florin" unicode="&#x192;" horiz-adv-x="518" 
d="M-80 -111l6 44q26 -11 63 -11q54 0 80 20.5t37 70.5l88 415h-73l9 46h73l18 80q15 69 56 102.5t111 33.5q43 0 75 -13l-6 -43q-30 11 -64 11q-54 0 -81 -22.5t-37 -69.5l-17 -79h133l-13 -46h-129l-88 -415q-15 -68 -55 -102t-113 -34q-39 0 -73 12z" />
    <glyph glyph-name="uni20B2" unicode="&#x20b2;" horiz-adv-x="633" 
d="M323 -9q-135 8 -201.5 91t-66.5 222q0 158 64 249t204 100v82h46v-81q89 -3 165 -27v-49q-75 25 -165 28v-266h209v-301q-29 -20 -81 -33.5t-128 -15.5v-110h-46v111zM323 604q-116 -9 -165 -86t-49 -214q0 -249 214 -266v566zM454.5 46q42.5 8 73.5 21v229h-159v-259
q43 1 85.5 9z" />
    <glyph glyph-name="lira" unicode="&#x20a4;" horiz-adv-x="505" 
d="M55 45h27q63 0 63 78v85h-73v45h73v97h-73v46h73v108q0 71 46 110.5t118 39.5q32 0 60 -5t45 -13v-44q-14 7 -39.5 11.5t-50.5 4.5q-62 0 -93 -25.5t-31 -79.5v-107h213l-3 -46h-210v-97h213l-3 -45h-210v-82q0 -59 -29 -81h279v-45h-395v45z" />
    <glyph glyph-name="uni20BA" unicode="&#x20ba;" horiz-adv-x="574" 
d="M153 317l-98 -32v43l98 32v87l-98 -32v43l98 32v154h55v-136l209 69v-42l-209 -69v-88l209 69v-43l-209 -68v-292q130 1 193 62t63 183v37h55v-37q0 -143 -81 -216t-237 -73h-48v317z" />
    <glyph glyph-name="uni20A6" unicode="&#x20a6;" horiz-adv-x="639" 
d="M113 211h-58v45h58v109h-58v45h58v234h53l129 -234h177v234h54v-234h58v-45h-58v-109h58v-45h-58v-211h-53l-117 211h-189v-211h-54v211zM245 410l-78 142v-142h78zM331 256l-61 109h-103v-109h164zM472 256v109h-152l60 -109h92zM472 211h-67l67 -120v120z" />
    <glyph glyph-name="peseta" unicode="&#x20a7;" horiz-adv-x="1117" 
d="M75 644h159q102 0 153 -53.5t51 -147.5q0 -92 -55.5 -144.5t-152.5 -52.5h-100v-246h-55v644zM225 291q78 0 119 40.5t41 111.5q0 76 -39 115.5t-116 39.5h-100v-307h95zM738 10v47q68 -21 140 -21q69 0 99.5 19.5t30.5 64.5q0 28 -11.5 44t-33 26t-68.5 26l-26 9
q-54 18 -81 30.5t-45 37t-18 66.5q0 63 41.5 94t132.5 31q69 0 127 -17v-47q-58 18 -118 18q-71 0 -99.5 -18.5t-28.5 -59.5q0 -27 12 -42.5t35 -25.5t76 -27q60 -19 92.5 -35.5t49.5 -42t17 -67.5q0 -68 -45.5 -99t-131.5 -31q-85 0 -147 20zM536.5 25q-33.5 35 -33.5 98
v164h-72v45h72v127l54 15v-142h138l-3 -45h-135v-163q0 -92 95 -92q26 0 56 11v-41q-33 -12 -75 -12q-63 0 -96.5 35z" />
    <glyph glyph-name="uni20B1" unicode="&#x20b1;" horiz-adv-x="602" 
d="M72 361h-37v44h37v80h-37v44h37v115h249q76 0 123.5 -30t66.5 -85h56v-44h-45q3 -21 3 -42q0 -20 -3 -38h45v-44h-57q-21 -55 -71 -84.5t-122 -29.5h-190v-247h-55v361zM453 529q-36 70 -137 70h-189v-70h326zM467 405q4 24 4 38q0 25 -4 42h-340v-80h340zM311 291
q104 0 141 70h-325v-70h184z" />
    <glyph glyph-name="uni20BD" unicode="&#x20bd;" horiz-adv-x="632" 
d="M118 123h-63v45h63v86h-63v44h63v346h254q103 0 154 -52t51 -145q0 -91 -56 -142t-154 -51h-194v-86h145v-45h-145v-123h-55v123zM363 298q78 0 118.5 38.5t40.5 109.5q0 75 -38.5 114t-115.5 39h-195v-301h190z" />
    <glyph glyph-name="uni20B9" unicode="&#x20b9;" horiz-adv-x="443" 
d="M176 199q-17 41 -41.5 58.5t-79.5 17.5v41h45q82 0 127 27.5t45 98.5h-217v41h215q-9 62 -43 90.5t-99 28.5h-73v42h333v-42h-130q55 -34 66 -119h64v-41h-62q0 -67 -43.5 -109t-117.5 -50q27 -14 37.5 -26.5t23.5 -43.5l89 -213h-56z" />
    <glyph glyph-name="sterling" unicode="&#xa3;" horiz-adv-x="505" 
d="M55 45h27q63 0 63 78v196h-73v45h73v140q0 71 46 110.5t118 39.5q32 0 60 -5t45 -13v-44q-14 7 -39.5 11.5t-50.5 4.5q-62 0 -93 -25.5t-31 -79.5v-139h213l-1 -45h-212v-193q0 -59 -29 -81h279v-45h-395v45z" />
    <glyph glyph-name="yen" unicode="&#xa5;" horiz-adv-x="615" 
d="M279 110h-163v41h163v68h-163v41h152l-213 384h56l196 -355l196 355h57l-215 -384h153v-41h-163v-68h163v-41h-163v-110h-56v110z" />
    <glyph glyph-name="uni2126" unicode="&#x2126;" horiz-adv-x="771" 
d="M62 44h176q-84 50 -133.5 130.5t-49.5 187.5q0 94 40 170t115.5 119.5t175.5 43.5t175 -43.5t115 -119.5t40 -170q0 -107 -49 -187.5t-133 -130.5h175v-44h-252v44q102 54 153.5 134.5t51.5 183.5q0 82 -35 147t-98 101.5t-143 36.5q-81 0 -144 -36.5t-98 -101.5
t-35 -147q0 -103 51.5 -183.5t153.5 -134.5v-44h-252v44z" />
    <glyph glyph-name="approxequal" unicode="&#x2248;" horiz-adv-x="488" 
d="M290 286q-20 7 -46 20q-27 13 -47 19.5t-45 6.5q-33 0 -53.5 -8.5t-43.5 -35.5v50q30 37 97 37q27 0 48.5 -7t49.5 -21q30 -13 47.5 -19t40.5 -6q32 0 52 9t43 36v-51q-16 -20 -40 -28.5t-57 -8.5q-26 0 -46 7zM290 150q-20 7 -46 20q-27 13 -47 19.5t-45 6.5
q-33 0 -53.5 -9t-43.5 -36v50q30 37 97 37q27 0 48.5 -7t49.5 -21q30 -13 47.5 -19t40.5 -6q32 0 52 9t43 36v-51q-16 -20 -40 -28t-57 -8q-26 0 -46 7z" />
    <glyph glyph-name="asciitilde" unicode="~" horiz-adv-x="579" 
d="M354 250q-27 9 -64 27t-64 27t-54 9q-37 0 -64.5 -14.5t-52.5 -46.5v58q18 24 49 38.5t68 14.5q32 0 60 -10t65 -28q39 -18 62.5 -26t49.5 -8q37 0 63.5 14t51.5 46v-58q-17 -24 -47.5 -38t-67.5 -14q-28 0 -55 9z" />
    <glyph glyph-name="uni2219" unicode="&#x2219;" horiz-adv-x="165" 
d="M55 344h55v-53h-55v53z" />
    <glyph glyph-name="divide" unicode="&#xf7;" horiz-adv-x="481" 
d="M213 442h54v-54h-54v54zM55 280h371v-45h-371v45zM213 133h54v-54h-54v54z" />
    <glyph glyph-name="uni2215" unicode="&#x2215;" horiz-adv-x="479" 
d="M370 662h54l-314 -662h-55z" />
    <glyph glyph-name="equal" unicode="=" horiz-adv-x="488" 
d="M55 348h378v-42h-378v42zM55 209h378v-42h-378v42z" />
    <glyph glyph-name="greater" unicode="&#x3e;" horiz-adv-x="546" 
d="M55 118l380 174l-380 173v53l436 -204v-45l-436 -204v53z" />
    <glyph glyph-name="greaterequal" unicode="&#x2265;" horiz-adv-x="546" 
d="M55 136l379 172l-379 172v50l436 -201v-41l-436 -202v50zM55 45h436v-45h-436v45z" />
    <glyph glyph-name="infinity" unicode="&#x221e;" horiz-adv-x="720" 
d="M96.5 179q-41.5 36 -41.5 104t41.5 104t109.5 36q50 0 90 -27t64 -73q24 46 64 73t90 27q68 0 109.5 -36t41.5 -104t-41.5 -104t-109.5 -36q-50 0 -90 27t-64 73q-24 -46 -64 -73t-90 -27q-68 0 -109.5 36zM337 284q-23 50 -53 74t-76 24q-53 0 -80.5 -26t-27.5 -73
t27.5 -73t80.5 -26q89 0 129 100zM592.5 210q27.5 26 27.5 73t-27.5 73t-80.5 26q-46 0 -76.5 -24.5t-52.5 -75.5q24 -50 54 -74t75 -24q53 0 80.5 26z" />
    <glyph glyph-name="integral" unicode="&#x222b;" horiz-adv-x="433" 
d="M35 -111v44q31 -11 63 -11q52 0 71.5 20.5t19.5 69.5v547q0 65 33 100.5t98 35.5q42 0 78 -13v-44q-31 11 -63 11q-53 0 -72 -20t-19 -69v-548q0 -65 -33.5 -100t-98.5 -35q-41 0 -77 12z" />
    <glyph glyph-name="less" unicode="&#x3c;" horiz-adv-x="546" 
d="M55 269v45l436 204v-53l-379 -173l379 -174v-53z" />
    <glyph glyph-name="lessequal" unicode="&#x2264;" horiz-adv-x="546" 
d="M55 288v41l436 201v-50l-379 -172l379 -172v-50zM55 45h436v-45h-436v45z" />
    <glyph glyph-name="logicalnot" unicode="&#xac;" horiz-adv-x="535" 
d="M433 319h-378v45h425v-212h-47v167z" />
    <glyph glyph-name="minus" unicode="&#x2212;" horiz-adv-x="482" 
d="M55 280h372v-45h-372v45z" />
    <glyph glyph-name="multiply" unicode="&#xd7;" horiz-adv-x="403" 
d="M203 222l-112 -111l-31 31l111 112l-116 115l30 31l115 -117l117 116l31 -31l-116 -117l116 -116l-29 -29z" />
    <glyph glyph-name="notequal" unicode="&#x2260;" horiz-adv-x="488" 
d="M185 167h-130v42h145l34 97h-179v42h194l41 115h52l-41 -115h132v-42h-147l-34 -97h181v-42h-196l-41 -115h-52z" />
    <glyph glyph-name="partialdiff" unicode="&#x2202;" horiz-adv-x="612" 
d="M104 30.5q-48 40.5 -48 112.5q0 26 6 54q43 204 258 204q43 0 89 -15.5t81 -45.5l6 29q9 48 9 89q0 73 -34.5 111t-111.5 38q-94 0 -160 -29l9 48q31 13 72.5 20.5t84.5 7.5q93 0 142.5 -52.5t49.5 -147.5q0 -41 -11 -94l-26 -129q-28 -127 -94 -184t-183 -57
q-91 0 -139 40.5zM463 213l18 85q-30 28 -71.5 43.5t-90.5 15.5q-91 0 -140 -41t-65 -120q-6 -28 -6 -51q0 -55 34 -83t109 -28q176 0 212 179z" />
    <glyph glyph-name="percent" unicode="%" horiz-adv-x="695" 
d="M89 407q-34 37 -34 99q0 70 33.5 109t100.5 39q66 0 99.5 -39t33.5 -109q0 -62 -34 -99t-99 -37q-66 0 -100 37zM492 644h52l-344 -644h-52zM258.5 434.5q21.5 24.5 21.5 71.5q0 56 -22 81.5t-69 25.5q-48 0 -70 -25.5t-22 -81.5q0 -96 92 -96q48 0 69.5 24.5zM406 26.5
q-34 36.5 -34 98.5q0 70 33.5 109t100.5 39t100.5 -39t33.5 -109q0 -62 -34 -98.5t-100 -36.5t-100 36.5zM576 54.5q22 24.5 22 71.5q0 56 -22 81.5t-70 25.5q-47 0 -69 -25.5t-22 -81.5q0 -47 21.5 -71.5t69.5 -24.5t70 24.5z" />
    <glyph glyph-name="perthousand" unicode="&#x2030;" horiz-adv-x="1000" 
d="M89 407q-34 37 -34 99q0 70 33.5 109t100.5 39q66 0 99.5 -39t33.5 -109q0 -62 -34 -99t-99 -37q-66 0 -100 37zM492 644h52l-344 -644h-52zM258.5 434.5q21.5 24.5 21.5 71.5q0 56 -22 81.5t-69 25.5q-48 0 -70 -25.5t-22 -81.5q0 -96 92 -96q48 0 69.5 24.5zM406 26.5
q-34 36.5 -34 98.5q0 70 33.5 109t100.5 39t100.5 -39t33.5 -109q0 -62 -34 -98.5t-100 -36.5t-100 36.5zM711 26.5q-34 36.5 -34 98.5q0 70 33.5 109t100.5 39t100.5 -39t33.5 -109q0 -62 -34 -98.5t-100 -36.5t-100 36.5zM576 54.5q22 24.5 22 71.5q0 56 -22 81.5
t-70 25.5q-47 0 -69 -25.5t-22 -81.5q0 -47 21.5 -71.5t69.5 -24.5t70 24.5zM881 54.5q22 24.5 22 71.5q0 56 -22 81.5t-70 25.5q-47 0 -69 -25.5t-22 -81.5q0 -47 21.5 -71.5t69.5 -24.5t70 24.5z" />
    <glyph glyph-name="plus" unicode="+" horiz-adv-x="482" 
d="M217 235h-162v45h162v162h47v-162h163v-45h-163v-156h-47v156z" />
    <glyph glyph-name="plusminus" unicode="&#xb1;" horiz-adv-x="482" 
d="M217 245h-162v45h162v162h47v-162h163v-45h-163v-156h-47v156zM55 45h372v-45h-372v45z" />
    <glyph glyph-name="product" unicode="&#x220f;" horiz-adv-x="624" 
d="M75 706h474v-835h-55v790h-364v-790h-55v835z" />
    <glyph glyph-name="radical" unicode="&#x221a;" horiz-adv-x="669" 
d="M163 398h-108v45h147l131 -376l227 647h54l-252 -714h-57z" />
    <glyph glyph-name="summation" unicode="&#x2211;" horiz-adv-x="531" 
d="M55 -83l260 345l-260 344v38h421v-45h-353l254 -337l-254 -338h353v-44h-421v37z" />
    <glyph glyph-name="arrowup" unicode="&#x2191;" horiz-adv-x="507" 
d="M233 562l-149 -185l-29 21l184 230h29l184 -230l-29 -21l-149 185v-616h-41v616z" />
    <glyph glyph-name="arrowright" unicode="&#x2192;" horiz-adv-x="792" 
d="M486 97l184 149h-615v41h616l-185 149l21 29l230 -184v-29l-230 -184z" />
    <glyph glyph-name="arrowdown" unicode="&#x2193;" horiz-adv-x="507" 
d="M55 174l29 21l149 -185v616h41v-616l149 185l29 -21l-184 -230h-29z" />
    <glyph glyph-name="arrowleft" unicode="&#x2190;" horiz-adv-x="792" 
d="M55 252v29l230 184l21 -29l-185 -149h616v-41h-615l184 -149l-21 -29z" />
    <glyph glyph-name="uni25C6" unicode="&#x25c6;" horiz-adv-x="643" 
d="M55 331l266 267l267 -267l-267 -266z" />
    <glyph glyph-name="lozenge" unicode="&#x25ca;" horiz-adv-x="600" 
d="M55 321l220 323h50l220 -323l-220 -321h-50zM487 321l-187 274l-186 -274l186 -274z" />
    <glyph glyph-name="filledbox" unicode="&#x25a0;" horiz-adv-x="594" 
d="M55 604h484v-484h-484v484z" />
    <glyph glyph-name="triagup" unicode="&#x25b2;" horiz-adv-x="695" 
d="M348 585l292 -585h-585z" />
    <glyph glyph-name="uni25B6" unicode="&#x25b6;" horiz-adv-x="695" 
d="M55 585l585 -292l-585 -293v585z" />
    <glyph glyph-name="triagdn" unicode="&#x25bc;" horiz-adv-x="695" 
d="M55 585h585l-292 -585z" />
    <glyph glyph-name="uni25C0" unicode="&#x25c0;" horiz-adv-x="695" 
d="M55 293l585 292v-585z" />
    <glyph glyph-name="uni25B3" unicode="&#x25b3;" horiz-adv-x="695" 
d="M348 585l292 -585h-585zM559 49l-211 425l-213 -425h424z" />
    <glyph glyph-name="uni25B7" unicode="&#x25b7;" horiz-adv-x="695" 
d="M55 584l585 -293l-585 -292v585zM529 291l-425 213v-424z" />
    <glyph glyph-name="uni25BD" unicode="&#x25bd;" horiz-adv-x="695" 
d="M55 585h585l-292 -585zM559 535h-424l213 -425z" />
    <glyph glyph-name="uni25C1" unicode="&#x25c1;" horiz-adv-x="695" 
d="M55 291l585 293v-585zM590 504l-425 -213l425 -211v424z" />
    <glyph glyph-name="uniF8FF" unicode="&#xf8ff;" horiz-adv-x="521" 
d="M55 714h411v-714h-411v714zM415 51v612h-309v-612h309z" />
    <glyph glyph-name="bar" unicode="|" horiz-adv-x="165" 
d="M55 735h55v-855h-55v855z" />
    <glyph glyph-name="brokenbar" unicode="&#xa6;" horiz-adv-x="165" 
d="M55 735h55v-301h-55v301zM55 180h55v-300h-55v300z" />
    <glyph glyph-name="at" unicode="@" horiz-adv-x="768" 
d="M146 -57.5q-91 74.5 -91 245.5q0 337 349 337q154 0 231.5 -69.5t77.5 -201.5q0 -100 -41.5 -155.5t-127.5 -55.5h-18q-58 -63 -166 -63q-66 0 -106.5 30.5t-40.5 88.5t37 93.5t116 35.5h142v33q0 42 -9 64t-34.5 31.5t-76.5 9.5q-67 0 -126 -21v40q51 22 137 22
q81 0 117.5 -34.5t36.5 -110.5v-176q59 0 85.5 40t26.5 128q0 114 -62.5 169.5t-198.5 55.5q-153 0 -227 -68.5t-74 -223.5q0 -150 77 -212t208 -62q110 0 173 19v-46q-76 -18 -171 -18q-153 0 -244 74.5zM448.5 34q34.5 15 59.5 47v107h-137q-63 0 -87.5 -22t-24.5 -67
q0 -43 27 -61.5t81 -18.5q47 0 81.5 15z" />
    <glyph glyph-name="ampersand" unicode="&#x26;" horiz-adv-x="652" 
d="M112 32.5q-57 42.5 -57 114.5q0 65 41 113.5t122 93.5q-53 49 -76.5 83t-23.5 79q0 59 39.5 98.5t109.5 39.5q69 0 107 -37.5t38 -100.5q0 -52 -28.5 -90t-91.5 -80l190 -194q19 43 19 99v20h46v-19q0 -77 -32 -132l92 -93l-33 -30l-85 85q-34 -46 -91 -69t-133 -23
q-96 0 -153 42.5zM340 440q24 28 24 74q0 45 -23.5 70.5t-73.5 25.5q-51 0 -76.5 -26.5t-25.5 -69.5q0 -26 11 -46.5t26 -37t56 -55.5q58 37 82 65zM455 114l-203 206q-75 -40 -109.5 -77.5t-34.5 -94.5q0 -55 43.5 -85.5t113.5 -30.5q131 0 190 82z" />
    <glyph glyph-name="paragraph" unicode="&#xb6;" horiz-adv-x="611" 
d="M330 253q-129 0 -202 50t-73 174q0 122 70 177.5t195 55.5h236v-787h-55v742h-116v-742h-55v330z" />
    <glyph glyph-name="copyright" unicode="&#xa9;" horiz-adv-x="774" 
d="M220.5 34.5q-76.5 44.5 -121 121t-44.5 166.5t44.5 166.5t121 121t166.5 44.5t166.5 -44.5t121 -121t44.5 -166.5t-44.5 -166.5t-121 -121t-166.5 -44.5t-166.5 44.5zM533 71q66 38 104 104t38 147q0 80 -38 146t-104 104t-146 38t-146 -38t-104 -104t-38 -146
q0 -81 38 -147t104 -104t146 -38t146 38zM214.5 146q-61.5 63 -61.5 175q0 77 32 130.5t86.5 80t121.5 26.5q78 0 129 -28v-40q-56 27 -121 27q-91 0 -146 -49t-55 -147q0 -101 49 -149t147 -48q31 0 66 7.5t60 20.5v-41q-26 -13 -62 -20.5t-75 -7.5q-109 0 -170.5 63z" />
    <glyph glyph-name="registered" unicode="&#xae;" horiz-adv-x="774" 
d="M220.5 34.5q-76.5 44.5 -121 121t-44.5 166.5t44.5 166.5t121 121t166.5 44.5t166.5 -44.5t121 -121t44.5 -166.5t-44.5 -166.5t-121 -121t-166.5 -44.5t-166.5 44.5zM533 71q66 38 104 104t38 147q0 80 -38 146t-104 104t-146 38t-146 -38t-104 -104t-38 -146
q0 -81 38 -147t104 -104t146 -38t146 38zM232 545h188q69 0 104.5 -34.5t35.5 -96.5q0 -52 -26.5 -84.5t-76.5 -41.5q15 -8 23 -18.5t17 -30.5l59 -139h-44l-60 137q-11 25 -26 32.5t-57 7.5h-92v-177h-45v445zM402 316q58 0 86 21t28 77q0 51 -23.5 71.5t-75.5 20.5h-140
v-190h125z" />
    <glyph glyph-name="uni2117" unicode="&#x2117;" horiz-adv-x="774" 
d="M220.5 34.5q-76.5 44.5 -121 121t-44.5 166.5t44.5 166.5t121 121t166.5 44.5t166.5 -44.5t121 -121t44.5 -166.5t-44.5 -166.5t-121 -121t-166.5 -44.5t-166.5 44.5zM533 71q66 38 104 104t38 147q0 80 -38 146t-104 104t-146 38t-146 -38t-104 -104t-38 -146
q0 -81 38 -147t104 -104t146 -38t146 38zM252 541h193q69 0 105.5 -35t36.5 -97q0 -63 -37.5 -102.5t-104.5 -39.5h-148v-172h-45v446zM430 308q57 0 85 22.5t28 78.5q0 51 -24.5 71.5t-77.5 20.5h-144v-193h133z" />
    <glyph glyph-name="section" unicode="&#xa7;" horiz-adv-x="553" 
d="M71 18v49q82 -30 183 -30q95 0 142.5 30t47.5 97q0 41 -20 66.5t-60.5 41.5t-113.5 34q-74 18 -115.5 37.5t-60.5 47t-19 69.5q0 32 17 63q-17 29 -17 70q0 81 58 126.5t173 45.5q50 0 97.5 -7.5t75.5 -16.5v-49q-72 25 -162 25q-94 0 -141 -30t-47 -95q0 -37 16.5 -60.5
t55 -40t111.5 -33.5q85 -20 128 -39t60.5 -45t17.5 -69q0 -16 -4.5 -36t-11.5 -35q16 -31 16 -71q0 -86 -61.5 -129.5t-178.5 -43.5q-116 0 -187 28zM449 306q0 33 -15.5 50.5t-50 30t-118.5 33.5q-62 15 -97.5 29.5t-54.5 35.5q-6 -12 -6 -30q0 -30 15.5 -48t51 -31
t106.5 -30q121 -29 163 -75q6 16 6 35z" />
    <glyph glyph-name="trademark" unicode="&#x2122;" horiz-adv-x="678" 
d="M160 604h-105v40h252v-40h-104v-242h-43v242zM333 644h45l101 -202l100 202h44v-282h-42v213l-93 -193h-19l-94 193v-213h-42v282z" />
    <glyph glyph-name="degree" unicode="&#xb0;" horiz-adv-x="321" 
d="M85.5 537q-30.5 30 -30.5 75t30.5 75t74.5 30q45 0 75.5 -30t30.5 -75t-30.5 -75t-75.5 -30q-44 0 -74.5 30zM207 565q19 19 19 47t-19 47t-47 19t-46.5 -19t-18.5 -47t18.5 -47t46.5 -19t47 19z" />
    <glyph glyph-name="estimated" unicode="&#x212e;" horiz-adv-x="787" 
d="M228.5 33.5q-80.5 44.5 -127 121t-46.5 169.5q0 106 46 181.5t123.5 114.5t169.5 39q89 0 167 -40.5t124.5 -113.5t46.5 -164v-17h-538v-224q27 -36 87 -59.5t125 -23.5q91 0 148.5 27t106.5 97h34q-53 -85 -120.5 -118.5t-168.5 -33.5q-97 0 -177.5 44.5zM594 352v210
q-31 31 -83 50t-117 19q-127 0 -200 -68v-211h400z" />
    <glyph glyph-name="uni2113" unicode="&#x2113;" horiz-adv-x="382" 
d="M137 31.5q-23 41.5 -23 121.5v184q-44 -19 -79 -28v46q43 10 79 31v188q0 91 26.5 133.5t92.5 42.5q58 0 85.5 -39.5t27.5 -102.5q0 -86 -45 -143t-133 -107v-237q0 -44 15 -66t49 -22q35 0 49.5 18.5t14.5 59.5h46q0 -58 -25.5 -89.5t-86.5 -31.5q-70 0 -93 41.5z
M267 496q33 45 33 110q0 44 -16 71.5t-52 27.5t-52 -24t-16 -74v-198q70 42 103 87z" />
    <glyph glyph-name="asciicircum" unicode="^" horiz-adv-x="439" 
d="M196 624h46l142 -227h-53l-111 186l-112 -186h-53z" />
    <glyph glyph-name="dagger" unicode="&#x2020;" horiz-adv-x="552" 
d="M252 446l-197 -2v45l197 -2l-3 213h55l-3 -213l196 2v-45l-196 2l3 -446h-55z" />
    <glyph glyph-name="daggerdbl" unicode="&#x2021;" horiz-adv-x="552" 
d="M252 207l-197 -2v45l197 -2l-3 102l3 101l-197 -1v44l197 -2l-3 208h55l-3 -208l196 2v-44l-196 1l3 -101l-3 -102l196 2v-45l-196 2l3 -207h-55z" />
    <glyph glyph-name="minute" unicode="&#x2032;" horiz-adv-x="163" 
d="M55 644h53l-12 -165h-41v165z" />
    <glyph glyph-name="second" unicode="&#x2033;" horiz-adv-x="297" 
d="M55 644h53l-12 -165h-41v165zM189 644h53l-12 -165h-41v165z" />
    <glyph glyph-name="uni2120" unicode="&#x2120;" horiz-adv-x="642" 
d="M63 371v34q35 -12 83 -12q37 0 53.5 10t16.5 34q0 21 -14 31.5t-58 25.5q-46 16 -67.5 33t-21.5 52q0 37 25 56t79 19q43 0 76 -10v-35q-33 11 -70 11q-38 0 -54 -9.5t-16 -30.5q0 -20 13 -30.5t52 -23.5q51 -16 73.5 -34t22.5 -55q0 -77 -106 -77q-52 0 -87 11zM297 644
h45l101 -202l100 202h44v-282h-42v213l-93 -193h-19l-94 193v-213h-42v282z" />
    <glyph glyph-name="uni0308" unicode="&#x308;" 
d="M-122 622h57v-55h-57v55zM45 622h56v-55h-56v55z" />
    <glyph glyph-name="uni0307" unicode="&#x307;" 
d="M-34 623h57v-56h-57v56z" />
    <glyph glyph-name="gravecomb" unicode="&#x300;" 
d="M-424 680h52l67 -158h-45z" />
    <glyph glyph-name="acutecomb" unicode="&#x301;" 
d="M-279 680h52l-74 -158h-45z" />
    <glyph glyph-name="uni030B" unicode="&#x30b;" 
d="M-116 680h54l-76 -141h-45zM83 680h54l-76 -141h-45z" />
    <glyph glyph-name="uni0302" unicode="&#x302;" 
d="M-42 674h48l105 -135h-50l-79 103l-79 -103h-50z" />
    <glyph glyph-name="uni030C" unicode="&#x30c;" 
d="M-147 674h50l79 -103l79 103h50l-105 -135h-48z" />
    <glyph glyph-name="uni0306" unicode="&#x306;" 
d="M-86.5 574q-30.5 31 -30.5 80h42q0 -34 19 -53t50 -19q32 0 51 19t19 53h42q0 -49 -30.5 -80t-81.5 -31q-50 0 -80.5 31z" />
    <glyph glyph-name="uni030A" unicode="&#x30a;" 
d="M-79 557.5q-29 29.5 -29 71.5q0 43 29 72.5t73 29.5q45 0 74 -29.5t29 -72.5q0 -42 -29 -71.5t-74 -29.5q-44 0 -73 29.5zM41.5 582.5q18.5 18.5 18.5 46.5q0 29 -18.5 47.5t-47.5 18.5t-47.5 -18.5t-18.5 -47.5q0 -28 19 -46.5t47 -18.5q29 0 47.5 18.5z" />
    <glyph glyph-name="tildecomb" unicode="&#x303;" 
d="M-272 587q-17 5 -39 15q-40 17 -60 17q-50 0 -79 -35v47q12 13 33.5 21t44.5 8q18 0 32.5 -4.5t37.5 -14.5q20 -9 33.5 -13.5t28.5 -4.5q24 0 42 8.5t31 26.5v-47q-10 -14 -28.5 -21.5t-42.5 -7.5q-17 0 -34 5z" />
    <glyph glyph-name="uni0304" unicode="&#x304;" 
d="M-153 609h277v-42h-277v42z" />
    <glyph glyph-name="hookabovecomb" unicode="&#x309;" 
d="M-337 590q39 2 59.5 8.5t27.5 18.5t7 32q0 27 -20 40t-63 13q-16 0 -35 -3.5t-32 -8.5v38q13 5 35.5 8.5t41.5 3.5q57 0 86.5 -23t29.5 -65q0 -41 -20.5 -62.5t-69.5 -26.5v-52h-47v79z" />
    <glyph glyph-name="uni031B" unicode="&#x31b;" 
d="M-92 576q44 0 67.5 10t33.5 35.5t10 73.5h48q0 -64 -17.5 -99.5t-52 -50t-89.5 -15.5v46z" />
    <glyph glyph-name="dotbelowcomb" unicode="&#x323;" 
d="M-335 -95h59v-57h-59v57z" />
    <glyph glyph-name="uni0324" unicode="&#x324;" 
d="M-119 -95h57v-56h-57v56zM60 -95h58v-56h-58v56z" />
    <glyph glyph-name="uni0326" unicode="&#x326;" 
d="M-108 -37h53l-38 -165h-41z" />
    <glyph glyph-name="uni0327" unicode="&#x327;" 
d="M-61.5 -237.5q-19.5 2.5 -31.5 5.5v37q29 -8 63 -8q52 0 75.5 14.5t23.5 49.5q0 31 -21.5 43t-70.5 12h-33l28 84h43l-17 -51q56 0 85 -22.5t29 -65.5q0 -50 -33.5 -75.5t-105.5 -25.5q-15 0 -34.5 2.5z" />
    <glyph glyph-name="uni0328" unicode="&#x328;" 
d="M-56 -199.5q-25 20.5 -25 65.5q0 39 21 75t54 59h46q-37 -27 -55.5 -60t-18.5 -68q0 -27 12.5 -39t40.5 -12q13 0 27 3t23 8v-41q-21 -11 -59 -11q-41 0 -66 20.5z" />
    <glyph glyph-name="uni032E" unicode="&#x32e;" 
d="M-104.5 -152q-37.5 33 -37.5 97h42q0 -47 25.5 -69.5t68.5 -22.5q44 0 69.5 22.5t25.5 69.5h41q0 -64 -37.5 -97t-98.5 -33t-98.5 33z" />
    <glyph glyph-name="uni0331" unicode="&#x331;" 
d="M-153 -74h277v-42h-277v42z" />
    <glyph glyph-name="uni02BC" unicode="&#x2bc;" horiz-adv-x="210" 
d="M101 654h54l-58 -171h-42z" />
    <glyph glyph-name="uni02BB" unicode="&#x2bb;" horiz-adv-x="210" 
d="M113 654h42l-46 -171h-54z" />
    <glyph glyph-name="uni02C9" unicode="&#x2c9;" 
d="M120 609h277v-42h-277v42z" />
    </font>
</defs>
</svg>
