<?xml version="1.0" standalone="no"?>
<!DOCTYPE svg PUBLIC "-//W3C//DTD SVG 1.1//EN" "http://www.w3.org/Graphics/SVG/1.1/DTD/svg11.dtd" >
<svg xmlns="http://www.w3.org/2000/svg" xmlns:xlink="http://www.w3.org/1999/xlink" version="1.1">
<metadata>
Created by FontForge 20170731 at Wed Dec  2 10:29:13 2015
 By Aleksey,,,
Copyright (c) 2015, Cadson Demak (info@cadsondemak.com)
</metadata>
<defs>
<font id="Kanit-Bold" horiz-adv-x="0" >
  <font-face 
    font-family="Kanit"
    font-weight="700"
    font-stretch="normal"
    units-per-em="1000"
    panose-1="0 0 8 0 0 0 0 0 0 0"
    ascent="750"
    descent="-250"
    x-height="474"
    cap-height="644"
    bbox="-656 -377 1328 1114"
    underline-thickness="50"
    underline-position="-150"
    unicode-range="U+000D-FB02"
  />
<missing-glyph horiz-adv-x="463" 
d="M26 714h411v-714h-411v714zM386 51v612h-309v-612h309z" />
    <glyph glyph-name="fi" unicode="fi" horiz-adv-x="581" 
d="M66 335h-61v139h61v28q0 53 25 96t74.5 68.5t118.5 25.5q86 0 140 -21v-127q-12 5 -33 8.5t-39 3.5q-49 0 -73.5 -15t-24.5 -43v-24h282v-474h-188v335h-94v-335h-188v335z" />
    <glyph glyph-name="fl" unicode="fl" horiz-adv-x="581" 
d="M66 335h-61v139h61v28q0 52 23.5 95t68.5 68t107 25q73 0 133 -19h138v-671h-188v335h-94v-335h-188v335zM350 474v77q-12 3 -36 3q-61 0 -61 -56v-24h97z" />
    <glyph glyph-name="ru_lakkhangyaothai" unicode="&#xe24;&#xe45;" horiz-adv-x="932" 
d="M831 497q56 -53 56 -162v-495h-188v481q0 50 -19 71t-67 21q-19 0 -39 -3q13 -36 13 -85v-485h-188v479q0 51 -24.5 72.5t-80.5 21.5q-32 0 -61 -8.5t-48 -22.5v-8l105 -33v-88q-32 -9 -46 -26t-14 -48v-26q0 -31 31 -31h41v-122h-155q-48 0 -76.5 29t-28.5 76v65
q0 42 18 74t56 45l-91 28v142q52 39 124 65t156 26q113 0 179 -36q31 16 78 26t93 10q120 0 176 -53z" />
    <glyph glyph-name="lu_lakkhangyaothai" unicode="&#xe26;&#xe45;" horiz-adv-x="961" 
d="M860 497q56 -53 56 -162v-495h-188v481q0 50 -19 71t-67 21q-20 0 -38 -3q13 -36 13 -85v-485h-188v479q0 51 -24.5 72.5t-80.5 21.5q-32 0 -61 -8.5t-48 -22.5v-8l105 -33v-88q-28 -9 -37.5 -26t-9.5 -53v-55q0 -59 -31 -89t-89 -30h-128v122h26q16 0 23 7.5t7 23.5v26
q0 42 14 69t51 41l-91 28v142q52 39 124 65t156 26q112 0 179 -36q31 16 77.5 26t92.5 10q120 0 176 -53z" />
    <glyph glyph-name=".notdef" horiz-adv-x="463" 
d="M26 714h411v-714h-411v714zM386 51v612h-309v-612h309z" />
    <glyph glyph-name=".null" horiz-adv-x="500" 
 />
    <glyph glyph-name="nonmarkingreturn" unicode="&#xd;" horiz-adv-x="400" 
 />
    <glyph glyph-name="space" unicode=" " horiz-adv-x="340" 
 />
    <glyph glyph-name="exclam" unicode="!" horiz-adv-x="246" 
d="M29 471v173h188v-173l-6 -287h-176zM25 133h196v-133h-196v133z" />
    <glyph glyph-name="quotedbl" unicode="&#x22;" horiz-adv-x="403" 
d="M25 644h154l-16 -225h-138v225zM224 644h154l-15 -225h-139v225z" />
    <glyph glyph-name="numbersign" unicode="#" horiz-adv-x="711" 
d="M88 150h-63v121h101l32 102h-92v122h130l47 149h161l-47 -149h111l47 149h161l-47 -149h57v-122h-96l-32 -102h88v-121h-126l-47 -150h-160l47 150h-112l-47 -150h-160zM398 271l32 102h-112l-32 -102h112z" />
    <glyph glyph-name="dollar" unicode="$" horiz-adv-x="555" 
d="M207 -8q-108 6 -173 38v150q46 -21 101 -34t102 -13q52 0 76 11t24 40q0 20 -13.5 32.5t-38.5 21.5t-86 28q-66 21 -103.5 46t-54 60.5t-16.5 88.5q0 78 46 125.5t136 61.5v82h155v-80q74 -7 132 -25v-151q-88 35 -171 35q-50 0 -78 -10t-28 -37q0 -17 11 -27.5t35 -18.5
t75 -22q77 -21 118.5 -50.5t57.5 -67.5t16 -92q0 -70 -42.5 -118t-125.5 -66v-86h-155v78z" />
    <glyph glyph-name="percent" unicode="%" horiz-adv-x="773" 
d="M64.5 384.5q-39.5 40.5 -39.5 107.5q0 76 39.5 119t112.5 43q74 0 113.5 -43t39.5 -119q0 -67 -40 -107.5t-113 -40.5t-112.5 40.5zM465 644h178l-337 -644h-177zM229 496q0 31 -12.5 45.5t-39.5 14.5t-39 -14t-12 -46q0 -54 51 -54q52 0 52 54zM482.5 30.5
q-39.5 40.5 -39.5 107.5q0 75 39.5 118t112.5 43q74 0 113.5 -43t39.5 -118q0 -67 -40 -107.5t-113 -40.5t-112.5 40.5zM647 141q0 31 -12.5 45.5t-39.5 14.5t-39 -14t-12 -46q0 -54 51 -54q52 0 52 54z" />
    <glyph glyph-name="ampersand" unicode="&#x26;" horiz-adv-x="678" 
d="M482 48q-33 -28 -85.5 -43t-113.5 -15q-78 0 -136.5 22.5t-90 63t-31.5 95.5q0 63 32.5 109t97.5 82q-33 33 -48.5 62t-15.5 67q0 73 54 118t145 45t146 -44t55 -119q0 -46 -20 -81t-63 -69l100 -102q11 19 11 47v17h139v-23q0 -39 -12.5 -77t-32.5 -65l50 -51l-116 -105
zM329 444.5q12 14.5 12 37.5t-12.5 36t-36.5 13q-26 0 -38.5 -13.5t-12.5 -35.5q0 -21 11.5 -36t36.5 -33q28 17 40 31.5zM331.5 125.5q22.5 8.5 36.5 22.5l-100 102q-32 -13 -47 -30.5t-15 -43.5q0 -28 21 -43.5t56 -15.5q26 0 48.5 8.5z" />
    <glyph glyph-name="quotesingle" unicode="'" horiz-adv-x="204" 
d="M25 644h154l-16 -225h-138v225z" />
    <glyph glyph-name="parenleft" unicode="(" horiz-adv-x="370" 
d="M57 88.5q-32 97.5 -32 214.5q0 116 32 213.5t95 161.5h213q-148 -136 -148 -375t148 -375h-213q-63 63 -95 160.5z" />
    <glyph glyph-name="parenright" unicode=")" horiz-adv-x="370" 
d="M153 303q0 239 -148 375h214q62 -64 94 -161.5t32 -213.5q0 -117 -32 -214.5t-94 -160.5h-214q148 136 148 375z" />
    <glyph glyph-name="asterisk" unicode="*" horiz-adv-x="444" 
d="M49 366l78 79l-102 42l55 113l79 -44l-6 88h139l-6 -88l78 44l55 -113l-102 -42l78 -79l-106 -77l-67 92l-67 -92z" />
    <glyph glyph-name="plus" unicode="+" horiz-adv-x="455" 
d="M155 212h-130v144h130v121h145v-121h130v-144h-130v-120h-145v120z" />
    <glyph glyph-name="comma" unicode="," horiz-adv-x="241" 
d="M59 105h157l-57 -225h-134z" />
    <glyph glyph-name="hyphen" unicode="-" horiz-adv-x="455" 
d="M25 356h405v-144h-405v144z" />
    <glyph glyph-name="period" unicode="." horiz-adv-x="198" 
d="M25 135h148v-135h-148v135z" />
    <glyph glyph-name="slash" unicode="/" horiz-adv-x="477" 
d="M259 662h193l-234 -662h-193z" />
    <glyph glyph-name="zero" unicode="0" horiz-adv-x="666" 
d="M98 73.5q-73 83.5 -73 248.5t73 248.5t235 83.5t235 -83.5t73 -248.5t-73 -248.5t-235 -83.5t-235 83.5zM422.5 192q26.5 42 26.5 130t-26.5 130t-89.5 42t-89.5 -41.5t-26.5 -130.5q0 -88 26.5 -130t89.5 -42t89.5 42z" />
    <glyph glyph-name="one" unicode="1" horiz-adv-x="365" 
d="M132 470l-107 -16v157l295 43v-654h-188v470z" />
    <glyph glyph-name="two" unicode="2" horiz-adv-x="522" 
d="M25 86q25 47 61 87t96 94l20 18q58 52 77.5 77.5t19.5 60.5t-23.5 53t-69.5 18q-76 0 -160 -35v160q41 16 96.5 25.5t110.5 9.5q117 0 177.5 -55.5t60.5 -152.5q0 -65 -22.5 -105.5t-77.5 -89.5l-17 -15q-34 -29 -56 -50.5t-36 -41.5h215v-144h-472v86z" />
    <glyph glyph-name="three" unicode="3" horiz-adv-x="534" 
d="M125.5 0q-64.5 10 -100.5 25v150q40 -18 88.5 -27t92.5 -9q58 0 84.5 14.5t26.5 51.5q0 56 -88 56h-109l12 126h91q43 0 62.5 14t19.5 45q0 30 -25 44.5t-79 14.5q-43 0 -88 -10t-78 -26v149q38 16 93 26t109 10q82 0 140.5 -24t89 -66t30.5 -96q0 -46 -18 -84.5
t-51 -59.5q81 -34 81 -135q0 -99 -74.5 -149t-198.5 -50q-46 0 -110.5 10z" />
    <glyph glyph-name="four" unicode="4" horiz-adv-x="549" 
d="M298 121h-293v123l318 400h163v-371h58v-152h-58v-121h-188v121zM331 265v175l-145 -175h145z" />
    <glyph glyph-name="five" unicode="5" horiz-adv-x="524" 
d="M123.5 -1.5q-58.5 8.5 -95.5 25.5v151q33 -16 84.5 -25.5t88.5 -9.5q55 0 80.5 17t25.5 54q0 35 -19 50.5t-67 15.5h-196v86l17 281h417l-13 -144h-243l-6 -92h73q229 0 229 -204q0 -99 -68.5 -156.5t-199.5 -57.5q-49 0 -107.5 8.5z" />
    <glyph glyph-name="six" unicode="6" horiz-adv-x="589" 
d="M25 251v124q0 80 36.5 143.5t105.5 99.5t162 36q53 0 93 -6.5t78 -20.5v-146q-64 28 -153 28q-69 0 -107.5 -26.5t-38.5 -68.5v-18q25 16 63 25.5t72 9.5q117 0 172.5 -54.5t55.5 -160.5q0 -104 -65 -165t-203 -61q-271 0 -271 261zM371 145q25 22 25 64q0 44 -22.5 66
t-74.5 22q-48 0 -98 -30v-47q0 -50 24 -73.5t72 -23.5q49 0 74 22z" />
    <glyph glyph-name="seven" unicode="7" horiz-adv-x="498" 
d="M272 500h-257v144h468v-108l-227 -536h-196z" />
    <glyph glyph-name="eight" unicode="8" horiz-adv-x="610" 
d="M93 39q-68 49 -68 148q0 47 22.5 87t61.5 59q-33 21 -50.5 53.5t-17.5 70.5q0 94 64 145.5t199 51.5q265 0 265 -197q0 -39 -17.5 -73.5t-52.5 -55.5q86 -43 86 -141q0 -99 -69 -148t-212 -49t-211 49zM376 407q14 16 14 46q0 65 -86 65q-43 0 -64 -16t-21 -49
q0 -51 54 -62l56 -11q33 11 47 27zM381.5 141.5q24.5 16.5 24.5 49.5q0 29 -16 44t-53 23l-68 14q-32 -8 -49 -25.5t-17 -49.5q0 -37 24.5 -54.5t76.5 -17.5q53 0 77.5 16.5z" />
    <glyph glyph-name="nine" unicode="9" horiz-adv-x="589" 
d="M165 -4.5q-39 5.5 -76 19.5v146q34 -15 70.5 -21t82.5 -6q71 0 108.5 27t37.5 68v19q-25 -16 -63 -26t-72 -10q-117 0 -172.5 54.5t-55.5 160.5q0 105 65 166t203 61q139 0 205 -65t66 -196v-124q0 -81 -36.5 -144t-105.5 -99t-162 -36q-56 0 -95 5.5zM388 377v46
q0 51 -23.5 74.5t-73.5 23.5q-48 0 -73 -22.5t-25 -64.5q0 -44 22 -66t74 -22q47 0 99 31z" />
    <glyph glyph-name="colon" unicode=":" horiz-adv-x="197" 
d="M25 454h147v-137h-147v137zM25 155h147v-137h-147v137z" />
    <glyph glyph-name="semicolon" unicode=";" horiz-adv-x="241" 
d="M65 454h148v-137h-148v137zM59 105h157l-57 -225h-134z" />
    <glyph glyph-name="less" unicode="&#x3c;" horiz-adv-x="538" 
d="M25 234v155l488 216v-175l-288 -118l288 -119v-175z" />
    <glyph glyph-name="equal" unicode="=" horiz-adv-x="446" 
d="M25 440h396v-129h-396v129zM25 254h396v-130h-396v130z" />
    <glyph glyph-name="greater" unicode="&#x3e;" horiz-adv-x="538" 
d="M25 193l288 119l-288 118v175l488 -216v-155l-488 -216v175z" />
    <glyph glyph-name="question" unicode="?" horiz-adv-x="501" 
d="M125 202q0 40 15 66.5t50 57.5q26 22 40 33q30 23 42 38t12 38q0 31 -25.5 45t-82.5 14q-43 0 -83 -10t-68 -28v156q84 42 205 42q118 0 182 -50.5t64 -140.5q0 -53 -20 -88t-67 -74l-22 -18q-34 -26 -49 -44t-15 -43v-12h-178v18zM116 133h196v-133h-196v133z" />
    <glyph glyph-name="at" unicode="@" horiz-adv-x="755" 
d="M122 -52.5q-97 79.5 -97 240.5q0 169 99 253t272 84q103 0 178.5 -32.5t115.5 -93.5t40 -146q0 -97 -53 -149t-157 -54h-40q-28 -18 -59 -26.5t-74 -8.5q-61 0 -99 28t-38 83q0 113 144 113h91v14q0 23 -17.5 34t-59.5 11q-54 0 -115 -18v73q26 11 64 17t78 6
q81 0 118.5 -33t37.5 -105v-93q26 0 39 23t13 76q0 88 -52 133t-155 45q-244 0 -244 -236q0 -111 60 -163t174 -52q110 0 173 19v-104q-76 -18 -171 -18q-169 0 -266 79.5zM445 118v53h-62q-30 0 -42 -11t-12 -33q0 -39 48 -39q42 0 68 30z" />
    <glyph glyph-name="A" unicode="A" horiz-adv-x="743" 
d="M272 644h199l247 -644h-196l-54 137h-194l-53 -137h-196zM443 272l-72 189l-72 -189h144z" />
    <glyph glyph-name="B" unicode="B" horiz-adv-x="647" 
d="M45 644h354q97 0 148.5 -46t51.5 -132q0 -48 -18 -83t-49 -55q45 -18 67.5 -49t22.5 -88q0 -91 -56 -141t-159 -50h-362v644zM348 387q69 0 69 62q0 32 -17.5 47.5t-56.5 15.5h-117v-125h122zM356 131q38 0 56 16t18 53q0 32 -18.5 47.5t-59.5 15.5h-126v-132h130z" />
    <glyph glyph-name="C" unicode="C" horiz-adv-x="607" 
d="M117 75.5q-92 85.5 -92 243.5q0 163 90.5 249t267.5 86q57 0 103.5 -8.5t93.5 -25.5v-164q-86 38 -184 38q-92 0 -135.5 -42t-43.5 -133q0 -88 45.5 -128.5t135.5 -40.5q99 0 184 37v-165q-93 -32 -198 -32q-175 0 -267 85.5z" />
    <glyph glyph-name="D" unicode="D" horiz-adv-x="671" 
d="M45 644h288q154 0 233.5 -77.5t79.5 -248.5q0 -163 -79.5 -240.5t-233.5 -77.5h-288v644zM309 144q50 0 81 14.5t47.5 52t16.5 107.5q0 71 -15 110.5t-46.5 55.5t-83.5 16h-76v-356h76z" />
    <glyph glyph-name="E" unicode="E" horiz-adv-x="548" 
d="M45 644h488v-144h-300v-105h263v-146h-263v-105h300v-144h-488v644z" />
    <glyph glyph-name="F" unicode="F" horiz-adv-x="534" 
d="M45 644h484v-140h-296v-111h258v-142h-258v-251h-188v644z" />
    <glyph glyph-name="G" unicode="G" horiz-adv-x="651" 
d="M115.5 74q-90.5 84 -90.5 242q0 163 93.5 250.5t271.5 87.5q115 0 200 -28v-161q-78 29 -187 29q-94 0 -140 -42.5t-46 -135.5q0 -86 39.5 -126t120.5 -40q48 0 92 13v94h-128v116h285v-324q-41 -26 -103.5 -42.5t-145.5 -16.5q-171 0 -261.5 84z" />
    <glyph glyph-name="H" unicode="H" horiz-adv-x="688" 
d="M45 644h188v-240h222v240h188v-644h-188v240h-222v-240h-188v644z" />
    <glyph glyph-name="I" unicode="I" horiz-adv-x="278" 
d="M45 644h188v-644h-188v644z" />
    <glyph glyph-name="J" unicode="J" horiz-adv-x="447" 
d="M5 13v156q49 -20 114 -20q54 0 77 22t23 73v400h188v-430q0 -106 -64.5 -165t-184.5 -59q-87 0 -153 23z" />
    <glyph glyph-name="K" unicode="K" horiz-adv-x="683" 
d="M45 644h188v-227l195 227h214l-227 -264l243 -380h-200l-159 260l-66 -74v-186h-188v644z" />
    <glyph glyph-name="L" unicode="L" horiz-adv-x="528" 
d="M45 644h188v-500h290v-144h-478v644z" />
    <glyph glyph-name="M" unicode="M" horiz-adv-x="774" 
d="M45 644h183l160 -327l159 327h182v-644h-188v322l-103 -212h-101l-104 212v-322h-188v644z" />
    <glyph glyph-name="N" unicode="N" horiz-adv-x="681" 
d="M45 644h160l243 -341v341h188v-644h-161l-242 340v-340h-188v644z" />
    <glyph glyph-name="O" unicode="O" horiz-adv-x="708" 
d="M108 69.5q-83 79.5 -83 250.5q0 176 82.5 255t246.5 79t246.5 -79.5t82.5 -254.5q0 -170 -83 -250t-246 -80t-246 79.5zM458.5 190.5q32.5 40.5 32.5 129.5q0 94 -32 134t-105 40t-105 -40t-32 -134q0 -89 32.5 -129.5t104.5 -40.5t104.5 40.5z" />
    <glyph glyph-name="P" unicode="P" horiz-adv-x="614" 
d="M45 644h332q114 0 173 -66t59 -171q0 -68 -29 -121t-82.5 -83t-124.5 -30h-140v-173h-188v644zM330 317q42 0 64.5 24.5t22.5 65.5q0 44 -20.5 68.5t-61.5 24.5h-102v-183h97z" />
    <glyph glyph-name="Q" unicode="Q" horiz-adv-x="708" 
d="M328.5 -131.5q-43.5 40.5 -44.5 125.5q-129 15 -194 95t-65 231q0 176 82.5 255t246.5 79t246.5 -79.5t82.5 -254.5q0 -149 -63.5 -228.5t-188.5 -96.5q0 -30 11.5 -40.5t37.5 -10.5q30 0 63 10v-116q-33 -10 -71 -10q-100 0 -143.5 40.5zM458.5 190.5
q32.5 40.5 32.5 129.5q0 94 -32 134t-105 40t-105 -40t-32 -134q0 -89 32.5 -129.5t104.5 -40.5t104.5 40.5z" />
    <glyph glyph-name="R" unicode="R" horiz-adv-x="635" 
d="M45 644h335q114 0 172 -62t58 -167q0 -64 -32 -113.5t-87 -76.5q11 -9 19 -21t18 -35l74 -169h-196l-68 155q-8 18 -19.5 25.5t-32.5 7.5h-53v-188h-188v644zM332 332q41 0 63.5 21.5t22.5 61.5q0 85 -80 85h-105v-168h99z" />
    <glyph glyph-name="S" unicode="S" horiz-adv-x="555" 
d="M132 0.5q-58 10.5 -98 29.5v155q46 -21 101 -34t102 -13q54 0 77.5 9.5t23.5 37.5q0 18 -11.5 29.5t-33.5 20t-70 23.5q-16 4 -24 7q-66 21 -103.5 46t-54 60.5t-16.5 88.5q0 95 68 144.5t200 49.5q51 0 107.5 -8.5t93.5 -20.5v-156q-88 35 -171 35q-53 0 -79.5 -8
t-26.5 -35q0 -17 11 -27t33.5 -17.5t76.5 -21.5q77 -21 118.5 -50.5t57.5 -67.5t16 -92q0 -90 -69.5 -142.5t-204.5 -52.5q-66 0 -124 10.5z" />
    <glyph glyph-name="T" unicode="T" horiz-adv-x="560" 
d="M186 504h-181v140h550v-140h-181v-504h-188v504z" />
    <glyph glyph-name="U" unicode="U" horiz-adv-x="689" 
d="M123.5 57.5q-83.5 67.5 -83.5 190.5v396h188v-376q0 -118 117 -118q116 0 116 118v376h188v-396q0 -82 -38 -140t-107 -88t-159 -30q-138 0 -221.5 67.5z" />
    <glyph glyph-name="V" unicode="V" horiz-adv-x="743" 
d="M25 644h196l150 -426l150 426h197l-247 -644h-199z" />
    <glyph glyph-name="W" unicode="W" horiz-adv-x="891" 
d="M25 644h184l73 -341l71 244v97h154l98 -342l77 342h184l-149 -644h-170l-97 333l-105 -333h-170z" />
    <glyph glyph-name="X" unicode="X" horiz-adv-x="753" 
d="M263 326l-229 318h224l118 -169l119 169h224l-229 -318l238 -326h-227l-125 175l-124 -175h-227z" />
    <glyph glyph-name="Y" unicode="Y" horiz-adv-x="702" 
d="M257 236l-232 408h196l130 -243l130 243h196l-232 -408v-236h-188v236z" />
    <glyph glyph-name="Z" unicode="Z" horiz-adv-x="578" 
d="M25 94l280 406h-265v144h512v-98l-277 -402h283v-144h-533v94z" />
    <glyph glyph-name="bracketleft" unicode="[" horiz-adv-x="375" 
d="M25 706h329l5 -144h-146v-517h147l-5 -144h-330v805z" />
    <glyph glyph-name="backslash" unicode="\" horiz-adv-x="498" 
d="M25 662h196l252 -716h-195z" />
    <glyph glyph-name="bracketright" unicode="]" horiz-adv-x="375" 
d="M15 45h147v517h-146l5 144h329v-805h-330z" />
    <glyph glyph-name="asciicircum" unicode="^" horiz-adv-x="527" 
d="M195 624h128l179 -252h-173l-66 116l-64 -116h-174z" />
    <glyph glyph-name="underscore" unicode="_" horiz-adv-x="518" 
d="M25 0h468v-129h-468v129z" />
    <glyph glyph-name="grave" unicode="`" horiz-adv-x="284" 
d="M25 728h146l88 -206h-138z" />
    <glyph glyph-name="a" unicode="a" horiz-adv-x="568" 
d="M72.5 28.5q-47.5 38.5 -47.5 113.5q0 76 50.5 117t150.5 41h123v9q0 28 -23.5 41t-80.5 13q-82 0 -162 -25v113q37 15 91 24t109 9q116 0 180.5 -47.5t64.5 -144.5v-292h-164l-9 38q-54 -48 -162 -48q-73 0 -120.5 38.5zM349 138v59h-91q-32 0 -47 -12t-15 -37
q0 -48 61 -48q57 0 92 38z" />
    <glyph glyph-name="b" unicode="b" horiz-adv-x="607" 
d="M281.5 2q-34.5 12 -64.5 35l-9 -37h-163v674h188v-217q24 13 56.5 20t65.5 7q227 0 227 -243q0 -124 -59 -187.5t-162 -63.5q-45 0 -79.5 12zM370.5 152.5q19.5 26.5 19.5 86.5q0 59 -20 84t-63 25q-46 0 -74 -25v-168q31 -29 74 -29q44 0 63.5 26.5z" />
    <glyph glyph-name="c" unicode="c" horiz-adv-x="506" 
d="M98.5 52.5q-73.5 62.5 -73.5 184.5t75 184.5t205 62.5q54 0 95.5 -7.5t79.5 -25.5v-132q-59 28 -134 28q-66 0 -97.5 -25t-31.5 -85q0 -58 31 -84t98 -26q71 0 135 33v-138q-71 -32 -177 -32q-132 0 -205.5 62.5z" />
    <glyph glyph-name="d" unicode="d" horiz-adv-x="607" 
d="M82.5 45q-57.5 55 -57.5 177q0 84 30.5 143t82 89t114.5 30q33 0 65.5 -7t56.5 -20v217h188v-674h-163l-9 37q-30 -23 -64.5 -35t-79.5 -12q-106 0 -163.5 55zM374 155v168q-28 25 -74 25q-38 0 -60.5 -33.5t-22.5 -93.5q0 -39 8.5 -59.5t26 -28t48.5 -7.5q43 0 74 29z
" />
    <glyph glyph-name="e" unicode="e" horiz-adv-x="552" 
d="M101.5 53.5q-76.5 63.5 -76.5 182.5q0 116 65 182t190 66q115 0 181 -59t66 -161v-83h-329q12 -37 49.5 -53.5t104.5 -16.5q40 0 81.5 7t67.5 18v-113q-70 -33 -195 -33q-128 0 -204.5 63.5zM365 283v17q0 64 -79 64q-47 0 -67.5 -20t-20.5 -61h167z" />
    <glyph glyph-name="f" unicode="f" horiz-adv-x="362" 
d="M66 335h-61v139h61v31q0 83 47.5 134t136.5 51q72 0 127 -23v-122q-31 11 -60 11q-35 0 -49 -13t-14 -42v-27h112l-8 -139h-104v-335h-188v335z" />
    <glyph glyph-name="g" unicode="g" horiz-adv-x="565" 
d="M134 -169.5q-61 6.5 -95 18.5v120q38 -13 95 -20t108 -7q56 0 85 5.5t29 19.5q0 12 -10 15.5t-38 3.5h-125q-74 0 -113 23.5t-39 70.5q0 32 18.5 55.5t54.5 36.5q-41 21 -60 53t-19 81q0 178 243 178q23 0 54 -3.5t47 -6.5h186l-4 -114h-63q18 -23 18 -56
q0 -75 -44 -116.5t-132 -41.5q-22 0 -56 4q-54 -6 -54 -28q0 -10 8 -13.5t26 -3.5h109q74 0 115.5 -34.5t41.5 -99.5q0 -71 -66.5 -109t-200.5 -38q-58 0 -119 6.5zM330 263.5q17 14.5 17 50.5t-17.5 51.5t-60.5 15.5q-41 0 -59.5 -15.5t-18.5 -51.5q0 -34 17.5 -49.5
t60.5 -15.5q44 0 61 14.5z" />
    <glyph glyph-name="h" unicode="h" horiz-adv-x="604" 
d="M45 674h188v-229q26 17 64 28t79 11q97 0 142.5 -45.5t45.5 -140.5v-298h-189v284q0 33 -14 47t-48 14q-21 0 -43 -9.5t-37 -24.5v-311h-188v674z" />
    <glyph glyph-name="i" unicode="i" horiz-adv-x="347" 
d="M99 673h203v-136h-203v136zM114 337h-69l16 137h241v-474h-188v337z" />
    <glyph glyph-name="j" unicode="j" horiz-adv-x="349" 
d="M101 673h203v-136h-203v136zM-7 -212v125q30 -10 60 -10q33 0 48 12t15 39v383h-69l16 137h241v-534q0 -80 -45.5 -127t-137.5 -47q-75 0 -128 22z" />
    <glyph glyph-name="k" unicode="k" horiz-adv-x="614" 
d="M45 674h188v-333l132 133h213l-189 -200l200 -274h-200l-117 176l-39 -39v-137h-188v674z" />
    <glyph glyph-name="l" unicode="l" horiz-adv-x="319" 
d="M82.5 26.5q-37.5 36.5 -37.5 116.5v531h188v-510q0 -21 8.5 -29t28.5 -8q29 0 49 8v-125q-27 -11 -51.5 -15.5t-61.5 -4.5q-86 0 -123.5 36.5z" />
    <glyph glyph-name="m" unicode="m" horiz-adv-x="861" 
d="M45 474h174l5 -38q70 48 154 48q44 0 71 -12.5t43 -38.5q73 51 168 51q83 0 122 -43.5t39 -132.5v-308h-185v286q0 32 -13 45.5t-43 13.5q-18 0 -35 -7.5t-29 -20.5q2 -17 2 -50v-267h-174v289q0 30 -10.5 43t-37.5 13q-35 0 -69 -34v-311h-182v474z" />
    <glyph glyph-name="n" unicode="n" horiz-adv-x="604" 
d="M45 474h176l5 -36q29 20 74 33t93 13q89 0 130 -44t41 -136v-304h-188v285q0 32 -14.5 46t-48.5 14q-21 0 -43 -9.5t-37 -24.5v-311h-188v474z" />
    <glyph glyph-name="o" unicode="o" horiz-adv-x="606" 
d="M25 237q0 121 69 184t208 63q140 0 209.5 -63t69.5 -184q0 -247 -279 -247q-277 0 -277 247zM368.5 153q20.5 26 20.5 84q0 57 -20.5 83.5t-66.5 26.5q-45 0 -65 -26.5t-20 -83.5q0 -58 20 -84t65 -26q46 0 66.5 26z" />
    <glyph glyph-name="p" unicode="p" horiz-adv-x="607" 
d="M45 474h163l9 -38q30 24 64.5 36t79.5 12q109 0 165 -55.5t56 -179.5q0 -126 -60.5 -192.5t-168.5 -66.5q-34 0 -65.5 7t-54.5 20v-233h-188v690zM390 246q0 57 -19.5 79t-63.5 22q-22 0 -39.5 -7t-34.5 -21v-168q17 -13 33 -18.5t39 -5.5q85 0 85 119z" />
    <glyph glyph-name="q" unicode="q" horiz-adv-x="632" 
d="M413 -204q-39 38 -39 118v103q-23 -13 -55 -20t-65 -7q-110 0 -169.5 58.5t-59.5 182.5q0 125 59 189t164 64q44 0 77.5 -12t63.5 -36l10 38h163v-538q0 -24 8.5 -33t31.5 -9t45 8v-124q-27 -11 -50.5 -15.5t-61.5 -4.5q-83 0 -122 38zM341.5 133q17.5 6 32.5 18v168
q-16 15 -33 21.5t-39 6.5q-43 0 -64 -27.5t-21 -85.5q0 -59 20.5 -83t63.5 -24q23 0 40.5 6z" />
    <glyph glyph-name="r" unicode="r" horiz-adv-x="401" 
d="M45 474h181l5 -38q31 18 75.5 31.5t89.5 16.5v-140q-42 -3 -89 -13t-74 -23v-308h-188v474z" />
    <glyph glyph-name="s" unicode="s" horiz-adv-x="487" 
d="M117 -1.5q-54 8.5 -86 21.5v135q33 -16 81 -25t85 -9q44 0 58.5 2.5t14.5 16.5q0 12 -15.5 19t-50.5 17l-50 16q-69 25 -99 56t-30 88q0 148 232 148q44 0 93 -7t79 -16v-132q-29 12 -64.5 18.5t-65.5 6.5q-41 0 -61.5 -3.5t-20.5 -16.5q0 -11 13.5 -17t47.5 -15l44 -13
q54 -16 84.5 -35t43 -45.5t12.5 -67.5q0 -73 -59 -112t-173 -39q-59 0 -113 8.5z" />
    <glyph glyph-name="t" unicode="t" horiz-adv-x="380" 
d="M111 36.5q-44 46.5 -44 131.5v167h-62v139h62v97l188 45v-142h109l-7 -139h-102v-153q0 -30 14.5 -42.5t46.5 -12.5q29 0 59 10v-125q-53 -22 -127 -22q-93 0 -137 46.5z" />
    <glyph glyph-name="u" unicode="u" horiz-adv-x="604" 
d="M86.5 37.5q-46.5 47.5 -46.5 137.5v299h188v-284q0 -32 15.5 -47t47.5 -15q22 0 44 10t36 25v311h188v-474h-176l-5 36q-65 -46 -161 -46q-84 0 -130.5 47.5z" />
    <glyph glyph-name="v" unicode="v" horiz-adv-x="622" 
d="M25 474h196l90 -278l90 278h196l-187 -474h-198z" />
    <glyph glyph-name="w" unicode="w" horiz-adv-x="783" 
d="M25 474h182l56 -235l55 167v68h138l66 -235l54 235h182l-125 -474h-168l-72 215l-72 -215h-171z" />
    <glyph glyph-name="x" unicode="x" horiz-adv-x="621" 
d="M208 241l-176 233h204l74 -100l75 100h203l-175 -233l183 -241h-206l-80 106l-80 -106h-205z" />
    <glyph glyph-name="y" unicode="y" horiz-adv-x="642" 
d="M136.5 -172q-27.5 4 -54.5 15v128q26 -10 61 -10q39 0 58 10t38 40l-214 463h197l111 -279l108 279h196l-175 -429q-44 -109 -104.5 -165t-153.5 -56q-40 0 -67.5 4z" />
    <glyph glyph-name="z" unicode="z" horiz-adv-x="495" 
d="M25 103l199 227h-192v144h431v-106l-193 -224h200v-144h-445v103z" />
    <glyph glyph-name="braceleft" unicode="{" horiz-adv-x="328" 
d="M94 -70q-32 34 -32 104v132q0 37 -13 55.5t-44 22.5v108q33 4 45 24t12 64v122q0 70 32.5 104.5t103.5 34.5h115v-144h-25q-21 0 -29.5 -10.5t-8.5 -33.5v-120q0 -66 -48 -95q48 -31 48 -95v-120q0 -23 8.5 -33t29.5 -10h25v-144h-115q-72 0 -104 34z" />
    <glyph glyph-name="bar" unicode="|" horiz-adv-x="238" 
d="M25 735h188v-855h-188v855z" />
    <glyph glyph-name="braceright" unicode="}" horiz-adv-x="328" 
d="M15 40h25q21 0 29.5 10t8.5 33v120q0 64 48 95q-48 29 -48 95v120q0 23 -8.5 33.5t-29.5 10.5h-25v144h115q71 0 103.5 -34.5t32.5 -104.5v-122q0 -44 12 -64t45 -24v-108q-31 -4 -44 -22.5t-13 -55.5v-132q0 -70 -32 -104t-104 -34h-115v144z" />
    <glyph glyph-name="asciitilde" unicode="~" horiz-adv-x="532" 
d="M333.5 197q-25.5 8 -67.5 25q-37 16 -64.5 24.5t-56.5 8.5q-39 0 -67.5 -14t-52.5 -44v168q17 23 49.5 36.5t70.5 13.5q31 0 59.5 -8.5t67.5 -25.5q41 -17 65 -24.5t51 -7.5q39 0 67 13.5t52 43.5v-168q-17 -24 -49 -36.5t-70 -12.5q-29 0 -54.5 8z" />
    <glyph glyph-name="uni00A0" unicode="&#xa0;" horiz-adv-x="340" 
 />
    <glyph glyph-name="exclamdown" unicode="&#xa1;" horiz-adv-x="246" 
d="M25 572h196v-133h-196v133zM29 101l6 287h176l6 -287v-173h-188v173z" />
    <glyph glyph-name="cent" unicode="&#xa2;" horiz-adv-x="506" 
d="M219 -2q-93 18 -143.5 78t-50.5 161q0 100 51 160t143 79v84h154v-80q54 -6 107 -29v-132q-59 28 -134 28q-66 0 -97.5 -25t-31.5 -85q0 -58 31 -84t98 -26q71 0 135 33v-138q-48 -22 -108 -28v-80h-154v84z" />
    <glyph glyph-name="sterling" unicode="&#xa3;" horiz-adv-x="485" 
d="M25 139h23q22 0 32.5 12t10.5 33v80h-61v139h61v64q0 84 51 135.5t140 51.5q77 0 135 -25v-121q-30 12 -71 12q-67 0 -67 -60v-57h135l-8 -139h-127v-69q0 -21 -4.5 -33.5t-16.5 -22.5h202v-139h-435v139z" />
    <glyph glyph-name="currency" unicode="&#xa4;" horiz-adv-x="570" 
d="M25 135l77 56q-18 36 -18 78q0 43 18 77l-76 57l81 99l80 -64q43 26 97 26q56 0 98 -27l82 64l81 -98l-78 -57q19 -36 19 -77q0 -37 -19 -77l77 -59l-80 -97l-82 63q-44 -27 -97 -27q-51 0 -97 26l-81 -63zM331.5 222q19.5 19 19.5 47t-19.5 47.5t-47.5 19.5t-46.5 -19.5
t-18.5 -47.5t18.5 -47t46.5 -19t47.5 19z" />
    <glyph glyph-name="yen" unicode="&#xa5;" horiz-adv-x="702" 
d="M257 65h-134v106h134v40h-134v106h88l-186 327h196l130 -243l130 243h196l-186 -327h87v-106h-133v-40h133v-106h-133v-65h-188v65z" />
    <glyph glyph-name="brokenbar" unicode="&#xa6;" horiz-adv-x="238" 
d="M25 735h188v-352h-188v352zM25 231h188v-351h-188v351z" />
    <glyph glyph-name="section" unicode="&#xa7;" horiz-adv-x="555" 
d="M132 0.5q-58 10.5 -98 29.5v150q46 -21 101 -34t102 -13q50 0 75 11t25 40q0 25 -25.5 39.5t-89.5 34.5q-18 5 -23 7q-66 21 -103.5 44.5t-54 55t-16.5 78.5q0 20 6 39t16 32q-21 32 -21 74q0 87 66.5 132t200.5 45q47 0 105 -9t96 -20v-151q-88 35 -174 35
q-44 0 -73.5 -9t-29.5 -38q0 -17 11.5 -27.5t35.5 -19t74 -21.5q79 -21 120.5 -44.5t56.5 -54t15 -78.5q0 -21 -6 -44t-16 -35q10 -14 16 -33t6 -38q0 -92 -69.5 -140t-204.5 -48q-66 0 -124 10.5zM387 338q0 19 -25.5 33t-82.5 29q-73 19 -91 37q-3 -6 -3 -16
q0 -20 22.5 -31.5t79.5 -26.5q81 -23 97 -41q3 8 3 16z" />
    <glyph glyph-name="dieresis" unicode="&#xa8;" horiz-adv-x="406" 
d="M25 678h141v-130h-141v130zM240 678h141v-130h-141v130z" />
    <glyph glyph-name="copyright" unicode="&#xa9;" horiz-adv-x="714" 
d="M190.5 34.5q-76.5 44.5 -121 121t-44.5 166.5t44.5 166.5t121 121t166.5 44.5t166.5 -44.5t121 -121t44.5 -166.5t-44.5 -166.5t-121 -121t-166.5 -44.5t-166.5 44.5zM474.5 116q52.5 30 83 84t30.5 122t-30.5 121.5t-83 83.5t-117.5 30t-117.5 -30t-83 -83.5
t-30.5 -121.5t30.5 -122t83 -84t117.5 -30t117.5 30zM218.5 177.5q-53.5 53.5 -53.5 144.5q0 62 25.5 107t70 68.5t100.5 23.5q39 0 69 -10t58 -29v-84q-45 27 -96 27q-46 0 -75.5 -24.5t-29.5 -78.5q0 -102 102 -102q27 0 53 8t47 23v-89q-57 -38 -130 -38
q-87 0 -140.5 53.5z" />
    <glyph glyph-name="ordfeminine" unicode="&#xaa;" horiz-adv-x="333" 
d="M51 401q-26 21 -26 63q0 89 111 89h68v4q0 15 -12.5 21t-43.5 6q-45 0 -90 -14v65q21 8 51.5 13.5t60.5 5.5q64 0 101 -26.5t37 -80.5v-161h-95l-5 20q-32 -26 -90 -26q-41 0 -67 21zM204 465v29h-42q-20 0 -29 -5.5t-9 -20.5q0 -25 32 -25t48 22z" />
    <glyph glyph-name="guillemotleft" unicode="&#xab;" horiz-adv-x="676" 
d="M25 250v68l270 199l71 -104l-175 -129l175 -130l-71 -103zM310 250v68l270 199l71 -104l-175 -129l175 -130l-71 -103z" />
    <glyph glyph-name="logicalnot" unicode="&#xac;" horiz-adv-x="503" 
d="M333 238h-308v144h453v-263h-145v119z" />
    <glyph glyph-name="uni00AD" unicode="&#xad;" horiz-adv-x="455" 
d="M25 356h405v-144h-405v144z" />
    <glyph glyph-name="registered" unicode="&#xae;" horiz-adv-x="714" 
d="M190.5 34.5q-76.5 44.5 -121 121t-44.5 166.5t44.5 166.5t121 121t166.5 44.5t166.5 -44.5t121 -121t44.5 -166.5t-44.5 -166.5t-121 -121t-166.5 -44.5t-166.5 44.5zM474.5 116q52.5 30 83 84t30.5 122t-30.5 121.5t-83 83.5t-117.5 30t-117.5 -30t-83 -83.5
t-30.5 -121.5t30.5 -122t83 -84t117.5 -30t117.5 30zM216 500h187q60 0 92 -33t32 -88q0 -39 -18.5 -67t-52.5 -41q11 -10 18 -29l35 -94h-97l-31 91q-5 10 -11.5 14t-20.5 4h-32v-109h-101v352zM362 333q33 0 48.5 9t15.5 37q0 26 -14 35.5t-45 9.5h-50v-91h45z" />
    <glyph glyph-name="macron" unicode="&#xaf;" horiz-adv-x="378" 
d="M25 669h328v-112h-328v112z" />
    <glyph glyph-name="degree" unicode="&#xb0;" horiz-adv-x="307" 
d="M62.5 521.5q-37.5 34.5 -37.5 90.5q0 57 37.5 91t90.5 34q54 0 91.5 -34t37.5 -91q0 -56 -37.5 -90.5t-91.5 -34.5q-53 0 -90.5 34.5zM181 584.5q11 11.5 11 27.5t-11.5 27t-27.5 11t-27.5 -11t-11.5 -27t11.5 -27.5t27.5 -11.5q17 0 28 11.5z" />
    <glyph glyph-name="plusminus" unicode="&#xb1;" horiz-adv-x="455" 
d="M155 303h-130v144h130v121h145v-121h130v-144h-130v-120h-145v120zM25 144h405v-144h-405v144z" />
    <glyph glyph-name="uni00B2" unicode="&#xb2;" horiz-adv-x="306" 
d="M25 422q13 18 26.5 29.5t39.5 31.5q33 25 41.5 33.5t8.5 20.5q0 13 -10 18.5t-32 5.5q-29 0 -69 -17v90q21 8 55.5 14t66.5 6q60 0 93.5 -24t33.5 -63q0 -25 -9 -41.5t-31 -36.5l-19 -16q-10 -8 -16 -14h77v-89h-256v52z" />
    <glyph glyph-name="uni00B3" unicode="&#xb3;" horiz-adv-x="310" 
d="M77.5 366.5q-37.5 4.5 -52.5 10.5v74q36 -16 79 -16q26 0 37 5t11 16t-9.5 16t-29.5 5h-46l5 63h39q19 0 27.5 5t8.5 16q0 18 -45 18q-39 0 -73 -16v75q17 6 50.5 11t60.5 5q71 0 105.5 -23t34.5 -61q0 -41 -30 -62q35 -13 35 -58q0 -88 -145 -88q-25 0 -62.5 4.5z" />
    <glyph glyph-name="acute" unicode="&#xb4;" horiz-adv-x="284" 
d="M113 728h146l-96 -206h-138z" />
    <glyph glyph-name="paragraph" unicode="&#xb6;" horiz-adv-x="669" 
d="M248 253q-100 0 -161.5 55.5t-61.5 168.5q0 117 70.5 175t185.5 58h363v-787h-168v648h-61v-648h-167v330z" />
    <glyph glyph-name="periodcentered" unicode="&#xb7;" horiz-adv-x="198" 
d="M25 354h148v-135h-148v135z" />
    <glyph glyph-name="cedilla" unicode="&#xb8;" horiz-adv-x="293" 
d="M62.5 -237.5q-26.5 2.5 -37.5 5.5v74q29 -8 59 -8q39 0 55.5 7.5t16.5 26.5t-13.5 25t-40.5 6h-63l29 101h103l-15 -41q57 0 84.5 -25.5t27.5 -68.5q0 -50 -40.5 -77.5t-120.5 -27.5q-18 0 -44.5 2.5z" />
    <glyph glyph-name="uni00B9" unicode="&#xb9;" horiz-adv-x="222" 
d="M83 528l-58 -11v99l192 38v-284h-134v158z" />
    <glyph glyph-name="ordmasculine" unicode="&#xba;" horiz-adv-x="359" 
d="M25 517q0 137 154 137q155 0 155 -137t-155 -137q-154 0 -154 137zM213.5 472q10.5 14 10.5 45t-10.5 44.5t-34.5 13.5t-34.5 -13.5t-10.5 -44.5t10.5 -45t34.5 -14t34.5 14z" />
    <glyph glyph-name="guillemotright" unicode="&#xbb;" horiz-adv-x="676" 
d="M25 154l175 130l-175 129l71 104l270 -199v-68l-270 -199zM310 154l175 130l-175 129l71 104l270 -199v-68l-270 -199z" />
    <glyph glyph-name="onequarter" unicode="&#xbc;" horiz-adv-x="682" 
d="M83 528l-58 -11v99l192 38v-284h-134v158zM415 644h178l-337 -644h-177zM501 42h-128v79l129 163h126v-158h29v-84h-29v-42h-127v42zM535 126v70l-54 -70h54z" />
    <glyph glyph-name="onehalf" unicode="&#xbd;" horiz-adv-x="695" 
d="M83 528l-58 -11v99l192 38v-284h-134v158zM415 644h178l-337 -644h-177zM414 52q13 18 26.5 29.5t39.5 31.5q33 25 41.5 33.5t8.5 20.5q0 13 -10 18.5t-32 5.5q-29 0 -69 -17v90q21 8 55.5 14t66.5 6q60 0 93.5 -24t33.5 -63q0 -25 -9 -41.5t-31 -36.5l-19 -16
q-10 -8 -16 -14h77v-89h-256v52z" />
    <glyph glyph-name="threequarters" unicode="&#xbe;" horiz-adv-x="692" 
d="M77.5 366.5q-37.5 4.5 -52.5 10.5v74q36 -16 79 -16q26 0 37 5t11 16t-9.5 16t-29.5 5h-46l5 63h39q19 0 27.5 5t8.5 16q0 18 -45 18q-39 0 -73 -16v75q17 6 50.5 11t60.5 5q71 0 105.5 -23t34.5 -61q0 -41 -30 -62q35 -13 35 -58q0 -88 -145 -88q-25 0 -62.5 4.5z
M425 644h178l-337 -644h-177zM511 42h-128v79l129 163h126v-158h29v-84h-29v-42h-127v42zM545 126v70l-54 -70h54z" />
    <glyph glyph-name="questiondown" unicode="&#xbf;" horiz-adv-x="501" 
d="M189 572h196v-133h-196v133zM89 -31.5q-64 50.5 -64 140.5q0 53 20 88t67 74l22 18q34 26 49 44t15 43v12h178v-18q0 -40 -15 -66.5t-50 -57.5q-26 -22 -40 -33q-30 -23 -42 -38t-12 -38q0 -31 25.5 -45t82.5 -14q43 0 83 10t68 28v-156q-84 -42 -205 -42
q-118 0 -182 50.5z" />
    <glyph glyph-name="Agrave" unicode="&#xc0;" horiz-adv-x="743" 
d="M204 894h147l88 -206h-138zM272 644h199l247 -644h-196l-54 137h-194l-53 -137h-196zM443 272l-72 189l-72 -189h144z" />
    <glyph glyph-name="Aacute" unicode="&#xc1;" horiz-adv-x="743" 
d="M387 894h146l-96 -206h-138zM272 644h199l247 -644h-196l-54 137h-194l-53 -137h-196zM443 272l-72 189l-72 -189h144z" />
    <glyph glyph-name="Acircumflex" unicode="&#xc2;" horiz-adv-x="743" 
d="M314 888h114l155 -200h-136l-76 108l-72 -108h-140zM272 644h199l247 -644h-196l-54 137h-194l-53 -137h-196zM443 272l-72 189l-72 -189h144z" />
    <glyph glyph-name="Atilde" unicode="&#xc3;" horiz-adv-x="743" 
d="M423 696.5q-22 5.5 -54 16.5q-28 10 -46.5 15t-35.5 5q-59 0 -98 -39v118q15 14 41 23.5t54 9.5q22 0 42 -5t51 -16q27 -10 47 -15.5t41 -5.5q30 0 53.5 11t36.5 29v-119q-10 -14 -34.5 -23.5t-52.5 -9.5q-23 0 -45 5.5zM272 644h199l247 -644h-196l-54 137h-194
l-53 -137h-196zM443 272l-72 189l-72 -189h144z" />
    <glyph glyph-name="Adieresis" unicode="&#xc4;" horiz-adv-x="743" 
d="M198 834h131v-120h-131v120zM414 834h131v-120h-131v120zM272 644h199l247 -644h-196l-54 137h-194l-53 -137h-196zM443 272l-72 189l-72 -189h144z" />
    <glyph glyph-name="Aring" unicode="&#xc5;" horiz-adv-x="743" 
d="M718 0h-196l-54 137h-194l-53 -137h-196l242 630q-35 37 -35 92q0 57 37.5 94.5t101.5 37.5q65 0 102 -37.5t37 -94.5q0 -55 -34 -91zM330 760.5q-15 -15.5 -15 -38.5t15 -38.5t41 -15.5q27 0 41.5 15t14.5 39q0 23 -14.5 38.5t-41.5 15.5q-26 0 -41 -15.5zM443 272
l-72 189l-72 -189h144z" />
    <glyph glyph-name="AE" unicode="&#xc6;" horiz-adv-x="859" 
d="M272 644h562v-144h-248v-105h211v-146h-211v-105h248v-144h-432v138h-125l-53 -138h-199zM402 284v216h-6l-83 -216h89z" />
    <glyph glyph-name="Ccedilla" unicode="&#xc7;" horiz-adv-x="607" 
d="M429 -9l-12 -32q57 0 84.5 -25.5t27.5 -68.5q0 -50 -40.5 -77.5t-120.5 -27.5q-18 0 -44.5 2.5t-37.5 5.5v74q29 -8 59 -8q39 0 55.5 7.5t16.5 26.5t-13.5 25t-40.5 6h-63l27 94q-147 13 -224.5 97.5t-77.5 228.5q0 163 90.5 249t267.5 86q57 0 103.5 -8.5t93.5 -25.5
v-164q-86 38 -184 38q-92 0 -135.5 -42t-43.5 -133q0 -88 45.5 -128.5t135.5 -40.5q99 0 184 37v-165q-75 -26 -153 -31z" />
    <glyph glyph-name="Egrave" unicode="&#xc8;" horiz-adv-x="548" 
d="M141 894h147l88 -206h-138zM45 644h488v-144h-300v-105h263v-146h-263v-105h300v-144h-488v644z" />
    <glyph glyph-name="Eacute" unicode="&#xc9;" horiz-adv-x="548" 
d="M289 894h146l-96 -206h-138zM45 644h488v-144h-300v-105h263v-146h-263v-105h300v-144h-488v644z" />
    <glyph glyph-name="Ecircumflex" unicode="&#xca;" horiz-adv-x="548" 
d="M233 888h114l155 -200h-136l-76 108l-72 -108h-140zM45 644h488v-144h-300v-105h263v-146h-263v-105h300v-144h-488v644z" />
    <glyph glyph-name="Edieresis" unicode="&#xcb;" horiz-adv-x="548" 
d="M120 835h131v-120h-131v120zM336 835h131v-120h-131v120zM45 644h488v-144h-300v-105h263v-146h-263v-105h300v-144h-488v644z" />
    <glyph glyph-name="Igrave" unicode="&#xcc;" horiz-adv-x="278" 
d="M-24 894h147l88 -206h-138zM45 644h188v-644h-188v644z" />
    <glyph glyph-name="Iacute" unicode="&#xcd;" horiz-adv-x="278" 
d="M153 894h146l-96 -206h-138zM45 644h188v-644h-188v644z" />
    <glyph glyph-name="Icircumflex" unicode="&#xce;" horiz-adv-x="278" 
d="M82 888h114l155 -200h-136l-76 108l-72 -108h-140zM45 644h188v-644h-188v644z" />
    <glyph glyph-name="Idieresis" unicode="&#xcf;" horiz-adv-x="278" 
d="M-34 842h131v-120h-131v120zM182 842h131v-120h-131v120zM45 644h188v-644h-188v644z" />
    <glyph glyph-name="Eth" unicode="&#xd0;" horiz-adv-x="710" 
d="M605.5 566.5q79.5 -77.5 79.5 -248.5q0 -163 -79.5 -240.5t-233.5 -77.5h-288v251h-79v129h79v264h288q154 0 233.5 -77.5zM429 158.5q31 14.5 47.5 52t16.5 107.5q0 71 -15 110.5t-46.5 55.5t-83.5 16h-76v-120h102v-129h-102v-107h76q50 0 81 14.5z" />
    <glyph glyph-name="Ntilde" unicode="&#xd1;" horiz-adv-x="681" 
d="M402 701.5q-22 5.5 -54 16.5q-28 10 -46.5 15t-35.5 5q-59 0 -98 -39v118q15 14 41 23.5t54 9.5q22 0 42 -5t51 -16q27 -10 47 -15.5t41 -5.5q30 0 53.5 11t36.5 29v-119q-10 -14 -34.5 -23.5t-52.5 -9.5q-23 0 -45 5.5zM45 644h160l243 -341v341h188v-644h-161l-242 340
v-340h-188v644z" />
    <glyph glyph-name="Ograve" unicode="&#xd2;" horiz-adv-x="708" 
d="M194 894h147l88 -206h-138zM108 69.5q-83 79.5 -83 250.5q0 176 82.5 255t246.5 79t246.5 -79.5t82.5 -254.5q0 -170 -83 -250t-246 -80t-246 79.5zM458.5 190.5q32.5 40.5 32.5 129.5q0 94 -32 134t-105 40t-105 -40t-32 -134q0 -89 32.5 -129.5t104.5 -40.5t104.5 40.5
z" />
    <glyph glyph-name="Oacute" unicode="&#xd3;" horiz-adv-x="708" 
d="M360 894h146l-96 -206h-138zM108 69.5q-83 79.5 -83 250.5q0 176 82.5 255t246.5 79t246.5 -79.5t82.5 -254.5q0 -170 -83 -250t-246 -80t-246 79.5zM458.5 190.5q32.5 40.5 32.5 129.5q0 94 -32 134t-105 40t-105 -40t-32 -134q0 -89 32.5 -129.5t104.5 -40.5
t104.5 40.5z" />
    <glyph glyph-name="Ocircumflex" unicode="&#xd4;" horiz-adv-x="708" 
d="M298 888h114l155 -200h-136l-76 108l-72 -108h-140zM108 69.5q-83 79.5 -83 250.5q0 176 82.5 255t246.5 79t246.5 -79.5t82.5 -254.5q0 -170 -83 -250t-246 -80t-246 79.5zM458.5 190.5q32.5 40.5 32.5 129.5q0 94 -32 134t-105 40t-105 -40t-32 -134q0 -89 32.5 -129.5
t104.5 -40.5t104.5 40.5z" />
    <glyph glyph-name="Otilde" unicode="&#xd5;" horiz-adv-x="708" 
d="M406 716.5q-22 5.5 -54 16.5q-28 10 -46.5 15t-35.5 5q-59 0 -98 -39v118q15 14 41 23.5t54 9.5q22 0 42 -5t51 -16q27 -10 47 -15.5t41 -5.5q30 0 53.5 11t36.5 29v-119q-10 -14 -34.5 -23.5t-52.5 -9.5q-23 0 -45 5.5zM108 69.5q-83 79.5 -83 250.5q0 176 82.5 255
t246.5 79t246.5 -79.5t82.5 -254.5q0 -170 -83 -250t-246 -80t-246 79.5zM458.5 190.5q32.5 40.5 32.5 129.5q0 94 -32 134t-105 40t-105 -40t-32 -134q0 -89 32.5 -129.5t104.5 -40.5t104.5 40.5z" />
    <glyph glyph-name="Odieresis" unicode="&#xd6;" horiz-adv-x="708" 
d="M181 835h131v-120h-131v120zM397 835h131v-120h-131v120zM108 69.5q-83 79.5 -83 250.5q0 176 82.5 255t246.5 79t246.5 -79.5t82.5 -254.5q0 -170 -83 -250t-246 -80t-246 79.5zM458.5 190.5q32.5 40.5 32.5 129.5q0 94 -32 134t-105 40t-105 -40t-32 -134
q0 -89 32.5 -129.5t104.5 -40.5t104.5 40.5z" />
    <glyph glyph-name="multiply" unicode="&#xd7;" horiz-adv-x="426" 
d="M214 160l-94 -93l-92 91l94 94l-97 97l91 91l95 -98l99 97l91 -91l-98 -98l98 -97l-90 -90z" />
    <glyph glyph-name="Oslash" unicode="&#xd8;" horiz-adv-x="708" 
d="M180 21q-155 69 -155 299q0 176 82.5 255t246.5 79q36 0 74 -5l17 44h102l-27 -67q81 -33 122 -108t41 -198q0 -170 -83 -250t-246 -80q-44 0 -82 6l-19 -49h-102zM366 493l-12 1q-73 0 -105 -40t-32 -134q0 -87 31 -128zM458.5 190.5q32.5 40.5 32.5 129.5q0 98 -37 139
l-121 -308q7 -1 21 -1q72 0 104.5 40.5z" />
    <glyph glyph-name="Ugrave" unicode="&#xd9;" horiz-adv-x="689" 
d="M185 894h147l88 -206h-138zM123.5 57.5q-83.5 67.5 -83.5 190.5v396h188v-376q0 -118 117 -118q116 0 116 118v376h188v-396q0 -82 -38 -140t-107 -88t-159 -30q-138 0 -221.5 67.5z" />
    <glyph glyph-name="Uacute" unicode="&#xda;" horiz-adv-x="689" 
d="M362 894h146l-96 -206h-138zM123.5 57.5q-83.5 67.5 -83.5 190.5v396h188v-376q0 -118 117 -118q116 0 116 118v376h188v-396q0 -82 -38 -140t-107 -88t-159 -30q-138 0 -221.5 67.5z" />
    <glyph glyph-name="Ucircumflex" unicode="&#xdb;" horiz-adv-x="689" 
d="M288 888h114l155 -200h-136l-76 108l-72 -108h-140zM123.5 57.5q-83.5 67.5 -83.5 190.5v396h188v-376q0 -118 117 -118q116 0 116 118v376h188v-396q0 -82 -38 -140t-107 -88t-159 -30q-138 0 -221.5 67.5z" />
    <glyph glyph-name="Udieresis" unicode="&#xdc;" horiz-adv-x="689" 
d="M171 835h131v-120h-131v120zM387 835h131v-120h-131v120zM123.5 57.5q-83.5 67.5 -83.5 190.5v396h188v-376q0 -118 117 -118q116 0 116 118v376h188v-396q0 -82 -38 -140t-107 -88t-159 -30q-138 0 -221.5 67.5z" />
    <glyph glyph-name="Yacute" unicode="&#xdd;" horiz-adv-x="702" 
d="M366 894h146l-96 -206h-138zM257 236l-232 408h196l130 -243l130 243h196l-232 -408v-236h-188v236z" />
    <glyph glyph-name="Thorn" unicode="&#xde;" horiz-adv-x="614" 
d="M45 644h188v-91h144q114 0 173 -64t59 -168q0 -68 -29 -120.5t-82.5 -81.5t-124.5 -29h-140v-90h-188v644zM330 234q43 0 65.5 23t22.5 64q0 88 -83 88h-102v-175h97z" />
    <glyph glyph-name="germandbls" unicode="&#xdf;" horiz-adv-x="647" 
d="M268 12v143q17 -7 41.5 -11t47.5 -4q73 0 73 63q0 35 -19 49t-62 14h-64v131h53q69 0 69 70q0 73 -83 73q-52 0 -77.5 -24t-25.5 -78v-438h-181v448q0 73 34 130.5t97 89.5t147 32q90 0 153.5 -31.5t95.5 -82.5t32 -110q0 -49 -18 -86t-50 -56q91 -37 91 -143
q0 -93 -57 -147t-160 -54q-84 0 -137 22z" />
    <glyph glyph-name="agrave" unicode="&#xe0;" horiz-adv-x="568" 
d="M130 728h147l88 -206h-138zM72.5 28.5q-47.5 38.5 -47.5 113.5q0 76 50.5 117t150.5 41h123v9q0 28 -23.5 41t-80.5 13q-82 0 -162 -25v113q37 15 91 24t109 9q116 0 180.5 -47.5t64.5 -144.5v-292h-164l-9 38q-54 -48 -162 -48q-73 0 -120.5 38.5zM349 138v59h-91
q-32 0 -47 -12t-15 -37q0 -48 61 -48q57 0 92 38z" />
    <glyph glyph-name="aacute" unicode="&#xe1;" horiz-adv-x="568" 
d="M303 728h146l-96 -206h-138zM72.5 28.5q-47.5 38.5 -47.5 113.5q0 76 50.5 117t150.5 41h123v9q0 28 -23.5 41t-80.5 13q-82 0 -162 -25v113q37 15 91 24t109 9q116 0 180.5 -47.5t64.5 -144.5v-292h-164l-9 38q-54 -48 -162 -48q-73 0 -120.5 38.5zM349 138v59h-91
q-32 0 -47 -12t-15 -37q0 -48 61 -48q57 0 92 38z" />
    <glyph glyph-name="acircumflex" unicode="&#xe2;" horiz-adv-x="568" 
d="M234 722h114l155 -200h-136l-76 108l-72 -108h-140zM72.5 28.5q-47.5 38.5 -47.5 113.5q0 76 50.5 117t150.5 41h123v9q0 28 -23.5 41t-80.5 13q-82 0 -162 -25v113q37 15 91 24t109 9q116 0 180.5 -47.5t64.5 -144.5v-292h-164l-9 38q-54 -48 -162 -48
q-73 0 -120.5 38.5zM349 138v59h-91q-32 0 -47 -12t-15 -37q0 -48 61 -48q57 0 92 38z" />
    <glyph glyph-name="atilde" unicode="&#xe3;" horiz-adv-x="568" 
d="M353 535.5q-22 5.5 -54 16.5q-28 10 -46.5 15t-35.5 5q-59 0 -98 -39v118q15 14 41 23.5t54 9.5q22 0 42 -5t51 -16q27 -10 47 -15.5t41 -5.5q30 0 53.5 11t36.5 29v-119q-10 -14 -34.5 -23.5t-52.5 -9.5q-23 0 -45 5.5zM72.5 28.5q-47.5 38.5 -47.5 113.5q0 76 50.5 117
t150.5 41h123v9q0 28 -23.5 41t-80.5 13q-82 0 -162 -25v113q37 15 91 24t109 9q116 0 180.5 -47.5t64.5 -144.5v-292h-164l-9 38q-54 -48 -162 -48q-73 0 -120.5 38.5zM349 138v59h-91q-32 0 -47 -12t-15 -37q0 -48 61 -48q57 0 92 38z" />
    <glyph glyph-name="adieresis" unicode="&#xe4;" horiz-adv-x="568" 
d="M128 669h131v-120h-131v120zM344 669h131v-120h-131v120zM72.5 28.5q-47.5 38.5 -47.5 113.5q0 76 50.5 117t150.5 41h123v9q0 28 -23.5 41t-80.5 13q-82 0 -162 -25v113q37 15 91 24t109 9q116 0 180.5 -47.5t64.5 -144.5v-292h-164l-9 38q-54 -48 -162 -48
q-73 0 -120.5 38.5zM349 138v59h-91q-32 0 -47 -12t-15 -37q0 -48 61 -48q57 0 92 38z" />
    <glyph glyph-name="aring" unicode="&#xe5;" horiz-adv-x="568" 
d="M198.5 559q-37.5 37 -37.5 94t37.5 94.5t101.5 37.5q65 0 102 -37.5t37 -94.5t-37 -94t-102 -37q-64 0 -101.5 37zM341.5 614q14.5 15 14.5 39q0 23 -14.5 38.5t-41.5 15.5q-26 0 -41 -15.5t-15 -38.5t15 -38.5t41 -15.5q27 0 41.5 15zM72.5 28.5q-47.5 38.5 -47.5 113.5
q0 76 50.5 117t150.5 41h123v9q0 28 -23.5 41t-80.5 13q-82 0 -162 -25v113q37 15 91 24t109 9q116 0 180.5 -47.5t64.5 -144.5v-292h-164l-9 38q-54 -48 -162 -48q-73 0 -120.5 38.5zM349 138v59h-91q-32 0 -47 -12t-15 -37q0 -48 61 -48q57 0 92 38z" />
    <glyph glyph-name="ae" unicode="&#xe6;" horiz-adv-x="882" 
d="M74.5 28q-49.5 38 -49.5 114t50.5 117t150.5 41h123v9q0 28 -23.5 41t-80.5 13q-82 0 -162 -25v113q37 15 91 24t109 9q52 0 91 -10t71 -30q30 19 73 29.5t92 10.5q115 0 181 -59t66 -161v-83h-329q12 -37 49.5 -53.5t104.5 -16.5q40 0 81.5 7t67.5 18v-113
q-70 -33 -195 -33q-59 0 -109 18.5t-82 51.5q-97 -70 -238 -70q-83 0 -132.5 38zM695 283v17q0 64 -79 64q-45 0 -65.5 -18t-22.5 -55v-8h167zM349 135v62h-91q-32 0 -47 -12t-15 -37q0 -48 61 -48q57 0 92 35z" />
    <glyph glyph-name="ccedilla" unicode="&#xe7;" horiz-adv-x="506" 
d="M344 -9l-12 -32q57 0 84.5 -25.5t27.5 -68.5q0 -50 -40.5 -77.5t-120.5 -27.5q-18 0 -44.5 2.5t-37.5 5.5v74q29 -8 59 -8q39 0 55.5 7.5t16.5 26.5t-13.5 25t-40.5 6h-63l27 95q-104 14 -160.5 75t-56.5 168q0 122 75 184.5t205 62.5q54 0 95.5 -7.5t79.5 -25.5v-132
q-59 28 -134 28q-66 0 -97.5 -25t-31.5 -85q0 -58 31 -84t98 -26q71 0 135 33v-138q-60 -26 -137 -31z" />
    <glyph glyph-name="egrave" unicode="&#xe8;" horiz-adv-x="552" 
d="M118 728h147l88 -206h-138zM101.5 53.5q-76.5 63.5 -76.5 182.5q0 116 65 182t190 66q115 0 181 -59t66 -161v-83h-329q12 -37 49.5 -53.5t104.5 -16.5q40 0 81.5 7t67.5 18v-113q-70 -33 -195 -33q-128 0 -204.5 63.5zM365 283v17q0 64 -79 64q-47 0 -67.5 -20
t-20.5 -61h167z" />
    <glyph glyph-name="eacute" unicode="&#xe9;" horiz-adv-x="552" 
d="M305 728h146l-96 -206h-138zM101.5 53.5q-76.5 63.5 -76.5 182.5q0 116 65 182t190 66q115 0 181 -59t66 -161v-83h-329q12 -37 49.5 -53.5t104.5 -16.5q40 0 81.5 7t67.5 18v-113q-70 -33 -195 -33q-128 0 -204.5 63.5zM365 283v17q0 64 -79 64q-47 0 -67.5 -20
t-20.5 -61h167z" />
    <glyph glyph-name="ecircumflex" unicode="&#xea;" horiz-adv-x="552" 
d="M227 722h114l155 -200h-136l-76 108l-72 -108h-140zM101.5 53.5q-76.5 63.5 -76.5 182.5q0 116 65 182t190 66q115 0 181 -59t66 -161v-83h-329q12 -37 49.5 -53.5t104.5 -16.5q40 0 81.5 7t67.5 18v-113q-70 -33 -195 -33q-128 0 -204.5 63.5zM365 283v17q0 64 -79 64
q-47 0 -67.5 -20t-20.5 -61h167z" />
    <glyph glyph-name="edieresis" unicode="&#xeb;" horiz-adv-x="552" 
d="M110 669h131v-120h-131v120zM326 669h131v-120h-131v120zM101.5 53.5q-76.5 63.5 -76.5 182.5q0 116 65 182t190 66q115 0 181 -59t66 -161v-83h-329q12 -37 49.5 -53.5t104.5 -16.5q40 0 81.5 7t67.5 18v-113q-70 -33 -195 -33q-128 0 -204.5 63.5zM365 283v17
q0 64 -79 64q-47 0 -67.5 -20t-20.5 -61h167z" />
    <glyph glyph-name="igrave" unicode="&#xec;" horiz-adv-x="347" 
d="M35 728h147l88 -206h-138zM114 337h-69l16 137h241v-474h-188v337z" />
    <glyph glyph-name="iacute" unicode="&#xed;" horiz-adv-x="347" 
d="M202 728h146l-96 -206h-138zM114 337h-69l16 137h241v-474h-188v337z" />
    <glyph glyph-name="icircumflex" unicode="&#xee;" horiz-adv-x="347" 
d="M119 722h114l155 -200h-136l-76 108l-72 -108h-140zM114 337h-69l16 137h241v-474h-188v337z" />
    <glyph glyph-name="idieresis" unicode="&#xef;" horiz-adv-x="347" 
d="M2 669h131v-120h-131v120zM218 669h131v-120h-131v120zM114 337h-69l16 137h241v-474h-188v337z" />
    <glyph glyph-name="eth" unicode="&#xf0;" horiz-adv-x="571" 
d="M89.5 44.5q-64.5 54.5 -64.5 157.5q0 102 59.5 153t169.5 51q34 0 71.5 -9.5t62.5 -25.5v24q0 56 -14 85l-106 -45v57l67 29q-29 15 -78 15q-75 0 -146 -31v121q74 28 177 28q123 0 195 -69l88 38v-58l-53 -23q46 -71 46 -176v-115q0 -261 -271 -261q-139 0 -203.5 54.5z
M364 137q24 24 24 76v48q-50 30 -98 30q-52 0 -74.5 -22.5t-22.5 -66.5t24.5 -66.5t73.5 -22.5t73 24z" />
    <glyph glyph-name="ntilde" unicode="&#xf1;" horiz-adv-x="604" 
d="M355 535.5q-22 5.5 -54 16.5q-28 10 -46.5 15t-35.5 5q-59 0 -98 -39v118q15 14 41 23.5t54 9.5q22 0 42 -5t51 -16q27 -10 47 -15.5t41 -5.5q30 0 53.5 11t36.5 29v-119q-10 -14 -34.5 -23.5t-52.5 -9.5q-23 0 -45 5.5zM45 474h176l5 -36q29 20 74 33t93 13
q89 0 130 -44t41 -136v-304h-188v285q0 32 -14.5 46t-48.5 14q-21 0 -43 -9.5t-37 -24.5v-311h-188v474z" />
    <glyph glyph-name="ograve" unicode="&#xf2;" horiz-adv-x="606" 
d="M137 728h147l88 -206h-138zM25 237q0 121 69 184t208 63q140 0 209.5 -63t69.5 -184q0 -247 -279 -247q-277 0 -277 247zM368.5 153q20.5 26 20.5 84q0 57 -20.5 83.5t-66.5 26.5q-45 0 -65 -26.5t-20 -83.5q0 -58 20 -84t65 -26q46 0 66.5 26z" />
    <glyph glyph-name="oacute" unicode="&#xf3;" horiz-adv-x="606" 
d="M308 728h146l-96 -206h-138zM25 237q0 121 69 184t208 63q140 0 209.5 -63t69.5 -184q0 -247 -279 -247q-277 0 -277 247zM368.5 153q20.5 26 20.5 84q0 57 -20.5 83.5t-66.5 26.5q-45 0 -65 -26.5t-20 -83.5q0 -58 20 -84t65 -26q46 0 66.5 26z" />
    <glyph glyph-name="ocircumflex" unicode="&#xf4;" horiz-adv-x="606" 
d="M246 722h114l155 -200h-136l-76 108l-72 -108h-140zM25 237q0 121 69 184t208 63q140 0 209.5 -63t69.5 -184q0 -247 -279 -247q-277 0 -277 247zM368.5 153q20.5 26 20.5 84q0 57 -20.5 83.5t-66.5 26.5q-45 0 -65 -26.5t-20 -83.5q0 -58 20 -84t65 -26q46 0 66.5 26z
" />
    <glyph glyph-name="otilde" unicode="&#xf5;" horiz-adv-x="606" 
d="M354 550.5q-22 5.5 -54 16.5q-28 10 -46.5 15t-35.5 5q-59 0 -98 -39v118q15 14 41 23.5t54 9.5q22 0 42 -5t51 -16q27 -10 47 -15.5t41 -5.5q30 0 53.5 11t36.5 29v-119q-10 -14 -34.5 -23.5t-52.5 -9.5q-23 0 -45 5.5zM25 237q0 121 69 184t208 63q140 0 209.5 -63
t69.5 -184q0 -247 -279 -247q-277 0 -277 247zM368.5 153q20.5 26 20.5 84q0 57 -20.5 83.5t-66.5 26.5q-45 0 -65 -26.5t-20 -83.5q0 -58 20 -84t65 -26q46 0 66.5 26z" />
    <glyph glyph-name="odieresis" unicode="&#xf6;" horiz-adv-x="606" 
d="M130 669h131v-120h-131v120zM346 669h131v-120h-131v120zM25 237q0 121 69 184t208 63q140 0 209.5 -63t69.5 -184q0 -247 -279 -247q-277 0 -277 247zM368.5 153q20.5 26 20.5 84q0 57 -20.5 83.5t-66.5 26.5q-45 0 -65 -26.5t-20 -83.5q0 -58 20 -84t65 -26
q46 0 66.5 26z" />
    <glyph glyph-name="divide" unicode="&#xf7;" horiz-adv-x="455" 
d="M163 529h129v-118h-129v118zM25 356h405v-144h-405v144zM163 159h129v-117h-129v117z" />
    <glyph glyph-name="oslash" unicode="&#xf8;" horiz-adv-x="606" 
d="M165 11q-140 50 -140 226q0 121 69 184t208 63q16 0 48 -2l18 46h96l-26 -65q143 -51 143 -226q0 -247 -279 -247q-17 0 -49 2l-17 -45h-96zM299 353q-93 -2 -93 -116q0 -52 17 -78zM400 237q0 50 -19 80l-77 -196q96 2 96 116z" />
    <glyph glyph-name="ugrave" unicode="&#xf9;" horiz-adv-x="604" 
d="M152 728h147l88 -206h-138zM86.5 37.5q-46.5 47.5 -46.5 137.5v299h188v-284q0 -32 15.5 -47t47.5 -15q22 0 44 10t36 25v311h188v-474h-176l-5 36q-65 -46 -161 -46q-84 0 -130.5 47.5z" />
    <glyph glyph-name="uacute" unicode="&#xfa;" horiz-adv-x="604" 
d="M300 728h146l-96 -206h-138zM86.5 37.5q-46.5 47.5 -46.5 137.5v299h188v-284q0 -32 15.5 -47t47.5 -15q22 0 44 10t36 25v311h188v-474h-176l-5 36q-65 -46 -161 -46q-84 0 -130.5 47.5z" />
    <glyph glyph-name="ucircumflex" unicode="&#xfb;" horiz-adv-x="604" 
d="M242 722h114l155 -200h-136l-76 108l-72 -108h-140zM86.5 37.5q-46.5 47.5 -46.5 137.5v299h188v-284q0 -32 15.5 -47t47.5 -15q22 0 44 10t36 25v311h188v-474h-176l-5 36q-65 -46 -161 -46q-84 0 -130.5 47.5z" />
    <glyph glyph-name="udieresis" unicode="&#xfc;" horiz-adv-x="604" 
d="M127 669h131v-120h-131v120zM343 669h131v-120h-131v120zM86.5 37.5q-46.5 47.5 -46.5 137.5v299h188v-284q0 -32 15.5 -47t47.5 -15q22 0 44 10t36 25v311h188v-474h-176l-5 36q-65 -46 -161 -46q-84 0 -130.5 47.5z" />
    <glyph glyph-name="yacute" unicode="&#xfd;" horiz-adv-x="642" 
d="M346 728h146l-96 -206h-138zM136.5 -172q-27.5 4 -54.5 15v128q26 -10 61 -10q39 0 58 10t38 40l-214 463h197l111 -279l108 279h196l-175 -429q-44 -109 -104.5 -165t-153.5 -56q-40 0 -67.5 4z" />
    <glyph glyph-name="thorn" unicode="&#xfe;" horiz-adv-x="607" 
d="M45 700h188v-243q23 13 54.5 20t65.5 7q109 0 169 -61.5t60 -185.5t-60 -185.5t-169 -61.5q-34 0 -65.5 7t-54.5 20v-233h-188v916zM369 153.5q21 26.5 21 86.5q0 58 -20 82.5t-63 24.5q-22 0 -39.5 -7t-34.5 -21v-168q17 -13 33 -18.5t39 -5.5q43 0 64 26.5z" />
    <glyph glyph-name="ydieresis" unicode="&#xff;" horiz-adv-x="642" 
d="M160 690h131v-120h-131v120zM376 690h131v-120h-131v120zM136.5 -172q-27.5 4 -54.5 15v128q26 -10 61 -10q39 0 58 10t38 40l-214 463h197l111 -279l108 279h196l-175 -429q-44 -109 -104.5 -165t-153.5 -56q-40 0 -67.5 4z" />
    <glyph glyph-name="Amacron" unicode="&#x100;" horiz-adv-x="743" 
d="M207 814h328v-112h-328v112zM272 644h199l247 -644h-196l-54 137h-194l-53 -137h-196zM443 272l-72 189l-72 -189h144z" />
    <glyph glyph-name="amacron" unicode="&#x101;" horiz-adv-x="568" 
d="M147 648h328v-112h-328v112zM72.5 28.5q-47.5 38.5 -47.5 113.5q0 76 50.5 117t150.5 41h123v9q0 28 -23.5 41t-80.5 13q-82 0 -162 -25v113q37 15 91 24t109 9q116 0 180.5 -47.5t64.5 -144.5v-292h-164l-9 38q-54 -48 -162 -48q-73 0 -120.5 38.5zM349 138v59h-91
q-32 0 -47 -12t-15 -37q0 -48 61 -48q57 0 92 38z" />
    <glyph glyph-name="Abreve" unicode="&#x102;" horiz-adv-x="743" 
d="M233.5 738q-51.5 49 -51.5 138h122q0 -84 67 -84q68 0 68 84h122q0 -89 -51.5 -138t-138.5 -49q-86 0 -137.5 49zM272 644h199l247 -644h-196l-54 137h-194l-53 -137h-196zM443 272l-72 189l-72 -189h144z" />
    <glyph glyph-name="abreve" unicode="&#x103;" horiz-adv-x="568" 
d="M167.5 572q-51.5 49 -51.5 138h122q0 -84 67 -84q68 0 68 84h122q0 -89 -51.5 -138t-138.5 -49q-86 0 -137.5 49zM72.5 28.5q-47.5 38.5 -47.5 113.5q0 76 50.5 117t150.5 41h123v9q0 28 -23.5 41t-80.5 13q-82 0 -162 -25v113q37 15 91 24t109 9q116 0 180.5 -47.5
t64.5 -144.5v-292h-164l-9 38q-54 -48 -162 -48q-73 0 -120.5 38.5zM349 138v59h-91q-32 0 -47 -12t-15 -37q0 -48 61 -48q57 0 92 38z" />
    <glyph glyph-name="Aogonek" unicode="&#x104;" horiz-adv-x="743" 
d="M657 -129q13 0 27 3t23 8v-86q-16 -6 -44.5 -11t-57.5 -5q-60 0 -96 24.5t-36 72.5q0 37 20 69t54 54h-25l-54 137h-194l-53 -137h-196l247 644h199l247 -644h-46q-58 -44 -58 -89q0 -40 43 -40zM443 272l-72 189l-72 -189h144z" />
    <glyph glyph-name="aogonek" unicode="&#x105;" horiz-adv-x="568" 
d="M431 -89q0 -40 43 -40q13 0 27 3t23 8v-86q-16 -6 -44.5 -11t-57.5 -5q-60 0 -96 24.5t-36 72.5q0 37 20 69t54 54l-9 38q-54 -48 -162 -48q-73 0 -120.5 38.5t-47.5 113.5q0 76 50.5 117t150.5 41h123v9q0 28 -23.5 41t-80.5 13q-82 0 -162 -25v113q37 15 91 24t109 9
q116 0 180.5 -47.5t64.5 -144.5v-292h-39q-58 -44 -58 -89zM349 197h-91q-32 0 -47 -12t-15 -37q0 -48 61 -48q57 0 92 38v59z" />
    <glyph glyph-name="Cacute" unicode="&#x106;" horiz-adv-x="607" 
d="M386 894h146l-96 -206h-138zM117 75.5q-92 85.5 -92 243.5q0 163 90.5 249t267.5 86q57 0 103.5 -8.5t93.5 -25.5v-164q-86 38 -184 38q-92 0 -135.5 -42t-43.5 -133q0 -88 45.5 -128.5t135.5 -40.5q99 0 184 37v-165q-93 -32 -198 -32q-175 0 -267 85.5z" />
    <glyph glyph-name="cacute" unicode="&#x107;" horiz-adv-x="506" 
d="M304 728h146l-96 -206h-138zM98.5 52.5q-73.5 62.5 -73.5 184.5t75 184.5t205 62.5q54 0 95.5 -7.5t79.5 -25.5v-132q-59 28 -134 28q-66 0 -97.5 -25t-31.5 -85q0 -58 31 -84t98 -26q71 0 135 33v-138q-71 -32 -177 -32q-132 0 -205.5 62.5z" />
    <glyph glyph-name="Ccircumflex" unicode="&#x108;" horiz-adv-x="607" 
d="M291 888h114l155 -200h-136l-76 108l-72 -108h-140zM117 75.5q-92 85.5 -92 243.5q0 163 90.5 249t267.5 86q57 0 103.5 -8.5t93.5 -25.5v-164q-86 38 -184 38q-92 0 -135.5 -42t-43.5 -133q0 -88 45.5 -128.5t135.5 -40.5q99 0 184 37v-165q-93 -32 -198 -32
q-175 0 -267 85.5z" />
    <glyph glyph-name="ccircumflex" unicode="&#x109;" horiz-adv-x="506" 
d="M230 722h114l155 -200h-136l-76 108l-72 -108h-140zM98.5 52.5q-73.5 62.5 -73.5 184.5t75 184.5t205 62.5q54 0 95.5 -7.5t79.5 -25.5v-132q-59 28 -134 28q-66 0 -97.5 -25t-31.5 -85q0 -58 31 -84t98 -26q71 0 135 33v-138q-71 -32 -177 -32q-132 0 -205.5 62.5z" />
    <glyph glyph-name="Cdotaccent" unicode="&#x10a;" horiz-adv-x="607" 
d="M296 835h130v-120h-130v120zM117 75.5q-92 85.5 -92 243.5q0 163 90.5 249t267.5 86q57 0 103.5 -8.5t93.5 -25.5v-164q-86 38 -184 38q-92 0 -135.5 -42t-43.5 -133q0 -88 45.5 -128.5t135.5 -40.5q99 0 184 37v-165q-93 -32 -198 -32q-175 0 -267 85.5z" />
    <glyph glyph-name="cdotaccent" unicode="&#x10b;" horiz-adv-x="506" 
d="M244 669h130v-120h-130v120zM98.5 52.5q-73.5 62.5 -73.5 184.5t75 184.5t205 62.5q54 0 95.5 -7.5t79.5 -25.5v-132q-59 28 -134 28q-66 0 -97.5 -25t-31.5 -85q0 -58 31 -84t98 -26q71 0 135 33v-138q-71 -32 -177 -32q-132 0 -205.5 62.5z" />
    <glyph glyph-name="Ccaron" unicode="&#x10c;" horiz-adv-x="607" 
d="M151 888h140l72 -109l76 109h136l-155 -200h-114zM117 75.5q-92 85.5 -92 243.5q0 163 90.5 249t267.5 86q57 0 103.5 -8.5t93.5 -25.5v-164q-86 38 -184 38q-92 0 -135.5 -42t-43.5 -133q0 -88 45.5 -128.5t135.5 -40.5q99 0 184 37v-165q-93 -32 -198 -32
q-175 0 -267 85.5z" />
    <glyph glyph-name="ccaron" unicode="&#x10d;" horiz-adv-x="506" 
d="M59 722h140l72 -109l76 109h136l-155 -200h-114zM98.5 52.5q-73.5 62.5 -73.5 184.5t75 184.5t205 62.5q54 0 95.5 -7.5t79.5 -25.5v-132q-59 28 -134 28q-66 0 -97.5 -25t-31.5 -85q0 -58 31 -84t98 -26q71 0 135 33v-138q-71 -32 -177 -32q-132 0 -205.5 62.5z" />
    <glyph glyph-name="Dcaron" unicode="&#x10e;" horiz-adv-x="671" 
d="M84 888h140l72 -109l76 109h136l-155 -200h-114zM45 644h288q154 0 233.5 -77.5t79.5 -248.5q0 -163 -79.5 -240.5t-233.5 -77.5h-288v644zM309 144q50 0 81 14.5t47.5 52t16.5 107.5q0 71 -15 110.5t-46.5 55.5t-83.5 16h-76v-356h76z" />
    <glyph glyph-name="dcaron" unicode="&#x10f;" horiz-adv-x="801" 
d="M681 714h155l-104 -222h-146zM82.5 45q-57.5 55 -57.5 177q0 84 30.5 143t82 89t114.5 30q33 0 65.5 -7t56.5 -20v217h188v-674h-163l-9 37q-30 -23 -64.5 -35t-79.5 -12q-106 0 -163.5 55zM374 155v168q-28 25 -74 25q-38 0 -60.5 -33.5t-22.5 -93.5q0 -39 8.5 -59.5
t26 -28t48.5 -7.5q43 0 74 29z" />
    <glyph glyph-name="Dcroat" unicode="&#x110;" horiz-adv-x="700" 
d="M595.5 566.5q79.5 -77.5 79.5 -248.5q0 -163 -79.5 -240.5t-233.5 -77.5h-288v251h-79v129h79v264h288q154 0 233.5 -77.5zM419 158.5q31 14.5 47.5 52t16.5 107.5q0 71 -15 110.5t-46.5 55.5t-83.5 16h-76v-120h102v-129h-102v-107h76q50 0 81 14.5z" />
    <glyph glyph-name="dcroat" unicode="&#x111;" horiz-adv-x="607" 
d="M593 516h-31v-516h-163l-9 37q-30 -23 -64.5 -35t-79.5 -12q-106 0 -163.5 55t-57.5 177q0 84 30.5 143t82 89t114.5 30q33 0 65.5 -7t56.5 -20v59h-137v113h137v45h188v-45h31v-113zM374 323q-28 25 -74 25q-38 0 -60.5 -33.5t-22.5 -93.5q0 -39 8.5 -59.5t26 -28
t48.5 -7.5q43 0 74 29v168z" />
    <glyph glyph-name="Emacron" unicode="&#x112;" horiz-adv-x="548" 
d="M115 836h328v-112h-328v112zM45 644h488v-144h-300v-105h263v-146h-263v-105h300v-144h-488v644z" />
    <glyph glyph-name="emacron" unicode="&#x113;" horiz-adv-x="552" 
d="M120 670h328v-112h-328v112zM101.5 53.5q-76.5 63.5 -76.5 182.5q0 116 65 182t190 66q115 0 181 -59t66 -161v-83h-329q12 -37 49.5 -53.5t104.5 -16.5q40 0 81.5 7t67.5 18v-113q-70 -33 -195 -33q-128 0 -204.5 63.5zM365 283v17q0 64 -79 64q-47 0 -67.5 -20
t-20.5 -61h167z" />
    <glyph glyph-name="Ebreve" unicode="&#x114;" horiz-adv-x="548" 
d="M154.5 738q-51.5 49 -51.5 138h122q0 -84 67 -84q68 0 68 84h122q0 -89 -51.5 -138t-138.5 -49q-86 0 -137.5 49zM45 644h488v-144h-300v-105h263v-146h-263v-105h300v-144h-488v644z" />
    <glyph glyph-name="ebreve" unicode="&#x115;" horiz-adv-x="552" 
d="M149.5 572q-51.5 49 -51.5 138h122q0 -84 67 -84q68 0 68 84h122q0 -89 -51.5 -138t-138.5 -49q-86 0 -137.5 49zM101.5 53.5q-76.5 63.5 -76.5 182.5q0 116 65 182t190 66q115 0 181 -59t66 -161v-83h-329q12 -37 49.5 -53.5t104.5 -16.5q40 0 81.5 7t67.5 18v-113
q-70 -33 -195 -33q-128 0 -204.5 63.5zM365 283v17q0 64 -79 64q-47 0 -67.5 -20t-20.5 -61h167z" />
    <glyph glyph-name="Edotaccent" unicode="&#x116;" horiz-adv-x="548" 
d="M222 835h130v-120h-130v120zM45 644h488v-144h-300v-105h263v-146h-263v-105h300v-144h-488v644z" />
    <glyph glyph-name="edotaccent" unicode="&#x117;" horiz-adv-x="552" 
d="M220 669h130v-120h-130v120zM101.5 53.5q-76.5 63.5 -76.5 182.5q0 116 65 182t190 66q115 0 181 -59t66 -161v-83h-329q12 -37 49.5 -53.5t104.5 -16.5q40 0 81.5 7t67.5 18v-113q-70 -33 -195 -33q-128 0 -204.5 63.5zM365 283v17q0 64 -79 64q-47 0 -67.5 -20
t-20.5 -61h167z" />
    <glyph glyph-name="Eogonek" unicode="&#x118;" horiz-adv-x="548" 
d="M233 500v-105h263v-146h-263v-105h300v-144h-35q-58 -44 -58 -89q0 -40 43 -40q13 0 27 3t23 8v-86q-16 -6 -44.5 -11t-57.5 -5q-60 0 -96 24.5t-36 72.5q0 37 20 69t54 54h-328v644h488v-144h-300z" />
    <glyph glyph-name="eogonek" unicode="&#x119;" horiz-adv-x="552" 
d="M527 181h-329q12 -37 49.5 -53.5t104.5 -16.5q40 0 81.5 7t67.5 18v-113q-32 -15 -79 -24q-57 -44 -57 -88q0 -40 43 -40q13 0 27 3t23 8v-86q-16 -6 -44.5 -11t-57.5 -5q-60 0 -96 24.5t-36 72.5q0 34 16 63t44 50q-119 5 -189 68.5t-70 177.5q0 116 65 182t190 66
q115 0 181 -59t66 -161v-83zM365 300q0 64 -79 64q-47 0 -67.5 -20t-20.5 -61h167v17z" />
    <glyph glyph-name="Ecaron" unicode="&#x11a;" horiz-adv-x="548" 
d="M84 888h140l72 -109l76 109h136l-155 -200h-114zM45 644h488v-144h-300v-105h263v-146h-263v-105h300v-144h-488v644z" />
    <glyph glyph-name="ecaron" unicode="&#x11b;" horiz-adv-x="552" 
d="M79 722h140l72 -109l76 109h136l-155 -200h-114zM101.5 53.5q-76.5 63.5 -76.5 182.5q0 116 65 182t190 66q115 0 181 -59t66 -161v-83h-329q12 -37 49.5 -53.5t104.5 -16.5q40 0 81.5 7t67.5 18v-113q-70 -33 -195 -33q-128 0 -204.5 63.5zM365 283v17q0 64 -79 64
q-47 0 -67.5 -20t-20.5 -61h167z" />
    <glyph glyph-name="Gcircumflex" unicode="&#x11c;" horiz-adv-x="651" 
d="M307 888h114l155 -200h-136l-76 108l-72 -108h-140zM115.5 74q-90.5 84 -90.5 242q0 163 93.5 250.5t271.5 87.5q115 0 200 -28v-161q-78 29 -187 29q-94 0 -140 -42.5t-46 -135.5q0 -86 39.5 -126t120.5 -40q48 0 92 13v94h-128v116h285v-324q-41 -26 -103.5 -42.5
t-145.5 -16.5q-171 0 -261.5 84z" />
    <glyph glyph-name="gcircumflex" unicode="&#x11d;" horiz-adv-x="565" 
d="M231 722h114l155 -200h-136l-76 108l-72 -108h-140zM134 -169.5q-61 6.5 -95 18.5v120q38 -13 95 -20t108 -7q56 0 85 5.5t29 19.5q0 12 -10 15.5t-38 3.5h-125q-74 0 -113 23.5t-39 70.5q0 32 18.5 55.5t54.5 36.5q-41 21 -60 53t-19 81q0 178 243 178q23 0 54 -3.5
t47 -6.5h186l-4 -114h-63q18 -23 18 -56q0 -75 -44 -116.5t-132 -41.5q-22 0 -56 4q-54 -6 -54 -28q0 -10 8 -13.5t26 -3.5h109q74 0 115.5 -34.5t41.5 -99.5q0 -71 -66.5 -109t-200.5 -38q-58 0 -119 6.5zM330 263.5q17 14.5 17 50.5t-17.5 51.5t-60.5 15.5
q-41 0 -59.5 -15.5t-18.5 -51.5q0 -34 17.5 -49.5t60.5 -15.5q44 0 61 14.5z" />
    <glyph glyph-name="Gbreve" unicode="&#x11e;" horiz-adv-x="651" 
d="M239.5 738q-51.5 49 -51.5 138h122q0 -84 67 -84q68 0 68 84h122q0 -89 -51.5 -138t-138.5 -49q-86 0 -137.5 49zM115.5 74q-90.5 84 -90.5 242q0 163 93.5 250.5t271.5 87.5q115 0 200 -28v-161q-78 29 -187 29q-94 0 -140 -42.5t-46 -135.5q0 -86 39.5 -126t120.5 -40
q48 0 92 13v94h-128v116h285v-324q-41 -26 -103.5 -42.5t-145.5 -16.5q-171 0 -261.5 84z" />
    <glyph glyph-name="gbreve" unicode="&#x11f;" horiz-adv-x="565" 
d="M147.5 572q-51.5 49 -51.5 138h122q0 -84 67 -84q68 0 68 84h122q0 -89 -51.5 -138t-138.5 -49q-86 0 -137.5 49zM134 -169.5q-61 6.5 -95 18.5v120q38 -13 95 -20t108 -7q56 0 85 5.5t29 19.5q0 12 -10 15.5t-38 3.5h-125q-74 0 -113 23.5t-39 70.5q0 32 18.5 55.5
t54.5 36.5q-41 21 -60 53t-19 81q0 178 243 178q23 0 54 -3.5t47 -6.5h186l-4 -114h-63q18 -23 18 -56q0 -75 -44 -116.5t-132 -41.5q-22 0 -56 4q-54 -6 -54 -28q0 -10 8 -13.5t26 -3.5h109q74 0 115.5 -34.5t41.5 -99.5q0 -71 -66.5 -109t-200.5 -38q-58 0 -119 6.5z
M330 263.5q17 14.5 17 50.5t-17.5 51.5t-60.5 15.5q-41 0 -59.5 -15.5t-18.5 -51.5q0 -34 17.5 -49.5t60.5 -15.5q44 0 61 14.5z" />
    <glyph glyph-name="Gdotaccent" unicode="&#x120;" horiz-adv-x="651" 
d="M321 835h130v-120h-130v120zM115.5 74q-90.5 84 -90.5 242q0 163 93.5 250.5t271.5 87.5q115 0 200 -28v-161q-78 29 -187 29q-94 0 -140 -42.5t-46 -135.5q0 -86 39.5 -126t120.5 -40q48 0 92 13v94h-128v116h285v-324q-41 -26 -103.5 -42.5t-145.5 -16.5
q-171 0 -261.5 84z" />
    <glyph glyph-name="gdotaccent" unicode="&#x121;" horiz-adv-x="565" 
d="M212 654h130v-120h-130v120zM134 -169.5q-61 6.5 -95 18.5v120q38 -13 95 -20t108 -7q56 0 85 5.5t29 19.5q0 12 -10 15.5t-38 3.5h-125q-74 0 -113 23.5t-39 70.5q0 32 18.5 55.5t54.5 36.5q-41 21 -60 53t-19 81q0 178 243 178q23 0 54 -3.5t47 -6.5h186l-4 -114h-63
q18 -23 18 -56q0 -75 -44 -116.5t-132 -41.5q-22 0 -56 4q-54 -6 -54 -28q0 -10 8 -13.5t26 -3.5h109q74 0 115.5 -34.5t41.5 -99.5q0 -71 -66.5 -109t-200.5 -38q-58 0 -119 6.5zM330 263.5q17 14.5 17 50.5t-17.5 51.5t-60.5 15.5q-41 0 -59.5 -15.5t-18.5 -51.5
q0 -34 17.5 -49.5t60.5 -15.5q44 0 61 14.5z" />
    <glyph glyph-name="Gcommaaccent" unicode="&#x122;" horiz-adv-x="651" 
d="M115.5 74q-90.5 84 -90.5 242q0 163 93.5 250.5t271.5 87.5q115 0 200 -28v-161q-78 29 -187 29q-94 0 -140 -42.5t-46 -135.5q0 -86 39.5 -126t120.5 -40q48 0 92 13v94h-128v116h285v-324q-41 -26 -103.5 -42.5t-145.5 -16.5q-171 0 -261.5 84zM311 -37h153l-57 -225
h-130z" />
    <glyph glyph-name="gcommaaccent" unicode="&#x123;" horiz-adv-x="565" 
d="M259 747h130l-34 -225h-153zM134 -169.5q-61 6.5 -95 18.5v120q38 -13 95 -20t108 -7q56 0 85 5.5t29 19.5q0 12 -10 15.5t-38 3.5h-125q-74 0 -113 23.5t-39 70.5q0 32 18.5 55.5t54.5 36.5q-41 21 -60 53t-19 81q0 178 243 178q23 0 54 -3.5t47 -6.5h186l-4 -114h-63
q18 -23 18 -56q0 -75 -44 -116.5t-132 -41.5q-22 0 -56 4q-54 -6 -54 -28q0 -10 8 -13.5t26 -3.5h109q74 0 115.5 -34.5t41.5 -99.5q0 -71 -66.5 -109t-200.5 -38q-58 0 -119 6.5zM330 263.5q17 14.5 17 50.5t-17.5 51.5t-60.5 15.5q-41 0 -59.5 -15.5t-18.5 -51.5
q0 -34 17.5 -49.5t60.5 -15.5q44 0 61 14.5z" />
    <glyph glyph-name="Hcircumflex" unicode="&#x124;" horiz-adv-x="688" 
d="M287 888h114l155 -200h-136l-76 108l-72 -108h-140zM45 644h188v-240h222v240h188v-644h-188v240h-222v-240h-188v644z" />
    <glyph glyph-name="hcircumflex" unicode="&#x125;" horiz-adv-x="604" 
d="M203 908h114l155 -200h-136l-76 108l-72 -108h-140zM45 674h188v-229q26 17 64 28t79 11q97 0 142.5 -45.5t45.5 -140.5v-298h-189v284q0 33 -14 47t-48 14q-21 0 -43 -9.5t-37 -24.5v-311h-188v674z" />
    <glyph glyph-name="Hbar" unicode="&#x126;" horiz-adv-x="688" 
d="M683 458h-40v-458h-188v240h-222v-240h-188v458h-40v125h40v61h188v-61h222v61h188v-61h40v-125zM455 458h-222v-54h222v54z" />
    <glyph glyph-name="hbar" unicode="&#x127;" horiz-adv-x="604" 
d="M518.5 438.5q45.5 -45.5 45.5 -140.5v-298h-189v284q0 33 -14 47t-48 14q-21 0 -43 -9.5t-37 -24.5v-311h-188v517h-40v110h40v47h188v-47h111v-110h-111v-72q26 17 64 28t79 11q97 0 142.5 -45.5z" />
    <glyph glyph-name="Itilde" unicode="&#x128;" horiz-adv-x="278" 
d="M190 716.5q-22 5.5 -54 16.5q-28 10 -46.5 15t-35.5 5q-59 0 -98 -39v118q15 14 41 23.5t54 9.5q22 0 42 -5t51 -16q27 -10 47 -15.5t41 -5.5q30 0 53.5 11t36.5 29v-119q-10 -14 -34.5 -23.5t-52.5 -9.5q-23 0 -45 5.5zM45 644h188v-644h-188v644z" />
    <glyph glyph-name="itilde" unicode="&#x129;" horiz-adv-x="347" 
d="M224 549.5q-22 5.5 -54 16.5q-28 10 -46.5 15t-35.5 5q-59 0 -98 -39v118q15 14 41 23.5t54 9.5q22 0 42 -5t51 -16q27 -10 47 -15.5t41 -5.5q30 0 53.5 11t36.5 29v-119q-10 -14 -34.5 -23.5t-52.5 -9.5q-23 0 -45 5.5zM114 337h-69l16 137h241v-474h-188v337z" />
    <glyph glyph-name="Imacron" unicode="&#x12a;" horiz-adv-x="278" 
d="M-25 836h328v-112h-328v112zM45 644h188v-644h-188v644z" />
    <glyph glyph-name="imacron" unicode="&#x12b;" horiz-adv-x="347" 
d="M10 691h328v-112h-328v112zM114 337h-69l16 137h241v-474h-188v337z" />
    <glyph glyph-name="Ibreve" unicode="&#x12c;" horiz-adv-x="278" 
d="M1.5 758q-51.5 49 -51.5 138h122q0 -84 67 -84q68 0 68 84h122q0 -89 -51.5 -138t-138.5 -49q-86 0 -137.5 49zM45 644h188v-644h-188v644z" />
    <glyph glyph-name="ibreve" unicode="&#x12d;" horiz-adv-x="347" 
d="M36.5 572q-51.5 49 -51.5 138h122q0 -84 67 -84q68 0 68 84h122q0 -89 -51.5 -138t-138.5 -49q-86 0 -137.5 49zM114 337h-69l16 137h241v-474h-188v337z" />
    <glyph glyph-name="Iogonek" unicode="&#x12e;" horiz-adv-x="278" 
d="M214 -126q14 3 23 8v-86q-16 -6 -44.5 -11t-57.5 -5q-60 0 -96 24.5t-36 72.5q0 37 20 69t54 54h-32v644h188v-644h-31q-58 -44 -58 -89q0 -40 43 -40q13 0 27 3z" />
    <glyph glyph-name="iogonek" unicode="&#x12f;" horiz-adv-x="347" 
d="M302 537h-203v136h203v-136zM281 -126q14 3 23 8v-86q-16 -6 -44.5 -11t-57.5 -5q-60 0 -96 24.5t-36 72.5q0 37 20 69t54 54h-30v337h-69l16 137h241v-474h-33q-58 -44 -58 -89q0 -40 43 -40q13 0 27 3z" />
    <glyph glyph-name="Idotaccent" unicode="&#x130;" horiz-adv-x="278" 
d="M74 842h130v-120h-130v120zM45 644h188v-644h-188v644z" />
    <glyph glyph-name="dotlessi" unicode="&#x131;" horiz-adv-x="347" 
d="M114 337h-69l16 137h241v-474h-188v337z" />
    <glyph glyph-name="IJ" unicode="&#x132;" horiz-adv-x="719" 
d="M45 644h188v-644h-188v644zM277 13v156q49 -20 114 -20q54 0 77 22t23 73v400h188v-430q0 -106 -64.5 -165t-184.5 -59q-87 0 -153 23z" />
    <glyph glyph-name="ij" unicode="&#x133;" horiz-adv-x="625" 
d="M99 673h203v-136h-203v136zM377 673h203v-136h-203v136zM114 337h-69l16 137h241v-474h-188v337zM269 -212v125q30 -10 60 -10q33 0 48 12t15 39v383h-69l16 137h241v-534q0 -80 -45.5 -127t-137.5 -47q-75 0 -128 22z" />
    <glyph glyph-name="Jcircumflex" unicode="&#x134;" horiz-adv-x="447" 
d="M245 888h114l155 -200h-136l-76 108l-72 -108h-140zM5 13v156q49 -20 114 -20q54 0 77 22t23 73v400h188v-430q0 -106 -64.5 -165t-184.5 -59q-87 0 -153 23z" />
    <glyph glyph-name="jcircumflex" unicode="&#x135;" horiz-adv-x="349" 
d="M138 722h114l155 -200h-136l-76 108l-72 -108h-140zM-9 -212v125q30 -10 60 -10q33 0 48 12t15 39v383h-69l16 137h241v-534q0 -80 -45.5 -127t-137.5 -47q-75 0 -128 22z" />
    <glyph glyph-name="Kcommaaccent" unicode="&#x136;" horiz-adv-x="683" 
d="M45 644h188v-227l195 227h214l-227 -264l243 -380h-200l-159 260l-66 -74v-186h-188v644zM271 -37h153l-57 -225h-130z" />
    <glyph glyph-name="kcommaaccent" unicode="&#x137;" horiz-adv-x="614" 
d="M45 674h188v-333l132 133h213l-189 -200l200 -274h-200l-117 176l-39 -39v-137h-188v674zM217 -37h153l-57 -225h-130z" />
    <glyph glyph-name="kgreenlandic" unicode="&#x138;" horiz-adv-x="614" 
d="M45 474h188v-146l132 146h213l-189 -211l200 -263h-200l-117 164l-39 -41v-123h-188v474z" />
    <glyph glyph-name="Lacute" unicode="&#x139;" horiz-adv-x="528" 
d="M153 894h146l-96 -206h-138zM45 644h188v-500h290v-144h-478v644z" />
    <glyph glyph-name="lacute" unicode="&#x13a;" horiz-adv-x="319" 
d="M155 952h146l-96 -206h-138zM82.5 26.5q-37.5 36.5 -37.5 116.5v531h188v-510q0 -21 8.5 -29t28.5 -8q29 0 49 8v-125q-27 -11 -51.5 -15.5t-61.5 -4.5q-86 0 -123.5 36.5z" />
    <glyph glyph-name="Lcommaaccent" unicode="&#x13b;" horiz-adv-x="528" 
d="M45 644h188v-500h290v-144h-478v644zM224 -37h153l-57 -225h-130z" />
    <glyph glyph-name="lcommaaccent" unicode="&#x13c;" horiz-adv-x="319" 
d="M82.5 26.5q-37.5 36.5 -37.5 116.5v531h188v-510q0 -21 8.5 -29t28.5 -8q29 0 49 8v-125q-27 -11 -51.5 -15.5t-61.5 -4.5q-86 0 -123.5 36.5zM124 -37h153l-57 -225h-130z" />
    <glyph glyph-name="Lcaron" unicode="&#x13d;" horiz-adv-x="528" 
d="M325 851h153l-57 -225h-130zM45 644h188v-500h290v-144h-478v644z" />
    <glyph glyph-name="lcaron" unicode="&#x13e;" horiz-adv-x="319" 
d="M295 905h153l-57 -225h-130zM82.5 26.5q-37.5 36.5 -37.5 116.5v531h188v-510q0 -21 8.5 -29t28.5 -8q29 0 49 8v-125q-27 -11 -51.5 -15.5t-61.5 -4.5q-86 0 -123.5 36.5z" />
    <glyph glyph-name="Ldot" unicode="&#x13f;" horiz-adv-x="528" 
d="M45 644h188v-500h290v-144h-478v644zM364 412h130v-120h-130v120z" />
    <glyph glyph-name="ldot" unicode="&#x140;" horiz-adv-x="436" 
d="M82.5 26.5q-37.5 36.5 -37.5 116.5v531h188v-510q0 -21 8.5 -29t28.5 -8q29 0 49 8v-125q-27 -11 -51.5 -15.5t-61.5 -4.5q-86 0 -123.5 36.5zM327 415h130v-120h-130v120z" />
    <glyph glyph-name="Lslash" unicode="&#x141;" horiz-adv-x="528" 
d="M523 144v-144h-478v241l-80 -35v133l80 35v270h188v-188l86 38v-133l-86 -38v-179h290z" />
    <glyph glyph-name="lslash" unicode="&#x142;" horiz-adv-x="319" 
d="M319 135v-125q-27 -11 -51.5 -15.5t-61.5 -4.5q-86 0 -123.5 36.5t-37.5 116.5v105l-78 -34v133l78 34v293h188v-210l76 33v-133l-76 -33v-167q0 -21 8.5 -29t28.5 -8q29 0 49 8z" />
    <glyph glyph-name="Nacute" unicode="&#x143;" horiz-adv-x="681" 
d="M338 894h146l-96 -206h-138zM45 644h160l243 -341v341h188v-644h-161l-242 340v-340h-188v644z" />
    <glyph glyph-name="nacute" unicode="&#x144;" horiz-adv-x="604" 
d="M293 728h146l-96 -206h-138zM45 474h176l5 -36q29 20 74 33t93 13q89 0 130 -44t41 -136v-304h-188v285q0 32 -14.5 46t-48.5 14q-21 0 -43 -9.5t-37 -24.5v-311h-188v474z" />
    <glyph glyph-name="Ncommaaccent" unicode="&#x145;" horiz-adv-x="681" 
d="M45 644h160l243 -341v341h188v-644h-161l-242 340v-340h-188v644zM275 -37h153l-57 -225h-130z" />
    <glyph glyph-name="ncommaaccent" unicode="&#x146;" horiz-adv-x="604" 
d="M45 474h176l5 -36q29 20 74 33t93 13q89 0 130 -44t41 -136v-304h-188v285q0 32 -14.5 46t-48.5 14q-21 0 -43 -9.5t-37 -24.5v-311h-188v474zM238 -37h153l-57 -225h-130z" />
    <glyph glyph-name="Ncaron" unicode="&#x147;" horiz-adv-x="681" 
d="M127 888h140l72 -109l76 109h136l-155 -200h-114zM45 644h160l243 -341v341h188v-644h-161l-242 340v-340h-188v644z" />
    <glyph glyph-name="ncaron" unicode="&#x148;" horiz-adv-x="604" 
d="M76 722h140l72 -109l76 109h136l-155 -200h-114zM45 474h176l5 -36q29 20 74 33t93 13q89 0 130 -44t41 -136v-304h-188v285q0 32 -14.5 46t-48.5 14q-21 0 -43 -9.5t-37 -24.5v-311h-188v474z" />
    <glyph glyph-name="napostrophe" unicode="&#x149;" horiz-adv-x="771" 
d="M62 643h153l-57 -225h-130zM212 474h176l5 -36q29 20 74 33t93 13q89 0 130 -44t41 -136v-304h-188v285q0 32 -14.5 46t-48.5 14q-21 0 -43 -9.5t-37 -24.5v-311h-188v474z" />
    <glyph glyph-name="Eng" unicode="&#x14a;" horiz-adv-x="681" 
d="M325 -212v122q30 -10 60 -10q32 0 47 13.5t15 40.5v85l-214 301v-340h-188v644h160l242 -341v341h189v-704q0 -80 -45.5 -127t-137.5 -47q-75 0 -128 22z" />
    <glyph glyph-name="eng" unicode="&#x14b;" horiz-adv-x="604" 
d="M253 -212v122q30 -10 60 -10q32 0 47 13.5t15 40.5v331q0 33 -14 46.5t-48 13.5q-21 0 -43 -9.5t-37 -24.5v-311h-188v474h176l5 -36q29 20 74 33t93 13q89 0 130 -44t41 -136v-364q0 -80 -45.5 -127t-137.5 -47q-75 0 -128 22z" />
    <glyph glyph-name="Omacron" unicode="&#x14c;" horiz-adv-x="708" 
d="M189 837h328v-112h-328v112zM108 69.5q-83 79.5 -83 250.5q0 176 82.5 255t246.5 79t246.5 -79.5t82.5 -254.5q0 -170 -83 -250t-246 -80t-246 79.5zM458.5 190.5q32.5 40.5 32.5 129.5q0 94 -32 134t-105 40t-105 -40t-32 -134q0 -89 32.5 -129.5t104.5 -40.5
t104.5 40.5z" />
    <glyph glyph-name="omacron" unicode="&#x14d;" horiz-adv-x="606" 
d="M139 670h328v-112h-328v112zM25 237q0 121 69 184t208 63q140 0 209.5 -63t69.5 -184q0 -247 -279 -247q-277 0 -277 247zM368.5 153q20.5 26 20.5 84q0 57 -20.5 83.5t-66.5 26.5q-45 0 -65 -26.5t-20 -83.5q0 -58 20 -84t65 -26q46 0 66.5 26z" />
    <glyph glyph-name="Obreve" unicode="&#x14e;" horiz-adv-x="708" 
d="M216.5 737q-51.5 49 -51.5 138h122q0 -84 67 -84q68 0 68 84h122q0 -89 -51.5 -138t-138.5 -49q-86 0 -137.5 49zM108 69.5q-83 79.5 -83 250.5q0 176 82.5 255t246.5 79t246.5 -79.5t82.5 -254.5q0 -170 -83 -250t-246 -80t-246 79.5zM458.5 190.5q32.5 40.5 32.5 129.5
q0 94 -32 134t-105 40t-105 -40t-32 -134q0 -89 32.5 -129.5t104.5 -40.5t104.5 40.5z" />
    <glyph glyph-name="obreve" unicode="&#x14f;" horiz-adv-x="606" 
d="M165.5 572q-51.5 49 -51.5 138h122q0 -84 67 -84q68 0 68 84h122q0 -89 -51.5 -138t-138.5 -49q-86 0 -137.5 49zM25 237q0 121 69 184t208 63q140 0 209.5 -63t69.5 -184q0 -247 -279 -247q-277 0 -277 247zM368.5 153q20.5 26 20.5 84q0 57 -20.5 83.5t-66.5 26.5
q-45 0 -65 -26.5t-20 -83.5q0 -58 20 -84t65 -26q46 0 66.5 26z" />
    <glyph glyph-name="Ohungarumlaut" unicode="&#x150;" horiz-adv-x="708" 
d="M229 872h158l-102 -184h-142zM463 872h158l-102 -184h-142zM108 69.5q-83 79.5 -83 250.5q0 176 82.5 255t246.5 79t246.5 -79.5t82.5 -254.5q0 -170 -83 -250t-246 -80t-246 79.5zM458.5 190.5q32.5 40.5 32.5 129.5q0 94 -32 134t-105 40t-105 -40t-32 -134
q0 -89 32.5 -129.5t104.5 -40.5t104.5 40.5z" />
    <glyph glyph-name="ohungarumlaut" unicode="&#x151;" horiz-adv-x="606" 
d="M172 706h158l-102 -184h-142zM406 706h158l-102 -184h-142zM25 237q0 121 69 184t208 63q140 0 209.5 -63t69.5 -184q0 -247 -279 -247q-277 0 -277 247zM368.5 153q20.5 26 20.5 84q0 57 -20.5 83.5t-66.5 26.5q-45 0 -65 -26.5t-20 -83.5q0 -58 20 -84t65 -26
q46 0 66.5 26z" />
    <glyph glyph-name="OE" unicode="&#x152;" horiz-adv-x="1004" 
d="M679 500v-105h263v-146h-263v-105h300v-144h-488v8q-60 -18 -137 -18q-163 0 -246 79.5t-83 250.5q0 176 82.5 255t246.5 79q75 0 137 -17v7h488v-144h-300zM458.5 190.5q32.5 40.5 32.5 129.5q0 94 -32 134t-105 40t-105 -40t-32 -134q0 -89 32.5 -129.5t104.5 -40.5
t104.5 40.5z" />
    <glyph glyph-name="oe" unicode="&#x153;" horiz-adv-x="932" 
d="M907 181h-329q12 -37 49.5 -53.5t104.5 -16.5q40 0 81.5 7t67.5 18v-113q-70 -33 -195 -33q-116 0 -188 51q-69 -51 -196 -51q-277 0 -277 247q0 121 69 184t208 63q120 0 190 -47q64 47 168 47q115 0 181 -59t66 -161v-83zM745 300q0 64 -79 64q-47 0 -67 -19.5
t-21 -59.5v-2h167v17zM368.5 153q20.5 26 20.5 84q0 57 -20.5 83.5t-66.5 26.5q-45 0 -65 -26.5t-20 -83.5q0 -58 20 -84t65 -26q46 0 66.5 26z" />
    <glyph glyph-name="Racute" unicode="&#x154;" horiz-adv-x="635" 
d="M271 894h146l-96 -206h-138zM45 644h335q114 0 172 -62t58 -167q0 -64 -32 -113.5t-87 -76.5q11 -9 19 -21t18 -35l74 -169h-196l-68 155q-8 18 -19.5 25.5t-32.5 7.5h-53v-188h-188v644zM332 332q41 0 63.5 21.5t22.5 61.5q0 85 -80 85h-105v-168h99z" />
    <glyph glyph-name="racute" unicode="&#x155;" horiz-adv-x="401" 
d="M146 728h146l-96 -206h-138zM45 474h181l5 -38q31 18 75.5 31.5t89.5 16.5v-140q-42 -3 -89 -13t-74 -23v-308h-188v474z" />
    <glyph glyph-name="Rcommaaccent" unicode="&#x156;" horiz-adv-x="635" 
d="M45 644h335q114 0 172 -62t58 -167q0 -64 -32 -113.5t-87 -76.5q11 -9 19 -21t18 -35l74 -169h-196l-68 155q-8 18 -19.5 25.5t-32.5 7.5h-53v-188h-188v644zM332 332q41 0 63.5 21.5t22.5 61.5q0 85 -80 85h-105v-168h99zM234 -37h153l-57 -225h-130z" />
    <glyph glyph-name="rcommaaccent" unicode="&#x157;" horiz-adv-x="401" 
d="M45 474h181l5 -38q31 18 75.5 31.5t89.5 16.5v-140q-42 -3 -89 -13t-74 -23v-308h-188v474zM65 -37h153l-57 -225h-130z" />
    <glyph glyph-name="Rcaron" unicode="&#x158;" horiz-adv-x="635" 
d="M55 888h140l72 -109l76 109h136l-155 -200h-114zM45 644h335q114 0 172 -62t58 -167q0 -64 -32 -113.5t-87 -76.5q11 -9 19 -21t18 -35l74 -169h-196l-68 155q-8 18 -19.5 25.5t-32.5 7.5h-53v-188h-188v644zM332 332q41 0 63.5 21.5t22.5 61.5q0 85 -80 85h-105v-168h99
z" />
    <glyph glyph-name="rcaron" unicode="&#x159;" horiz-adv-x="401" 
d="M-71 722h140l72 -109l76 109h136l-155 -200h-114zM45 474h181l5 -38q31 18 75.5 31.5t89.5 16.5v-140q-42 -3 -89 -13t-74 -23v-308h-188v474z" />
    <glyph glyph-name="Sacute" unicode="&#x15a;" horiz-adv-x="555" 
d="M281 895h146l-96 -206h-138zM132 0.5q-58 10.5 -98 29.5v155q46 -21 101 -34t102 -13q54 0 77.5 9.5t23.5 37.5q0 18 -11.5 29.5t-33.5 20t-70 23.5q-16 4 -24 7q-66 21 -103.5 46t-54 60.5t-16.5 88.5q0 95 68 144.5t200 49.5q51 0 107.5 -8.5t93.5 -20.5v-156
q-88 35 -171 35q-53 0 -79.5 -8t-26.5 -35q0 -17 11 -27t33.5 -17.5t76.5 -21.5q77 -21 118.5 -50.5t57.5 -67.5t16 -92q0 -90 -69.5 -142.5t-204.5 -52.5q-66 0 -124 10.5z" />
    <glyph glyph-name="sacute" unicode="&#x15b;" horiz-adv-x="487" 
d="M242 728h146l-96 -206h-138zM117 -1.5q-54 8.5 -86 21.5v135q33 -16 81 -25t85 -9q44 0 58.5 2.5t14.5 16.5q0 12 -15.5 19t-50.5 17l-50 16q-69 25 -99 56t-30 88q0 148 232 148q44 0 93 -7t79 -16v-132q-29 12 -64.5 18.5t-65.5 6.5q-41 0 -61.5 -3.5t-20.5 -16.5
q0 -11 13.5 -17t47.5 -15l44 -13q54 -16 84.5 -35t43 -45.5t12.5 -67.5q0 -73 -59 -112t-173 -39q-59 0 -113 8.5z" />
    <glyph glyph-name="Scircumflex" unicode="&#x15c;" horiz-adv-x="555" 
d="M207 888h114l155 -200h-136l-76 108l-72 -108h-140zM132 0.5q-58 10.5 -98 29.5v155q46 -21 101 -34t102 -13q54 0 77.5 9.5t23.5 37.5q0 18 -11.5 29.5t-33.5 20t-70 23.5q-16 4 -24 7q-66 21 -103.5 46t-54 60.5t-16.5 88.5q0 95 68 144.5t200 49.5q51 0 107.5 -8.5
t93.5 -20.5v-156q-88 35 -171 35q-53 0 -79.5 -8t-26.5 -35q0 -17 11 -27t33.5 -17.5t76.5 -21.5q77 -21 118.5 -50.5t57.5 -67.5t16 -92q0 -90 -69.5 -142.5t-204.5 -52.5q-66 0 -124 10.5z" />
    <glyph glyph-name="scircumflex" unicode="&#x15d;" horiz-adv-x="487" 
d="M180 722h114l155 -200h-136l-76 108l-72 -108h-140zM117 -1.5q-54 8.5 -86 21.5v135q33 -16 81 -25t85 -9q44 0 58.5 2.5t14.5 16.5q0 12 -15.5 19t-50.5 17l-50 16q-69 25 -99 56t-30 88q0 148 232 148q44 0 93 -7t79 -16v-132q-29 12 -64.5 18.5t-65.5 6.5
q-41 0 -61.5 -3.5t-20.5 -16.5q0 -11 13.5 -17t47.5 -15l44 -13q54 -16 84.5 -35t43 -45.5t12.5 -67.5q0 -73 -59 -112t-173 -39q-59 0 -113 8.5z" />
    <glyph glyph-name="Scedilla" unicode="&#x15e;" horiz-adv-x="555" 
d="M477 56.5q-53 -50.5 -156 -62.5l-13 -35q57 0 84.5 -25.5t27.5 -68.5q0 -50 -40.5 -77.5t-120.5 -27.5q-18 0 -44.5 2.5t-37.5 5.5v74q29 -8 59 -8q39 0 55.5 7.5t16.5 26.5t-13.5 25t-40.5 6h-63l26 92q-111 5 -183 39v155q46 -21 101 -34t102 -13q54 0 77.5 9.5
t23.5 37.5q0 18 -11.5 29.5t-33.5 20t-70 23.5q-16 4 -24 7q-66 21 -103.5 46t-54 60.5t-16.5 88.5q0 95 68 144.5t200 49.5q51 0 107.5 -8.5t93.5 -20.5v-156q-88 35 -171 35q-53 0 -79.5 -8t-26.5 -35q0 -17 11 -27t33.5 -17.5t76.5 -21.5q77 -21 118.5 -50.5t57.5 -67.5
t16 -92q0 -78 -53 -128.5z" />
    <glyph glyph-name="scedilla" unicode="&#x15f;" horiz-adv-x="487" 
d="M416.5 39.5q-45.5 -38.5 -133.5 -47.5l-12 -33q57 0 84.5 -25.5t27.5 -68.5q0 -50 -40.5 -77.5t-120.5 -27.5q-18 0 -44.5 2.5t-37.5 5.5v74q29 -8 59 -8q39 0 55.5 7.5t16.5 26.5t-13.5 25t-40.5 6h-63l27 93q-94 6 -150 28v135q33 -16 81 -25t85 -9q44 0 58.5 2.5
t14.5 16.5q0 12 -15.5 19t-50.5 17l-50 16q-69 25 -99 56t-30 88q0 148 232 148q44 0 93 -7t79 -16v-132q-29 12 -64.5 18.5t-65.5 6.5q-41 0 -61.5 -3.5t-20.5 -16.5q0 -11 13.5 -17t47.5 -15l44 -13q54 -16 84.5 -35t43 -45.5t12.5 -67.5q0 -63 -45.5 -101.5z" />
    <glyph glyph-name="Scaron" unicode="&#x160;" horiz-adv-x="555" 
d="M57 888h140l72 -109l76 109h136l-155 -200h-114zM132 0.5q-58 10.5 -98 29.5v155q46 -21 101 -34t102 -13q54 0 77.5 9.5t23.5 37.5q0 18 -11.5 29.5t-33.5 20t-70 23.5q-16 4 -24 7q-66 21 -103.5 46t-54 60.5t-16.5 88.5q0 95 68 144.5t200 49.5q51 0 107.5 -8.5
t93.5 -20.5v-156q-88 35 -171 35q-53 0 -79.5 -8t-26.5 -35q0 -17 11 -27t33.5 -17.5t76.5 -21.5q77 -21 118.5 -50.5t57.5 -67.5t16 -92q0 -90 -69.5 -142.5t-204.5 -52.5q-66 0 -124 10.5z" />
    <glyph glyph-name="scaron" unicode="&#x161;" horiz-adv-x="487" 
d="M28 722h140l72 -109l76 109h136l-155 -200h-114zM117 -1.5q-54 8.5 -86 21.5v135q33 -16 81 -25t85 -9q44 0 58.5 2.5t14.5 16.5q0 12 -15.5 19t-50.5 17l-50 16q-69 25 -99 56t-30 88q0 148 232 148q44 0 93 -7t79 -16v-132q-29 12 -64.5 18.5t-65.5 6.5
q-41 0 -61.5 -3.5t-20.5 -16.5q0 -11 13.5 -17t47.5 -15l44 -13q54 -16 84.5 -35t43 -45.5t12.5 -67.5q0 -73 -59 -112t-173 -39q-59 0 -113 8.5z" />
    <glyph glyph-name="uni0162" unicode="&#x162;" horiz-adv-x="560" 
d="M333 0l-15 -41q57 0 84.5 -25.5t27.5 -68.5q0 -50 -40.5 -77.5t-120.5 -27.5q-18 0 -44.5 2.5t-37.5 5.5v74q29 -8 59 -8q39 0 55.5 7.5t16.5 26.5t-13.5 25t-40.5 6h-63l29 101h-44v504h-181v140h550v-140h-181v-504h-41z" />
    <glyph glyph-name="uni0163" unicode="&#x163;" horiz-adv-x="387" 
d="M370.5 -66.5q27.5 -25.5 27.5 -68.5q0 -50 -40.5 -77.5t-120.5 -27.5q-18 0 -44.5 2.5t-37.5 5.5v74q29 -8 59 -8q39 0 55.5 7.5t16.5 26.5t-13.5 25t-40.5 6h-63l27 95q-129 24 -129 174v167h-62v139h62v97l188 45v-142h109l-7 -139h-102v-153q0 -30 14.5 -42.5
t46.5 -12.5q29 0 59 10v-125q-33 -14 -77 -19l-12 -34q57 0 84.5 -25.5z" />
    <glyph glyph-name="Tcaron" unicode="&#x164;" horiz-adv-x="560" 
d="M69 889h140l72 -109l76 109h136l-155 -200h-114zM186 504h-181v140h550v-140h-181v-504h-188v504z" />
    <glyph glyph-name="tcaron" unicode="&#x165;" horiz-adv-x="523" 
d="M368 783h153l-57 -225h-130zM111 36.5q-44 46.5 -44 131.5v167h-62v139h62v97l188 45v-142h109l-7 -139h-102v-153q0 -30 14.5 -42.5t46.5 -12.5q29 0 59 10v-125q-53 -22 -127 -22q-93 0 -137 46.5z" />
    <glyph glyph-name="Tbar" unicode="&#x166;" horiz-adv-x="560" 
d="M374 504v-112h97v-126h-97v-266h-188v266h-97v126h97v112h-181v140h550v-140h-181z" />
    <glyph glyph-name="tbar" unicode="&#x167;" horiz-adv-x="380" 
d="M375 137v-125q-53 -22 -127 -22q-93 0 -137 46.5t-44 131.5v20h-62v106h62v41h-62v139h62v97l188 45v-142h109l-7 -139h-102v-41h109v-106h-109v-6q0 -30 14.5 -42.5t46.5 -12.5q29 0 59 10z" />
    <glyph glyph-name="Utilde" unicode="&#x168;" horiz-adv-x="689" 
d="M395 701.5q-22 5.5 -54 16.5q-28 10 -46.5 15t-35.5 5q-59 0 -98 -39v118q15 14 41 23.5t54 9.5q22 0 42 -5t51 -16q27 -10 47 -15.5t41 -5.5q30 0 53.5 11t36.5 29v-119q-10 -14 -34.5 -23.5t-52.5 -9.5q-23 0 -45 5.5zM123.5 57.5q-83.5 67.5 -83.5 190.5v396h188v-376
q0 -118 117 -118q116 0 116 118v376h188v-396q0 -82 -38 -140t-107 -88t-159 -30q-138 0 -221.5 67.5z" />
    <glyph glyph-name="utilde" unicode="&#x169;" horiz-adv-x="604" 
d="M352 535.5q-22 5.5 -54 16.5q-28 10 -46.5 15t-35.5 5q-59 0 -98 -39v118q15 14 41 23.5t54 9.5q22 0 42 -5t51 -16q27 -10 47 -15.5t41 -5.5q30 0 53.5 11t36.5 29v-119q-10 -14 -34.5 -23.5t-52.5 -9.5q-23 0 -45 5.5zM86.5 37.5q-46.5 47.5 -46.5 137.5v299h188v-284
q0 -32 15.5 -47t47.5 -15q22 0 44 10t36 25v311h188v-474h-176l-5 36q-65 -46 -161 -46q-84 0 -130.5 47.5z" />
    <glyph glyph-name="Umacron" unicode="&#x16a;" horiz-adv-x="689" 
d="M180 836h328v-112h-328v112zM123.5 57.5q-83.5 67.5 -83.5 190.5v396h188v-376q0 -118 117 -118q116 0 116 118v376h188v-396q0 -82 -38 -140t-107 -88t-159 -30q-138 0 -221.5 67.5z" />
    <glyph glyph-name="umacron" unicode="&#x16b;" horiz-adv-x="604" 
d="M135 670h328v-112h-328v112zM86.5 37.5q-46.5 47.5 -46.5 137.5v299h188v-284q0 -32 15.5 -47t47.5 -15q22 0 44 10t36 25v311h188v-474h-176l-5 36q-65 -46 -161 -46q-84 0 -130.5 47.5z" />
    <glyph glyph-name="Ubreve" unicode="&#x16c;" horiz-adv-x="689" 
d="M206.5 737q-51.5 49 -51.5 138h122q0 -84 67 -84q68 0 68 84h122q0 -89 -51.5 -138t-138.5 -49q-86 0 -137.5 49zM123.5 57.5q-83.5 67.5 -83.5 190.5v396h188v-376q0 -118 117 -118q116 0 116 118v376h188v-396q0 -82 -38 -140t-107 -88t-159 -30q-138 0 -221.5 67.5z
" />
    <glyph glyph-name="ubreve" unicode="&#x16d;" horiz-adv-x="604" 
d="M163.5 571q-51.5 49 -51.5 138h122q0 -84 67 -84q68 0 68 84h122q0 -89 -51.5 -138t-138.5 -49q-86 0 -137.5 49zM86.5 37.5q-46.5 47.5 -46.5 137.5v299h188v-284q0 -32 15.5 -47t47.5 -15q22 0 44 10t36 25v311h188v-474h-176l-5 36q-65 -46 -161 -46
q-84 0 -130.5 47.5z" />
    <glyph glyph-name="Uring" unicode="&#x16e;" horiz-adv-x="689" 
d="M242.5 725q-37.5 37 -37.5 94t37.5 94.5t101.5 37.5q65 0 102 -37.5t37 -94.5t-37 -94t-102 -37q-64 0 -101.5 37zM385.5 780q14.5 15 14.5 39q0 23 -14.5 38.5t-41.5 15.5q-26 0 -41 -15.5t-15 -38.5t15 -38.5t41 -15.5q27 0 41.5 15zM123.5 57.5
q-83.5 67.5 -83.5 190.5v396h188v-376q0 -118 117 -118q116 0 116 118v376h188v-396q0 -82 -38 -140t-107 -88t-159 -30q-138 0 -221.5 67.5z" />
    <glyph glyph-name="uring" unicode="&#x16f;" horiz-adv-x="604" 
d="M197.5 559q-37.5 37 -37.5 94t37.5 94.5t101.5 37.5q65 0 102 -37.5t37 -94.5t-37 -94t-102 -37q-64 0 -101.5 37zM340.5 614q14.5 15 14.5 39q0 23 -14.5 38.5t-41.5 15.5q-26 0 -41 -15.5t-15 -38.5t15 -38.5t41 -15.5q27 0 41.5 15zM86.5 37.5q-46.5 47.5 -46.5 137.5
v299h188v-284q0 -32 15.5 -47t47.5 -15q22 0 44 10t36 25v311h188v-474h-176l-5 36q-65 -46 -161 -46q-84 0 -130.5 47.5z" />
    <glyph glyph-name="Uhungarumlaut" unicode="&#x170;" horiz-adv-x="689" 
d="M220 872h158l-102 -184h-142zM454 872h158l-102 -184h-142zM123.5 57.5q-83.5 67.5 -83.5 190.5v396h188v-376q0 -118 117 -118q116 0 116 118v376h188v-396q0 -82 -38 -140t-107 -88t-159 -30q-138 0 -221.5 67.5z" />
    <glyph glyph-name="uhungarumlaut" unicode="&#x171;" horiz-adv-x="604" 
d="M155 706h158l-102 -184h-142zM389 706h158l-102 -184h-142zM86.5 37.5q-46.5 47.5 -46.5 137.5v299h188v-284q0 -32 15.5 -47t47.5 -15q22 0 44 10t36 25v311h188v-474h-176l-5 36q-65 -46 -161 -46q-84 0 -130.5 47.5z" />
    <glyph glyph-name="Uogonek" unicode="&#x172;" horiz-adv-x="689" 
d="M649 644v-396q0 -105 -61.5 -170t-166.5 -82q-53 -43 -53 -85q0 -40 43 -40q13 0 27 3t23 8v-86q-16 -6 -44.5 -11t-57.5 -5q-60 0 -96 24.5t-36 72.5q0 34 17 64t47 52q-116 13 -183.5 78.5t-67.5 176.5v396h188v-376q0 -118 117 -118q116 0 116 118v376h188z" />
    <glyph glyph-name="uogonek" unicode="&#x173;" horiz-adv-x="604" 
d="M450 -89q0 -40 43 -40q13 0 27 3t23 8v-86q-16 -6 -44.5 -11t-57.5 -5q-60 0 -96 24.5t-36 72.5q0 37 20 69t54 54l-5 36q-65 -46 -161 -46q-84 0 -130.5 47.5t-46.5 137.5v299h188v-284q0 -32 15.5 -47t47.5 -15q22 0 44 10t36 25v311h188v-474h-51q-58 -44 -58 -89z
" />
    <glyph glyph-name="Wcircumflex" unicode="&#x174;" horiz-adv-x="891" 
d="M392 888h114l155 -200h-136l-76 108l-72 -108h-140zM25 644h184l73 -341l71 244v97h154l98 -342l77 342h184l-149 -644h-170l-97 333l-105 -333h-170z" />
    <glyph glyph-name="wcircumflex" unicode="&#x175;" horiz-adv-x="783" 
d="M336 722h114l155 -200h-136l-76 108l-72 -108h-140zM25 474h182l56 -235l55 167v68h138l66 -235l54 235h182l-125 -474h-168l-72 215l-72 -215h-171z" />
    <glyph glyph-name="Ycircumflex" unicode="&#x176;" horiz-adv-x="702" 
d="M294 888h114l155 -200h-136l-76 108l-72 -108h-140zM257 236l-232 408h196l130 -243l130 243h196l-232 -408v-236h-188v236z" />
    <glyph glyph-name="ycircumflex" unicode="&#x177;" horiz-adv-x="642" 
d="M276 722h114l155 -200h-136l-76 108l-72 -108h-140zM136.5 -172q-27.5 4 -54.5 15v128q26 -10 61 -10q39 0 58 10t38 40l-214 463h197l111 -279l108 279h196l-175 -429q-44 -109 -104.5 -165t-153.5 -56q-40 0 -67.5 4z" />
    <glyph glyph-name="Ydieresis" unicode="&#x178;" horiz-adv-x="702" 
d="M179 835h131v-120h-131v120zM395 835h131v-120h-131v120zM257 236l-232 408h196l130 -243l130 243h196l-232 -408v-236h-188v236z" />
    <glyph glyph-name="Zacute" unicode="&#x179;" horiz-adv-x="578" 
d="M297 894h146l-96 -206h-138zM25 94l280 406h-265v144h512v-98l-277 -402h283v-144h-533v94z" />
    <glyph glyph-name="zacute" unicode="&#x17a;" horiz-adv-x="495" 
d="M254 728h146l-96 -206h-138zM25 103l199 227h-192v144h431v-106l-193 -224h200v-144h-445v103z" />
    <glyph glyph-name="Zdotaccent" unicode="&#x17b;" horiz-adv-x="578" 
d="M229 835h130v-120h-130v120zM25 94l280 406h-265v144h512v-98l-277 -402h283v-144h-533v94z" />
    <glyph glyph-name="zdotaccent" unicode="&#x17c;" horiz-adv-x="495" 
d="M184 669h130v-120h-130v120zM25 103l199 227h-192v144h431v-106l-193 -224h200v-144h-445v103z" />
    <glyph glyph-name="Zcaron" unicode="&#x17d;" horiz-adv-x="578" 
d="M91 888h140l72 -109l76 109h136l-155 -200h-114zM25 94l280 406h-265v144h512v-98l-277 -402h283v-144h-533v94z" />
    <glyph glyph-name="zcaron" unicode="&#x17e;" horiz-adv-x="495" 
d="M28 722h140l72 -109l76 109h136l-155 -200h-114zM25 103l199 227h-192v144h431v-106l-193 -224h200v-144h-445v103z" />
    <glyph glyph-name="uni018F" unicode="&#x18f;" horiz-adv-x="689" 
d="M106.5 66q-81.5 76 -81.5 211v120h462q-6 50 -29.5 77t-67 37.5t-117.5 10.5q-48 0 -113 -12.5t-101 -28.5v128q50 19 117.5 32t136.5 13q110 0 189 -41t120.5 -117.5t41.5 -182.5q0 -153 -81 -238t-245 -85q-150 0 -231.5 76zM452 152q35 38 35 115h-295v-33
q0 -56 37 -88t109 -32q79 0 114 38z" />
    <glyph glyph-name="florin" unicode="&#x192;" horiz-adv-x="511" 
d="M-110 -100l26 121q26 -10 57 -10q34 0 51.5 13t24.5 45l55 266h-61l30 139h61l6 31q17 88 75 136.5t149 48.5q71 0 122 -23l-26 -122q-28 11 -57 11q-35 0 -52 -13t-23 -42l-6 -27h112l-38 -139h-103l-57 -274q-19 -93 -72.5 -138.5t-151.5 -45.5q-71 0 -122 23z" />
    <glyph glyph-name="Ohorn" unicode="&#x1a0;" horiz-adv-x="790" 
d="M108 69.5q-83 79.5 -83 250.5q0 176 82.5 255t246.5 79q145 0 224 -64q46 2 65 23.5t19 74.5h133q0 -98 -32 -147t-104 -64q24 -63 24 -157q0 -170 -83 -250t-246 -80t-246 79.5zM458.5 190.5q32.5 40.5 32.5 129.5q0 94 -32 134t-105 40t-105 -40t-32 -134
q0 -89 32.5 -129.5t104.5 -40.5t104.5 40.5z" />
    <glyph glyph-name="ohorn" unicode="&#x1a1;" horiz-adv-x="720" 
d="M25 237q0 121 69 184t208 63q126 0 196 -53q55 0 74.5 23.5t19.5 81.5h133q0 -104 -36 -156t-117 -66q9 -34 9 -77q0 -247 -279 -247q-277 0 -277 247zM368.5 153q20.5 26 20.5 84q0 57 -20.5 83.5t-66.5 26.5q-45 0 -65 -26.5t-20 -83.5q0 -58 20 -84t65 -26
q46 0 66.5 26z" />
    <glyph glyph-name="Uhorn" unicode="&#x1af;" horiz-adv-x="861" 
d="M123.5 57.5q-83.5 67.5 -83.5 190.5v396h188v-376q0 -118 117 -118q116 0 116 118v376h188v-54q46 2 65 23.5t19 74.5h133q0 -82 -21.5 -129t-68.5 -68t-127 -23v-220q0 -82 -38 -140t-107 -88t-159 -30q-138 0 -221.5 67.5z" />
    <glyph glyph-name="uhorn" unicode="&#x1b0;" horiz-adv-x="764" 
d="M86.5 37.5q-46.5 47.5 -46.5 137.5v299h188v-284q0 -32 15.5 -47t47.5 -15q22 0 44 10t36 25v311h188v-42q41 4 56.5 28t15.5 76h133q0 -80 -20.5 -128.5t-65 -71.5t-119.5 -27v-309h-176l-5 36q-65 -46 -161 -46q-84 0 -130.5 47.5z" />
    <glyph glyph-name="uni01CD" unicode="&#x1cd;" horiz-adv-x="743" 
d="M159 888h140l72 -109l76 109h136l-155 -200h-114zM272 644h199l247 -644h-196l-54 137h-194l-53 -137h-196zM443 272l-72 189l-72 -189h144z" />
    <glyph glyph-name="uni01CE" unicode="&#x1ce;" horiz-adv-x="568" 
d="M77 722h140l72 -109l76 109h136l-155 -200h-114zM72.5 28.5q-47.5 38.5 -47.5 113.5q0 76 50.5 117t150.5 41h123v9q0 28 -23.5 41t-80.5 13q-82 0 -162 -25v113q37 15 91 24t109 9q116 0 180.5 -47.5t64.5 -144.5v-292h-164l-9 38q-54 -48 -162 -48q-73 0 -120.5 38.5z
M349 138v59h-91q-32 0 -47 -12t-15 -37q0 -48 61 -48q57 0 92 38z" />
    <glyph glyph-name="uni01CF" unicode="&#x1cf;" horiz-adv-x="278" 
d="M-73 888h140l72 -109l76 109h136l-155 -200h-114zM45 644h188v-644h-188v644z" />
    <glyph glyph-name="uni01D0" unicode="&#x1d0;" horiz-adv-x="347" 
d="M-40 722h140l72 -109l76 109h136l-155 -200h-114zM114 337h-69l16 137h241v-474h-188v337z" />
    <glyph glyph-name="uni01D1" unicode="&#x1d1;" horiz-adv-x="708" 
d="M142 888h140l72 -109l76 109h136l-155 -200h-114zM108 69.5q-83 79.5 -83 250.5q0 176 82.5 255t246.5 79t246.5 -79.5t82.5 -254.5q0 -170 -83 -250t-246 -80t-246 79.5zM458.5 190.5q32.5 40.5 32.5 129.5q0 94 -32 134t-105 40t-105 -40t-32 -134q0 -89 32.5 -129.5
t104.5 -40.5t104.5 40.5z" />
    <glyph glyph-name="uni01D2" unicode="&#x1d2;" horiz-adv-x="606" 
d="M91 722h140l72 -109l76 109h136l-155 -200h-114zM25 237q0 121 69 184t208 63q140 0 209.5 -63t69.5 -184q0 -247 -279 -247q-277 0 -277 247zM368.5 153q20.5 26 20.5 84q0 57 -20.5 83.5t-66.5 26.5q-45 0 -65 -26.5t-20 -83.5q0 -58 20 -84t65 -26q46 0 66.5 26z" />
    <glyph glyph-name="uni01D3" unicode="&#x1d3;" horiz-adv-x="689" 
d="M132 888h140l72 -109l76 109h136l-155 -200h-114zM123.5 57.5q-83.5 67.5 -83.5 190.5v396h188v-376q0 -118 117 -118q116 0 116 118v376h188v-396q0 -82 -38 -140t-107 -88t-159 -30q-138 0 -221.5 67.5z" />
    <glyph glyph-name="uni01D4" unicode="&#x1d4;" horiz-adv-x="604" 
d="M91 722h140l72 -109l76 109h136l-155 -200h-114zM86.5 37.5q-46.5 47.5 -46.5 137.5v299h188v-284q0 -32 15.5 -47t47.5 -15q22 0 44 10t36 25v311h188v-474h-176l-5 36q-65 -46 -161 -46q-84 0 -130.5 47.5z" />
    <glyph glyph-name="uni01D5" unicode="&#x1d5;" horiz-adv-x="689" 
d="M180 985h328v-112h-328v112zM171 819h131v-120h-131v120zM387 819h131v-120h-131v120zM123.5 57.5q-83.5 67.5 -83.5 190.5v396h188v-376q0 -118 117 -118q116 0 116 118v376h188v-396q0 -82 -38 -140t-107 -88t-159 -30q-138 0 -221.5 67.5z" />
    <glyph glyph-name="uni01D6" unicode="&#x1d6;" horiz-adv-x="604" 
d="M136 824h328v-112h-328v112zM127 654h131v-120h-131v120zM343 654h131v-120h-131v120zM86.5 37.5q-46.5 47.5 -46.5 137.5v299h188v-284q0 -32 15.5 -47t47.5 -15q22 0 44 10t36 25v311h188v-474h-176l-5 36q-65 -46 -161 -46q-84 0 -130.5 47.5z" />
    <glyph glyph-name="uni01D7" unicode="&#x1d7;" horiz-adv-x="689" 
d="M334 968h140l-70 -137h-127zM173 805h127v-113h-127v113zM388 805h127v-113h-127v113zM123.5 57.5q-83.5 67.5 -83.5 190.5v396h188v-376q0 -118 117 -118q116 0 116 118v376h188v-396q0 -82 -38 -140t-107 -88t-159 -30q-138 0 -221.5 67.5z" />
    <glyph glyph-name="uni01D8" unicode="&#x1d8;" horiz-adv-x="604" 
d="M283 816h140l-70 -137h-127zM122 653h127v-113h-127v113zM337 653h127v-113h-127v113zM86.5 37.5q-46.5 47.5 -46.5 137.5v299h188v-284q0 -32 15.5 -47t47.5 -15q22 0 44 10t36 25v311h188v-474h-176l-5 36q-65 -46 -161 -46q-84 0 -130.5 47.5z" />
    <glyph glyph-name="uni01D9" unicode="&#x1d9;" horiz-adv-x="689" 
d="M154 962h138l53 -73l55 73h135l-126 -133h-129zM171 805h127v-113h-127v113zM386 805h127v-113h-127v113zM123.5 57.5q-83.5 67.5 -83.5 190.5v396h188v-376q0 -118 117 -118q116 0 116 118v376h188v-396q0 -82 -38 -140t-107 -88t-159 -30q-138 0 -221.5 67.5z" />
    <glyph glyph-name="uni01DA" unicode="&#x1da;" horiz-adv-x="604" 
d="M111 796h138l53 -73l55 73h135l-126 -133h-129zM128 639h127v-113h-127v113zM343 639h127v-113h-127v113zM86.5 37.5q-46.5 47.5 -46.5 137.5v299h188v-284q0 -32 15.5 -47t47.5 -15q22 0 44 10t36 25v311h188v-474h-176l-5 36q-65 -46 -161 -46q-84 0 -130.5 47.5z" />
    <glyph glyph-name="uni01DB" unicode="&#x1db;" horiz-adv-x="689" 
d="M215 986h140l57 -137h-127zM174 823h127v-113h-127v113zM389 823h127v-113h-127v113zM123.5 57.5q-83.5 67.5 -83.5 190.5v396h188v-376q0 -118 117 -118q116 0 116 118v376h188v-396q0 -82 -38 -140t-107 -88t-159 -30q-138 0 -221.5 67.5z" />
    <glyph glyph-name="uni01DC" unicode="&#x1dc;" horiz-adv-x="604" 
d="M170 816h140l57 -137h-127zM129 653h127v-113h-127v113zM344 653h127v-113h-127v113zM86.5 37.5q-46.5 47.5 -46.5 137.5v299h188v-284q0 -32 15.5 -47t47.5 -15q22 0 44 10t36 25v311h188v-474h-176l-5 36q-65 -46 -161 -46q-84 0 -130.5 47.5z" />
    <glyph glyph-name="Gcaron" unicode="&#x1e6;" horiz-adv-x="651" 
d="M161 888h140l72 -109l76 109h136l-155 -200h-114zM115.5 74q-90.5 84 -90.5 242q0 163 93.5 250.5t271.5 87.5q115 0 200 -28v-161q-78 29 -187 29q-94 0 -140 -42.5t-46 -135.5q0 -86 39.5 -126t120.5 -40q48 0 92 13v94h-128v116h285v-324q-41 -26 -103.5 -42.5
t-145.5 -16.5q-171 0 -261.5 84z" />
    <glyph glyph-name="gcaron" unicode="&#x1e7;" horiz-adv-x="565" 
d="M81 722h140l72 -109l76 109h136l-155 -200h-114zM134 -169.5q-61 6.5 -95 18.5v120q38 -13 95 -20t108 -7q56 0 85 5.5t29 19.5q0 12 -10 15.5t-38 3.5h-125q-74 0 -113 23.5t-39 70.5q0 32 18.5 55.5t54.5 36.5q-41 21 -60 53t-19 81q0 178 243 178q23 0 54 -3.5
t47 -6.5h186l-4 -114h-63q18 -23 18 -56q0 -75 -44 -116.5t-132 -41.5q-22 0 -56 4q-54 -6 -54 -28q0 -10 8 -13.5t26 -3.5h109q74 0 115.5 -34.5t41.5 -99.5q0 -71 -66.5 -109t-200.5 -38q-58 0 -119 6.5zM330 263.5q17 14.5 17 50.5t-17.5 51.5t-60.5 15.5
q-41 0 -59.5 -15.5t-18.5 -51.5q0 -34 17.5 -49.5t60.5 -15.5q44 0 61 14.5z" />
    <glyph glyph-name="Aringacute" unicode="&#x1fa;" horiz-adv-x="743" 
d="M428 880h-138l88 185h146zM718 0h-196l-54 137h-194l-53 -137h-196l242 630q-35 37 -35 92q0 57 37.5 94.5t101.5 37.5q65 0 102 -37.5t37 -94.5q0 -55 -34 -91zM330 760.5q-15 -15.5 -15 -38.5t15 -38.5t41 -15.5q27 0 41.5 15t14.5 39q0 23 -14.5 38.5t-41.5 15.5
q-26 0 -41 -15.5zM443 272l-72 189l-72 -189h144z" />
    <glyph glyph-name="aringacute" unicode="&#x1fb;" horiz-adv-x="568" 
d="M305 968h146l-96 -164h-138zM198.5 559q-37.5 37 -37.5 94t37.5 94.5t101.5 37.5q65 0 102 -37.5t37 -94.5t-37 -94t-102 -37q-64 0 -101.5 37zM341.5 614q14.5 15 14.5 39q0 23 -14.5 38.5t-41.5 15.5q-26 0 -41 -15.5t-15 -38.5t15 -38.5t41 -15.5q27 0 41.5 15z
M72.5 28.5q-47.5 38.5 -47.5 113.5q0 76 50.5 117t150.5 41h123v9q0 28 -23.5 41t-80.5 13q-82 0 -162 -25v113q37 15 91 24t109 9q116 0 180.5 -47.5t64.5 -144.5v-292h-164l-9 38q-54 -48 -162 -48q-73 0 -120.5 38.5zM349 138v59h-91q-32 0 -47 -12t-15 -37q0 -48 61 -48
q57 0 92 38z" />
    <glyph glyph-name="AEacute" unicode="&#x1fc;" horiz-adv-x="859" 
d="M505 894h146l-96 -206h-138zM272 644h562v-144h-248v-105h211v-146h-211v-105h248v-144h-432v138h-125l-53 -138h-199zM402 284v216h-6l-83 -216h89z" />
    <glyph glyph-name="aeacute" unicode="&#x1fd;" horiz-adv-x="882" 
d="M449 728h146l-96 -206h-138zM74.5 28q-49.5 38 -49.5 114t50.5 117t150.5 41h123v9q0 28 -23.5 41t-80.5 13q-82 0 -162 -25v113q37 15 91 24t109 9q52 0 91 -10t71 -30q30 19 73 29.5t92 10.5q115 0 181 -59t66 -161v-83h-329q12 -37 49.5 -53.5t104.5 -16.5
q40 0 81.5 7t67.5 18v-113q-70 -33 -195 -33q-59 0 -109 18.5t-82 51.5q-97 -70 -238 -70q-83 0 -132.5 38zM695 283v17q0 64 -79 64q-45 0 -65.5 -18t-22.5 -55v-8h167zM349 135v62h-91q-32 0 -47 -12t-15 -37q0 -48 61 -48q57 0 92 35z" />
    <glyph glyph-name="Oslashacute" unicode="&#x1fe;" horiz-adv-x="708" 
d="M334 894h146l-96 -206h-138zM180 21q-155 69 -155 299q0 176 82.5 255t246.5 79q36 0 74 -5l17 44h102l-27 -67q81 -33 122 -108t41 -198q0 -170 -83 -250t-246 -80q-44 0 -82 6l-19 -49h-102zM366 493l-12 1q-73 0 -105 -40t-32 -134q0 -87 31 -128zM458.5 190.5
q32.5 40.5 32.5 129.5q0 98 -37 139l-121 -308q7 -1 21 -1q72 0 104.5 40.5z" />
    <glyph glyph-name="oslashacute" unicode="&#x1ff;" horiz-adv-x="606" 
d="M265 728h146l-96 -206h-138zM165 11q-140 50 -140 226q0 121 69 184t208 63q16 0 48 -2l18 46h96l-26 -65q143 -51 143 -226q0 -247 -279 -247q-17 0 -49 2l-17 -45h-96zM299 353q-93 -2 -93 -116q0 -52 17 -78zM400 237q0 50 -19 80l-77 -196q96 2 96 116z" />
    <glyph glyph-name="Scommaaccent" unicode="&#x218;" horiz-adv-x="555" 
d="M132 0.5q-58 10.5 -98 29.5v155q46 -21 101 -34t102 -13q54 0 77.5 9.5t23.5 37.5q0 18 -11.5 29.5t-33.5 20t-70 23.5q-16 4 -24 7q-66 21 -103.5 46t-54 60.5t-16.5 88.5q0 95 68 144.5t200 49.5q51 0 107.5 -8.5t93.5 -20.5v-156q-88 35 -171 35q-53 0 -79.5 -8
t-26.5 -35q0 -17 11 -27t33.5 -17.5t76.5 -21.5q77 -21 118.5 -50.5t57.5 -67.5t16 -92q0 -90 -69.5 -142.5t-204.5 -52.5q-66 0 -124 10.5zM211 -42h149l-47 -192h-134z" />
    <glyph glyph-name="scommaaccent" unicode="&#x219;" horiz-adv-x="487" 
d="M117 -1.5q-54 8.5 -86 21.5v135q33 -16 81 -25t85 -9q44 0 58.5 2.5t14.5 16.5q0 12 -15.5 19t-50.5 17l-50 16q-69 25 -99 56t-30 88q0 148 232 148q44 0 93 -7t79 -16v-132q-29 12 -64.5 18.5t-65.5 6.5q-41 0 -61.5 -3.5t-20.5 -16.5q0 -11 13.5 -17t47.5 -15l44 -13
q54 -16 84.5 -35t43 -45.5t12.5 -67.5q0 -73 -59 -112t-173 -39q-59 0 -113 8.5zM176 -42h149l-47 -192h-134z" />
    <glyph glyph-name="uni021A" unicode="&#x21a;" horiz-adv-x="560" 
d="M186 504h-181v140h550v-140h-181v-504h-188v504zM209 -42h153l-57 -225h-130z" />
    <glyph glyph-name="uni021B" unicode="&#x21b;" horiz-adv-x="380" 
d="M111 36.5q-44 46.5 -44 131.5v167h-62v139h62v97l188 45v-142h109l-7 -139h-102v-153q0 -30 14.5 -42.5t46.5 -12.5q29 0 59 10v-125q-53 -22 -127 -22q-93 0 -137 46.5zM161 -42h153l-57 -225h-130z" />
    <glyph glyph-name="uni0237" unicode="&#x237;" horiz-adv-x="349" 
d="M-7 -212v125q30 -10 60 -10q33 0 48 12t15 39v383h-69l16 137h241v-534q0 -80 -45.5 -127t-137.5 -47q-75 0 -128 22z" />
    <glyph glyph-name="uni0251" unicode="&#x251;" horiz-adv-x="607" 
d="M81 45.5q-56 55.5 -56 174.5q0 79 30 139t83 92.5t119 32.5q69 0 117 -33v23h188v-474h-163l-9 37q-30 -23 -64.5 -35t-79.5 -12q-109 0 -165 55.5zM341.5 133.5q19.5 7.5 32.5 21.5v168q-15 13 -31 19t-38 6q-88 0 -88 -129q0 -52 19 -72.5t64 -20.5q22 0 41.5 7.5z" />
    <glyph glyph-name="uni0259" unicode="&#x259;" horiz-adv-x="552" 
d="M91 49q-66 59 -66 161v83h329q-12 37 -49.5 53.5t-104.5 16.5q-40 0 -81.5 -7t-67.5 -18v113q70 33 195 33q128 0 204.5 -63.5t76.5 -182.5q0 -116 -65 -182t-190 -66q-115 0 -181 59zM333.5 130q20.5 20 20.5 61h-167v-17q0 -64 79 -64q47 0 67.5 20z" />
    <glyph glyph-name="uni02BB" unicode="&#x2bb;" horiz-adv-x="269" 
d="M103 654h141l-62 -230h-157z" />
    <glyph glyph-name="uni02BC" unicode="&#x2bc;" horiz-adv-x="269" 
d="M87 654h157l-78 -230h-141z" />
    <glyph glyph-name="uni02BE" unicode="&#x2be;" 
d="M-402 557q76 0 76 67q0 66 -76 66v111q94 0 141.5 -45.5t47.5 -131.5t-47.5 -132t-141.5 -46v111z" />
    <glyph glyph-name="uni02BF" unicode="&#x2bf;" 
d="M-354.5 492q-47.5 46 -47.5 132t47.5 131.5t141.5 45.5v-111q-76 0 -76 -66q0 -67 76 -67v-111q-94 0 -141.5 46z" />
    <glyph glyph-name="circumflex" unicode="&#x2c6;" horiz-adv-x="474" 
d="M180 727h114l155 -200h-136l-76 108l-72 -108h-140z" />
    <glyph glyph-name="caron" unicode="&#x2c7;" horiz-adv-x="474" 
d="M25 727h140l72 -109l76 109h136l-155 -200h-114z" />
    <glyph glyph-name="uni02C8" unicode="&#x2c8;" 
d="M-94 677h119v-202h-119v202z" />
    <glyph glyph-name="uni02C9" unicode="&#x2c9;" 
d="M101 669h328v-112h-328v112z" />
    <glyph glyph-name="uni02CA" unicode="&#x2ca;" 
d="M-65 728h146l-96 -206h-138z" />
    <glyph glyph-name="uni02CB" unicode="&#x2cb;" 
d="M-155 728h146l88 -206h-138z" />
    <glyph glyph-name="uni02CC" unicode="&#x2cc;" 
d="M-94 -41h119v-203h-119v203z" />
    <glyph glyph-name="breve" unicode="&#x2d8;" horiz-adv-x="429" 
d="M76.5 580q-51.5 49 -51.5 138h122q0 -84 67 -84q68 0 68 84h122q0 -89 -51.5 -138t-138.5 -49q-86 0 -137.5 49z" />
    <glyph glyph-name="dotaccent" unicode="&#x2d9;" horiz-adv-x="180" 
d="M25 673h130v-120h-130v120z" />
    <glyph glyph-name="ring" unicode="&#x2da;" horiz-adv-x="324" 
d="M63 551.5q-38 36.5 -38 92.5t38 93t99 37q62 0 99.5 -36.5t37.5 -93.5q0 -56 -37.5 -92.5t-99.5 -36.5q-61 0 -99 36.5zM199 609.5q14 14.5 14 34.5q0 21 -14 35.5t-37 14.5t-37 -14.5t-14 -35.5q0 -20 14 -34.5t37 -14.5t37 14.5z" />
    <glyph glyph-name="ogonek" unicode="&#x2db;" horiz-adv-x="284" 
d="M61 -195.5q-36 24.5 -36 72.5q0 37 20 69t54 54h125q-58 -44 -58 -89q0 -40 43 -40q13 0 27 3t23 8v-86q-16 -6 -44.5 -11t-57.5 -5q-60 0 -96 24.5z" />
    <glyph glyph-name="tilde" unicode="&#x2dc;" horiz-adv-x="416" 
d="M257.5 549.5q-22.5 5.5 -52.5 16.5q-30 10 -48 15t-35 5q-60 0 -97 -39v118q15 14 40.5 23.5t53.5 9.5q23 0 43.5 -5.5t50.5 -16.5q30 -10 48.5 -15t38.5 -5q30 0 54 11t37 29v-119q-10 -14 -34.5 -23.5t-53.5 -9.5q-23 0 -45.5 5.5z" />
    <glyph glyph-name="hungarumlaut" unicode="&#x2dd;" horiz-adv-x="528" 
d="M111 714h158l-102 -184h-142zM345 714h158l-102 -184h-142z" />
    <glyph glyph-name="gravecomb" unicode="&#x300;" 
d="M-502 728h147l88 -206h-138z" />
    <glyph glyph-name="acutecomb" unicode="&#x301;" 
d="M-391 728h146l-96 -206h-138z" />
    <glyph glyph-name="uni0302" unicode="&#x302;" 
d="M-102 727h114l155 -200h-136l-76 108l-72 -108h-140z" />
    <glyph glyph-name="tildecomb" unicode="&#x303;" 
d="M-306 549.5q-22 5.5 -54 16.5q-28 10 -46.5 15t-35.5 5q-59 0 -98 -39v118q15 14 41 23.5t54 9.5q22 0 42 -5t51 -16q27 -10 47 -15.5t41 -5.5q30 0 53.5 11t36.5 29v-119q-10 -14 -34.5 -23.5t-52.5 -9.5q-23 0 -45 5.5z" />
    <glyph glyph-name="uni0304" unicode="&#x304;" 
d="M-206 669h328v-112h-328v112z" />
    <glyph glyph-name="uni0306" unicode="&#x306;" 
d="M-171.5 580q-51.5 49 -51.5 138h122q0 -84 67 -84q68 0 68 84h122q0 -89 -51.5 -138t-138.5 -49q-86 0 -137.5 49z" />
    <glyph glyph-name="uni0307" unicode="&#x307;" 
d="M-99 673h130v-120h-130v120z" />
    <glyph glyph-name="uni0308" unicode="&#x308;" 
d="M-177 673h131v-120h-131v120zM39 673h131v-120h-131v120z" />
    <glyph glyph-name="hookabovecomb" unicode="&#x309;" 
d="M-406 584q49 3 68.5 13.5t19.5 30.5q0 33 -60 33q-27 0 -59 -8v78q44 14 115 14q67 0 104 -28t37 -73q0 -42 -20.5 -64.5t-63.5 -35.5v-41h-141v81z" />
    <glyph glyph-name="uni030A" unicode="&#x30a;" 
d="M-135.5 548q-37.5 37 -37.5 94t37.5 94.5t101.5 37.5q65 0 102 -37.5t37 -94.5t-37 -94t-102 -37q-64 0 -101.5 37zM7.5 603q14.5 15 14.5 39q0 23 -14.5 38.5t-41.5 15.5q-26 0 -41 -15.5t-15 -38.5t15 -38.5t41 -15.5q27 0 41.5 15z" />
    <glyph glyph-name="uni030B" unicode="&#x30b;" 
d="M-193 714h158l-102 -184h-142zM41 714h158l-102 -184h-142z" />
    <glyph glyph-name="uni030C" unicode="&#x30c;" 
d="M-257 727h140l72 -109l76 109h136l-155 -200h-114z" />
    <glyph glyph-name="uni031B" unicode="&#x31b;" 
d="M-155 629q39 0 60 9.5t29 31t8 60.5h133q0 -84 -22.5 -131t-72 -67t-135.5 -21v118z" />
    <glyph glyph-name="dotbelowcomb" unicode="&#x323;" 
d="M-398 -77h130v-120h-130v120z" />
    <glyph glyph-name="uni0324" unicode="&#x324;" 
d="M-205 -77h131v-120h-131v120zM11 -77h131v-120h-131v120z" />
    <glyph glyph-name="uni0326" unicode="&#x326;" 
d="M-178 -37h153l-57 -225h-130z" />
    <glyph glyph-name="uni0327" unicode="&#x327;" 
d="M-83.5 -237.5q-26.5 2.5 -37.5 5.5v74q29 -8 59 -8q39 0 55.5 7.5t16.5 26.5t-13.5 25t-40.5 6h-63l29 101h103l-15 -41q57 0 84.5 -25.5t27.5 -68.5q0 -50 -40.5 -77.5t-120.5 -27.5q-18 0 -44.5 2.5z" />
    <glyph glyph-name="uni0328" unicode="&#x328;" 
d="M-114 -195.5q-36 24.5 -36 72.5q0 37 20 69t54 54h125q-58 -44 -58 -89q0 -40 43 -40q13 0 27 3t23 8v-86q-16 -6 -44.5 -11t-57.5 -5q-60 0 -96 24.5z" />
    <glyph glyph-name="uni032E" unicode="&#x32e;" 
d="M-171.5 -188q-51.5 49 -51.5 138h122q0 -84 67 -84q68 0 68 84h122q0 -89 -51.5 -138t-138.5 -49q-86 0 -137.5 49z" />
    <glyph glyph-name="uni0331" unicode="&#x331;" 
d="M-206 -20h328v-112h-328v112z" />
    <glyph glyph-name="uni0394" unicode="&#x394;" horiz-adv-x="636" 
d="M25 99l215 545h154l217 -546v-98h-586v99zM430 143l-113 285l-114 -285h227z" />
    <glyph glyph-name="uni03A9" unicode="&#x3a9;" horiz-adv-x="749" 
d="M32 144h100q-54 39 -80.5 94t-26.5 130q0 100 41 173.5t119 113.5t189 40t189.5 -40t119.5 -113.5t41 -173.5q0 -77 -25.5 -132t-82.5 -92h101v-144h-309v150q65 38 94.5 87.5t29.5 119.5q0 83 -41 130.5t-117 47.5q-75 0 -116 -47.5t-41 -130.5q0 -70 29 -119.5
t94 -87.5v-150h-308v144z" />
    <glyph glyph-name="uni03BC" unicode="&#x3bc;" horiz-adv-x="609" 
d="M45 474h188v-284q0 -32 15.5 -47t47.5 -15q22 0 44 10t36 25v311h188v-474h-176l-5 36q-50 -46 -115 -46q-19 0 -35 7v-140h-188v617z" />
    <glyph glyph-name="pi" unicode="&#x3c0;" horiz-adv-x="691" 
d="M413.5 41.5q-45.5 51.5 -45.5 153.5v135h-104v-330h-188v330h-61v144h602v-144h-61v-125q0 -30 14.5 -42.5t46.5 -12.5q29 0 59 10v-148q-52 -22 -122 -22q-95 0 -140.5 51.5z" />
    <glyph glyph-name="uni0E01" unicode="&#xe01;" horiz-adv-x="632" 
d="M42 170q0 42 18 74t56 45l-91 28v142q52 39 124 65t156 26q143 0 212.5 -58t69.5 -167v-325h-188v319q0 51 -24.5 72.5t-80.5 21.5q-32 0 -61 -8.5t-48 -22.5v-8l105 -33v-88q-32 -9 -46 -29t-14 -57v-167h-188v170z" />
    <glyph glyph-name="uni0E02" unicode="&#xe02;" horiz-adv-x="614" 
d="M108.5 45.5q-70.5 55.5 -70.5 152.5v26q0 32 12 56t33 53q13 17 19 28.5t6 21.5q0 14 -6.5 20t-22.5 6h-54l15 131h175q52 0 72.5 -22t20.5 -69q0 -32 -11 -56.5t-33 -57.5q-19 -30 -28.5 -49.5t-9.5 -43.5v-44q0 -71 76 -71q79 0 79 76v337h188v-339q0 -100 -71 -155.5
t-196 -55.5q-123 0 -193.5 55.5z" />
    <glyph glyph-name="uni0E03" unicode="&#xe03;" horiz-adv-x="617" 
d="M110 38q-69 48 -69 143v15q0 34 20 65t57 72q21 22 31.5 36t10.5 24q0 19 -16 19q-12 0 -21 -11v-39h-98v178h109v-28q16 12 40.5 20t51.5 8q46 0 72 -23.5t26 -67.5t-14.5 -74.5t-41.5 -65.5q-20 -26 -29.5 -43.5t-9.5 -38.5v-26q0 -36 19.5 -55t56.5 -19q79 0 79 76
v337h188v-339q0 -100 -71 -155.5t-196 -55.5q-126 0 -195 48z" />
    <glyph glyph-name="uni0E04" unicode="&#xe04;" horiz-adv-x="641" 
d="M45 320q0 113 71.5 171.5t204.5 58.5t204 -58.5t71 -171.5v-320h-188v325q0 42 -22 65t-65 23q-88 0 -88 -88v-60q13 9 33 14t41 5h52l5 -147h-59q-44 0 -72 -16v-121h-188v320z" />
    <glyph glyph-name="uni0E05" unicode="&#xe05;" horiz-adv-x="641" 
d="M45 389q0 74 38.5 117.5t111.5 43.5q36 0 69 -12.5t56 -38.5q23 26 57.5 38.5t71.5 12.5q74 0 110.5 -41.5t36.5 -119.5v-389h-188v369q0 23 -6 33.5t-23 10.5q-13 0 -21 -7t-15 -20h-45q-5 13 -12 20t-19 7q-34 0 -34 -44v-104q13 9 33 14t41 5h52l5 -147h-59
q-44 0 -72 -16v-121h-188v389z" />
    <glyph glyph-name="uni0E06" unicode="&#xe06;" horiz-adv-x="627" 
d="M222 42l-7 -42h-174v196q0 34 20 65t57 72q21 22 31.5 36t10.5 24q0 19 -16 19q-12 0 -21 -11v-39h-98v178h109v-28q16 12 40.5 20t51.5 8q46 0 72 -23.5t26 -67.5t-14.5 -75.5t-41.5 -71.5q-20 -27 -29.5 -46t-9.5 -40v-50q15 -16 40 -27t53 -11q38 0 55 17.5t17 55.5
v339h188v-359q0 -90 -52.5 -140.5t-138.5 -50.5q-99 0 -169 52z" />
    <glyph glyph-name="uni0E07" unicode="&#xe07;" horiz-adv-x="615" 
d="M231.5 -5q-37.5 5 -62.5 14l-144 359h184l97 -241q92 11 92 158q0 63 -22.5 85.5t-77.5 22.5h-38v147h76q123 0 188.5 -64.5t65.5 -189.5q0 -149 -77 -222.5t-210 -73.5q-34 0 -71.5 5z" />
    <glyph glyph-name="uni0E08" unicode="&#xe08;" horiz-adv-x="577" 
d="M213.5 -4q-33.5 6 -51.5 14l-59 159h-78l7 147h175l70 -189q83 14 83 147q0 52 -14.5 82t-47.5 43.5t-91 13.5q-82 0 -175 -26v128q49 16 108 25.5t115 9.5q157 0 227 -69.5t70 -207.5q0 -90 -38 -154t-100 -96.5t-133 -32.5q-34 0 -67.5 6z" />
    <glyph glyph-name="uni0E09" unicode="&#xe09;" horiz-adv-x="607" 
d="M77.5 37.5q-47.5 47.5 -47.5 137.5v125h188v-96q0 -38 16 -57t52 -19q28 0 50.5 10.5t37.5 28.5v129q0 45 -13 70t-45 36t-90 11q-41 0 -100 -8t-101 -20v128q51 18 117.5 27.5t131.5 9.5q152 0 220 -63t68 -192v-295h-174l-7 42q-71 -52 -173 -52q-83 0 -130.5 47.5z
" />
    <glyph glyph-name="uni0E0A" unicode="&#xe0a;" horiz-adv-x="614" 
d="M108.5 45.5q-70.5 55.5 -70.5 152.5v26q0 32 12 56t33 53q13 17 19 28.5t6 21.5q0 14 -6.5 20t-22.5 6h-54l15 131h171q52 0 72.5 -22t20.5 -69q0 -32 -11 -57.5t-31 -56.5q-18 -30 -27 -49.5t-9 -43.5v-44q0 -71 76 -71q79 0 79 76v50q0 28 -11.5 40.5t-34.5 12.5h-17
l12 131h6q25 0 35 13.5t10 48.5v51h188v-43q0 -51 -14 -83t-50 -51q36 -19 50 -49.5t14 -75.5v-47q0 -100 -71 -155.5t-196 -55.5q-123 0 -193.5 55.5z" />
    <glyph glyph-name="uni0E0B" unicode="&#xe0b;" horiz-adv-x="617" 
d="M110.5 39q-69.5 49 -69.5 142v15q0 34 20 65t57 72q21 22 31.5 36t10.5 24q0 19 -16 19q-12 0 -21 -11v-39h-98v178h109v-28q16 12 40.5 20t51.5 8q45 0 69.5 -25t24.5 -66q0 -44 -14 -74.5t-40 -68.5q-18 -25 -27.5 -43.5t-9.5 -39.5v-25q0 -71 76 -71q79 0 79 76v50
q0 28 -11.5 40.5t-34.5 12.5h-17l12 131h6q25 0 35 13.5t10 48.5v51h188v-43q0 -51 -14 -83t-50 -51q36 -19 50 -49.5t14 -75.5v-47q0 -100 -71 -155.5t-196 -55.5t-194.5 49z" />
    <glyph glyph-name="uni0E0C" unicode="&#xe0c;" horiz-adv-x="955" 
d="M637 3.5q-39 13.5 -73 38.5l-7 -42h-172v319q0 52 -21.5 73t-76.5 21q-59 0 -102 -31v-8l105 -33v-88q-32 -9 -46 -26t-14 -48v-26q0 -31 31 -31h41v-122h-155q-48 0 -76.5 29t-28.5 76v65q0 42 18 74t56 45l-91 28v142q121 91 273 91q142 0 207.5 -57.5t65.5 -167.5
v-159q15 -17 38 -27.5t48 -10.5q36 0 50.5 17t14.5 56v339h188v-359q0 -90 -49.5 -140.5t-134.5 -50.5q-50 0 -89 13.5z" />
    <glyph glyph-name="uni0E0D" unicode="&#xe0d;" horiz-adv-x="971" 
d="M441 -37v126q37 -21 102.5 -33t115.5 -12q68 0 94 10t26 30q0 8 -2 16t-5 12q-24 -9 -57 -15.5t-69 -6.5q-127 0 -194 53.5t-67 170.5v5q0 52 -21.5 73t-76.5 21q-59 0 -102 -31v-8l105 -33v-88q-32 -9 -46 -26t-14 -48v-26q0 -31 31 -31h41v-122h-155q-48 0 -76.5 29
t-28.5 76v65q0 42 18 74t56 45l-91 28v142q121 91 273 91q142 0 207.5 -57.5t65.5 -167.5v-9q0 -51 19 -72.5t65 -21.5q44 0 63 22t19 73v223h188v-210q0 -48 -10.5 -84t-35.5 -63q50 -35 50 -106q0 -72 -70 -115t-199 -43t-219 44z" />
    <glyph glyph-name="uni0E0E" unicode="&#xe0e;" horiz-adv-x="662" 
d="M149 -60q75 32 168 32q30 0 63 -5.5t49 -12.5v365q0 51 -24.5 72.5t-80.5 21.5q-32 0 -61 -8.5t-48 -22.5v-8l105 -33v-88q-28 -9 -37.5 -26t-9.5 -53v-55q0 -59 -31 -89t-89 -30h-128v122h26q16 0 23 7.5t7 23.5v26q0 42 14 69t51 41l-91 28v142q52 39 124 65t156 26
q143 0 212.5 -58t69.5 -167v-519h-172q-30 15 -62.5 22t-77.5 7q-39 0 -81.5 -9.5t-74.5 -24.5v139z" />
    <glyph glyph-name="uni0E0F" unicode="&#xe0f;" horiz-adv-x="662" 
d="M358.5 -185.5q-36.5 12.5 -58.5 33.5q-32 -42 -104 -42h-92l9 135h58q25 0 38 8.5t20 28.5h113q5 -19 15.5 -29t29.5 -10q20 0 31 11t11 30v339q0 51 -24.5 72.5t-80.5 21.5q-32 0 -61 -8.5t-48 -22.5v-8l105 -33v-88q-28 -9 -37.5 -26t-9.5 -53v-55q0 -59 -31 -89
t-89 -30h-128v122h26q16 0 23 7.5t7 23.5v26q0 42 14 69t51 41l-91 28v142q52 39 124 65t156 26q143 0 212.5 -58t69.5 -167v-350q0 -78 -46 -125.5t-129 -47.5q-47 0 -83.5 12.5z" />
    <glyph glyph-name="uni0E10" unicode="&#xe10;" horiz-adv-x="622" 
d="M213.5 -4q-33.5 6 -51.5 14l-59 159h-78l7 147h175l70 -189q83 14 83 147q0 52 -14.5 82t-47.5 43.5t-91 13.5q-82 0 -175 -26v128q49 16 108 25.5t115 9.5q53 0 105 -10h237l-9 -137h-63q27 -57 27 -130q0 -90 -38 -154t-100 -96.5t-133 -32.5q-34 0 -67.5 6z
M279.5 -203.5q-37.5 13.5 -60.5 34.5q-34 -44 -104 -44h-83l9 128h58q25 0 39 10t19 31h118q10 -43 55 -43q25 0 38.5 10.5t13.5 30.5v20h147v-18q0 -79 -42 -126t-124 -47q-46 0 -83.5 13.5z" />
    <glyph glyph-name="uni0E11" unicode="&#xe11;" horiz-adv-x="628" 
d="M66 171q0 38 15.5 71t43.5 76q18 29 26.5 45.5t8.5 29.5q0 19 -16 19q-12 0 -21 -11v-39h-98v178h109v-28q38 28 85 28q20 0 39.5 -7t32.5 -19q22 16 53 26t65 10q174 0 174 -185v-365h-188v363q0 26 -8.5 37.5t-30.5 11.5q-16 0 -33 -15q0 -31 -8.5 -54.5t-25.5 -55.5
q-18 -36 -26.5 -60t-8.5 -57v-170h-188v171z" />
    <glyph glyph-name="uni0E12" unicode="&#xe12;" horiz-adv-x="989" 
d="M87.5 53q-62.5 63 -62.5 199q0 147 49 222.5t145 75.5q38 0 64.5 -12.5t47.5 -38.5q23 24 58 37.5t72 13.5q144 0 144 -154v-230q15 -17 38 -27.5t48 -10.5q36 0 50.5 17t14.5 56v339h188v-359q0 -90 -49.5 -140.5t-134.5 -50.5q-50 0 -89 13.5t-73 38.5l-7 -42h-172v359
q0 29 -6 41.5t-25 12.5q-24 0 -34 -32h-56q-8 18 -14 25t-20 7q-29 0 -38 -42t-9 -119q0 -69 20.5 -97t66.5 -28q39 0 60 8v-127q-41 -18 -105 -18q-109 0 -171.5 63z" />
    <glyph glyph-name="uni0E13" unicode="&#xe13;" horiz-adv-x="957" 
d="M434.5 40.5q-49.5 50.5 -49.5 140.5v138q0 52 -21.5 73t-76.5 21q-59 0 -102 -31v-8l105 -33v-88q-32 -9 -46 -26t-14 -48v-26q0 -31 31 -31h41v-122h-155q-48 0 -76.5 29t-28.5 76v65q0 42 18 74t56 45l-91 28v142q121 91 273 91q142 0 207.5 -57.5t65.5 -167.5v-124
q1 -39 16 -56t50 -17q25 0 48.5 10.5t38.5 27.5v374h188v-540h-174l-7 42q-34 -25 -73 -38.5t-89 -13.5q-85 0 -134.5 50.5z" />
    <glyph glyph-name="uni0E14" unicode="&#xe14;" horiz-adv-x="660" 
d="M87.5 53q-62.5 63 -62.5 199q0 146 75.5 222t228.5 76q97 0 161 -30.5t94.5 -80.5t30.5 -111v-328h-188v311q0 51 -22 76.5t-80 25.5q-57 0 -82.5 -38t-25.5 -123q0 -69 20.5 -97t66.5 -28q39 0 60 8v-127q-41 -18 -105 -18q-109 0 -171.5 63z" />
    <glyph glyph-name="uni0E15" unicode="&#xe15;" horiz-adv-x="660" 
d="M87.5 53q-62.5 63 -62.5 199q0 147 49.5 222.5t146.5 75.5q39 0 66 -12.5t48 -38.5q23 24 59 37.5t73 13.5q78 0 113 -41t35 -113v-396h-188v359q0 29 -7 41.5t-26 12.5q-13 0 -22 -8.5t-14 -23.5h-56q-8 17 -15 24.5t-21 7.5q-29 0 -39 -43t-10 -118q0 -69 20.5 -97
t66.5 -28q39 0 60 8v-127q-41 -18 -105 -18q-109 0 -171.5 63z" />
    <glyph glyph-name="uni0E16" unicode="&#xe16;" horiz-adv-x="632" 
d="M70.5 29q-28.5 29 -28.5 76v65q0 42 18 74t56 45l-91 28v142q52 39 124 65t156 26q143 0 212.5 -58t69.5 -167v-325h-188v319q0 51 -24.5 72.5t-80.5 21.5q-32 0 -61 -8.5t-48 -22.5v-8l105 -33v-88q-32 -9 -46 -26t-14 -48v-26q0 -31 31 -31h41v-122h-155
q-48 0 -76.5 29z" />
    <glyph glyph-name="uni0E17" unicode="&#xe17;" horiz-adv-x="631" 
d="M45 540h174l7 -42q33 24 77.5 38t95.5 14q85 0 136 -50.5t51 -140.5v-359h-188v339q0 38 -17 55.5t-55 17.5q-28 0 -53 -11t-40 -27v-374h-188v540z" />
    <glyph glyph-name="uni0E18" unicode="&#xe18;" horiz-adv-x="550" 
d="M144.5 2.5q-65.5 12.5 -110.5 32.5v189h163v-91q12 -5 33 -8t40 -3q43 0 62.5 11.5t19.5 38.5q0 25 -27 37.5t-99 29.5l-40 9q-81 20 -121 51.5t-40 92.5q0 76 63.5 117t195.5 41q65 0 122 -7t89 -18v-136q-32 13 -82 20.5t-95 7.5q-53 0 -79.5 -4.5t-26.5 -22.5
q0 -14 22 -22t74 -20q37 -7 65 -15q80 -21 116 -57t36 -107q0 -87 -64 -133t-181 -46q-70 0 -135.5 12.5z" />
    <glyph glyph-name="uni0E19" unicode="&#xe19;" horiz-adv-x="631" 
d="M96 40.5q-51 50.5 -51 140.5v359h188v-339q0 -38 17 -55.5t55 -17.5q28 0 53 11t40 27v374h188v-540h-174l-7 42q-33 -24 -77.5 -38t-95.5 -14q-85 0 -136 50.5z" />
    <glyph glyph-name="uni0E1A" unicode="&#xe1a;" horiz-adv-x="644" 
d="M119.5 51q-74.5 61 -74.5 179v310h188v-318q0 -50 21 -72.5t68 -22.5t68 22.5t21 72.5v318h188v-310q0 -118 -74.5 -179t-202.5 -61t-202.5 61z" />
    <glyph glyph-name="uni0E1B" unicode="&#xe1b;" horiz-adv-x="644" 
d="M119.5 51q-74.5 61 -74.5 179v310h188v-318q0 -50 21 -72.5t68 -22.5t68 22.5t21 72.5v478h188v-470q0 -118 -74.5 -179t-202.5 -61t-202.5 61z" />
    <glyph glyph-name="uni0E1C" unicode="&#xe1c;" horiz-adv-x="650" 
d="M45 443q0 43 22 70t63 27h156l7 -126h-48q-35 0 -35 -37v-149l85 147h61l84 -147v312h165v-540h-164l-116 211l-116 -211h-164v443z" />
    <glyph glyph-name="uni0E1D" unicode="&#xe1d;" horiz-adv-x="650" 
d="M45 443q0 43 22 70t63 27h156l7 -126h-48q-35 0 -35 -37v-149l85 147h61l84 -147v472h165v-700h-164l-116 211l-116 -211h-164v443z" />
    <glyph glyph-name="uni0E1E" unicode="&#xe1e;" horiz-adv-x="739" 
d="M15 540h168l62 -290l51 186v104h131l70 -290l60 290h167l-129 -540h-156l-67 243l-73 -243h-156z" />
    <glyph glyph-name="uni0E1F" unicode="&#xe1f;" horiz-adv-x="739" 
d="M15 540h168l62 -290l51 186v104h131l70 -290l82 450h167l-151 -700h-156l-67 243l-73 -243h-156z" />
    <glyph glyph-name="uni0E20" unicode="&#xe20;" horiz-adv-x="662" 
d="M25 122h26q16 0 23 7.5t7 23.5v26q0 42 14 69t51 41l-91 28v142q52 39 124 65t156 26q143 0 212.5 -58t69.5 -167v-325h-188v319q0 51 -24.5 72.5t-80.5 21.5q-32 0 -61 -8.5t-48 -22.5v-8l105 -33v-88q-28 -9 -37.5 -26t-9.5 -53v-55q0 -59 -31 -89t-89 -30h-128v122z
" />
    <glyph glyph-name="uni0E21" unicode="&#xe21;" horiz-adv-x="631" 
d="M226 42l-7 -42h-174v540h188v-374q15 -16 40 -27t53 -11q38 0 55 17.5t17 55.5v339h188v-359q0 -90 -52.5 -140.5t-138.5 -50.5q-99 0 -169 52z" />
    <glyph glyph-name="uni0E22" unicode="&#xe22;" horiz-adv-x="636" 
d="M104 36.5q-74 46.5 -74 135.5q0 34 14.5 62t41.5 46q-24 15 -39 43t-15 65q0 80 53 121t146 41q62 0 106 -16v-128q-28 7 -59 7q-27 0 -40.5 -8t-13.5 -29q0 -22 13 -30t40 -8h50l6 -120h-57q-28 0 -41 -11t-13 -35q0 -23 20 -34t67 -11q94 0 94 74v339h188v-332
q0 -110 -72 -164t-207 -54q-134 0 -208 46.5z" />
    <glyph glyph-name="uni0E23" unicode="&#xe23;" horiz-adv-x="503" 
d="M120.5 -1.5q-56.5 8.5 -88.5 22.5v143q37 -17 83 -27t86 -10q49 0 67 6.5t18 23.5t-17 27t-70 29l-35 13q-73 27 -106 62t-33 95q0 76 61 121.5t179 45.5q48 0 99.5 -7t83.5 -17v-141q-31 13 -72 20.5t-73 7.5q-43 0 -64.5 -6.5t-21.5 -26.5q0 -14 14 -22.5t50 -20.5
q25 -8 53 -19q60 -23 90 -44t42 -48.5t12 -72.5q0 -77 -62.5 -120t-177.5 -43q-61 0 -117.5 8.5z" />
    <glyph glyph-name="uni0E24" unicode="&#xe24;" horiz-adv-x="632" 
d="M399 319q0 51 -24.5 72.5t-80.5 21.5q-32 0 -61 -8.5t-48 -22.5v-8l105 -33v-88q-32 -9 -46 -26t-14 -48v-26q0 -31 31 -31h41v-122h-155q-48 0 -76.5 29t-28.5 76v65q0 42 18 74t56 45l-91 28v142q52 39 124 65t156 26q143 0 212.5 -58t69.5 -167v-485h-188v479z" />
    <glyph glyph-name="uni0E25" unicode="&#xe25;" horiz-adv-x="605" 
d="M75.5 32.5q-50.5 42.5 -50.5 131.5q0 85 55.5 130.5t155.5 45.5h136v14q0 30 -27.5 44.5t-83.5 14.5q-93 0 -185 -28v130q44 16 104.5 25.5t117.5 9.5q129 0 195.5 -55.5t66.5 -166.5v-328h-188v212h-93q-35 0 -51.5 -10.5t-16.5 -38.5q0 -27 14 -37.5t45 -10.5
q29 0 51 6v-116q-40 -15 -112 -15q-83 0 -133.5 42.5z" />
    <glyph glyph-name="uni0E26" unicode="&#xe26;" horiz-adv-x="662" 
d="M429 319q0 51 -24.5 72.5t-80.5 21.5q-32 0 -61 -8.5t-48 -22.5v-8l105 -33v-88q-28 -9 -37.5 -26t-9.5 -53v-55q0 -59 -31 -89t-89 -30h-128v122h26q16 0 23 7.5t7 23.5v26q0 42 14 69t51 41l-91 28v142q52 39 124 65t156 26q143 0 212.5 -58t69.5 -167v-485h-188v479z
" />
    <glyph glyph-name="uni0E27" unicode="&#xe27;" horiz-adv-x="537" 
d="M25 26v137q34 -17 74 -26.5t77 -9.5q75 0 109.5 35t34.5 108q0 72 -34.5 107.5t-108.5 35.5q-39 0 -78.5 -8t-72.5 -24v133q88 36 197 36q145 0 217 -68.5t72 -211.5t-72.5 -211.5t-217.5 -68.5q-119 0 -197 36z" />
    <glyph glyph-name="uni0E28" unicode="&#xe28;" horiz-adv-x="673" 
d="M45 320q0 113 71.5 171.5t204.5 58.5q48 0 98 -10h229l-9 -137h-62q9 -16 14 -41.5t5 -49.5v-312h-188v325q0 42 -22 65t-65 23q-88 0 -88 -88v-60q13 9 33 14t41 5h52l5 -147h-59q-44 0 -72 -16v-121h-188v320z" />
    <glyph glyph-name="uni0E29" unicode="&#xe29;" horiz-adv-x="659" 
d="M119.5 51q-74.5 61 -74.5 179v310h188v-318q0 -50 21 -72.5t68 -22.5t68 22.5t21 72.5v44h-87v147h87v127h188v-127h60l-12 -147h-48v-36q0 -118 -74.5 -179t-202.5 -61t-202.5 61z" />
    <glyph glyph-name="uni0E2A" unicode="&#xe2a;" horiz-adv-x="624" 
d="M75.5 32.5q-50.5 42.5 -50.5 131.5q0 85 55.5 130.5t155.5 45.5h136v14q0 30 -27.5 44.5t-83.5 14.5q-93 0 -185 -28v130q44 16 104.5 25.5t117.5 9.5q50 0 98 -10h213l-9 -137h-57q8 -15 12.5 -39.5t4.5 -48.5v-315h-188v212h-93q-35 0 -51.5 -10.5t-16.5 -38.5
q0 -27 14 -37.5t45 -10.5q29 0 51 6v-116q-40 -15 -112 -15q-83 0 -133.5 42.5z" />
    <glyph glyph-name="uni0E2B" unicode="&#xe2b;" horiz-adv-x="620" 
d="M45 540h188v-146h89q36 0 51 17t15 52v77h188v-89q0 -98 -64 -128q62 -30 62 -118v-205h-188v178q0 37 -15 53t-51 16h-87v-247h-188v540z" />
    <glyph glyph-name="uni0E2C" unicode="&#xe2c;" horiz-adv-x="803" 
d="M45 540h168l62 -300l56 156v104h121l75 -260l33 190q4 20 4 39q0 21 -9.5 30t-33.5 9h-30l19 110h40q31 0 43 11.5t19 43.5l6 27h160l-10 -49q-8 -39 -26.5 -62t-49.5 -32q36 -22 36 -74q0 -20 -6 -46l-97 -437h-156l-67 208l-73 -208h-156z" />
    <glyph glyph-name="uni0E2D" unicode="&#xe2d;" horiz-adv-x="599" 
d="M140 2.5q-66 12.5 -110 32.5v287h252l7 -123h-73v-64q25 -8 57 -8q62 0 85.5 31.5t23.5 108.5q0 57 -15.5 88.5t-49 44.5t-90.5 13q-44 0 -95 -7t-96 -21v130q50 17 114.5 26t121.5 9q155 0 228.5 -71t73.5 -212q0 -139 -72 -208t-227 -69q-69 0 -135 12.5z" />
    <glyph glyph-name="uni0E2E" unicode="&#xe2e;" horiz-adv-x="639" 
d="M140 2.5q-66 12.5 -110 32.5v287h252l7 -123h-73v-64q25 -8 57 -8q62 0 85.5 31.5t23.5 108.5q0 57 -15.5 88.5t-49 44.5t-90.5 13q-44 0 -95 -7t-96 -21v130q50 17 114.5 26t121.5 9q53 0 105 -10h237l-9 -137h-61q30 -49 30 -136q0 -139 -72 -208t-227 -69
q-69 0 -135 12.5z" />
    <glyph glyph-name="uni0E2F" unicode="&#xe2f;" horiz-adv-x="599" 
d="M366 225q-23 -12 -56.5 -20t-69.5 -8q-101 0 -158 47.5t-57 138.5q0 95 57 157h179q-23 -33 -33.5 -62.5t-10.5 -62.5q0 -81 73 -81q47 0 76 23v183h188v-540h-188v225z" />
    <glyph glyph-name="uni0E30" unicode="&#xe30;" horiz-adv-x="325" 
d="M25 479h142v-48h133l-6 -128h-269v176zM25 220h142v-48h133l-6 -128h-269v176z" />
    <glyph glyph-name="uni0E31" unicode="&#xe31;" 
d="M-341 781h141v-66h239l-6 -119h-374v185z" />
    <glyph glyph-name="uni0E32" unicode="&#xe32;" horiz-adv-x="448" 
d="M215 321q0 50 -19 71t-67 21q-62 0 -129 -27v128q31 16 78 26t93 10q120 0 176 -53t56 -162v-335h-188v321z" />
    <glyph glyph-name="uni0E33" unicode="&#xe33;" horiz-adv-x="448" 
d="M-237.5 610.5q-39.5 36.5 -39.5 92.5t39.5 92.5t97.5 36.5t97 -36.5t39 -92.5t-39 -92.5t-97 -36.5t-97.5 36.5zM-113.5 676.5q11.5 11.5 11.5 26.5t-11.5 26.5t-26.5 11.5q-16 0 -27.5 -11.5t-11.5 -26.5t11.5 -26.5t27.5 -11.5q15 0 26.5 11.5zM215 321q0 50 -19 71
t-67 21q-62 0 -129 -27v128q31 16 78 26t93 10q120 0 176 -53t56 -162v-335h-188v321z" />
    <glyph glyph-name="uni0E34" unicode="&#xe34;" 
d="M-513 722h468v-125h-477z" />
    <glyph glyph-name="uni0E35" unicode="&#xe35;" 
d="M-513 722h317v76h151v-201h-477z" />
    <glyph glyph-name="uni0E36" unicode="&#xe36;" 
d="M-513 722h252q6 41 35 66.5t79 25.5q53 0 82 -30t29 -78q0 -50 -32 -79.5t-86 -29.5h-368zM-118 676.5q11 11.5 11 28.5q0 18 -11.5 29.5t-28.5 11.5t-29 -11.5t-12 -29.5q0 -17 12 -28.5t29 -11.5q18 0 29 11.5z" />
    <glyph glyph-name="uni0E37" unicode="&#xe37;" 
d="M-513 722h161v76h129v-76h49v76h129v-201h-477z" />
    <glyph glyph-name="uni0E38" unicode="&#xe38;" 
d="M-198 -155h-59l6 116h205v-218h-152v102z" />
    <glyph glyph-name="uni0E39" unicode="&#xe39;" 
d="M-321 -243q-42 27 -42 69v27h-57l6 108h178v-87q0 -29 30 -29q32 0 32 29v87h129v-102q0 -56 -39 -92.5t-122 -36.5q-73 0 -115 27z" />
    <glyph glyph-name="uni0E3A" unicode="&#xe3a;" 
d="M-197.5 -182q-25.5 25 -25.5 62t25.5 62.5t62.5 25.5q38 0 63.5 -25.5t25.5 -62.5t-25.5 -62t-63.5 -25q-37 0 -62.5 25z" />
    <glyph glyph-name="uni0E3F" unicode="&#xe3f;" horiz-adv-x="647" 
d="M196 0h-151v644h151v86h155v-86h48q97 0 148.5 -46t51.5 -132q0 -48 -18 -83t-49 -55q45 -18 67.5 -49t22.5 -88q0 -91 -56 -141t-159 -50h-56v-86h-155v86zM348 387q69 0 69 62q0 32 -17.5 47.5t-56.5 15.5h-117v-125h122zM356 131q38 0 56 16t18 53q0 32 -18.5 47.5
t-59.5 15.5h-126v-132h130z" />
    <glyph glyph-name="uni0E40" unicode="&#xe40;" horiz-adv-x="330" 
d="M73.5 29q-28.5 29 -28.5 76v435h188v-387q0 -31 31 -31h41v-122h-155q-48 0 -76.5 29z" />
    <glyph glyph-name="uni0E41" unicode="&#xe41;" horiz-adv-x="603" 
d="M73.5 29q-28.5 29 -28.5 76v435h188v-387q0 -31 31 -31h31v-122h-145q-48 0 -76.5 29zM356.5 29q-28.5 29 -28.5 76v435h188v-387q0 -31 31 -31h31v-122h-145q-48 0 -76.5 29z" />
    <glyph glyph-name="uni0E42" unicode="&#xe42;" horiz-adv-x="332" 
d="M100.5 29q-28.5 29 -28.5 76v353q0 53 -22.5 83.5t-69.5 43.5v109h357v-122h-122q45 -33 45 -107v-312q0 -31 31 -31h41v-122h-155q-48 0 -76.5 29z" />
    <glyph glyph-name="uni0E43" unicode="&#xe43;" horiz-adv-x="314" 
d="M57.5 29q-28.5 29 -28.5 76v218q0 42 17 73t46 66q18 22 26.5 35.5t8.5 26.5q0 17 -13 26.5t-38 9.5q-54 0 -101 -29v124q72 42 174 42q82 0 126 -32t44 -94q0 -35 -13 -62t-38 -61q-26 -37 -38.5 -63.5t-12.5 -60.5v-171q0 -31 31 -31h41v-122h-155q-48 0 -76.5 29z" />
    <glyph glyph-name="uni0E44" unicode="&#xe44;" horiz-adv-x="321" 
d="M83.5 29q-28.5 29 -28.5 76v345q0 38 12.5 71.5t33.5 50.5h-121v122h346v-109q-45 -12 -64 -48.5t-19 -95.5v-288q0 -31 31 -31h41v-122h-155q-48 0 -76.5 29z" />
    <glyph glyph-name="uni0E45" unicode="&#xe45;" horiz-adv-x="448" 
d="M215 321q0 50 -19 71t-67 21q-62 0 -129 -27v128q31 16 78 26t93 10q120 0 176 -53t56 -162v-495h-188v481z" />
    <glyph glyph-name="uni0E46" unicode="&#xe46;" horiz-adv-x="645" 
d="M402 373q0 21 -6.5 30.5t-23.5 9.5q-25 0 -38 -32h-49q-6 16 -13.5 24t-20.5 8q-34 0 -34 -71q0 -36 16 -52t52 -16q40 0 61 8v-127q-41 -18 -111 -18q-99 0 -154.5 50.5t-55.5 146.5q0 97 46.5 156.5t128.5 59.5q36 0 62.5 -12t48.5 -39q23 26 57 38.5t71 12.5
q68 0 109.5 -39t41.5 -107v-404h-188v373z" />
    <glyph glyph-name="uni0E47" unicode="&#xe47;" 
d="M-477.5 629.5q-38.5 35.5 -38.5 97.5q0 61 39.5 98t110.5 37h263l-7 -95h-240q-48 0 -48 -41q0 -19 10.5 -28.5t29.5 -9.5q40 0 40 37v11h97v-11q0 -18 9 -26t28 -8h63v-95h-74q-55 0 -76 31q-13 -15 -42 -24t-60 -9q-66 0 -104.5 35.5z" />
    <glyph glyph-name="uni0E48" unicode="&#xe48;" 
d="M-234 765h188v-169h-188v169z" />
    <glyph glyph-name="uni0E49" unicode="&#xe49;" 
d="M-316 680h-77v121h196v-84h210l-7 -121h-322v84z" />
    <glyph glyph-name="uni0E4A" unicode="&#xe4a;" 
d="M-455 616q-36 29 -36 84q0 53 30.5 84.5t81.5 31.5q53 0 70 -34h1q9 16 28 25t43 9q51 0 75 -23t24 -61v-55h6q9 0 12.5 4t3.5 16v112h95v-117q0 -44 -26.5 -70t-72.5 -26h-108v105q0 16 -4.5 23t-15.5 7q-13 0 -17.5 -8t-4.5 -22v-10h-70v10q0 30 -21 30q-23 0 -23 -33
q0 -18 9.5 -25t28.5 -7h25v-79h-40q-58 0 -94 29z" />
    <glyph glyph-name="uni0E4B" unicode="&#xe4b;" 
d="M-260 631h-58v121h58v38h158v-38h58v-121h-58v-35h-158v35z" />
    <glyph glyph-name="uni0E4C" unicode="&#xe4c;" 
d="M-328 775h318l-6 -121h-174v-58h-138v179z" />
    <glyph glyph-name="uni0E4D" unicode="&#xe4d;" 
d="M-237.5 610.5q-39.5 36.5 -39.5 92.5t39.5 92.5t97.5 36.5t97 -36.5t39 -92.5t-39 -92.5t-97 -36.5t-97.5 36.5zM-113.5 676.5q11.5 11.5 11.5 26.5t-11.5 26.5t-26.5 11.5q-16 0 -27.5 -11.5t-11.5 -26.5t11.5 -26.5t27.5 -11.5q15 0 26.5 11.5z" />
    <glyph glyph-name="uni0E4E" unicode="&#xe4e;" 
d="M-327 673q0 34 21 53.5t54 25.5q-10 13 -10 38q0 30 29.5 49t91.5 19q18 0 38 -3t32 -8v-62q-11 6 -26 9t-27 3q-36 0 -36 -18q0 -9 8.5 -13.5t28.5 -7.5v-58q-18 9 -45 9q-20 0 -31 -5t-11 -18q0 -12 9 -16.5t28 -4.5q42 0 63 14v-67q-24 -16 -86 -16q-131 0 -131 77z
" />
    <glyph glyph-name="uni0E4F" unicode="&#xe4f;" horiz-adv-x="589" 
d="M159 26q-62 36 -98 97.5t-36 135.5q0 73 36 135t98 98.5t135 36.5t135 -36.5t98.5 -98.5t36.5 -135q0 -74 -36.5 -135.5t-98.5 -97.5t-135 -36t-135 36zM375 119q37 22 59 59t22 81t-22 81t-59 59t-81 22t-81 -22t-59 -59t-22 -81t22 -81t59 -59t81 -22t81 22z
M208.5 173.5q-35.5 35.5 -35.5 85.5t35.5 85.5t85.5 35.5t85.5 -35.5t35.5 -85.5t-35.5 -85.5t-85.5 -35.5t-85.5 35.5zM322.5 231q11.5 11 11.5 28t-11.5 28t-28.5 11q-16 0 -27.5 -11t-11.5 -28q0 -16 11.5 -27.5t27.5 -11.5q17 0 28.5 11z" />
    <glyph glyph-name="uni0E50" unicode="&#xe50;" horiz-adv-x="606" 
d="M100.5 51.5q-75.5 61.5 -75.5 185.5q0 122 76.5 184.5t201.5 62.5t201.5 -62.5t76.5 -184.5q0 -124 -75.5 -185.5t-202.5 -61.5t-202.5 61.5zM378.5 155q25.5 26 25.5 82t-25.5 82t-75.5 26t-75.5 -26t-25.5 -82t25.5 -82t75.5 -26t75.5 26z" />
    <glyph glyph-name="uni0E51" unicode="&#xe51;" horiz-adv-x="631" 
d="M300 29q52 15 80.5 40.5t38.5 62t10 91.5q0 61 -28 91.5t-89 30.5q-57 0 -83.5 -19.5t-26.5 -63.5q0 -38 18.5 -55.5t57.5 -17.5q20 0 40 4.5t34 12.5v-120q-21 -13 -53.5 -20.5t-69.5 -7.5q-98 0 -151 51.5t-53 150.5q0 110 73.5 167t213.5 57q294 0 294 -266
q0 -124 -79 -211t-227 -116v138z" />
    <glyph glyph-name="uni0E52" unicode="&#xe52;" horiz-adv-x="724" 
d="M132.5 53.5q-87.5 63.5 -87.5 186.5v300h150v-273q0 -76 41.5 -118.5t142.5 -42.5q79 0 115.5 31.5t36.5 82.5v112q0 17 -6.5 25t-21.5 8q-16 0 -21 -11.5t-6 -34.5h-74q0 46 -26 46q-32 0 -32 -58q0 -27 14 -38.5t47 -11.5q30 0 54 9v-98q-34 -17 -87 -17q-74 0 -113 37
t-39 120q0 92 32 134t93 42q34 0 57 -11t39 -36q38 47 111 47q127 0 127 -140v-114q0 -109 -75 -174.5t-225 -65.5q-159 0 -246.5 63.5z" />
    <glyph glyph-name="uni0E53" unicode="&#xe53;" horiz-adv-x="653" 
d="M84 47q-59 57 -59 178q0 130 50.5 194.5t133.5 64.5q37 0 65 -12.5t51 -39.5q24 26 58 39t71 13q70 0 112 -40t42 -108v-336h-168v297q0 20 -8 28t-25 8q-15 0 -23.5 -9.5t-8.5 -25.5v-68h-106v70q0 15 -9 24t-24 9q-25 0 -36.5 -26.5t-11.5 -83.5q0 -54 23.5 -75
t76.5 -21q45 0 67 7v-128q-42 -16 -106 -16q-106 0 -165 57z" />
    <glyph glyph-name="uni0E54" unicode="&#xe54;" horiz-adv-x="617" 
d="M89 47q-64 57 -64 175q0 128 83 195t249 67q87 0 140.5 8.5t96.5 33.5v-130q-76 -40 -228 -40q-85 0 -124.5 -31.5t-39.5 -102.5q0 -53 21.5 -79.5t58.5 -26.5q11 0 17 2q-3 20 -3 41q0 73 43.5 111t126.5 38q37 0 63 -4.5t53 -16.5v-105q-37 15 -73 15q-58 0 -58 -39
q0 -26 18 -32t63 -6h80v-120h-104q-72 0 -117 17q-54 -27 -127 -27q-111 0 -175 57z" />
    <glyph glyph-name="uni0E55" unicode="&#xe55;" horiz-adv-x="617" 
d="M25 211q0 77 47.5 137.5t126.5 83.5q-14 3 -31.5 11t-25.5 14v109q33 -29 103 -55.5t122 -26.5q81 0 133 9t94 33v-130q-76 -40 -228 -40q-83 0 -123.5 -36t-40.5 -109q0 -52 21 -73.5t59 -21.5q11 0 17 2q-3 20 -3 41q0 73 43.5 111t126.5 38q37 0 63 -4.5t53 -16.5
v-105q-37 15 -73 15q-58 0 -58 -39q0 -26 18 -32t63 -6h80v-120h-104q-72 0 -117 17q-54 -27 -127 -27q-239 0 -239 221z" />
    <glyph glyph-name="uni0E56" unicode="&#xe56;" horiz-adv-x="639" 
d="M132 34v135q75 -40 174 -40q63 0 97 26.5t34 81.5q0 51 -27 79.5t-78 28.5q-46 0 -76.5 -26t-39.5 -74h-112l-99 295h156l39 -119q29 29 73.5 46t95.5 17q124 0 184.5 -67t60.5 -180q0 -118 -77 -182.5t-214 -64.5q-112 0 -191 44z" />
    <glyph glyph-name="uni0E57" unicode="&#xe57;" horiz-adv-x="847" 
d="M84 47.5q-59 57.5 -59 177.5q0 130 48.5 194.5t130.5 64.5q39 0 65.5 -12.5t49.5 -39.5q48 52 125 52q71 0 105.5 -37t34.5 -106v-205h13q30 0 41 12.5t11 46.5v345h153v-322q0 -112 -49 -165t-162 -53h-156v297q0 20 -7 28t-25 8q-14 0 -22.5 -9.5t-8.5 -25.5v-68h-112
v69q0 34 -28 34q-25 0 -34.5 -27.5t-9.5 -82.5q0 -56 23.5 -76t74.5 -20q48 0 69 8v-127q-39 -18 -106 -18q-106 0 -165 57.5z" />
    <glyph glyph-name="uni0E58" unicode="&#xe58;" horiz-adv-x="621" 
d="M70.5 50.5q-45.5 60.5 -45.5 172.5q0 129 82 195t245 66q89 0 144 8.5t99 33.5v-130q-76 -40 -239 -40q-67 0 -103 -11.5t-52 -40t-16 -81.5q0 -61 11 -83.5t36 -22.5q18 0 28.5 9.5t10.5 25.5v72h109v-73q0 -16 11 -25t27 -9q27 0 39 15v72h-45l8 104h176v-262
q-25 -29 -57.5 -42.5t-82.5 -13.5q-84 0 -128 51q-23 -27 -53.5 -39t-74.5 -12q-84 0 -129.5 60.5z" />
    <glyph glyph-name="uni0E59" unicode="&#xe59;" horiz-adv-x="746" 
d="M77.5 48.5q-52.5 58.5 -52.5 177.5q0 130 49.5 194t143.5 64q42 0 68.5 -13.5t41.5 -40.5q17 26 48.5 40t69.5 14q58 0 92.5 -28t34.5 -70v-9h4q21 0 28.5 12t7.5 52v79h128v-49q0 -84 -16.5 -130.5t-55 -66.5t-107.5 -20h-84v42q0 29 -6.5 41t-25.5 12q-29 0 -29 -30
q0 -12 4 -24l88 -295h-152l-94 314q-6 19 -14 27t-26 8q-23 0 -33 -29t-10 -98q0 -61 16 -85t50 -24q22 0 44 7v-123q-29 -7 -72 -7q-88 0 -140.5 58.5z" />
    <glyph glyph-name="uni0E5A" unicode="&#xe5a;" horiz-adv-x="923" 
d="M366 225q-23 -12 -56.5 -20t-69.5 -8q-101 0 -158 47.5t-57 138.5q0 95 57 157h179q-23 -33 -33.5 -62.5t-10.5 -62.5q0 -81 73 -81q47 0 76 23v183h188v-178q10 -13 27 -20.5t37 -7.5q23 0 39.5 5.5t32.5 17.5v183h188v-540h-188v221q-36 -24 -81 -24q-33 0 -55 13v-210
h-188v225z" />
    <glyph glyph-name="uni0E5B" unicode="&#xe5b;" horiz-adv-x="1156" 
d="M102 91.5q-77 69.5 -77 195.5q0 76 28.5 135.5t82.5 93.5t130 34q111 0 167.5 -49.5t56.5 -137.5q0 -84 -43.5 -128.5t-126.5 -58.5v102q32 13 44 30.5t12 49.5q0 38 -26 59.5t-75 21.5q-57 0 -86.5 -38.5t-29.5 -106.5q0 -77 38.5 -118t111.5 -41q105 0 164 56t59 158
q0 65 -8 119h120q37 -56 62 -136h2q9 25 17 59.5t10 59.5h85q25 -53 40 -114h2q8 20 15 47t9 49h74q9 -17 18 -45t14 -51h2q15 38 15 79h79q2 -26 -4 -50h47l-6 -94h-65q-12 -39 -37 -75h-63q-3 14 -10.5 33.5t-13.5 30.5h-2q-3 -18 -10.5 -45t-15.5 -43h-89
q-4 24 -14.5 52.5t-21.5 50.5h-2q-9 -64 -31 -125h-88q-9 71 -33 127h-2q-9 -77 -50.5 -135t-110.5 -89.5t-157 -31.5q-130 0 -207 69.5z" />
    <glyph glyph-name="uni1E0C" unicode="&#x1e0c;" horiz-adv-x="671" 
d="M45 644h288q154 0 233.5 -77.5t79.5 -248.5q0 -163 -79.5 -240.5t-233.5 -77.5h-288v644zM309 144q50 0 81 14.5t47.5 52t16.5 107.5q0 71 -15 110.5t-46.5 55.5t-83.5 16h-76v-356h76zM215 -77h130v-120h-130v120z" />
    <glyph glyph-name="uni1E0D" unicode="&#x1e0d;" horiz-adv-x="607" 
d="M82.5 45q-57.5 55 -57.5 177q0 84 30.5 143t82 89t114.5 30q33 0 65.5 -7t56.5 -20v217h188v-674h-163l-9 37q-30 -23 -64.5 -35t-79.5 -12q-106 0 -163.5 55zM374 155v168q-28 25 -74 25q-38 0 -60.5 -33.5t-22.5 -93.5q0 -39 8.5 -59.5t26 -28t48.5 -7.5q43 0 74 29z
M273 -77h130v-120h-130v120z" />
    <glyph glyph-name="uni1E0E" unicode="&#x1e0e;" horiz-adv-x="671" 
d="M45 644h288q154 0 233.5 -77.5t79.5 -248.5q0 -163 -79.5 -240.5t-233.5 -77.5h-288v644zM309 144q50 0 81 14.5t47.5 52t16.5 107.5q0 71 -15 110.5t-46.5 55.5t-83.5 16h-76v-356h76zM163 -64h328v-112h-328v112z" />
    <glyph glyph-name="uni1E0F" unicode="&#x1e0f;" horiz-adv-x="607" 
d="M82.5 45q-57.5 55 -57.5 177q0 84 30.5 143t82 89t114.5 30q33 0 65.5 -7t56.5 -20v217h188v-674h-163l-9 37q-30 -23 -64.5 -35t-79.5 -12q-106 0 -163.5 55zM374 155v168q-28 25 -74 25q-38 0 -60.5 -33.5t-22.5 -93.5q0 -39 8.5 -59.5t26 -28t48.5 -7.5q43 0 74 29z
M145 -63h328v-112h-328v112z" />
    <glyph glyph-name="uni1E20" unicode="&#x1e20;" horiz-adv-x="651" 
d="M213 829h328v-112h-328v112zM115.5 74q-90.5 84 -90.5 242q0 163 93.5 250.5t271.5 87.5q115 0 200 -28v-161q-78 29 -187 29q-94 0 -140 -42.5t-46 -135.5q0 -86 39.5 -126t120.5 -40q48 0 92 13v94h-128v116h285v-324q-41 -26 -103.5 -42.5t-145.5 -16.5
q-171 0 -261.5 84z" />
    <glyph glyph-name="uni1E21" unicode="&#x1e21;" horiz-adv-x="565" 
d="M115 663h328v-112h-328v112zM134 -169.5q-61 6.5 -95 18.5v120q38 -13 95 -20t108 -7q56 0 85 5.5t29 19.5q0 12 -10 15.5t-38 3.5h-125q-74 0 -113 23.5t-39 70.5q0 32 18.5 55.5t54.5 36.5q-41 21 -60 53t-19 81q0 178 243 178q23 0 54 -3.5t47 -6.5h186l-4 -114h-63
q18 -23 18 -56q0 -75 -44 -116.5t-132 -41.5q-22 0 -56 4q-54 -6 -54 -28q0 -10 8 -13.5t26 -3.5h109q74 0 115.5 -34.5t41.5 -99.5q0 -71 -66.5 -109t-200.5 -38q-58 0 -119 6.5zM330 263.5q17 14.5 17 50.5t-17.5 51.5t-60.5 15.5q-41 0 -59.5 -15.5t-18.5 -51.5
q0 -34 17.5 -49.5t60.5 -15.5q44 0 61 14.5z" />
    <glyph glyph-name="uni1E24" unicode="&#x1e24;" horiz-adv-x="688" 
d="M45 644h188v-240h222v240h188v-644h-188v240h-222v-240h-188v644zM280 -77h130v-120h-130v120z" />
    <glyph glyph-name="uni1E25" unicode="&#x1e25;" horiz-adv-x="604" 
d="M45 674h188v-229q26 17 64 28t79 11q97 0 142.5 -45.5t45.5 -140.5v-298h-189v284q0 33 -14 47t-48 14q-21 0 -43 -9.5t-37 -24.5v-311h-188v674zM241 -77h130v-120h-130v120z" />
    <glyph glyph-name="uni1E2A" unicode="&#x1e2a;" horiz-adv-x="688" 
d="M45 644h188v-240h222v240h188v-644h-188v240h-222v-240h-188v644zM207.5 -188q-51.5 49 -51.5 138h122q0 -84 67 -84q68 0 68 84h122q0 -89 -51.5 -138t-138.5 -49q-86 0 -137.5 49z" />
    <glyph glyph-name="uni1E2B" unicode="&#x1e2b;" horiz-adv-x="604" 
d="M45 674h188v-229q26 17 64 28t79 11q97 0 142.5 -45.5t45.5 -140.5v-298h-189v284q0 33 -14 47t-48 14q-21 0 -43 -9.5t-37 -24.5v-311h-188v674zM165.5 -188q-51.5 49 -51.5 138h122q0 -84 67 -84q68 0 68 84h122q0 -89 -51.5 -138t-138.5 -49q-86 0 -137.5 49z" />
    <glyph glyph-name="uni1E36" unicode="&#x1e36;" horiz-adv-x="528" 
d="M45 644h188v-500h290v-144h-478v644zM212 -56h130v-120h-130v120z" />
    <glyph glyph-name="uni1E37" unicode="&#x1e37;" horiz-adv-x="319" 
d="M82.5 26.5q-37.5 36.5 -37.5 116.5v531h188v-510q0 -21 8.5 -29t28.5 -8q29 0 49 8v-125q-27 -11 -51.5 -15.5t-61.5 -4.5q-86 0 -123.5 36.5zM127 -56h130v-120h-130v120z" />
    <glyph glyph-name="uni1E38" unicode="&#x1e38;" horiz-adv-x="528" 
d="M-23 829h328v-112h-328v112zM45 644h188v-500h290v-144h-478v644zM212 -56h130v-120h-130v120z" />
    <glyph glyph-name="uni1E39" unicode="&#x1e39;" horiz-adv-x="319" 
d="M-21 838h328v-112h-328v112zM82.5 26.5q-37.5 36.5 -37.5 116.5v531h188v-510q0 -21 8.5 -29t28.5 -8q29 0 49 8v-125q-27 -11 -51.5 -15.5t-61.5 -4.5q-86 0 -123.5 36.5zM127 -56h130v-120h-130v120z" />
    <glyph glyph-name="uni1E3A" unicode="&#x1e3a;" horiz-adv-x="528" 
d="M45 644h188v-500h290v-144h-478v644zM118 -64h328v-112h-328v112z" />
    <glyph glyph-name="uni1E3B" unicode="&#x1e3b;" horiz-adv-x="319" 
d="M82.5 26.5q-37.5 36.5 -37.5 116.5v531h188v-510q0 -21 8.5 -29t28.5 -8q29 0 49 8v-125q-27 -11 -51.5 -15.5t-61.5 -4.5q-86 0 -123.5 36.5zM16 -64h328v-112h-328v112z" />
    <glyph glyph-name="uni1E42" unicode="&#x1e42;" horiz-adv-x="774" 
d="M45 644h183l160 -327l159 327h182v-644h-188v322l-103 -212h-101l-104 212v-322h-188v644zM323 -56h130v-120h-130v120z" />
    <glyph glyph-name="uni1E43" unicode="&#x1e43;" horiz-adv-x="861" 
d="M45 474h174l5 -38q70 48 154 48q44 0 71 -12.5t43 -38.5q73 51 168 51q83 0 122 -43.5t39 -132.5v-308h-185v286q0 32 -13 45.5t-43 13.5q-18 0 -35 -7.5t-29 -20.5q2 -17 2 -50v-267h-174v289q0 30 -10.5 43t-37.5 13q-35 0 -69 -34v-311h-182v474zM366 -56h130v-120
h-130v120z" />
    <glyph glyph-name="uni1E44" unicode="&#x1e44;" horiz-adv-x="681" 
d="M274 835h130v-120h-130v120zM45 644h160l243 -341v341h188v-644h-161l-242 340v-340h-188v644z" />
    <glyph glyph-name="uni1E45" unicode="&#x1e45;" horiz-adv-x="604" 
d="M241 670h130v-120h-130v120zM45 474h176l5 -36q29 20 74 33t93 13q89 0 130 -44t41 -136v-304h-188v285q0 32 -14.5 46t-48.5 14q-21 0 -43 -9.5t-37 -24.5v-311h-188v474z" />
    <glyph glyph-name="uni1E46" unicode="&#x1e46;" horiz-adv-x="681" 
d="M45 644h160l243 -341v341h188v-644h-161l-242 340v-340h-188v644zM276 -56h130v-120h-130v120z" />
    <glyph glyph-name="uni1E47" unicode="&#x1e47;" horiz-adv-x="604" 
d="M45 474h176l5 -36q29 20 74 33t93 13q89 0 130 -44t41 -136v-304h-188v285q0 32 -14.5 46t-48.5 14q-21 0 -43 -9.5t-37 -24.5v-311h-188v474zM247 -56h130v-120h-130v120z" />
    <glyph glyph-name="uni1E48" unicode="&#x1e48;" horiz-adv-x="681" 
d="M45 644h160l243 -341v341h188v-644h-161l-242 340v-340h-188v644zM183 -63h328v-112h-328v112z" />
    <glyph glyph-name="uni1E49" unicode="&#x1e49;" horiz-adv-x="604" 
d="M45 474h176l5 -36q29 20 74 33t93 13q89 0 130 -44t41 -136v-304h-188v285q0 32 -14.5 46t-48.5 14q-21 0 -43 -9.5t-37 -24.5v-311h-188v474zM143 -63h328v-112h-328v112z" />
    <glyph glyph-name="uni1E5A" unicode="&#x1e5a;" horiz-adv-x="635" 
d="M45 644h335q114 0 172 -62t58 -167q0 -64 -32 -113.5t-87 -76.5q11 -9 19 -21t18 -35l74 -169h-196l-68 155q-8 18 -19.5 25.5t-32.5 7.5h-53v-188h-188v644zM332 332q41 0 63.5 21.5t22.5 61.5q0 85 -80 85h-105v-168h99zM244 -56h130v-120h-130v120z" />
    <glyph glyph-name="uni1E5B" unicode="&#x1e5b;" horiz-adv-x="401" 
d="M45 474h181l5 -38q31 18 75.5 31.5t89.5 16.5v-140q-42 -3 -89 -13t-74 -23v-308h-188v474zM70 -56h130v-120h-130v120z" />
    <glyph glyph-name="uni1E5C" unicode="&#x1e5c;" horiz-adv-x="635" 
d="M128 829h328v-112h-328v112zM45 644h335q114 0 172 -62t58 -167q0 -64 -32 -113.5t-87 -76.5q11 -9 19 -21t18 -35l74 -169h-196l-68 155q-8 18 -19.5 25.5t-32.5 7.5h-53v-188h-188v644zM332 332q41 0 63.5 21.5t22.5 61.5q0 85 -80 85h-105v-168h99zM244 -56h130v-120
h-130v120z" />
    <glyph glyph-name="uni1E5D" unicode="&#x1e5d;" horiz-adv-x="401" 
d="M-4 663h328v-112h-328v112zM45 474h181l5 -38q31 18 75.5 31.5t89.5 16.5v-140q-42 -3 -89 -13t-74 -23v-308h-188v474zM70 -56h130v-120h-130v120z" />
    <glyph glyph-name="uni1E5E" unicode="&#x1e5e;" horiz-adv-x="635" 
d="M45 644h335q114 0 172 -62t58 -167q0 -64 -32 -113.5t-87 -76.5q11 -9 19 -21t18 -35l74 -169h-196l-68 155q-8 18 -19.5 25.5t-32.5 7.5h-53v-188h-188v644zM332 332q41 0 63.5 21.5t22.5 61.5q0 85 -80 85h-105v-168h99zM136 -64h328v-112h-328v112z" />
    <glyph glyph-name="uni1E5F" unicode="&#x1e5f;" horiz-adv-x="401" 
d="M45 474h181l5 -38q31 18 75.5 31.5t89.5 16.5v-140q-42 -3 -89 -13t-74 -23v-308h-188v474zM-18 -64h328v-112h-328v112z" />
    <glyph glyph-name="uni1E60" unicode="&#x1e60;" horiz-adv-x="555" 
d="M207 835h130v-120h-130v120zM132 0.5q-58 10.5 -98 29.5v155q46 -21 101 -34t102 -13q54 0 77.5 9.5t23.5 37.5q0 18 -11.5 29.5t-33.5 20t-70 23.5q-16 4 -24 7q-66 21 -103.5 46t-54 60.5t-16.5 88.5q0 95 68 144.5t200 49.5q51 0 107.5 -8.5t93.5 -20.5v-156
q-88 35 -171 35q-53 0 -79.5 -8t-26.5 -35q0 -17 11 -27t33.5 -17.5t76.5 -21.5q77 -21 118.5 -50.5t57.5 -67.5t16 -92q0 -90 -69.5 -142.5t-204.5 -52.5q-66 0 -124 10.5z" />
    <glyph glyph-name="uni1E61" unicode="&#x1e61;" horiz-adv-x="487" 
d="M167 669h130v-120h-130v120zM117 -1.5q-54 8.5 -86 21.5v135q33 -16 81 -25t85 -9q44 0 58.5 2.5t14.5 16.5q0 12 -15.5 19t-50.5 17l-50 16q-69 25 -99 56t-30 88q0 148 232 148q44 0 93 -7t79 -16v-132q-29 12 -64.5 18.5t-65.5 6.5q-41 0 -61.5 -3.5t-20.5 -16.5
q0 -11 13.5 -17t47.5 -15l44 -13q54 -16 84.5 -35t43 -45.5t12.5 -67.5q0 -73 -59 -112t-173 -39q-59 0 -113 8.5z" />
    <glyph glyph-name="uni1E62" unicode="&#x1e62;" horiz-adv-x="555" 
d="M132 0.5q-58 10.5 -98 29.5v155q46 -21 101 -34t102 -13q54 0 77.5 9.5t23.5 37.5q0 18 -11.5 29.5t-33.5 20t-70 23.5q-16 4 -24 7q-66 21 -103.5 46t-54 60.5t-16.5 88.5q0 95 68 144.5t200 49.5q51 0 107.5 -8.5t93.5 -20.5v-156q-88 35 -171 35q-53 0 -79.5 -8
t-26.5 -35q0 -17 11 -27t33.5 -17.5t76.5 -21.5q77 -21 118.5 -50.5t57.5 -67.5t16 -92q0 -90 -69.5 -142.5t-204.5 -52.5q-66 0 -124 10.5zM206 -56h130v-120h-130v120z" />
    <glyph glyph-name="uni1E63" unicode="&#x1e63;" horiz-adv-x="487" 
d="M117 -1.5q-54 8.5 -86 21.5v135q33 -16 81 -25t85 -9q44 0 58.5 2.5t14.5 16.5q0 12 -15.5 19t-50.5 17l-50 16q-69 25 -99 56t-30 88q0 148 232 148q44 0 93 -7t79 -16v-132q-29 12 -64.5 18.5t-65.5 6.5q-41 0 -61.5 -3.5t-20.5 -16.5q0 -11 13.5 -17t47.5 -15l44 -13
q54 -16 84.5 -35t43 -45.5t12.5 -67.5q0 -73 -59 -112t-173 -39q-59 0 -113 8.5zM183 -56h130v-120h-130v120z" />
    <glyph glyph-name="uni1E6C" unicode="&#x1e6c;" horiz-adv-x="560" 
d="M186 504h-181v140h550v-140h-181v-504h-188v504zM215 -56h130v-120h-130v120z" />
    <glyph glyph-name="uni1E6D" unicode="&#x1e6d;" horiz-adv-x="380" 
d="M111 36.5q-44 46.5 -44 131.5v167h-62v139h62v97l188 45v-142h109l-7 -139h-102v-153q0 -30 14.5 -42.5t46.5 -12.5q29 0 59 10v-125q-53 -22 -127 -22q-93 0 -137 46.5zM138 -56h130v-120h-130v120z" />
    <glyph glyph-name="uni1E6E" unicode="&#x1e6e;" horiz-adv-x="560" 
d="M186 504h-181v140h550v-140h-181v-504h-188v504zM115 -64h328v-112h-328v112z" />
    <glyph glyph-name="uni1E6F" unicode="&#x1e6f;" horiz-adv-x="380" 
d="M111 36.5q-44 46.5 -44 131.5v167h-62v139h62v97l188 45v-142h109l-7 -139h-102v-153q0 -30 14.5 -42.5t46.5 -12.5q29 0 59 10v-125q-53 -22 -127 -22q-93 0 -137 46.5zM23 -64h328v-112h-328v112z" />
    <glyph glyph-name="Wgrave" unicode="&#x1e80;" horiz-adv-x="891" 
d="M266 894h147l88 -206h-138zM25 644h184l73 -341l71 244v97h154l98 -342l77 342h184l-149 -644h-170l-97 333l-105 -333h-170z" />
    <glyph glyph-name="wgrave" unicode="&#x1e81;" horiz-adv-x="783" 
d="M217 728h147l88 -206h-138zM25 474h182l56 -235l55 167v68h138l66 -235l54 235h182l-125 -474h-168l-72 215l-72 -215h-171z" />
    <glyph glyph-name="Wacute" unicode="&#x1e82;" horiz-adv-x="891" 
d="M444 894h146l-96 -206h-138zM25 644h184l73 -341l71 244v97h154l98 -342l77 342h184l-149 -644h-170l-97 333l-105 -333h-170z" />
    <glyph glyph-name="wacute" unicode="&#x1e83;" horiz-adv-x="783" 
d="M402 728h146l-96 -206h-138zM25 474h182l56 -235l55 167v68h138l66 -235l54 235h182l-125 -474h-168l-72 215l-72 -215h-171z" />
    <glyph glyph-name="Wdieresis" unicode="&#x1e84;" horiz-adv-x="891" 
d="M277 835h131v-120h-131v120zM493 835h131v-120h-131v120zM25 644h184l73 -341l71 244v97h154l98 -342l77 342h184l-149 -644h-170l-97 333l-105 -333h-170z" />
    <glyph glyph-name="wdieresis" unicode="&#x1e85;" horiz-adv-x="783" 
d="M220 669h131v-120h-131v120zM436 669h131v-120h-131v120zM25 474h182l56 -235l55 167v68h138l66 -235l54 235h182l-125 -474h-168l-72 215l-72 -215h-171z" />
    <glyph glyph-name="uni1E8E" unicode="&#x1e8e;" horiz-adv-x="702" 
d="M286 835h130v-120h-130v120zM257 236l-232 408h196l130 -243l130 243h196l-232 -408v-236h-188v236z" />
    <glyph glyph-name="uni1E8F" unicode="&#x1e8f;" horiz-adv-x="642" 
d="M268 669h130v-120h-130v120zM136.5 -172q-27.5 4 -54.5 15v128q26 -10 61 -10q39 0 58 10t38 40l-214 463h197l111 -279l108 279h196l-175 -429q-44 -109 -104.5 -165t-153.5 -56q-40 0 -67.5 4z" />
    <glyph glyph-name="uni1E92" unicode="&#x1e92;" horiz-adv-x="578" 
d="M25 94l280 406h-265v144h512v-98l-277 -402h283v-144h-533v94zM222 -56h130v-120h-130v120z" />
    <glyph glyph-name="uni1E93" unicode="&#x1e93;" horiz-adv-x="495" 
d="M25 103l199 227h-192v144h431v-106l-193 -224h200v-144h-445v103zM172 -56h130v-120h-130v120z" />
    <glyph glyph-name="uni1E97" unicode="&#x1e97;" horiz-adv-x="380" 
d="M15 763h131v-120h-131v120zM231 763h131v-120h-131v120zM111 36.5q-44 46.5 -44 131.5v167h-62v139h62v97l188 45v-142h109l-7 -139h-102v-153q0 -30 14.5 -42.5t46.5 -12.5q29 0 59 10v-125q-53 -22 -127 -22q-93 0 -137 46.5z" />
    <glyph glyph-name="uni1E9E" unicode="&#x1e9e;" horiz-adv-x="640" 
d="M266 12v133q18 -7 42 -11.5t45 -4.5q37 0 53.5 13.5t16.5 42.5q0 26 -17 38t-53 12h-72v111l136 101q0 46 -98 46q-102 0 -102 -92v-401h-177v409q0 75 33.5 130t96 85t149.5 30q137 0 205.5 -65t68.5 -168l-134 -99h18q61 0 99.5 -40t38.5 -107q0 -87 -56.5 -136
t-155.5 -49q-84 0 -137 22z" />
    <glyph glyph-name="uni1EA0" unicode="&#x1ea0;" horiz-adv-x="743" 
d="M272 644h199l247 -644h-196l-54 137h-194l-53 -137h-196zM443 272l-72 189l-72 -189h144zM305 -56h130v-120h-130v120z" />
    <glyph glyph-name="uni1EA1" unicode="&#x1ea1;" horiz-adv-x="568" 
d="M72.5 28.5q-47.5 38.5 -47.5 113.5q0 76 50.5 117t150.5 41h123v9q0 28 -23.5 41t-80.5 13q-82 0 -162 -25v113q37 15 91 24t109 9q116 0 180.5 -47.5t64.5 -144.5v-292h-164l-9 38q-54 -48 -162 -48q-73 0 -120.5 38.5zM349 138v59h-91q-32 0 -47 -12t-15 -37
q0 -48 61 -48q57 0 92 38zM219 -56h130v-120h-130v120z" />
    <glyph glyph-name="uni1EA2" unicode="&#x1ea2;" horiz-adv-x="743" 
d="M300 769q49 3 68.5 13.5t19.5 30.5q0 33 -60 33q-27 0 -59 -8v78q44 14 115 14q67 0 104 -28t37 -73q0 -42 -20.5 -64.5t-63.5 -35.5v-41h-141v81zM272 644h199l247 -644h-196l-54 137h-194l-53 -137h-196zM443 272l-72 189l-72 -189h144z" />
    <glyph glyph-name="uni1EA3" unicode="&#x1ea3;" horiz-adv-x="568" 
d="M214 602q49 3 68.5 13.5t19.5 30.5q0 33 -60 33q-27 0 -59 -8v78q44 14 115 14q67 0 104 -28t37 -73q0 -42 -20.5 -64.5t-63.5 -35.5v-41h-141v81zM72.5 28.5q-47.5 38.5 -47.5 113.5q0 76 50.5 117t150.5 41h123v9q0 28 -23.5 41t-80.5 13q-82 0 -162 -25v113
q37 15 91 24t109 9q116 0 180.5 -47.5t64.5 -144.5v-292h-164l-9 38q-54 -48 -162 -48q-73 0 -120.5 38.5zM349 138v59h-91q-32 0 -47 -12t-15 -37q0 -48 61 -48q57 0 92 38z" />
    <glyph glyph-name="uni1EA4" unicode="&#x1ea4;" horiz-adv-x="743" 
d="M563 969h139l-78 -156h-132zM301 840h138l142 -152h-149l-62 79l-62 -79h-149zM272 644h199l247 -644h-196l-54 137h-194l-53 -137h-196zM443 272l-72 189l-72 -189h144z" />
    <glyph glyph-name="uni1EA5" unicode="&#x1ea5;" horiz-adv-x="568" 
d="M481 803h139l-78 -156h-132zM219 674h138l142 -152h-149l-62 79l-62 -79h-149zM72.5 28.5q-47.5 38.5 -47.5 113.5q0 76 50.5 117t150.5 41h123v9q0 28 -23.5 41t-80.5 13q-82 0 -162 -25v113q37 15 91 24t109 9q116 0 180.5 -47.5t64.5 -144.5v-292h-164l-9 38
q-54 -48 -162 -48q-73 0 -120.5 38.5zM349 138v59h-91q-32 0 -47 -12t-15 -37q0 -48 61 -48q57 0 92 38z" />
    <glyph glyph-name="uni1EA6" unicode="&#x1ea6;" horiz-adv-x="743" 
d="M42 968h139l71 -156h-132zM305 839h138l142 -152h-149l-62 79l-62 -79h-149zM272 644h199l247 -644h-196l-54 137h-194l-53 -137h-196zM443 272l-72 189l-72 -189h144z" />
    <glyph glyph-name="uni1EA7" unicode="&#x1ea7;" horiz-adv-x="568" 
d="M-30 803h139l71 -156h-132zM233 674h138l142 -152h-149l-62 79l-62 -79h-149zM72.5 28.5q-47.5 38.5 -47.5 113.5q0 76 50.5 117t150.5 41h123v9q0 28 -23.5 41t-80.5 13q-82 0 -162 -25v113q37 15 91 24t109 9q116 0 180.5 -47.5t64.5 -144.5v-292h-164l-9 38
q-54 -48 -162 -48q-73 0 -120.5 38.5zM349 138v59h-91q-32 0 -47 -12t-15 -37q0 -48 61 -48q57 0 92 38z" />
    <glyph glyph-name="uni1EA8" unicode="&#x1ea8;" horiz-adv-x="743" 
d="M502 863q41 1 56.5 9t15.5 22q0 22 -42 22q-25 0 -51 -7v72q41 12 99 12q59 0 89.5 -22.5t30.5 -63.5q0 -35 -18 -56.5t-55 -27.5v-33h-125v73zM301 840h138l142 -152h-149l-62 79l-62 -79h-149zM272 644h199l247 -644h-196l-54 137h-194l-53 -137h-196zM443 272l-72 189
l-72 -189h144z" />
    <glyph glyph-name="uni1EA9" unicode="&#x1ea9;" horiz-adv-x="568" 
d="M421 697q41 1 56.5 9t15.5 22q0 22 -42 22q-25 0 -51 -7v72q41 12 99 12q59 0 89.5 -22.5t30.5 -63.5q0 -35 -18 -56.5t-55 -27.5v-33h-125v73zM220 674h138l142 -152h-149l-62 79l-62 -79h-149zM72.5 28.5q-47.5 38.5 -47.5 113.5q0 76 50.5 117t150.5 41h123v9
q0 28 -23.5 41t-80.5 13q-82 0 -162 -25v113q37 15 91 24t109 9q116 0 180.5 -47.5t64.5 -144.5v-292h-164l-9 38q-54 -48 -162 -48q-73 0 -120.5 38.5zM349 138v59h-91q-32 0 -47 -12t-15 -37q0 -48 61 -48q57 0 92 38z" />
    <glyph glyph-name="uni1EAA" unicode="&#x1eaa;" horiz-adv-x="743" 
d="M428 860.5q-21 5.5 -52 16.5q-26 9 -44.5 14t-36.5 5q-59 0 -95 -38v105q14 14 39 23t53 9q22 0 41.5 -5t50.5 -16q26 -10 45.5 -15t38.5 -5q30 0 53.5 10.5t35.5 28.5v-106q-10 -13 -34 -22.5t-52 -9.5q-22 0 -43 5.5zM302 840h138l142 -152h-149l-62 79l-62 -79h-149z
M272 644h199l247 -644h-196l-54 137h-194l-53 -137h-196zM443 272l-72 189l-72 -189h144z" />
    <glyph glyph-name="uni1EAB" unicode="&#x1eab;" horiz-adv-x="568" 
d="M346 693.5q-21 5.5 -52 16.5q-26 9 -44.5 14t-36.5 5q-59 0 -95 -38v105q14 14 39 23t53 9q22 0 41.5 -5t50.5 -16q26 -10 45.5 -15t38.5 -5q30 0 53.5 10.5t35.5 28.5v-106q-10 -13 -34 -22.5t-52 -9.5q-22 0 -43 5.5zM220 673h138l142 -152h-149l-62 79l-62 -79h-149z
M72.5 28.5q-47.5 38.5 -47.5 113.5q0 76 50.5 117t150.5 41h123v9q0 28 -23.5 41t-80.5 13q-82 0 -162 -25v113q37 15 91 24t109 9q116 0 180.5 -47.5t64.5 -144.5v-292h-164l-9 38q-54 -48 -162 -48q-73 0 -120.5 38.5zM349 138v59h-91q-32 0 -47 -12t-15 -37q0 -48 61 -48
q57 0 92 38z" />
    <glyph glyph-name="uni1EAC" unicode="&#x1eac;" horiz-adv-x="743" 
d="M314 888h114l155 -200h-136l-76 108l-72 -108h-140zM272 644h199l247 -644h-196l-54 137h-194l-53 -137h-196zM443 272l-72 189l-72 -189h144zM306 -56h130v-120h-130v120z" />
    <glyph glyph-name="uni1EAD" unicode="&#x1ead;" horiz-adv-x="568" 
d="M239 722h114l155 -200h-136l-76 108l-72 -108h-140zM72.5 28.5q-47.5 38.5 -47.5 113.5q0 76 50.5 117t150.5 41h123v9q0 28 -23.5 41t-80.5 13q-82 0 -162 -25v113q37 15 91 24t109 9q116 0 180.5 -47.5t64.5 -144.5v-292h-164l-9 38q-54 -48 -162 -48
q-73 0 -120.5 38.5zM349 138v59h-91q-32 0 -47 -12t-15 -37q0 -48 61 -48q57 0 92 38zM231 -56h130v-120h-130v120z" />
    <glyph glyph-name="uni1EAE" unicode="&#x1eae;" horiz-adv-x="743" 
d="M383 1013h125l-83 -157h-108zM239 730.5q-49 42.5 -49 129.5h105q0 -37 20 -58.5t57 -21.5t56.5 21.5t19.5 58.5h105q0 -87 -48.5 -129.5t-132.5 -42.5t-133 42.5zM272 644h199l247 -644h-196l-54 137h-194l-53 -137h-196zM443 272l-72 189l-72 -189h144z" />
    <glyph glyph-name="uni1EAF" unicode="&#x1eaf;" horiz-adv-x="568" 
d="M294 847h125l-83 -157h-108zM150 564.5q-49 42.5 -49 129.5h105q0 -37 20 -58.5t57 -21.5t56.5 21.5t19.5 58.5h105q0 -87 -48.5 -129.5t-132.5 -42.5t-133 42.5zM72.5 28.5q-47.5 38.5 -47.5 113.5q0 76 50.5 117t150.5 41h123v9q0 28 -23.5 41t-80.5 13q-82 0 -162 -25
v113q37 15 91 24t109 9q116 0 180.5 -47.5t64.5 -144.5v-292h-164l-9 38q-54 -48 -162 -48q-73 0 -120.5 38.5zM349 138v59h-91q-32 0 -47 -12t-15 -37q0 -48 61 -48q57 0 92 38z" />
    <glyph glyph-name="uni1EB0" unicode="&#x1eb0;" horiz-adv-x="743" 
d="M234 1013h125l66 -157h-108zM237.5 730.5q-48.5 42.5 -48.5 129.5h105q0 -37 19.5 -58.5t56.5 -21.5t57 21.5t20 58.5h105q0 -87 -49 -129.5t-133 -42.5t-132.5 42.5zM272 644h199l247 -644h-196l-54 137h-194l-53 -137h-196zM443 272l-72 189l-72 -189h144z" />
    <glyph glyph-name="uni1EB1" unicode="&#x1eb1;" horiz-adv-x="568" 
d="M155 847h125l66 -157h-108zM158.5 564.5q-48.5 42.5 -48.5 129.5h105q0 -37 19.5 -58.5t56.5 -21.5t57 21.5t20 58.5h105q0 -87 -49 -129.5t-133 -42.5t-132.5 42.5zM72.5 28.5q-47.5 38.5 -47.5 113.5q0 76 50.5 117t150.5 41h123v9q0 28 -23.5 41t-80.5 13
q-82 0 -162 -25v113q37 15 91 24t109 9q116 0 180.5 -47.5t64.5 -144.5v-292h-164l-9 38q-54 -48 -162 -48q-73 0 -120.5 38.5zM349 138v59h-91q-32 0 -47 -12t-15 -37q0 -48 61 -48q57 0 92 38z" />
    <glyph glyph-name="uni1EB2" unicode="&#x1eb2;" horiz-adv-x="743" 
d="M309 923q75 3 75 37q0 16 -11.5 22t-35.5 6q-28 0 -51 -9v67q39 13 102 13q55 0 86 -24t31 -62q0 -34 -17.5 -53t-57.5 -29v-30h-121v62zM237.5 730.5q-48.5 42.5 -48.5 129.5h105q0 -37 19.5 -58.5t56.5 -21.5t57 21.5t20 58.5h105q0 -87 -49 -129.5t-133 -42.5
t-132.5 42.5zM272 644h199l247 -644h-196l-54 137h-194l-53 -137h-196zM443 272l-72 189l-72 -189h144z" />
    <glyph glyph-name="uni1EB3" unicode="&#x1eb3;" horiz-adv-x="568" 
d="M229 757q75 3 75 37q0 16 -11.5 22t-35.5 6q-28 0 -51 -9v67q39 13 102 13q55 0 86 -24t31 -62q0 -34 -17.5 -53t-57.5 -29v-30h-121v62zM157.5 564.5q-48.5 42.5 -48.5 129.5h105q0 -37 19.5 -58.5t56.5 -21.5t57 21.5t20 58.5h105q0 -87 -49 -129.5t-133 -42.5
t-132.5 42.5zM72.5 28.5q-47.5 38.5 -47.5 113.5q0 76 50.5 117t150.5 41h123v9q0 28 -23.5 41t-80.5 13q-82 0 -162 -25v113q37 15 91 24t109 9q116 0 180.5 -47.5t64.5 -144.5v-292h-164l-9 38q-54 -48 -162 -48q-73 0 -120.5 38.5zM349 138v59h-91q-32 0 -47 -12t-15 -37
q0 -48 61 -48q57 0 92 38z" />
    <glyph glyph-name="uni1EB4" unicode="&#x1eb4;" horiz-adv-x="743" 
d="M422 883.5q-21 5.5 -52 16.5q-26 9 -44.5 14t-36.5 5q-59 0 -95 -38v102q14 14 39 23t53 9q22 0 41.5 -5t50.5 -16q26 -10 45.5 -15t38.5 -5q30 0 53.5 10.5t35.5 28.5v-103q-10 -13 -34 -22.5t-52 -9.5q-22 0 -43 5.5zM237.5 730.5q-48.5 42.5 -48.5 129.5h105
q0 -37 19.5 -58.5t56.5 -21.5t57 21.5t20 58.5h105q0 -87 -49 -129.5t-133 -42.5t-132.5 42.5zM272 644h199l247 -644h-196l-54 137h-194l-53 -137h-196zM443 272l-72 189l-72 -189h144z" />
    <glyph glyph-name="uni1EB5" unicode="&#x1eb5;" horiz-adv-x="568" 
d="M345 717.5q-21 5.5 -52 16.5q-26 9 -44.5 14t-36.5 5q-59 0 -95 -38v102q14 14 39 23t53 9q22 0 41.5 -5t50.5 -16q26 -10 45.5 -15t38.5 -5q30 0 53.5 10.5t35.5 28.5v-103q-10 -13 -34 -22.5t-52 -9.5q-22 0 -43 5.5zM160.5 564.5q-48.5 42.5 -48.5 129.5h105
q0 -37 19.5 -58.5t56.5 -21.5t57 21.5t20 58.5h105q0 -87 -49 -129.5t-133 -42.5t-132.5 42.5zM72.5 28.5q-47.5 38.5 -47.5 113.5q0 76 50.5 117t150.5 41h123v9q0 28 -23.5 41t-80.5 13q-82 0 -162 -25v113q37 15 91 24t109 9q116 0 180.5 -47.5t64.5 -144.5v-292h-164
l-9 38q-54 -48 -162 -48q-73 0 -120.5 38.5zM349 138v59h-91q-32 0 -47 -12t-15 -37q0 -48 61 -48q57 0 92 38z" />
    <glyph glyph-name="uni1EB6" unicode="&#x1eb6;" horiz-adv-x="743" 
d="M233.5 737q-51.5 49 -51.5 138h122q0 -84 67 -84q68 0 68 84h122q0 -89 -51.5 -138t-138.5 -49q-86 0 -137.5 49zM272 644h199l247 -644h-196l-54 137h-194l-53 -137h-196zM443 272l-72 189l-72 -189h144zM306 -56h130v-120h-130v120z" />
    <glyph glyph-name="uni1EB7" unicode="&#x1eb7;" horiz-adv-x="568" 
d="M161.5 571q-51.5 49 -51.5 138h122q0 -84 67 -84q68 0 68 84h122q0 -89 -51.5 -138t-138.5 -49q-86 0 -137.5 49zM72.5 28.5q-47.5 38.5 -47.5 113.5q0 76 50.5 117t150.5 41h123v9q0 28 -23.5 41t-80.5 13q-82 0 -162 -25v113q37 15 91 24t109 9q116 0 180.5 -47.5
t64.5 -144.5v-292h-164l-9 38q-54 -48 -162 -48q-73 0 -120.5 38.5zM349 138v59h-91q-32 0 -47 -12t-15 -37q0 -48 61 -48q57 0 92 38zM240 -56h130v-120h-130v120z" />
    <glyph glyph-name="uni1EB8" unicode="&#x1eb8;" horiz-adv-x="548" 
d="M45 644h488v-144h-300v-105h263v-146h-263v-105h300v-144h-488v644zM214 -56h130v-120h-130v120z" />
    <glyph glyph-name="uni1EB9" unicode="&#x1eb9;" horiz-adv-x="552" 
d="M101.5 53.5q-76.5 63.5 -76.5 182.5q0 116 65 182t190 66q115 0 181 -59t66 -161v-83h-329q12 -37 49.5 -53.5t104.5 -16.5q40 0 81.5 7t67.5 18v-113q-70 -33 -195 -33q-128 0 -204.5 63.5zM365 283v17q0 64 -79 64q-47 0 -67.5 -20t-20.5 -61h167zM222 -56h130v-120
h-130v120z" />
    <glyph glyph-name="uni1EBA" unicode="&#x1eba;" horiz-adv-x="548" 
d="M213 768q49 3 68.5 13.5t19.5 30.5q0 33 -60 33q-27 0 -59 -8v78q44 14 115 14q67 0 104 -28t37 -73q0 -42 -20.5 -64.5t-63.5 -35.5v-41h-141v81zM45 644h488v-144h-300v-105h263v-146h-263v-105h300v-144h-488v644z" />
    <glyph glyph-name="uni1EBB" unicode="&#x1ebb;" horiz-adv-x="552" 
d="M211 603q49 3 68.5 13.5t19.5 30.5q0 33 -60 33q-27 0 -59 -8v78q44 14 115 14q67 0 104 -28t37 -73q0 -42 -20.5 -64.5t-63.5 -35.5v-41h-141v81zM101.5 53.5q-76.5 63.5 -76.5 182.5q0 116 65 182t190 66q115 0 181 -59t66 -161v-83h-329q12 -37 49.5 -53.5
t104.5 -16.5q40 0 81.5 7t67.5 18v-113q-70 -33 -195 -33q-128 0 -204.5 63.5zM365 283v17q0 64 -79 64q-47 0 -67.5 -20t-20.5 -61h167z" />
    <glyph glyph-name="uni1EBC" unicode="&#x1ebc;" horiz-adv-x="548" 
d="M345 701.5q-22 5.5 -54 16.5q-28 10 -46.5 15t-35.5 5q-59 0 -98 -39v118q15 14 41 23.5t54 9.5q22 0 42 -5t51 -16q27 -10 47 -15.5t41 -5.5q30 0 53.5 11t36.5 29v-119q-10 -14 -34.5 -23.5t-52.5 -9.5q-23 0 -45 5.5zM45 644h488v-144h-300v-105h263v-146h-263v-105
h300v-144h-488v644z" />
    <glyph glyph-name="uni1EBD" unicode="&#x1ebd;" horiz-adv-x="552" 
d="M345 535.5q-22 5.5 -54 16.5q-28 10 -46.5 15t-35.5 5q-59 0 -98 -39v118q15 14 41 23.5t54 9.5q22 0 42 -5t51 -16q27 -10 47 -15.5t41 -5.5q30 0 53.5 11t36.5 29v-119q-10 -14 -34.5 -23.5t-52.5 -9.5q-23 0 -45 5.5zM101.5 53.5q-76.5 63.5 -76.5 182.5q0 116 65 182
t190 66q115 0 181 -59t66 -161v-83h-329q12 -37 49.5 -53.5t104.5 -16.5q40 0 81.5 7t67.5 18v-113q-70 -33 -195 -33q-128 0 -204.5 63.5zM365 283v17q0 64 -79 64q-47 0 -67.5 -20t-20.5 -61h167z" />
    <glyph glyph-name="uni1EBE" unicode="&#x1ebe;" horiz-adv-x="548" 
d="M462 969h139l-78 -156h-132zM200 840h138l142 -152h-149l-62 79l-62 -79h-149zM45 644h488v-144h-300v-105h263v-146h-263v-105h300v-144h-488v644z" />
    <glyph glyph-name="uni1EBF" unicode="&#x1ebf;" horiz-adv-x="552" 
d="M470 803h139l-78 -156h-132zM208 674h138l142 -152h-149l-62 79l-62 -79h-149zM101.5 53.5q-76.5 63.5 -76.5 182.5q0 116 65 182t190 66q115 0 181 -59t66 -161v-83h-329q12 -37 49.5 -53.5t104.5 -16.5q40 0 81.5 7t67.5 18v-113q-70 -33 -195 -33q-128 0 -204.5 63.5z
M365 283v17q0 64 -79 64q-47 0 -67.5 -20t-20.5 -61h167z" />
    <glyph glyph-name="uni1EC0" unicode="&#x1ec0;" horiz-adv-x="548" 
d="M-49 969h139l71 -156h-132zM214 840h138l142 -152h-149l-62 79l-62 -79h-149zM45 644h488v-144h-300v-105h263v-146h-263v-105h300v-144h-488v644z" />
    <glyph glyph-name="uni1EC1" unicode="&#x1ec1;" horiz-adv-x="552" 
d="M-55 803h139l71 -156h-132zM208 674h138l142 -152h-149l-62 79l-62 -79h-149zM101.5 53.5q-76.5 63.5 -76.5 182.5q0 116 65 182t190 66q115 0 181 -59t66 -161v-83h-329q12 -37 49.5 -53.5t104.5 -16.5q40 0 81.5 7t67.5 18v-113q-70 -33 -195 -33q-128 0 -204.5 63.5z
M365 283v17q0 64 -79 64q-47 0 -67.5 -20t-20.5 -61h167z" />
    <glyph glyph-name="uni1EC2" unicode="&#x1ec2;" horiz-adv-x="548" 
d="M408 863q41 1 56.5 9t15.5 22q0 22 -42 22q-25 0 -51 -7v72q41 12 99 12q59 0 89.5 -22.5t30.5 -63.5q0 -35 -18 -56.5t-55 -27.5v-33h-125v73zM207 840h138l142 -152h-149l-62 79l-62 -79h-149zM45 644h488v-144h-300v-105h263v-146h-263v-105h300v-144h-488v644z" />
    <glyph glyph-name="uni1EC3" unicode="&#x1ec3;" horiz-adv-x="552" 
d="M413 697q41 1 56.5 9t15.5 22q0 22 -42 22q-25 0 -51 -7v72q41 12 99 12q59 0 89.5 -22.5t30.5 -63.5q0 -35 -18 -56.5t-55 -27.5v-33h-125v73zM212 674h138l142 -152h-149l-62 79l-62 -79h-149zM101.5 53.5q-76.5 63.5 -76.5 182.5q0 116 65 182t190 66q115 0 181 -59
t66 -161v-83h-329q12 -37 49.5 -53.5t104.5 -16.5q40 0 81.5 7t67.5 18v-113q-70 -33 -195 -33q-128 0 -204.5 63.5zM365 283v17q0 64 -79 64q-47 0 -67.5 -20t-20.5 -61h167z" />
    <glyph glyph-name="uni1EC4" unicode="&#x1ec4;" horiz-adv-x="548" 
d="M343 860.5q-21 5.5 -52 16.5q-26 9 -44.5 14t-36.5 5q-59 0 -95 -38v105q14 14 39 23t53 9q22 0 41.5 -5t50.5 -16q26 -10 45.5 -15t38.5 -5q30 0 53.5 10.5t35.5 28.5v-106q-10 -13 -34 -22.5t-52 -9.5q-22 0 -43 5.5zM217 840h138l142 -152h-149l-62 79l-62 -79h-149z
M45 644h488v-144h-300v-105h263v-146h-263v-105h300v-144h-488v644z" />
    <glyph glyph-name="uni1EC5" unicode="&#x1ec5;" horiz-adv-x="552" 
d="M339 694.5q-21 5.5 -52 16.5q-26 9 -44.5 14t-36.5 5q-59 0 -95 -38v105q14 14 39 23t53 9q22 0 41.5 -5t50.5 -16q26 -10 45.5 -15t38.5 -5q30 0 53.5 10.5t35.5 28.5v-106q-10 -13 -34 -22.5t-52 -9.5q-22 0 -43 5.5zM213 674h138l142 -152h-149l-62 79l-62 -79h-149z
M101.5 53.5q-76.5 63.5 -76.5 182.5q0 116 65 182t190 66q115 0 181 -59t66 -161v-83h-329q12 -37 49.5 -53.5t104.5 -16.5q40 0 81.5 7t67.5 18v-113q-70 -33 -195 -33q-128 0 -204.5 63.5zM365 283v17q0 64 -79 64q-47 0 -67.5 -20t-20.5 -61h167z" />
    <glyph glyph-name="uni1EC6" unicode="&#x1ec6;" horiz-adv-x="548" 
d="M224 888h114l155 -200h-136l-76 108l-72 -108h-140zM45 644h488v-144h-300v-105h263v-146h-263v-105h300v-144h-488v644zM216 -56h130v-120h-130v120z" />
    <glyph glyph-name="uni1EC7" unicode="&#x1ec7;" horiz-adv-x="552" 
d="M228 722h114l155 -200h-136l-76 108l-72 -108h-140zM101.5 53.5q-76.5 63.5 -76.5 182.5q0 116 65 182t190 66q115 0 181 -59t66 -161v-83h-329q12 -37 49.5 -53.5t104.5 -16.5q40 0 81.5 7t67.5 18v-113q-70 -33 -195 -33q-128 0 -204.5 63.5zM365 283v17q0 64 -79 64
q-47 0 -67.5 -20t-20.5 -61h167zM220 -56h130v-120h-130v120z" />
    <glyph glyph-name="uni1EC8" unicode="&#x1ec8;" horiz-adv-x="278" 
d="M61 769q49 3 68.5 13.5t19.5 30.5q0 33 -60 33q-27 0 -59 -8v78q44 14 115 14q67 0 104 -28t37 -73q0 -42 -20.5 -64.5t-63.5 -35.5v-41h-141v81zM45 644h188v-644h-188v644z" />
    <glyph glyph-name="uni1EC9" unicode="&#x1ec9;" horiz-adv-x="347" 
d="M96 603q49 3 68.5 13.5t19.5 30.5q0 33 -60 33q-27 0 -59 -8v78q44 14 115 14q67 0 104 -28t37 -73q0 -42 -20.5 -64.5t-63.5 -35.5v-41h-141v81zM114 337h-69l16 137h241v-474h-188v337z" />
    <glyph glyph-name="uni1ECA" unicode="&#x1eca;" horiz-adv-x="278" 
d="M45 644h188v-644h-188v644zM74 -56h130v-120h-130v120z" />
    <glyph glyph-name="uni1ECB" unicode="&#x1ecb;" horiz-adv-x="347" 
d="M99 673h203v-136h-203v136zM114 337h-69l16 137h241v-474h-188v337zM138 -56h130v-120h-130v120z" />
    <glyph glyph-name="uni1ECC" unicode="&#x1ecc;" horiz-adv-x="708" 
d="M108 69.5q-83 79.5 -83 250.5q0 176 82.5 255t246.5 79t246.5 -79.5t82.5 -254.5q0 -170 -83 -250t-246 -80t-246 79.5zM458.5 190.5q32.5 40.5 32.5 129.5q0 94 -32 134t-105 40t-105 -40t-32 -134q0 -89 32.5 -129.5t104.5 -40.5t104.5 40.5zM289 -56h130v-120h-130
v120z" />
    <glyph glyph-name="uni1ECD" unicode="&#x1ecd;" horiz-adv-x="606" 
d="M25 237q0 121 69 184t208 63q140 0 209.5 -63t69.5 -184q0 -247 -279 -247q-277 0 -277 247zM368.5 153q20.5 26 20.5 84q0 57 -20.5 83.5t-66.5 26.5q-45 0 -65 -26.5t-20 -83.5q0 -58 20 -84t65 -26q46 0 66.5 26zM238 -56h130v-120h-130v120z" />
    <glyph glyph-name="uni1ECE" unicode="&#x1ece;" horiz-adv-x="708" 
d="M277 769q49 3 68.5 13.5t19.5 30.5q0 33 -60 33q-27 0 -59 -8v78q44 14 115 14q67 0 104 -28t37 -73q0 -42 -20.5 -64.5t-63.5 -35.5v-41h-141v81zM108 69.5q-83 79.5 -83 250.5q0 176 82.5 255t246.5 79t246.5 -79.5t82.5 -254.5q0 -170 -83 -250t-246 -80t-246 79.5z
M458.5 190.5q32.5 40.5 32.5 129.5q0 94 -32 134t-105 40t-105 -40t-32 -134q0 -89 32.5 -129.5t104.5 -40.5t104.5 40.5z" />
    <glyph glyph-name="uni1ECF" unicode="&#x1ecf;" horiz-adv-x="606" 
d="M220 603q49 3 68.5 13.5t19.5 30.5q0 33 -60 33q-27 0 -59 -8v78q44 14 115 14q67 0 104 -28t37 -73q0 -42 -20.5 -64.5t-63.5 -35.5v-41h-141v81zM25 237q0 121 69 184t208 63q140 0 209.5 -63t69.5 -184q0 -247 -279 -247q-277 0 -277 247zM368.5 153q20.5 26 20.5 84
q0 57 -20.5 83.5t-66.5 26.5q-45 0 -65 -26.5t-20 -83.5q0 -58 20 -84t65 -26q46 0 66.5 26z" />
    <glyph glyph-name="uni1ED0" unicode="&#x1ed0;" horiz-adv-x="708" 
d="M543 969h139l-78 -156h-132zM281 840h138l142 -152h-149l-62 79l-62 -79h-149zM108 69.5q-83 79.5 -83 250.5q0 176 82.5 255t246.5 79t246.5 -79.5t82.5 -254.5q0 -170 -83 -250t-246 -80t-246 79.5zM458.5 190.5q32.5 40.5 32.5 129.5q0 94 -32 134t-105 40t-105 -40
t-32 -134q0 -89 32.5 -129.5t104.5 -40.5t104.5 40.5z" />
    <glyph glyph-name="uni1ED1" unicode="&#x1ed1;" horiz-adv-x="606" 
d="M490 803h139l-78 -156h-132zM228 674h138l142 -152h-149l-62 79l-62 -79h-149zM25 237q0 121 69 184t208 63q140 0 209.5 -63t69.5 -184q0 -247 -279 -247q-277 0 -277 247zM368.5 153q20.5 26 20.5 84q0 57 -20.5 83.5t-66.5 26.5q-45 0 -65 -26.5t-20 -83.5
q0 -58 20 -84t65 -26q46 0 66.5 26z" />
    <glyph glyph-name="uni1ED2" unicode="&#x1ed2;" horiz-adv-x="708" 
d="M25 969h139l71 -156h-132zM288 840h138l142 -152h-149l-62 79l-62 -79h-149zM108 69.5q-83 79.5 -83 250.5q0 176 82.5 255t246.5 79t246.5 -79.5t82.5 -254.5q0 -170 -83 -250t-246 -80t-246 79.5zM458.5 190.5q32.5 40.5 32.5 129.5q0 94 -32 134t-105 40t-105 -40
t-32 -134q0 -89 32.5 -129.5t104.5 -40.5t104.5 40.5z" />
    <glyph glyph-name="uni1ED3" unicode="&#x1ed3;" horiz-adv-x="606" 
d="M-29 803h139l71 -156h-132zM234 674h138l142 -152h-149l-62 79l-62 -79h-149zM25 237q0 121 69 184t208 63q140 0 209.5 -63t69.5 -184q0 -247 -279 -247q-277 0 -277 247zM368.5 153q20.5 26 20.5 84q0 57 -20.5 83.5t-66.5 26.5q-45 0 -65 -26.5t-20 -83.5
q0 -58 20 -84t65 -26q46 0 66.5 26z" />
    <glyph glyph-name="uni1ED4" unicode="&#x1ed4;" horiz-adv-x="708" 
d="M487 863q41 1 56.5 9t15.5 22q0 22 -42 22q-25 0 -51 -7v72q41 12 99 12q59 0 89.5 -22.5t30.5 -63.5q0 -35 -18 -56.5t-55 -27.5v-33h-125v73zM286 840h138l142 -152h-149l-62 79l-62 -79h-149zM108 69.5q-83 79.5 -83 250.5q0 176 82.5 255t246.5 79t246.5 -79.5
t82.5 -254.5q0 -170 -83 -250t-246 -80t-246 79.5zM458.5 190.5q32.5 40.5 32.5 129.5q0 94 -32 134t-105 40t-105 -40t-32 -134q0 -89 32.5 -129.5t104.5 -40.5t104.5 40.5z" />
    <glyph glyph-name="uni1ED5" unicode="&#x1ed5;" horiz-adv-x="606" 
d="M433 697q41 1 56.5 9t15.5 22q0 22 -42 22q-25 0 -51 -7v72q41 12 99 12q59 0 89.5 -22.5t30.5 -63.5q0 -35 -18 -56.5t-55 -27.5v-33h-125v73zM232 674h138l142 -152h-149l-62 79l-62 -79h-149zM25 237q0 121 69 184t208 63q140 0 209.5 -63t69.5 -184q0 -247 -279 -247
q-277 0 -277 247zM368.5 153q20.5 26 20.5 84q0 57 -20.5 83.5t-66.5 26.5q-45 0 -65 -26.5t-20 -83.5q0 -58 20 -84t65 -26q46 0 66.5 26z" />
    <glyph glyph-name="uni1ED6" unicode="&#x1ed6;" horiz-adv-x="708" 
d="M406 883.5q-21 5.5 -52 16.5q-26 9 -44.5 14t-36.5 5q-59 0 -95 -38v102q14 14 39 23t53 9q22 0 41.5 -5t50.5 -16q26 -10 45.5 -15t38.5 -5q30 0 53.5 10.5t35.5 28.5v-103q-10 -13 -34 -22.5t-52 -9.5q-22 0 -43 5.5zM221.5 730.5q-48.5 42.5 -48.5 129.5h105
q0 -37 19.5 -58.5t56.5 -21.5t57 21.5t20 58.5h105q0 -87 -49 -129.5t-133 -42.5t-132.5 42.5zM108 69.5q-83 79.5 -83 250.5q0 176 82.5 255t246.5 79t246.5 -79.5t82.5 -254.5q0 -170 -83 -250t-246 -80t-246 79.5zM458.5 190.5q32.5 40.5 32.5 129.5q0 94 -32 134
t-105 40t-105 -40t-32 -134q0 -89 32.5 -129.5t104.5 -40.5t104.5 40.5z" />
    <glyph glyph-name="uni1ED7" unicode="&#x1ed7;" horiz-adv-x="606" 
d="M355 717.5q-21 5.5 -52 16.5q-26 9 -44.5 14t-36.5 5q-59 0 -95 -38v102q14 14 39 23t53 9q22 0 41.5 -5t50.5 -16q26 -10 45.5 -15t38.5 -5q30 0 53.5 10.5t35.5 28.5v-103q-10 -13 -34 -22.5t-52 -9.5q-22 0 -43 5.5zM170.5 564.5q-48.5 42.5 -48.5 129.5h105
q0 -37 19.5 -58.5t56.5 -21.5t57 21.5t20 58.5h105q0 -87 -49 -129.5t-133 -42.5t-132.5 42.5zM25 237q0 121 69 184t208 63q140 0 209.5 -63t69.5 -184q0 -247 -279 -247q-277 0 -277 247zM368.5 153q20.5 26 20.5 84q0 57 -20.5 83.5t-66.5 26.5q-45 0 -65 -26.5
t-20 -83.5q0 -58 20 -84t65 -26q46 0 66.5 26z" />
    <glyph glyph-name="uni1ED8" unicode="&#x1ed8;" horiz-adv-x="708" 
d="M297 888h114l155 -200h-136l-76 108l-72 -108h-140zM108 69.5q-83 79.5 -83 250.5q0 176 82.5 255t246.5 79t246.5 -79.5t82.5 -254.5q0 -170 -83 -250t-246 -80t-246 79.5zM458.5 190.5q32.5 40.5 32.5 129.5q0 94 -32 134t-105 40t-105 -40t-32 -134q0 -89 32.5 -129.5
t104.5 -40.5t104.5 40.5zM288 -56h130v-120h-130v120z" />
    <glyph glyph-name="uni1ED9" unicode="&#x1ed9;" horiz-adv-x="606" 
d="M246 722h114l155 -200h-136l-76 108l-72 -108h-140zM25 237q0 121 69 184t208 63q140 0 209.5 -63t69.5 -184q0 -247 -279 -247q-277 0 -277 247zM368.5 153q20.5 26 20.5 84q0 57 -20.5 83.5t-66.5 26.5q-45 0 -65 -26.5t-20 -83.5q0 -58 20 -84t65 -26q46 0 66.5 26z
M238 -56h130v-120h-130v120z" />
    <glyph glyph-name="uni1EDA" unicode="&#x1eda;" horiz-adv-x="790" 
d="M367 894h146l-96 -206h-138zM108 69.5q-83 79.5 -83 250.5q0 176 82.5 255t246.5 79q145 0 224 -64q46 2 65 23.5t19 74.5h133q0 -98 -32 -147t-104 -64q24 -63 24 -157q0 -170 -83 -250t-246 -80t-246 79.5zM458.5 190.5q32.5 40.5 32.5 129.5q0 94 -32 134t-105 40
t-105 -40t-32 -134q0 -89 32.5 -129.5t104.5 -40.5t104.5 40.5z" />
    <glyph glyph-name="uni1EDB" unicode="&#x1edb;" horiz-adv-x="720" 
d="M309 728h146l-96 -206h-138zM25 237q0 121 69 184t208 63q126 0 196 -53q55 0 74.5 23.5t19.5 81.5h133q0 -104 -36 -156t-117 -66q9 -34 9 -77q0 -247 -279 -247q-277 0 -277 247zM368.5 153q20.5 26 20.5 84q0 57 -20.5 83.5t-66.5 26.5q-45 0 -65 -26.5t-20 -83.5
q0 -58 20 -84t65 -26q46 0 66.5 26z" />
    <glyph glyph-name="uni1EDC" unicode="&#x1edc;" horiz-adv-x="790" 
d="M196 894h147l88 -206h-138zM108 69.5q-83 79.5 -83 250.5q0 176 82.5 255t246.5 79q145 0 224 -64q46 2 65 23.5t19 74.5h133q0 -98 -32 -147t-104 -64q24 -63 24 -157q0 -170 -83 -250t-246 -80t-246 79.5zM458.5 190.5q32.5 40.5 32.5 129.5q0 94 -32 134t-105 40
t-105 -40t-32 -134q0 -89 32.5 -129.5t104.5 -40.5t104.5 40.5z" />
    <glyph glyph-name="uni1EDD" unicode="&#x1edd;" horiz-adv-x="720" 
d="M136 728h147l88 -206h-138zM25 237q0 121 69 184t208 63q126 0 196 -53q55 0 74.5 23.5t19.5 81.5h133q0 -104 -36 -156t-117 -66q9 -34 9 -77q0 -247 -279 -247q-277 0 -277 247zM368.5 153q20.5 26 20.5 84q0 57 -20.5 83.5t-66.5 26.5q-45 0 -65 -26.5t-20 -83.5
q0 -58 20 -84t65 -26q46 0 66.5 26z" />
    <glyph glyph-name="uni1EDE" unicode="&#x1ede;" horiz-adv-x="790" 
d="M280 769q49 3 68.5 13.5t19.5 30.5q0 33 -60 33q-27 0 -59 -8v78q44 14 115 14q67 0 104 -28t37 -73q0 -42 -20.5 -64.5t-63.5 -35.5v-41h-141v81zM108 69.5q-83 79.5 -83 250.5q0 176 82.5 255t246.5 79q145 0 224 -64q46 2 65 23.5t19 74.5h133q0 -98 -32 -147
t-104 -64q24 -63 24 -157q0 -170 -83 -250t-246 -80t-246 79.5zM458.5 190.5q32.5 40.5 32.5 129.5q0 94 -32 134t-105 40t-105 -40t-32 -134q0 -89 32.5 -129.5t104.5 -40.5t104.5 40.5z" />
    <glyph glyph-name="uni1EDF" unicode="&#x1edf;" horiz-adv-x="720" 
d="M225 603q49 3 68.5 13.5t19.5 30.5q0 33 -60 33q-27 0 -59 -8v78q44 14 115 14q67 0 104 -28t37 -73q0 -42 -20.5 -64.5t-63.5 -35.5v-41h-141v81zM25 237q0 121 69 184t208 63q126 0 196 -53q55 0 74.5 23.5t19.5 81.5h133q0 -104 -36 -156t-117 -66q9 -34 9 -77
q0 -247 -279 -247q-277 0 -277 247zM368.5 153q20.5 26 20.5 84q0 57 -20.5 83.5t-66.5 26.5q-45 0 -65 -26.5t-20 -83.5q0 -58 20 -84t65 -26q46 0 66.5 26z" />
    <glyph glyph-name="uni1EE0" unicode="&#x1ee0;" horiz-adv-x="790" 
d="M407 697.5q-22 5.5 -54 16.5q-28 10 -46.5 15t-35.5 5q-59 0 -98 -39v118q15 14 41 23.5t54 9.5q22 0 42 -5t51 -16q27 -10 47 -15.5t41 -5.5q30 0 53.5 11t36.5 29v-119q-10 -14 -34.5 -23.5t-52.5 -9.5q-23 0 -45 5.5zM108 69.5q-83 79.5 -83 250.5q0 176 82.5 255
t246.5 79q145 0 224 -64q46 2 65 23.5t19 74.5h133q0 -98 -32 -147t-104 -64q24 -63 24 -157q0 -170 -83 -250t-246 -80t-246 79.5zM458.5 190.5q32.5 40.5 32.5 129.5q0 94 -32 134t-105 40t-105 -40t-32 -134q0 -89 32.5 -129.5t104.5 -40.5t104.5 40.5z" />
    <glyph glyph-name="uni1EE1" unicode="&#x1ee1;" horiz-adv-x="720" 
d="M356 531.5q-22 5.5 -54 16.5q-28 10 -46.5 15t-35.5 5q-59 0 -98 -39v118q15 14 41 23.5t54 9.5q22 0 42 -5t51 -16q27 -10 47 -15.5t41 -5.5q30 0 53.5 11t36.5 29v-119q-10 -14 -34.5 -23.5t-52.5 -9.5q-23 0 -45 5.5zM25 237q0 121 69 184t208 63q126 0 196 -53
q55 0 74.5 23.5t19.5 81.5h133q0 -104 -36 -156t-117 -66q9 -34 9 -77q0 -247 -279 -247q-277 0 -277 247zM368.5 153q20.5 26 20.5 84q0 57 -20.5 83.5t-66.5 26.5q-45 0 -65 -26.5t-20 -83.5q0 -58 20 -84t65 -26q46 0 66.5 26z" />
    <glyph glyph-name="uni1EE2" unicode="&#x1ee2;" horiz-adv-x="790" 
d="M108 69.5q-83 79.5 -83 250.5q0 176 82.5 255t246.5 79q145 0 224 -64q46 2 65 23.5t19 74.5h133q0 -98 -32 -147t-104 -64q24 -63 24 -157q0 -170 -83 -250t-246 -80t-246 79.5zM458.5 190.5q32.5 40.5 32.5 129.5q0 94 -32 134t-105 40t-105 -40t-32 -134
q0 -89 32.5 -129.5t104.5 -40.5t104.5 40.5zM288 -56h130v-120h-130v120z" />
    <glyph glyph-name="uni1EE3" unicode="&#x1ee3;" horiz-adv-x="720" 
d="M25 237q0 121 69 184t208 63q126 0 196 -53q55 0 74.5 23.5t19.5 81.5h133q0 -104 -36 -156t-117 -66q9 -34 9 -77q0 -247 -279 -247q-277 0 -277 247zM368.5 153q20.5 26 20.5 84q0 57 -20.5 83.5t-66.5 26.5q-45 0 -65 -26.5t-20 -83.5q0 -58 20 -84t65 -26
q46 0 66.5 26zM238 -56h130v-120h-130v120z" />
    <glyph glyph-name="uni1EE4" unicode="&#x1ee4;" horiz-adv-x="689" 
d="M123.5 57.5q-83.5 67.5 -83.5 190.5v396h188v-376q0 -118 117 -118q116 0 116 118v376h188v-396q0 -82 -38 -140t-107 -88t-159 -30q-138 0 -221.5 67.5zM279 -56h130v-120h-130v120z" />
    <glyph glyph-name="uni1EE5" unicode="&#x1ee5;" horiz-adv-x="604" 
d="M86.5 37.5q-46.5 47.5 -46.5 137.5v299h188v-284q0 -32 15.5 -47t47.5 -15q22 0 44 10t36 25v311h188v-474h-176l-5 36q-65 -46 -161 -46q-84 0 -130.5 47.5zM233 -56h130v-120h-130v120z" />
    <glyph glyph-name="uni1EE6" unicode="&#x1ee6;" horiz-adv-x="689" 
d="M272 769q49 3 68.5 13.5t19.5 30.5q0 33 -60 33q-27 0 -59 -8v78q44 14 115 14q67 0 104 -28t37 -73q0 -42 -20.5 -64.5t-63.5 -35.5v-41h-141v81zM123.5 57.5q-83.5 67.5 -83.5 190.5v396h188v-376q0 -118 117 -118q116 0 116 118v376h188v-396q0 -82 -38 -140t-107 -88
t-159 -30q-138 0 -221.5 67.5z" />
    <glyph glyph-name="uni1EE7" unicode="&#x1ee7;" horiz-adv-x="604" 
d="M229 603q49 3 68.5 13.5t19.5 30.5q0 33 -60 33q-27 0 -59 -8v78q44 14 115 14q67 0 104 -28t37 -73q0 -42 -20.5 -64.5t-63.5 -35.5v-41h-141v81zM86.5 37.5q-46.5 47.5 -46.5 137.5v299h188v-284q0 -32 15.5 -47t47.5 -15q22 0 44 10t36 25v311h188v-474h-176l-5 36
q-65 -46 -161 -46q-84 0 -130.5 47.5z" />
    <glyph glyph-name="uni1EE8" unicode="&#x1ee8;" horiz-adv-x="861" 
d="M354 894h146l-96 -206h-138zM123.5 57.5q-83.5 67.5 -83.5 190.5v396h188v-376q0 -118 117 -118q116 0 116 118v376h188v-54q46 2 65 23.5t19 74.5h133q0 -82 -21.5 -129t-68.5 -68t-127 -23v-220q0 -82 -38 -140t-107 -88t-159 -30q-138 0 -221.5 67.5z" />
    <glyph glyph-name="uni1EE9" unicode="&#x1ee9;" horiz-adv-x="764" 
d="M303 728h146l-96 -206h-138zM86.5 37.5q-46.5 47.5 -46.5 137.5v299h188v-284q0 -32 15.5 -47t47.5 -15q22 0 44 10t36 25v311h188v-42q41 4 56.5 28t15.5 76h133q0 -80 -20.5 -128.5t-65 -71.5t-119.5 -27v-309h-176l-5 36q-65 -46 -161 -46q-84 0 -130.5 47.5z" />
    <glyph glyph-name="uni1EEA" unicode="&#x1eea;" horiz-adv-x="861" 
d="M184 894h147l88 -206h-138zM123.5 57.5q-83.5 67.5 -83.5 190.5v396h188v-376q0 -118 117 -118q116 0 116 118v376h188v-54q46 2 65 23.5t19 74.5h133q0 -82 -21.5 -129t-68.5 -68t-127 -23v-220q0 -82 -38 -140t-107 -88t-159 -30q-138 0 -221.5 67.5z" />
    <glyph glyph-name="uni1EEB" unicode="&#x1eeb;" horiz-adv-x="764" 
d="M107 728h147l88 -206h-138zM86.5 37.5q-46.5 47.5 -46.5 137.5v299h188v-284q0 -32 15.5 -47t47.5 -15q22 0 44 10t36 25v311h188v-42q41 4 56.5 28t15.5 76h133q0 -80 -20.5 -128.5t-65 -71.5t-119.5 -27v-309h-176l-5 36q-65 -46 -161 -46q-84 0 -130.5 47.5z" />
    <glyph glyph-name="uni1EEC" unicode="&#x1eec;" horiz-adv-x="861" 
d="M243 768q49 3 68.5 13.5t19.5 30.5q0 33 -60 33q-27 0 -59 -8v78q44 14 115 14q67 0 104 -28t37 -73q0 -42 -20.5 -64.5t-63.5 -35.5v-41h-141v81zM123.5 57.5q-83.5 67.5 -83.5 190.5v396h188v-376q0 -118 117 -118q116 0 116 118v376h188v-54q46 2 65 23.5t19 74.5h133
q0 -82 -21.5 -129t-68.5 -68t-127 -23v-220q0 -82 -38 -140t-107 -88t-159 -30q-138 0 -221.5 67.5z" />
    <glyph glyph-name="uni1EED" unicode="&#x1eed;" horiz-adv-x="764" 
d="M198 602q49 3 68.5 13.5t19.5 30.5q0 33 -60 33q-27 0 -59 -8v78q44 14 115 14q67 0 104 -28t37 -73q0 -42 -20.5 -64.5t-63.5 -35.5v-41h-141v81zM86.5 37.5q-46.5 47.5 -46.5 137.5v299h188v-284q0 -32 15.5 -47t47.5 -15q22 0 44 10t36 25v311h188v-42q41 4 56.5 28
t15.5 76h133q0 -80 -20.5 -128.5t-65 -71.5t-119.5 -27v-309h-176l-5 36q-65 -46 -161 -46q-84 0 -130.5 47.5z" />
    <glyph glyph-name="uni1EEE" unicode="&#x1eee;" horiz-adv-x="861" 
d="M400 697.5q-22 5.5 -54 16.5q-28 10 -46.5 15t-35.5 5q-59 0 -98 -39v118q15 14 41 23.5t54 9.5q22 0 42 -5t51 -16q27 -10 47 -15.5t41 -5.5q30 0 53.5 11t36.5 29v-119q-10 -14 -34.5 -23.5t-52.5 -9.5q-23 0 -45 5.5zM123.5 57.5q-83.5 67.5 -83.5 190.5v396h188v-376
q0 -118 117 -118q116 0 116 118v376h188v-54q46 2 65 23.5t19 74.5h133q0 -82 -21.5 -129t-68.5 -68t-127 -23v-220q0 -82 -38 -140t-107 -88t-159 -30q-138 0 -221.5 67.5z" />
    <glyph glyph-name="uni1EEF" unicode="&#x1eef;" horiz-adv-x="764" 
d="M353 531.5q-22 5.5 -54 16.5q-28 10 -46.5 15t-35.5 5q-59 0 -98 -39v118q15 14 41 23.5t54 9.5q22 0 42 -5t51 -16q27 -10 47 -15.5t41 -5.5q30 0 53.5 11t36.5 29v-119q-10 -14 -34.5 -23.5t-52.5 -9.5q-23 0 -45 5.5zM86.5 37.5q-46.5 47.5 -46.5 137.5v299h188v-284
q0 -32 15.5 -47t47.5 -15q22 0 44 10t36 25v311h188v-42q41 4 56.5 28t15.5 76h133q0 -80 -20.5 -128.5t-65 -71.5t-119.5 -27v-309h-176l-5 36q-65 -46 -161 -46q-84 0 -130.5 47.5z" />
    <glyph glyph-name="uni1EF0" unicode="&#x1ef0;" horiz-adv-x="861" 
d="M123.5 57.5q-83.5 67.5 -83.5 190.5v396h188v-376q0 -118 117 -118q116 0 116 118v376h188v-54q46 2 65 23.5t19 74.5h133q0 -82 -21.5 -129t-68.5 -68t-127 -23v-220q0 -82 -38 -140t-107 -88t-159 -30q-138 0 -221.5 67.5zM284 -56h130v-120h-130v120z" />
    <glyph glyph-name="uni1EF1" unicode="&#x1ef1;" horiz-adv-x="764" 
d="M86.5 37.5q-46.5 47.5 -46.5 137.5v299h188v-284q0 -32 15.5 -47t47.5 -15q22 0 44 10t36 25v311h188v-42q41 4 56.5 28t15.5 76h133q0 -80 -20.5 -128.5t-65 -71.5t-119.5 -27v-309h-176l-5 36q-65 -46 -161 -46q-84 0 -130.5 47.5zM237 -56h130v-120h-130v120z" />
    <glyph glyph-name="Ygrave" unicode="&#x1ef2;" horiz-adv-x="702" 
d="M178 894h147l88 -206h-138zM257 236l-232 408h196l130 -243l130 243h196l-232 -408v-236h-188v236z" />
    <glyph glyph-name="ygrave" unicode="&#x1ef3;" horiz-adv-x="642" 
d="M163 728h147l88 -206h-138zM136.5 -172q-27.5 4 -54.5 15v128q26 -10 61 -10q39 0 58 10t38 40l-214 463h197l111 -279l108 279h196l-175 -429q-44 -109 -104.5 -165t-153.5 -56q-40 0 -67.5 4z" />
    <glyph glyph-name="uni1EF4" unicode="&#x1ef4;" horiz-adv-x="702" 
d="M257 236l-232 408h196l130 -243l130 243h196l-232 -408v-236h-188v236zM286 -55h130v-120h-130v120z" />
    <glyph glyph-name="uni1EF5" unicode="&#x1ef5;" horiz-adv-x="642" 
d="M136.5 -172q-27.5 4 -54.5 15v128q26 -10 61 -10q39 0 58 10t38 40l-214 463h197l111 -279l108 279h196l-175 -429q-44 -109 -104.5 -165t-153.5 -56q-40 0 -67.5 4zM441 -56h130v-120h-130v120z" />
    <glyph glyph-name="uni1EF6" unicode="&#x1ef6;" horiz-adv-x="702" 
d="M275 769q49 3 68.5 13.5t19.5 30.5q0 33 -60 33q-27 0 -59 -8v78q44 14 115 14q67 0 104 -28t37 -73q0 -42 -20.5 -64.5t-63.5 -35.5v-41h-141v81zM257 236l-232 408h196l130 -243l130 243h196l-232 -408v-236h-188v236z" />
    <glyph glyph-name="uni1EF7" unicode="&#x1ef7;" horiz-adv-x="642" 
d="M261 603q49 3 68.5 13.5t19.5 30.5q0 33 -60 33q-27 0 -59 -8v78q44 14 115 14q67 0 104 -28t37 -73q0 -42 -20.5 -64.5t-63.5 -35.5v-41h-141v81zM136.5 -172q-27.5 4 -54.5 15v128q26 -10 61 -10q39 0 58 10t38 40l-214 463h197l111 -279l108 279h196l-175 -429
q-44 -109 -104.5 -165t-153.5 -56q-40 0 -67.5 4z" />
    <glyph glyph-name="uni1EF8" unicode="&#x1ef8;" horiz-adv-x="702" 
d="M402 701.5q-22 5.5 -54 16.5q-28 10 -46.5 15t-35.5 5q-59 0 -98 -39v118q15 14 41 23.5t54 9.5q22 0 42 -5t51 -16q27 -10 47 -15.5t41 -5.5q30 0 53.5 11t36.5 29v-119q-10 -14 -34.5 -23.5t-52.5 -9.5q-23 0 -45 5.5zM257 236l-232 408h196l130 -243l130 243h196
l-232 -408v-236h-188v236z" />
    <glyph glyph-name="uni1EF9" unicode="&#x1ef9;" horiz-adv-x="642" 
d="M385 535.5q-22 5.5 -54 16.5q-28 10 -46.5 15t-35.5 5q-59 0 -98 -39v118q15 14 41 23.5t54 9.5q22 0 42 -5t51 -16q27 -10 47 -15.5t41 -5.5q30 0 53.5 11t36.5 29v-119q-10 -14 -34.5 -23.5t-52.5 -9.5q-23 0 -45 5.5zM136.5 -172q-27.5 4 -54.5 15v128q26 -10 61 -10
q39 0 58 10t38 40l-214 463h197l111 -279l108 279h196l-175 -429q-44 -109 -104.5 -165t-153.5 -56q-40 0 -67.5 4z" />
    <glyph glyph-name="uni2007" unicode="&#x2007;" 
 />
    <glyph glyph-name="uni2010" unicode="&#x2010;" horiz-adv-x="484" 
d="M25 356h434v-144h-434v144z" />
    <glyph glyph-name="figuredash" unicode="&#x2012;" horiz-adv-x="574" 
d="M25 356h524v-144h-524v144z" />
    <glyph glyph-name="endash" unicode="&#x2013;" horiz-adv-x="549" 
d="M25 356h499v-144h-499v144z" />
    <glyph glyph-name="emdash" unicode="&#x2014;" horiz-adv-x="802" 
d="M25 356h752v-144h-752v144z" />
    <glyph glyph-name="uni2015" unicode="&#x2015;" horiz-adv-x="843" 
d="M25 356h793v-144h-793v144z" />
    <glyph glyph-name="quoteleft" unicode="&#x2018;" horiz-adv-x="269" 
d="M103 654h141l-62 -230h-157z" />
    <glyph glyph-name="quoteright" unicode="&#x2019;" horiz-adv-x="269" 
d="M87 654h157l-78 -230h-141z" />
    <glyph glyph-name="quotesinglbase" unicode="&#x201a;" horiz-adv-x="269" 
d="M87 33h157l-78 -230h-141z" />
    <glyph glyph-name="quotedblleft" unicode="&#x201c;" horiz-adv-x="431" 
d="M103 654h126l-62 -230h-142zM280 654h126l-62 -230h-142z" />
    <glyph glyph-name="quotedblright" unicode="&#x201d;" horiz-adv-x="431" 
d="M87 654h142l-78 -230h-126zM263 654h143l-78 -230h-126z" />
    <glyph glyph-name="quotedblbase" unicode="&#x201e;" horiz-adv-x="431" 
d="M87 127h142l-78 -229h-126zM263 127h143l-78 -229h-126z" />
    <glyph glyph-name="dagger" unicode="&#x2020;" horiz-adv-x="557" 
d="M190 381l-165 -4v142l165 -4l-8 185h193l-8 -185l165 4v-142l-165 4l5 -381h-187z" />
    <glyph glyph-name="daggerdbl" unicode="&#x2021;" horiz-adv-x="557" 
d="M190 154l-165 -1v137l165 -2l-8 62l8 61l-165 -1v137l165 -2l-8 155h193l-8 -155l165 2v-137l-165 1l8 -61l-8 -62l165 2v-137l-165 1l5 -154h-187z" />
    <glyph glyph-name="bullet" unicode="&#x2022;" horiz-adv-x="321" 
d="M64 191q-39 39 -39 96q0 37 18 68t49 49.5t68 18.5t68 -18.5t49.5 -49.5t18.5 -68t-18.5 -68t-49.5 -49t-68 -18q-57 0 -96 39z" />
    <glyph glyph-name="ellipsis" unicode="&#x2026;" horiz-adv-x="618" 
d="M25 135h148v-135h-148v135zM235 135h148v-135h-148v135zM445 135h148v-135h-148v135z" />
    <glyph glyph-name="perthousand" unicode="&#x2030;" horiz-adv-x="1103" 
d="M64.5 384.5q-39.5 40.5 -39.5 107.5q0 76 39.5 119t112.5 43q74 0 113.5 -43t39.5 -119q0 -67 -40 -107.5t-113 -40.5t-112.5 40.5zM465 644h178l-337 -644h-177zM229 496q0 31 -12.5 45.5t-39.5 14.5t-39 -14t-12 -46q0 -54 51 -54q52 0 52 54zM482.5 30.5
q-39.5 40.5 -39.5 107.5q0 75 39.5 118t112.5 43q74 0 113.5 -43t39.5 -118q0 -67 -40 -107.5t-113 -40.5t-112.5 40.5zM813 30.5q-40 40.5 -40 107.5q0 75 39.5 118t113.5 43q73 0 112.5 -43t39.5 -118q0 -67 -39.5 -107.5t-112.5 -40.5t-113 40.5zM647 141
q0 31 -12.5 45.5t-39.5 14.5t-39 -14t-12 -46q0 -54 51 -54q52 0 52 54zM978 141q0 31 -12.5 45.5t-39.5 14.5t-39.5 -14.5t-12.5 -45.5q0 -54 52 -54t52 54z" />
    <glyph glyph-name="minute" unicode="&#x2032;" horiz-adv-x="204" 
d="M25 644h154l-16 -225h-138v225z" />
    <glyph glyph-name="second" unicode="&#x2033;" horiz-adv-x="403" 
d="M25 644h154l-16 -225h-138v225zM224 644h154l-15 -225h-139v225z" />
    <glyph glyph-name="guilsinglleft" unicode="&#x2039;" horiz-adv-x="391" 
d="M25 250v68l270 199l71 -104l-175 -129l175 -130l-71 -103z" />
    <glyph glyph-name="guilsinglright" unicode="&#x203a;" horiz-adv-x="391" 
d="M25 154l175 130l-175 129l71 104l270 -199v-68l-270 -199z" />
    <glyph glyph-name="fraction" unicode="&#x2044;" horiz-adv-x="200" 
d="M163 662h192l-317 -662h-193z" />
    <glyph glyph-name="uni2070" unicode="&#x2070;" horiz-adv-x="370" 
d="M64.5 399q-39.5 37 -39.5 107q0 148 160 148t160 -148q0 -70 -39.5 -107t-120.5 -37t-120.5 37zM218.5 461.5q9.5 13.5 9.5 44.5q0 33 -9.5 47.5t-33.5 14.5t-33.5 -14.5t-9.5 -47.5q0 -31 9.5 -44.5t33.5 -13.5t33.5 13.5z" />
    <glyph glyph-name="uni2074" unicode="&#x2074;" horiz-adv-x="294" 
d="M133 412h-128v79l129 163h126v-158h29v-84h-29v-42h-127v42zM167 496v70l-54 -70h54z" />
    <glyph glyph-name="uni2075" unicode="&#x2075;" horiz-adv-x="303" 
d="M70.5 365.5q-29.5 3.5 -45.5 11.5v76q14 -7 35.5 -10.5t39.5 -3.5q26 0 38 6t12 19t-9 18t-32 5h-83v49l7 108h227l-4 -74h-115l-1 -20h32q55 0 80.5 -21t25.5 -66q0 -47 -36.5 -74t-110.5 -27q-31 0 -60.5 3.5z" />
    <glyph glyph-name="uni2076" unicode="&#x2076;" horiz-adv-x="319" 
d="M61.5 391.5q-36.5 29.5 -36.5 85.5v53q0 56 39 90t110 34q25 0 50.5 -3t40.5 -9v-72q-27 13 -78 13q-30 0 -47 -10t-17 -25v-3q11 8 28 12.5t34 4.5q57 0 83 -24t26 -75q0 -49 -34 -75t-100 -26q-62 0 -98.5 29.5zM187.5 437q8.5 8 8.5 24q0 17 -7.5 24.5t-27.5 7.5
q-19 0 -38 -12v-16q0 -19 9 -27.5t28 -8.5t27.5 8z" />
    <glyph glyph-name="uni2077" unicode="&#x2077;" horiz-adv-x="291" 
d="M134 551h-119v93h261v-68l-90 -206h-131z" />
    <glyph glyph-name="uni2078" unicode="&#x2078;" horiz-adv-x="334" 
d="M63.5 384.5q-38.5 22.5 -38.5 64.5q0 20 9.5 37t26.5 26q-29 19 -29 56q0 43 35.5 64.5t99.5 21.5t99.5 -21.5t35.5 -64.5q0 -37 -29 -58q36 -20 36 -61q0 -42 -38.5 -64.5t-103.5 -22.5t-103.5 22.5zM195 547.5q5 6.5 5 18.5q0 24 -33 24t-33 -24q0 -21 20 -25l23 -5
q13 5 18 11.5zM206 451q0 10 -6 15.5t-21 9.5l-26 6q-13 -4 -19 -10t-6 -19q0 -28 39 -28t39 26z" />
    <glyph glyph-name="uni2079" unicode="&#x2079;" horiz-adv-x="319" 
d="M93.5 365q-25.5 3 -40.5 9v71q30 -12 79 -12q29 0 46.5 10t17.5 24v4q-23 -17 -60 -17q-57 0 -84 24.5t-27 74.5q0 48 34.5 74.5t100.5 26.5q64 0 99 -29.5t35 -86.5v-53q0 -56 -39 -89.5t-111 -33.5q-25 0 -50.5 3zM196 535v15q0 19 -9 28t-28 9q-37 0 -37 -33
q0 -16 8 -24t27 -8t39 13z" />
    <glyph glyph-name="uni207D" unicode="&#x207d;" horiz-adv-x="227" 
d="M38.5 423q-13.5 42 -13.5 91t13.5 91t39.5 71h124q-63 -62 -63 -162q0 -102 63 -162h-124q-26 29 -39.5 71z" />
    <glyph glyph-name="uni207E" unicode="&#x207e;" horiz-adv-x="227" 
d="M88 514q0 100 -63 162h124q26 -29 39.5 -71t13.5 -91t-13.5 -91t-39.5 -71h-124q63 60 63 162z" />
    <glyph glyph-name="uni207F" unicode="&#x207f;" horiz-adv-x="347" 
d="M30 648h100l2 -19q41 24 98 24q45 0 68.5 -24.5t23.5 -72.5v-170h-106v155q0 17 -8 24.5t-25 7.5q-11 0 -25 -5t-22 -13v-169h-106v262z" />
    <glyph glyph-name="uni2080" unicode="&#x2080;" horiz-adv-x="370" 
d="M64.5 -91q-39.5 37 -39.5 107q0 148 160 148t160 -148q0 -70 -39.5 -107t-120.5 -37t-120.5 37zM218.5 -28.5q9.5 13.5 9.5 44.5q0 33 -9.5 47.5t-33.5 14.5t-33.5 -14.5t-9.5 -47.5q0 -31 9.5 -44.5t33.5 -13.5t33.5 13.5z" />
    <glyph glyph-name="uni2081" unicode="&#x2081;" horiz-adv-x="222" 
d="M83 38l-58 -11v99l192 38v-284h-134v158z" />
    <glyph glyph-name="uni2082" unicode="&#x2082;" horiz-adv-x="306" 
d="M25 -68q13 18 26.5 29.5t39.5 31.5q33 25 41.5 33.5t8.5 20.5q0 13 -10 18.5t-32 5.5q-29 0 -69 -17v90q21 8 55.5 14t66.5 6q60 0 93.5 -24t33.5 -63q0 -25 -9 -41.5t-31 -36.5l-19 -16q-10 -8 -16 -14h77v-89h-256v52z" />
    <glyph glyph-name="uni2083" unicode="&#x2083;" horiz-adv-x="310" 
d="M77.5 -123.5q-37.5 4.5 -52.5 10.5v74q36 -16 79 -16q26 0 37 5t11 16t-9.5 16t-29.5 5h-46l5 63h39q19 0 27.5 5t8.5 16q0 18 -45 18q-39 0 -73 -16v75q17 6 50.5 11t60.5 5q71 0 105.5 -23t34.5 -61q0 -41 -30 -62q35 -13 35 -58q0 -88 -145 -88q-25 0 -62.5 4.5z" />
    <glyph glyph-name="uni2084" unicode="&#x2084;" horiz-adv-x="294" 
d="M133 -78h-128v79l129 163h126v-158h29v-84h-29v-42h-127v42zM167 6v70l-54 -70h54z" />
    <glyph glyph-name="uni2085" unicode="&#x2085;" horiz-adv-x="303" 
d="M70.5 -124.5q-29.5 3.5 -45.5 11.5v76q14 -7 35.5 -10.5t39.5 -3.5q26 0 38 6t12 19t-9 18t-32 5h-83v49l7 108h227l-4 -74h-115l-1 -20h32q55 0 80.5 -21t25.5 -66q0 -47 -36.5 -74t-110.5 -27q-31 0 -60.5 3.5z" />
    <glyph glyph-name="uni2086" unicode="&#x2086;" horiz-adv-x="319" 
d="M61.5 -98.5q-36.5 29.5 -36.5 85.5v53q0 56 39 90t110 34q25 0 50.5 -3t40.5 -9v-72q-27 13 -78 13q-30 0 -47 -10t-17 -25v-3q11 8 28 12.5t34 4.5q57 0 83 -24t26 -75q0 -49 -34 -75t-100 -26q-62 0 -98.5 29.5zM187.5 -53q8.5 8 8.5 24t-7.5 24t-27.5 8q-19 0 -38 -12
v-16q0 -19 9 -27.5t28 -8.5t27.5 8z" />
    <glyph glyph-name="uni2087" unicode="&#x2087;" horiz-adv-x="291" 
d="M134 61h-119v93h261v-68l-90 -206h-131z" />
    <glyph glyph-name="uni2088" unicode="&#x2088;" horiz-adv-x="334" 
d="M63.5 -105.5q-38.5 22.5 -38.5 64.5q0 20 9.5 37t26.5 26q-29 19 -29 56q0 43 35.5 64.5t99.5 21.5t99.5 -21.5t35.5 -64.5q0 -37 -29 -58q36 -20 36 -61q0 -42 -38.5 -64.5t-103.5 -22.5t-103.5 22.5zM195 57.5q5 6.5 5 18.5q0 24 -33 24t-33 -24q0 -21 20 -25l23 -5
q13 5 18 11.5zM206 -39q0 10 -6 15.5t-21 9.5l-26 6q-13 -4 -19 -10t-6 -19q0 -28 39 -28t39 26z" />
    <glyph glyph-name="uni2089" unicode="&#x2089;" horiz-adv-x="319" 
d="M93.5 -125q-25.5 3 -40.5 9v71q30 -12 79 -12q29 0 46.5 10t17.5 24v4q-23 -17 -60 -17q-57 0 -84 24.5t-27 74.5q0 48 34.5 74.5t100.5 26.5q64 0 99 -29.5t35 -86.5v-53q0 -56 -39 -89.5t-111 -33.5q-25 0 -50.5 3zM196 45v15q0 19 -9 28t-28 9q-37 0 -37 -33
q0 -16 8 -24t27 -8q20 0 39 13z" />
    <glyph glyph-name="uni208D" unicode="&#x208d;" horiz-adv-x="227" 
d="M38.5 -75q-13.5 42 -13.5 91t13.5 91t39.5 71h124q-63 -62 -63 -162q0 -102 63 -162h-124q-26 29 -39.5 71z" />
    <glyph glyph-name="uni208E" unicode="&#x208e;" horiz-adv-x="227" 
d="M88 16q0 100 -63 162h124q26 -29 39.5 -71t13.5 -91t-13.5 -91t-39.5 -71h-124q63 60 63 162z" />
    <glyph glyph-name="colonmonetary" unicode="&#x20a1;" horiz-adv-x="607" 
d="M169 65q-72 32 -108 94t-36 160q0 138 67 207t206 84l16 61h107l-15 -58q12 0 32 -2l15 60h107l-20 -78q12 -3 22 -6.5t18 -6.5v-164q-86 38 -184 38q-68 0 -104.5 -8.5t-55.5 -37.5t-19 -89q0 -58 20 -85.5t57 -35.5t104 -8q99 0 184 37v-165q-87 -29 -176 -32l-15 -61
h-107l16 65q-22 2 -31 4l-17 -69h-107z" />
    <glyph glyph-name="lira" unicode="&#x20a4;" horiz-adv-x="485" 
d="M25 139h23q23 0 32.5 12.5t10.5 35.5h-61v101h61v32h-61v101h61v32q0 92 48 146.5t143 54.5q77 0 135 -25v-121q-30 12 -71 12q-39 0 -53 -17t-14 -54v-28h135l-7 -101h-128v-32h135l-7 -101h-129q0 -28 -20 -48h202v-139h-435v139z" />
    <glyph glyph-name="uni20A6" unicode="&#x20a6;" horiz-adv-x="692" 
d="M82 150h-57v118h57v66h-57v118h57v192h160l180 -340v340h188v-192h57v-118h-57v-66h57v-118h-57v-150h-161l-179 339v-339h-188v150z" />
    <glyph glyph-name="peseta" unicode="&#x20a7;" horiz-adv-x="1353" 
d="M617.5 36.5q-44.5 46.5 -44.5 131.5v78h-86q-31 -35 -75.5 -54t-100.5 -19h-78v-173h-188v644h270q113 0 170 -66t57 -171l-1 -24h32v122l189 40v-162h108l-4 -137h-104v-63q0 -56 60 -56q30 0 59 10v-125q-53 -22 -126 -22q-93 0 -137.5 46.5zM266 317q42 0 63 24.5
t21 65.5q0 44 -21 68.5t-63 24.5h-33v-183h33zM983 -1.5q-54 8.5 -86 21.5v135q33 -16 81 -25t85 -9q44 0 58.5 2.5t14.5 16.5q0 12 -15.5 19t-50.5 17l-50 16q-69 25 -99 56t-30 88q0 148 232 148q44 0 93 -7t79 -16v-132q-29 12 -64.5 18.5t-65.5 6.5q-41 0 -61.5 -3.5
t-20.5 -16.5q0 -11 13.5 -17t47.5 -15l44 -13q54 -16 84.5 -35t43 -45.5t12.5 -67.5q0 -73 -59 -112t-173 -39q-59 0 -113 8.5z" />
    <glyph glyph-name="dong" unicode="&#x20ab;" horiz-adv-x="575" 
d="M570 516h-8v-516h-163l-9 37q-30 -23 -64.5 -35t-79.5 -12q-106 0 -163.5 55t-57.5 177q0 84 30.5 143t82 89t114.5 30q33 0 65.5 -7t56.5 -20v59h-160v113h160v45h188v-45h8v-113zM374 323q-28 25 -74 25q-38 0 -60.5 -33.5t-22.5 -93.5q0 -39 8.5 -59.5t26 -28
t48.5 -7.5q43 0 74 29v168zM54 -46h474v-128h-474v128z" />
    <glyph glyph-name="Euro" unicode="&#x20ac;" horiz-adv-x="583" 
d="M79 199h-64v93h51v48h-51v93h62q24 107 101 164t216 57q51 0 91 -8.5t82 -25.5v-161q-40 19 -75.5 27t-84.5 8q-56 0 -87.5 -14.5t-45.5 -46.5h143v-93h-159v-48h159v-93h-138q15 -26 46 -37.5t84 -11.5q48 0 80.5 7t78.5 27v-162q-43 -18 -79 -25t-93 -7
q-264 0 -317 209z" />
    <glyph glyph-name="uni20B1" unicode="&#x20b1;" horiz-adv-x="617" 
d="M60 291h-55v100h55v44h-55v100h55v109h272q73 0 124.5 -29t78.5 -80h77v-100h-49q1 -9 1 -28q0 -11 -1 -16h49v-100h-75q-28 -55 -82.5 -86.5t-126.5 -31.5h-80v-173h-188v291zM285 317q42 0 64.5 24.5t22.5 65.5q0 44 -20.5 68.5t-61.5 24.5h-42v-183h37z" />
    <glyph glyph-name="uni20B2" unicode="&#x20b2;" horiz-adv-x="651" 
d="M276 -1q-123 22 -187 103t-64 214q0 134 64 217.5t187 109.5v92h154v-82q82 -3 160 -27v-161q-78 29 -187 29q-94 0 -140 -42.5t-46 -135.5q0 -87 39.5 -127t120.5 -40q48 0 92 13v95h-128v116h285v-324q-77 -48 -196 -57v-112h-154v119z" />
    <glyph glyph-name="uni20B5" unicode="&#x20b5;" horiz-adv-x="607" 
d="M276 0q-123 24 -187 105.5t-64 213.5q0 136 63 218.5t188 106.5v91h154v-83q73 -5 150 -32v-164q-86 38 -184 38q-92 0 -135.5 -42t-43.5 -133q0 -88 45.5 -128.5t135.5 -40.5q99 0 184 37v-165q-77 -26 -152 -30v-112h-154v120z" />
    <glyph glyph-name="uni20B9" unicode="&#x20b9;" horiz-adv-x="458" 
d="M116 140q-12 28 -32.5 40.5t-58.5 12.5v106h63q45 0 70.5 15t31.5 51h-164v110h163q-8 28 -32 43t-61 15h-71v111h408v-111h-85q22 -22 28 -58h57v-110h-56q-18 -100 -127 -139q24 -14 35 -30.5t28 -55.5l60 -140h-196z" />
    <glyph glyph-name="uni20BA" unicode="&#x20ba;" horiz-adv-x="587" 
d="M90 271l-65 -21v95l65 21v48l-65 -21v95l65 21v135h187v-73l131 44v-94l-131 -44v-49l131 44v-94l-131 -44v-195q54 6 75.5 40.5t21.5 99.5v47h188v-35q0 -132 -74.5 -211.5t-214.5 -79.5h-183v271z" />
    <glyph glyph-name="uni20BD" unicode="&#x20bd;" horiz-adv-x="650" 
d="M76 53h-51v127h51v43h-51v132h51v289h317q116 0 174 -56t58 -158q0 -100 -65.5 -153.5t-176.5 -53.5h-119v-43h97v-127h-97v-53h-188v53zM346 355q44 0 66 18t22 57q0 42 -20.5 61.5t-62.5 19.5h-87v-156h82z" />
    <glyph glyph-name="uni210A" unicode="&#x210a;" horiz-adv-x="607" 
d="M173.5 -173q-45.5 3 -64.5 7v134q20 -5 52 -9t55 -4q84 0 121 13.5t37 47.5v11q-24 -14 -57 -23.5t-65 -9.5q-227 0 -227 233q0 82 29.5 140t81.5 87.5t118 29.5q40 0 76 -13t60 -34l9 37h163v-426q0 -107 -72 -165.5t-245 -58.5q-26 0 -71.5 3zM374 155v164
q-31 29 -70 29q-47 0 -67 -28t-20 -92q0 -57 19.5 -77.5t63.5 -20.5q46 0 74 25z" />
    <glyph glyph-name="uni2113" unicode="&#x2113;" horiz-adv-x="443" 
d="M120 38.5q-48 48.5 -48 131.5v87l-67 -19v142q45 10 67 22v165q0 89 46 136t125 47q85 0 127 -47.5t42 -128.5q0 -92 -47.5 -156.5t-126.5 -104.5v-148q0 -24 7.5 -35t25.5 -11q23 0 30.5 15.5t7.5 51.5h129q0 -58 -12.5 -100t-52 -69t-115.5 -27q-90 0 -138 48.5z
M259.5 505q15.5 22 15.5 51q0 52 -32 52q-19 0 -26 -13t-7 -42v-91q34 21 49.5 43z" />
    <glyph glyph-name="uni2117" unicode="&#x2117;" horiz-adv-x="714" 
d="M190.5 34.5q-76.5 44.5 -121 121t-44.5 166.5t44.5 166.5t121 121t166.5 44.5t166.5 -44.5t121 -121t44.5 -166.5t-44.5 -166.5t-121 -121t-166.5 -44.5t-166.5 44.5zM474.5 116q52.5 30 83 84t30.5 122t-30.5 121.5t-83 83.5t-117.5 30t-117.5 -30t-83 -83.5
t-30.5 -121.5t30.5 -122t83 -84t117.5 -30t117.5 30zM229 499h187q60 0 92 -34t32 -89q0 -56 -34 -90t-92 -34h-84v-107h-101v354zM375 330q33 0 48.5 9t15.5 37q0 26 -14 35.5t-45 9.5h-50v-91h45z" />
    <glyph glyph-name="uni2120" unicode="&#x2120;" horiz-adv-x="663" 
d="M79.5 364.5q-32.5 4.5 -50.5 12.5v81q20 -10 47.5 -15.5t50.5 -5.5q20 0 31 2.5t11 9.5q0 6 -8 10.5t-26 9.5q-5 2 -12 4t-14 5q-48 18 -66 36t-18 51q0 89 138 89q26 0 57 -4t48 -9v-80q-15 6 -38.5 10.5t-38.5 4.5q-24 0 -37 -2.5t-13 -10.5q0 -6 9.5 -10.5t26 -9
t24.5 -7.5q43 -13 63.5 -32t20.5 -55q0 -44 -37.5 -66.5t-99.5 -22.5q-36 0 -68.5 4.5zM302 644h98l70 -125l70 125h98v-282h-104v115l-42 -90h-44l-42 90v-115h-104v282z" />
    <glyph glyph-name="trademark" unicode="&#x2122;" horiz-adv-x="675" 
d="M104 543h-79v101h268v-101h-78v-181h-111v181zM314 644h98l70 -125l70 125h98v-282h-104v115l-42 -90h-44l-42 90v-115h-104v282z" />
    <glyph glyph-name="uni2126" unicode="&#x2126;" horiz-adv-x="749" 
d="M32 144h100q-54 39 -80.5 94t-26.5 130q0 100 41 173.5t119 113.5t189 40t189.5 -40t119.5 -113.5t41 -173.5q0 -77 -25.5 -132t-82.5 -92h101v-144h-309v150q65 38 94.5 87.5t29.5 119.5q0 83 -41 130.5t-117 47.5q-75 0 -116 -47.5t-41 -130.5q0 -70 29 -119.5
t94 -87.5v-150h-308v144z" />
    <glyph glyph-name="estimated" unicode="&#x212e;" horiz-adv-x="755" 
d="M199.5 32q-81.5 46 -128 126t-46.5 177q0 110 48 189t128.5 119.5t176.5 40.5q93 0 174 -42.5t129.5 -118t48.5 -170.5v-18h-560v-220q30 -38 87 -63t125 -25q93 0 148 25t109 92h48q-56 -88 -128 -123t-177 -35q-101 0 -182.5 46zM587 378v189q-31 34 -86 55.5
t-124 21.5q-129 0 -207 -76v-190h417z" />
    <glyph glyph-name="uni2153" unicode="&#x2153;" horiz-adv-x="701" 
d="M83 528l-58 -11v99l192 38v-284h-134v158zM415 644h178l-337 -644h-177zM468.5 -4.5q-37.5 4.5 -52.5 10.5v74q36 -16 79 -16q26 0 37 5t11 16t-9.5 16t-29.5 5h-46l5 63h39q19 0 27.5 5t8.5 16q0 18 -45 18q-39 0 -73 -16v75q17 6 50.5 11t60.5 5q71 0 105.5 -23
t34.5 -61q0 -41 -30 -62q35 -13 35 -58q0 -88 -145 -88q-25 0 -62.5 4.5z" />
    <glyph glyph-name="uni2154" unicode="&#x2154;" horiz-adv-x="731" 
d="M25 422q13 18 26.5 29.5t39.5 31.5q33 25 41.5 33.5t8.5 20.5q0 13 -10 18.5t-32 5.5q-29 0 -69 -17v90q21 8 55.5 14t66.5 6q60 0 93.5 -24t33.5 -63q0 -25 -9 -41.5t-31 -36.5l-19 -16q-10 -8 -16 -14h77v-89h-256v52zM445 644h178l-337 -644h-177zM498.5 -5.5
q-37.5 4.5 -52.5 10.5v74q36 -16 79 -16q26 0 37 5t11 16t-9.5 16t-29.5 5h-46l5 63h39q19 0 27.5 5t8.5 16q0 18 -45 18q-39 0 -73 -16v75q17 6 50.5 11t60.5 5q71 0 105.5 -23t34.5 -61q0 -41 -30 -62q35 -13 35 -58q0 -88 -145 -88q-25 0 -62.5 4.5z" />
    <glyph glyph-name="oneeighth" unicode="&#x215b;" horiz-adv-x="698" 
d="M83 528l-58 -11v99l192 38v-284h-134v158zM415 644h178l-337 -644h-177zM427.5 12.5q-38.5 22.5 -38.5 64.5q0 20 9.5 37t26.5 26q-29 19 -29 56q0 43 35.5 64.5t99.5 21.5t99.5 -21.5t35.5 -64.5q0 -37 -29 -58q36 -20 36 -61q0 -42 -38.5 -64.5t-103.5 -22.5
t-103.5 22.5zM559 175.5q5 6.5 5 18.5q0 24 -33 24t-33 -24q0 -21 20 -25l23 -5q13 5 18 11.5zM570 79q0 10 -6 15.5t-21 9.5l-26 6q-13 -4 -19 -10t-6 -19q0 -28 39 -28t39 26z" />
    <glyph glyph-name="threeeighths" unicode="&#x215c;" horiz-adv-x="705" 
d="M77.5 366.5q-37.5 4.5 -52.5 10.5v74q36 -16 79 -16q26 0 37 5t11 16t-9.5 16t-29.5 5h-46l5 63h39q19 0 27.5 5t8.5 16q0 18 -45 18q-39 0 -73 -16v75q17 6 50.5 11t60.5 5q71 0 105.5 -23t34.5 -61q0 -41 -30 -62q35 -13 35 -58q0 -88 -145 -88q-25 0 -62.5 4.5z
M422 644h178l-337 -644h-177zM434.5 12.5q-38.5 22.5 -38.5 64.5q0 20 9.5 37t26.5 26q-29 19 -29 56q0 43 35.5 64.5t99.5 21.5t99.5 -21.5t35.5 -64.5q0 -37 -29 -58q36 -20 36 -61q0 -42 -38.5 -64.5t-103.5 -22.5t-103.5 22.5zM566 175.5q5 6.5 5 18.5q0 24 -33 24
t-33 -24q0 -21 20 -25l23 -5q13 5 18 11.5zM577 79q0 10 -6 15.5t-21 9.5l-26 6q-13 -4 -19 -10t-6 -19q0 -28 39 -28t39 26z" />
    <glyph glyph-name="fiveeighths" unicode="&#x215d;" horiz-adv-x="698" 
d="M70.5 365.5q-29.5 3.5 -45.5 11.5v76q14 -7 35.5 -10.5t39.5 -3.5q26 0 38 6t12 19t-9 18t-32 5h-83v49l7 108h227l-4 -74h-115l-1 -20h32q55 0 80.5 -21t25.5 -66q0 -47 -36.5 -74t-110.5 -27q-31 0 -60.5 3.5zM415 644h178l-337 -644h-177zM427.5 12.5
q-38.5 22.5 -38.5 64.5q0 20 9.5 37t26.5 26q-29 19 -29 56q0 43 35.5 64.5t99.5 21.5t99.5 -21.5t35.5 -64.5q0 -37 -29 -58q36 -20 36 -61q0 -42 -38.5 -64.5t-103.5 -22.5t-103.5 22.5zM559 175.5q5 6.5 5 18.5q0 24 -33 24t-33 -24q0 -21 20 -25l23 -5q13 5 18 11.5z
M570 79q0 10 -6 15.5t-21 9.5l-26 6q-13 -4 -19 -10t-6 -19q0 -28 39 -28t39 26z" />
    <glyph glyph-name="seveneighths" unicode="&#x215e;" horiz-adv-x="688" 
d="M144 551h-119v93h261v-68l-90 -206h-131zM405 644h178l-337 -644h-177zM417.5 12.5q-38.5 22.5 -38.5 64.5q0 20 9.5 37t26.5 26q-29 19 -29 56q0 43 35.5 64.5t99.5 21.5t99.5 -21.5t35.5 -64.5q0 -37 -29 -58q36 -20 36 -61q0 -42 -38.5 -64.5t-103.5 -22.5
t-103.5 22.5zM549 175.5q5 6.5 5 18.5q0 24 -33 24t-33 -24q0 -21 20 -25l23 -5q13 5 18 11.5zM560 79q0 10 -6 15.5t-21 9.5l-26 6q-13 -4 -19 -10t-6 -19q0 -28 39 -28t39 26z" />
    <glyph glyph-name="arrowleft" unicode="&#x2190;" horiz-adv-x="718" 
d="M25 242v49l253 203l54 -74l-116 -93h477v-121h-477l116 -92l-54 -74z" />
    <glyph glyph-name="arrowup" unicode="&#x2191;" horiz-adv-x="504" 
d="M191 437l-92 -117l-74 55l202 253h49l203 -253l-74 -55l-93 117v-477h-121v477z" />
    <glyph glyph-name="arrowright" unicode="&#x2192;" horiz-adv-x="718" 
d="M385 114l116 92h-476v121h477l-117 93l55 74l253 -203v-49l-253 -202z" />
    <glyph glyph-name="arrowdown" unicode="&#x2193;" horiz-adv-x="504" 
d="M25 197l74 54l92 -116v476h121v-476l93 116l74 -54l-203 -253h-49z" />
    <glyph glyph-name="partialdiff" unicode="&#x2202;" horiz-adv-x="634" 
d="M84 38q-58 48 -58 126q0 25 6 52q24 107 89.5 160t183.5 53q34 0 70 -10t58 -26l2 13q3 15 3 29q0 39 -27.5 60.5t-92.5 21.5q-93 0 -166 -30l29 137q77 30 182 30q80 0 135 -29t83 -80t28 -115q0 -33 -7 -64l-24 -115q-28 -133 -105 -197t-219 -64q-112 0 -170 48z
M356 144.5q29 24.5 40 76.5l10 47q-42 31 -92 31q-52 0 -79 -22t-37 -68q-4 -22 -4 -30q0 -30 20 -44.5t64 -14.5q49 0 78 24.5z" />
    <glyph glyph-name="product" unicode="&#x220f;" horiz-adv-x="637" 
d="M45 706h547v-835h-188v691h-171v-691h-188v835z" />
    <glyph glyph-name="summation" unicode="&#x2211;" horiz-adv-x="538" 
d="M25 -13l208 275l-208 274v108h488v-145h-247l181 -237l-181 -238h247v-144h-488v107z" />
    <glyph glyph-name="minus" unicode="&#x2212;" horiz-adv-x="455" 
d="M25 356h405v-144h-405v144z" />
    <glyph glyph-name="uni2215" unicode="&#x2215;" horiz-adv-x="560" 
d="M343 662h192l-317 -662h-193z" />
    <glyph glyph-name="uni2219" unicode="&#x2219;" horiz-adv-x="198" 
d="M25 354h148v-135h-148v135z" />
    <glyph glyph-name="radical" unicode="&#x221a;" horiz-adv-x="719" 
d="M131 314h-106v144h231l82 -250l172 506h184l-251 -714h-194z" />
    <glyph glyph-name="infinity" unicode="&#x221e;" horiz-adv-x="670" 
d="M71.5 156q-46.5 43 -46.5 125t46.5 124.5t125.5 42.5q42 0 78.5 -17.5t59.5 -47.5q23 29 59 47t78 18q79 0 126 -42.5t47 -124.5t-47 -125t-126 -43q-42 0 -78 18t-59 47q-23 -30 -59.5 -47.5t-78.5 -17.5q-79 0 -125.5 43zM275 279q-26 50 -69 50q-25 0 -38 -13t-13 -35
q0 -23 13 -36t38 -13q42 0 69 47zM502 245q13 13 13 36q0 22 -13 35t-38 13q-44 0 -69 -50q28 -47 69 -47q25 0 38 13z" />
    <glyph glyph-name="integral" unicode="&#x222b;" horiz-adv-x="444" 
d="M5 -114v121q29 -10 60 -10q33 0 48 13t15 41v454q0 83 47.5 134t136.5 51q72 0 127 -23v-122q-31 11 -60 11q-33 0 -48 -13t-15 -42v-454q0 -83 -47.5 -133.5t-136.5 -50.5q-72 0 -127 23z" />
    </font>
</defs>
</svg>
