<svg xmlns="http://www.w3.org/2000/svg">
<defs>
<font id="Benoa-Medium" horiz-adv-x="0" >
  <font-face 
    font-family="Benoa Medium"
    font-weight="500"
    font-stretch="normal"
    units-per-em="1000"
    panose-1="2 2 10 3 6 3 3 6 4 3"
    ascent="800"
    descent="-200"
    x-height="578"
    cap-height="815"
    bbox="-512 -405 1529 1113"
    underline-thickness="20"
    underline-position="-120"
    unicode-range="U+0020-E045"
  />
<missing-glyph horiz-adv-x="518" 
d="M380 328q-56 -2 -104 15.5t-48 52.5q0 22 22.5 36t49.5 14q31 0 52.5 -15.5t21.5 -37.5q0 -15 -12.5 -25.5t-36.5 -10.5t-37 11.5t-13 25.5q0 13 10 20t22 7q24 0 24 -13v-2q0 -4 -2.5 -6t-5.5 -2q2 0 2 3q0 2 -2.5 4t-5.5 2q-8 0 -8 -9q0 -10 15 -10q8 0 14.5 4.5
t6.5 12.5q0 12 -12 19t-28 7q-17 0 -29 -9t-12 -25q0 -32 36 -49t83 -16zM160 85.5q-28 14.5 -28 41.5q0 35 41.5 54.5t98.5 19.5h18q-4 7 -4 17q0 17 8.5 36.5t21.5 42.5q2 5 6 13t2 8q-3 0 -14.5 -16.5t-23.5 -41t-18 -50.5l-14 1q-19 0 -28 -3q16 32 44 82q14 24 13 24
q-4 0 -27.5 -31t-47.5 -76q-31 -6 -56.5 -19.5t-36.5 -25.5l-2 3q77 65 122 141q-32 -44 -86 -91t-84 -47q-13 0 -20 9.5t-7 28.5q0 16 5 35t14 35q21 40 55 70t59 30q29 0 46 -8.5t17 -20.5q0 -9 -8.5 -17.5t-23.5 -14.5l-30 5q32 32 32 44q0 4 -5 4q-17 0 -45 -32.5
t-50 -73.5t-22 -60q0 -12 10 -12q20 0 66 39.5t75 81.5q8 12 22 12q6 0 9.5 -2.5t1.5 -5.5q-3 -7 -8.5 -16t-10.5 -19q13 16 24 28t16 12q8 0 12 -1t3 -4l-10 -20q21 27 32 27q8 0 23.5 -4.5t12.5 -10.5q-21 -40 -32 -65.5t-7 -43.5q53 -10 53 -25q0 -5 -2.5 -9.5t-6.5 -4.5
q-15 0 -33 6.5t-30 19.5q3 -1 7.5 -2t9.5 -3q5 -6 17 -10.5t22.5 -6t10.5 1.5t-15.5 10t-38 12.5t-45.5 5.5q-47 0 -71 -20t-24 -46q0 -21 16.5 -34t40.5 -13q19 0 31 7.5t12 21.5q0 8 -6.5 13.5t-19.5 5.5q-8 0 -12 -3t-4 -7t3.5 -6.5t8.5 -2.5q4 0 4 3q0 5 -6 5q2 3 6 3
q5 0 9 -3t4 -8q0 -6 -6.5 -10t-18.5 -4q-19 0 -31.5 9.5t-12.5 25.5t13.5 28t37.5 12t42.5 -12.5t18.5 -34.5q0 -25 -23.5 -38.5t-57.5 -13.5q-36 0 -64 14.5zM347 207.5q-10 8.5 -7 24.5q6 27 24 59t42.5 54t49.5 22q10 0 17.5 -3.5t7.5 -6.5q0 -10 -17.5 -20t-36.5 -13

<glyph glyph-name=".notdef" horiz-adv-x="518" 
d="M380 328q-56 -2 -104 15.5t-48 52.5q0 22 22.5 36t49.5 14q31 0 52.5 -15.5t21.5 -37.5q0 -15 -12.5 -25.5t-36.5 -10.5t-37 11.5t-13 25.5q0 13 10 20t22 7q24 0 24 -13v-2q0 -4 -2.5 -6t-5.5 -2q2 0 2 3q0 2 -2.5 4t-5.5 2q-8 0 -8 -9q0 -10 15 -10q8 0 14.5 4.5
t6.5 12.5q0 12 -12 19t-28 7q-17 0 -29 -9t-12 -25q0 -32 36 -49t83 -16zM160 85.5q-28 14.5 -28 41.5q0 35 41.5 54.5t98.5 19.5h18q-4 7 -4 17q0 17 8.5 36.5t21.5 42.5q2 5 6 13t2 8q-3 0 -14.5 -16.5t-23.5 -41t-18 -50.5l-14 1q-19 0 -28 -3q16 32 44 82q14 24 13 24
q-4 0 -27.5 -31t-47.5 -76q-31 -6 -56.5 -19.5t-36.5 -25.5l-2 3q77 65 122 141q-32 -44 -86 -91t-84 -47q-13 0 -20 9.5t-7 28.5q0 16 5 35t14 35q21 40 55 70t59 30q29 0 46 -8.5t17 -20.5q0 -9 -8.5 -17.5t-23.5 -14.5l-30 5q32 32 32 44q0 4 -5 4q-17 0 -45 -32.5
t-50 -73.5t-22 -60q0 -12 10 -12q20 0 66 39.5t75 81.5q8 12 22 12q6 0 9.5 -2.5t1.5 -5.5q-3 -7 -8.5 -16t-10.5 -19q13 16 24 28t16 12q8 0 12 -1t3 -4l-10 -20q21 27 32 27q8 0 23.5 -4.5t12.5 -10.5q-21 -40 -32 -65.5t-7 -43.5q53 -10 53 -25q0 -5 -2.5 -9.5t-6.5 -4.5
q-15 0 -33 6.5t-30 19.5q3 -1 7.5 -2t9.5 -3q5 -6 17 -10.5t22.5 -6t10.5 1.5t-15.5 10t-38 12.5t-45.5 5.5q-47 0 -71 -20t-24 -46q0 -21 16.5 -34t40.5 -13q19 0 31 7.5t12 21.5q0 8 -6.5 13.5t-19.5 5.5q-8 0 -12 -3t-4 -7t3.5 -6.5t8.5 -2.5q4 0 4 3q0 5 -6 5q2 3 6 3
q5 0 9 -3t4 -8q0 -6 -6.5 -10t-18.5 -4q-19 0 -31.5 9.5t-12.5 25.5t13.5 28t37.5 12t42.5 -12.5t18.5 -34.5q0 -25 -23.5 -38.5t-57.5 -13.5q-36 0 -64 14.5zM347 207.5q-10 8.5 -7 24.5q6 27 24 59t42.5 54t49.5 22q10 0 17.5 -3.5t7.5 -6.5q0 -10 -17.5 -20t-36.5 -13
q-19 -27 -33.5 -58.5t-14.5 -47.5q0 -10 7 -10q14 0 28 10.5t20 22.5h17q-8 -14 -32 -28t-45 -14q-17 0 -27 8.5zM462.5 341.5q11.5 6.5 14.5 12.5t-4 6q-8 0 -18.5 -7.5t-20.5 -20.5q17 3 28.5 9.5z" />
    <glyph glyph-name=".null" 
 />
    <glyph glyph-name="nonmarkingreturn" horiz-adv-x="333" 
 />
    <glyph glyph-name="space" unicode=" " horiz-adv-x="226" 
 />
    <glyph glyph-name="exclam" unicode="!" horiz-adv-x="292" 
d="M133 271q-2 31 -10.5 70t-25.5 108q-23 93 -34.5 151t-11.5 107q0 39 15.5 67.5t38 42.5t43.5 14t44 -14t38.5 -42.5t15.5 -67.5q0 -51 -13 -112.5t-37 -155.5q-31 -118 -37 -168h-26zM69.5 14.5q-31.5 31.5 -31.5 76.5q0 46 31.5 77.5t76.5 31.5q46 0 77 -31.5t31 -77.5
q0 -45 -31 -76.5t-77 -31.5q-45 0 -76.5 31.5z" />
    <glyph glyph-name="quotedbl" unicode="&#x22;" horiz-adv-x="450" 
d="M264 547h-75q10 53 13 102l-37 -102h-75q13 65 13 141q0 72 -13 127h270z" />
    <glyph glyph-name="numbersign" unicode="#" horiz-adv-x="706" 
d="M669 435l-31 -73h-133l-38 -96h144l-31 -73h-141l-53 -137h-74l53 137h-98l-53 -137h-74l53 137h-155l31 73h152l38 96h-163l31 73h160l58 150h73l-58 -150h99l58 150h74l-58 -150h136zM295 266h98l38 96h-99z" />
    <glyph glyph-name="dollar" unicode="$" horiz-adv-x="791" 
d="M354 -3q-80 2 -160 24.5t-150 64.5l23 168q48 -32 129 -59.5t158 -36.5v217q-98 17 -162 37t-109 64.5t-45 121.5q0 104 87.5 162.5t228.5 70.5v59h83v-56q132 -2 261 -40l-19 -148q-43 26 -108.5 42t-133.5 18v-198q93 -17 159 -39.5t111.5 -71t45.5 -128.5
q0 -77 -41.5 -135t-113.5 -92t-161 -43v-65h-83v63zM354 702q-61 -6 -98.5 -29.5t-37.5 -64.5q0 -38 34.5 -55t101.5 -29v178zM437 155q62 4 101 31.5t39 78.5q0 39 -35.5 59t-104.5 34v-203z" />
    <glyph glyph-name="percent" unicode="%" horiz-adv-x="899" 
d="M568 745q-32 -3 -64 -3q-46 0 -109 7q30 -52 30 -131q0 -94 -50 -152.5t-144 -58.5t-143.5 58.5t-49.5 152.5q0 213 202 213q37 0 122 -13q68 -9 107.5 -13.5t83.5 -4.5q72 0 132 15l-413 -822h-83zM263 520.5q18 9.5 31.5 33.5t13.5 63q0 53 -20 77t-57 26
q-37 0 -57 -25.5t-20 -77.5q0 -59 22 -82.5t54 -23.5q15 0 33 9.5zM524.5 41.5q-49.5 58.5 -49.5 152.5q0 104 48.5 158.5t144.5 54.5q97 0 145.5 -54.5t48.5 -158.5q0 -94 -50 -152.5t-144 -58.5t-143.5 58.5zM720.5 112.5q25.5 24.5 25.5 80.5t-22.5 80t-56.5 24
q-32 0 -54 -24t-22 -80q0 -58 22 -81.5t54 -23.5q28 0 53.5 24.5z" />
    <glyph glyph-name="ampersand" unicode="&#x26;" horiz-adv-x="839" 
d="M148 12q-51 29 -80.5 82.5t-29.5 124.5q0 96 53.5 171t151.5 104v3q-36 35 -54 75t-18 80q0 54 30.5 95t81.5 63t112 22q59 0 104.5 -19.5t71.5 -54.5t26 -80q0 -46 -27.5 -81.5t-71.5 -42.5q7 24 7 44q0 40 -23 63.5t-54 23.5q-38 0 -57.5 -21.5t-19.5 -52.5
q0 -30 15 -51l122 -165q33 46 82 77.5t100 31.5q56 0 103 -40v-102q-30 10 -59 10q-45 0 -81.5 -24t-63.5 -68l198 -280h-225q-3 34 -12 50t-29 41l-35 45q-36 -70 -87 -111.5t-118 -41.5q-62 0 -113 29zM340 174.5q24 28.5 51 79.5l-93 131q-40 -22 -60.5 -61.5
t-20.5 -81.5t20 -69t53 -27q26 0 50 28.5z" />
    <glyph glyph-name="quotesingle" unicode="'" horiz-adv-x="243" 
d="M38 547q12 72 12 150q0 74 -12 118h168l-92 -268h-76z" />
    <glyph glyph-name="parenleft" unicode="(" horiz-adv-x="481" 
d="M443 -62q-137 0 -225.5 46.5t-134 152.5t-45.5 281q0 171 45 273.5t132 148t220 45.5v-74q-89 0 -145.5 -82.5t-56.5 -310.5q0 -231 59 -318.5t151 -87.5v-74z" />
    <glyph glyph-name="parenright" unicode=")" horiz-adv-x="481" 
d="M38 12q92 0 151.5 87.5t59.5 318.5q0 228 -57 310.5t-146 82.5v74q133 0 220.5 -45.5t132.5 -148.5t45 -273q0 -175 -45.5 -281t-134.5 -152.5t-226 -46.5v74z" />
    <glyph glyph-name="asterisk" unicode="*" horiz-adv-x="320" 
d="M220 606h62v-49h-63l46 -45l-35 -35l-45 44v-62h-49v63l-45 -45l-35 35l46 45h-64v49h63l-44 44l35 35l44 -45v64h49v-63l44 44l35 -35z" />
    <glyph glyph-name="plus" unicode="+" horiz-adv-x="442" 
d="M258 126h-73v147h-147v74h147v146h73v-146h147v-74h-147v-147z" />
    <glyph glyph-name="comma" unicode="," horiz-adv-x="309" 
d="M120 -185h-97l72 267h176z" />
    <glyph glyph-name="hyphen" unicode="-" horiz-adv-x="395" 
d="M358 272h-320v74h320v-74z" />
    <glyph glyph-name="period" unicode="." horiz-adv-x="273" 
d="M66.5 17q-28.5 29 -28.5 70t28.5 70t69.5 29t70 -29t29 -70t-29 -70t-70 -29t-69.5 29z" />
    <glyph glyph-name="slash" unicode="/" horiz-adv-x="383" 
d="M117 -95h-79l229 910h79z" />
    <glyph glyph-name="zero" unicode="0" horiz-adv-x="744" 
d="M188 38.5q-75 54.5 -112.5 149.5t-37.5 217q0 208 83.5 317t250.5 109t251 -109t84 -317q0 -122 -37.5 -217t-113 -149.5t-184.5 -54.5t-184 54.5zM428.5 139.5q30.5 24.5 54 89.5t23.5 176q0 295 -134 295q-62 0 -98 -70t-36 -225q0 -112 22 -176.5t52 -89t60 -24.5
q26 0 56.5 24.5z" />
    <glyph glyph-name="one" unicode="1" horiz-adv-x="349" 
d="M72 0q15 26 18.5 49t3.5 62v469q0 49 -10.5 88t-38.5 63l244 84v-704q0 -39 3.5 -62t18.5 -49h-239z" />
    <glyph glyph-name="two" unicode="2" horiz-adv-x="651" 
d="M45 0q0 70 32.5 135t78 116.5t118.5 123.5q78 77 114 123t36 89q0 40 -34 61.5t-90 21.5q-49 0 -105 -17t-110 -50l-15 164q57 30 126 47t137 17q122 0 202.5 -53t80.5 -160q0 -52 -23.5 -99t-57 -85.5t-89.5 -92.5q-60 -58 -95 -100.5t-46 -86.5q119 0 198 5t123 22
l-10 -181h-571z" />
    <glyph glyph-name="three" unicode="3" horiz-adv-x="692" 
d="M111 51l7 140q110 -55 196 -55q49 0 85 16.5t54.5 44t18.5 57.5q0 31 -22.5 61t-65.5 49.5t-100 20.5v100q51 8 87 28t54.5 46.5t18.5 52.5q0 34 -31 56t-88 22q-38 0 -83.5 -11t-85.5 -30l-16 150q115 33 207 33q86 0 146 -26t89.5 -68.5t29.5 -91.5q0 -63 -45.5 -117
t-127.5 -78v-10q63 -2 111 -29.5t74.5 -73t26.5 -101.5q0 -69 -39.5 -125.5t-109.5 -89t-159 -32.5q-120 0 -232 61z" />
    <glyph glyph-name="four" unicode="4" horiz-adv-x="734" 
d="M406 0q15 26 18.5 49t3.5 62v55h-360v111l395 538h160v-525h74v-124h-74v-55q0 -39 3.5 -62t18.5 -49h-239zM428 560l-184 -270h184v270z" />
    <glyph glyph-name="five" unicode="5" horiz-adv-x="665" 
d="M54 18v158q95 -33 177 -33q68 0 117.5 24.5t74.5 65t25 85.5q0 41 -22.5 74.5t-64 53t-97.5 19.5q-68 0 -147 -32l-43 46l41 336h442l10 -172q-18 19 -56 25t-89 6h-41h-170l-14 -103q55 17 109 17q152 0 229 -75t77 -202q0 -83 -41.5 -157t-124.5 -119.5t-199 -45.5
q-90 0 -193 29z" />
    <glyph glyph-name="six" unicode="6" horiz-adv-x="670" 
d="M185.5 31.5q-70.5 52.5 -109 147t-38.5 218.5q0 128 45 226.5t124.5 152t180.5 53.5q112 0 210 -70l-36 -112q-79 53 -157 53q-56 0 -100.5 -28.5t-70.5 -86.5t-26 -143h10q30 51 81.5 78.5t112.5 27.5q60 0 112.5 -28.5t85 -87.5t32.5 -145q0 -83 -36 -153.5
t-103 -112.5t-154 -42q-93 0 -163.5 52.5zM441 145q33 40 33 114q0 54 -18.5 91.5t-48 56t-63.5 18.5q-32 0 -60.5 -16.5t-46 -47.5t-17.5 -73q0 -57 20.5 -98.5t53 -63t67.5 -21.5q47 0 80 40z" />
    <glyph glyph-name="seven" unicode="7" horiz-adv-x="536" 
d="M106 0l223 654v24h-160q-38 0 -66.5 -6t-56.5 -24v167h462v-159l-207 -656h-195z" />
    <glyph glyph-name="eight" unicode="8" horiz-adv-x="675" 
d="M178.5 12.5q-69.5 30.5 -110 90.5t-40.5 146q0 90 38.5 145t108.5 79q-48 24 -76 66t-28 98q0 95 64 145t188 50q253 0 253 -195q0 -54 -25.5 -94.5t-70.5 -66.5q81 -22 119.5 -76t38.5 -151q0 -86 -40.5 -146t-109.5 -90.5t-154 -30.5q-86 0 -155.5 30.5zM386.5 552.5
q26.5 30.5 26.5 85.5q0 56 -26 86.5t-64 30.5t-64 -30.5t-26 -86.5q0 -55 26.5 -85.5t63.5 -30.5t63.5 30.5zM411 132q32 43 32 121q0 77 -32 119.5t-78 42.5t-78 -42.5t-32 -119.5q0 -78 32 -121t78 -43t78 43z" />
    <glyph glyph-name="nine" unicode="9" horiz-adv-x="682" 
d="M70 42l37 127q71 -45 147 -45q56 0 103.5 27t75.5 80t28 127h-4q-16 -54 -67.5 -85.5t-114.5 -31.5q-60 0 -114 31t-88.5 96t-34.5 161q0 93 38 161t105 104.5t152 36.5q144 0 227.5 -100t83.5 -295q0 -129 -45 -230.5t-129.5 -159t-199.5 -57.5q-105 0 -200 53z
M391 372.5q29 18.5 46.5 54.5t17.5 86q0 63 -19 107t-49 65.5t-64 21.5q-32 0 -61 -19.5t-46.5 -57t-17.5 -89.5q0 -61 18.5 -103t49 -63t64.5 -21q32 0 61 18.5z" />
    <glyph glyph-name="colon" unicode=":" horiz-adv-x="273" 
d="M66.5 17q-28.5 29 -28.5 70t28.5 70t69.5 29t70 -29t29 -70t-29 -70t-70 -29t-69.5 29zM66.5 382q-28.5 29 -28.5 70t28.5 70t69.5 29t70 -29t29 -70t-29 -70t-70 -29t-69.5 29z" />
    <glyph glyph-name="semicolon" unicode=";" horiz-adv-x="323" 
d="M107.5 246q-28.5 29 -28.5 70t28.5 70t69.5 29t70 -29t29 -70t-29 -70t-70 -29t-69.5 29zM120 -185h-97l72 267h176z" />
    <glyph glyph-name="less" unicode="&#x3c;" horiz-adv-x="405" 
d="M368 239v-119l-330 200v4l330 196v-118l-137 -80v-1z" />
    <glyph glyph-name="equal" unicode="=" horiz-adv-x="442" 
d="M405 342h-367v74h367v-74zM405 201h-367v74h367v-74z" />
    <glyph glyph-name="greater" unicode="&#x3e;" horiz-adv-x="405" 
d="M368 320l-330 -200v119l136 82v1l-136 80v118l330 -196v-4z" />
    <glyph glyph-name="question" unicode="?" horiz-adv-x="473" 
d="M142 234q-8 24 -8 51q0 47 21.5 88t62.5 96q35 47 53 79.5t18 66.5q0 41 -25.5 64.5t-67.5 23.5q-62 0 -135 -51l-23 115q38 32 86 48t97 16q59 0 108 -22t78 -61.5t29 -90.5q0 -41 -17.5 -78.5t-42 -67t-66.5 -72.5q-40 -41 -63 -70t-37.5 -63t-10.5 -72h-57zM112 17
q-29 29 -29 70t29 70t70 29t70 -29t29 -70t-29 -70t-70 -29t-70 29z" />
    <glyph glyph-name="at" unicode="@" horiz-adv-x="957" 
d="M288.5 -38.5q-114.5 45.5 -182.5 137.5t-68 224q0 106 57 194.5t162.5 140.5t244.5 52q121 0 216 -42t148.5 -115.5t53.5 -165.5q0 -68 -31 -123t-82 -85.5t-108 -30.5q-58 0 -96 35.5t-38 104.5h-5q-5 -60 -39.5 -92t-80.5 -32q-33 0 -62.5 16.5t-48 48t-18.5 74.5
q0 48 26.5 83.5t70.5 54t95 18.5q87 0 160 -61q-33 -73 -33 -116q0 -25 13 -39.5t32 -14.5q35 0 59 35.5t24 89.5q0 71 -36 120t-95.5 74t-130.5 25q-79 0 -145.5 -32.5t-106 -90.5t-39.5 -130q0 -89 47 -148t125 -87.5t173 -28.5q84 0 170 21t160 61v-151
q-77 -34 -164.5 -52t-174.5 -18q-138 0 -252.5 45.5zM504.5 293q33.5 26 61.5 75q-16 5 -41 5q-45 0 -79.5 -20t-34.5 -47q0 -17 9.5 -28t24.5 -11q26 0 59.5 26z" />
    <glyph glyph-name="A" unicode="A" horiz-adv-x="816" 
d="M28 0q16 26 24.5 45.5t14.5 38t9 27.5l197 610q9 29 9 54q0 21 -5 40h265q-5 -17 -5 -41q0 -29 8 -53l204 -610q11 -36 20 -58.5t28 -52.5h-241q11 28 11 56q0 23 -8 55l-38 130h-218l-38 -130q-8 -32 -8 -55q0 -28 11 -56h-240zM412 651l-85 -298h170z" />
    <glyph glyph-name="B" unicode="B" horiz-adv-x="682" 
d="M38 0q15 26 18.5 49t3.5 62v593q0 39 -3.5 62t-18.5 49h313q77 0 130.5 -27t80.5 -71t27 -93q0 -42 -19.5 -80.5t-58.5 -64.5t-93 -31v-5q72 0 123 -27t77.5 -72.5t26.5 -101.5q0 -61 -31 -116.5t-93.5 -90.5t-151.5 -35h-331zM255 490q8 -1 24 -1q71 0 107.5 35t36.5 92
q0 55 -34 81.5t-92 26.5q-19 0 -42 -3v-231zM255 96q9 -1 25 -1q77 0 124.5 38.5t47.5 121.5q0 74 -47.5 107t-115.5 33q-12 0 -34 -2v-297z" />
    <glyph glyph-name="C" unicode="C" horiz-adv-x="651" 
d="M219.5 34.5q-82.5 50.5 -132 147t-49.5 227.5q0 134 44.5 229t124 144t183.5 49q54 0 113.5 -16.5t107.5 -45.5l-15 -149q-94 55 -173 55q-87 0 -138.5 -68t-51.5 -198q0 -84 27 -143t73.5 -89.5t104.5 -30.5q81 0 157 55l16 -155q-103 -62 -211 -62q-98 0 -180.5 50.5z
" />
    <glyph glyph-name="D" unicode="D" horiz-adv-x="729" 
d="M38 0q15 26 18.5 49t3.5 62v593q0 39 -3.5 62t-18.5 49h289q365 0 365 -393q0 -205 -90 -313.5t-274 -108.5h-290zM255 107q127 -5 184.5 73.5t57.5 244.5q0 117 -31.5 181t-84.5 86t-126 18v-603z" />
    <glyph glyph-name="E" unicode="E" horiz-adv-x="588" 
d="M38 0q15 26 18.5 49t3.5 62v593q0 39 -3.5 62t-18.5 49h498l15 -147q-69 18 -139.5 23t-156.5 5v-192h191l7 -73h-198v-311q86 0 156.5 5t139.5 23l-15 -148h-498z" />
    <glyph glyph-name="F" unicode="F" horiz-adv-x="588" 
d="M38 0q15 26 18.5 49t3.5 62v593q0 39 -3.5 62t-18.5 49h498l15 -150q-71 19 -140.5 25t-155.5 6v-194h191l7 -74h-198v-317q0 -39 3.5 -62t18.5 -49h-239z" />
    <glyph glyph-name="G" unicode="G" horiz-adv-x="738" 
d="M432 0q-140 0 -228 54.5t-127 144.5t-39 201q0 134 46.5 230t136 147t214.5 51q118 0 245 -51l-22 -170q-115 69 -212 69q-94 0 -151 -71t-57 -213q0 -120 50.5 -194.5t129.5 -94.5h62v150q0 38 -7 72.5t-27 75.5h254q-15 -31 -20 -63t-5 -81v-155q0 -35 6.5 -61.5
t18.5 -40.5h-268z" />
    <glyph glyph-name="H" unicode="H" horiz-adv-x="736" 
d="M38 0q15 26 18.5 49t3.5 62v593q0 39 -3.5 62t-18.5 49h239q-15 -26 -18.5 -49t-3.5 -62v-214h227v214q0 39 -3.5 62t-18.5 49h239q-15 -26 -18.5 -49t-3.5 -62v-593q0 -39 3.5 -62t18.5 -49h-239q15 26 18.5 49t3.5 62v306h-227v-306q0 -39 3.5 -62t18.5 -49h-239z" />
    <glyph glyph-name="I" unicode="I" horiz-adv-x="314" 
d="M38 0q15 26 18.5 49t3.5 62v593q0 39 -3.5 62t-18.5 49h239q-15 -26 -18.5 -49t-3.5 -62v-593q0 -39 3.5 -62t18.5 -49h-239z" />
    <glyph glyph-name="J" unicode="J" horiz-adv-x="603" 
d="M152.5 -3.5q-59.5 16.5 -114.5 47.5l36 130q44 -28 91.5 -46t85.5 -18q44 0 71 27t27 82v485q0 39 -3.5 62t-18.5 49h239q-15 -26 -18.5 -49t-3.5 -62v-462q0 -85 -36.5 -144t-99 -88.5t-140.5 -29.5q-56 0 -115.5 16.5z" />
    <glyph glyph-name="K" unicode="K" horiz-adv-x="694" 
d="M38 0q15 26 18.5 49t3.5 62v593q0 39 -3.5 62t-18.5 49h239q-15 -26 -18.5 -49t-3.5 -62v-239q48 17 83 57t66 109q36 88 49 184h192q-57 -166 -120.5 -258t-153.5 -110v-8q89 0 143 -26t70 -92l50 -210q12 -52 41 -111h-251q9 21 9 50q0 19 -2 27l-34 199q-10 58 -47 86
t-95 44v-295q0 -39 3.5 -62t18.5 -49h-239z" />
    <glyph glyph-name="L" unicode="L" horiz-adv-x="578" 
d="M40 0q10 25 15 46t5 65v593q0 39 -3.5 62t-18.5 49h239q-15 -26 -18.5 -49t-3.5 -62v-584h39q68 0 125 5.5t121 22.5l-20 -148h-480z" />
    <glyph glyph-name="M" unicode="M" horiz-adv-x="858" 
d="M38 0q15 26 18.5 49t3.5 62l1 593q0 41 -3 64t-19 47h165q19 0 29.5 -4.5t16 -12.5t15.5 -28l162 -328l170 326q25 47 66 47h158q-16 -24 -19 -47t-3 -64l-1 -593q0 -39 3.5 -62t18.5 -49h-239q15 26 18.5 49t3.5 62v483l-166 -362h-20l-162 362v-483q0 -39 3.5 -62
t18.5 -49h-239z" />
    <glyph glyph-name="N" unicode="N" horiz-adv-x="768" 
d="M38 0q15 26 18.5 49t3.5 62v569q0 95 -20 135h115q50 0 78 -18t49 -64l222 -496v467q0 39 -3.5 62t-18.5 49h239q-15 -26 -18.5 -49t-3.5 -62v-593q0 -39 3.5 -62t18.5 -49h-138q-34 0 -59 10t-47 37.5t-44 80.5l-178 418v-435q0 -39 3.5 -62t18.5 -49h-239z" />
    <glyph glyph-name="O" unicode="O" horiz-adv-x="744" 
d="M188 38.5q-75 54.5 -112.5 149.5t-37.5 217q0 208 83.5 317t250.5 109t251 -109t84 -317q0 -122 -37.5 -217t-113 -149.5t-184.5 -54.5t-184 54.5zM428.5 139.5q30.5 24.5 54 89.5t23.5 176q0 295 -134 295q-62 0 -98 -70t-36 -225q0 -112 22 -176.5t52 -89t60 -24.5
q26 0 56.5 24.5z" />
    <glyph glyph-name="P" unicode="P" horiz-adv-x="682" 
d="M38 0q15 26 18.5 49t3.5 62v593q0 36 -4 63t-16 48h313q150 0 226.5 -69t76.5 -197q0 -87 -35 -147t-90.5 -89t-116.5 -29q-49 0 -91 19t-64 54h-4v-246q0 -39 3.5 -62t18.5 -49h-239zM402 385q28 24 43.5 66t15.5 95q0 96 -45 136t-122 40q-13 0 -39 -2v-321
q16 -18 38 -28t45 -10q36 0 64 24z" />
    <glyph glyph-name="Q" unicode="Q" horiz-adv-x="759" 
d="M689 -96q-56 30 -92 45.5t-87.5 26.5t-118.5 9q-6 -1 -19 -1q-109 -4 -184 50.5t-112.5 151t-37.5 219.5q0 208 83.5 317t250.5 109t251 -109t84 -317q0 -108 -29 -195.5t-85 -140.5h137zM428.5 139.5q30.5 24.5 54 89.5t23.5 176q0 295 -134 295q-62 0 -98 -70t-36 -225
q0 -112 22 -176.5t52 -89t60 -24.5q26 0 56.5 24.5z" />
    <glyph glyph-name="R" unicode="R" horiz-adv-x="670" 
d="M38 0q15 26 18.5 49t3.5 62v593q0 36 -4 63t-16 48h338q77 0 129 -28t77.5 -75.5t25.5 -104.5t-26.5 -103t-73.5 -73.5t-106 -28.5v-5q73 -5 114.5 -43t59.5 -90t33 -133q17 -91 36 -131h-227q5 28 5 63q0 44 -5 99q-7 84 -43.5 132t-93.5 65h-28v-248q0 -39 3.5 -62
t18.5 -49h-239zM276 445q77 0 114 43t37 116q0 59 -29.5 98t-83.5 39h-59v-296h21z" />
    <glyph glyph-name="S" unicode="S" horiz-adv-x="642" 
d="M158 10.5q-72 25.5 -129 75.5l26 171q48 -52 122.5 -85.5t134.5 -33.5q51 0 85 26.5t34 71.5q0 32 -22.5 58.5t-55.5 47t-92 51.5q-72 38 -115.5 66t-74 69t-30.5 94q0 103 84.5 156t216.5 53q109 0 219 -35l-13 -168q-42 29 -100.5 46t-108.5 17q-51 0 -84.5 -17.5
t-33.5 -51.5q0 -30 34 -55t108 -63q78 -41 128 -74t86 -81.5t36 -111.5q0 -78 -42.5 -135.5t-113 -87t-153.5 -29.5q-74 0 -146 25.5z" />
    <glyph glyph-name="T" unicode="T" horiz-adv-x="698" 
d="M229 0q15 26 18.5 49t3.5 62v588q-54 -1 -103.5 -6.5t-109.5 -21.5l13 144h596l13 -144q-60 16 -109.5 21.5t-104.5 6.5v-588q0 -39 3.5 -62t18.5 -49h-239z" />
    <glyph glyph-name="U" unicode="U" horiz-adv-x="718" 
d="M202.5 16.5q-67.5 33.5 -105 96.5t-37.5 149v442q0 39 -3.5 62t-18.5 49h239q-15 -26 -18.5 -49t-3.5 -62v-506q0 -47 31 -73.5t74 -26.5q42 0 73.5 26.5t31.5 73.5l-1 506q0 39 -3.5 62t-18.5 49h239q-15 -26 -18.5 -49t-3.5 -62v-442q0 -85 -38.5 -148t-106.5 -97
t-156 -34t-155.5 33.5z" />
    <glyph glyph-name="V" unicode="V" horiz-adv-x="748" 
d="M245 0q1 5 1 16q0 34 -19 109l-140 551q-13 50 -24 76.5t-35 62.5h220l133 -668l129 668h211q-27 -39 -37 -64t-23 -75l-142 -558q-18 -74 -18 -100q0 -6 2 -18h-258z" />
    <glyph glyph-name="W" unicode="W" horiz-adv-x="1120" 
d="M229 0q2 12 2 37q0 38 -7 73.5t-22 93.5l-119 478q-10 40 -23 70.5t-32 62.5h225q-2 -16 0.5 -48t8.5 -55l117 -460l73 370q1 7 5 23q14 66 14 102t-11 68h211q-9 -31 -9 -62q0 -23 4 -47.5t9 -49t7 -34.5l73 -363l107 453q5 23 8 55.5t1 47.5h221q-18 -31 -28.5 -58.5
t-22.5 -74.5l-114 -478l-6 -25q-11 -50 -16 -78.5t-5 -61.5q0 -26 2 -39h-229q1 29 -9.5 91.5t-23.5 112.5l-73 318l-72 -318q-15 -57 -26 -115t-11 -89h-229z" />
    <glyph glyph-name="X" unicode="X" horiz-adv-x="775" 
d="M23 0q42 43 71 88l195 326l-198 318q-2 4 -19.5 33t-41.5 50h224q-2 -20 14 -53.5t52 -98.5l68 -123l72 126q26 45 44.5 86.5t17.5 62.5h230q-12 -8 -29.5 -29.5t-27.5 -37.5l-209 -335l209 -334q4 -6 19 -29.5t38 -49.5h-231q-2 21 -16 51.5t-45 88.5l-72 139l-76 -139
q-24 -42 -42.5 -83t-20.5 -57h-226z" />
    <glyph glyph-name="Y" unicode="Y" horiz-adv-x="760" 
d="M261 0q15 26 18.5 49t3.5 62v216l-197 379q-30 58 -64 109h197q4 -24 15 -48.5t22.5 -46t15.5 -28.5l115 -220l114 222l17 34t21 47.5t10 39.5h190q-19 -27 -34 -53.5t-30 -55.5l-197 -379v-216q0 -39 3.5 -62t18.5 -49h-239z" />
    <glyph glyph-name="Z" unicode="Z" horiz-adv-x="658" 
d="M23 0l361 706h-110q-149 0 -241 -39l16 148h577l-359 -711h110q153 0 239 51l-17 -155h-576z" />
    <glyph glyph-name="bracketleft" unicode="[" horiz-adv-x="439" 
d="M401 -61h-363v931h363v-74h-168v-783h168v-74z" />
    <glyph glyph-name="backslash" unicode="\" horiz-adv-x="383" 
d="M117 815l229 -910h-79l-229 910h79z" />
    <glyph glyph-name="bracketright" unicode="]" horiz-adv-x="439" 
d="M402 870v-931h-364v74h169v783h-169v74h364z" />
    <glyph glyph-name="asciicircum" unicode="^" horiz-adv-x="515" 
d="M262 675l216 -330h-83l-137 207l-138 -207h-82l220 330h4z" />
    <glyph glyph-name="underscore" unicode="_" horiz-adv-x="455" 
d="M418 -84h-380v74h380v-74z" />
    <glyph glyph-name="a" unicode="a" horiz-adv-x="687" 
d="M130.5 6q-41.5 21 -67 62t-25.5 97q0 61 30 101.5t79 60t106 19.5q52 0 101 -14.5t82 -40.5q-34 20 -80 20q-62 0 -103 -32t-41 -86q0 -39 23.5 -62t58.5 -23q44 0 85 42.5t57 117.5v118q0 41 -32.5 65.5t-83.5 24.5q-80 0 -166 -54l-40 115q56 28 120 43t127 15
q116 0 193 -52.5t77 -157.5v-305q0 -26 6 -44.5t24 -35.5h-124q-101 0 -101 110v66h-3q-18 -89 -77.5 -140t-137.5 -51q-46 0 -87.5 21z" />
    <glyph glyph-name="b" unicode="b" horiz-adv-x="702" 
d="M333 17.5q-46 30.5 -68 86.5h-2q-2 -52 -28 -79t-90 -27h-107q18 25 24 45.5t6 52.5v625q0 38 -22 60q66 0 129 11t88 40v-344q31 51 79.5 78t101.5 27q58 0 109.5 -32t83.5 -95.5t32 -153.5q0 -107 -34 -180t-88 -109t-113 -36q-55 0 -101 30.5zM411.5 143.5
q27.5 26.5 43.5 72.5t16 103q0 74 -28.5 120.5t-73.5 46.5q-60 0 -106 -80v-219q16 -34 39 -52t49 -18q33 0 60.5 26.5z" />
    <glyph glyph-name="c" unicode="c" horiz-adv-x="557" 
d="M170.5 21.5q-64.5 37.5 -101 107.5t-36.5 164q0 95 38 163.5t102 104t141 35.5q57 0 115.5 -19.5t113.5 -57.5l-32 -145q-41 33 -85.5 51.5t-84.5 18.5q-57 0 -93.5 -41t-36.5 -118q0 -76 39.5 -118.5t105.5 -42.5q43 0 93 18t102 55v-144q-120 -69 -233 -69
q-83 0 -147.5 37.5z" />
    <glyph glyph-name="d" unicode="d" horiz-adv-x="700" 
d="M157.5 19.5q-55.5 33.5 -90 101.5t-34.5 165q0 105 34.5 174t88.5 100.5t115 31.5q58 0 106.5 -26t69.5 -69h5v224q0 40 -22 60q67 0 129.5 11t87.5 40v-734q0 -69 35 -98h-107q-62 0 -92.5 33.5t-30.5 75.5h-5q-19 -58 -67 -90.5t-107 -32.5q-60 0 -115.5 33.5z
M410.5 108.5q25.5 14.5 41.5 39.5v264q-17 23 -45.5 37t-58.5 14q-52 0 -86 -43t-34 -130q0 -65 18 -109t47 -65.5t64 -21.5q28 0 53.5 14.5z" />
    <glyph glyph-name="e" unicode="e" horiz-adv-x="665" 
d="M213 22q-82 36 -131 106.5t-49 168.5q0 93 44 160.5t117 102.5t160 35q76 0 138.5 -24t98.5 -66t36 -95q0 -51 -31.5 -90.5t-90.5 -62t-138 -22.5q-66 0 -122 20q32 3 60 12q78 11 118 45.5t40 77.5q0 40 -29.5 68.5t-77.5 28.5q-32 0 -61.5 -17.5t-48 -54.5t-18.5 -92
q0 -67 26.5 -113.5t70.5 -69t97 -22.5q49 0 100 18t86 45l29 -136q-117 -59 -244 -59q-98 0 -180 36z" />
    <glyph glyph-name="f" unicode="f" horiz-adv-x="418" 
d="M85 0q15 26 18.5 49t3.5 62l1 342q0 42 -21 67t-68 46v12q74 -17 144 -17q67 0 102 12v7q-31 -6 -59 -6q-55 0 -97.5 17.5t-66 46.5t-23.5 62q0 60 64.5 96t177.5 36q80 0 155 -17v-144q-81 25 -139 25q-40 0 -62.5 -14t-22.5 -35q0 -18 24 -35t73 -27t118 -7v-12
q-48 0 -75.5 -30.5t-27.5 -82.5l-2 -342q0 -39 3.5 -62t18.5 -49h-239z" />
    <glyph glyph-name="g" unicode="g" horiz-adv-x="699" 
d="M169 -217q-72 14 -135 41l10 149q67 -25 137.5 -38t134.5 -13q83 0 133.5 23t50.5 63q0 30 -26 54.5t-71 38t-100 13.5q-95 0 -183 -39v114q21 9 52 16t60 9q-87 18 -144 66t-57 117q0 49 34.5 94t104 73t168.5 28q176 37 307 129l23 -148q-41 -14 -130 -29
q49 -23 74 -61.5t25 -82.5q0 -68 -57.5 -117t-151.5 -66q112 -17 185 -67.5t73 -144.5q0 -72 -49.5 -125.5t-135 -82t-189.5 -28.5q-71 0 -143 14zM425 319.5q34 32.5 34 83.5q0 52 -34 86t-90 34q-57 0 -91.5 -33.5t-34.5 -85.5q0 -51 34.5 -84t91.5 -33q56 0 90 32.5z" />
    <glyph glyph-name="h" unicode="h" horiz-adv-x="718" 
d="M38 0q15 26 18.5 49t3.5 62v609q0 38 -22 60q66 0 129 11t88 40v-426h4q20 91 80 140.5t136 49.5q49 0 91 -21t67.5 -62t25.5 -99v-302q0 -39 3.5 -62t18.5 -49h-239q15 26 18.5 49t3.5 62v256q0 48 -24 73t-59 25q-41 0 -77 -30.5t-49 -84.5v-239q0 -39 3.5 -62
t18.5 -49h-239z" />
    <glyph glyph-name="i" unicode="i" horiz-adv-x="314" 
d="M85 676q-29 29 -29 70t29.5 70t69.5 29q41 0 70 -29t29 -70t-29 -70t-70 -29t-70 29zM38 0q15 26 18.5 49t3.5 62v386q0 38 -22 60q66 0 129 11t88 40v-497q0 -39 3.5 -62t18.5 -49h-239z" />
    <glyph glyph-name="j" unicode="j" horiz-adv-x="322" 
d="M103.5 684.5q-28.5 28.5 -28.5 68.5t28.5 68.5t69.5 28.5t69.5 -28.5t28.5 -68.5t-28.5 -68.5t-69.5 -28.5t-69.5 28.5zM-116 -63q52 -36 98 -36q40 0 64.5 28t24.5 80v475q0 40 -22 60q67 0 129.5 11t87.5 40v-571q0 -84 -32.5 -141.5t-86.5 -86t-118 -28.5
q-87 0 -164 48z" />
    <glyph glyph-name="k" unicode="k" horiz-adv-x="679" 
d="M38 0q15 26 18.5 49t3.5 62v610q0 38 -22 60q66 0 129 11t88 40v-463q43 31 98 93.5t70 115.5h218q-54 -66 -133.5 -134t-137.5 -97v-3q6 1 19 1q49 0 88.5 -34t67.5 -80t64 -119q23 -47 37.5 -73t28.5 -39h-220q-48 141 -86.5 207t-85.5 66q-13 0 -28 -6v-156
q0 -39 3.5 -62t18.5 -49h-239z" />
    <glyph glyph-name="l" unicode="l" horiz-adv-x="314" 
d="M38 0q15 26 18.5 49t3.5 62v607q0 38 -22 60q66 0 129 11t88 40v-718q0 -39 3.5 -62t18.5 -49h-239z" />
    <glyph glyph-name="m" unicode="m" horiz-adv-x="1122" 
d="M38 0q15 26 18.5 49t3.5 62v373q0 38 -22 60q66 0 129 11t88 40v-190h6q4 58 35 101t78.5 66t100.5 23q50 0 92 -20.5t67 -61.5t25 -100v-8h6q4 58 35 101t78.5 66t100.5 23q50 0 92 -20.5t67 -61.5t25 -100v-302q0 -39 3.5 -62t18.5 -49h-239q15 26 18.5 49t3.5 62v254
q0 47 -24.5 72t-61.5 25q-29 0 -56.5 -16.5t-46 -47.5t-20.5 -74v-213q0 -39 3.5 -62t18.5 -49h-239q15 26 18.5 49t3.5 62v263q0 43 -24 66t-59 23q-29 0 -57.5 -16t-47.5 -47.5t-21 -75.5v-213q0 -39 3.5 -62t18.5 -49h-239z" />
    <glyph glyph-name="n" unicode="n" horiz-adv-x="718" 
d="M38 0q15 26 18.5 49t3.5 62v373q0 38 -22 60q66 0 129 11t88 40v-190h6q8 60 40 103t78 65t96 22q49 0 91 -21t67.5 -62t25.5 -99v-302q0 -39 3.5 -62t18.5 -49h-239q15 26 18.5 49t3.5 62v256q0 48 -24 73t-59 25q-41 0 -77 -30.5t-49 -84.5v-239q0 -39 3.5 -62
t18.5 -49h-239z" />
    <glyph glyph-name="o" unicode="o" horiz-adv-x="710" 
d="M199.5 21.5q-73.5 33.5 -120 102t-46.5 168.5t41.5 168t114.5 101.5t167 33.5q147 0 234 -76.5t87 -226.5q0 -100 -46 -168.5t-119.5 -102t-155.5 -33.5q-83 0 -156.5 33.5zM414 119q29 21 48.5 64.5t19.5 108.5q0 66 -19.5 110t-48.5 65t-58 21q-30 0 -59.5 -20.5
t-49 -65t-19.5 -110.5q0 -65 19.5 -108.5t49 -64.5t59.5 -21q29 0 58 21z" />
    <glyph glyph-name="p" unicode="p" horiz-adv-x="694" 
d="M38 -219q15 26 18.5 49t3.5 62v592q0 38 -22 60q66 0 129 11t88 40v-111q33 53 81 80.5t101 27.5q58 0 109.5 -33t83 -98.5t31.5 -157.5q0 -93 -35.5 -165.5t-95 -112t-130.5 -39.5q-72 0 -139 42h-6v-136q0 -39 3.5 -62t18.5 -49h-239zM403 115q32 30 48 78.5t16 101.5
t-16.5 96t-45.5 67t-65 24q-23 0 -45.5 -12.5t-39.5 -36.5v-327q36 -21 71 -21q45 0 77 30z" />
    <glyph glyph-name="q" unicode="q" horiz-adv-x="701" 
d="M446 130h-5q-17 -68 -69 -107.5t-116 -39.5q-57 0 -108 33t-83 99.5t-32 161.5q0 103 36.5 174.5t100.5 107.5t146 36q50 0 126 -14q5 -1 36 -6.5t59 -5.5q55 0 105 27l-1 -738q0 -38 22 -60q-67 0 -129.5 -11t-87.5 -40v383zM407.5 117.5q25.5 16.5 39.5 47.5v300
q-36 11 -65 11q-67 0 -113 -46t-46 -139q0 -58 17 -101t47 -66t66 -23q29 0 54.5 16.5z" />
    <glyph glyph-name="r" unicode="r" horiz-adv-x="546" 
d="M38 0q15 26 18.5 49t3.5 62v373q0 38 -22 60q66 0 129 11t88 40v-207h8q16 96 66 150t118 54q50 0 101 -29l-31 -155q-45 21 -88 21q-66 0 -110.5 -47.5t-63.5 -118.5v-152q0 -39 3.5 -62t18.5 -49h-239z" />
    <glyph glyph-name="s" unicode="s" horiz-adv-x="608" 
d="M64 198q61 -28 122 -42t114 -14q63 0 101.5 19.5t37.5 53.5q0 30 -37 41t-114 18q-79 8 -130.5 19t-88 43t-36.5 91q0 82 80 123t199 41q62 0 124 -10.5t113 -30.5l-11 -158q-34 16 -91 26t-112 10q-62 0 -101 -14t-40 -42q0 -31 35 -41.5t111 -17.5q77 -7 126 -18
t83.5 -42.5t32.5 -92.5q-2 -84 -82.5 -129t-199.5 -45q-63 0 -128.5 13.5t-123.5 39.5z" />
    <glyph glyph-name="t" unicode="t" horiz-adv-x="501" 
d="M137.5 42q-67.5 57 -67.5 181v266q0 67 -52 89q55 20 103.5 61.5t83.5 89.5t50 86h10l-1 -237h173v-120q-35 14 -75.5 20t-97.5 6l1 -266q0 -44 22.5 -65.5t59.5 -21.5q54 0 124 39l21 -135q-36 -22 -85.5 -36t-101.5 -14q-100 0 -167.5 57z" />
    <glyph glyph-name="u" unicode="u" horiz-adv-x="726" 
d="M112.5 34q-52.5 51 -52.5 141v309q0 38 -22 60q66 0 129 11t88 40v-374q0 -50 22.5 -74.5t61.5 -24.5q41 0 77.5 33.5t47.5 88.5v240q0 38 -22 60q66 0 129 11t88 40v-508q0 -32 8.5 -51.5t31.5 -35.5h-120q-59 0 -87 34t-28 86v75h-5q-10 -96 -66 -154t-141 -58
q-87 0 -139.5 51z" />
    <glyph glyph-name="v" unicode="v" horiz-adv-x="626" 
d="M186 0q1 3 1 10q0 17 -5 42t-12 45l-122 393q-6 20 -17.5 45t-22.5 43h202q-3 -34 7 -75l96 -377l99 377q9 45 8 75h198q-11 -18 -22.5 -43t-17.5 -45l-121 -387q-9 -29 -15 -59t-3 -44h-253z" />
    <glyph glyph-name="w" unicode="w" horiz-adv-x="960" 
d="M176 0q3 13 -3 38t-18 65l-111 387q-16 58 -36 88h201q-2 -43 6 -75l98 -365l73 294q5 35 5 76q0 48 -9 70h200q-10 -28 -10 -75q0 -38 5 -72l73 -286l95 358q8 32 6 75h202q-25 -40 -38 -88l-111 -387q-12 -40 -18 -65t-3 -38h-221q1 2 1 9q0 11 -5 31l-10 40
q-2 5 -7 23l-59 194l-59 -194l-5 -19q-9 -33 -13.5 -53t-1.5 -31h-227z" />
    <glyph glyph-name="x" unicode="x" horiz-adv-x="697" 
d="M22 0q31 28 48.5 46.5t31.5 38.5l137 200l-137 204q-42 65 -80 89h217l101 -187l100 187h220q-22 -15 -41 -37t-39 -52l-142 -204l147 -200q20 -28 38.5 -49t41.5 -36h-225l-100 180l-101 -180h-217z" />
    <glyph glyph-name="y" unicode="y" horiz-adv-x="644" 
d="M11 -53q76 -22 139 -22q61 0 101 23t54 68l3 14h-127l-131 460q-6 21 -17.5 46.5t-22.5 41.5h206q-1 -8 -1 -26q0 -28 7 -49l109 -358l78 358q8 41 5 75h205q-11 -16 -21 -40.5t-15 -47.5l-124 -490q-28 -111 -108 -164.5t-231 -53.5q-39 0 -99 5z" />
    <glyph glyph-name="z" unicode="z" horiz-adv-x="613" 
d="M318 471q-205 0 -279 -32l13 139h522l-291 -478q80 -1 165.5 8t127.5 31l-14 -139h-536z" />
    <glyph glyph-name="braceleft" unicode="{" horiz-adv-x="486" 
d="M448 -68q-153 0 -233.5 31t-112 103.5t-31.5 208.5q0 111 -33 127q20 10 26.5 37t6.5 90q0 136 31.5 208.5t112 103.5t233.5 31v-74q-82 0 -121.5 -22t-50 -58t-10.5 -99v-40l1 -44q1 -12 1 -33q0 -32 -7 -51t-28.5 -31t-64.5 -18q60 -8 80 -34t20 -71q0 -19 -1 -29
l-1 -33v-40q0 -64 10.5 -103t50 -62.5t121.5 -23.5v-74z" />
    <glyph glyph-name="bar" unicode="|" horiz-adv-x="138" 
d="M100 0h-62v815h62v-815z" />
    <glyph glyph-name="braceright" unicode="}" horiz-adv-x="486" 
d="M38 6q82 0 121.5 23.5t50 62.5t10.5 103v40l-1 33q-1 10 -1 29q0 45 20 71t80 34q-43 6 -64.5 18t-28.5 31t-7 51q0 21 1 33l1 44v40q0 63 -10.5 99t-50 58t-121.5 22v74q153 0 233.5 -31t112 -103.5t31.5 -208.5q0 -63 6.5 -90t26.5 -37q-33 -16 -33 -127
q0 -136 -31.5 -208.5t-112 -103.5t-233.5 -31v74z" />
    <glyph glyph-name="asciitilde" unicode="~" horiz-adv-x="593" 
d="M362.5 207.5q-33.5 18.5 -82.5 55.5q-37 28 -60 42t-43 14q-29 0 -43.5 -19.5t-14.5 -71.5l-81 9q0 86 29.5 134t107.5 48q35 0 68.5 -20t83.5 -59q35 -28 56.5 -42t39.5 -14q21 0 34.5 28t9.5 75l89 -8q0 -78 -29 -134t-96 -56q-35 0 -68.5 18.5z" />
    <glyph glyph-name="exclamdown" unicode="&#xa1;" horiz-adv-x="292" 
d="M223 607.5q31 -31.5 31 -76.5q0 -46 -31 -77.5t-77 -31.5q-45 0 -76.5 31.5t-31.5 77.5q0 45 31.5 76.5t76.5 31.5q46 0 77 -31.5zM159 351q6 -50 37 -168q24 -94 37 -155.5t13 -112.5q0 -39 -15.5 -67.5t-38.5 -42.5t-44 -14t-43.5 14t-38 42.5t-15.5 67.5
q0 49 11.5 107t34.5 151q17 69 25.5 108t10.5 70h26z" />
    <glyph glyph-name="cent" unicode="&#xa2;" horiz-adv-x="593" 
d="M246 -3q-96 24 -152 101.5t-56 194.5q0 95 37.5 163.5t101.5 104t142 35.5q32 0 70 -8l17 73h74l-23 -94q47 -16 90 -48l-32 -145q-42 36 -91 54l-72 -298q9 -2 27 -2q41 0 86.5 18t90.5 51v-144q-109 -65 -208 -65q-10 0 -30 2l-15 -60h-74zM354 443q-64 5 -101 -38.5
t-37 -119.5q0 -50 17 -86t49 -55z" />
    <glyph glyph-name="sterling" unicode="&#xa3;" horiz-adv-x="653" 
d="M58 0q28 74 46 165.5t20 192.5h-86v73h85q0 20 -4 58q-3 32 -3 60q0 154 81 218t211 64q64 0 148 -16v-142q-69 19 -117 19q-62 0 -93.5 -28.5t-41.5 -76t-10 -120.5v-36h133v-73h-130q1 -76 -5.5 -132.5t-28.5 -102.5q7 -1 39 -1q82 0 168 10.5t120 36.5l26 -169h-558z
" />
    <glyph glyph-name="currency" unicode="&#xa4;" horiz-adv-x="513" 
d="M90 85l-52 52l53 53q-37 52 -37 113q0 62 37 114l-53 54l51 52l53 -53q53 36 114 36q64 0 114 -37l54 54l51 -52l-53 -54q37 -50 37 -114q0 -62 -37 -114l53 -52l-52 -52l-53 53q-48 -35 -113 -35q-64 0 -114 35zM323.5 236.5q27.5 27.5 27.5 66.5q0 40 -27.5 67.5
t-66.5 27.5q-40 0 -67 -27.5t-27 -67.5q0 -39 27.5 -66.5t66.5 -27.5t66.5 27.5z" />
    <glyph glyph-name="yen" unicode="&#xa5;" horiz-adv-x="708" 
d="M484 815h187l-203 -387h118v-74h-129v-63h129v-74h-129v-217h-195v217h-143v74h143v63h-143v74h130l-211 387h203l123 -263z" />
    <glyph glyph-name="brokenbar" unicode="&#xa6;" horiz-adv-x="138" 
d="M100 472h-62v343h62v-343zM100 0h-62v342h62v-342z" />
    <glyph glyph-name="section" unicode="&#xa7;" horiz-adv-x="622" 
d="M48 21l14 137q57 -36 134.5 -55t146.5 -19q55 0 92 14.5t37 35.5q0 32 -41 47.5t-127 29.5q-81 15 -130.5 28.5t-85 43t-35.5 78.5q0 32 16.5 63.5t47.5 58.5q-40 18 -57.5 42.5t-17.5 64.5q0 58 36 100t98 64t139 22q64 0 132 -16t131 -48l-19 -129q-39 32 -126 56.5
t-156 24.5q-50 0 -81.5 -15t-31.5 -45q0 -22 22 -35.5t54.5 -21t93.5 -17.5q81 -13 130.5 -26t85 -41t35.5 -76q0 -41 -22.5 -74t-61.5 -56q83 -42 83 -122q0 -79 -74.5 -123.5t-193.5 -44.5q-131 0 -268 54zM437.5 323.5q10.5 12.5 10.5 28.5q0 32 -47 48t-135 31
q-41 6 -68 12q-25 -19 -25 -40q0 -24 22.5 -40t56 -25t90.5 -20q27 -5 68 -14q17 7 27.5 19.5z" />
    <glyph glyph-name="copyright" unicode="&#xa9;" horiz-adv-x="915" 
d="M242 40q-96 57 -150 154t-54 213t54 213t150 153.5t216 56.5t216 -56.5t150 -153.5t54 -213t-54 -213t-150 -154t-216 -57t-216 57zM633.5 103.5q76.5 46.5 118.5 126.5t42 177q0 96 -42 176t-118.5 126.5t-175.5 46.5t-176 -46.5t-119 -126.5t-42 -176q0 -97 42 -177
t119 -126.5t176 -46.5t175.5 46.5zM374 185.5q-49 31.5 -78 89.5t-29 134q0 75 26 131.5t73.5 87t110.5 30.5q32 0 67 -9.5t64 -27.5l-9 -111q-59 32 -101 32q-46 0 -70.5 -35.5t-24.5 -93.5q0 -59 29 -98t78 -39q47 0 89 32l9 -116q-60 -38 -126 -38q-59 0 -108 31.5z" />
    <glyph glyph-name="ordfeminine" unicode="&#xaa;" horiz-adv-x="419" 
d="M68.5 403q-30.5 27 -30.5 74q0 50 35.5 75.5t85.5 25.5q29 0 56.5 -8t46.5 -22q-20 11 -45 11q-35 0 -58 -18t-23 -49q0 -22 13 -34.5t33 -12.5q25 0 48 23.5t32 65.5v67q0 23 -18 36.5t-47 13.5q-45 0 -94 -30l-22 65q31 15 67.5 23.5t71.5 8.5q65 0 108 -29.5t43 -88.5
v-171q0 -15 3.5 -25t13.5 -20h-70q-56 0 -56 62v37h-2q-10 -50 -43.5 -78.5t-77.5 -28.5q-40 0 -70.5 27z" />
    <glyph glyph-name="guillemotleft" unicode="&#xab;" horiz-adv-x="726" 
d="M368 239v-119l-330 200v4l330 196v-118l-137 -80v-1zM689 239v-119l-330 200v4l330 196v-118l-137 -80v-1z" />
    <glyph glyph-name="uni00AD" unicode="&#xad;" horiz-adv-x="295" 
d="M258 276h-220v74h220v-74z" />
    <glyph glyph-name="registered" unicode="&#xae;" horiz-adv-x="528" 
d="M141 408.5q-51 32.5 -77 84.5t-26 111t26 111t77 84t123 32t123.5 -32t77.5 -84t26 -111t-26 -111.5t-77.5 -84.5t-123.5 -32t-123 32.5zM356.5 454q38.5 25 58 65t19.5 85t-19.5 85t-58 65t-92.5 25q-53 0 -91.5 -25t-58 -65t-19.5 -85t19.5 -85t58 -65t91.5 -25
q54 0 92.5 25zM175 508q5 10 5 28v147q0 20 -5 27h116q28 0 43 -14.5t15 -36.5q0 -21 -13 -35.5t-34 -15.5v-2q25 -2 34 -18t14 -46q0 -3 2 -14.5t6 -19.5h-81q1 4 1 17q0 34 -4.5 46t-17.5 12h-5v-47q0 -8 1 -14.5t5 -13.5h-82zM255 631q12 0 18 7t6 17q0 9 -4.5 15.5
t-12.5 6.5h-10v-46h3z" />
    <glyph glyph-name="degree" unicode="&#xb0;" horiz-adv-x="323" 
d="M75 619.5q-37 32.5 -37 89.5t37 89.5t87 32.5t87 -32.5t37 -89.5t-37 -89.5t-87 -32.5t-87 32.5zM190.5 664.5q12.5 15.5 12.5 44.5q0 28 -12 43.5t-29 15.5q-18 0 -30 -15.5t-12 -44.5q0 -28 12 -43.5t28 -15.5q18 0 30.5 15.5z" />
    <glyph glyph-name="plusminus" unicode="&#xb1;" horiz-adv-x="442" 
d="M258 126h-73v147h-147v74h147v146h73v-146h147v-74h-147v-147zM405 26h-367v74h367v-74z" />
    <glyph glyph-name="uni00B2" unicode="&#xb2;" horiz-adv-x="363" 
d="M39 450q0 50 29.5 91.5t84.5 95.5q40 39 58 62t18 45q0 20 -17 30.5t-45 10.5q-24 0 -52.5 -8.5t-55.5 -24.5l-7 82q28 15 62.5 23.5t68.5 8.5q61 0 101.5 -26.5t40.5 -80.5q0 -37 -21.5 -67.5t-63.5 -71.5q-32 -31 -48.5 -51t-21.5 -42q59 0 98.5 2.5t61.5 10.5l-5 -90
h-286z" />
    <glyph glyph-name="uni00B3" unicode="&#xb3;" horiz-adv-x="344" 
d="M37 477l4 70q55 -28 98 -28q36 0 57.5 18t21.5 41q0 24 -25.5 44.5t-68.5 21.5v49q38 6 59 25t21 39q0 17 -16 28t-44 11q-39 0 -84 -20l-8 75q58 16 103 16q64 0 98.5 -27t34.5 -66q0 -31 -23 -58t-64 -39v-5q48 -2 77 -31t29 -72q0 -34 -19.5 -62.5t-54.5 -44.5
t-80 -16q-58 0 -116 31z" />
    <glyph glyph-name="paragraph" unicode="&#xb6;" horiz-adv-x="573" 
d="M329 -90v400h-10q-15 -30 -45.5 -46.5t-66.5 -16.5q-42 0 -81 22.5t-63.5 69t-24.5 114.5q0 76 30.5 132.5t85.5 87t129 30.5h253v-793h-83v743h-41v-743h-83z" />
    <glyph glyph-name="periodcentered" unicode="&#xb7;" horiz-adv-x="273" 
d="M66.5 191q-28.5 29 -28.5 70t28.5 70t69.5 29t70 -29t29 -70t-29 -70t-70 -29t-69.5 29z" />
    <glyph glyph-name="uni00B9" unicode="&#xb9;" horiz-adv-x="207" 
d="M51 450q7 14 9 25.5t2 30.5v234q0 55 -25 75l122 43v-352q0 -19 2 -30.5t9 -25.5h-119z" />
    <glyph glyph-name="ordmasculine" unicode="&#xba;" horiz-adv-x="433" 
d="M123.5 396q-41.5 19 -67.5 57.5t-26 95.5q0 84 50.5 127t131.5 43q83 0 132 -43t49 -127q0 -56 -26 -95t-67.5 -58t-87.5 -19q-47 0 -88.5 19zM260.5 467q22.5 28 22.5 82t-22 82t-49 28q-28 0 -50 -28t-22 -82t22 -82t50 -28q26 0 48.5 28z" />
    <glyph glyph-name="guillemotright" unicode="&#xbb;" horiz-adv-x="726" 
d="M368 320l-330 -200v119l136 82v1l-136 80v118l330 -196v-4zM689 320l-330 -200v119l136 82v1l-136 80v118l330 -196v-4z" />
    <glyph glyph-name="onequarter" unicode="&#xbc;" horiz-adv-x="753" 
d="M51 450q7 14 9 25.5t2 30.5v234q0 55 -25 75l122 43v-352q0 -19 2 -30.5t9 -25.5h-119zM119 0h-69l481 815h69zM418 18l4 70q55 -28 98 -28q36 0 57.5 18t21.5 41q0 24 -25.5 44.5t-68.5 21.5v49q38 6 59 25t21 39q0 17 -16 28t-44 11q-39 0 -84 -20l-8 75q58 16 103 16
q64 0 98.5 -27t34.5 -66q0 -31 -23 -58t-64 -39v-5q48 -2 77 -31t29 -72q0 -34 -19.5 -62.5t-54.5 -44.5t-80 -16q-58 0 -116 31z" />
    <glyph glyph-name="onehalf" unicode="&#xbd;" horiz-adv-x="728" 
d="M51 450q7 14 9 25.5t2 30.5v234q0 55 -25 75l122 43v-352q0 -19 2 -30.5t9 -25.5h-119zM106 0h-69l481 815h69zM399 0q0 50 29.5 91.5t84.5 95.5q40 39 58 62t18 45q0 20 -17 30.5t-45 10.5q-24 0 -52.5 -8.5t-55.5 -24.5l-7 82q28 15 62.5 23.5t68.5 8.5
q61 0 101.5 -26.5t40.5 -80.5q0 -37 -21.5 -67.5t-63.5 -71.5q-32 -31 -48.5 -51t-21.5 -42q59 0 98.5 2.5t61.5 10.5l-5 -90h-286z" />
    <glyph glyph-name="threequarters" unicode="&#xbe;" horiz-adv-x="774" 
d="M31 477l4 70q53 -28 97 -28q37 0 58.5 18t21.5 41q0 24 -26 44.5t-69 21.5v49q38 6 59.5 25t21.5 39q0 17 -16 28t-44 11q-39 0 -84 -20l-8 75q57 16 103 16q64 0 98 -27t34 -66q0 -31 -22.5 -58t-63.5 -39v-5q48 -2 77 -31t29 -72q0 -34 -19.5 -62.5t-54.5 -44.5
t-80 -16q-58 0 -116 31zM206 0h-69l481 815h69zM590 0q7 14 9 25.5t2 30.5v27h-180v55l198 270h80v-263h37v-62h-37v-27q0 -19 2 -30.5t9 -25.5h-120zM601 280l-92 -135h92v135z" />
    <glyph glyph-name="questiondown" unicode="&#xbf;" horiz-adv-x="473" 
d="M361.5 656q28.5 -29 28.5 -70t-28.5 -70t-70.5 -29q-41 0 -70 29t-29 70t29 70t70 29q42 0 70.5 -29zM331 439q9 -27 9 -51q0 -47 -21.5 -88t-62.5 -96q-35 -47 -53 -79.5t-18 -66.5q0 -41 25.5 -64.5t66.5 -23.5q30 0 64.5 13t70.5 38l24 -115q-38 -32 -86 -48t-97 -16
q-59 0 -108 22t-78 61.5t-29 90.5q0 41 17 78.5t41.5 67t66.5 73.5q59 60 88 105t24 99h56z" />
    <glyph glyph-name="Agrave" unicode="&#xc0;" horiz-adv-x="816" 
d="M28 0q16 26 24.5 45.5t14.5 38t9 27.5l197 610q9 29 9 54q0 21 -5 40h265q-5 -17 -5 -41q0 -29 8 -53l204 -610q11 -36 20 -58.5t28 -52.5h-241q11 28 11 56q0 23 -8 55l-38 130h-218l-38 -130q-8 -32 -8 -55q0 -28 11 -56h-240zM412 651l-85 -298h170zM352 910.5
q-51 25.5 -80 70.5l105 99q23 -41 68 -73t96 -38q30 -5 51 -4q-12 -38 -49.5 -59t-85.5 -21q-54 0 -105 25.5z" />
    <glyph glyph-name="Aacute" unicode="&#xc1;" horiz-adv-x="816" 
d="M28 0q16 26 24.5 45.5t14.5 38t9 27.5l197 610q9 29 9 54q0 21 -5 40h265q-5 -17 -5 -41q0 -29 8 -53l204 -610q11 -36 20 -58.5t28 -52.5h-241q11 28 11 56q0 23 -8 55l-38 130h-218l-38 -130q-8 -32 -8 -55q0 -28 11 -56h-240zM412 651l-85 -298h170zM298 906.5
q-38 21.5 -50 58.5q24 -1 51 5q50 5 95 36.5t69 73.5l105 -98q-30 -46 -80.5 -71.5t-104.5 -25.5q-47 0 -85 21.5z" />
    <glyph glyph-name="Acircumflex" unicode="&#xc2;" horiz-adv-x="816" 
d="M28 0q16 26 24.5 45.5t14.5 38t9 27.5l197 610q9 29 9 54q0 21 -5 40h265q-5 -17 -5 -41q0 -29 8 -53l204 -610q11 -36 20 -58.5t28 -52.5h-241q11 28 11 56q0 23 -8 55l-38 130h-218l-38 -130q-8 -32 -8 -55q0 -28 11 -56h-240zM412 651l-85 -298h170zM201 985
q56 18 102 43.5t103 70.5q66 -49 107.5 -73.5t95.5 -41.5l-70 -97q-65 38 -133 108q-73 -72 -148 -113z" />
    <glyph glyph-name="Atilde" unicode="&#xc3;" horiz-adv-x="816" 
d="M28 0q16 26 24.5 45.5t14.5 38t9 27.5l197 610q9 29 9 54q0 21 -5 40h265q-5 -17 -5 -41q0 -29 8 -53l204 -610q11 -36 20 -58.5t28 -52.5h-241q11 28 11 56q0 23 -8 55l-38 130h-218l-38 -130q-8 -32 -8 -55q0 -28 11 -56h-240zM412 651l-85 -298h170zM460.5 889.5
q-20.5 12.5 -47.5 38.5q-21 22 -38 33t-41 11q-43 0 -56.5 -26.5t-13.5 -56.5h-95q-6 27 -6 52q0 58 30 92.5t85 34.5q32 0 53 -14t46 -42q23 -25 40 -37t42 -12t39.5 18t14.5 48q0 15 -2 23h108q8 -32 8 -54q0 -39 -17 -66.5t-43.5 -41t-54.5 -13.5q-31 0 -51.5 12.5z" />
    <glyph glyph-name="Adieresis" unicode="&#xc4;" horiz-adv-x="816" 
d="M28 0q16 26 24.5 45.5t14.5 38t9 27.5l197 610q9 29 9 54q0 21 -5 40h265q-5 -17 -5 -41q0 -29 8 -53l204 -610q11 -36 20 -58.5t28 -52.5h-241q11 28 11 56q0 23 -8 55l-38 130h-218l-38 -130q-8 -32 -8 -55q0 -28 11 -56h-240zM412 651l-85 -298h170zM250 915.5
q-24 23.5 -24 57.5q0 35 24 58.5t59 23.5q34 0 57.5 -23.5t23.5 -58.5q0 -34 -23.5 -57.5t-57.5 -23.5q-35 0 -59 23.5zM446 915.5q-24 23.5 -24 57.5q0 35 24 58.5t59 23.5q34 0 58 -23.5t24 -58.5q0 -34 -24 -57.5t-58 -23.5q-35 0 -59 23.5z" />
    <glyph glyph-name="Aring" unicode="&#xc5;" horiz-adv-x="816" 
d="M28 0q16 26 24.5 45.5t14.5 38t9 27.5l197 610q9 29 9 54q0 21 -5 40h265q-5 -17 -5 -41q0 -29 8 -53l204 -610q11 -36 20 -58.5t28 -52.5h-241q11 28 11 56q0 23 -8 55l-38 130h-218l-38 -130q-8 -32 -8 -55q0 -28 11 -56h-240zM412 651l-85 -298h170zM317.5 897.5
q-36.5 36.5 -36.5 89.5t36.5 89.5t88.5 36.5q53 0 89.5 -36.5t36.5 -89.5t-36.5 -89.5t-89.5 -36.5q-52 0 -88.5 36.5zM437.5 940.5q13.5 12.5 13.5 46.5t-13.5 46.5t-31.5 12.5q-17 0 -30.5 -12.5t-13.5 -46.5t13.5 -46.5t30.5 -12.5q18 0 31.5 12.5z" />
    <glyph glyph-name="AE" unicode="&#xc6;" horiz-adv-x="958" 
d="M28 0q20 31 29 53.5t19 57.5l174 593q11 38 11 67q0 17 -5 44h650l15 -147q-69 18 -139.5 23t-156.5 5v-192h191l7 -73h-198v-311q86 0 156.5 5t139.5 23l-15 -148h-498q15 26 18.5 49t3.5 62v124h-132l-31 -124q-8 -34 -8 -56q0 -24 11 -55h-242zM414 728l-91 -377h107
v377h-16z" />
    <glyph glyph-name="Ccedilla" unicode="&#xc7;" horiz-adv-x="651" 
d="M611 46q-80 -48 -164 -59l-9 -15q60 -4 93 -34.5t33 -73.5q0 -35 -22 -66t-66 -50.5t-106 -19.5q-53 0 -110 14v79q38 -9 68 -9q56 0 87.5 24.5t31.5 55.5q0 21 -17 37t-49 20l16 35q-98 1 -180 52t-130.5 147t-48.5 226q0 134 44.5 229t124 144t183.5 49
q54 0 113.5 -16.5t107.5 -45.5l-15 -149q-94 55 -173 55q-87 0 -138.5 -68t-51.5 -198q0 -84 27 -143t73.5 -89.5t104.5 -30.5q81 0 157 55z" />
    <glyph glyph-name="Egrave" unicode="&#xc8;" horiz-adv-x="588" 
d="M38 0q15 26 18.5 49t3.5 62v593q0 39 -3.5 62t-18.5 49h498l15 -147q-69 18 -139.5 23t-156.5 5v-192h191l7 -73h-198v-311q86 0 156.5 5t139.5 23l-15 -148h-498zM239 910.5q-51 25.5 -80 70.5l105 99q23 -41 68 -73t96 -38q30 -5 51 -4q-12 -38 -49.5 -59t-85.5 -21
q-54 0 -105 25.5z" />
    <glyph glyph-name="Eacute" unicode="&#xc9;" horiz-adv-x="588" 
d="M38 0q15 26 18.5 49t3.5 62v593q0 39 -3.5 62t-18.5 49h498l15 -147q-69 18 -139.5 23t-156.5 5v-192h191l7 -73h-198v-311q86 0 156.5 5t139.5 23l-15 -148h-498zM185 906.5q-38 21.5 -50 58.5q24 -1 51 5q50 5 95 36.5t69 73.5l105 -98q-30 -46 -80.5 -71.5
t-104.5 -25.5q-47 0 -85 21.5z" />
    <glyph glyph-name="Ecircumflex" unicode="&#xca;" horiz-adv-x="588" 
d="M38 0q15 26 18.5 49t3.5 62v593q0 39 -3.5 62t-18.5 49h498l15 -147q-69 18 -139.5 23t-156.5 5v-192h191l7 -73h-198v-311q86 0 156.5 5t139.5 23l-15 -148h-498zM87 985q56 18 102 43.5t103 70.5q66 -49 107.5 -73.5t95.5 -41.5l-70 -97q-65 38 -133 108
q-73 -72 -148 -113z" />
    <glyph glyph-name="Edieresis" unicode="&#xcb;" horiz-adv-x="588" 
d="M38 0q15 26 18.5 49t3.5 62v593q0 39 -3.5 62t-18.5 49h498l15 -147q-69 18 -139.5 23t-156.5 5v-192h191l7 -73h-198v-311q86 0 156.5 5t139.5 23l-15 -148h-498zM137 915.5q-24 23.5 -24 57.5q0 35 24 58.5t59 23.5q34 0 57.5 -23.5t23.5 -58.5q0 -34 -23.5 -57.5
t-57.5 -23.5q-35 0 -59 23.5zM333 915.5q-24 23.5 -24 57.5q0 35 24 58.5t59 23.5q34 0 58 -23.5t24 -58.5q0 -34 -24 -57.5t-58 -23.5q-35 0 -59 23.5z" />
    <glyph glyph-name="Igrave" unicode="&#xcc;" horiz-adv-x="349" 
d="M53 0q15 26 18.5 49t3.5 62v593q0 39 -3.5 62t-18.5 49h239q-15 -26 -18.5 -49t-3.5 -62v-593q0 -39 3.5 -62t18.5 -49h-239zM87 910.5q-51 25.5 -80 70.5l105 99q23 -41 68 -73t96 -38q30 -5 51 -4q-12 -38 -49.5 -59t-85.5 -21q-54 0 -105 25.5z" />
    <glyph glyph-name="Iacute" unicode="&#xcd;" horiz-adv-x="374" 
d="M77 0q15 26 18.5 49t3.5 62v593q0 39 -3.5 62t-18.5 49h239q-15 -26 -18.5 -49t-3.5 -62v-593q0 -39 3.5 -62t18.5 -49h-239zM88 906.5q-38 21.5 -50 58.5q24 -1 51 5q50 5 95 36.5t69 73.5l105 -98q-30 -46 -80.5 -71.5t-104.5 -25.5q-47 0 -85 21.5z" />
    <glyph glyph-name="Icircumflex" unicode="&#xce;" horiz-adv-x="347" 
d="M50 0q15 26 18.5 49t3.5 62v593q0 39 -3.5 62t-18.5 49h239q-15 -26 -18.5 -49t-3.5 -62v-593q0 -39 3.5 -62t18.5 -49h-239zM-24 966q56 18 102 43.5t103 70.5q66 -49 107.5 -73.5t95.5 -41.5l-70 -97q-65 38 -133 108q-73 -72 -148 -113z" />
    <glyph glyph-name="Idieresis" unicode="&#xcf;" horiz-adv-x="314" 
d="M37 0q15 26 18.5 49t3.5 62v593q0 39 -3.5 62t-18.5 49h239q-15 -26 -18.5 -49t-3.5 -62v-593q0 -39 3.5 -62t18.5 -49h-239zM0 915.5q-24 23.5 -24 57.5q0 35 24 58.5t59 23.5q34 0 57.5 -23.5t23.5 -58.5q0 -34 -23.5 -57.5t-57.5 -23.5q-35 0 -59 23.5zM196 915.5
q-24 23.5 -24 57.5q0 35 24 58.5t59 23.5q34 0 58 -23.5t24 -58.5q0 -34 -24 -57.5t-58 -23.5q-35 0 -59 23.5z" />
    <glyph glyph-name="Eth" unicode="&#xd0;" horiz-adv-x="747" 
d="M345 815q364 0 364 -393q0 -205 -90 -313.5t-273 -108.5h-291q15 26 18.5 49t3.5 62v265h-64v73h64v255q0 39 -3.5 62t-18.5 49h290zM272 107q128 -5 185 73.5t57 244.5q0 117 -31.5 181t-84.5 86t-126 18v-261h108v-73h-108v-269z" />
    <glyph glyph-name="Ntilde" unicode="&#xd1;" horiz-adv-x="768" 
d="M38 0q15 26 18.5 49t3.5 62v569q0 95 -20 135h115q50 0 78 -18t49 -64l222 -496v467q0 39 -3.5 62t-18.5 49h239q-15 -26 -18.5 -49t-3.5 -62v-593q0 -39 3.5 -62t18.5 -49h-138q-34 0 -59 10t-47 37.5t-44 80.5l-178 418v-435q0 -39 3.5 -62t18.5 -49h-239zM432.5 889.5
q-20.5 12.5 -47.5 38.5q-21 22 -38 33t-41 11q-43 0 -56.5 -26.5t-13.5 -56.5h-95q-6 27 -6 52q0 58 30 92.5t85 34.5q32 0 53 -14t46 -42q23 -25 40 -37t42 -12t39.5 18t14.5 48q0 15 -2 23h108q8 -32 8 -54q0 -39 -17 -66.5t-43.5 -41t-54.5 -13.5q-31 0 -51.5 12.5z" />
    <glyph glyph-name="Ograve" unicode="&#xd2;" horiz-adv-x="744" 
d="M188 38.5q-75 54.5 -112.5 149.5t-37.5 217q0 208 83.5 317t250.5 109t251 -109t84 -317q0 -122 -37.5 -217t-113 -149.5t-184.5 -54.5t-184 54.5zM428.5 139.5q30.5 24.5 54 89.5t23.5 176q0 295 -134 295q-62 0 -98 -70t-36 -225q0 -112 22 -176.5t52 -89t60 -24.5
q26 0 56.5 24.5zM318 917.5q-51 25.5 -80 70.5l105 99q23 -41 68 -73t96 -38q30 -5 51 -4q-12 -38 -49.5 -59t-85.5 -21q-54 0 -105 25.5z" />
    <glyph glyph-name="Oacute" unicode="&#xd3;" horiz-adv-x="744" 
d="M188 38.5q-75 54.5 -112.5 149.5t-37.5 217q0 208 83.5 317t250.5 109t251 -109t84 -317q0 -122 -37.5 -217t-113 -149.5t-184.5 -54.5t-184 54.5zM428.5 139.5q30.5 24.5 54 89.5t23.5 176q0 295 -134 295q-62 0 -98 -70t-36 -225q0 -112 22 -176.5t52 -89t60 -24.5
q26 0 56.5 24.5zM264 913.5q-38 21.5 -50 58.5q24 -1 51 5q50 5 95 36.5t69 73.5l105 -98q-30 -46 -80.5 -71.5t-104.5 -25.5q-47 0 -85 21.5z" />
    <glyph glyph-name="Ocircumflex" unicode="&#xd4;" horiz-adv-x="744" 
d="M188 38.5q-75 54.5 -112.5 149.5t-37.5 217q0 208 83.5 317t250.5 109t251 -109t84 -317q0 -122 -37.5 -217t-113 -149.5t-184.5 -54.5t-184 54.5zM428.5 139.5q30.5 24.5 54 89.5t23.5 176q0 295 -134 295q-62 0 -98 -70t-36 -225q0 -112 22 -176.5t52 -89t60 -24.5
q26 0 56.5 24.5zM167 992q56 18 102 43.5t103 70.5q66 -49 107.5 -73.5t95.5 -41.5l-70 -97q-65 38 -133 108q-73 -72 -148 -113z" />
    <glyph glyph-name="Otilde" unicode="&#xd5;" horiz-adv-x="744" 
d="M188 38.5q-75 54.5 -112.5 149.5t-37.5 217q0 208 83.5 317t250.5 109t251 -109t84 -317q0 -122 -37.5 -217t-113 -149.5t-184.5 -54.5t-184 54.5zM428.5 139.5q30.5 24.5 54 89.5t23.5 176q0 295 -134 295q-62 0 -98 -70t-36 -225q0 -112 22 -176.5t52 -89t60 -24.5
q26 0 56.5 24.5zM425.5 896.5q-20.5 12.5 -47.5 38.5q-21 22 -38 33t-41 11q-43 0 -56.5 -26.5t-13.5 -56.5h-95q-6 27 -6 52q0 58 30 92.5t85 34.5q32 0 53 -14t46 -42q23 -25 40 -37t42 -12t39.5 18t14.5 48q0 15 -2 23h108q8 -32 8 -54q0 -39 -17 -66.5t-43.5 -41
t-54.5 -13.5q-31 0 -51.5 12.5z" />
    <glyph glyph-name="Odieresis" unicode="&#xd6;" horiz-adv-x="744" 
d="M188 38.5q-75 54.5 -112.5 149.5t-37.5 217q0 208 83.5 317t250.5 109t251 -109t84 -317q0 -122 -37.5 -217t-113 -149.5t-184.5 -54.5t-184 54.5zM428.5 139.5q30.5 24.5 54 89.5t23.5 176q0 295 -134 295q-62 0 -98 -70t-36 -225q0 -112 22 -176.5t52 -89t60 -24.5
q26 0 56.5 24.5zM216 922.5q-24 23.5 -24 57.5q0 35 24 58.5t59 23.5q34 0 57.5 -23.5t23.5 -58.5q0 -34 -23.5 -57.5t-57.5 -23.5q-35 0 -59 23.5zM412 922.5q-24 23.5 -24 57.5q0 35 24 58.5t59 23.5q34 0 58 -23.5t24 -58.5q0 -34 -24 -57.5t-58 -23.5q-35 0 -59 23.5z
" />
    <glyph glyph-name="multiply" unicode="&#xd7;" horiz-adv-x="388" 
d="M193 258l-104 -104l-51 53l104 104l-104 103l52 52l103 -103l104 103l52 -52l-103 -103l104 -104l-52 -53z" />
    <glyph glyph-name="Oslash" unicode="&#xd8;" horiz-adv-x="744" 
d="M520 803q93 -42 140 -142.5t47 -255.5q0 -122 -37.5 -217t-113 -149.5t-184.5 -54.5q-44 0 -83 9l-11 -40h-73l18 64q-91 46 -138 148.5t-47 239.5q0 208 83.5 317t250.5 109q46 0 81 -7l11 39h73zM273 193l142 498q-19 9 -43 9q-62 0 -98 -70t-36 -225q0 -135 35 -212z
M428.5 139.5q30.5 24.5 54 89.5t23.5 176q0 150 -35 225l-143 -502q21 -13 44 -13q26 0 56.5 24.5z" />
    <glyph glyph-name="Ugrave" unicode="&#xd9;" horiz-adv-x="718" 
d="M202.5 16.5q-67.5 33.5 -105 96.5t-37.5 149v442q0 39 -3.5 62t-18.5 49h239q-15 -26 -18.5 -49t-3.5 -62v-506q0 -47 31 -73.5t74 -26.5q42 0 73.5 26.5t31.5 73.5l-1 506q0 39 -3.5 62t-18.5 49h239q-15 -26 -18.5 -49t-3.5 -62v-442q0 -85 -38.5 -148t-106.5 -97
t-156 -34t-155.5 33.5zM305 910.5q-51 25.5 -80 70.5l105 99q23 -41 68 -73t96 -38q30 -5 51 -4q-12 -38 -49.5 -59t-85.5 -21q-54 0 -105 25.5z" />
    <glyph glyph-name="Uacute" unicode="&#xda;" horiz-adv-x="718" 
d="M202.5 16.5q-67.5 33.5 -105 96.5t-37.5 149v442q0 39 -3.5 62t-18.5 49h239q-15 -26 -18.5 -49t-3.5 -62v-506q0 -47 31 -73.5t74 -26.5q42 0 73.5 26.5t31.5 73.5l-1 506q0 39 -3.5 62t-18.5 49h239q-15 -26 -18.5 -49t-3.5 -62v-442q0 -85 -38.5 -148t-106.5 -97
t-156 -34t-155.5 33.5zM251 906.5q-38 21.5 -50 58.5q24 -1 51 5q50 5 95 36.5t69 73.5l105 -98q-30 -46 -80.5 -71.5t-104.5 -25.5q-47 0 -85 21.5z" />
    <glyph glyph-name="Ucircumflex" unicode="&#xdb;" horiz-adv-x="718" 
d="M202.5 16.5q-67.5 33.5 -105 96.5t-37.5 149v442q0 39 -3.5 62t-18.5 49h239q-15 -26 -18.5 -49t-3.5 -62v-506q0 -47 31 -73.5t74 -26.5q42 0 73.5 26.5t31.5 73.5l-1 506q0 39 -3.5 62t-18.5 49h239q-15 -26 -18.5 -49t-3.5 -62v-442q0 -85 -38.5 -148t-106.5 -97
t-156 -34t-155.5 33.5zM154 985q56 18 102 43.5t103 70.5q66 -49 107.5 -73.5t95.5 -41.5l-70 -97q-65 38 -133 108q-73 -72 -148 -113z" />
    <glyph glyph-name="Udieresis" unicode="&#xdc;" horiz-adv-x="718" 
d="M202.5 16.5q-67.5 33.5 -105 96.5t-37.5 149v442q0 39 -3.5 62t-18.5 49h239q-15 -26 -18.5 -49t-3.5 -62v-506q0 -47 31 -73.5t74 -26.5q42 0 73.5 26.5t31.5 73.5l-1 506q0 39 -3.5 62t-18.5 49h239q-15 -26 -18.5 -49t-3.5 -62v-442q0 -85 -38.5 -148t-106.5 -97
t-156 -34t-155.5 33.5zM203 915.5q-24 23.5 -24 57.5q0 35 24 58.5t59 23.5q34 0 57.5 -23.5t23.5 -58.5q0 -34 -23.5 -57.5t-57.5 -23.5q-35 0 -59 23.5zM399 915.5q-24 23.5 -24 57.5q0 35 24 58.5t59 23.5q34 0 58 -23.5t24 -58.5q0 -34 -24 -57.5t-58 -23.5
q-35 0 -59 23.5z" />
    <glyph glyph-name="Yacute" unicode="&#xdd;" horiz-adv-x="760" 
d="M261 0q15 26 18.5 49t3.5 62v216l-197 379q-30 58 -64 109h197q4 -24 15 -48.5t22.5 -46t15.5 -28.5l115 -220l114 222l17 34t21 47.5t10 39.5h190q-19 -27 -34 -53.5t-30 -55.5l-197 -379v-216q0 -39 3.5 -62t18.5 -49h-239zM272 906.5q-38 21.5 -50 58.5q24 -1 51 5
q50 5 95 36.5t69 73.5l105 -98q-30 -46 -80.5 -71.5t-104.5 -25.5q-47 0 -85 21.5z" />
    <glyph glyph-name="Thorn" unicode="&#xde;" horiz-adv-x="689" 
d="M38 0q15 26 18.5 49t3.5 62v593q0 39 -3.5 62t-18.5 49h239q-15 -26 -18.5 -49t-3.5 -62v-103h5q29 39 70 57.5t88 18.5q62 0 116 -26.5t88 -81.5t34 -137q0 -89 -36.5 -149.5t-93 -89t-117.5 -28.5q-50 0 -91 19.5t-59 53.5h-4v-127q0 -39 3.5 -62t18.5 -49h-239z
M398 268q29 23 46 64.5t17 95.5q0 50 -17 88.5t-46.5 59.5t-64.5 21q-23 0 -43.5 -8.5t-34.5 -24.5v-284q13 -16 34 -25.5t44 -9.5q36 0 65 23z" />
    <glyph glyph-name="germandbls" unicode="&#xdf;" horiz-adv-x="748" 
d="M393.5 4q-43.5 22 -70.5 65t-28 103q12 -44 43.5 -67.5t69.5 -23.5q31 0 59 16t45 47t17 73q0 56 -46 105t-137 74v102q39 24 60 62.5t21 78.5q0 43 -22.5 72.5t-62.5 29.5q-45 0 -67 -35t-22 -85v-503q0 -42 -17.5 -75.5t-42.5 -44.5h-165q18 25 24 45.5t6 52.5v473
q0 89 37.5 147.5t99 86.5t132.5 28q66 0 117.5 -25t80 -68t28.5 -94q0 -56 -25.5 -99t-63.5 -71q82 -6 140 -41t87 -87.5t29 -109.5q0 -81 -33.5 -138.5t-87 -86.5t-111.5 -29q-51 0 -94.5 22z" />
    <glyph glyph-name="agrave" unicode="&#xe0;" horiz-adv-x="687" 
d="M130.5 6q-41.5 21 -67 62t-25.5 97q0 61 30 101.5t79 60t106 19.5q52 0 101 -14.5t82 -40.5q-34 20 -80 20q-62 0 -103 -32t-41 -86q0 -39 23.5 -62t58.5 -23q44 0 85 42.5t57 117.5v118q0 41 -32.5 65.5t-83.5 24.5q-80 0 -166 -54l-40 115q56 28 120 43t127 15
q116 0 193 -52.5t77 -157.5v-305q0 -26 6 -44.5t24 -35.5h-124q-101 0 -101 110v66h-3q-18 -89 -77.5 -140t-137.5 -51q-46 0 -87.5 21zM300 673.5q-51 25.5 -80 70.5l105 99q23 -41 68 -73t96 -38q30 -5 51 -4q-12 -38 -49.5 -59t-85.5 -21q-54 0 -105 25.5z" />
    <glyph glyph-name="aacute" unicode="&#xe1;" horiz-adv-x="687" 
d="M130.5 6q-41.5 21 -67 62t-25.5 97q0 61 30 101.5t79 60t106 19.5q52 0 101 -14.5t82 -40.5q-34 20 -80 20q-62 0 -103 -32t-41 -86q0 -39 23.5 -62t58.5 -23q44 0 85 42.5t57 117.5v118q0 41 -32.5 65.5t-83.5 24.5q-80 0 -166 -54l-40 115q56 28 120 43t127 15
q116 0 193 -52.5t77 -157.5v-305q0 -26 6 -44.5t24 -35.5h-124q-101 0 -101 110v66h-3q-18 -89 -77.5 -140t-137.5 -51q-46 0 -87.5 21zM246 669.5q-38 21.5 -50 58.5q24 -1 51 5q50 5 95 36.5t69 73.5l105 -98q-30 -46 -80.5 -71.5t-104.5 -25.5q-47 0 -85 21.5z" />
    <glyph glyph-name="acircumflex" unicode="&#xe2;" horiz-adv-x="687" 
d="M130.5 6q-41.5 21 -67 62t-25.5 97q0 61 30 101.5t79 60t106 19.5q52 0 101 -14.5t82 -40.5q-34 20 -80 20q-62 0 -103 -32t-41 -86q0 -39 23.5 -62t58.5 -23q44 0 85 42.5t57 117.5v118q0 41 -32.5 65.5t-83.5 24.5q-80 0 -166 -54l-40 115q56 28 120 43t127 15
q116 0 193 -52.5t77 -157.5v-305q0 -26 6 -44.5t24 -35.5h-124q-101 0 -101 110v66h-3q-18 -89 -77.5 -140t-137.5 -51q-46 0 -87.5 21zM149 748q56 18 102 43.5t103 70.5q66 -49 107.5 -73.5t95.5 -41.5l-70 -97q-65 38 -133 108q-73 -72 -148 -113z" />
    <glyph glyph-name="atilde" unicode="&#xe3;" horiz-adv-x="687" 
d="M130.5 6q-41.5 21 -67 62t-25.5 97q0 61 30 101.5t79 60t106 19.5q52 0 101 -14.5t82 -40.5q-34 20 -80 20q-62 0 -103 -32t-41 -86q0 -39 23.5 -62t58.5 -23q44 0 85 42.5t57 117.5v118q0 41 -32.5 65.5t-83.5 24.5q-80 0 -166 -54l-40 115q56 28 120 43t127 15
q116 0 193 -52.5t77 -157.5v-305q0 -26 6 -44.5t24 -35.5h-124q-101 0 -101 110v66h-3q-18 -89 -77.5 -140t-137.5 -51q-46 0 -87.5 21zM408.5 652.5q-20.5 12.5 -47.5 38.5q-21 22 -38 33t-41 11q-43 0 -56.5 -26.5t-13.5 -56.5h-95q-6 27 -6 52q0 58 30 92.5t85 34.5
q32 0 53 -14t46 -42q23 -25 40 -37t42 -12t39.5 18t14.5 48q0 15 -2 23h108q8 -32 8 -54q0 -39 -17 -66.5t-43.5 -41t-54.5 -13.5q-31 0 -51.5 12.5z" />
    <glyph glyph-name="adieresis" unicode="&#xe4;" horiz-adv-x="687" 
d="M130.5 6q-41.5 21 -67 62t-25.5 97q0 61 30 101.5t79 60t106 19.5q52 0 101 -14.5t82 -40.5q-34 20 -80 20q-62 0 -103 -32t-41 -86q0 -39 23.5 -62t58.5 -23q44 0 85 42.5t57 117.5v118q0 41 -32.5 65.5t-83.5 24.5q-80 0 -166 -54l-40 115q56 28 120 43t127 15
q116 0 193 -52.5t77 -157.5v-305q0 -26 6 -44.5t24 -35.5h-124q-101 0 -101 110v66h-3q-18 -89 -77.5 -140t-137.5 -51q-46 0 -87.5 21zM198 678.5q-24 23.5 -24 57.5q0 35 24 58.5t59 23.5q34 0 57.5 -23.5t23.5 -58.5q0 -34 -23.5 -57.5t-57.5 -23.5q-35 0 -59 23.5z
M394 678.5q-24 23.5 -24 57.5q0 35 24 58.5t59 23.5q34 0 58 -23.5t24 -58.5q0 -34 -24 -57.5t-58 -23.5q-35 0 -59 23.5z" />
    <glyph glyph-name="aring" unicode="&#xe5;" horiz-adv-x="687" 
d="M130.5 6q-41.5 21 -67 62t-25.5 97q0 61 30 101.5t79 60t106 19.5q52 0 101 -14.5t82 -40.5q-34 20 -80 20q-62 0 -103 -32t-41 -86q0 -39 23.5 -62t58.5 -23q44 0 85 42.5t57 117.5v118q0 41 -32.5 65.5t-83.5 24.5q-80 0 -166 -54l-40 115q56 28 120 43t127 15
q116 0 193 -52.5t77 -157.5v-305q0 -26 6 -44.5t24 -35.5h-124q-101 0 -101 110v66h-3q-18 -89 -77.5 -140t-137.5 -51q-46 0 -87.5 21zM265.5 660.5q-36.5 36.5 -36.5 89.5t36.5 89.5t88.5 36.5q53 0 89.5 -36.5t36.5 -89.5t-36.5 -89.5t-89.5 -36.5q-52 0 -88.5 36.5z
M385.5 703.5q13.5 12.5 13.5 46.5t-13.5 46.5t-31.5 12.5q-17 0 -30.5 -12.5t-13.5 -46.5t13.5 -46.5t30.5 -12.5q18 0 31.5 12.5z" />
    <glyph glyph-name="ae" unicode="&#xe6;" horiz-adv-x="1076" 
d="M144.5 7q-48.5 21 -77.5 61.5t-29 96.5q0 89 61 135t151 46q47 0 94 -12.5t84 -33.5q-29 7 -63 7q-65 0 -109 -29t-44 -86q0 -38 22 -59.5t55 -21.5q32 0 64.5 22.5t55.5 66t27 102.5v70q0 51 -32 77.5t-84 26.5q-38 0 -82 -13.5t-87 -40.5l-37 114q56 28 120.5 43.5
t126.5 15.5t113 -20t81 -60q41 38 95 58t111 20q72 0 129 -22.5t89.5 -62t32.5 -90.5q0 -52 -31 -93.5t-86 -64.5t-126 -23q-52 0 -106 15v4q47 4 89.5 23.5t69 50t26.5 65.5q0 42 -25.5 67t-61.5 25q-32 0 -61.5 -19t-49 -58t-19.5 -96q0 -65 26.5 -108.5t68.5 -64.5
t92 -21q55 0 111 23t89 59l30 -137q-54 -38 -119 -58t-132 -20q-100 0 -180 46.5t-106 132.5h-7q-16 -60 -57 -100.5t-93.5 -60t-105.5 -19.5q-55 0 -103.5 21z" />
    <glyph glyph-name="ccedilla" unicode="&#xe7;" horiz-adv-x="557" 
d="M307 -16l-7 -12q60 -4 93 -34.5t33 -73.5q0 -35 -22 -66t-66 -50.5t-106 -19.5q-53 0 -110 14v79q38 -9 68 -9q56 0 87.5 24.5t31.5 55.5q0 21 -17 37t-49 20l18 40q-104 18 -166 98.5t-62 205.5q0 95 38 163.5t102 104t141 35.5q57 0 115.5 -19.5t113.5 -57.5l-32 -145
q-41 33 -85.5 51.5t-84.5 18.5q-57 0 -93.5 -41t-36.5 -118q0 -76 39.5 -118.5t105.5 -42.5q43 0 93 18t102 55v-144q-120 -69 -233 -69h-11z" />
    <glyph glyph-name="egrave" unicode="&#xe8;" horiz-adv-x="665" 
d="M213 22q-82 36 -131 106.5t-49 168.5q0 93 44 160.5t117 102.5t160 35q76 0 138.5 -24t98.5 -66t36 -95q0 -51 -31.5 -90.5t-90.5 -62t-138 -22.5q-66 0 -122 20q32 3 60 12q78 11 118 45.5t40 77.5q0 40 -29.5 68.5t-77.5 28.5q-32 0 -61.5 -17.5t-48 -54.5t-18.5 -92
q0 -67 26.5 -113.5t70.5 -69t97 -22.5q49 0 100 18t86 45l29 -136q-117 -59 -244 -59q-98 0 -180 36zM279 673.5q-51 25.5 -80 70.5l105 99q23 -41 68 -73t96 -38q30 -5 51 -4q-12 -38 -49.5 -59t-85.5 -21q-54 0 -105 25.5z" />
    <glyph glyph-name="eacute" unicode="&#xe9;" horiz-adv-x="665" 
d="M213 22q-82 36 -131 106.5t-49 168.5q0 93 44 160.5t117 102.5t160 35q76 0 138.5 -24t98.5 -66t36 -95q0 -51 -31.5 -90.5t-90.5 -62t-138 -22.5q-66 0 -122 20q32 3 60 12q78 11 118 45.5t40 77.5q0 40 -29.5 68.5t-77.5 28.5q-32 0 -61.5 -17.5t-48 -54.5t-18.5 -92
q0 -67 26.5 -113.5t70.5 -69t97 -22.5q49 0 100 18t86 45l29 -136q-117 -59 -244 -59q-98 0 -180 36zM225 669.5q-38 21.5 -50 58.5q24 -1 51 5q50 5 95 36.5t69 73.5l105 -98q-30 -46 -80.5 -71.5t-104.5 -25.5q-47 0 -85 21.5z" />
    <glyph glyph-name="ecircumflex" unicode="&#xea;" horiz-adv-x="665" 
d="M213 22q-82 36 -131 106.5t-49 168.5q0 93 44 160.5t117 102.5t160 35q76 0 138.5 -24t98.5 -66t36 -95q0 -51 -31.5 -90.5t-90.5 -62t-138 -22.5q-66 0 -122 20q32 3 60 12q78 11 118 45.5t40 77.5q0 40 -29.5 68.5t-77.5 28.5q-32 0 -61.5 -17.5t-48 -54.5t-18.5 -92
q0 -67 26.5 -113.5t70.5 -69t97 -22.5q49 0 100 18t86 45l29 -136q-117 -59 -244 -59q-98 0 -180 36zM128 748q56 18 102 43.5t103 70.5q66 -49 107.5 -73.5t95.5 -41.5l-70 -97q-65 38 -133 108q-73 -72 -148 -113z" />
    <glyph glyph-name="edieresis" unicode="&#xeb;" horiz-adv-x="665" 
d="M213 22q-82 36 -131 106.5t-49 168.5q0 93 44 160.5t117 102.5t160 35q76 0 138.5 -24t98.5 -66t36 -95q0 -51 -31.5 -90.5t-90.5 -62t-138 -22.5q-66 0 -122 20q32 3 60 12q78 11 118 45.5t40 77.5q0 40 -29.5 68.5t-77.5 28.5q-32 0 -61.5 -17.5t-48 -54.5t-18.5 -92
q0 -67 26.5 -113.5t70.5 -69t97 -22.5q49 0 100 18t86 45l29 -136q-117 -59 -244 -59q-98 0 -180 36zM177 678.5q-24 23.5 -24 57.5q0 35 24 58.5t59 23.5q34 0 57.5 -23.5t23.5 -58.5q0 -34 -23.5 -57.5t-57.5 -23.5q-35 0 -59 23.5zM373 678.5q-24 23.5 -24 57.5
q0 35 24 58.5t59 23.5q34 0 58 -23.5t24 -58.5q0 -34 -24 -57.5t-58 -23.5q-35 0 -59 23.5z" />
    <glyph glyph-name="igrave" unicode="&#xec;" horiz-adv-x="314" 
d="M38 0q15 26 18.5 49t3.5 62v386q0 38 -22 60q66 0 129 11t88 40v-497q0 -39 3.5 -62t18.5 -49h-239zM67 673.5q-51 25.5 -80 70.5l105 99q23 -41 68 -73t96 -38q30 -5 51 -4q-12 -38 -49.5 -59t-85.5 -21q-54 0 -105 25.5z" />
    <glyph glyph-name="iacute" unicode="&#xed;" horiz-adv-x="314" 
d="M38 0q15 26 18.5 49t3.5 62v386q0 38 -22 60q66 0 129 11t88 40v-497q0 -39 3.5 -62t18.5 -49h-239zM52 669.5q-38 21.5 -50 58.5q24 -1 51 5q50 5 95 36.5t69 73.5l105 -98q-30 -46 -80.5 -71.5t-104.5 -25.5q-47 0 -85 21.5z" />
    <glyph glyph-name="icircumflex" unicode="&#xee;" horiz-adv-x="314" 
d="M38 0q15 26 18.5 49t3.5 62v386q0 38 -22 60q66 0 129 11t88 40v-497q0 -39 3.5 -62t18.5 -49h-239zM-46 748q56 18 102 43.5t103 70.5q66 -49 107.5 -73.5t95.5 -41.5l-70 -97q-65 38 -133 108q-73 -72 -148 -113z" />
    <glyph glyph-name="idieresis" unicode="&#xef;" horiz-adv-x="314" 
d="M37 0q15 26 18.5 49t3.5 62v386q0 38 -22 60q66 0 129 11t88 40v-497q0 -39 3.5 -62t18.5 -49h-239zM0 678.5q-24 23.5 -24 57.5q0 35 24 58.5t59 23.5q34 0 57.5 -23.5t23.5 -58.5q0 -34 -23.5 -57.5t-57.5 -23.5q-35 0 -59 23.5zM196 678.5q-24 23.5 -24 57.5
q0 35 24 58.5t59 23.5q34 0 58 -23.5t24 -58.5q0 -34 -24 -57.5t-58 -23.5q-35 0 -59 23.5z" />
    <glyph glyph-name="eth" unicode="&#xf0;" horiz-adv-x="716" 
d="M422 761q114 -68 187.5 -176t73.5 -243q0 -101 -41.5 -181.5t-116.5 -126.5t-172 -46q-85 0 -158 34t-117.5 100.5t-44.5 159.5q0 98 45.5 167t123.5 104.5t173 35.5q24 0 36 -1q-39 47 -90 82l-69 -63l-46 45l57 53q-50 27 -100 44l64 85q68 -11 131 -40l50 46l61 -37z
M416.5 168q32.5 25 53 76t20.5 125q0 120 -77 216v-99q-6 1 -18 1q-40 0 -79 -23t-63.5 -65.5t-24.5 -99.5q0 -49 16.5 -84t44 -53.5t59.5 -18.5q36 0 68.5 25z" />
    <glyph glyph-name="ntilde" unicode="&#xf1;" horiz-adv-x="722" 
d="M42 0q15 26 18.5 49t3.5 62v373q0 38 -22 60q66 0 129 11t88 40v-190h6q8 60 40 103t78 65t96 22q49 0 91 -21t67.5 -62t25.5 -99v-302q0 -39 3.5 -62t18.5 -49h-239q15 26 18.5 49t3.5 62v256q0 48 -24 73t-59 25q-41 0 -77 -30.5t-49 -84.5v-239q0 -39 3.5 -62
t18.5 -49h-239zM386.5 652.5q-20.5 12.5 -47.5 38.5q-21 22 -38 33t-41 11q-43 0 -56.5 -26.5t-13.5 -56.5h-95q-6 27 -6 52q0 58 30 92.5t85 34.5q32 0 53 -14t46 -42q23 -25 40 -37t42 -12t39.5 18t14.5 48q0 15 -2 23h108q8 -32 8 -54q0 -39 -17 -66.5t-43.5 -41
t-54.5 -13.5q-31 0 -51.5 12.5z" />
    <glyph glyph-name="ograve" unicode="&#xf2;" horiz-adv-x="710" 
d="M199.5 21.5q-73.5 33.5 -120 102t-46.5 168.5t41.5 168t114.5 101.5t167 33.5q147 0 234 -76.5t87 -226.5q0 -100 -46 -168.5t-119.5 -102t-155.5 -33.5q-83 0 -156.5 33.5zM414 119q29 21 48.5 64.5t19.5 108.5q0 66 -19.5 110t-48.5 65t-58 21q-30 0 -59.5 -20.5
t-49 -65t-19.5 -110.5q0 -65 19.5 -108.5t49 -64.5t59.5 -21q29 0 58 21zM302 673.5q-51 25.5 -80 70.5l105 99q23 -41 68 -73t96 -38q30 -5 51 -4q-12 -38 -49.5 -59t-85.5 -21q-54 0 -105 25.5z" />
    <glyph glyph-name="oacute" unicode="&#xf3;" horiz-adv-x="710" 
d="M199.5 21.5q-73.5 33.5 -120 102t-46.5 168.5t41.5 168t114.5 101.5t167 33.5q147 0 234 -76.5t87 -226.5q0 -100 -46 -168.5t-119.5 -102t-155.5 -33.5q-83 0 -156.5 33.5zM414 119q29 21 48.5 64.5t19.5 108.5q0 66 -19.5 110t-48.5 65t-58 21q-30 0 -59.5 -20.5
t-49 -65t-19.5 -110.5q0 -65 19.5 -108.5t49 -64.5t59.5 -21q29 0 58 21zM247 669.5q-38 21.5 -50 58.5q24 -1 51 5q50 5 95 36.5t69 73.5l105 -98q-30 -46 -80.5 -71.5t-104.5 -25.5q-47 0 -85 21.5z" />
    <glyph glyph-name="ocircumflex" unicode="&#xf4;" horiz-adv-x="710" 
d="M199.5 21.5q-73.5 33.5 -120 102t-46.5 168.5t41.5 168t114.5 101.5t167 33.5q147 0 234 -76.5t87 -226.5q0 -100 -46 -168.5t-119.5 -102t-155.5 -33.5q-83 0 -156.5 33.5zM414 119q29 21 48.5 64.5t19.5 108.5q0 66 -19.5 110t-48.5 65t-58 21q-30 0 -59.5 -20.5
t-49 -65t-19.5 -110.5q0 -65 19.5 -108.5t49 -64.5t59.5 -21q29 0 58 21zM150 748q56 18 102 43.5t103 70.5q66 -49 107.5 -73.5t95.5 -41.5l-70 -97q-65 38 -133 108q-73 -72 -148 -113z" />
    <glyph glyph-name="otilde" unicode="&#xf5;" horiz-adv-x="710" 
d="M199.5 21.5q-73.5 33.5 -120 102t-46.5 168.5t41.5 168t114.5 101.5t167 33.5q147 0 234 -76.5t87 -226.5q0 -100 -46 -168.5t-119.5 -102t-155.5 -33.5q-83 0 -156.5 33.5zM414 119q29 21 48.5 64.5t19.5 108.5q0 66 -19.5 110t-48.5 65t-58 21q-30 0 -59.5 -20.5
t-49 -65t-19.5 -110.5q0 -65 19.5 -108.5t49 -64.5t59.5 -21q29 0 58 21zM409.5 652.5q-20.5 12.5 -47.5 38.5q-21 22 -38 33t-41 11q-43 0 -56.5 -26.5t-13.5 -56.5h-95q-6 27 -6 52q0 58 30 92.5t85 34.5q32 0 53 -14t46 -42q23 -25 40 -37t42 -12t39.5 18t14.5 48
q0 15 -2 23h108q8 -32 8 -54q0 -39 -17 -66.5t-43.5 -41t-54.5 -13.5q-31 0 -51.5 12.5z" />
    <glyph glyph-name="odieresis" unicode="&#xf6;" horiz-adv-x="710" 
d="M199.5 21.5q-73.5 33.5 -120 102t-46.5 168.5t41.5 168t114.5 101.5t167 33.5q147 0 234 -76.5t87 -226.5q0 -100 -46 -168.5t-119.5 -102t-155.5 -33.5q-83 0 -156.5 33.5zM414 119q29 21 48.5 64.5t19.5 108.5q0 66 -19.5 110t-48.5 65t-58 21q-30 0 -59.5 -20.5
t-49 -65t-19.5 -110.5q0 -65 19.5 -108.5t49 -64.5t59.5 -21q29 0 58 21zM200 678.5q-24 23.5 -24 57.5q0 35 24 58.5t59 23.5q34 0 57.5 -23.5t23.5 -58.5q0 -34 -23.5 -57.5t-57.5 -23.5q-35 0 -59 23.5zM396 678.5q-24 23.5 -24 57.5q0 35 24 58.5t59 23.5q34 0 58 -23.5
t24 -58.5q0 -34 -24 -57.5t-58 -23.5q-35 0 -59 23.5z" />
    <glyph glyph-name="divide" unicode="&#xf7;" horiz-adv-x="392" 
d="M139.5 422.5q-21.5 19.5 -21.5 48.5t21.5 48.5t52.5 19.5t52.5 -20t21.5 -48t-21.5 -48t-52.5 -20t-52.5 19.5zM355 271h-317v74h317v-74zM139.5 94.5q-21.5 19.5 -21.5 48.5q0 28 21.5 48t52.5 20t52.5 -20t21.5 -48t-21.5 -48t-52.5 -20t-52.5 19.5z" />
    <glyph glyph-name="oslash" unicode="&#xf8;" horiz-adv-x="710" 
d="M475 580q96 -27 149 -99.5t53 -188.5q0 -100 -46 -168.5t-119.5 -102t-155.5 -33.5q-24 0 -48 3l-45 -157h-72l49 172q-92 29 -149.5 101t-57.5 185q0 100 41.5 168t114.5 101.5t167 33.5q17 0 51 -2l43 151h72zM277 136l99 349q-10 3 -20 3q-30 0 -59.5 -20.5t-49 -65
t-19.5 -110.5q0 -102 49 -156zM414 119q29 21 48.5 64.5t19.5 108.5q0 99 -45 154l-98 -346q12 -2 17 -2q29 0 58 21z" />
    <glyph glyph-name="ugrave" unicode="&#xf9;" horiz-adv-x="726" 
d="M112.5 34q-52.5 51 -52.5 141v309q0 38 -22 60q66 0 129 11t88 40v-374q0 -50 22.5 -74.5t61.5 -24.5q41 0 77.5 33.5t47.5 88.5v240q0 38 -22 60q66 0 129 11t88 40v-508q0 -32 8.5 -51.5t31.5 -35.5h-120q-59 0 -87 34t-28 86v75h-5q-10 -96 -66 -154t-141 -58
q-87 0 -139.5 51zM300 673.5q-51 25.5 -80 70.5l105 99q23 -41 68 -73t96 -38q30 -5 51 -4q-12 -38 -49.5 -59t-85.5 -21q-54 0 -105 25.5z" />
    <glyph glyph-name="uacute" unicode="&#xfa;" horiz-adv-x="726" 
d="M112.5 34q-52.5 51 -52.5 141v309q0 38 -22 60q66 0 129 11t88 40v-374q0 -50 22.5 -74.5t61.5 -24.5q41 0 77.5 33.5t47.5 88.5v240q0 38 -22 60q66 0 129 11t88 40v-508q0 -32 8.5 -51.5t31.5 -35.5h-120q-59 0 -87 34t-28 86v75h-5q-10 -96 -66 -154t-141 -58
q-87 0 -139.5 51zM246 669.5q-38 21.5 -50 58.5q24 -1 51 5q50 5 95 36.5t69 73.5l105 -98q-30 -46 -80.5 -71.5t-104.5 -25.5q-47 0 -85 21.5z" />
    <glyph glyph-name="ucircumflex" unicode="&#xfb;" horiz-adv-x="726" 
d="M112.5 34q-52.5 51 -52.5 141v309q0 38 -22 60q66 0 129 11t88 40v-374q0 -50 22.5 -74.5t61.5 -24.5q41 0 77.5 33.5t47.5 88.5v240q0 38 -22 60q66 0 129 11t88 40v-508q0 -32 8.5 -51.5t31.5 -35.5h-120q-59 0 -87 34t-28 86v75h-5q-10 -96 -66 -154t-141 -58
q-87 0 -139.5 51zM149 748q56 18 102 43.5t103 70.5q66 -49 107.5 -73.5t95.5 -41.5l-70 -97q-65 38 -133 108q-73 -72 -148 -113z" />
    <glyph glyph-name="udieresis" unicode="&#xfc;" horiz-adv-x="726" 
d="M112.5 34q-52.5 51 -52.5 141v309q0 38 -22 60q66 0 129 11t88 40v-374q0 -50 22.5 -74.5t61.5 -24.5q41 0 77.5 33.5t47.5 88.5v240q0 38 -22 60q66 0 129 11t88 40v-508q0 -32 8.5 -51.5t31.5 -35.5h-120q-59 0 -87 34t-28 86v75h-5q-10 -96 -66 -154t-141 -58
q-87 0 -139.5 51zM198 678.5q-24 23.5 -24 57.5q0 35 24 58.5t59 23.5q34 0 57.5 -23.5t23.5 -58.5q0 -34 -23.5 -57.5t-57.5 -23.5q-35 0 -59 23.5zM394 678.5q-24 23.5 -24 57.5q0 35 24 58.5t59 23.5q34 0 58 -23.5t24 -58.5q0 -34 -24 -57.5t-58 -23.5q-35 0 -59 23.5z
" />
    <glyph glyph-name="yacute" unicode="&#xfd;" horiz-adv-x="644" 
d="M11 -53q76 -22 139 -22q61 0 101 23t54 68l3 14h-127l-131 460q-6 21 -17.5 46.5t-22.5 41.5h206q-1 -8 -1 -26q0 -28 7 -49l109 -358l78 358q8 41 5 75h205q-11 -16 -21 -40.5t-15 -47.5l-124 -490q-28 -111 -108 -164.5t-231 -53.5q-39 0 -99 5zM221 669.5
q-38 21.5 -50 58.5q24 -1 51 5q50 5 95 36.5t69 73.5l105 -98q-30 -46 -80.5 -71.5t-104.5 -25.5q-47 0 -85 21.5z" />
    <glyph glyph-name="thorn" unicode="&#xfe;" horiz-adv-x="682" 
d="M38 -165q15 26 18.5 49t3.5 62v632q0 39 -3.5 62t-18.5 49h239q-15 -26 -18.5 -49t-3.5 -62v-142h5q28 39 71 57.5t87 18.5q67 0 121.5 -31t85.5 -87.5t31 -130.5q0 -86 -35.5 -147t-91.5 -92t-118 -31q-47 0 -87 17.5t-65 49.5h-4v-114q0 -39 3.5 -62t18.5 -49h-239z
M398.5 95.5q29.5 24.5 46 68t16.5 97.5q0 50 -16.5 90.5t-45 63t-63.5 22.5q-47 0 -81 -38v-297q35 -31 77 -31q37 0 66.5 24.5z" />
    <glyph glyph-name="ydieresis" unicode="&#xff;" horiz-adv-x="644" 
d="M11 -53q76 -22 139 -22q61 0 101 23t54 68l3 14h-127l-131 460q-6 21 -17.5 46.5t-22.5 41.5h206q-1 -8 -1 -26q0 -28 7 -49l109 -358l78 358q8 41 5 75h205q-11 -16 -21 -40.5t-15 -47.5l-124 -490q-28 -111 -108 -164.5t-231 -53.5q-39 0 -99 5zM173 678.5
q-24 23.5 -24 57.5q0 35 24 58.5t59 23.5q34 0 57.5 -23.5t23.5 -58.5q0 -34 -23.5 -57.5t-57.5 -23.5q-35 0 -59 23.5zM369 678.5q-24 23.5 -24 57.5q0 35 24 58.5t59 23.5q34 0 58 -23.5t24 -58.5q0 -34 -24 -57.5t-58 -23.5q-35 0 -59 23.5z" />
    <glyph glyph-name="Amacron" unicode="&#x100;" horiz-adv-x="816" 
d="M28 0q16 26 24.5 45.5t14.5 38t9 27.5l197 610q9 29 9 54q0 21 -5 40h265q-5 -17 -5 -41q0 -29 8 -53l204 -610q11 -36 20 -58.5t28 -52.5h-241q11 28 11 56q0 23 -8 55l-38 130h-218l-38 -130q-8 -32 -8 -55q0 -28 11 -56h-240zM412 651l-85 -298h170zM579 922h-344v97
h344v-97z" />
    <glyph glyph-name="amacron" unicode="&#x101;" horiz-adv-x="687" 
d="M130.5 6q-41.5 21 -67 62t-25.5 97q0 61 30 101.5t79 60t106 19.5q52 0 101 -14.5t82 -40.5q-34 20 -80 20q-62 0 -103 -32t-41 -86q0 -39 23.5 -62t58.5 -23q44 0 85 42.5t57 117.5v118q0 41 -32.5 65.5t-83.5 24.5q-80 0 -166 -54l-40 115q56 28 120 43t127 15
q116 0 193 -52.5t77 -157.5v-305q0 -26 6 -44.5t24 -35.5h-124q-101 0 -101 110v66h-3q-18 -89 -77.5 -140t-137.5 -51q-46 0 -87.5 21zM527 685h-344v97h344v-97z" />
    <glyph glyph-name="Abreve" unicode="&#x102;" horiz-adv-x="816" 
d="M28 0q16 26 24.5 45.5t14.5 38t9 27.5l197 610q9 29 9 54q0 21 -5 40h265q-5 -17 -5 -41q0 -29 8 -53l204 -610q11 -36 20 -58.5t28 -52.5h-241q11 28 11 56q0 23 -8 55l-38 130h-218l-38 -130q-8 -32 -8 -55q0 -28 11 -56h-240zM412 651l-85 -298h170zM314.5 902.5
q-43.5 21.5 -71.5 64t-32 102.5h104q7 -39 33 -60.5t59 -21.5t59 21.5t32 60.5h104q-3 -60 -31.5 -102.5t-71.5 -64t-92 -21.5t-92.5 21.5z" />
    <glyph glyph-name="abreve" unicode="&#x103;" horiz-adv-x="687" 
d="M130.5 6q-41.5 21 -67 62t-25.5 97q0 61 30 101.5t79 60t106 19.5q52 0 101 -14.5t82 -40.5q-34 20 -80 20q-62 0 -103 -32t-41 -86q0 -39 23.5 -62t58.5 -23q44 0 85 42.5t57 117.5v118q0 41 -32.5 65.5t-83.5 24.5q-80 0 -166 -54l-40 115q56 28 120 43t127 15
q116 0 193 -52.5t77 -157.5v-305q0 -26 6 -44.5t24 -35.5h-124q-101 0 -101 110v66h-3q-18 -89 -77.5 -140t-137.5 -51q-46 0 -87.5 21zM262.5 665.5q-43.5 21.5 -71.5 64t-32 102.5h104q7 -39 33 -60.5t59 -21.5t59 21.5t32 60.5h104q-3 -60 -31.5 -102.5t-71.5 -64
t-92 -21.5t-92.5 21.5z" />
    <glyph glyph-name="Aogonek" unicode="&#x104;" horiz-adv-x="816" 
d="M703 -124.5q24 -21.5 71 -23.5l-31 -68q-27 -10 -56 -10q-51 0 -85 31t-34 81q0 37 20 66.5t60 47.5h-92q11 28 11 56q0 23 -8 55l-38 130h-218l-38 -130q-8 -32 -8 -55q0 -28 11 -56h-240q16 26 24.5 45.5t14.5 38t9 27.5l197 610q9 29 9 54q0 21 -5 40h265
q-5 -17 -5 -41q0 -29 8 -53l204 -610q11 -36 20 -58.5t28 -52.5h-36q-36 0 -59 -22.5t-23 -51.5t24 -50.5zM412 651l-85 -298h170z" />
    <glyph glyph-name="aogonek" unicode="&#x105;" horiz-adv-x="687" 
d="M577 -124.5q24 -21.5 71 -23.5l-31 -68q-27 -10 -56 -10q-51 0 -85 31t-34 81q0 37 20.5 67t60.5 48q-87 6 -87 109v66h-3q-18 -89 -77.5 -140t-137.5 -51q-46 0 -87.5 21t-67 62t-25.5 97q0 61 30 101.5t79 60t106 19.5q52 0 101 -14.5t82 -40.5q-34 20 -80 20
q-62 0 -103 -32t-41 -86q0 -39 23.5 -62t58.5 -23q44 0 85 42.5t57 117.5v118q0 41 -32.5 65.5t-83.5 24.5q-80 0 -166 -54l-40 115q56 28 120 43t127 15q116 0 193 -52.5t77 -157.5v-305q0 -26 6 -44.5t24 -35.5h-26q-36 0 -59 -22.5t-23 -51.5t24 -50.5z" />
    <glyph glyph-name="Cacute" unicode="&#x106;" horiz-adv-x="651" 
d="M219.5 34.5q-82.5 50.5 -132 147t-49.5 227.5q0 134 44.5 229t124 144t183.5 49q54 0 113.5 -16.5t107.5 -45.5l-15 -149q-94 55 -173 55q-87 0 -138.5 -68t-51.5 -198q0 -84 27 -143t73.5 -89.5t104.5 -30.5q81 0 157 55l16 -155q-103 -62 -211 -62q-98 0 -180.5 50.5z
M225 906.5q-38 21.5 -50 58.5q24 -1 51 5q50 5 95 36.5t69 73.5l105 -98q-30 -46 -80.5 -71.5t-104.5 -25.5q-47 0 -85 21.5z" />
    <glyph glyph-name="cacute" unicode="&#x107;" horiz-adv-x="557" 
d="M170.5 21.5q-64.5 37.5 -101 107.5t-36.5 164q0 95 38 163.5t102 104t141 35.5q57 0 115.5 -19.5t113.5 -57.5l-32 -145q-41 33 -85.5 51.5t-84.5 18.5q-57 0 -93.5 -41t-36.5 -118q0 -76 39.5 -118.5t105.5 -42.5q43 0 93 18t102 55v-144q-120 -69 -233 -69
q-83 0 -147.5 37.5zM179 669.5q-38 21.5 -50 58.5q24 -1 51 5q50 5 95 36.5t69 73.5l105 -98q-30 -46 -80.5 -71.5t-104.5 -25.5q-47 0 -85 21.5z" />
    <glyph glyph-name="Cdotaccent" unicode="&#x10a;" horiz-adv-x="651" 
d="M219.5 34.5q-82.5 50.5 -132 147t-49.5 227.5q0 134 44.5 229t124 144t183.5 49q54 0 113.5 -16.5t107.5 -45.5l-15 -149q-94 55 -173 55q-87 0 -138.5 -68t-51.5 -198q0 -84 27 -143t73.5 -89.5t104.5 -30.5q81 0 157 55l16 -155q-103 -62 -211 -62q-98 0 -180.5 50.5z
M262.5 928q-28.5 29 -28.5 71t28.5 71t71.5 29q42 0 71 -29t29 -71t-29 -71t-71 -29q-43 0 -71.5 29z" />
    <glyph glyph-name="cdotaccent" unicode="&#x10b;" horiz-adv-x="557" 
d="M170.5 21.5q-64.5 37.5 -101 107.5t-36.5 164q0 95 38 163.5t102 104t141 35.5q57 0 115.5 -19.5t113.5 -57.5l-32 -145q-41 33 -85.5 51.5t-84.5 18.5q-57 0 -93.5 -41t-36.5 -118q0 -76 39.5 -118.5t105.5 -42.5q43 0 93 18t102 55v-144q-120 -69 -233 -69
q-83 0 -147.5 37.5zM216.5 691q-28.5 29 -28.5 71t28.5 71t71.5 29q42 0 71 -29t29 -71t-29 -71t-71 -29q-43 0 -71.5 29z" />
    <glyph glyph-name="Ccaron" unicode="&#x10c;" horiz-adv-x="651" 
d="M219.5 34.5q-82.5 50.5 -132 147t-49.5 227.5q0 134 44.5 229t124 144t183.5 49q54 0 113.5 -16.5t107.5 -45.5l-15 -149q-94 55 -173 55q-87 0 -138.5 -68t-51.5 -198q0 -84 27 -143t73.5 -89.5t104.5 -30.5q81 0 157 55l16 -155q-103 -62 -211 -62q-98 0 -180.5 50.5z
M206 1096q75 -41 148 -113q69 70 134 108l69 -97q-54 -17 -95.5 -41.5t-107.5 -73.5q-58 45 -103 71t-102 43z" />
    <glyph glyph-name="ccaron" unicode="&#x10d;" horiz-adv-x="557" 
d="M170.5 21.5q-64.5 37.5 -101 107.5t-36.5 164q0 95 38 163.5t102 104t141 35.5q57 0 115.5 -19.5t113.5 -57.5l-32 -145q-41 33 -85.5 51.5t-84.5 18.5q-57 0 -93.5 -41t-36.5 -118q0 -76 39.5 -118.5t105.5 -42.5q43 0 93 18t102 55v-144q-120 -69 -233 -69
q-83 0 -147.5 37.5zM150 863q75 -41 148 -113q69 70 134 108l69 -97q-54 -17 -95.5 -41.5t-107.5 -73.5q-58 45 -103 71t-102 43z" />
    <glyph glyph-name="Dcaron" unicode="&#x10e;" horiz-adv-x="729" 
d="M38 0q15 26 18.5 49t3.5 62v593q0 39 -3.5 62t-18.5 49h289q365 0 365 -393q0 -205 -90 -313.5t-274 -108.5h-290zM255 107q127 -5 184.5 73.5t57.5 244.5q0 117 -31.5 181t-84.5 86t-126 18v-603zM224 1100q75 -41 148 -113q69 70 134 108l69 -97q-54 -17 -95.5 -41.5
t-107.5 -73.5q-58 45 -103 71t-102 43z" />
    <glyph glyph-name="dcaron" unicode="&#x10f;" horiz-adv-x="946" 
d="M157.5 19.5q-55.5 33.5 -90 101.5t-34.5 165q0 105 34.5 174t88.5 100.5t115 31.5q58 0 106.5 -26t69.5 -69h5v224q0 40 -22 60q67 0 129.5 11t87.5 40v-734q0 -69 35 -98h-107q-62 0 -92.5 33.5t-30.5 75.5h-5q-19 -58 -67 -90.5t-107 -32.5q-60 0 -115.5 33.5z
M410.5 108.5q25.5 14.5 41.5 39.5v264q-17 23 -45.5 37t-58.5 14q-52 0 -86 -43t-34 -130q0 -65 18 -109t47 -65.5t64 -21.5q28 0 53.5 14.5zM741 547q12 72 12 150q0 74 -12 118h168l-92 -268h-76z" />
    <glyph glyph-name="Dcroat" unicode="&#x110;" horiz-adv-x="764" 
d="M363 815q364 0 364 -393q0 -205 -90 -313.5t-273 -108.5h-291q15 26 18.5 49t3.5 62v265h-64v73h64v255q0 39 -3.5 62t-18.5 49h290zM290 107q128 -5 185 73.5t57 244.5q0 117 -31.5 181t-84.5 86t-126 18v-261h108v-73h-108v-269z" />
    <glyph glyph-name="dcroat" unicode="&#x111;" horiz-adv-x="700" 
d="M700 588h-53v-490q0 -69 35 -98h-107q-62 0 -92.5 33.5t-30.5 75.5h-5q-19 -58 -67 -90.5t-107 -32.5q-60 0 -115.5 33.5t-90 101.5t-34.5 165q0 105 34.5 174t88.5 100.5t115 31.5q58 0 106.5 -26t69.5 -69h5v91h-70v73h70v60q0 40 -22 60q67 0 129.5 11t87.5 40v-171
h53v-73zM452 412q-17 23 -45.5 37t-58.5 14q-52 0 -86 -43t-34 -130q0 -65 18 -109t47 -65.5t64 -21.5q28 0 53.5 14.5t41.5 39.5v264z" />
    <glyph glyph-name="Emacron" unicode="&#x112;" horiz-adv-x="588" 
d="M38 0q15 26 18.5 49t3.5 62v593q0 39 -3.5 62t-18.5 49h498l15 -147q-69 18 -139.5 23t-156.5 5v-192h191l7 -73h-198v-311q86 0 156.5 5t139.5 23l-15 -148h-498zM465 922h-344v97h344v-97z" />
    <glyph glyph-name="emacron" unicode="&#x113;" horiz-adv-x="665" 
d="M213 22q-82 36 -131 106.5t-49 168.5q0 93 44 160.5t117 102.5t160 35q76 0 138.5 -24t98.5 -66t36 -95q0 -51 -31.5 -90.5t-90.5 -62t-138 -22.5q-66 0 -122 20q32 3 60 12q78 11 118 45.5t40 77.5q0 40 -29.5 68.5t-77.5 28.5q-32 0 -61.5 -17.5t-48 -54.5t-18.5 -92
q0 -67 26.5 -113.5t70.5 -69t97 -22.5q49 0 100 18t86 45l29 -136q-117 -59 -244 -59q-98 0 -180 36zM506 685h-344v97h344v-97z" />
    <glyph glyph-name="Edotaccent" unicode="&#x116;" horiz-adv-x="588" 
d="M38 0q15 26 18.5 49t3.5 62v593q0 39 -3.5 62t-18.5 49h498l15 -147q-69 18 -139.5 23t-156.5 5v-192h191l7 -73h-198v-311q86 0 156.5 5t139.5 23l-15 -148h-498zM221.5 928q-28.5 29 -28.5 71t28.5 71t71.5 29q42 0 71 -29t29 -71t-29 -71t-71 -29q-43 0 -71.5 29z" />
    <glyph glyph-name="edotaccent" unicode="&#x117;" horiz-adv-x="665" 
d="M213 22q-82 36 -131 106.5t-49 168.5q0 93 44 160.5t117 102.5t160 35q76 0 138.5 -24t98.5 -66t36 -95q0 -51 -31.5 -90.5t-90.5 -62t-138 -22.5q-66 0 -122 20q32 3 60 12q78 11 118 45.5t40 77.5q0 40 -29.5 68.5t-77.5 28.5q-32 0 -61.5 -17.5t-48 -54.5t-18.5 -92
q0 -67 26.5 -113.5t70.5 -69t97 -22.5q49 0 100 18t86 45l29 -136q-117 -59 -244 -59q-98 0 -180 36zM262.5 691q-28.5 29 -28.5 71t28.5 71t71.5 29q42 0 71 -29t29 -71t-29 -71t-71 -29q-43 0 -71.5 29z" />
    <glyph glyph-name="Eogonek" unicode="&#x118;" horiz-adv-x="588" 
d="M536 0q-36 0 -59 -22.5t-23 -51.5t24 -50.5t71 -23.5l-31 -68q-27 -10 -56 -10q-51 0 -85 31t-34 81q0 37 20 66.5t60 47.5h-385q15 26 18.5 49t3.5 62v593q0 39 -3.5 62t-18.5 49h498l15 -147q-69 18 -139.5 23t-156.5 5v-192h191l7 -73h-198v-311q86 0 156.5 5
t139.5 23z" />
    <glyph glyph-name="eogonek" unicode="&#x119;" horiz-adv-x="665" 
d="M443 -117.5q24 -21.5 71 -23.5l-31 -68q-27 -10 -56 -10q-51 0 -85 31t-34 81q0 59 47 94q-90 7 -163 45t-116 105.5t-43 159.5q0 93 44 160.5t117 102.5t160 35q76 0 138.5 -24t98.5 -66t36 -95q0 -51 -31.5 -90.5t-90.5 -62t-138 -22.5q-66 0 -122 20q32 3 60 12
q78 11 118 45.5t40 77.5q0 40 -29.5 68.5t-77.5 28.5q-32 0 -61.5 -17.5t-48 -54.5t-18.5 -92q0 -67 26.5 -113.5t70.5 -69t97 -22.5q49 0 100 18t86 45l29 -136q-92 -47 -190 -56q-13 -10 -20.5 -25t-7.5 -31q0 -29 24 -50.5z" />
    <glyph glyph-name="Ecaron" unicode="&#x11a;" horiz-adv-x="588" 
d="M38 0q15 26 18.5 49t3.5 62v593q0 39 -3.5 62t-18.5 49h498l15 -147q-69 18 -139.5 23t-156.5 5v-192h191l7 -73h-198v-311q86 0 156.5 5t139.5 23l-15 -148h-498zM155 1100q75 -41 148 -113q69 70 134 108l69 -97q-54 -17 -95.5 -41.5t-107.5 -73.5q-58 45 -103 71
t-102 43z" />
    <glyph glyph-name="ecaron" unicode="&#x11b;" horiz-adv-x="665" 
d="M213 22q-82 36 -131 106.5t-49 168.5q0 93 44 160.5t117 102.5t160 35q76 0 138.5 -24t98.5 -66t36 -95q0 -51 -31.5 -90.5t-90.5 -62t-138 -22.5q-66 0 -122 20q32 3 60 12q78 11 118 45.5t40 77.5q0 40 -29.5 68.5t-77.5 28.5q-32 0 -61.5 -17.5t-48 -54.5t-18.5 -92
q0 -67 26.5 -113.5t70.5 -69t97 -22.5q49 0 100 18t86 45l29 -136q-117 -59 -244 -59q-98 0 -180 36zM196 863q75 -41 148 -113q69 70 134 108l69 -97q-54 -17 -95.5 -41.5t-107.5 -73.5q-58 45 -103 71t-102 43z" />
    <glyph glyph-name="Gbreve" unicode="&#x11e;" horiz-adv-x="738" 
d="M432 0q-140 0 -228 54.5t-127 144.5t-39 201q0 134 46.5 230t136 147t214.5 51q118 0 245 -51l-22 -170q-115 69 -212 69q-94 0 -151 -71t-57 -213q0 -120 50.5 -194.5t129.5 -94.5h62v150q0 38 -7 72.5t-27 75.5h254q-15 -31 -20 -63t-5 -81v-155q0 -35 6.5 -61.5
t18.5 -40.5h-268zM334.5 902.5q-43.5 21.5 -71.5 64t-32 102.5h104q7 -39 33 -60.5t59 -21.5t59 21.5t32 60.5h104q-3 -60 -31.5 -102.5t-71.5 -64t-92 -21.5t-92.5 21.5z" />
    <glyph glyph-name="gbreve" unicode="&#x11f;" horiz-adv-x="699" 
d="M169 -217q-72 14 -135 41l10 149q67 -25 137.5 -38t134.5 -13q83 0 133.5 23t50.5 63q0 30 -26 54.5t-71 38t-100 13.5q-95 0 -183 -39v114q21 9 52 16t60 9q-87 18 -144 66t-57 117q0 49 34.5 94t104 73t168.5 28q176 37 307 129l23 -148q-41 -14 -130 -29
q49 -23 74 -61.5t25 -82.5q0 -68 -57.5 -117t-151.5 -66q112 -17 185 -67.5t73 -144.5q0 -72 -49.5 -125.5t-135 -82t-189.5 -28.5q-71 0 -143 14zM425 319.5q34 32.5 34 83.5q0 52 -34 86t-90 34q-57 0 -91.5 -33.5t-34.5 -85.5q0 -51 34.5 -84t91.5 -33q56 0 90 32.5z
M247.5 665.5q-43.5 21.5 -71.5 64t-32 102.5h104q7 -39 33 -60.5t59 -21.5t59 21.5t32 60.5h104q-3 -60 -31.5 -102.5t-71.5 -64t-92 -21.5t-92.5 21.5z" />
    <glyph glyph-name="Gdotaccent" unicode="&#x120;" horiz-adv-x="738" 
d="M432 0q-140 0 -228 54.5t-127 144.5t-39 201q0 134 46.5 230t136 147t214.5 51q118 0 245 -51l-22 -170q-115 69 -212 69q-94 0 -151 -71t-57 -213q0 -120 50.5 -194.5t129.5 -94.5h62v150q0 38 -7 72.5t-27 75.5h254q-15 -31 -20 -63t-5 -81v-155q0 -35 6.5 -61.5
t18.5 -40.5h-268zM354.5 928q-28.5 29 -28.5 71t28.5 71t71.5 29q42 0 71 -29t29 -71t-29 -71t-71 -29q-43 0 -71.5 29z" />
    <glyph glyph-name="gdotaccent" unicode="&#x121;" horiz-adv-x="699" 
d="M169 -217q-72 14 -135 41l10 149q67 -25 137.5 -38t134.5 -13q83 0 133.5 23t50.5 63q0 30 -26 54.5t-71 38t-100 13.5q-95 0 -183 -39v114q21 9 52 16t60 9q-87 18 -144 66t-57 117q0 49 34.5 94t104 73t168.5 28q176 37 307 129l23 -148q-41 -14 -130 -29
q49 -23 74 -61.5t25 -82.5q0 -68 -57.5 -117t-151.5 -66q112 -17 185 -67.5t73 -144.5q0 -72 -49.5 -125.5t-135 -82t-189.5 -28.5q-71 0 -143 14zM425 319.5q34 32.5 34 83.5q0 52 -34 86t-90 34q-57 0 -91.5 -33.5t-34.5 -85.5q0 -51 34.5 -84t91.5 -33q56 0 90 32.5z
M267.5 691q-28.5 29 -28.5 71t28.5 71t71.5 29q42 0 71 -29t29 -71t-29 -71t-71 -29q-43 0 -71.5 29z" />
    <glyph glyph-name="uni0122" unicode="&#x122;" horiz-adv-x="738" 
d="M432 0q-140 0 -228 54.5t-127 144.5t-39 201q0 134 46.5 230t136 147t214.5 51q118 0 245 -51l-22 -170q-115 69 -212 69q-94 0 -151 -71t-57 -213q0 -120 50.5 -194.5t129.5 -94.5h62v150q0 38 -7 72.5t-27 75.5h254q-15 -31 -20 -63t-5 -81v-155q0 -35 6.5 -61.5
t18.5 -40.5h-268zM341 -264h-60l30 227h140z" />
    <glyph glyph-name="uni0123" unicode="&#x123;" horiz-adv-x="699" 
d="M169 -217q-72 14 -135 41l10 149q67 -25 137.5 -38t134.5 -13q83 0 133.5 23t50.5 63q0 30 -26 54.5t-71 38t-100 13.5q-95 0 -183 -39v114q21 9 52 16t60 9q-87 18 -144 66t-57 117q0 49 34.5 94t104 73t168.5 28q176 37 307 129l23 -148q-41 -14 -130 -29
q49 -23 74 -61.5t25 -82.5q0 -68 -57.5 -117t-151.5 -66q112 -17 185 -67.5t73 -144.5q0 -72 -49.5 -125.5t-135 -82t-189.5 -28.5q-71 0 -143 14zM425 319.5q34 32.5 34 83.5q0 52 -34 86t-90 34q-57 0 -91.5 -33.5t-34.5 -85.5q0 -51 34.5 -84t91.5 -33q56 0 90 32.5z
M403 668h-140l121 227h63z" />
    <glyph glyph-name="Hbar" unicode="&#x126;" horiz-adv-x="736" 
d="M677 111q0 -39 3.5 -62t18.5 -49h-239q15 26 18.5 49t3.5 62v306h-227v-306q0 -39 3.5 -62t18.5 -49h-239q15 26 18.5 49t3.5 62v593q0 39 -3.5 62t-18.5 49h239q-15 -26 -18.5 -49t-3.5 -62v-57h227v57q0 39 -3.5 62t-18.5 49h239q-15 -26 -18.5 -49t-3.5 -62v-593z
M255 575v-85h227v85h-227z" />
    <glyph glyph-name="hbar" unicode="&#x127;" horiz-adv-x="736" 
d="M459 0q15 26 18.5 49t3.5 62v256q0 48 -23.5 73t-58.5 25q-41 0 -77.5 -30.5t-49.5 -84.5v-239q0 -39 3.5 -62t18.5 -49h-239q15 26 18.5 49t3.5 62v481h-63v73h63v55q0 40 -22 60q67 0 129.5 11t87.5 40v-166h109v-73h-109v-187h4q20 91 80 140.5t136 49.5q49 0 91 -21
t67.5 -62t25.5 -99v-302q0 -39 3.5 -62t18.5 -49h-239z" />
    <glyph glyph-name="Imacron" unicode="&#x12a;" horiz-adv-x="314" 
d="M38 0q15 26 18.5 49t3.5 62v593q0 39 -3.5 62t-18.5 49h239q-15 -26 -18.5 -49t-3.5 -62v-593q0 -39 3.5 -62t18.5 -49h-239zM328 918h-344v97h344v-97z" />
    <glyph glyph-name="imacron" unicode="&#x12b;" horiz-adv-x="314" 
d="M38 0q15 26 18.5 49t3.5 62v386q0 38 -22 60q66 0 129 11t88 40v-497q0 -39 3.5 -62t18.5 -49h-239zM327 685h-344v97h344v-97z" />
    <glyph glyph-name="Iogonek" unicode="&#x12e;" horiz-adv-x="314" 
d="M263 0q-36 0 -59 -22.5t-23 -51.5t24 -50.5t71 -23.5l-31 -68q-27 -10 -56 -10q-51 0 -85 31t-34 81q0 37 20 66.5t60 47.5h-112q15 26 18.5 49t3.5 62v593q0 39 -3.5 62t-18.5 49h239q-15 -26 -18.5 -49t-3.5 -62v-593q0 -39 3.5 -62t18.5 -49h-14z" />
    <glyph glyph-name="iogonek" unicode="&#x12f;" horiz-adv-x="314" 
d="M85.5 691q-28.5 29 -28.5 71t28.5 71t71.5 29q42 0 71 -29t29 -71t-29 -71t-71 -29q-43 0 -71.5 29zM203 -124.5q24 -21.5 71 -23.5l-31 -68q-27 -10 -56 -10q-51 0 -85 31t-34 81q0 37 20 66.5t60 47.5h-110q15 26 18.5 49t3.5 62v386q0 38 -22 60q66 0 129 11t88 40
v-497q0 -39 3.5 -62t18.5 -49h-16q-36 0 -59 -22.5t-23 -51.5t24 -50.5z" />
    <glyph glyph-name="Idotaccent" unicode="&#x130;" horiz-adv-x="314" 
d="M38 0q15 26 18.5 49t3.5 62v593q0 39 -3.5 62t-18.5 49h239q-15 -26 -18.5 -49t-3.5 -62v-593q0 -39 3.5 -62t18.5 -49h-239zM85.5 928q-28.5 29 -28.5 71t28.5 71t71.5 29q42 0 71 -29t29 -71t-29 -71t-71 -29q-43 0 -71.5 29z" />
    <glyph glyph-name="dotlessi" unicode="&#x131;" horiz-adv-x="314" 
d="M38 0q15 26 18.5 49t3.5 62v386q0 38 -22 60q66 0 129 11t88 40v-497q0 -39 3.5 -62t18.5 -49h-239z" />
    <glyph glyph-name="uni0136" unicode="&#x136;" horiz-adv-x="694" 
d="M38 0q15 26 18.5 49t3.5 62v593q0 39 -3.5 62t-18.5 49h239q-15 -26 -18.5 -49t-3.5 -62v-239q48 17 83 57t66 109q36 88 49 184h192q-57 -166 -120.5 -258t-153.5 -110v-8q89 0 143 -26t70 -92l50 -210q12 -52 41 -111h-251q9 21 9 50q0 19 -2 27l-34 199q-10 58 -47 86
t-95 44v-295q0 -39 3.5 -62t18.5 -49h-239zM309 -264h-60l30 227h140z" />
    <glyph glyph-name="uni0137" unicode="&#x137;" horiz-adv-x="679" 
d="M38 0q15 26 18.5 49t3.5 62v610q0 38 -22 60q66 0 129 11t88 40v-463q43 31 98 93.5t70 115.5h218q-54 -66 -133.5 -134t-137.5 -97v-3q6 1 19 1q49 0 88.5 -34t67.5 -80t64 -119q23 -47 37.5 -73t28.5 -39h-220q-48 141 -86.5 207t-85.5 66q-13 0 -28 -6v-156
q0 -39 3.5 -62t18.5 -49h-239zM255 -264h-60l30 227h140z" />
    <glyph glyph-name="Lacute" unicode="&#x139;" horiz-adv-x="578" 
d="M40 0q10 25 15 46t5 65v593q0 39 -3.5 62t-18.5 49h239q-15 -26 -18.5 -49t-3.5 -62v-584h39q68 0 125 5.5t121 22.5l-20 -148h-480zM34 906.5q-38 21.5 -50 58.5q24 -1 51 5q50 5 95 36.5t69 73.5l105 -98q-30 -46 -80.5 -71.5t-104.5 -25.5q-47 0 -85 21.5z" />
    <glyph glyph-name="lacute" unicode="&#x13a;" horiz-adv-x="314" 
d="M38 0q15 26 18.5 49t3.5 62v607q0 38 -22 60q66 0 129 11t88 40v-718q0 -39 3.5 -62t18.5 -49h-239zM104 872.5q-38 21.5 -50 58.5q24 -1 51 5q50 5 95 36.5t69 73.5l105 -98q-30 -46 -80.5 -71.5t-104.5 -25.5q-47 0 -85 21.5z" />
    <glyph glyph-name="uni013B" unicode="&#x13b;" horiz-adv-x="578" 
d="M40 0q10 25 15 46t5 65v593q0 39 -3.5 62t-18.5 49h239q-15 -26 -18.5 -49t-3.5 -62v-584h39q68 0 125 5.5t121 22.5l-20 -148h-480zM230 -264h-60l30 227h140z" />
    <glyph glyph-name="uni013C" unicode="&#x13c;" horiz-adv-x="318" 
d="M42 0q15 26 18.5 49t3.5 62v607q0 38 -22 60q66 0 129 11t88 40v-718q0 -39 3.5 -62t18.5 -49h-239zM127 -264h-60l30 227h140z" />
    <glyph glyph-name="Lcaron" unicode="&#x13d;" horiz-adv-x="681" 
d="M40 0q10 25 15 46t5 65v593q0 39 -3.5 62t-18.5 49h239q-15 -26 -18.5 -49t-3.5 -62v-584h39q68 0 125 5.5t121 22.5l-20 -148h-480zM502 547q12 72 12 150q0 74 -12 118h168l-92 -268h-76z" />
    <glyph glyph-name="lcaron" unicode="&#x13e;" horiz-adv-x="534" 
d="M38 0q15 26 18.5 49t3.5 62v607q0 38 -22 60q66 0 129 11t88 40v-718q0 -39 3.5 -62t18.5 -49h-239zM375 547q12 72 12 150q0 74 -12 118h168l-92 -268h-76z" />
    <glyph glyph-name="Lslash" unicode="&#x141;" horiz-adv-x="578" 
d="M294 120q68 0 125 5.5t121 22.5l-20 -148h-480q10 25 15 46t5 65v194l-88 -33v89l88 33v310q0 39 -3.5 62t-18.5 49h239q-15 -26 -18.5 -49t-3.5 -62v-238l127 47v-89l-127 -47v-257h39z" />
    <glyph glyph-name="lslash" unicode="&#x142;" horiz-adv-x="314" 
d="M350 563l-95 -40v-412q0 -39 3.5 -62t18.5 -49h-239q15 26 18.5 49t3.5 62v330l-72 -30v89l72 30v188q0 38 -22 60q66 0 129 11t88 40v-217l95 40v-89z" />
    <glyph glyph-name="Nacute" unicode="&#x143;" horiz-adv-x="768" 
d="M38 0q15 26 18.5 49t3.5 62v569q0 95 -20 135h115q50 0 78 -18t49 -64l222 -496v467q0 39 -3.5 62t-18.5 49h239q-15 -26 -18.5 -49t-3.5 -62v-593q0 -39 3.5 -62t18.5 -49h-138q-34 0 -59 10t-47 37.5t-44 80.5l-178 418v-435q0 -39 3.5 -62t18.5 -49h-239zM271 906.5
q-38 21.5 -50 58.5q24 -1 51 5q50 5 95 36.5t69 73.5l105 -98q-30 -46 -80.5 -71.5t-104.5 -25.5q-47 0 -85 21.5z" />
    <glyph glyph-name="nacute" unicode="&#x144;" horiz-adv-x="718" 
d="M38 0q15 26 18.5 49t3.5 62v373q0 38 -22 60q66 0 129 11t88 40v-190h6q8 60 40 103t78 65t96 22q49 0 91 -21t67.5 -62t25.5 -99v-302q0 -39 3.5 -62t18.5 -49h-239q15 26 18.5 49t3.5 62v256q0 48 -24 73t-59 25q-41 0 -77 -30.5t-49 -84.5v-239q0 -39 3.5 -62
t18.5 -49h-239zM221 669.5q-38 21.5 -50 58.5q24 -1 51 5q50 5 95 36.5t69 73.5l105 -98q-30 -46 -80.5 -71.5t-104.5 -25.5q-47 0 -85 21.5z" />
    <glyph glyph-name="uni0145" unicode="&#x145;" horiz-adv-x="768" 
d="M38 0q15 26 18.5 49t3.5 62v569q0 95 -20 135h115q50 0 78 -18t49 -64l222 -496v467q0 39 -3.5 62t-18.5 49h239q-15 -26 -18.5 -49t-3.5 -62v-593q0 -39 3.5 -62t18.5 -49h-138q-34 0 -59 10t-47 37.5t-44 80.5l-178 418v-435q0 -39 3.5 -62t18.5 -49h-239zM346 -264
h-60l30 227h140z" />
    <glyph glyph-name="uni0146" unicode="&#x146;" horiz-adv-x="718" 
d="M38 0q15 26 18.5 49t3.5 62v373q0 38 -22 60q66 0 129 11t88 40v-190h6q8 60 40 103t78 65t96 22q49 0 91 -21t67.5 -62t25.5 -99v-302q0 -39 3.5 -62t18.5 -49h-239q15 26 18.5 49t3.5 62v256q0 48 -24 73t-59 25q-41 0 -77 -30.5t-49 -84.5v-239q0 -39 3.5 -62
t18.5 -49h-239zM296 -264h-60l30 227h140z" />
    <glyph glyph-name="Ncaron" unicode="&#x147;" horiz-adv-x="768" 
d="M38 0q15 26 18.5 49t3.5 62v569q0 95 -20 135h115q50 0 78 -18t49 -64l222 -496v467q0 39 -3.5 62t-18.5 49h239q-15 -26 -18.5 -49t-3.5 -62v-593q0 -39 3.5 -62t18.5 -49h-138q-34 0 -59 10t-47 37.5t-44 80.5l-178 418v-435q0 -39 3.5 -62t18.5 -49h-239zM241 1100
q75 -41 148 -113q69 70 134 108l69 -97q-54 -17 -95.5 -41.5t-107.5 -73.5q-58 45 -103 71t-102 43z" />
    <glyph glyph-name="ncaron" unicode="&#x148;" horiz-adv-x="718" 
d="M38 0q15 26 18.5 49t3.5 62v373q0 38 -22 60q66 0 129 11t88 40v-190h6q8 60 40 103t78 65t96 22q49 0 91 -21t67.5 -62t25.5 -99v-302q0 -39 3.5 -62t18.5 -49h-239q15 26 18.5 49t3.5 62v256q0 48 -24 73t-59 25q-41 0 -77 -30.5t-49 -84.5v-239q0 -39 3.5 -62
t18.5 -49h-239zM191 863q75 -41 148 -113q69 70 134 108l69 -97q-54 -17 -95.5 -41.5t-107.5 -73.5q-58 45 -103 71t-102 43z" />
    <glyph glyph-name="Eng" unicode="&#x14a;" horiz-adv-x="768" 
d="M421 -110q78 15 78 82q0 7 -2 23l-242 537v-421q0 -39 3.5 -62t18.5 -49h-239q15 26 18.5 49t3.5 62v583q0 41 -4.5 69t-17.5 52h117q49 0 77.5 -17.5t49.5 -64.5l222 -483v454q0 39 -3.5 62t-18.5 49h239q-15 -26 -18.5 -49t-3.5 -62v-707q0 -101 -67 -156t-174 -65z
" />
    <glyph glyph-name="eng" unicode="&#x14b;" horiz-adv-x="696" 
d="M371 -63q57 0 75 39.5t18 99.5v35v256q0 48 -24 73t-59 25q-41 0 -77 -30.5t-49 -84.5v-239q0 -39 3.5 -62t18.5 -49h-239q15 26 18.5 49t3.5 62v373q0 38 -22 60q66 0 129 11t88 40v-190h6q8 60 40 103t78 65t96 22q49 0 91 -21t67.5 -62t25.5 -99v-302
q0 -160 -83.5 -221.5t-204.5 -61.5v109z" />
    <glyph glyph-name="Omacron" unicode="&#x14c;" horiz-adv-x="744" 
d="M188 38.5q-75 54.5 -112.5 149.5t-37.5 217q0 208 83.5 317t250.5 109t251 -109t84 -317q0 -122 -37.5 -217t-113 -149.5t-184.5 -54.5t-184 54.5zM428.5 139.5q30.5 24.5 54 89.5t23.5 176q0 295 -134 295q-62 0 -98 -70t-36 -225q0 -112 22 -176.5t52 -89t60 -24.5
q26 0 56.5 24.5zM544 929h-344v97h344v-97z" />
    <glyph glyph-name="omacron" unicode="&#x14d;" horiz-adv-x="710" 
d="M199.5 21.5q-73.5 33.5 -120 102t-46.5 168.5t41.5 168t114.5 101.5t167 33.5q147 0 234 -76.5t87 -226.5q0 -100 -46 -168.5t-119.5 -102t-155.5 -33.5q-83 0 -156.5 33.5zM414 119q29 21 48.5 64.5t19.5 108.5q0 66 -19.5 110t-48.5 65t-58 21q-30 0 -59.5 -20.5
t-49 -65t-19.5 -110.5q0 -65 19.5 -108.5t49 -64.5t59.5 -21q29 0 58 21zM528 685h-344v97h344v-97z" />
    <glyph glyph-name="Ohungarumlaut" unicode="&#x150;" horiz-adv-x="744" 
d="M188 38.5q-75 54.5 -112.5 149.5t-37.5 217q0 208 83.5 317t250.5 109t251 -109t84 -317q0 -122 -37.5 -217t-113 -149.5t-184.5 -54.5t-184 54.5zM428.5 139.5q30.5 24.5 54 89.5t23.5 176q0 295 -134 295q-62 0 -98 -70t-36 -225q0 -112 22 -176.5t52 -89t60 -24.5
q26 0 56.5 24.5zM237.5 984.5q32.5 47.5 32.5 101.5h140q-18 -90 -78.5 -138t-147.5 -48q-12 0 -36 2q57 35 89.5 82.5zM424 979.5q33 50.5 33 106.5h150q0 -52 -33.5 -94.5t-87.5 -67t-113 -24.5q-12 0 -34 2q52 27 85 77.5z" />
    <glyph glyph-name="ohungarumlaut" unicode="&#x151;" horiz-adv-x="710" 
d="M199.5 21.5q-73.5 33.5 -120 102t-46.5 168.5t41.5 168t114.5 101.5t167 33.5q147 0 234 -76.5t87 -226.5q0 -100 -46 -168.5t-119.5 -102t-155.5 -33.5q-83 0 -156.5 33.5zM414 119q29 21 48.5 64.5t19.5 108.5q0 66 -19.5 110t-48.5 65t-58 21q-30 0 -59.5 -20.5
t-49 -65t-19.5 -110.5q0 -65 19.5 -108.5t49 -64.5t59.5 -21q29 0 58 21zM233.5 747.5q32.5 47.5 32.5 101.5h140q-18 -90 -78.5 -138t-147.5 -48q-12 0 -36 2q57 35 89.5 82.5zM420 742.5q33 50.5 33 106.5h150q0 -52 -33.5 -94.5t-87.5 -67t-113 -24.5q-12 0 -34 2
q52 27 85 77.5z" />
    <glyph glyph-name="OE" unicode="&#x152;" horiz-adv-x="1125" 
d="M791 431v-311q86 0 156.5 5t139.5 23l-14 -148h-499q18 33 21 71q-85 -87 -223 -87q-109 0 -184 54.5t-112.5 149.5t-37.5 217q0 208 83.5 317t250.5 109q139 0 222 -77q-3 30 -20 61h499l14 -147q-69 18 -139.5 23t-156.5 5v-192h192l7 -73h-199zM428.5 139.5
q30.5 24.5 54 89.5t23.5 176q0 295 -134 295q-62 0 -98 -70t-36 -225q0 -112 22 -176.5t52 -89t60 -24.5q26 0 56.5 24.5z" />
    <glyph glyph-name="oe" unicode="&#x153;" horiz-adv-x="1136" 
d="M1108 45q-117 -59 -244 -59q-79 0 -149 24t-120 69q-45 -45 -108 -68t-131 -23q-83 0 -156.5 33.5t-120 102t-46.5 168.5t41.5 168t114.5 101.5t167 33.5q154 0 240 -82q44 40 103.5 61t126.5 21q76 0 138.5 -24t98.5 -66t36 -95q0 -51 -32 -90.5t-91 -62t-138 -22.5
q-66 0 -122 20q31 3 60 12q78 11 118 45.5t40 77.5q0 40 -29.5 68.5t-77.5 28.5q-32 0 -61.5 -17.5t-48 -54.5t-18.5 -92q0 -67 26.5 -113.5t70.5 -69t97 -22.5q49 0 100 18t86 45zM414 119q29 21 48.5 64.5t19.5 108.5q0 66 -19.5 110t-48.5 65t-58 21q-30 0 -59.5 -20.5
t-49 -65t-19.5 -110.5q0 -65 19.5 -108.5t49 -64.5t59.5 -21q29 0 58 21z" />
    <glyph glyph-name="Racute" unicode="&#x154;" horiz-adv-x="670" 
d="M38 0q15 26 18.5 49t3.5 62v593q0 36 -4 63t-16 48h338q77 0 129 -28t77.5 -75.5t25.5 -104.5t-26.5 -103t-73.5 -73.5t-106 -28.5v-5q73 -5 114.5 -43t59.5 -90t33 -133q17 -91 36 -131h-227q5 28 5 63q0 44 -5 99q-7 84 -43.5 132t-93.5 65h-28v-248q0 -39 3.5 -62
t18.5 -49h-239zM276 445q77 0 114 43t37 116q0 59 -29.5 98t-83.5 39h-59v-296h21zM214 906.5q-38 21.5 -50 58.5q24 -1 51 5q50 5 95 36.5t69 73.5l105 -98q-30 -46 -80.5 -71.5t-104.5 -25.5q-47 0 -85 21.5z" />
    <glyph glyph-name="racute" unicode="&#x155;" horiz-adv-x="546" 
d="M38 0q15 26 18.5 49t3.5 62v373q0 38 -22 60q66 0 129 11t88 40v-207h8q16 96 66 150t118 54q50 0 101 -29l-31 -155q-45 21 -88 21q-66 0 -110.5 -47.5t-63.5 -118.5v-152q0 -39 3.5 -62t18.5 -49h-239zM178 669.5q-38 21.5 -50 58.5q24 -1 51 5q50 5 95 36.5t69 73.5
l105 -98q-30 -46 -80.5 -71.5t-104.5 -25.5q-47 0 -85 21.5z" />
    <glyph glyph-name="uni0156" unicode="&#x156;" horiz-adv-x="670" 
d="M38 0q15 26 18.5 49t3.5 62v593q0 36 -4 63t-16 48h338q77 0 129 -28t77.5 -75.5t25.5 -104.5t-26.5 -103t-73.5 -73.5t-106 -28.5v-5q73 -5 114.5 -43t59.5 -90t33 -133q17 -91 36 -131h-227q5 28 5 63q0 44 -5 99q-7 84 -43.5 132t-93.5 65h-28v-248q0 -39 3.5 -62
t18.5 -49h-239zM276 445q77 0 114 43t37 116q0 59 -29.5 98t-83.5 39h-59v-296h21zM304 -264h-60l30 227h140z" />
    <glyph glyph-name="uni0157" unicode="&#x157;" horiz-adv-x="546" 
d="M38 0q15 26 18.5 49t3.5 62v373q0 38 -22 60q66 0 129 11t88 40v-207h8q16 96 66 150t118 54q50 0 101 -29l-31 -155q-45 21 -88 21q-66 0 -110.5 -47.5t-63.5 -118.5v-152q0 -39 3.5 -62t18.5 -49h-239zM124 -264h-60l30 227h140z" />
    <glyph glyph-name="Rcaron" unicode="&#x158;" horiz-adv-x="670" 
d="M38 0q15 26 18.5 49t3.5 62v593q0 36 -4 63t-16 48h338q77 0 129 -28t77.5 -75.5t25.5 -104.5t-26.5 -103t-73.5 -73.5t-106 -28.5v-5q73 -5 114.5 -43t59.5 -90t33 -133q17 -91 36 -131h-227q5 28 5 63q0 44 -5 99q-7 84 -43.5 132t-93.5 65h-28v-248q0 -39 3.5 -62
t18.5 -49h-239zM276 445q77 0 114 43t37 116q0 59 -29.5 98t-83.5 39h-59v-296h21zM184 1100q75 -41 148 -113q69 70 134 108l69 -97q-54 -17 -95.5 -41.5t-107.5 -73.5q-58 45 -103 71t-102 43z" />
    <glyph glyph-name="rcaron" unicode="&#x159;" horiz-adv-x="546" 
d="M38 0q15 26 18.5 49t3.5 62v373q0 38 -22 60q66 0 129 11t88 40v-207h8q16 96 66 150t118 54q50 0 101 -29l-31 -155q-45 21 -88 21q-66 0 -110.5 -47.5t-63.5 -118.5v-152q0 -39 3.5 -62t18.5 -49h-239zM148 863q75 -41 148 -113q69 70 134 108l69 -97
q-54 -17 -95.5 -41.5t-107.5 -73.5q-58 45 -103 71t-102 43z" />
    <glyph glyph-name="Sacute" unicode="&#x15a;" horiz-adv-x="642" 
d="M158 10.5q-72 25.5 -129 75.5l26 171q48 -52 122.5 -85.5t134.5 -33.5q51 0 85 26.5t34 71.5q0 32 -22.5 58.5t-55.5 47t-92 51.5q-72 38 -115.5 66t-74 69t-30.5 94q0 103 84.5 156t216.5 53q109 0 219 -35l-13 -168q-42 29 -100.5 46t-108.5 17q-51 0 -84.5 -17.5
t-33.5 -51.5q0 -30 34 -55t108 -63q78 -41 128 -74t86 -81.5t36 -111.5q0 -78 -42.5 -135.5t-113 -87t-153.5 -29.5q-74 0 -146 25.5zM220 906.5q-38 21.5 -50 58.5q24 -1 51 5q50 5 95 36.5t69 73.5l105 -98q-30 -46 -80.5 -71.5t-104.5 -25.5q-47 0 -85 21.5z" />
    <glyph glyph-name="sacute" unicode="&#x15b;" horiz-adv-x="608" 
d="M64 198q61 -28 122 -42t114 -14q63 0 101.5 19.5t37.5 53.5q0 30 -37 41t-114 18q-79 8 -130.5 19t-88 43t-36.5 91q0 82 80 123t199 41q62 0 124 -10.5t113 -30.5l-11 -158q-34 16 -91 26t-112 10q-62 0 -101 -14t-40 -42q0 -31 35 -41.5t111 -17.5q77 -7 126 -18
t83.5 -42.5t32.5 -92.5q-2 -84 -82.5 -129t-199.5 -45q-63 0 -128.5 13.5t-123.5 39.5zM184 669.5q-38 21.5 -50 58.5q24 -1 51 5q50 5 95 36.5t69 73.5l105 -98q-30 -46 -80.5 -71.5t-104.5 -25.5q-47 0 -85 21.5z" />
    <glyph glyph-name="Scedilla" unicode="&#x15e;" horiz-adv-x="642" 
d="M578 112.5q-35 -53.5 -95 -85.5t-133 -40l-9 -15q60 -4 93 -34.5t33 -73.5q0 -35 -22 -66t-66 -50.5t-106 -19.5q-53 0 -110 14v79q38 -9 68 -9q56 0 87.5 24.5t31.5 55.5q0 21 -17 37t-49 20l16 36q-73 1 -144 26.5t-127 74.5l26 171q48 -52 122.5 -85.5t134.5 -33.5
q51 0 85 26.5t34 71.5q0 32 -22.5 58.5t-55.5 47t-92 51.5q-72 38 -115.5 66t-74 69t-30.5 94q0 103 84.5 156t216.5 53q109 0 219 -35l-13 -168q-42 29 -100.5 46t-108.5 17q-51 0 -84.5 -17.5t-33.5 -51.5q0 -30 34 -55t108 -63q78 -41 128 -74t86 -81.5t36 -111.5
q0 -71 -35 -124.5z" />
    <glyph glyph-name="scedilla" unicode="&#x15f;" horiz-adv-x="608" 
d="M229 330.5q35 -10.5 111 -17.5q77 -7 124.5 -17.5t82.5 -40.5t35 -88q0 -85 -75.5 -131.5t-192.5 -49.5l-9 -14q60 -4 93 -34.5t33 -73.5q0 -35 -22 -66t-66 -50.5t-106 -19.5q-53 0 -110 14v79q37 -9 68 -9q56 0 87.5 24.5t31.5 55.5q0 21 -17 37t-49 20l17 38
q-113 6 -217 52l16 159q61 -28 122 -42t114 -14q63 0 101.5 19.5t37.5 53.5q0 30 -37 41t-114 18q-79 8 -130.5 19t-88 43t-36.5 91q0 82 80 123t199 41q62 0 124 -10.5t113 -30.5l-11 -158q-34 16 -91 26t-112 10q-62 0 -101 -14t-40 -42q0 -31 35 -41.5z" />
    <glyph glyph-name="Scaron" unicode="&#x160;" horiz-adv-x="642" 
d="M158 10.5q-72 25.5 -129 75.5l26 171q48 -52 122.5 -85.5t134.5 -33.5q51 0 85 26.5t34 71.5q0 32 -22.5 58.5t-55.5 47t-92 51.5q-72 38 -115.5 66t-74 69t-30.5 94q0 103 84.5 156t216.5 53q109 0 219 -35l-13 -168q-42 29 -100.5 46t-108.5 17q-51 0 -84.5 -17.5
t-33.5 -51.5q0 -30 34 -55t108 -63q78 -41 128 -74t86 -81.5t36 -111.5q0 -78 -42.5 -135.5t-113 -87t-153.5 -29.5q-74 0 -146 25.5zM190 1100q75 -41 148 -113q69 70 134 108l69 -97q-54 -17 -95.5 -41.5t-107.5 -73.5q-58 45 -103 71t-102 43z" />
    <glyph glyph-name="scaron" unicode="&#x161;" horiz-adv-x="608" 
d="M64 198q61 -28 122 -42t114 -14q63 0 101.5 19.5t37.5 53.5q0 30 -37 41t-114 18q-79 8 -130.5 19t-88 43t-36.5 91q0 82 80 123t199 41q62 0 124 -10.5t113 -30.5l-11 -158q-34 16 -91 26t-112 10q-62 0 -101 -14t-40 -42q0 -31 35 -41.5t111 -17.5q77 -7 126 -18
t83.5 -42.5t32.5 -92.5q-2 -84 -82.5 -129t-199.5 -45q-63 0 -128.5 13.5t-123.5 39.5zM155 863q75 -41 148 -113q69 70 134 108l69 -97q-54 -17 -95.5 -41.5t-107.5 -73.5q-58 45 -103 71t-102 43z" />
    <glyph glyph-name="uni0162" unicode="&#x162;" horiz-adv-x="698" 
d="M229 0q15 26 18.5 49t3.5 62v588q-54 -1 -103.5 -6.5t-109.5 -21.5l13 144h596l13 -144q-60 16 -109.5 21.5t-104.5 6.5v-588q0 -39 3.5 -62t18.5 -49h-239zM183 -179q38 -9 68 -9q56 0 87.5 24.5t31.5 55.5q0 21 -17 37t-49 20l23 51h51l-17 -28q60 -4 93 -34.5
t33 -73.5q0 -35 -22 -66t-66 -50.5t-106 -19.5q-53 0 -110 14v79z" />
    <glyph glyph-name="uni0163" unicode="&#x163;" horiz-adv-x="501" 
d="M276 -28q60 -4 93 -34.5t33 -73.5q0 -35 -22 -66t-66 -50.5t-106 -19.5q-53 0 -110 14v79q38 -9 68 -9q56 0 87.5 24.5t31.5 55.5q0 21 -17 37t-49 20l19 43q-75 16 -121.5 73t-46.5 158v266q0 67 -52 89q55 20 103.5 61.5t83.5 89.5t50 86h10l-1 -237h173v-120
q-35 14 -75.5 20t-97.5 6l1 -266q0 -44 22.5 -65.5t59.5 -21.5q54 0 124 39l21 -135q-36 -22 -85.5 -36t-101.5 -14q-14 0 -21 1z" />
    <glyph glyph-name="Tcaron" unicode="&#x164;" horiz-adv-x="698" 
d="M229 0q15 26 18.5 49t3.5 62v588q-54 -1 -103.5 -6.5t-109.5 -21.5l13 144h596l13 -144q-60 16 -109.5 21.5t-104.5 6.5v-588q0 -39 3.5 -62t18.5 -49h-239zM211 1100q75 -41 148 -113q69 70 134 108l69 -97q-54 -17 -95.5 -41.5t-107.5 -73.5q-58 45 -103 71t-102 43z
" />
    <glyph glyph-name="tcaron" unicode="&#x165;" horiz-adv-x="681" 
d="M137.5 42q-67.5 57 -67.5 181v266q0 67 -52 89q55 20 103.5 61.5t83.5 89.5t50 86h10l-1 -237h173v-120q-35 14 -75.5 20t-97.5 6l1 -266q0 -44 22.5 -65.5t59.5 -21.5q54 0 124 39l21 -135q-36 -22 -85.5 -36t-101.5 -14q-100 0 -167.5 57zM495 547q12 72 12 150
q0 74 -12 118h168l-92 -268h-76z" />
    <glyph glyph-name="Tbar" unicode="&#x166;" horiz-adv-x="698" 
d="M446 449h88v-73h-88v-265q0 -39 3.5 -62t18.5 -49h-239q15 26 18.5 49t3.5 62v265h-84v73h84v250q-54 -1 -103.5 -6.5t-109.5 -21.5l13 144h596l13 -144q-60 16 -109.5 21.5t-104.5 6.5v-250z" />
    <glyph glyph-name="tbar" unicode="&#x167;" horiz-adv-x="518" 
d="M495 35q-36 -22 -85.5 -36t-100.5 -14q-101 0 -168.5 57t-67.5 181v74h-53v73h53v119q0 67 -52 89q55 20 104 61.5t84 89t50 86.5h9l-1 -237h174v-120q-35 14 -75.5 20t-98.5 6v-114h120v-73h-119v-79q0 -44 22.5 -65.5t60.5 -21.5q53 0 123 39z" />
    <glyph glyph-name="Umacron" unicode="&#x16a;" horiz-adv-x="718" 
d="M202.5 16.5q-67.5 33.5 -105 96.5t-37.5 149v442q0 39 -3.5 62t-18.5 49h239q-15 -26 -18.5 -49t-3.5 -62v-506q0 -47 31 -73.5t74 -26.5q42 0 73.5 26.5t31.5 73.5l-1 506q0 39 -3.5 62t-18.5 49h239q-15 -26 -18.5 -49t-3.5 -62v-442q0 -85 -38.5 -148t-106.5 -97
t-156 -34t-155.5 33.5zM531 922h-344v97h344v-97z" />
    <glyph glyph-name="umacron" unicode="&#x16b;" horiz-adv-x="726" 
d="M112.5 34q-52.5 51 -52.5 141v309q0 38 -22 60q66 0 129 11t88 40v-374q0 -50 22.5 -74.5t61.5 -24.5q41 0 77.5 33.5t47.5 88.5v240q0 38 -22 60q66 0 129 11t88 40v-508q0 -32 8.5 -51.5t31.5 -35.5h-120q-59 0 -87 34t-28 86v75h-5q-10 -96 -66 -154t-141 -58
q-87 0 -139.5 51zM526 685h-344v97h344v-97z" />
    <glyph glyph-name="Uring" unicode="&#x16e;" horiz-adv-x="718" 
d="M202.5 16.5q-67.5 33.5 -105 96.5t-37.5 149v442q0 39 -3.5 62t-18.5 49h239q-15 -26 -18.5 -49t-3.5 -62v-506q0 -47 31 -73.5t74 -26.5q42 0 73.5 26.5t31.5 73.5l-1 506q0 39 -3.5 62t-18.5 49h239q-15 -26 -18.5 -49t-3.5 -62v-442q0 -85 -38.5 -148t-106.5 -97
t-156 -34t-155.5 33.5zM270.5 897.5q-36.5 36.5 -36.5 89.5t36.5 89.5t88.5 36.5q53 0 89.5 -36.5t36.5 -89.5t-36.5 -89.5t-89.5 -36.5q-52 0 -88.5 36.5zM390.5 940.5q13.5 12.5 13.5 46.5t-13.5 46.5t-31.5 12.5q-17 0 -30.5 -12.5t-13.5 -46.5t13.5 -46.5t30.5 -12.5
q18 0 31.5 12.5z" />
    <glyph glyph-name="uring" unicode="&#x16f;" horiz-adv-x="726" 
d="M112.5 34q-52.5 51 -52.5 141v309q0 38 -22 60q66 0 129 11t88 40v-374q0 -50 22.5 -74.5t61.5 -24.5q41 0 77.5 33.5t47.5 88.5v240q0 38 -22 60q66 0 129 11t88 40v-508q0 -32 8.5 -51.5t31.5 -35.5h-120q-59 0 -87 34t-28 86v75h-5q-10 -96 -66 -154t-141 -58
q-87 0 -139.5 51zM265.5 660.5q-36.5 36.5 -36.5 89.5t36.5 89.5t88.5 36.5q53 0 89.5 -36.5t36.5 -89.5t-36.5 -89.5t-89.5 -36.5q-52 0 -88.5 36.5zM385.5 703.5q13.5 12.5 13.5 46.5t-13.5 46.5t-31.5 12.5q-17 0 -30.5 -12.5t-13.5 -46.5t13.5 -46.5t30.5 -12.5
q18 0 31.5 12.5z" />
    <glyph glyph-name="Uhungarumlaut" unicode="&#x170;" horiz-adv-x="718" 
d="M202.5 16.5q-67.5 33.5 -105 96.5t-37.5 149v442q0 39 -3.5 62t-18.5 49h239q-15 -26 -18.5 -49t-3.5 -62v-506q0 -47 31 -73.5t74 -26.5q42 0 73.5 26.5t31.5 73.5l-1 506q0 39 -3.5 62t-18.5 49h239q-15 -26 -18.5 -49t-3.5 -62v-442q0 -85 -38.5 -148t-106.5 -97
t-156 -34t-155.5 33.5zM237.5 984.5q32.5 47.5 32.5 101.5h140q-18 -90 -78.5 -138t-147.5 -48q-12 0 -36 2q57 35 89.5 82.5zM424 979.5q33 50.5 33 106.5h150q0 -52 -33.5 -94.5t-87.5 -67t-113 -24.5q-12 0 -34 2q52 27 85 77.5z" />
    <glyph glyph-name="uhungarumlaut" unicode="&#x171;" horiz-adv-x="726" 
d="M112.5 34q-52.5 51 -52.5 141v309q0 38 -22 60q66 0 129 11t88 40v-374q0 -50 22.5 -74.5t61.5 -24.5q41 0 77.5 33.5t47.5 88.5v240q0 38 -22 60q66 0 129 11t88 40v-508q0 -32 8.5 -51.5t31.5 -35.5h-120q-59 0 -87 34t-28 86v75h-5q-10 -96 -66 -154t-141 -58
q-87 0 -139.5 51zM232.5 747.5q32.5 47.5 32.5 101.5h140q-18 -90 -78.5 -138t-147.5 -48q-12 0 -36 2q57 35 89.5 82.5zM419 742.5q33 50.5 33 106.5h150q0 -52 -33.5 -94.5t-87.5 -67t-113 -24.5q-12 0 -34 2q52 27 85 77.5z" />
    <glyph glyph-name="Uogonek" unicode="&#x172;" horiz-adv-x="718" 
d="M681 815q-15 -26 -18.5 -49t-3.5 -62v-442q0 -86 -39 -149.5t-109 -97.5v-5q-10 0 -14 -1q-18 -7 -32 -11q-17 -10 -26.5 -27t-9.5 -35q0 -29 24 -50.5t71 -23.5l-31 -68q-27 -10 -56 -10q-51 0 -85 31t-34 81q0 52 38 87q-87 0 -154.5 34t-104.5 97t-37 148v442
q0 39 -3.5 62t-18.5 49h239q-15 -26 -18.5 -49t-3.5 -62v-506q0 -47 31 -73.5t74 -26.5q42 0 73.5 26.5t31.5 73.5l-1 506q0 39 -3.5 62t-18.5 49h239z" />
    <glyph glyph-name="uogonek" unicode="&#x173;" horiz-adv-x="726" 
d="M603 -124.5q24 -21.5 71 -23.5l-31 -68q-27 -10 -56 -10q-51 0 -85 31t-34 81q0 38 21.5 68.5t63.5 47.5q-46 8 -67.5 40.5t-21.5 77.5v75h-5q-10 -96 -66 -154t-141 -58q-87 0 -139.5 51t-52.5 141v309q0 38 -22 60q66 0 129 11t88 40v-374q0 -50 22.5 -74.5t61.5 -24.5
q41 0 77.5 33.5t47.5 88.5v240q0 38 -22 60q66 0 129 11t88 40v-508q0 -32 8.5 -51.5t31.5 -35.5h-38q-36 0 -59 -22.5t-23 -51.5t24 -50.5z" />
    <glyph glyph-name="Wcircumflex" unicode="&#x174;" horiz-adv-x="1120" 
d="M229 0q2 12 2 37q0 38 -7 73.5t-22 93.5l-119 478q-10 40 -23 70.5t-32 62.5h225q-2 -16 0.5 -48t8.5 -55l117 -460l73 370q1 7 5 23q14 66 14 102t-11 68h211q-9 -31 -9 -62q0 -23 4 -47.5t9 -49t7 -34.5l73 -363l107 453q5 23 8 55.5t1 47.5h221q-18 -31 -28.5 -58.5
t-22.5 -74.5l-114 -478l-6 -25q-11 -50 -16 -78.5t-5 -61.5q0 -26 2 -39h-229q1 29 -9.5 91.5t-23.5 112.5l-73 318l-72 -318q-15 -57 -26 -115t-11 -89h-229zM356 985q56 18 102 43.5t103 70.5q66 -49 107.5 -73.5t95.5 -41.5l-70 -97q-65 38 -133 108q-73 -72 -148 -113z
" />
    <glyph glyph-name="wcircumflex" unicode="&#x175;" horiz-adv-x="960" 
d="M176 0q3 13 -3 38t-18 65l-111 387q-16 58 -36 88h201q-2 -43 6 -75l98 -365l73 294q5 35 5 76q0 48 -9 70h200q-10 -28 -10 -75q0 -38 5 -72l73 -286l95 358q8 32 6 75h202q-25 -40 -38 -88l-111 -387q-12 -40 -18 -65t-3 -38h-221q1 2 1 9q0 11 -5 31l-10 40
q-2 5 -7 23l-59 194l-59 -194l-5 -19q-9 -33 -13.5 -53t-1.5 -31h-227zM266 748q56 18 102 43.5t103 70.5q66 -49 107.5 -73.5t95.5 -41.5l-70 -97q-65 38 -133 108q-73 -72 -148 -113z" />
    <glyph glyph-name="Ycircumflex" unicode="&#x176;" horiz-adv-x="760" 
d="M261 0q15 26 18.5 49t3.5 62v216l-197 379q-30 58 -64 109h197q4 -24 15 -48.5t22.5 -46t15.5 -28.5l115 -220l114 222l17 34t21 47.5t10 39.5h190q-19 -27 -34 -53.5t-30 -55.5l-197 -379v-216q0 -39 3.5 -62t18.5 -49h-239zM175 985q56 18 102 43.5t103 70.5
q66 -49 107.5 -73.5t95.5 -41.5l-70 -97q-65 38 -133 108q-73 -72 -148 -113z" />
    <glyph glyph-name="ycircumflex" unicode="&#x177;" horiz-adv-x="644" 
d="M11 -53q76 -22 139 -22q61 0 101 23t54 68l3 14h-127l-131 460q-6 21 -17.5 46.5t-22.5 41.5h206q-1 -8 -1 -26q0 -28 7 -49l109 -358l78 358q8 41 5 75h205q-11 -16 -21 -40.5t-15 -47.5l-124 -490q-28 -111 -108 -164.5t-231 -53.5q-39 0 -99 5zM124 748
q56 18 102 43.5t103 70.5q66 -49 107.5 -73.5t95.5 -41.5l-70 -97q-65 38 -133 108q-73 -72 -148 -113z" />
    <glyph glyph-name="Ydieresis" unicode="&#x178;" horiz-adv-x="760" 
d="M261 0q15 26 18.5 49t3.5 62v216l-197 379q-30 58 -64 109h197q4 -24 15 -48.5t22.5 -46t15.5 -28.5l115 -220l114 222l17 34t21 47.5t10 39.5h190q-19 -27 -34 -53.5t-30 -55.5l-197 -379v-216q0 -39 3.5 -62t18.5 -49h-239zM224 915.5q-24 23.5 -24 57.5q0 35 24 58.5
t59 23.5q34 0 57.5 -23.5t23.5 -58.5q0 -34 -23.5 -57.5t-57.5 -23.5q-35 0 -59 23.5zM420 915.5q-24 23.5 -24 57.5q0 35 24 58.5t59 23.5q34 0 58 -23.5t24 -58.5q0 -34 -24 -57.5t-58 -23.5q-35 0 -59 23.5z" />
    <glyph glyph-name="Zacute" unicode="&#x179;" horiz-adv-x="658" 
d="M23 0l361 706h-110q-149 0 -241 -39l16 148h577l-359 -711h110q153 0 239 51l-17 -155h-576zM221 906.5q-38 21.5 -50 58.5q24 -1 51 5q50 5 95 36.5t69 73.5l105 -98q-30 -46 -80.5 -71.5t-104.5 -25.5q-47 0 -85 21.5z" />
    <glyph glyph-name="zacute" unicode="&#x17a;" horiz-adv-x="613" 
d="M318 471q-205 0 -279 -32l13 139h522l-291 -478q80 -1 165.5 8t127.5 31l-14 -139h-536zM197 669.5q-38 21.5 -50 58.5q24 -1 51 5q50 5 95 36.5t69 73.5l105 -98q-30 -46 -80.5 -71.5t-104.5 -25.5q-47 0 -85 21.5z" />
    <glyph glyph-name="Zdotaccent" unicode="&#x17b;" horiz-adv-x="658" 
d="M23 0l361 706h-110q-149 0 -241 -39l16 148h577l-359 -711h110q153 0 239 51l-17 -155h-576zM258.5 928q-28.5 29 -28.5 71t28.5 71t71.5 29q42 0 71 -29t29 -71t-29 -71t-71 -29q-43 0 -71.5 29z" />
    <glyph glyph-name="zdotaccent" unicode="&#x17c;" horiz-adv-x="613" 
d="M318 471q-205 0 -279 -32l13 139h522l-291 -478q80 -1 165.5 8t127.5 31l-14 -139h-536zM234.5 691q-28.5 29 -28.5 71t28.5 71t71.5 29q42 0 71 -29t29 -71t-29 -71t-71 -29q-43 0 -71.5 29z" />
    <glyph glyph-name="Zcaron" unicode="&#x17d;" horiz-adv-x="658" 
d="M23 0l361 706h-110q-149 0 -241 -39l16 148h577l-359 -711h110q153 0 239 51l-17 -155h-576zM192 1100q75 -41 148 -113q69 70 134 108l69 -97q-54 -17 -95.5 -41.5t-107.5 -73.5q-58 45 -103 71t-102 43z" />
    <glyph glyph-name="zcaron" unicode="&#x17e;" horiz-adv-x="613" 
d="M318 471q-205 0 -279 -32l13 139h522l-291 -478q80 -1 165.5 8t127.5 31l-14 -139h-536zM168 863q75 -41 148 -113q69 70 134 108l69 -97q-54 -17 -95.5 -41.5t-107.5 -73.5q-58 45 -103 71t-102 43z" />
    <glyph glyph-name="uni0218" unicode="&#x218;" horiz-adv-x="642" 
d="M158 10.5q-72 25.5 -129 75.5l26 171q48 -52 122.5 -85.5t134.5 -33.5q51 0 85 26.5t34 71.5q0 32 -22.5 58.5t-55.5 47t-92 51.5q-72 38 -115.5 66t-74 69t-30.5 94q0 103 84.5 156t216.5 53q109 0 219 -35l-13 -168q-42 29 -100.5 46t-108.5 17q-51 0 -84.5 -17.5
t-33.5 -51.5q0 -30 34 -55t108 -63q78 -41 128 -74t86 -81.5t36 -111.5q0 -78 -42.5 -135.5t-113 -87t-153.5 -29.5q-74 0 -146 25.5zM295 -264h-60l30 227h140z" />
    <glyph glyph-name="uni0219" unicode="&#x219;" horiz-adv-x="608" 
d="M64 198q61 -28 122 -42t114 -14q63 0 101.5 19.5t37.5 53.5q0 30 -37 41t-114 18q-79 8 -130.5 19t-88 43t-36.5 91q0 82 80 123t199 41q62 0 124 -10.5t113 -30.5l-11 -158q-34 16 -91 26t-112 10q-62 0 -101 -14t-40 -42q0 -31 35 -41.5t111 -17.5q77 -7 126 -18
t83.5 -42.5t32.5 -92.5q-2 -84 -82.5 -129t-199.5 -45q-63 0 -128.5 13.5t-123.5 39.5zM259 -264h-60l30 227h140z" />
    <glyph glyph-name="uni021A" unicode="&#x21a;" horiz-adv-x="698" 
d="M229 0q15 26 18.5 49t3.5 62v588q-54 -1 -103.5 -6.5t-109.5 -21.5l13 144h596l13 -144q-60 16 -109.5 21.5t-104.5 6.5v-588q0 -39 3.5 -62t18.5 -49h-239zM316 -264h-60l30 227h140z" />
    <glyph glyph-name="uni021B" unicode="&#x21b;" horiz-adv-x="501" 
d="M137.5 42q-67.5 57 -67.5 181v266q0 67 -52 89q55 20 103.5 61.5t83.5 89.5t50 86h10l-1 -237h173v-120q-35 14 -75.5 20t-97.5 6l1 -266q0 -44 22.5 -65.5t59.5 -21.5q54 0 124 39l21 -135q-36 -22 -85.5 -36t-101.5 -14q-100 0 -167.5 57zM230 -264h-60l30 227h140z
" />
    <glyph glyph-name="gravecomb" unicode="&#x300;" 
d="M-248 673.5q-51 25.5 -80 70.5l105 99q23 -41 68 -73t96 -38q30 -5 51 -4q-12 -38 -49.5 -59t-85.5 -21q-54 0 -105 25.5z" />
    <glyph glyph-name="acutecomb" unicode="&#x301;" 
d="M-326 669.5q-38 21.5 -50 58.5q24 -1 51 5q50 5 95 36.5t69 73.5l105 -98q-30 -46 -80.5 -71.5t-104.5 -25.5q-47 0 -85 21.5z" />
    <glyph glyph-name="uni0302" unicode="&#x302;" 
d="M-419 748q56 18 102 43.5t103 70.5q66 -49 107.5 -73.5t95.5 -41.5l-70 -97q-65 38 -133 108q-73 -72 -148 -113z" />
    <glyph glyph-name="tildecomb" unicode="&#x303;" 
d="M-214.5 652.5q-20.5 12.5 -47.5 38.5q-21 22 -38 33t-41 11q-43 0 -56.5 -26.5t-13.5 -56.5h-95q-6 27 -6 52q0 58 30 92.5t85 34.5q32 0 53 -14t46 -42q23 -25 40 -37t42 -12t39.5 18t14.5 48q0 15 -2 23h108q8 -32 8 -54q0 -39 -17 -66.5t-43.5 -41t-54.5 -13.5
q-31 0 -51.5 12.5z" />
    <glyph glyph-name="uni0304" unicode="&#x304;" 
d="M-38 685h-344v97h344v-97z" />
    <glyph glyph-name="uni0306" unicode="&#x306;" 
d="M-325.5 665.5q-43.5 21.5 -71.5 64t-32 102.5h104q7 -39 33 -60.5t59 -21.5t59 21.5t32 60.5h104q-3 -60 -31.5 -102.5t-71.5 -64t-92 -21.5t-92.5 21.5z" />
    <glyph glyph-name="uni0307" unicode="&#x307;" 
d="M-172.5 691q-28.5 29 -28.5 71t28.5 71t71.5 29q42 0 71 -29t29 -71t-29 -71t-71 -29q-43 0 -71.5 29z" />
    <glyph glyph-name="uni0308" unicode="&#x308;" 
d="M-375 678.5q-24 23.5 -24 57.5q0 35 24 58.5t59 23.5q34 0 57.5 -23.5t23.5 -58.5q0 -34 -23.5 -57.5t-57.5 -23.5q-35 0 -59 23.5zM-179 678.5q-24 23.5 -24 57.5q0 35 24 58.5t59 23.5q34 0 58 -23.5t24 -58.5q0 -34 -24 -57.5t-58 -23.5q-35 0 -59 23.5z" />
    <glyph glyph-name="hookabovecomb" unicode="&#x309;" 
d="M-256 754q6 -1 16 -1q26 0 40.5 14.5t14.5 33.5q0 18 -12.5 30t-34.5 12q-13 0 -29 -3l10 51q43 25 94 25q53 0 86.5 -25t33.5 -64q0 -42 -32.5 -70.5t-79.5 -28.5q-15 0 -31 3v-28h-76v51z" />
    <glyph glyph-name="uni030A" unicode="&#x30a;" 
d="M-252.5 660.5q-36.5 36.5 -36.5 89.5t36.5 89.5t88.5 36.5q53 0 89.5 -36.5t36.5 -89.5t-36.5 -89.5t-89.5 -36.5q-52 0 -88.5 36.5zM-132.5 703.5q13.5 12.5 13.5 46.5t-13.5 46.5t-31.5 12.5q-17 0 -30.5 -12.5t-13.5 -46.5t13.5 -46.5t30.5 -12.5q18 0 31.5 12.5z" />
    <glyph glyph-name="uni030B" unicode="&#x30b;" 
d="M-403.5 747.5q32.5 47.5 32.5 101.5h140q-18 -90 -78.5 -138t-147.5 -48q-12 0 -36 2q57 35 89.5 82.5zM-217 742.5q33 50.5 33 106.5h150q0 -52 -33.5 -94.5t-87.5 -67t-113 -24.5q-12 0 -34 2q52 27 85 77.5z" />
    <glyph glyph-name="uni030C" unicode="&#x30c;" 
d="M-356 869q75 -41 148 -113q69 70 134 108l69 -97q-54 -17 -95.5 -41.5t-107.5 -73.5q-58 45 -103 71t-102 43z" />
    <glyph glyph-name="uni0312" unicode="&#x312;" 
d="M-44 668h-140l121 227h63z" />
    <glyph glyph-name="uni031B" unicode="&#x31b;" 
d="M-281 692q77 8 114.5 67.5t37.5 170.5h176q0 -56 -29 -115.5t-94.5 -101.5t-167.5 -42q-24 0 -37 1v20z" />
    <glyph glyph-name="dotbelowcomb" unicode="&#x323;" 
d="M-164.5 -150.5q-21.5 21.5 -21.5 53.5t21.5 53.5t52.5 21.5t53 -22t22 -53q0 -32 -22 -53.5t-53 -21.5t-52.5 21.5z" />
    <glyph glyph-name="uni0326" unicode="&#x326;" 
d="M-194 -264h-60l30 227h140z" />
    <glyph glyph-name="uni0327" unicode="&#x327;" 
d="M-342 -179q38 -9 68 -9q56 0 87.5 24.5t31.5 55.5q0 21 -17 37t-49 20l23 51h51l-17 -28q60 -4 93 -34.5t33 -73.5q0 -35 -22 -66t-66 -50.5t-106 -19.5q-53 0 -110 14v79z" />
    <glyph glyph-name="uni0328" unicode="&#x328;" 
d="M-41 -216q-27 -10 -56 -10q-51 0 -85 31t-34 81q0 59 50 97t143 36v-19q-36 0 -59 -22.5t-23 -51.5t24 -50.5t71 -23.5z" />
    <glyph glyph-name="uni0335" unicode="&#x335;" 
d="M-67 301h-367v73h367v-73z" />
    <glyph glyph-name="uni0336" unicode="&#x336;" 
d="M-37 293h-422v72h422v-72z" />
    <glyph glyph-name="uni0337" unicode="&#x337;" 
d="M-37 385l-410 -152v89l410 152v-89z" />
    <glyph glyph-name="uni0338" unicode="&#x338;" 
d="M-282 -141h-72l259 910h72z" />
    <glyph glyph-name="Wgrave" unicode="&#x1e80;" horiz-adv-x="1120" 
d="M229 0q2 12 2 37q0 38 -7 73.5t-22 93.5l-119 478q-10 40 -23 70.5t-32 62.5h225q-2 -16 0.5 -48t8.5 -55l117 -460l73 370q1 7 5 23q14 66 14 102t-11 68h211q-9 -31 -9 -62q0 -23 4 -47.5t9 -49t7 -34.5l73 -363l107 453q5 23 8 55.5t1 47.5h221q-18 -31 -28.5 -58.5
t-22.5 -74.5l-114 -478l-6 -25q-11 -50 -16 -78.5t-5 -61.5q0 -26 2 -39h-229q1 29 -9.5 91.5t-23.5 112.5l-73 318l-72 -318q-15 -57 -26 -115t-11 -89h-229zM508 910.5q-51 25.5 -80 70.5l105 99q23 -41 68 -73t96 -38q30 -5 51 -4q-12 -38 -49.5 -59t-85.5 -21
q-54 0 -105 25.5z" />
    <glyph glyph-name="wgrave" unicode="&#x1e81;" horiz-adv-x="960" 
d="M176 0q3 13 -3 38t-18 65l-111 387q-16 58 -36 88h201q-2 -43 6 -75l98 -365l73 294q5 35 5 76q0 48 -9 70h200q-10 -28 -10 -75q0 -38 5 -72l73 -286l95 358q8 32 6 75h202q-25 -40 -38 -88l-111 -387q-12 -40 -18 -65t-3 -38h-221q1 2 1 9q0 11 -5 31l-10 40
q-2 5 -7 23l-59 194l-59 -194l-5 -19q-9 -33 -13.5 -53t-1.5 -31h-227zM418 673.5q-51 25.5 -80 70.5l105 99q23 -41 68 -73t96 -38q30 -5 51 -4q-12 -38 -49.5 -59t-85.5 -21q-54 0 -105 25.5z" />
    <glyph glyph-name="Wacute" unicode="&#x1e82;" horiz-adv-x="1120" 
d="M229 0q2 12 2 37q0 38 -7 73.5t-22 93.5l-119 478q-10 40 -23 70.5t-32 62.5h225q-2 -16 0.5 -48t8.5 -55l117 -460l73 370q1 7 5 23q14 66 14 102t-11 68h211q-9 -31 -9 -62q0 -23 4 -47.5t9 -49t7 -34.5l73 -363l107 453q5 23 8 55.5t1 47.5h221q-18 -31 -28.5 -58.5
t-22.5 -74.5l-114 -478l-6 -25q-11 -50 -16 -78.5t-5 -61.5q0 -26 2 -39h-229q1 29 -9.5 91.5t-23.5 112.5l-73 318l-72 -318q-15 -57 -26 -115t-11 -89h-229zM454 906.5q-38 21.5 -50 58.5q24 -1 51 5q50 5 95 36.5t69 73.5l105 -98q-30 -46 -80.5 -71.5t-104.5 -25.5
q-47 0 -85 21.5z" />
    <glyph glyph-name="wacute" unicode="&#x1e83;" horiz-adv-x="960" 
d="M176 0q3 13 -3 38t-18 65l-111 387q-16 58 -36 88h201q-2 -43 6 -75l98 -365l73 294q5 35 5 76q0 48 -9 70h200q-10 -28 -10 -75q0 -38 5 -72l73 -286l95 358q8 32 6 75h202q-25 -40 -38 -88l-111 -387q-12 -40 -18 -65t-3 -38h-221q1 2 1 9q0 11 -5 31l-10 40
q-2 5 -7 23l-59 194l-59 -194l-5 -19q-9 -33 -13.5 -53t-1.5 -31h-227zM363 669.5q-38 21.5 -50 58.5q24 -1 51 5q50 5 95 36.5t69 73.5l105 -98q-30 -46 -80.5 -71.5t-104.5 -25.5q-47 0 -85 21.5z" />
    <glyph glyph-name="Wdieresis" unicode="&#x1e84;" horiz-adv-x="1120" 
d="M229 0q2 12 2 37q0 38 -7 73.5t-22 93.5l-119 478q-10 40 -23 70.5t-32 62.5h225q-2 -16 0.5 -48t8.5 -55l117 -460l73 370q1 7 5 23q14 66 14 102t-11 68h211q-9 -31 -9 -62q0 -23 4 -47.5t9 -49t7 -34.5l73 -363l107 453q5 23 8 55.5t1 47.5h221q-18 -31 -28.5 -58.5
t-22.5 -74.5l-114 -478l-6 -25q-11 -50 -16 -78.5t-5 -61.5q0 -26 2 -39h-229q1 29 -9.5 91.5t-23.5 112.5l-73 318l-72 -318q-15 -57 -26 -115t-11 -89h-229zM406 915.5q-24 23.5 -24 57.5q0 35 24 58.5t59 23.5q34 0 57.5 -23.5t23.5 -58.5q0 -34 -23.5 -57.5t-57.5 -23.5
q-35 0 -59 23.5zM602 915.5q-24 23.5 -24 57.5q0 35 24 58.5t59 23.5q34 0 58 -23.5t24 -58.5q0 -34 -24 -57.5t-58 -23.5q-35 0 -59 23.5z" />
    <glyph glyph-name="wdieresis" unicode="&#x1e85;" horiz-adv-x="960" 
d="M176 0q3 13 -3 38t-18 65l-111 387q-16 58 -36 88h201q-2 -43 6 -75l98 -365l73 294q5 35 5 76q0 48 -9 70h200q-10 -28 -10 -75q0 -38 5 -72l73 -286l95 358q8 32 6 75h202q-25 -40 -38 -88l-111 -387q-12 -40 -18 -65t-3 -38h-221q1 2 1 9q0 11 -5 31l-10 40
q-2 5 -7 23l-59 194l-59 -194l-5 -19q-9 -33 -13.5 -53t-1.5 -31h-227zM315 678.5q-24 23.5 -24 57.5q0 35 24 58.5t59 23.5q34 0 57.5 -23.5t23.5 -58.5q0 -34 -23.5 -57.5t-57.5 -23.5q-35 0 -59 23.5zM511 678.5q-24 23.5 -24 57.5q0 35 24 58.5t59 23.5q34 0 58 -23.5
t24 -58.5q0 -34 -24 -57.5t-58 -23.5q-35 0 -59 23.5z" />
    <glyph glyph-name="uni1E9E" unicode="&#x1e9e;" horiz-adv-x="758" 
d="M379 32.5q-54 49.5 -54 139.5h10q15 -41 44.5 -62t63.5 -21q29 0 54.5 16t41.5 45.5t16 68.5q0 71 -51 127t-157 79v53q61 31 84 86.5t23 126.5q0 24 -1 35q-80 0 -140 -38.5t-60 -144.5v-437q0 -54 -26.5 -81t-93.5 -27h-105q18 25 24 45.5t6 52.5v398
q0 200 147.5 268.5t370.5 68.5q7 -55 7 -107q0 -93 -26 -150t-81 -92v-4q67 -1 125.5 -32t94 -87t35.5 -128q0 -78 -32 -134t-81.5 -85t-100.5 -29q-84 0 -138 49.5z" />
    <glyph glyph-name="Ygrave" unicode="&#x1ef2;" horiz-adv-x="760" 
d="M261 0q15 26 18.5 49t3.5 62v216l-197 379q-30 58 -64 109h197q4 -24 15 -48.5t22.5 -46t15.5 -28.5l115 -220l114 222l17 34t21 47.5t10 39.5h190q-19 -27 -34 -53.5t-30 -55.5l-197 -379v-216q0 -39 3.5 -62t18.5 -49h-239zM326 910.5q-51 25.5 -80 70.5l105 99
q23 -41 68 -73t96 -38q30 -5 51 -4q-12 -38 -49.5 -59t-85.5 -21q-54 0 -105 25.5z" />
    <glyph glyph-name="ygrave" unicode="&#x1ef3;" horiz-adv-x="644" 
d="M11 -53q76 -22 139 -22q61 0 101 23t54 68l3 14h-127l-131 460q-6 21 -17.5 46.5t-22.5 41.5h206q-1 -8 -1 -26q0 -28 7 -49l109 -358l78 358q8 41 5 75h205q-11 -16 -21 -40.5t-15 -47.5l-124 -490q-28 -111 -108 -164.5t-231 -53.5q-39 0 -99 5zM276 673.5
q-51 25.5 -80 70.5l105 99q23 -41 68 -73t96 -38q30 -5 51 -4q-12 -38 -49.5 -59t-85.5 -21q-54 0 -105 25.5z" />
    <glyph glyph-name="endash" unicode="&#x2013;" horiz-adv-x="455" 
d="M418 276h-380v74h380v-74z" />
    <glyph glyph-name="emdash" unicode="&#x2014;" horiz-adv-x="529" 
d="M492 276h-454v74h454v-74z" />
    <glyph glyph-name="quoteleft" unicode="&#x2018;" horiz-adv-x="240" 
d="M131 933h72v-268h-165z" />
    <glyph glyph-name="quoteright" unicode="&#x2019;" horiz-adv-x="237" 
d="M113 670h-75v268h161z" />
    <glyph glyph-name="quotesinglbase" unicode="&#x201a;" horiz-adv-x="240" 
d="M109 -186h-71v268h165z" />
    <glyph glyph-name="quotedblleft" unicode="&#x201c;" horiz-adv-x="440" 
d="M131 934h72v-268h-165zM331 934h72v-268h-165z" />
    <glyph glyph-name="quotedblright" unicode="&#x201d;" horiz-adv-x="440" 
d="M131 934h72v-268h-165zM331 934h72v-268h-165z" />
    <glyph glyph-name="quotedblbase" unicode="&#x201e;" horiz-adv-x="442" 
d="M109 -186h-71v268h165zM311 -186h-71v268h165z" />
    <glyph glyph-name="dagger" unicode="&#x2020;" horiz-adv-x="477" 
d="M228 67q0 83 -10 165.5t-30 208.5q37 79 35 124q-17 -1 -30 -7t-32 -19t-33 -19.5t-33 -6.5q-27 0 -42 19t-15 46q0 26 15 45.5t42 19.5q18 0 32.5 -8.5t32.5 -24.5q21 -17 33.5 -24t29.5 -8q-1 35 -8.5 57.5t-22.5 48.5q-12 19 -18 35t-6 38q0 33 20.5 50.5t49.5 17.5
t49.5 -17.5t20.5 -50.5q0 -22 -6 -38t-18 -35q-15 -26 -22.5 -48.5t-8.5 -57.5q19 0 32.5 8t32.5 25q19 16 33 24t32 8q27 0 42 -19.5t15 -45.5q0 -27 -15 -46t-42 -19q-18 0 -32 6.5t-33 19.5q-20 13 -33 19.5t-32 6.5q-2 -45 35 -124q-20 -126 -30 -208.5t-10 -165.5h-20z
" />
    <glyph glyph-name="daggerdbl" unicode="&#x2021;" horiz-adv-x="477" 
d="M228 67q0 52 -15.5 106.5t-43.5 98.5l11 28q12 29 16.5 47.5t4.5 49.5q-13 -4 -37 -16q-20 -11 -35 -16.5t-34 -5.5q-27 0 -42 19t-15 46q0 26 15 45.5t42 19.5q19 0 33.5 -7.5t35.5 -21.5q22 -16 34 -21q25 47 25 126q-17 -1 -30 -7t-32 -19t-33 -19.5t-33 -6.5
q-27 0 -42 19t-15 46q0 26 15 45.5t42 19.5q18 0 32.5 -8.5t32.5 -24.5q21 -17 33.5 -24t29.5 -8q-1 35 -8.5 57.5t-22.5 48.5q-12 19 -18 35t-6 38q0 33 20.5 51.5t49.5 18.5t49.5 -18.5t20.5 -51.5q0 -22 -6 -38t-18 -35q-15 -26 -22.5 -48.5t-8.5 -57.5q19 0 32.5 8
t32.5 25q19 16 33 24t32 8q27 0 42 -19.5t15 -45.5q0 -27 -15 -46t-42 -19q-18 0 -32 6.5t-33 19.5q-20 13 -33 19.5t-32 6.5q0 -78 25 -127q16 6 37 22q20 14 34.5 21.5t33.5 7.5q27 0 42 -19.5t15 -45.5q0 -27 -15 -46t-42 -19q-19 0 -33.5 5.5t-34.5 16.5q-23 14 -40 18
q0 -36 6.5 -59.5t26.5 -67.5q-60 -79 -60 -205h-20z" />
    <glyph glyph-name="bullet" unicode="&#x2022;" horiz-adv-x="365" 
d="M109.5 162.5q-33.5 19.5 -52.5 53t-19 73.5t19 73t52.5 52.5t73.5 19.5q39 0 72.5 -19.5t53 -53t19.5 -72.5q0 -40 -19.5 -73.5t-53 -53t-72.5 -19.5q-40 0 -73.5 19.5z" />
    <glyph glyph-name="ellipsis" unicode="&#x2026;" horiz-adv-x="828" 
d="M347.5 17q-28.5 29 -28.5 70t28.5 70t69.5 29t70 -29t29 -70t-29 -70t-70 -29t-69.5 29zM66.5 17q-28.5 29 -28.5 70t28.5 70t69.5 29t70 -29t29 -70t-29 -70t-70 -29t-69.5 29zM622.5 17q-28.5 29 -28.5 70t28.5 70t69.5 29t70 -29t29 -70t-29 -70t-70 -29t-69.5 29z
" />
    <glyph glyph-name="perthousand" unicode="&#x2030;" horiz-adv-x="1310" 
d="M568 745q-32 -3 -64 -3q-46 0 -109 7q30 -52 30 -131q0 -94 -50 -152.5t-144 -58.5t-143.5 58.5t-49.5 152.5q0 213 202 213q37 0 122 -13q68 -9 107.5 -13.5t83.5 -4.5q72 0 132 15l-413 -822h-83zM263 520.5q18 9.5 31.5 33.5t13.5 63q0 53 -20 77t-57 26
q-37 0 -57 -25.5t-20 -77.5q0 -59 22 -82.5t54 -23.5q15 0 33 9.5zM524.5 41.5q-49.5 58.5 -49.5 152.5q0 104 48.5 158.5t144.5 54.5q97 0 145.5 -54.5t48.5 -158.5q0 -94 -50 -152.5t-144 -58.5t-143.5 58.5zM935.5 41.5q-49.5 58.5 -49.5 152.5q0 104 48.5 158.5
t144.5 54.5q97 0 145.5 -54.5t48.5 -158.5q0 -94 -50 -152.5t-144 -58.5t-143.5 58.5zM720.5 112.5q25.5 24.5 25.5 80.5t-22.5 80t-56.5 24q-32 0 -54 -24t-22 -80q0 -58 22 -81.5t54 -23.5q28 0 53.5 24.5zM1131 112.5q25 24.5 25 80.5t-22.5 80t-55.5 24q-32 0 -54 -24
t-22 -80q0 -58 22 -81.5t54 -23.5q28 0 53 24.5z" />
    <glyph glyph-name="guilsinglleft" unicode="&#x2039;" horiz-adv-x="405" 
d="M368 239v-119l-330 200v4l330 196v-118l-137 -80v-1z" />
    <glyph glyph-name="guilsinglright" unicode="&#x203a;" horiz-adv-x="405" 
d="M368 320l-330 -200v119l136 82v1l-136 80v118l330 -196v-4z" />
    <glyph glyph-name="fraction" unicode="&#x2044;" horiz-adv-x="639" 
d="M120 0h-69l481 815h69z" />
    <glyph glyph-name="Euro" unicode="&#x20ac;" horiz-adv-x="704" 
d="M291.5 25.5q-76.5 41.5 -127.5 121t-65 188.5h-61v51h56v23v26h-56v51h60q12 110 59 187.5t121 117.5t168 40q54 0 113.5 -16.5t107.5 -45.5l-15 -149q-94 55 -173 55q-71 0 -119.5 -48t-63.5 -141h165v-51h-172v-49h172v-51h-162q18 -91 70 -140t125 -49q81 0 157 55
l16 -155q-103 -62 -211 -62q-88 0 -164.5 41.5z" />
    <glyph glyph-name="trademark" unicode="&#x2122;" horiz-adv-x="548" 
d="M503 568q0 -14 1.5 -21.5t6.5 -17.5h-84q5 10 6.5 17.5t1.5 21.5v169l-58 -127h-7l-57 127v-169q0 -14 1 -21.5t6 -17.5h-83q5 10 6 17.5t1 21.5l1 199q-36 7 -64 7v-206q0 -14 1.5 -21.5t6.5 -17.5h-84q5 10 6.5 17.5t1.5 21.5v206q-38 0 -75 -10l4 51h253q10 0 13.5 -3
t7.5 -13l57 -115l60 114q8 17 23 17h55q-5 -9 -6.5 -17.5t-1.5 -21.5v-208z" />
    <glyph glyph-name="minus" unicode="&#x2212;" horiz-adv-x="442" 
d="M405 273h-367v74h367v-74z" />
    <glyph glyph-name="approxequal" unicode="&#x2248;" horiz-adv-x="593" 
d="M362.5 292.5q-33.5 18.5 -82.5 55.5q-37 28 -60 42t-43 14q-29 0 -43.5 -19.5t-14.5 -71.5l-81 9q0 86 29.5 134t107.5 48q35 0 68.5 -20t83.5 -59q35 -28 56.5 -42t39.5 -14q21 0 34.5 28t9.5 75l89 -8q0 -78 -29 -134t-96 -56q-35 0 -68.5 18.5zM362.5 87.5
q-33.5 18.5 -82.5 55.5q-37 28 -60 42t-43 14q-29 0 -43.5 -19.5t-14.5 -71.5l-81 9q0 86 29.5 134t107.5 48q35 0 68.5 -20t83.5 -59q35 -28 56.5 -42t39.5 -14q21 0 34.5 28t9.5 75l89 -8q0 -78 -29 -134t-96 -56q-35 0 -68.5 18.5z" />
    <glyph glyph-name="notequal" unicode="&#x2260;" horiz-adv-x="442" 
d="M150 146h-74l35 55h-73v74h121l42 67h-163v74h211l53 84h74l-54 -84h83v-74h-130l-43 -67h173v-74h-220z" />
    <glyph glyph-name="lessequal" unicode="&#x2264;" horiz-adv-x="406" 
d="M369 239v-119l-330 200v4l330 196v-118l-137 -80v-1zM369 28h-331v74h331v-74z" />
    <glyph glyph-name="greaterequal" unicode="&#x2265;" horiz-adv-x="406" 
d="M368 320l-330 -200v119l136 82v1l-136 80v118l330 -196v-4zM369 28h-331v74h331v-74z" />
    <glyph glyph-name="lozenge" unicode="&#x25ca;" horiz-adv-x="581" 
d="M297 0h-10l-249 352l249 350h10l247 -350zM123 352l168 -236l167 236l-166 236z" />
    <glyph glyph-name="A.ss01" unicode="&#xe000;" horiz-adv-x="1014" 
d="M226 0q19 30 27.5 50.5t20.5 60.5l172 534q9 29 9 53q0 53 -34.5 83t-80.5 30q-40 0 -67.5 -23.5t-27.5 -68.5q0 -31 20 -50t48 -19q19 0 35 11t23 33q9 -33 9 -64q0 -74 -49.5 -120.5t-129.5 -46.5q-49 0 -88.5 24t-62 66t-22.5 93q0 52 27 98t82.5 74.5t136.5 28.5
q45 0 83.5 -6.5t93.5 -19.5t91.5 -19.5t79.5 -6.5q65 0 118 20q-5 -22 -5 -40q0 -27 9 -54l203 -610q2 -7 9 -28.5t16.5 -41.5t22.5 -41h-240q11 28 11 56q0 23 -8 55l-39 130h-218l-38 -130q-8 -32 -8 -55q0 -28 11 -56h-240zM610 651l-84 -298h169z" />
    <glyph glyph-name="B.ss01" unicode="&#xe001;" horiz-adv-x="1083" 
d="M438 0q15 26 18.5 49t3.5 62v605q0 44 -32.5 70t-76.5 26q-43 0 -71.5 -26.5t-28.5 -69.5q0 -28 16 -48t44 -20q15 0 27.5 8t18.5 23q29 -31 29 -77q0 -72 -45 -116t-119 -44q-53 0 -95 26t-65.5 71.5t-23.5 101.5q0 59 28.5 107.5t81 76.5t121.5 28q57 0 94.5 -7
t85.5 -21q36 -11 63.5 -16.5t62.5 -5.5q36 0 98 10t96 10q78 0 127.5 -27t71.5 -69t22 -88q0 -76 -45 -129.5t-127 -61.5v-5q72 0 123.5 -27t77.5 -72.5t26 -100.5q0 -62 -31 -117.5t-93 -90.5t-151 -35h-332zM655 461q83 -4 126.5 35.5t43.5 112.5q0 67 -31 105.5t-85 38.5
q-27 0 -54 -6v-286zM655 96q9 -1 27 -1q76 0 122 39t46 128q0 90 -55.5 124.5t-139.5 39.5v-330z" />
    <glyph glyph-name="C.ss01" unicode="&#xe002;" horiz-adv-x="651" 
d="M744 -299q-164 1 -327.5 79t-271 232.5t-107.5 370.5q0 142 51 243.5t138 154t192 52.5q100 0 200 -48l-23 -160q-70 39 -141 39q-61 0 -111.5 -30t-80.5 -93.5t-30 -157.5q0 -175 95 -291t222 -170t223 -56z" />
    <glyph glyph-name="D.ss01" unicode="&#xe003;" horiz-adv-x="1129" 
d="M438 0q15 26 18.5 49t3.5 62v578q0 40 -19.5 70t-50 45.5t-62.5 15.5q-40 0 -65.5 -25t-25.5 -66q0 -29 17 -51.5t46 -22.5q16 0 30.5 8t23.5 23q26 -24 26 -63q0 -55 -22.5 -93.5t-59 -57.5t-78.5 -19q-46 0 -88 22.5t-68 66.5t-26 106q0 59 27 107t79 76t124 28
q40 0 76.5 -6.5t84.5 -18.5q50 -12 84.5 -18t73.5 -6q37 0 93 10q47 9 81 9q171 0 251 -103t80 -285q0 -441 -363 -441h-291zM655 107q87 -3 140 32.5t77.5 112.5t24.5 202q0 132 -41.5 208t-120.5 76q-36 0 -80 -16v-615z" />
    <glyph glyph-name="E.ss01" unicode="&#xe004;" horiz-adv-x="989" 
d="M438 0q15 26 18.5 49t3.5 62v606q0 49 -33 76t-77 27q-43 0 -71 -25.5t-28 -66.5q0 -29 17 -51t47 -22q15 0 26.5 8t15.5 23q29 -31 29 -77q0 -72 -45 -116t-119 -44q-53 0 -95 26t-65.5 71.5t-23.5 101.5q0 59 28.5 107t81 76t121.5 28q48 0 84.5 -7.5t92.5 -24.5
q55 -17 101.5 -26.5t106.5 -9.5q32 0 72 3.5t79 8.5q83 10 132 12l15 -147q-69 18 -139.5 23t-157.5 5v-192h192l7 -73h-199v-311q87 0 157.5 5t139.5 23l-15 -148h-499z" />
    <glyph glyph-name="F.ss01" unicode="&#xe005;" horiz-adv-x="989" 
d="M438 0q15 26 18.5 49t3.5 62v607q0 50 -32.5 78t-76.5 28q-40 0 -69.5 -26t-29.5 -72q0 -30 16.5 -51t41.5 -21q15 0 28 8.5t19 23.5q29 -31 29 -77q0 -72 -45 -116t-119 -44q-53 0 -95 26t-65.5 71.5t-23.5 101.5q0 59 28.5 107t81 76t121.5 28q48 0 84.5 -7.5
t92.5 -24.5q55 -17 101.5 -26.5t106.5 -9.5q32 0 72 3.5t79 8.5q83 10 132 12l15 -147q-69 18 -139.5 23t-157.5 5v-194h192l7 -74h-199v-317q0 -39 3.5 -62t18.5 -49h-239z" />
    <glyph glyph-name="H.ss01" unicode="&#xe006;" horiz-adv-x="1137" 
d="M438 0q15 26 18.5 49t3.5 62v603q0 51 -33 80.5t-78 29.5q-40 0 -68.5 -26t-28.5 -72q0 -30 16.5 -51t41.5 -21q15 0 28 8.5t19 23.5q29 -31 29 -77q0 -72 -45 -116t-119 -44q-53 0 -95 26t-65.5 71.5t-23.5 101.5q0 59 28 107t80.5 76t122.5 28q44 0 83 -7t92 -21
q47 -12 82.5 -18.5t72.5 -6.5q36 0 78 9q-15 -26 -18.5 -49t-3.5 -62v-214h227v214q0 39 -3.5 62t-18.5 49h239q-15 -26 -18.5 -49t-3.5 -62v-593q0 -39 3.5 -62t18.5 -49h-239q15 26 18.5 49t3.5 62v306h-227v-306q0 -39 3.5 -62t18.5 -49h-239z" />
    <glyph glyph-name="I.ss01" unicode="&#xe007;" horiz-adv-x="715" 
d="M438 0q15 26 18.5 49t3.5 62v603q0 51 -33 80.5t-78 29.5q-40 0 -68.5 -26t-28.5 -72q0 -30 16.5 -51t41.5 -21q15 0 28 8.5t19 23.5q29 -31 29 -77q0 -72 -45 -116t-119 -44q-53 0 -95 26t-65.5 71.5t-23.5 101.5q0 59 28 107t80.5 76t122.5 28q44 0 83 -7t92 -21
q47 -12 82.5 -18.5t72.5 -6.5q36 0 78 9q-15 -26 -18.5 -49t-3.5 -62v-593q0 -39 3.5 -62t18.5 -49h-239z" />
    <glyph glyph-name="J.ss01" unicode="&#xe008;" horiz-adv-x="603" 
d="M30 39l36 136q47 -29 96 -47t89 -18q44 0 71 24.5t27 76.5v503q0 51 -33.5 80.5t-77.5 29.5q-40 0 -69 -26t-29 -72q0 -30 16.5 -51t41.5 -21q15 0 28 8.5t19 23.5q29 -31 29 -77q0 -72 -45 -116t-119 -44q-53 0 -95 26t-65.5 71.5t-23.5 101.5q0 59 28.5 107t81 76
t121.5 28q44 0 83 -7t92 -21q48 -12 83.5 -18.5t72.5 -6.5q36 0 78 9q-15 -26 -18.5 -49t-3.5 -62v-467q0 -81 -35.5 -139t-98 -88t-142.5 -30q-112 0 -238 59z" />
    <glyph glyph-name="K.ss01" unicode="&#xe009;" horiz-adv-x="1148" 
d="M438 0q15 26 18.5 49t3.5 62v603q0 51 -33 80.5t-78 29.5q-40 0 -68.5 -26t-28.5 -72q0 -30 16.5 -51t41.5 -21q15 0 28 8.5t19 23.5q29 -31 29 -77q0 -72 -45 -116t-119 -44q-53 0 -95 26t-65.5 71.5t-23.5 101.5q0 59 28 107t80.5 76t122.5 28q44 0 83 -7t92 -21
q47 -12 82.5 -18.5t72.5 -6.5q36 0 78 9q-15 -26 -18.5 -49t-3.5 -62v-257q50 36 88.5 91.5t74.5 144.5q24 59 36 132h192q-57 -166 -120.5 -258t-153.5 -110v-8q89 0 143 -26t70 -92l50 -210q12 -52 41 -111h-251q9 21 9 50q0 19 -2 27l-34 199q-10 58 -47.5 85.5
t-95.5 44.5v-295q0 -39 3.5 -62t18.5 -49h-239z" />
    <glyph glyph-name="L.ss01" unicode="&#xe00a;" horiz-adv-x="978" 
d="M440 0q10 25 15 46t5 65v603q0 51 -33 80.5t-78 29.5q-40 0 -68.5 -26t-28.5 -72q0 -30 16.5 -51t41.5 -21q15 0 28 8.5t19 23.5q29 -31 29 -77q0 -72 -45 -116t-119 -44q-53 0 -95 26t-65.5 71.5t-23.5 101.5q0 59 28 107t80.5 76t122.5 28q44 0 83 -7t92 -21
q47 -12 82.5 -18.5t72.5 -6.5q36 0 78 9q-15 -26 -18.5 -49t-3.5 -62v-636l8 51h21q77 1 134 6t123 23l-20 -148h-481z" />
    <glyph glyph-name="M.ss01" unicode="&#xe00b;" horiz-adv-x="1244" 
d="M423 0q15 26 18.5 49t3.5 62l1 696q0 58 -32.5 90.5t-76.5 32.5q-41 0 -71.5 -28.5t-30.5 -79.5q0 -38 21.5 -65t52.5 -27q15 0 28.5 8.5t19.5 22.5q14 -15 21.5 -35t7.5 -41q0 -72 -45 -116t-119 -44q-53 0 -95 26t-65.5 71t-23.5 101q0 75 39 129.5t104.5 82.5
t141.5 28q98 0 186.5 -47.5t135.5 -138.5l168 -335l169 326q25 47 66 47h158q-16 -24 -19 -47t-3 -64l-1 -593q0 -39 3.5 -62t18.5 -49h-239q15 26 18.5 49t3.5 62v483l-165 -362h-20l-163 362v-483q0 -39 3.5 -62t18.5 -49h-239z" />
    <glyph glyph-name="N.ss01" unicode="&#xe00c;" horiz-adv-x="1159" 
d="M438 0q15 26 18.5 49t3.5 62v610q0 47 -32 74t-75 27q-41 0 -71 -25.5t-30 -70.5q0 -30 16.5 -51t41.5 -21q15 0 28 8.5t19 23.5q29 -31 29 -77q0 -72 -45 -116t-119 -44q-53 0 -95 26t-65.5 71.5t-23.5 101.5q0 82 45.5 139.5t120 86.5t159.5 29q106 0 195 -44.5
t125 -125.5l221 -496v467q0 39 -3.5 62t-18.5 49h239q-15 -26 -18.5 -49t-3.5 -62v-593q0 -39 3.5 -62t18.5 -49h-137q-34 0 -59 10t-47 37.5t-44 80.5l-179 415v-432q0 -39 3.5 -62t18.5 -49h-239z" />
    <glyph glyph-name="P.ss01" unicode="&#xe00d;" horiz-adv-x="1083" 
d="M438 0q15 26 18.5 49t3.5 62v586q0 61 -32.5 94t-76.5 33q-40 0 -69.5 -27t-29.5 -74q0 -32 16 -50.5t42 -18.5q15 0 28 8.5t19 23.5q29 -31 29 -77q0 -72 -45 -116t-119 -44q-53 0 -95 26t-65.5 71.5t-23.5 101.5q0 59 28 107t80.5 76t122.5 28q39 0 71 -6t80 -18
q50 -14 89.5 -21t89.5 -7q45 0 121 10q59 9 95 9q126 0 183.5 -74t57.5 -187q0 -93 -35.5 -156.5t-91.5 -94t-117 -30.5q-48 0 -89.5 19t-63.5 54h-4v-246q0 -39 3.5 -62t18.5 -49h-239zM826.5 416q34.5 53 34.5 143q0 179 -137 179q-31 0 -69 -9v-330q15 -18 35.5 -27
t42.5 -9q59 0 93.5 53z" />
    <glyph glyph-name="R.ss01" unicode="&#xe00e;" horiz-adv-x="1080" 
d="M438 0q15 26 18.5 49t3.5 62v599q0 54 -33.5 85t-78.5 31q-40 0 -68 -26t-28 -74q0 -30 16.5 -51t41.5 -21q15 0 28 8.5t19 23.5q29 -31 29 -77q0 -72 -45 -116t-119 -44q-53 0 -95 26t-65.5 71.5t-23.5 101.5q0 59 28 107t80.5 76t122.5 28q31 0 61.5 -5.5t71.5 -16.5
q58 -13 94.5 -19.5t81.5 -6.5q33 0 62.5 4t35.5 5q50 9 93 9q120 0 181 -61.5t61 -160.5q0 -57 -26.5 -103t-73.5 -73.5t-107 -28.5v-5q73 -5 115 -43t59.5 -90t33.5 -133q16 -90 36 -131h-227q5 28 5 63q0 44 -5 99q-14 163 -145 197h-21v-248q0 -39 3.5 -62t18.5 -49h-239
zM671 443q80 4 118.5 44.5t38.5 116.5q0 71 -38.5 106t-102.5 35q-16 0 -24 -1h-8v-301h16z" />
    <glyph glyph-name="T.ss01" unicode="&#xe00f;" horiz-adv-x="905" 
d="M438 0q15 26 18.5 49t3.5 62v596q0 49 -33 77.5t-82 28.5q-38 0 -65.5 -26t-27.5 -71q0 -30 16.5 -51t41.5 -21q15 0 28 8.5t19 23.5q29 -32 29 -77q0 -72 -45 -116t-119 -44q-53 0 -95 26t-65.5 71.5t-23.5 101.5q0 59 28 107t81.5 76t125.5 28q29 0 62 -4t53 -7.5
t29 -4.5q72 -12 131 -19t138 -7q83 0 170 8l13 -144q-60 16 -109.5 21.5t-104.5 6.5v-588q0 -39 3.5 -62t18.5 -49h-239z" />
    <glyph glyph-name="U.ss01" unicode="&#xe010;" horiz-adv-x="1119" 
d="M603.5 16.5q-67.5 33.5 -105.5 96.5t-38 149v452q0 51 -33 80.5t-78 29.5q-40 0 -68.5 -26t-28.5 -72q0 -30 16.5 -51t41.5 -21q15 0 28 8.5t19 23.5q29 -31 29 -77q0 -72 -45 -116t-119 -44q-53 0 -95 26t-65.5 71.5t-23.5 101.5q0 59 28 107t80.5 76t122.5 28
q44 0 83 -7t92 -21q47 -12 82.5 -18.5t72.5 -6.5q36 0 78 9q-15 -26 -18.5 -49t-3.5 -62v-506q0 -47 31.5 -73.5t74.5 -26.5q42 0 73 26.5t31 73.5l-1 506q0 39 -3.5 62t-18.5 49h239q-15 -26 -18.5 -49t-3.5 -62v-442q0 -85 -38 -148t-106 -97t-156 -34t-155.5 33.5z" />
    <glyph glyph-name="V.ss01" unicode="&#xe011;" horiz-adv-x="1167" 
d="M658 0q1 6 1 18q0 46 -19 107l-166 563q-18 64 -62 100.5t-89 36.5q-35 0 -58 -24t-23 -68q0 -32 17.5 -54.5t43.5 -22.5q15 0 27 8t17 22q29 -31 29 -77q0 -72 -45 -116t-119 -44q-53 0 -95 26t-65.5 71.5t-23.5 101.5q0 59 28 107t79.5 76t118.5 28q43 0 81.5 -7
t87.5 -21q46 -12 79 -18.5t69 -6.5q37 0 79 9l132 -575l130 575h227q-28 -41 -41.5 -70.5t-23.5 -68.5l-164 -558q-18 -62 -18 -99q0 -7 2 -19h-236z" />
    <glyph glyph-name="W.ss01" unicode="&#xe012;" horiz-adv-x="1526" 
d="M650 0q1 6 1 20q0 58 -35 184l-136 499q-16 56 -55.5 87t-83.5 31q-42 0 -67.5 -24.5t-25.5 -65.5q0 -30 17 -53.5t45 -23.5q15 0 28 8.5t19 23.5q29 -31 29 -77q0 -72 -45 -116t-119 -44q-53 0 -95 26t-65.5 71.5t-23.5 101.5q0 59 28 107t80.5 76t122.5 28q44 0 81 -6
t95 -19q48 -11 84 -17t75 -6q32 0 60 4q-5 -23 -5 -48q0 -32 7 -60l115 -455l74 370q1 7 5 23q14 66 14 102t-11 68h215q-12 -36 -12 -73q0 -21 4 -46t9 -50l5 -24l73 -363l108 453q5 23 8 55.5t1 47.5h225q-17 -30 -27.5 -57.5t-23.5 -75.5l-130 -478q-33 -123 -33 -182
q0 -15 1 -22h-210q0 28 -10.5 90.5t-22.5 113.5l-74 318l-72 -318q-36 -151 -36 -204h-211z" />
    <glyph glyph-name="X.ss01" unicode="&#xe013;" horiz-adv-x="1160" 
d="M408 0q46 48 71 88l196 326l-198 316q-29 46 -68 70.5t-76 24.5q-36 0 -58.5 -23.5t-22.5 -65.5q0 -36 16.5 -59t43.5 -23q14 0 26.5 8.5t18.5 23.5q29 -31 29 -77q0 -72 -45 -116t-119 -44q-53 0 -95 26.5t-65.5 73t-23.5 103.5t26.5 104.5t77.5 75t122 27.5
q44 0 80.5 -6t83.5 -17q55 -12 90 -17.5t80 -5.5q13 0 45 2l-1 -8q0 -20 13 -48.5t38 -72.5l13 -23l67 -123l73 126q62 111 61 149h231q-12 -8 -29.5 -29.5t-27.5 -37.5l-209 -335l209 -334q29 -47 57 -79h-232q-1 21 -15 51.5t-45 88.5l-73 139l-76 -139
q-24 -44 -42.5 -84.5t-19.5 -55.5h-227z" />
    <glyph glyph-name="Y.ss01" unicode="&#xe014;" horiz-adv-x="1139" 
d="M639 0q15 26 18.5 49t3.5 62v216l-214 413q-20 38 -56.5 60t-73.5 22q-35 0 -58 -22t-23 -65q0 -35 16.5 -58t43.5 -23q14 0 26.5 8.5t18.5 23.5q29 -31 29 -77q0 -72 -45 -116t-119 -44q-53 0 -95 26t-65.5 71.5t-23.5 101.5q0 59 27 107t78.5 76t120.5 28q45 0 77.5 -6
t77.5 -19q38 -11 68 -17t68 -6q15 0 59 4q4 -27 16.5 -53.5t36.5 -69.5l115 -220l114 222q4 8 17 33.5t20.5 47.5t9.5 40h190q-19 -27 -34 -53.5t-30 -55.5l-197 -379v-216q0 -39 3.5 -62t18.5 -49h-239z" />
    <glyph glyph-name="Z.ss01" unicode="&#xe015;" horiz-adv-x="820" 
d="M549 710q0 23 -26.5 43.5t-67.5 32.5t-82 12q-49 0 -80 -18t-31 -56q0 -25 12.5 -38.5t31.5 -13.5q17 0 34 12q3 -15 3 -31q0 -14 -3 -29q-5 -60 -45 -97t-105 -37q-49 0 -87 23t-59 62.5t-21 85.5q0 51 26 92.5t77.5 65.5t123.5 24q41 0 80 -4.5t103 -13.5
q70 -11 116 -16t99 -5q71 0 140 11l-360 -711h111q153 0 239 51l-17 -155h-576z" />
    <glyph glyph-name="A.ss02" unicode="&#xe016;" horiz-adv-x="1014" 
d="M1043.5 -305.5q-87.5 40.5 -155 120t-93.5 190.5l-76 236h-218l-38 -130q-8 -32 -8 -55q0 -28 11 -56h-240q19 30 27.5 50.5t20.5 60.5l172 534q9 29 9 53q0 53 -34.5 83t-80.5 30q-42 0 -68.5 -25.5t-26.5 -67.5q0 -30 19 -49t49 -19q19 0 35 11t23 33q9 -33 9 -63
q0 -75 -49.5 -121.5t-129.5 -46.5q-49 0 -88.5 24t-62 66t-22.5 93q0 52 26.5 97t82 73.5t136.5 28.5q40 0 82 -7q45 -5 118 -21q52 -12 83.5 -17t65.5 -5q65 0 118 20q-5 -22 -5 -40q0 -27 9 -54l288 -863q21 -67 48.5 -97t53.5 -30q18 0 30.5 12.5t12.5 30.5
q0 20 -16.5 36.5t-47.5 11.5q15 110 138 110q43 0 76.5 -17.5t51.5 -48t18 -66.5q0 -39 -21.5 -72.5t-62.5 -53.5t-97 -20q-85 0 -172.5 40.5zM610 651l-84 -298h169z" />
    <glyph glyph-name="H.ss02" unicode="&#xe017;" horiz-adv-x="1137" 
d="M1038.5 -348q-68.5 32 -112.5 96.5t-44 156.5v514h-227v-308q0 -39 3.5 -62t18.5 -49h-239q15 26 18.5 49t3.5 62v603q0 51 -33 80.5t-78 29.5q-40 0 -68.5 -26t-28.5 -72q0 -30 16.5 -51t41.5 -21q15 0 28 8.5t19 23.5q29 -31 29 -77q0 -72 -45 -116t-119 -44
q-53 0 -95 26t-65.5 71.5t-23.5 101.5q0 59 28 107t80.5 76t122.5 28q44 0 83 -7t92 -21q47 -12 82.5 -18.5t72.5 -6.5q36 0 78 9q-15 -26 -18.5 -49t-3.5 -62v-211h227l1 211q0 39 -3.5 62t-18.5 49h239q-15 -26 -18.5 -48.5t-4.5 -62.5v-919q0 -64 27 -94t64 -30
q21 0 33 12t12 29q0 22 -18 37t-47 13q-3 61 32.5 94.5t85.5 33.5q45 0 79 -29.5t34 -81.5q0 -46 -27 -80t-72.5 -51.5t-99.5 -17.5q-73 0 -141.5 32z" />
    <glyph glyph-name="J.ss02" unicode="&#xe018;" horiz-adv-x="942" 
d="M125 -170.5q-42 25.5 -64.5 68t-22.5 93.5q0 49 23.5 92t68 69t105.5 26q60 0 108.5 -22t109.5 -63q52 -34 86 -50.5t72 -16.5q77 0 77 87v601q0 51 -33.5 80.5t-77.5 29.5q-40 0 -69 -26t-29 -72q0 -30 16.5 -51t41.5 -21q15 0 28 8.5t19 23.5q29 -31 29 -77
q0 -72 -45 -116t-119 -44q-53 0 -95 26t-65.5 71.5t-23.5 101.5q0 59 28.5 107t81 76t121.5 28q44 0 83.5 -7t92.5 -21q49 -12 83.5 -18.5t71.5 -6.5q36 0 78 9q-15 -26 -18.5 -49t-3.5 -62v-608q0 -54 -21.5 -96t-60 -65.5t-87.5 -23.5q-42 0 -78 13t-64 31t-68 48
q-49 38 -82.5 56.5t-72.5 18.5q-34 0 -51 -16.5t-17 -40.5q0 -22 14 -38.5t34 -16.5q22 0 47 21q4 -16 4 -36q0 -39 -19 -73t-54.5 -54t-81.5 -20q-58 0 -100 25.5z" />
    <glyph glyph-name="K.ss02" unicode="&#xe019;" horiz-adv-x="1095" 
d="M1057 -350q-100 55 -155 160t-55 251q0 134 -5.5 200.5t-32.5 108t-87 41.5q-28 0 -67 -9v-291q0 -39 3.5 -62t18.5 -49h-239q15 26 18.5 49t3.5 62v603q0 51 -33 80.5t-78 29.5q-40 0 -68.5 -26t-28.5 -72q0 -30 16.5 -51t41.5 -21q15 0 28 8.5t19 23.5q29 -31 29 -77
q0 -71 -45 -115.5t-119 -44.5q-53 0 -95 26t-65.5 71.5t-23.5 101.5q0 59 28 107t80.5 76t122.5 28q44 0 83 -7t91 -21q46 -12 80 -18.5t69 -6.5q40 0 85 9q-15 -26 -18.5 -49t-3.5 -62v-254q103 53 156 145t51 220h204q-15 -22 -29 -49.5t-32 -69.5q-31 -68 -54.5 -111
t-59.5 -78.5t-84 -48.5v-10q110 0 163 -49t62 -164q15 -156 34.5 -276t68.5 -222.5t134 -102.5q35 0 56 17.5t21 45.5q0 19 -14 32t-36 13q-21 0 -37 -12q-8 24 -8 50q0 57 41 88.5t96 31.5q57 0 99 -33t42 -94q0 -52 -30 -92.5t-84.5 -63t-125.5 -22.5q-132 0 -232 55z" />
    <glyph glyph-name="T.ss02" unicode="&#xe01a;" horiz-adv-x="907" 
d="M438 0q15 26 18.5 49t3.5 62v596q0 49 -33 77.5t-82 28.5q-38 0 -65.5 -26t-27.5 -71q0 -30 16.5 -51t41.5 -21q15 0 28 8.5t19 23.5q29 -32 29 -77q0 -72 -45 -116t-119 -44q-53 0 -95 26t-65.5 71.5t-23.5 101.5q0 59 28 107t81.5 76t125.5 28q60 0 124 -14.5
t157 -42.5q104 -30 168.5 -44t125.5 -11q44 -2 75 13t47 39.5t16 50.5q0 30 -22.5 50.5t-64.5 20.5q-15 0 -29 -7t-21 -20q-15 15 -22.5 35t-7.5 41q0 62 43 96t104 34q50 0 93.5 -23t69 -65.5t25.5 -97.5q0 -59 -29.5 -110t-87.5 -81.5t-140 -30.5q-49 0 -104 12.5
t-138 37.5v-621q0 -39 3.5 -62t18.5 -49h-239z" />
    <glyph glyph-name="a.ss01" unicode="&#xe01b;" horiz-adv-x="681" 
d="M586.5 -348q-68.5 32 -112.5 96.5t-44 156.5v271h-6q-18 -89 -76 -140t-136 -51q-46 0 -87.5 21t-67 60t-25.5 91q0 95 62.5 142t153.5 47q52 0 100.5 -14.5t81.5 -40.5q-15 9 -35 14.5t-39 5.5q-66 0 -107.5 -31.5t-41.5 -86.5q0 -39 23.5 -62t57.5 -23q44 0 85 42.5
t57 117.5v118q0 41 -32 65.5t-83 24.5q-39 0 -82.5 -13.5t-87.5 -40.5l-37 114q55 28 120 43t128 15q116 0 192.5 -52.5t76.5 -157.5v-599q0 -64 27 -94t64 -30q21 0 33 12t12 29q0 22 -18 37t-47 13q-3 61 32.5 94.5t85.5 33.5q45 0 79 -29.5t34 -81.5q0 -46 -27 -80
t-72.5 -51.5t-99.5 -17.5q-73 0 -141.5 32z" />
    <glyph glyph-name="b.ss01" unicode="&#xe01c;" horiz-adv-x="702" 
d="M328 20.5q-49 35.5 -69 98.5h-2q0 -43 -24.5 -82t-87.5 -39h-107q19 25 25 55.5t6 78.5l-1 711q0 39 -17.5 60t-42.5 21q-26 0 -40.5 -17.5t-14.5 -42.5q0 -29 18 -52.5t50 -27.5q0 -43 -31.5 -67t-75.5 -24q-52 0 -91 31.5t-39 86.5q0 71 56.5 113t143.5 42
q67 0 131 -27t106 -83t42 -140v-227q30 50 78 77t102 27q58 0 110 -31.5t84 -95.5t32 -155q0 -106 -33.5 -179.5t-87.5 -110t-113 -36.5q-58 0 -107 35.5zM412 148.5q28 23.5 45 68.5t17 106q0 57 -16 97t-42.5 60t-57.5 20q-26 0 -51 -16t-44 -47v-243q17 -35 40.5 -52
t48.5 -17q32 0 60 23.5z" />
    <glyph glyph-name="c.ss01" unicode="&#xe01d;" horiz-adv-x="1048" 
d="M761 -74.5q-41 44.5 -41 113.5q0 28 5 49q20 -10 41 -10q26 0 42 16.5t16 44.5q0 29 -20 48.5t-55 19.5t-67.5 -21t-86.5 -67q-48 -42 -86 -69.5t-86.5 -46.5t-104.5 -19q-83 0 -147.5 37.5t-101 107.5t-36.5 164q0 95 38 163.5t102 104t141 35.5q57 0 115.5 -19.5
t113.5 -57.5l-32 -145q-41 33 -85.5 51.5t-84.5 18.5q-57 0 -93.5 -41t-36.5 -118q0 -76 39.5 -118.5t105.5 -42.5q58 0 107.5 19t122.5 58q68 37 116 56t103 19q68 0 122 -28t85 -76t31 -107q0 -47 -20.5 -89.5t-59 -68.5t-88.5 -26q-73 0 -114 44.5z" />
    <glyph glyph-name="d.ss01" unicode="&#xe01e;" horiz-adv-x="708" 
d="M608.5 -348q-68.5 32 -112.5 96.5t-44 156.5v204h-5q-19 -58 -67 -90.5t-107 -32.5q-60 0 -115.5 33.5t-90 101.5t-34.5 165q0 105 34.5 174t88.5 100.5t115 31.5q58 0 106.5 -26t69.5 -69h5v224q0 40 -22 60q67 0 129.5 11t87.5 40v-1047q0 -64 27 -94t64 -30
q21 0 33 12t12 29q0 22 -18 37t-46 13q-4 61 31.5 94.5t85.5 33.5q45 0 79 -29.5t34 -81.5q0 -46 -27 -80t-72.5 -51.5t-99.5 -17.5q-73 0 -141.5 32zM410.5 108.5q25.5 14.5 41.5 39.5v264q-17 23 -45.5 37t-58.5 14q-52 0 -86 -43t-34 -130q0 -65 18 -109t47 -65.5
t64 -21.5q28 0 53.5 14.5z" />
    <glyph glyph-name="e.ss01" unicode="&#xe01f;" horiz-adv-x="1148" 
d="M834 -79q-43 42 -43 110q0 13 4 39q17 -5 29 -5q36 0 57.5 26t21.5 59q0 27 -17 45t-50 18q-7 0 -21 -2q-28 -5 -54.5 -23t-67.5 -55q-55 -47 -97 -76.5t-103.5 -51.5t-138.5 -22q-81 0 -155 37.5t-120 108.5t-46 168q0 93 44 160.5t117 102.5t160 35q73 0 131.5 -23
t92 -63t33.5 -91t-30.5 -93t-86 -66.5t-127.5 -24.5q-59 0 -122 21q48 1 95 19.5t77 51.5t30 74q0 38 -27 62.5t-64 24.5q-32 0 -61.5 -17.5t-48 -54.5t-18.5 -92q0 -68 24.5 -115t66 -70.5t91.5 -23.5q72 0 126.5 20t125.5 59q64 36 111.5 54t107.5 18q69 0 124 -27.5
t85.5 -75t30.5 -105.5q0 -46 -21 -86.5t-60 -66t-91 -25.5q-72 0 -115 42z" />
    <glyph glyph-name="f.ss01" unicode="&#xe020;" horiz-adv-x="418" 
d="M85 0q15 26 18.5 49t3.5 62v331q0 32 -23 68.5t-65 55.5v12q58 -18 146 -18q68 0 104 11v6q-28 -2 -40 -2q-23 0 -44 3q-57 10 -101.5 42t-68.5 78.5t-24 98.5q0 66 35 118.5t100 83t151 30.5q71 0 133.5 -24.5t101 -72.5t38.5 -114q0 -50 -22 -89.5t-60 -61.5t-84 -22
q-42 0 -77.5 17.5t-57 50t-21.5 76.5q0 25 7 50q12 -28 35 -42.5t50 -14.5q36 0 61.5 25t25.5 70q0 49 -33.5 77t-81.5 28q-36 0 -69 -18t-54 -54.5t-21 -88.5q0 -56 25 -109.5t83 -91t151 -42.5v-12q-31 0 -54.5 -18.5t-36.5 -47.5t-13 -58l-1 -331q0 -39 3.5 -62t18.5 -49
h-239z" />
    <glyph glyph-name="h.ss01" unicode="&#xe021;" horiz-adv-x="718" 
d="M620 -348q-68 32 -112 96.5t-44 156.5v462q0 48 -24 73t-59 25q-41 0 -77 -30.5t-49 -84.5v-239q0 -39 3.5 -62t18.5 -49h-239q15 26 18.5 49t3.5 62v609q0 38 -22 60q66 0 129 11t88 40v-426h6q8 60 40 103t78 65t96 22q49 0 91 -21t67.5 -62t25.5 -99v-628
q0 -64 27 -94t64 -30q21 0 32.5 12t11.5 29q0 22 -17.5 37t-46.5 13q-3 61 32.5 94.5t84.5 33.5q46 0 80 -29.5t34 -81.5q0 -46 -27.5 -80t-73 -51.5t-99.5 -17.5q-73 0 -141 32z" />
    <glyph glyph-name="i.ss01" unicode="&#xe022;" horiz-adv-x="715" 
d="M86.5 676q-29.5 29 -29.5 70t29.5 70t70.5 29t70 -29t29 -70t-29 -70t-70 -29t-70.5 29zM362.5 -37q-39.5 7 -92.5 21q-47 12 -82 18.5t-72 6.5q-36 0 -78 -9q15 26 18.5 49t3.5 62v386q0 38 -22 60q66 0 129 11t88 40v-507q0 -51 33 -80.5t77 -29.5q40 0 69 26t29 72
q0 30 -16.5 51t-41.5 21q-15 0 -28 -8.5t-19 -23.5q-29 32 -29 77q0 72 45 116t119 44q53 0 95 -26t65.5 -71.5t23.5 -101.5q0 -59 -28 -107t-80.5 -76t-122.5 -28q-44 0 -83.5 7z" />
    <glyph glyph-name="k.ss01" unicode="&#xe023;" horiz-adv-x="679" 
d="M488 -82l-80 240q-18 52 -35 82t-45 47t-73 19v-195q0 -39 3.5 -62t18.5 -49h-239q15 26 18.5 49t3.5 62v610q0 38 -22 60q66 0 129 11t88 40v-491q75 7 125 67t80 170h183q-16 -74 -68.5 -131t-114 -88.5t-102.5 -33.5v-6q63 -3 105.5 -18.5t75.5 -57.5t53 -121l88 -317
q26 -81 48 -114t54 -33q19 0 31.5 12.5t12.5 32.5q0 23 -20 37t-53 12q-3 61 28 94.5t79 33.5q46 0 79.5 -29.5t33.5 -81.5q0 -70 -52.5 -109.5t-134.5 -39.5q-210 0 -298 298z" />
    <glyph glyph-name="l.ss01" unicode="&#xe024;" horiz-adv-x="314" 
d="M216 -348q-68 32 -112 96.5t-44 156.5v813q0 38 -22 60q66 0 129 11t88 40v-1044q0 -64 27 -94t64 -30q21 0 32.5 12t11.5 29q0 22 -17.5 37t-46.5 13q-3 61 32.5 94.5t84.5 33.5q46 0 80 -29.5t34 -81.5q0 -46 -27.5 -80t-73 -51.5t-99.5 -17.5q-73 0 -141 32z" />
    <glyph glyph-name="m.ss01" unicode="&#xe025;" horiz-adv-x="1122" 
d="M1024 -348q-68 32 -112 96.5t-44 156.5v460q0 47 -25 72t-61 25q-29 0 -56.5 -16t-46 -47.5t-20.5 -74.5v-213q0 -39 3.5 -62t18.5 -49h-239q15 26 18.5 49t3.5 62v263q0 43 -24 66.5t-59 23.5q-29 0 -57.5 -16t-47.5 -48t-21 -76v-213q0 -39 3.5 -62t18.5 -49h-239
q15 26 18.5 49t3.5 62v373q0 38 -22 60q66 0 129 11t88 40v-190h6q4 58 35 101t78.5 66t100.5 23q50 0 92 -20.5t67 -61.5t25 -100v-8h6q4 58 35 101t78.5 66t100.5 23q50 0 92 -20.5t67 -61.5t25 -100v-628q0 -64 27 -94t64 -30q21 0 32.5 12t11.5 29q0 22 -17.5 37
t-46.5 13q-3 61 32.5 94.5t84.5 33.5q46 0 80 -29.5t34 -81.5q0 -46 -27.5 -80t-73 -51.5t-99.5 -17.5q-73 0 -141 32z" />
    <glyph glyph-name="n.ss01" unicode="&#xe026;" horiz-adv-x="718" 
d="M622 -339q-69 41 -113.5 115t-44.5 168v423q0 48 -24 73t-59 25q-41 0 -77 -30.5t-49 -84.5v-239q0 -39 3.5 -62t18.5 -49h-239q15 26 18.5 49t3.5 62v373q0 38 -22 60q66 0 129 11t88 40v-190h6q8 60 40 103t78 65t96 22q49 0 91 -21t67.5 -62t25.5 -99v-628
q0 -64 27 -94t64 -30q21 0 32.5 12t11.5 29q0 22 -17.5 37t-46.5 13q-3 61 32.5 94.5t84.5 33.5q46 0 80 -29.5t34 -81.5q0 -46 -27.5 -80t-73 -51.5t-99.5 -17.5q-70 0 -139 41z" />
    <glyph glyph-name="o.ss01" unicode="&#xe027;" horiz-adv-x="728" 
d="M200.5 25q-76.5 37 -122 114t-45.5 193q0 72 37 137t101.5 104.5t142.5 39.5q55 0 111 -20q-69 -10 -115 -50.5t-67.5 -98.5t-21.5 -122q0 -59 18 -112.5t50.5 -86t74.5 -32.5q44 0 74.5 28t46 72.5t15.5 93.5q0 67 -29.5 114t-76.5 47q-19 0 -40 -9q6 43 44 68.5
t90 25.5q51 0 98.5 -27t78 -83t30.5 -137q0 -92 -47 -159.5t-122 -102t-156 -34.5q-93 0 -169.5 37z" />
    <glyph glyph-name="p.ss01" unicode="&#xe028;" horiz-adv-x="700" 
d="M38 -219q15 26 18.5 49t3.5 62v592q0 38 -22 60q66 0 129 11t88 40v-113q32 55 78 82t98 27q68 0 121.5 -36t84 -100t30.5 -145q0 -101 -36.5 -175t-98.5 -112.5t-137 -38.5q-64 0 -107.5 28.5t-64 73.5t-20.5 95q0 53 22 94.5t59 52.5q-8 -19 -8 -39q0 -32 23 -51
q9 -21 25 -33t35 -12q21 0 36 14q23 13 34.5 36t11.5 51q0 36 -17 70q-16 22 -38.5 35t-46.5 13q-52 0 -90 -57q-32 -25 -48 -69t-16 -97q0 -59 19 -112.5t51 -80.5v-104q0 -39 3.5 -62t18.5 -49h-239z" />
    <glyph glyph-name="q.ss01" unicode="&#xe029;" horiz-adv-x="696" 
d="M597.5 -348q-68.5 32 -112.5 96.5t-44 156.5v248h-5q-6 -51 -32.5 -88.5t-66 -57.5t-83.5 -20q-56 0 -106.5 31.5t-82.5 96t-32 157.5q0 106 40 179t104.5 108.5t137.5 35.5q29 0 55 -4t61 -12q8 -1 37.5 -7t56.5 -6q56 0 112 30l-1 -485v-326q0 -64 27 -94t65 -30
q21 0 32.5 12t11.5 29q0 22 -17.5 37t-46.5 13q-2 41 14 70t44 43.5t59 14.5q46 0 79.5 -29.5t33.5 -81.5q0 -46 -27 -80t-72.5 -51.5t-99.5 -17.5q-73 0 -141.5 32zM400 129q25 18 42 55v277q-34 14 -68 14q-69 0 -110 -53.5t-41 -135.5q0 -50 16.5 -90t44.5 -62.5
t63 -22.5q28 0 53 18z" />
    <glyph glyph-name="r.ss01" unicode="&#xe02a;" horiz-adv-x="403" 
d="M53 0q15 26 18.5 49t3.5 62v373q0 64 -37 94q82 0 136 27t88 70.5t77 120.5q106 193 255 193q54 0 95.5 -22.5t63.5 -60.5t22 -84q0 -51 -22.5 -88.5t-58 -57t-73.5 -19.5q-29 0 -54 12q-15 -2 -27 5.5t-18 24.5q38 4 58.5 30t20.5 60q0 30 -22 49t-60 19
q-62 0 -119.5 -46t-93.5 -136t-36 -216v-348q0 -39 3.5 -62t18.5 -49h-239z" />
    <glyph glyph-name="s.ss01" unicode="&#xe02b;" horiz-adv-x="596" 
d="M167.5 -276q-70.5 30 -113.5 87t-43 135q0 59 28 100.5t72.5 62t93.5 20.5q44 0 81 -17t55 -48q-15 5 -33 5q-39 0 -63 -28t-24 -68q0 -48 33 -83.5t94 -35.5q62 0 104 39.5t42 105.5q0 51 -28.5 91t-71 68t-110.5 64q-67 36 -105 61t-64.5 59.5t-26.5 78.5
q0 82 65.5 127t165.5 45q59 0 108 -19t77 -55t28 -84q0 -50 -32 -90.5t-88 -52.5q21 35 21 67q0 38 -25 62t-62 24q-41 0 -71 -23t-30 -63q0 -33 21 -60t52.5 -47.5t84.5 -47.5q74 -37 118.5 -67t76.5 -77.5t32 -115.5q0 -76 -43.5 -133t-115 -87t-154.5 -30
q-79 0 -149.5 30z" />
    <glyph glyph-name="t.ss01" unicode="&#xe02c;" horiz-adv-x="514" 
d="M137.5 41q-67.5 58 -67.5 182v266q0 66 -50 89q62 0 112.5 20t79.5 56.5t29 83.5q0 37 -22 57t-53 20q-35 0 -58 -25t-23 -65q0 -22 11.5 -40t31.5 -23q-35 -20 -78 -20q-69 0 -115.5 38.5t-46.5 105.5q0 53 29 94t79 63t112 22q71 0 125 -25.5t82.5 -69t28.5 -95.5
q0 -48 -23 -88.5t-60 -67.5t-77 -37v-4h253v-120q-35 14 -75.5 20t-97.5 6l1 -266q0 -44 22.5 -65.5t59.5 -21.5q54 0 124 39l21 -135q-36 -23 -86 -37.5t-101 -14.5q-100 0 -167.5 58z" />
    <glyph glyph-name="u.ss01" unicode="&#xe02d;" horiz-adv-x="720" 
d="M619.5 -348q-68.5 32 -112.5 96.5t-44 156.5v285h-6q-8 -60 -39.5 -103t-77.5 -65t-96 -22q-49 0 -91 21t-67.5 62t-25.5 99v302q0 38 -22 60q66 0 129 11t88 40v-367q0 -47 23.5 -72t58.5 -25q40 0 76 29.5t50 80.5v243q0 38 -22 60q66 0 129 11t88 40v-810
q0 -64 27 -94t64 -30q21 0 32.5 12t11.5 29q0 22 -17.5 37t-46.5 13q-3 61 32.5 94.5t84.5 33.5q46 0 80 -29.5t34 -81.5q0 -46 -27 -80t-72.5 -51.5t-99.5 -17.5q-73 0 -141.5 32z" />
    <glyph glyph-name="v.ss01" unicode="&#xe02e;" horiz-adv-x="1019" 
d="M186 0q1 3 1 10q0 17 -5 42t-12 45l-122 393q-6 20 -17.5 45t-22.5 43h202q-3 -34 7 -75l96 -377l99 377q5 23 5 39q0 20 -7 42q29 -7 62 -7t64.5 6t83.5 18q56 14 91.5 20.5t75.5 6.5q68 0 114 -27t68 -70t22 -93q0 -48 -21.5 -92t-61.5 -71t-95 -27q-72 0 -113 43
t-41 110q0 35 13 62q17 -14 39 -14q27 0 46 20t19 56q0 33 -21 53t-51 20q-37 0 -74 -30.5t-56 -89.5l-117 -375q-9 -29 -15 -59t-3 -44h-253z" />
    <glyph glyph-name="w.ss01" unicode="&#xe02f;" horiz-adv-x="1340" 
d="M178 0q1 3 1 10q0 25 -21 93l-111 387q-18 57 -39 88h206q-3 -10 -3 -24q0 -24 11 -73l93 -343l73 294q6 44 6 78q0 47 -9 68h200q-11 -25 -11 -73q0 -31 6 -73l73 -287l92 350q7 35 7 49q0 19 -8 40q29 -7 62 -7q34 0 68 6.5t81 18.5q52 14 90 21t78 7q69 0 116 -26.5
t70 -70t23 -93.5q0 -49 -22 -93t-63 -71.5t-96 -27.5q-72 0 -113 43t-41 110q0 35 13 62q17 -14 39 -14q27 0 46 20t19 56q0 35 -17.5 54t-45.5 19q-42 0 -83.5 -38t-62.5 -107l-99 -350q-12 -40 -17.5 -65t-2.5 -38h-222q1 3 1 9q0 21 -16 75l-5 19l-59 194l-59 -194
l-6 -21q-1 -5 -6.5 -25.5t-7.5 -35t-1 -21.5h-227z" />
    <glyph glyph-name="x.ss01" unicode="&#xe030;" horiz-adv-x="1057" 
d="M23 0q50 45 80 85l142 200l-142 204q-25 35 -41.5 55t-38.5 34h210l110 -159l71 108q23 32 23 61q0 9 -1 13q51 -18 106 -18q30 0 59.5 6t71.5 17q46 12 77.5 18t66.5 6q70 0 118 -27.5t71 -71.5t23 -95q0 -49 -21.5 -93t-61.5 -71t-95 -27q-71 0 -114.5 43t-43.5 111
q0 34 11 64q14 -17 36 -17q37 0 61.5 25t24.5 60q0 29 -19.5 46.5t-53.5 17.5q-39 0 -82.5 -25t-78.5 -75l-147 -210l152 -200q24 -32 41 -51.5t39 -33.5h-222l-105 152l-104 -152h-223z" />
    <glyph glyph-name="y.ss01" unicode="&#xe031;" horiz-adv-x="1130" 
d="M33 -232l18 173q141 -55 269 -55q86 0 139 24.5t53 61.5q0 33 -42 54t-124 24q-79 2 -143 27t-101.5 71.5t-37.5 109.5v175q0 56 -7 87.5t-34 57.5h142q40 0 67 -29t27 -70v-267q0 -44 27 -67t66 -23q38 0 67.5 21.5t29.5 54.5v300q0 23 -5.5 46.5t-17.5 39.5
q40 -10 83 -10q40 0 80.5 7.5t96.5 21.5q62 15 104.5 22.5t87.5 7.5q73 0 123.5 -26.5t75.5 -70t25 -94.5q0 -49 -21 -89t-59 -63.5t-88 -23.5q-73 0 -118.5 45.5t-45.5 117.5q0 20 5 48q17 -13 40 -13q24 0 41 17t17 47q0 33 -26 53t-62 20q-34 0 -66.5 -16.5t-53.5 -49
t-21 -79.5v-201q0 -68 -43.5 -112.5t-107.5 -62.5q164 -24 164 -149q0 -57 -40.5 -103.5t-118 -74t-185.5 -27.5q-135 0 -280 42z" />
    <glyph glyph-name="z.ss01" unicode="&#xe032;" horiz-adv-x="1022" 
d="M428 -6q-79 10 -136 15t-111 5q-81 0 -155 -14l292 471q-205 0 -279 -32l13 139h522l-296 -509q46 -6 73 -10q18 -2 93 -11.5t136 -13.5q9 -1 25 -1q75 0 112.5 27.5t37.5 66.5q0 28 -19.5 46t-46.5 18q-30 0 -49 -22q-4 19 -4 42q0 48 21 87t59.5 61.5t88.5 22.5
q52 0 93 -25t63.5 -68t22.5 -97q0 -59 -32 -109t-96.5 -81t-157.5 -31q-24 0 -36 1q-80 5 -234 22z" />
    <glyph glyph-name="a.ss02" unicode="&#xe033;" horiz-adv-x="1077" 
d="M585.5 -57.5q-66.5 23.5 -108 69.5t-41.5 110v54h-6q-18 -89 -76.5 -140t-135.5 -51q-46 0 -87.5 21t-67 60t-25.5 91q0 95 62.5 142t152.5 47q52 0 101 -14.5t82 -40.5q-43 17 -82 17q-60 0 -101 -31.5t-41 -83.5q0 -39 23.5 -62t58.5 -23q44 0 85 42.5t57 117.5v118
q0 41 -32.5 65.5t-83.5 24.5q-38 0 -82 -13.5t-87 -40.5l-37 114q56 28 120 43t127 15q116 0 193 -52.5t77 -157.5v-318q0 -53 29.5 -82.5t68.5 -29.5q44 0 69.5 26t25.5 67q0 37 -18 59.5t-45 22.5q-19 0 -41 -14q-5 27 -5 47q0 74 45.5 120t119.5 46q82 0 130.5 -46
t48.5 -119t-44.5 -128.5t-120.5 -85.5t-167 -30q-75 0 -141.5 23.5z" />
    <glyph glyph-name="d.ss02" unicode="&#xe034;" horiz-adv-x="1098" 
d="M626.5 -87q-63.5 23 -110.5 72.5t-64 123.5h-5q-19 -58 -67 -90.5t-107 -32.5q-60 0 -115.5 33.5t-90 101.5t-34.5 165q0 105 34.5 174t88.5 100.5t115 31.5q58 0 106.5 -26t69.5 -69h5v193q0 33 -4.5 53.5t-17.5 37.5q67 0 129.5 11t87.5 40v-755q0 -82 38.5 -120
t88.5 -38q52 0 84 28.5t32 74.5q0 39 -25.5 66.5t-65.5 27.5q-22 0 -39 -13q-10 37 -10 66q0 72 44 118.5t115 46.5q51 0 90.5 -24.5t61.5 -66t22 -90.5q0 -81 -46 -141t-120.5 -91t-156.5 -31q-70 0 -133.5 23zM410.5 108.5q25.5 14.5 41.5 39.5v264q-17 23 -45.5 37
t-58.5 14q-52 0 -86 -43t-34 -130q0 -65 18 -109t47 -65.5t64 -21.5q28 0 53.5 14.5z" />
    <glyph glyph-name="h.ss02" unicode="&#xe035;" horiz-adv-x="1119" 
d="M766.5 -37q-39.5 7 -92.5 21q-47 12 -82 18.5t-72 6.5q-36 0 -78 -9q15 27 18.5 46.5t3.5 64.5v256q0 48 -24 73t-59 25q-41 0 -77 -30.5t-49 -84.5v-239q0 -39 3.5 -62t18.5 -49h-239q15 26 18.5 49t3.5 62v609q0 38 -22 60q66 0 129 11t88 40v-426h6q8 60 40 103t78 65
t96 22q49 0 91 -21t67.5 -62t25.5 -99v-312q0 -51 33 -80.5t77 -29.5q40 0 69 26t29 72q0 30 -16.5 51t-41.5 21q-15 0 -28 -8.5t-19 -23.5q-29 32 -29 77q0 72 45 116t119 44q53 0 95 -26t65.5 -71.5t23.5 -101.5q0 -59 -28 -107t-80.5 -76t-122.5 -28q-44 0 -83.5 7z" />
    <glyph glyph-name="i.ss02" unicode="&#xe036;" horiz-adv-x="307" 
d="M38 0q15 26 18.5 49t3.5 62v386q0 31 -4 47.5t-18 33.5q42 -11 87 -11q53 0 98 15t71 46q-20 -48 -29.5 -85.5t-9.5 -100.5v-331q0 -39 3.5 -62t18.5 -49h-239z" />
    <glyph glyph-name="l.ss02" unicode="&#xe037;" horiz-adv-x="715" 
d="M362.5 -37q-39.5 7 -92.5 21q-47 12 -82 18.5t-72 6.5q-36 0 -78 -9q15 26 18.5 49t3.5 62v608q0 38 -22 60q66 0 129 11t88 40v-729q0 -51 33 -80.5t77 -29.5q40 0 69 26t29 72q0 30 -16.5 51t-41.5 21q-15 0 -28 -8.5t-19 -23.5q-29 32 -29 77q0 72 45 116t119 44
q53 0 95 -26t65.5 -71.5t23.5 -101.5q0 -59 -28 -107t-80.5 -76t-122.5 -28q-44 0 -83.5 7z" />
    <glyph glyph-name="m.ss02" unicode="&#xe038;" horiz-adv-x="1536" 
d="M1183 -29.5q-38 5.5 -90 16.5q-49 10 -85 15.5t-74 5.5q-47 0 -88 -8q15 26 18.5 49t3.5 62v254q0 47 -25 72t-61 25q-29 0 -56.5 -16t-46 -47.5t-20.5 -74.5v-213q0 -39 3.5 -62t18.5 -49h-239q15 26 18.5 49t3.5 62v263q0 43 -24 66.5t-59 23.5q-29 0 -57.5 -16
t-47.5 -48t-21 -76v-213q0 -39 3.5 -62t18.5 -49h-239q15 26 18.5 49t3.5 62v373q0 38 -22 60q66 0 129 11t88 40v-190h6q4 58 35 101t78.5 66t100.5 23q50 0 92 -20.5t67 -61.5t25 -100v-8h6q4 58 35 101t78.5 66t100.5 23q50 0 92 -20.5t67 -61.5t25 -100v-312
q0 -46 32.5 -72.5t77.5 -26.5q44 0 76.5 28.5t32.5 82.5q0 38 -19.5 58.5t-47.5 20.5q-24 0 -43 -14.5t-23 -38.5q-11 34 -11 71q0 74 48.5 121t126.5 47q54 0 96.5 -26t66 -71t23.5 -101q0 -60 -27.5 -109t-81 -77.5t-128.5 -28.5q-41 0 -79 5.5z" />
    <glyph glyph-name="n.ss02" unicode="&#xe039;" horiz-adv-x="1119" 
d="M766.5 -37q-39.5 7 -92.5 21q-47 12 -82 18.5t-72 6.5q-36 0 -78 -9q15 26 18.5 49t3.5 62v256q0 48 -24 73t-59 25q-41 0 -77 -30.5t-49 -84.5v-239q0 -39 3.5 -62t18.5 -49h-239q15 26 18.5 49t3.5 62v373q0 38 -22 60q66 0 129 11t88 40v-190h6q8 60 40 103t78 65
t96 22q49 0 91 -21t67.5 -62t25.5 -99v-312q0 -51 33 -80.5t77 -29.5q40 0 69 26t29 72q0 30 -16.5 51t-41.5 21q-15 0 -28 -8.5t-19 -23.5q-29 32 -29 77q0 72 45 116t119 44q53 0 95 -26t65.5 -71.5t23.5 -101.5q0 -59 -28 -107t-80.5 -76t-122.5 -28q-44 0 -83.5 7z" />
    <glyph glyph-name="o.ss02" unicode="&#xe03a;" horiz-adv-x="737" 
d="M207 22.5q-75 34.5 -122 102t-47 159.5q0 81 30 137t77.5 83t98.5 27q52 0 90 -25.5t44 -68.5q-21 9 -40 9q-47 0 -76.5 -47t-29.5 -114q0 -49 15.5 -93.5t46 -72.5t74.5 -28q42 0 74.5 32.5t50.5 85.5t18 113q0 64 -21.5 122t-67.5 98.5t-115 50.5q56 20 111 20
q79 0 143.5 -39.5t101 -104.5t36.5 -137q0 -116 -45.5 -193t-122 -114t-169.5 -37q-80 0 -155 34.5z" />
    <glyph glyph-name="t.ss02" unicode="&#xe03b;" horiz-adv-x="486" 
d="M281 -308q-92 45 -151.5 138t-59.5 230v429q0 67 -52 89q46 11 97.5 50t92.5 90t57 97l-1 -237h173v-120q-35 14 -75.5 20t-97.5 6l1 -544q0 -82 25 -138.5t64 -84t82 -27.5q34 0 63 18.5t46.5 54t17.5 84.5q0 23 -2 36q25 40 48 56q6 1 19 1q44 0 74.5 -27t30.5 -77
q0 -58 -35.5 -101t-95 -65.5t-130.5 -22.5q-99 0 -191 45z" />
    <glyph glyph-name="u.ss02" unicode="&#xe03c;" horiz-adv-x="1108" 
d="M618.5 -53q-71.5 30 -113.5 86.5t-42 132.5v24h-6q-8 -60 -39.5 -103t-77.5 -65t-96 -22q-49 0 -91 21t-67.5 62t-25.5 99v302q0 38 -22 60q66 0 129 11t88 40v-367q0 -47 23.5 -72t58.5 -25q40 0 76 29t50 81v243q0 38 -22 60q66 0 129 11t88 40v-497q0 -47 18 -80
t46.5 -49t59.5 -16q43 0 73.5 27.5t30.5 75.5q0 36 -21 61.5t-56 25.5q-10 0 -15 -1q-21 23 -32 27q-2 18 -2 25q0 68 43.5 109.5t113.5 41.5q73 0 118 -47.5t45 -119.5q0 -67 -35 -127t-103.5 -97t-164.5 -37q-87 0 -158.5 30z" />
    <glyph glyph-name="x.ss02" unicode="&#xe03d;" horiz-adv-x="682" 
d="M553 -319.5q-64 64.5 -100 178.5t-36 259q0 82 14 178h-5l-207 -302h-222q22 15 41 37t39 52l83 121q47 113 47 216q0 93 -35.5 166t-91.5 112.5t-116 39.5q-68 0 -118 -50q-32 17 -50.5 49.5t-18.5 70.5q0 39 19 72.5t57 54t92 20.5q89 0 165.5 -51.5t122.5 -148.5
t46 -229q0 -94 -25 -198h5l178 249l200 -4l-114 -155q-51 -116 -51 -238q0 -108 39 -199t102 -144t132 -53q68 0 129 61q-3 -55 -19 -97q-12 -56 -51.5 -94t-105.5 -38q-81 0 -145 64.5z" />
    <glyph glyph-name="a.ss03" unicode="&#xe03e;" horiz-adv-x="674" 
d="M133 9q-45 24 -70 66t-25 94q0 56 26 100t73 69.5t107 25.5q70 0 107.5 -34t37.5 -81q0 -26 -11.5 -49t-32.5 -37q0 36 -20.5 57t-50.5 21q-34 0 -58 -22t-24 -59q0 -34 27 -58t69 -24q72 0 116.5 52t44.5 153q0 80 -43.5 132.5t-119.5 52.5q-79 0 -151 -42l-42 112
q57 26 120 40.5t123 14.5q78 0 142 -25.5t102 -78t38 -129.5v-262q0 -32 6 -53t24 -45h-112q-48 0 -70.5 31.5t-34.5 72.5q-71 -119 -195 -119q-58 0 -103 24z" />
    <glyph glyph-name="d.ss03" unicode="&#xe03f;" horiz-adv-x="709" 
d="M157.5 19.5q-55.5 33.5 -90 101.5t-34.5 165q0 105 34.5 174t88.5 100.5t115 31.5q58 0 106.5 -26t69.5 -69h5v171q0 92 44 156.5t112.5 96t141.5 31.5q84 0 141.5 -39.5t57.5 -109.5q0 -51 -34 -80.5t-80 -29.5q-50 0 -84.5 34.5t-32.5 93.5q29 -2 47 13t18 37
q0 17 -12 29t-33 12q-37 0 -64 -31.5t-27 -99.5v-683q0 -33 8.5 -57t31.5 -41h-112q-62 0 -92.5 33.5t-30.5 75.5h-5q-19 -58 -67 -90.5t-107 -32.5q-60 0 -115.5 33.5zM410.5 108.5q25.5 14.5 41.5 39.5v265q-17 23 -45.5 36.5t-58.5 13.5q-52 0 -86 -43t-34 -130
q0 -65 18 -109t47 -65.5t64 -21.5q28 0 53.5 14.5z" />
    <glyph glyph-name="h.ss03" unicode="&#xe040;" horiz-adv-x="718" 
d="M620 -348q-68 32 -112 96.5t-44 156.5v462q0 48 -24 73t-59 25q-41 0 -77 -30.5t-49 -84.5v-239q0 -39 3.5 -62t18.5 -49h-239q15 26 18.5 49t3.5 62v455q0 32 -5 48.5t-17 27.5q34 0 78.5 15t83.5 47.5t55 81.5v-381h6q8 60 40 103t78 65t96 22q49 0 91 -21t67.5 -62
t25.5 -99v-628q0 -64 27 -94t64 -30q21 0 32.5 12t11.5 29q0 22 -17.5 37t-46.5 13q-3 61 32.5 94.5t84.5 33.5q46 0 80 -29.5t34 -81.5q0 -46 -27.5 -80t-73 -51.5t-99.5 -17.5q-73 0 -141 32z" />
    <glyph glyph-name="l.ss03" unicode="&#xe041;" horiz-adv-x="314" 
d="M38 0q15 26 18.5 49t3.5 62v673q0 63 -27.5 93.5t-64.5 30.5q-21 0 -32.5 -12t-11.5 -29q0 -22 17.5 -37t46.5 -13q3 -61 -32.5 -94.5t-84.5 -33.5q-46 0 -80 29.5t-34 81.5q0 46 27.5 80t73 51.5t99.5 17.5q73 0 141.5 -32t112.5 -96.5t44 -156.5v-553q0 -39 3.5 -62
t18.5 -49h-239z" />
    <glyph glyph-name="t.ss03" unicode="&#xe042;" horiz-adv-x="990" 
d="M664.5 -90q-43.5 44 -43.5 115q0 21 2 32q17 -8 36 -8q41 0 65 25.5t24 58.5q0 28 -19 47.5t-56 19.5q-36 0 -68.5 -22t-82.5 -68q-43 -40 -75.5 -65t-74.5 -42.5t-91 -17.5q-94 0 -152.5 59.5t-58.5 178.5v266q0 67 -52 89q46 11 97.5 50t92.5 90t57 97l-1 -237h173
v-120q-35 14 -75.5 20t-97.5 6l1 -266q0 -41 23 -65t62 -24q32 0 68 16q35 7 66.5 21t74.5 37q52 28 89 42t77 14q66 0 120.5 -27t86 -74.5t31.5 -108.5q0 -50 -23.5 -92t-65 -66.5t-93.5 -24.5q-73 0 -116.5 44z" />
    <glyph glyph-name="u.ss03" unicode="&#xe043;" horiz-adv-x="726" 
d="M153 21q-42 21 -67.5 62t-25.5 99v302q0 38 -22 60q66 0 129 11t88 40v-367q0 -47 23.5 -72t58.5 -25q40 0 76 29.5t50 80.5v379q0 92 44 156.5t112.5 96.5t141.5 32q54 0 99.5 -17.5t72.5 -51.5t27 -80q0 -52 -34 -81.5t-80 -29.5q-49 0 -84.5 33.5t-32.5 94.5
q29 -2 46.5 13t17.5 37q0 17 -11.5 29t-32.5 12q-37 0 -64 -30t-27 -94v-642q0 -33 8.5 -57t31.5 -41h-123q-59 0 -85.5 35t-26.5 93v62h-6q-8 -60 -39.5 -103t-77.5 -65t-96 -22q-49 0 -91 21z" />
    <glyph glyph-name="a.ss04" unicode="&#xe044;" horiz-adv-x="690" 
d="M130.5 6q-41.5 21 -67 62t-25.5 97q0 61 30 101.5t79 60t106 19.5q47 0 98 -13.5t85 -35.5v89q0 41 -32.5 65.5t-83.5 24.5q-38 0 -82 -13.5t-87 -40.5l-37 115q56 28 120 43t127 15q116 0 193 -52.5t77 -157.5v-305q0 -26 6 -44.5t24 -35.5h-124q-101 0 -101 107v69h-4
q-18 -89 -77 -140t-137 -51q-46 0 -87.5 21zM371.5 143q40.5 33 60.5 91q-26 18 -57.5 27.5t-61.5 9.5q-44 0 -72.5 -21.5t-28.5 -63.5q0 -36 21.5 -56t55.5 -20q42 0 82.5 33z" />
    <glyph glyph-name="d.ss04" unicode="&#xe045;" horiz-adv-x="718" 
d="M157.5 19.5q-55.5 33.5 -90 101.5t-34.5 165q0 105 34.5 174t88.5 100.5t115 31.5q58 0 106.5 -26t69.5 -69h5v291q0 63 -27 93.5t-64 30.5q-21 0 -33 -12t-12 -29q0 -22 18 -37t47 -13q3 -61 -32.5 -94.5t-85.5 -33.5q-45 0 -79 29.5t-34 80.5q0 70 57.5 109.5
t141.5 39.5q73 0 141.5 -31.5t112.5 -96t44 -156.5v-570q0 -33 8.5 -57t31.5 -41h-112q-62 0 -92.5 33.5t-30.5 75.5h-5q-19 -58 -67 -90.5t-107 -32.5q-60 0 -115.5 33.5zM410.5 108.5q25.5 14.5 41.5 39.5v264q-17 23 -45.5 37t-58.5 14q-52 0 -86 -43t-34 -130
q0 -65 18 -109t47 -65.5t64 -21.5q28 0 53.5 14.5z" />
    <glyph glyph-name="i.loclTRK" horiz-adv-x="314" 
d="M38 0q15 26 18.5 49t3.5 62v386q0 38 -22 60q66 0 129 11t88 40v-497q0 -39 3.5 -62t18.5 -49h-239zM85.5 691q-28.5 29 -28.5 71t28.5 71t71.5 29q42 0 71 -29t29 -71t-29 -71t-71 -29q-43 0 -71.5 29z" />
    </font>
</defs>
</svg>
