<svg xmlns="http://www.w3.org/2000/svg">
<defs>
<font id="Benoa-Light" horiz-adv-x="0" >
  <font-face 
    font-family="Benoa Light"
    font-weight="300"
    font-stretch="normal"
    units-per-em="2048"
    panose-1="2 2 10 3 6 3 3 6 4 3"
    ascent="1638"
    descent="-410"
    x-height="1184"
    cap-height="1669"
    bbox="-1037.06 -829 2871 2261"
    underline-thickness="40"
    underline-position="-245"
    unicode-range="U+0020-E045"
  />
<missing-glyph horiz-adv-x="1122" 
d="M815 680l-6 -8q-51 -2 -103.5 5.5t-100 23t-77.5 44.5t-30 66q0 45 45.5 73.5t101.5 28.5q63 0 107.5 -31t44.5 -77q0 -31 -26.5 -52.5t-74.5 -21.5q-46 0 -73 21.5t-29 48.5q-3 30 17.5 45.5t47.5 15.5q50 0 50 -26v-5q0 -7 -5.5 -11.5t-11.5 -4.5q4 0 4 6q0 4 -4.5 8.5
t-11.5 4.5q-16 0 -16 -19q0 -20 30 -20q17 0 30.5 9.5t12.5 26.5q-1 24 -25.5 38t-56.5 14q-35 0 -59.5 -18.5t-24.5 -51.5q0 -45 37.5 -76.5t91 -44.5t115.5 -12zM489 145q-46 0 -87 11.5t-71 38.5t-30 65q0 71 85 111.5t202 40.5h37q-9 15 -9 34q0 36 23.5 88t42 84.5
t12.5 32.5q-5 0 -26 -29t-48 -83.5t-40 -108.5q-2 0 -12 1t-17 1q-39 0 -57 -6q20 44 51 99.5t49 86.5t16 31q-5 0 -26 -24.5t-57 -78t-70 -116.5q-64 -12 -116 -39.5t-75 -52.5l-4 6q160 135 250 289q-66 -90 -176 -186.5t-172 -96.5q-55 0 -55 78q0 75 38 143
q44 81 113.5 143t120.5 62q58 0 92.5 -16.5t36.5 -40.5q2 -18 -16 -37t-50 -31l-61 10q66 66 66 90q0 9 -11 9q-36 0 -94 -68t-101.5 -150.5t-43.5 -121.5q0 -25 20 -25q41 0 135.5 81.5t153.5 166.5q17 25 45 25q12 0 18.5 -5.5t3.5 -11.5q-3 -8 -17 -32.5t-21 -39.5
q67 82 81 82q32 0 32 -7q0 -1 -1 -3l-20 -41q44 55 65 55q17 0 48.5 -8.5t25.5 -21.5q-66 -124 -77 -173q-7 -30 -3 -50q109 -19 109 -52q0 -9 -6 -18.5t-13 -9.5q-79 0 -129 53q4 -2 16 -4.5t19 -5.5q11 -12 37 -22t44 -12t21 3q0 6 -28 19t-78 25.5t-96 12.5
q-96 0 -145.5 -40.5t-49.5 -94.5q0 -42 34.5 -69t82.5 -27q40 0 64.5 15t23.5 46q-4 37 -53 37q-33 0 -33 -20q0 -8 7 -13.5t17 -5.5q9 0 9 6q0 11 -13 11q3 6 13 6t18 -6.5t8 -16.5q0 -28 -51 -28q-39 0 -64.5 19t-25.5 52q0 32 27.5 57t76.5 25q47 0 84.5 -23.5

<glyph glyph-name=".notdef" horiz-adv-x="1122" 
d="M815 680l-6 -8q-51 -2 -103.5 5.5t-100 23t-77.5 44.5t-30 66q0 45 45.5 73.5t101.5 28.5q63 0 107.5 -31t44.5 -77q0 -31 -26.5 -52.5t-74.5 -21.5q-46 0 -73 21.5t-29 48.5q-3 30 17.5 45.5t47.5 15.5q50 0 50 -26v-5q0 -7 -5.5 -11.5t-11.5 -4.5q4 0 4 6q0 4 -4.5 8.5
t-11.5 4.5q-16 0 -16 -19q0 -20 30 -20q17 0 30.5 9.5t12.5 26.5q-1 24 -25.5 38t-56.5 14q-35 0 -59.5 -18.5t-24.5 -51.5q0 -45 37.5 -76.5t91 -44.5t115.5 -12zM489 145q-46 0 -87 11.5t-71 38.5t-30 65q0 71 85 111.5t202 40.5h37q-9 15 -9 34q0 36 23.5 88t42 84.5
t12.5 32.5q-5 0 -26 -29t-48 -83.5t-40 -108.5q-2 0 -12 1t-17 1q-39 0 -57 -6q20 44 51 99.5t49 86.5t16 31q-5 0 -26 -24.5t-57 -78t-70 -116.5q-64 -12 -116 -39.5t-75 -52.5l-4 6q160 135 250 289q-66 -90 -176 -186.5t-172 -96.5q-55 0 -55 78q0 75 38 143
q44 81 113.5 143t120.5 62q58 0 92.5 -16.5t36.5 -40.5q2 -18 -16 -37t-50 -31l-61 10q66 66 66 90q0 9 -11 9q-36 0 -94 -68t-101.5 -150.5t-43.5 -121.5q0 -25 20 -25q41 0 135.5 81.5t153.5 166.5q17 25 45 25q12 0 18.5 -5.5t3.5 -11.5q-3 -8 -17 -32.5t-21 -39.5
q67 82 81 82q32 0 32 -7q0 -1 -1 -3l-20 -41q44 55 65 55q17 0 48.5 -8.5t25.5 -21.5q-66 -124 -77 -173q-7 -30 -3 -50q109 -19 109 -52q0 -9 -6 -18.5t-13 -9.5q-79 0 -129 53q4 -2 16 -4.5t19 -5.5q11 -12 37 -22t44 -12t21 3q0 6 -28 19t-78 25.5t-96 12.5
q-96 0 -145.5 -40.5t-49.5 -94.5q0 -42 34.5 -69t82.5 -27q40 0 64.5 15t23.5 46q-4 37 -53 37q-33 0 -33 -20q0 -8 7 -13.5t17 -5.5q9 0 9 6q0 11 -13 11q3 6 13 6t18 -6.5t8 -16.5q0 -28 -51 -28q-39 0 -64.5 19t-25.5 52q0 32 27.5 57t76.5 25q47 0 84.5 -23.5
t40.5 -64.5q4 -55 -45 -85t-121 -30zM797 408q-35 0 -55.5 17.5t-14.5 49.5q14 55 47.5 117t86 111t104.5 49q20 0 35.5 -7t15.5 -14q0 -21 -36 -40.5t-75 -26.5q-39 -55 -68.5 -120t-29.5 -98q0 -20 14 -20q28 0 58 21.5t41 46.5h34q-16 -29 -65 -57.5t-92 -28.5zM920 680
q59 10 83 39q12 17 -4 18q-35 0 -79 -57z" />
    <glyph glyph-name=".null" 
 />
    <glyph glyph-name="nonmarkingreturn" horiz-adv-x="682" 
 />
    <glyph glyph-name="space" unicode=" " horiz-adv-x="454" 
 />
    <glyph glyph-name="exclam" unicode="!" horiz-adv-x="514" 
d="M279 459h-46q4 93 -35.5 503t-39.5 539q0 82 31 142.5t75 60.5q45 0 77 -60t32 -143q0 -135 -48 -544.5t-46 -497.5zM256 -33q-61 0 -104 43t-43 105q0 64 42.5 107.5t104.5 43.5q65 0 108.5 -43.5t43.5 -107.5q0 -62 -44 -105t-108 -43z" />
    <glyph glyph-name="quotedbl" unicode="&#x22;" horiz-adv-x="735" 
d="M524 1669l-143 -549h-72q21 94 27 197l-51 -197h-74q23 118 25.5 266.5t-25.5 282.5h313z" />
    <glyph glyph-name="numbersign" unicode="#" horiz-adv-x="1492" 
d="M1384 881l-47 -105h-293l-94 -241h316l-47 -105h-310l-121 -315h-104l121 315h-244l-121 -315h-104l121 315h-348l47 105h342l94 241h-365l47 105h357l119 307h104l-119 -307h244l119 307h104l-119 -307h301zM602 535h244l94 241h-244z" />
    <glyph glyph-name="dollar" unicode="$" horiz-adv-x="1613" 
d="M877 -135h-140v139q-163 6 -319.5 58t-286.5 149l29 197q102 -79 259 -133t318 -66v608q-59 10 -102.5 18t-99.5 21.5t-97 27t-88 34t-80 43.5t-65.5 54t-52 66.5t-31.5 81t-12 97.5q0 104 49 186.5t136.5 136.5t198.5 86.5t244 42.5v111h140v-107q280 -3 530 -90
l-27 -182q-90 49 -226 79.5t-277 35.5v-574q59 -10 102 -17.5t99.5 -20.5t97.5 -26.5t88 -33.5t80 -43t65.5 -54.5t52 -67.5t31.5 -82.5t12 -100.5q0 -153 -86.5 -271t-226.5 -182.5t-315 -79.5v-141zM737 1008v546q-120 -8 -212.5 -39.5t-152 -95.5t-59.5 -153
q0 -44 14.5 -79t45.5 -60.5t65.5 -43.5t88.5 -32.5t99 -23.5t111 -19zM877 793v-586q120 6 213.5 42t153 110.5t59.5 177.5q0 41 -14.5 74.5t-46.5 58.5t-66 43t-89 33.5t-99 25t-111 21.5z" />
    <glyph glyph-name="percent" unicode="%" horiz-adv-x="1892" 
d="M571 -29h-139l785 1569q-167 -20 -390 16q74 -113 74 -290q0 -125 -43 -221t-134 -153.5t-220 -57.5q-192 0 -293.5 119.5t-101.5 312.5q0 214 100 325t301 111q67 0 185 -17t220 -33t241 -14.5t261 31.5zM500 987q25 0 53.5 6.5t62.5 25.5t60.5 48t44.5 80.5t18 116.5
q0 139 -58 205t-177 75q-113 0 -174.5 -71.5t-61.5 -208.5q0 -277 232 -277zM1389 -37q-192 0 -294 119.5t-102 312.5q0 213 99 324.5t297 111.5t297.5 -111.5t99.5 -324.5q0 -125 -43 -221t-134 -153.5t-220 -57.5zM1384 117q26 0 54.5 6.5t62.5 25.5t60.5 48.5t44.5 80
t18 115.5q0 79 -20 136.5t-55.5 88.5t-76 44.5t-88.5 13.5q-44 0 -82.5 -14t-72.5 -44.5t-54 -88t-20 -136.5q0 -276 229 -276z" />
    <glyph glyph-name="ampersand" unicode="&#x26;" horiz-adv-x="1687" 
d="M528 -35q-189 0 -304 132.5t-115 332.5q0 122 42.5 235t134 209.5t222.5 151.5v6q-143 155 -143 326q0 151 114 247.5t295 96.5q178 0 277.5 -84.5t99.5 -206.5q0 -72 -38 -133.5t-103 -85.5q14 52 14 102q0 114 -68 182t-157 68q-121 0 -177.5 -67.5t-56.5 -161.5
q0 -82 35 -133l350 -475q79 123 188.5 203.5t223.5 80.5q101 0 199 -67v-113q-314 111 -506 -252l395 -559h-283q-5 46 -20.5 85t-26.5 54t-37 47l-120 172q-34 -70 -63 -121.5t-70.5 -105.5t-84 -88t-98.5 -56t-119 -22zM543 156q28 0 54.5 11.5t54 39t48 51.5t50 72.5
t45.5 76.5t48 87q7 13 11 20l-272 379q-83 -40 -142.5 -114.5t-86.5 -158t-27 -169.5q0 -126 57.5 -210.5t159.5 -84.5z" />
    <glyph glyph-name="quotesingle" unicode="'" horiz-adv-x="421" 
d="M186 1120h-77q13 71 20 164t3 202.5t-23 182.5h204z" />
    <glyph glyph-name="parenleft" unicode="(" horiz-adv-x="956" 
d="M848 -23v-104q-185 0 -319 51.5t-230 166t-143 304.5t-47 461q0 211 31 372t89 271.5t147.5 180.5t200.5 101t254 31v-104q-59 0 -91.5 -2t-93.5 -18t-98.5 -46.5t-85 -93t-74 -150.5t-45.5 -226.5t-19 -315.5q0 -140 11.5 -256.5t30 -201.5t49 -152t59.5 -110.5t71 -75
t74.5 -47t79.5 -24.5t76 -10.5t73 -1.5z" />
    <glyph glyph-name="parenright" unicode=")" horiz-adv-x="956" 
d="M109 -127v104q44 0 73.5 1.5t76 10.5t79.5 24.5t75 47t71.5 75t60 110.5t48.5 152t30 201.5t12 256.5q0 138 -12 253.5t-29 198t-48 148t-58 107t-70 70.5t-72.5 43.5t-77.5 22t-73 8.5t-70 1v104q143 0 254.5 -31t201.5 -101t148.5 -180.5t89.5 -271.5t31 -372
q0 -270 -47.5 -460.5t-143.5 -305t-230.5 -166t-319.5 -51.5z" />
    <glyph glyph-name="asterisk" unicode="*" horiz-adv-x="716" 
d="M446 1227h162v-70h-166l119 -119l-49 -51l-119 119v-166h-69v166l-117 -119l-49 51l118 119h-167v70h163l-114 114l49 52l117 -119v168h69v-168l119 119l49 -52z" />
    <glyph glyph-name="plus" unicode="+" horiz-adv-x="966" 
d="M537 258h-105v324h-323v106h323v322h105v-322h323v-106h-323v-324z" />
    <glyph glyph-name="comma" unicode="," horiz-adv-x="507" 
d="M176 -315h-106l129 483h202z" />
    <glyph glyph-name="hyphen" unicode="-" horiz-adv-x="870" 
d="M764 582h-655v104h655v-104z" />
    <glyph glyph-name="period" unicode="." horiz-adv-x="440" 
d="M219 -18q-47 0 -78.5 33t-31.5 81q0 46 31.5 79.5t78.5 33.5t80 -33.5t33 -79.5q0 -47 -33 -80.5t-80 -33.5z" />
    <glyph glyph-name="slash" unicode="/" horiz-adv-x="792" 
d="M217 -195h-108l469 1864h108z" />
    <glyph glyph-name="zero" unicode="0" horiz-adv-x="1398" 
d="M700 -35q-146 0 -260 66t-185.5 183t-108.5 273t-37 342q0 426 147.5 649.5t443.5 223.5t445 -223.5t149 -649.5q0 -186 -37.5 -342t-109.5 -273t-186.5 -183t-260.5 -66zM700 137q23 0 46.5 4t62.5 20t72.5 43t70.5 79.5t63 123t43 179.5t17 243q0 161 -19 284t-52 201
t-81.5 127.5t-102.5 69t-120 19.5q-65 0 -118.5 -19.5t-102 -69t-81.5 -127.5t-52.5 -201t-19.5 -284q0 -134 16 -243t40.5 -179.5t60 -123t68.5 -79.5t72.5 -43t64.5 -20t52 -4z" />
    <glyph glyph-name="one" unicode="1" horiz-adv-x="583" 
d="M475 0h-305q21 38 31.5 78t12 67t1.5 82v918q0 76 -1.5 115t-9 107.5t-28 116.5t-53.5 81l307 104v-1442q0 -55 1.5 -82t12 -67t31.5 -78z" />
    <glyph glyph-name="two" unicode="2" horiz-adv-x="1318" 
d="M1214 0h-1091q0 97 30.5 188.5t82 167t118.5 147t141 135t147.5 125t140.5 122t118.5 120t82 126t30.5 133.5q0 78 -44 137.5t-122.5 88t-177.5 28.5t-219.5 -41.5t-237.5 -120.5l-31 203q75 45 160 77.5t172 50t174 18.5t166 -13.5t147 -49t117.5 -85t78 -125.5
t28.5 -166q0 -95 -41 -185.5t-107.5 -165t-147.5 -146t-165.5 -140.5t-157 -137t-125.5 -148t-67 -160q202 0 323.5 2t276 15.5t221.5 38.5z" />
    <glyph glyph-name="three" unicode="3" horiz-adv-x="1382" 
d="M680 -23q-200 0 -422 89l4 178q221 -99 400 -99q97 0 176 28.5t128 75.5t75 105t26 121q0 62 -31 125t-85.5 115.5t-135.5 90t-174 46.5v106q171 31 273 131.5t102 210.5q0 99 -86.5 165.5t-249.5 66.5q-159 0 -342 -66l-12 185q199 55 368 55q129 0 230.5 -32t163.5 -86
t94 -121t32 -142q0 -139 -102.5 -252.5t-280.5 -144.5v-21q135 -10 236 -74t151 -160t50 -208q0 -96 -39.5 -183.5t-112 -155.5t-185.5 -108.5t-251 -40.5z" />
    <glyph glyph-name="four" unicode="4" horiz-adv-x="1456" 
d="M1208 0h-305q21 38 31.5 78t12 67t1.5 82v166h-778v139l834 1137h159v-1134h187v-142h-187v-166q0 -55 1.5 -82t12 -67t31.5 -78zM948 1358l-592 -823h592v823z" />
    <glyph glyph-name="five" unicode="5" horiz-adv-x="1384" 
d="M512 -20q-174 0 -371 57v170q177 -60 342 -60q136 0 247.5 44.5t182 118.5t108.5 166t38 190q0 178 -120 288.5t-316 110.5q-177 0 -369 -94l-68 106l76 592h875l20 -231q-11 11 -25.5 20.5t-34 16t-35 11t-42.5 7.5t-41 5t-46 2.5t-43 0.5h-46h-41h-412l-47 -344
q169 62 322 62q139 0 249.5 -42t182.5 -117t109.5 -177.5t37.5 -225.5q0 -103 -29.5 -201t-90.5 -184.5t-146.5 -151.5t-206 -102.5t-260.5 -37.5z" />
    <glyph glyph-name="six" unicode="6" horiz-adv-x="1343" 
d="M700 -45q-121 0 -226.5 54t-187.5 157.5t-129.5 270t-47.5 376.5q0 186 43.5 346t124.5 280.5t206.5 189.5t280.5 69q203 0 401 -144l-51 -141q-160 129 -336 129q-96 0 -180.5 -40.5t-151.5 -118t-106 -203t-39 -283.5h31q66 110 180.5 168.5t249.5 58.5
q77 0 148.5 -20.5t136 -65.5t111.5 -110.5t73.5 -162.5t23.5 -214q-2 -129 -47.5 -241t-120.5 -189.5t-176 -121.5t-211 -44zM719 113q65 0 123 26t106 76.5t77.5 134t33.5 189.5t-25 190.5t-81 135t-116 76.5t-135 26q-151 0 -264 -103t-112 -278q1 -110 36 -201.5
t91 -149.5t125 -90t141 -32z" />
    <glyph glyph-name="seven" unicode="7" horiz-adv-x="1054" 
d="M508 0h-215l479 1409v84h-424q-122 0 -223 -41v217h842v-258z" />
    <glyph glyph-name="eight" unicode="8" horiz-adv-x="1306" 
d="M647 -39q-113 0 -213 34.5t-177.5 99.5t-123 168.5t-45.5 232.5q0 185 84 306t213 169q-97 48 -153 135t-56 207q0 191 116 292t331 101q218 0 333 -100.5t115 -292.5q0 -116 -51.5 -201t-140.5 -135q159 -48 239 -164.5t80 -316.5q0 -130 -44.5 -234t-121.5 -168.5
t-175 -98.5t-210 -34zM623 1032q110 0 190 74t80 207q0 134 -78 207t-192 73q-113 0 -191 -73t-78 -207q0 -90 40 -155.5t100 -95.5t129 -30zM643 96q142 0 241 106t99 296q0 94 -28 169t-75.5 122t-108 71.5t-128.5 24.5q-144 0 -242 -101.5t-98 -285.5q0 -190 98.5 -296
t241.5 -106z" />
    <glyph glyph-name="nine" unicode="9" horiz-adv-x="1341" 
d="M543 -20q-191 0 -361 92l47 170q142 -95 297 -95q98 0 187.5 40.5t157.5 113.5t108.5 182.5t40.5 239.5h-8q-38 -127 -149 -198.5t-245 -71.5q-75 0 -147 23t-137.5 73t-115.5 121t-79.5 174t-29.5 225q0 150 44 272.5t120 200.5t174 120t208 42q120 0 223 -49.5
t183 -147t126 -258t46 -366.5q0 -223 -54 -397.5t-148.5 -283.5t-218.5 -165.5t-269 -56.5zM666 604q66 0 126 27.5t107.5 78.5t76 132.5t28.5 181.5q0 126 -30.5 226t-81 160t-112.5 91t-129 31q-66 0 -127.5 -29t-110.5 -83t-78.5 -138.5t-29.5 -187.5q0 -120 31 -216
t83 -154.5t115.5 -89t131.5 -30.5z" />
    <glyph glyph-name="colon" unicode=":" horiz-adv-x="440" 
d="M219 729q-47 0 -78.5 33.5t-31.5 81.5q0 46 31.5 79t78.5 33t80 -33t33 -79q0 -47 -33 -81t-80 -34zM219 -18q-47 0 -78.5 33t-31.5 81q0 46 31.5 79.5t78.5 33.5t80 -33.5t33 -79.5q0 -47 -33 -80.5t-80 -33.5z" />
    <glyph glyph-name="semicolon" unicode=";" horiz-adv-x="544" 
d="M313 451q-49 0 -80.5 33t-31.5 81q0 47 31.5 80t80.5 33q46 0 79.5 -33.5t33.5 -79.5q0 -47 -33.5 -80.5t-79.5 -33.5zM176 -315h-106l129 483h202z" />
    <glyph glyph-name="less" unicode="&#x3c;" horiz-adv-x="890" 
d="M784 381v-135l-675 409v9l675 401v-135l-456 -271v-2z" />
    <glyph glyph-name="equal" unicode="=" horiz-adv-x="966" 
d="M860 723h-751v106h751v-106zM860 434h-751v107h751v-107z" />
    <glyph glyph-name="greater" unicode="&#x3e;" horiz-adv-x="890" 
d="M784 655l-675 -409v135l454 276v2l-454 271v135l675 -401v-9z" />
    <glyph glyph-name="question" unicode="?" horiz-adv-x="954" 
d="M344 313h-80q-12 49 -12 97q0 70 22.5 140.5t59 131.5t80.5 122t88 120.5t80.5 117.5t59 123t22.5 127q0 119 -72.5 188.5t-188.5 69.5q-126 0 -266 -86l-28 154q147 84 311 84q184 0 305 -104t121 -267q0 -60 -15.5 -119t-36 -103.5t-59.5 -100t-66.5 -88.5t-76.5 -89
q-45 -53 -65 -78t-58 -74.5t-55.5 -84.5t-38 -83.5t-27.5 -97t-4 -100.5zM322 -18q-47 0 -80 33.5t-33 80.5q0 46 33 79.5t80 33.5q46 0 79 -33.5t33 -79.5q0 -47 -33 -80.5t-79 -33.5z" />
    <glyph glyph-name="at" unicode="@" horiz-adv-x="1900" 
d="M1087 -125q-153 0 -293.5 28t-266.5 90t-218 151.5t-146 222t-54 292.5t68.5 299.5t185.5 236.5t277.5 152.5t340.5 55.5q156 0 289.5 -36.5t228.5 -99.5t162.5 -146.5t100 -177.5t32.5 -193q0 -189 -113 -318t-292 -129q-120 0 -197.5 73t-77.5 214h-10
q-10 -123 -80.5 -188.5t-165.5 -65.5q-106 0 -185 77t-79 208q0 146 115 232.5t278 86.5q88 0 162 -30.5t151 -94.5q-67 -149 -67 -237q0 -65 40.5 -105.5t96.5 -40.5q104 0 168 83t64 206q0 100 -33.5 184t-92 143.5t-137.5 101t-168.5 61.5t-185.5 20q-130 0 -251.5 -39
t-218 -110t-154.5 -182t-58 -245q0 -125 43 -227.5t116 -172t172.5 -117.5t211 -69.5t233.5 -21.5q186 0 365.5 47.5t314.5 134.5v-202q-139 -73 -314.5 -112.5t-357.5 -39.5zM852 500q69 0 152 67.5t157 200.5q-56 28 -129.5 29t-136.5 -19.5t-106.5 -61t-43.5 -89.5
q0 -58 29.5 -92.5t77.5 -34.5z" />
    <glyph glyph-name="A" unicode="A" horiz-adv-x="1548" 
d="M403 0h-315q21 32 37 64.5t23 51.5t19.5 56t18.5 55l445 1280q15 42 16 76t-12 86h293q-23 -91 2 -162l450 -1280q2 -5 13 -39t15.5 -46t16 -40t24.5 -52t30 -50h-318q24 61 25.5 111t-19.5 116l-112 338h-545l-113 -338q-21 -66 -19.5 -116t25.5 -111zM782 1405
l-237 -713h475z" />
    <glyph glyph-name="B" unicode="B" horiz-adv-x="1273" 
d="M629 0h-520q21 38 31.5 78t12 67t1.5 82v1215q0 55 -1.5 82t-12 67t-31.5 78h477q115 0 207 -33t148.5 -88.5t86 -124t29.5 -143.5q0 -133 -94.5 -238.5t-260.5 -123.5v-11q146 0 253 -57t159.5 -149.5t52.5 -206.5q0 -92 -33 -178t-96.5 -157.5t-169.5 -115t-239 -43.5z
M369 1552v-589q126 -13 222.5 6.5t154.5 64t87 106t29 136.5q0 164 -131 232t-362 44zM369 842v-721q90 -7 174 -4.5t158.5 28.5t130 69t88 117.5t32.5 172.5q0 68 -21 123t-56.5 90.5t-83 63t-101 39.5t-110 20t-110 6t-101.5 -4z" />
    <glyph glyph-name="C" unicode="C" horiz-adv-x="1245" 
d="M768 -31q-135 0 -254 58t-209.5 166t-143 274.5t-52.5 370.5q0 216 48.5 384t135 272t200 157t248.5 53q201 0 392 -107l-21 -184q-179 117 -346 117q-95 0 -174 -42t-139.5 -124.5t-94.5 -217t-34 -308.5q0 -330 131 -509t342 -179q149 0 311 96l25 -174
q-183 -103 -365 -103z" />
    <glyph glyph-name="D" unicode="D" horiz-adv-x="1368" 
d="M586 0h-477q21 38 31.5 78t12 67t1.5 82v1215q0 55 -1.5 82t-12 67t-31.5 78h473q334 0 508 -198.5t174 -579.5q0 -432 -173 -661.5t-505 -229.5zM369 1536v-1409q352 -32 516 164t164 610q0 98 -12.5 180.5t-34.5 144.5t-55.5 111.5t-71 83.5t-85.5 58t-96 37t-105 19
t-108.5 5.5t-111.5 -4.5z" />
    <glyph glyph-name="E" unicode="E" horiz-adv-x="1165" 
d="M1036 0h-927q21 38 31.5 78t12 67t1.5 82v1215q0 55 -1.5 82t-12 67t-31.5 78h927l21 -209q-219 58 -688 58v-500h483l10 -105h-493v-759q473 0 688 57z" />
    <glyph glyph-name="F" unicode="F" horiz-adv-x="1165" 
d="M414 0h-305q21 38 31.5 78t12 67t1.5 82v1215q0 55 -1.5 82t-12 67t-31.5 78h927l21 -219q-256 68 -688 68v-508h483l10 -107h-493v-676q0 -55 1.5 -82t12 -67t31.5 -78z" />
    <glyph glyph-name="G" unicode="G" horiz-adv-x="1380" 
d="M1272 0h-457q-122 0 -224 26.5t-173.5 71t-127 108.5t-89 134t-55 152.5t-29.5 158.5t-8 158q0 441 185.5 666t508.5 225q199 0 428 -90l-27 -205q-211 119 -391 119q-104 0 -191 -42.5t-154 -127.5t-104.5 -225.5t-37.5 -325.5q0 -138 27 -252t71.5 -190.5t104.5 -130.5
t124 -80t133 -31h220v391q0 89 -13.5 157t-56.5 154h336q-31 -64 -41 -129t-10 -166v-317q0 -148 51 -209z" />
    <glyph glyph-name="H" unicode="H" horiz-adv-x="1384" 
d="M414 0h-305q21 38 31.5 78t12 67t1.5 82v1215q0 55 -1.5 82t-12 67t-31.5 78h305q-21 -38 -31.5 -78t-12 -67t-1.5 -82v-467h649v467q0 55 -1.5 82t-12 67t-31.5 78h305q-21 -38 -31.5 -78t-12 -67t-1.5 -82v-1215q0 -55 1.5 -82t12 -67t31.5 -78h-305q21 38 31.5 78
t12 67t1.5 82v645h-649v-645q0 -55 1.5 -82t12 -67t31.5 -78z" />
    <glyph glyph-name="I" unicode="I" horiz-adv-x="520" 
d="M414 0h-305q21 38 31.5 78t12 67t1.5 82v1215q0 55 -1.5 82t-12 67t-31.5 78h305q-21 -38 -31.5 -78t-12 -67t-1.5 -82v-1215q0 -55 1.5 -82t12 -67t31.5 -78z" />
    <glyph glyph-name="J" unicode="J" horiz-adv-x="1112" 
d="M510 -39q-102 0 -207.5 33.5t-193.5 93.5l49 148q82 -56 171.5 -87.5t166.5 -31.5q112 0 180.5 71.5t68.5 217.5v1036q0 55 -1.5 82t-12 67t-31.5 78h306q-21 -38 -31.5 -78t-12 -67t-1.5 -82v-1002q0 -99 -24 -180t-65.5 -136t-99 -92t-123 -54t-139.5 -17z" />
    <glyph glyph-name="K" unicode="K" horiz-adv-x="1259" 
d="M414 0h-305q21 38 31.5 78t12 67t1.5 82v1215q0 55 -1.5 82t-12 67t-31.5 78h305q-21 -38 -31.5 -78t-12 -67t-1.5 -82v-529q142 10 240.5 105.5t195.5 296.5q71 160 115 354h213q-116 -369 -256 -552.5t-332 -223.5v-16q93 0 165.5 -11.5t136.5 -38.5t106 -77.5
t59 -122.5l94 -400q24 -104 84 -227h-313q30 69 14 158l-68 387q-7 39 -21 73t-32 59.5t-44.5 47t-50.5 36t-58.5 27t-60.5 19.5t-64 14t-62 10t-61 7v-611q0 -55 1.5 -82t12 -67t31.5 -78z" />
    <glyph glyph-name="L" unicode="L" horiz-adv-x="1153" 
d="M1004 0h-891q15 37 20.5 53t13 63.5t7.5 110.5v1215q0 55 -1.5 82t-12 67t-31.5 78h305q-21 -38 -31.5 -78t-12 -67t-1.5 -82v-1288h141q105 0 166 2t166 15.5t202 39.5z" />
    <glyph glyph-name="M" unicode="M" horiz-adv-x="1634" 
d="M414 0h-305q21 38 31.5 78t12 67t1.5 82l2 1215q0 103 -10 145q-11 45 -35 82h194q30 0 49 -4.5t33.5 -19.5t21 -26t21.5 -42l383 -840l399 836q47 96 136 96h180q-7 -11 -13 -23t-10.5 -22t-8 -24t-5.5 -21.5t-3.5 -23.5t-2.5 -21.5t-1.5 -24t-0.5 -21.5v-23.5v-22.5
l-2 -1215q0 -55 1.5 -82t12 -67t31.5 -78h-305q21 38 31.5 78t12 67t1.5 82v1190l-432 -942h-41l-424 942v-1190q0 -55 1.5 -82t12 -67t31.5 -78z" />
    <glyph glyph-name="N" unicode="N" horiz-adv-x="1449" 
d="M414 0h-305q21 38 31.5 78t12 67t1.5 82v1166q0 195 -41 276h143q91 0 138.5 -35t90.5 -133l578 -1280v1221q0 55 -1.5 82t-12 67t-31.5 78h305q-21 -38 -31.5 -78t-12 -67t-1.5 -82v-1215q0 -55 1.5 -82t12 -67t31.5 -78h-154q-52 0 -88 9.5t-72.5 37.5t-68.5 80
t-68 135l-503 1157v-1192q0 -55 1.5 -82t12 -67t31.5 -78z" />
    <glyph glyph-name="O" unicode="O" horiz-adv-x="1398" 
d="M700 -35q-146 0 -260 66t-185.5 183t-108.5 273t-37 342q0 426 147.5 649.5t443.5 223.5t445 -223.5t149 -649.5q0 -186 -37.5 -342t-109.5 -273t-186.5 -183t-260.5 -66zM700 137q23 0 46.5 4t62.5 20t72.5 43t70.5 79.5t63 123t43 179.5t17 243q0 161 -19 284t-52 201
t-81.5 127.5t-102.5 69t-120 19.5q-65 0 -118.5 -19.5t-102 -69t-81.5 -127.5t-52.5 -201t-19.5 -284q0 -134 16 -243t40.5 -179.5t60 -123t68.5 -79.5t72.5 -43t64.5 -20t52 -4z" />
    <glyph glyph-name="P" unicode="P" horiz-adv-x="1273" 
d="M414 0h-305q21 38 31.5 78t12 67t1.5 82v1215q0 153 -41 227h514q283 0 423 -137.5t140 -388.5q0 -134 -42.5 -241.5t-113.5 -172.5t-156 -99t-176 -34q-98 0 -184.5 38.5t-140.5 110.5h-8v-518q0 -55 1.5 -82t12 -67t31.5 -78zM633 698q143 0 242.5 119.5t99.5 329.5
q0 83 -18.5 148.5t-51 108.5t-77.5 74t-98.5 46t-113 24.5t-122 8.5t-125.5 -1v-725q48 -64 118.5 -98.5t145.5 -34.5z" />
    <glyph glyph-name="Q" unicode="Q" horiz-adv-x="1404" 
d="M1317 82l-55 -227q-133 59 -242.5 85.5t-278.5 26.5q-12 -2 -41 -2q-146 -1 -260 64.5t-185.5 183t-108.5 274t-37 342.5q0 426 147.5 649.5t443.5 223.5t445 -223.5t149 -649.5q0 -254 -66.5 -449.5t-195.5 -297.5h285zM700 137q23 0 46.5 4t62.5 20t72.5 43t70.5 79.5
t63 123t43 179.5t17 243q0 161 -19 284t-52 201t-81.5 127.5t-102.5 69t-120 19.5q-65 0 -118.5 -19.5t-102 -69t-81.5 -127.5t-52.5 -201t-19.5 -284q0 -134 16 -243t40.5 -179.5t60 -123t68.5 -79.5t72.5 -43t64.5 -20t52 -4z" />
    <glyph glyph-name="R" unicode="R" horiz-adv-x="1226" 
d="M414 0h-305q21 38 31.5 78t12 67t1.5 82v1215q0 153 -41 227h524q113 0 203.5 -34.5t146 -93t84.5 -131t29 -153.5q0 -109 -52.5 -203t-156 -156t-238.5 -69v-6q113 -13 192.5 -59.5t119.5 -109t68.5 -150t40 -167t33 -176t48.5 -161.5h-287q19 103 -2 360
q-35 388 -403 414h-94v-547q0 -55 1.5 -82t12 -67t31.5 -78zM369 1575v-684h69q121 0 212.5 30t145 82t79.5 115.5t26 136.5q0 133 -87 226.5t-243 93.5h-202z" />
    <glyph glyph-name="S" unicode="S" horiz-adv-x="1257" 
d="M612 -29q-150 0 -292 60t-246 176l45 192q97 -121 234 -186.5t268 -65.5q150 0 253 84t103 224q0 67 -29 125.5t-78 104t-113.5 87t-135 78.5t-141.5 74.5t-135 80t-113.5 89.5t-79 108t-29.5 131q0 93 42 165t116.5 116t170 66t207.5 22q210 0 420 -72l-14 -207
q-75 53 -185 83t-216 30q-91 0 -165.5 -21t-122.5 -68t-48 -114q0 -47 29.5 -90t79 -79.5t113.5 -72t135 -72.5t142 -77t135 -89t113.5 -104t79 -127.5t29.5 -154.5q0 -117 -47.5 -212.5t-127.5 -156.5t-182 -94t-215 -33z" />
    <glyph glyph-name="T" unicode="T" horiz-adv-x="1345" 
d="M825 0h-305q21 38 31.5 78t12 67t1.5 82v1305q-253 -4 -456 -57l14 194h1098l16 -194q-203 53 -457 57v-1305q0 -55 1.5 -82t12 -67t31.5 -78z" />
    <glyph glyph-name="U" unicode="U" horiz-adv-x="1347" 
d="M672 -35q-132 0 -232.5 38t-162 107t-92.5 161.5t-31 205.5v965q0 55 -1.5 82t-12 67t-31.5 78h305q-21 -38 -31.5 -78t-12 -67t-1.5 -82v-1051q0 -90 45 -155.5t113 -96t149 -30.5q125 0 216 74.5t91 207.5l-2 1051q0 55 -1.5 82t-12 67t-31.5 78h305q-21 -38 -31.5 -78
t-12 -67t-1.5 -82v-965q0 -112 -32 -204.5t-94.5 -162t-164 -107.5t-233.5 -38z" />
    <glyph glyph-name="V" unicode="V" horiz-adv-x="1409" 
d="M877 0h-345q8 57 3 110t-29 144l-291 1108q-29 112 -53.5 169.5t-73.5 137.5h274l351 -1476l354 1476h256q-56 -89 -77.5 -142t-53.5 -169l-291 -1108q-13 -51 -19 -79.5t-10.5 -61t-3 -57.5t8.5 -52z" />
    <glyph glyph-name="W" unicode="W" horiz-adv-x="2201" 
d="M858 0h-338q6 35 5.5 74t-3 68.5t-11.5 75t-14.5 66.5t-19 71t-16.5 63l-260 979q-41 151 -113 272h289q-3 -36 1.5 -101t16.5 -110l328 -1206l211 1022q2 11 11.5 53.5t12.5 59t9.5 54t7.5 60t1 54.5t-5.5 59.5t-14.5 54.5h316q-11 -38 -14 -79t3.5 -97t12.5 -88
t21 -106q3 -17 5 -25l216 -1016l309 1200q10 48 15.5 113.5t2.5 97.5h273q-37 -64 -59 -120.5t-46 -151.5l-252 -979q-3 -13 -16.5 -63.5t-17.5 -69.5t-13 -63.5t-10.5 -73t-1.5 -69t6 -79.5h-342q2 74 -12 198t-35 220l-201 911l-194 -911q-64 -289 -64 -418z" />
    <glyph glyph-name="X" unicode="X" horiz-adv-x="1499" 
d="M377 0h-299q109 116 190 244l381 602l-391 614q-103 162 -152 209h293q-11 -56 141 -311q21 -35 31 -53l189 -320l207 332q65 102 112 205t43 147h301q-24 -17 -59 -59.5t-57 -77.5l-437 -688l437 -682q6 -10 21.5 -33.5t26.5 -39.5t29.5 -41t38.5 -48h-301
q-8 59 -41 133t-116 219l-205 359l-217 -359q-64 -107 -110 -209.5t-56 -142.5z" />
    <glyph glyph-name="Y" unicode="Y" horiz-adv-x="1433" 
d="M870 0h-305q21 38 31.5 78t12 67t1.5 82v443l-403 776q-60 114 -131 223h252q1 -15 4.5 -32.5t10.5 -37t12.5 -34.5t16 -36.5t15.5 -32t16 -31.5t13 -25l305 -594l307 596q6 11 19.5 38.5t19.5 40.5t16 36t14.5 38.5t8.5 35.5t4 38h250q-56 -80 -131 -223l-404 -776v-443
q0 -55 1.5 -82t12 -67t31.5 -78z" />
    <glyph glyph-name="Z" unicode="Z" horiz-adv-x="1296" 
d="M1167 0h-1089l848 1538h-344q-303 0 -498 -82l27 213h1089l-844 -1540h349q161 0 275.5 23.5t213.5 85.5z" />
    <glyph glyph-name="bracketleft" unicode="[" horiz-adv-x="868" 
d="M760 -125h-651v1907h651v-105h-436v-1697h436v-105z" />
    <glyph glyph-name="backslash" unicode="\" horiz-adv-x="792" 
d="M217 1669l469 -1864h-108l-469 1864h108z" />
    <glyph glyph-name="bracketright" unicode="]" horiz-adv-x="868" 
d="M762 1782v-1907h-653v105h438v1697h-438v105h653z" />
    <glyph glyph-name="asciicircum" unicode="^" horiz-adv-x="1116" 
d="M567 1382l443 -675h-140l-309 471l-315 -471h-137l450 675h8z" />
    <glyph glyph-name="underscore" unicode="_" horiz-adv-x="993" 
d="M887 -125h-778v105h778v-105z" />
    <glyph glyph-name="a" unicode="a" horiz-adv-x="1277" 
d="M469 -31q-94 0 -175 41.5t-133 124.5t-52 191q0 93 38.5 167t102.5 119t143.5 69t165.5 24q105 0 202 -34.5t163 -97.5q-107 74 -258 74q-71 0 -134 -18.5t-113.5 -55t-80 -95.5t-29.5 -134q0 -110 63.5 -172.5t159.5 -62.5q78 0 156 49.5t143 149.5t93 231v303
q0 106 -80.5 173.5t-204.5 67.5q-165 0 -344 -125l-47 140q96 59 208 91t220 32q94 0 176.5 -24.5t147 -72t102 -124t37.5 -173.5v-694q0 -44 12 -76t49 -57h-151q-66 0 -95.5 36.5t-29.5 96.5v246h-6q-44 -198 -169.5 -304t-279.5 -106z" />
    <glyph glyph-name="b" unicode="b" horiz-adv-x="1306" 
d="M733 -33q-110 0 -203 66t-141 186h-4q-1 -47 -7.5 -82.5t-22 -69.5t-48 -52.5t-80.5 -18.5h-118q38 51 49.5 93.5t11.5 107.5v1280q0 55 -10.5 86t-34.5 59q80 0 155.5 22t104.5 60v-723q65 116 165 176t210 60q87 0 168 -38.5t146 -109.5t104 -185t39 -253
q0 -159 -43 -289t-113 -210t-154.5 -122.5t-173.5 -42.5zM672 127q135 0 232 140t97 368q0 203 -85 325.5t-211 122.5q-88 0 -171.5 -64.5t-148.5 -201.5v-440q48 -123 124.5 -186.5t162.5 -63.5z" />
    <glyph glyph-name="c" unicode="c" horiz-adv-x="1075" 
d="M623 -31q-234 0 -383.5 171.5t-149.5 465.5q0 144 42 262t114.5 194.5t168.5 118.5t206 42q215 0 419 -150l-45 -186q-176 164 -358 164q-148 0 -245 -120t-97 -331q0 -225 97 -348t259 -123q197 0 420 172v-178q-231 -154 -448 -154z" />
    <glyph glyph-name="d" unicode="d" horiz-adv-x="1296" 
d="M582 -31q-92 0 -177.5 37.5t-157 110.5t-114.5 195t-43 276q0 130 29 236.5t77.5 176.5t113.5 117.5t134 68.5t142 21q116 0 213 -51t139 -139h10v459q0 56 -10 87t-35 58q81 0 156.5 22t103.5 60v-1503q0 -142 80 -201h-117q-84 0 -131 59t-47 125h-10
q-48 -102 -145.5 -158.5t-210.5 -56.5zM651 92q91 0 172 49.5t125 134.5v619q-40 70 -128 117t-183 47q-52 0 -99 -15t-90 -50.5t-74.5 -88t-50 -133t-18.5 -180.5q0 -128 29 -226.5t79 -157t110 -87.5t128 -29z" />
    <glyph glyph-name="e" unicode="e" horiz-adv-x="1306" 
d="M766 -37q-135 0 -257 44.5t-215.5 125.5t-148.5 204.5t-55 272.5q0 135 45 249t124.5 193t190.5 123t240 44q231 0 376.5 -107.5t145.5 -257.5q0 -156 -156 -262.5t-442 -106.5q-150 0 -295 54q93 -3 164 2q135 4 240.5 31.5t167.5 71t93.5 94t31.5 104.5q0 98 -87 168.5
t-229 70.5q-71 0 -139 -27t-126.5 -79.5t-94 -142t-35.5 -203.5q0 -117 40 -214.5t108.5 -161t157 -98t186.5 -34.5q103 0 207 38t192 107l39 -160q-219 -143 -469 -143z" />
    <glyph glyph-name="f" unicode="f" horiz-adv-x="759" 
d="M520 0h-305q21 38 31.5 78t12 67t1.5 82l2 719q0 25 -1.5 45t-7.5 37t-10 28.5t-16 23t-19 18t-25.5 16t-28.5 14t-35.5 15t-38.5 16.5v25q140 -35 264 -35q86 0 148 16v13q-36 -4 -54 -4q-165 0 -271 79.5t-106 188.5q0 67 32.5 118.5t90 83t130.5 47t159 15.5
q134 0 250 -37v-180q-134 49 -248 49q-104 0 -165.5 -46.5t-61.5 -111.5q0 -86 114.5 -146.5t327.5 -49.5v-25q-105 0 -158 -49t-53 -164l-4 -719q0 -55 1.5 -82t12 -67t31.5 -78z" />
    <glyph glyph-name="g" unicode="g" horiz-adv-x="1323" 
d="M600 -410q-150 0 -293 32.5t-248 92.5l15 183q110 -65 254 -99.5t288 -34.5q128 0 231.5 26t169.5 81.5t70 132.5q5 91 -62 161.5t-179.5 107t-247.5 36.5q-201 0 -375 -76v140q115 47 262 55q-188 34 -294.5 137.5t-106.5 237.5q0 76 36 147t102.5 129t172 93t234.5 36
q335 78 557 228l31 -211q-60 -14 -179 -35.5t-155 -28.5q144 -44 220.5 -139.5t76.5 -208.5q0 -134 -107 -240t-293 -139q111 -15 202.5 -48.5t162 -86t107.5 -130t32 -173.5q-7 -131 -106.5 -225t-249 -137.5t-328.5 -43.5zM633 528q161 0 251.5 84t90.5 205q0 123 -92 210
t-250 87q-163 0 -255.5 -86t-92.5 -209q0 -121 92 -206t256 -85z" />
    <glyph glyph-name="h" unicode="h" horiz-adv-x="1347" 
d="M414 0h-305q21 38 31.5 78t12 67t1.5 82v1248q0 55 -10.5 86t-34.5 59q80 0 155.5 22t104.5 60v-844h8q49 175 172.5 269t269.5 94q74 0 141.5 -24.5t120 -70.5t84 -118.5t31.5 -161.5v-619q0 -55 1.5 -82t12 -67t31.5 -78h-305q21 38 31.5 78t12 67t1.5 82v594
q0 123 -68.5 191.5t-169.5 68.5q-122 0 -229 -94t-145 -266v-494q0 -55 1.5 -82t12 -67t31.5 -78z" />
    <glyph glyph-name="i" unicode="i" horiz-adv-x="520" 
d="M252 1384q-54 0 -92.5 39t-38.5 93q0 53 38.5 91t92.5 38q52 0 90.5 -38.5t38.5 -90.5q0 -54 -38 -93t-91 -39zM414 0h-305q21 38 31.5 78t12 67t1.5 82v791q0 55 -10.5 86t-34.5 59q80 0 155.5 22t104.5 60v-1018q0 -55 1.5 -82t12 -67t31.5 -78z" />
    <glyph glyph-name="j" unicode="j" horiz-adv-x="550" 
d="M291 1419q-53 0 -90 36t-37 87t37 87t90 36q51 0 88 -36t37 -87t-37 -87t-88 -36zM-324 -338l23 164q77 -76 164 -105t157 -10.5t116 87t46 175.5v1018q0 56 -10 87.5t-35 58.5q80 0 155.5 22t104.5 60v-1203q0 -117 -33 -209.5t-88.5 -148.5t-128.5 -85.5t-152.5 -28
t-162.5 31.5t-156 86z" />
    <glyph glyph-name="k" unicode="k" horiz-adv-x="1236" 
d="M414 0h-305q21 38 31.5 78t12 67t1.5 82v1250q0 55 -10.5 86t-34.5 59q80 0 155.5 22t104.5 60v-987q119 63 285 209t214 258h254q-123 -148 -279 -271t-304 -204v-7q77 18 146.5 -2.5t123 -71t100.5 -116.5t87 -143.5t74 -146.5t69.5 -131t66.5 -91h-268
q-124 295 -181 398q-98 179 -202 220q-83 32 -186 -12v-379q0 -55 1.5 -82t12 -67t31.5 -78z" />
    <glyph glyph-name="l" unicode="l" horiz-adv-x="520" 
d="M414 0h-305q21 38 31.5 78t12 67t1.5 82v1243q0 55 -10.5 87t-34.5 59q80 0 155.5 22t104.5 60v-1471q0 -55 1.5 -82t12 -67t31.5 -78z" />
    <glyph glyph-name="m" unicode="m" horiz-adv-x="2174" 
d="M414 0h-305q21 38 31.5 78t12 67t1.5 82v764q0 55 -10.5 87t-34.5 59q80 0 155.5 22t104.5 60v-361h8q26 164 152 262.5t290 98.5q79 0 146.5 -23t119.5 -68t81.5 -117t29.5 -165v12h8q17 109 83 192.5t160 126t200 42.5q165 0 270.5 -95.5t105.5 -277.5v-619
q0 -55 1.5 -82t12 -67t31.5 -78h-305q21 38 31.5 78t12 67t1.5 82v586q0 145 -102 215q-90 61 -210 35q-130 -28 -212 -143q-87 -120 -88 -299v-394q0 -55 1.5 -82t12 -67t31.5 -78h-305q21 38 31.5 78t12 67t1.5 82v621q0 130 -98 192q-91 57 -211 28q-134 -31 -217 -150
q-85 -120 -86 -297v-394q0 -55 1.5 -82t12 -67t31.5 -78z" />
    <glyph glyph-name="n" unicode="n" horiz-adv-x="1347" 
d="M414 0h-305q21 38 31.5 78t12 67t1.5 82v764q0 55 -10.5 87t-34.5 59q80 0 155.5 22t104.5 60v-361h8q29 117 100.5 201.5t159 123t182.5 38.5q74 0 141.5 -24.5t120 -70.5t84 -118.5t31.5 -161.5v-619q0 -55 1.5 -82t12 -67t31.5 -78h-305q21 38 31.5 78t12 67t1.5 82
v594q0 123 -68.5 191.5t-169.5 68.5q-122 0 -229 -94t-145 -266v-494q0 -55 1.5 -82t12 -67t31.5 -78z" />
    <glyph glyph-name="o" unicode="o" horiz-adv-x="1316" 
d="M659 -27q-79 0 -157 21.5t-153 70t-132 119t-92 177.5t-35 237q0 129 33 234.5t88.5 175.5t130 118.5t154 69.5t163.5 21q85 0 164.5 -21t153 -69.5t128.5 -118.5t87.5 -175.5t32.5 -234.5q0 -130 -35 -237t-91.5 -177.5t-131.5 -119t-152.5 -70t-155.5 -21.5zM659 104
q45 0 91 16t93.5 54t84 93t59.5 141t23 190q0 105 -23 191.5t-59.5 141t-84 91.5t-93.5 52.5t-91 15.5q-46 0 -92.5 -15.5t-94.5 -52.5t-84.5 -91.5t-59.5 -140.5t-23 -192q0 -104 23 -190t59.5 -141t84 -93t94.5 -54t93 -16z" />
    <glyph glyph-name="p" unicode="p" horiz-adv-x="1290" 
d="M414 -449h-305q21 38 31.5 78t12 67.5t1.5 82.5v1212q0 55 -10.5 87t-34.5 59q80 0 155.5 22t104.5 60v-228q67 107 166 164t206 57q88 0 169.5 -38t146.5 -109.5t104 -186.5t39 -257q0 -281 -152.5 -462.5t-377.5 -181.5q-146 0 -289 80h-12v-278q0 -55 1.5 -82.5
t12 -67.5t31.5 -78zM621 86q91 0 165.5 46.5t121 123.5t71.5 171.5t25 193.5q0 209 -101.5 334.5t-245.5 125.5q-81 0 -157 -45.5t-131 -134.5v-735q132 -80 252 -80z" />
    <glyph glyph-name="q" unicode="q" horiz-adv-x="1316" 
d="M948 -518v745h-10q-56 -126 -157 -194t-218 -68q-89 0 -172.5 40.5t-151 117t-108.5 199t-41 272.5q0 301 144 463t423 162q69 0 147 -11.5t125 -20.5t110 -3t126 37l-2 -1512q0 -55 10.5 -86t34.5 -59q-80 0 -155.5 -22t-104.5 -60zM655 90q97 0 179 61t116 168v730
q-74 24 -172 34q-68 5 -129.5 -3.5t-126.5 -39.5t-112 -83t-77 -142.5t-30 -210.5q0 -127 29.5 -227.5t79.5 -161.5t112 -93t131 -32z" />
    <glyph glyph-name="r" unicode="r" horiz-adv-x="952" 
d="M414 0h-305q21 38 31.5 78t12 67t1.5 82v764q0 55 -10.5 87t-34.5 59q80 0 155.5 22t104.5 60v-424h14q61 265 212 369.5t353 2.5l-49 -186q-75 36 -143.5 41.5t-122 -17.5t-98.5 -65t-77.5 -102.5t-54.5 -128.5t-34 -144v-338q0 -55 1.5 -82t12 -67t31.5 -78z" />
    <glyph glyph-name="s" unicode="s" horiz-adv-x="1218" 
d="M125 82l29 190q123 -61 245.5 -91.5t222 -28t177 29.5t120.5 80.5t44 124.5q0 51 -29.5 86.5t-79.5 53.5t-115 29.5t-137 19t-144 17t-137 29t-115 49.5t-79.5 83.5t-28.5 126.5q0 90 50.5 158t132.5 105t186.5 54t212.5 11.5t210 -28.5t179 -61l-18 -188
q-91 49 -221.5 71.5t-249.5 14.5t-204.5 -57t-86.5 -132q-1 -51 28.5 -85.5t80 -51.5t116.5 -26.5t138 -16.5t144 -16.5t136.5 -30.5t113 -54t74.5 -91.5t21 -139.5q-4 -85 -53 -153.5t-127 -111t-180.5 -64t-212.5 -18t-226 31.5t-217 80z" />
    <glyph glyph-name="t" unicode="t" horiz-adv-x="901" 
d="M569 -33q-59 0 -112 13t-101.5 43t-83.5 74.5t-56 112t-21 150.5v639q0 145 -127 185q62 22 115.5 67.5t88 98.5t61 115t39.5 111t19 93h19l-2 -485h387v-168q-72 29 -159.5 41t-227.5 12l2 -700q0 -124 52.5 -181t135.5 -57q61 0 128.5 25.5t121.5 64.5l26 -158
q-59 -45 -140 -70.5t-165 -25.5z" />
    <glyph glyph-name="u" unicode="u" horiz-adv-x="1363" 
d="M543 -35q-169 0 -279 101t-110 280v645q0 55 -10.5 87t-34.5 59q80 0 155.5 22t104.5 60v-848q0 -131 64.5 -198t176.5 -67q125 0 233.5 104t137.5 282v499q0 55 -10.5 87t-34.5 59q80 0 155.5 22t104.5 60v-1059q0 -63 16.5 -97.5t65.5 -62.5h-148q-75 0 -112 46
t-37 120v211h-10q-29 -186 -146 -299t-282 -113z" />
    <glyph glyph-name="v" unicode="v" horiz-adv-x="1150" 
d="M737 0h-327q5 28 -4.5 86t-22.5 102l-254 816q-27 90 -82 180h248q-7 -61 18 -154l262 -907l275 907q24 87 24 154h230q-55 -90 -82 -180l-248 -793q-19 -58 -31 -120t-6 -91z" />
    <glyph glyph-name="w" unicode="w" horiz-adv-x="1826" 
d="M688 0h-280q3 14 -2 42.5t-11 50.5t-18.5 63.5t-16.5 54.5l-245 793q-3 10 -11.5 41t-14 49t-17 44t-25.5 46h244q-4 -96 12 -154l262 -860l236 772q16 74 14.5 137t-16.5 105h243q-40 -113 -6 -242l236 -745l250 833q18 64 14 154h246q-42 -68 -76 -180l-246 -793
q-4 -13 -13.5 -44.5t-14 -48t-12 -46.5t-7.5 -41v-31h-258q1 19 1.5 31t-7 41.5t-13 47t-15 47.5t-13.5 44l-188 582l-187 -582q-3 -10 -9.5 -31t-10 -33.5t-9.5 -34t-8.5 -33.5t-6.5 -31t-3 -27t2 -21z" />
    <glyph glyph-name="x" unicode="x" horiz-adv-x="1304" 
d="M348 0h-272q63 51 97.5 88t66.5 86l276 414l-276 413q-28 41 -45.5 65t-52 60.5t-66.5 57.5h272l285 -465l291 465h266q-25 -16 -47.5 -37t-47 -51.5t-34.5 -45t-35 -49.5l-291 -413l309 -414q92 -128 164 -174h-284l-291 457z" />
    <glyph glyph-name="y" unicode="y" horiz-adv-x="1202" 
d="M49 -377l-14 193q143 -36 242.5 -41t164.5 22.5t101.5 78.5t58.5 134l10 51h-163l-312 943q-41 120 -82 180h262q-9 -88 15 -154l301 -874l207 874q17 86 10 154h260q-43 -63 -70 -180l-252 -1004q-30 -120 -84 -201t-143 -132t-214 -59.5t-298 15.5z" />
    <glyph glyph-name="z" unicode="z" horiz-adv-x="1230" 
d="M1108 0h-1024l729 1063q-566 6 -711 -55l17 176h1003l-727 -1071q210 -6 425 6t304 57z" />
    <glyph glyph-name="braceleft" unicode="{" horiz-adv-x="948" 
d="M842 -35v-104q-158 0 -267.5 22t-188.5 70t-124 131.5t-65.5 198.5t-20.5 280q0 226 -67 260q41 21 54 76t13 184q0 137 13.5 238.5t45.5 182t81 132.5t125 86.5t173 49t228 14.5v-105q-93 0 -164.5 -15.5t-119 -37t-80.5 -63.5t-49.5 -76.5t-25.5 -94.5t-10.5 -99.5
t-1.5 -108.5q0 -47 7 -100.5t12.5 -85t4 -65t-16 -52.5t-50 -35t-96.5 -25q60 -8 96.5 -27t50 -41t15.5 -56.5t-4 -65t-12.5 -75t-6.5 -77.5q0 -69 1.5 -109.5t10.5 -102.5t25.5 -99t49.5 -81t80 -67.5t119 -40t165 -16.5z" />
    <glyph glyph-name="bar" unicode="|" horiz-adv-x="313" 
d="M205 0h-96v1669h96v-1669z" />
    <glyph glyph-name="braceright" unicode="}" horiz-adv-x="948" 
d="M109 -139v104q92 0 164 16.5t119 40t79.5 67.5t49.5 81t26 99t10.5 102.5t1.5 109.5q0 33 -6.5 77.5t-12.5 75t-4 65t15.5 56.5t50 41t96.5 27q-61 9 -96.5 25t-50 35t-16 52.5t4 65t12.5 85t7 100.5q0 69 -1.5 108.5t-10.5 99.5t-26 95t-49.5 76t-79.5 63.5t-119 37.5
t-164 15v105q131 0 228 -14.5t172.5 -49t125 -86.5t81 -132.5t45 -182t13.5 -238.5q0 -128 13.5 -183.5t54.5 -76.5q-68 -35 -68 -260q0 -137 -13.5 -238.5t-45 -182t-81 -132.5t-125 -86t-172.5 -48.5t-228 -14.5z" />
    <glyph glyph-name="asciitilde" unicode="~" horiz-adv-x="1275" 
d="M930 387q-61 0 -125.5 36t-119 87.5t-105.5 103t-103.5 87.5t-95.5 36q-80 0 -120 -54t-40 -202l-112 4q0 66 7 118.5t26 101.5t49.5 81.5t80.5 52t117 19.5q53 0 117 -36.5t121 -88.5t111.5 -103.5t106 -88t87.5 -35.5q47 0 80 77.5t32 211.5l125 -19q0 -72 -11.5 -136
t-37.5 -123.5t-75 -94.5t-115 -35z" />
    <glyph glyph-name="exclamdown" unicode="&#xa1;" horiz-adv-x="514" 
d="M256 1307q64 0 108 -43t44 -105q0 -64 -43.5 -107.5t-108.5 -43.5q-62 0 -104.5 43.5t-42.5 107.5q0 62 43 105t104 43zM233 815h46q-2 -88 46 -497.5t48 -544.5q0 -83 -32 -143t-77 -60q-44 0 -75 60.5t-31 142.5q0 129 39.5 539t35.5 503z" />
    <glyph glyph-name="cent" unicode="&#xa2;" horiz-adv-x="1196" 
d="M508 -143h-105l37 155q-153 62 -242 216t-89 378q0 144 41.5 261.5t113.5 195t167.5 119t205.5 41.5q47 0 96 -9l33 140h104l-39 -164q116 -35 226 -117l-45 -186q-100 94 -219 139l-213 -881q112 -35 245 10t262 146v-178q-281 -195 -546 -137zM483 182l209 865
q-117 14 -204.5 -42.5t-132 -162t-44.5 -242.5q0 -308 172 -418z" />
    <glyph glyph-name="sterling" unicode="&#xa3;" horiz-adv-x="1339" 
d="M1233 0h-1051q132 355 135 764h-208v104h206q0 43 -8 133q-21 209 17.5 354.5t112.5 218.5t191.5 103t230 24.5t251.5 -32.5v-178q-128 38 -225.5 45.5t-161 -13.5t-107.5 -64t-64.5 -106t-32 -139.5t-10 -164.5t0.5 -181h336v-104h-334q2 -200 -17 -348.5t-81 -265.5
q26 -5 137.5 -1.5t234.5 9.5t243 29t165 57z" />
    <glyph glyph-name="currency" unicode="&#xa4;" horiz-adv-x="1101" 
d="M299 293l-117 -119l-73 74l116 119q-88 114 -88 249q0 138 88 252l-116 119l71 74l119 -117q110 88 252 88q143 0 252 -90l119 119l73 -74l-118 -119q90 -109 90 -252q0 -141 -88 -251l116 -117l-73 -74l-117 117q-110 -84 -252 -84q-139 0 -254 86zM553 340
q117 0 196.5 80t79.5 196q0 117 -80 198t-196 81q-118 0 -198.5 -81t-80.5 -198t81 -196.5t198 -79.5z" />
    <glyph glyph-name="yen" unicode="&#xa5;" horiz-adv-x="1335" 
d="M1006 1669h223l-412 -799h322v-106h-357v-168h357v-104h-357v-492h-215v492h-385v104h385v168h-385v106h344l-417 799h247l328 -706z" />
    <glyph glyph-name="brokenbar" unicode="&#xa6;" horiz-adv-x="313" 
d="M205 967h-96v702h96v-702zM205 0h-96v700h96v-700z" />
    <glyph glyph-name="section" unicode="&#xa7;" horiz-adv-x="1298" 
d="M672 -8q-275 0 -539 135l19 197q126 -93 274.5 -138t286.5 -45q137 0 231 42.5t94 99.5q0 59 -48 99t-125 61.5t-170 38t-186 36.5t-170 48.5t-125 83t-48 132.5q0 63 33 122.5t88 101.5q-176 75 -176 225q0 109 74.5 190t197.5 121.5t276 40.5q283 0 527 -125l-37 -190
q-75 71 -232 117.5t-305 46.5q-94 0 -167.5 -19.5t-121 -64t-47.5 -109.5q0 -24 11.5 -43.5t29 -34.5t49 -28t60 -21.5t74.5 -17.5t78.5 -15t86.5 -14q9 -1 13 -2q52 -8 75 -12t72 -12.5t73.5 -15t66 -17.5t63.5 -21.5t53 -25.5t47.5 -31.5t33 -37t23.5 -45t7 -52.5
q0 -85 -47.5 -153.5t-128.5 -115.5q174 -73 174 -227q0 -131 -147 -218t-371 -87zM883 580q57 20 94 61t37 94q0 49 -43 84.5t-118 55.5t-150.5 33t-167 26.5t-140.5 26.5q-84 -60 -84 -125q0 -47 26.5 -83t66 -57t102.5 -39t118 -27.5t132.5 -23.5t126.5 -26z" />
    <glyph glyph-name="copyright" unicode="&#xa9;" horiz-adv-x="1935" 
d="M969 -35q-184 0 -345.5 68.5t-273.5 186t-176.5 277t-64.5 337.5q0 177 64.5 336t176.5 276t273.5 185.5t345.5 68.5t345.5 -68.5t273.5 -185.5t176.5 -276t64.5 -336q0 -178 -64.5 -337.5t-176.5 -277t-273.5 -186t-345.5 -68.5zM969 86q158 0 293.5 59t227.5 160.5
t144 238t52 290.5q0 205 -88 374t-253 270t-376 101q-212 0 -377.5 -101t-253.5 -270t-88 -374q0 -154 52 -290.5t144 -238t228 -160.5t295 -59zM1010 315q-170 0 -278.5 146t-108.5 379t102 371.5t272 138.5q120 0 234 -66l-12 -158q-113 64 -199 64q-107 0 -165 -92.5
t-58 -253.5q0 -159 69.5 -259t182.5 -100q82 0 168 56l14 -162q-113 -64 -221 -64z" />
    <glyph glyph-name="ordfeminine" unicode="&#xaa;" horiz-adv-x="806" 
d="M303 770q-83 0 -143 54t-60 145q0 101 75.5 157t178.5 56q128 0 205 -74q-59 41 -145 41q-83 0 -142 -43.5t-59 -124.5q0 -62 36 -97.5t91 -35.5q68 0 131 65.5t88 176.5v170q0 60 -45.5 97.5t-114.5 37.5q-90 0 -194 -70l-25 78q112 70 240 70q110 0 185 -57.5
t75 -164.5v-391q0 -51 33 -74h-84q-70 0 -70 74v139h-4q-24 -111 -94.5 -170t-157.5 -59z" />
    <glyph glyph-name="guillemotleft" unicode="&#xab;" horiz-adv-x="1548" 
d="M784 381v-135l-675 409v9l675 401v-135l-456 -271v-2zM1442 381v-135l-676 409v9l676 401v-135l-457 -271v-2z" />
    <glyph glyph-name="uni00AD" unicode="&#xad;" horiz-adv-x="665" 
d="M559 588h-450v106h450v-106z" />
    <glyph glyph-name="registered" unicode="&#xae;" horiz-adv-x="1142" 
d="M571 770q-111 0 -201 40t-146 106.5t-85.5 149t-29.5 171.5q0 88 29.5 170t85.5 148.5t146 106.5t201 40q112 0 202.5 -40t146.5 -106.5t86 -148.5t30 -170q0 -89 -30 -171.5t-86 -149t-146.5 -106.5t-202.5 -40zM571 860q88 0 159.5 32t115 86t67 120.5t23.5 138.5
q0 71 -23.5 137.5t-67 120.5t-115 86.5t-159.5 32.5q-87 0 -158 -32.5t-114.5 -86.5t-66.5 -120.5t-23 -137.5q0 -72 23 -138.5t66.5 -120.5t114.5 -86t158 -32zM545 1044h-127q10 20 10 58v301q0 41 -10 55h180q55 0 85 -29.5t30 -70.5q0 -40 -24.5 -71.5t-67.5 -35.5v-4
q41 -4 61.5 -27.5t23.5 -50t7.5 -65t13.5 -60.5h-129q4 30 0 82q-4 55 -15 75t-36 20h-15v-119q0 -36 13 -58zM535 1397v-103h10q33 0 49 16t16 38q0 21 -11.5 35t-31.5 14h-32z" />
    <glyph glyph-name="degree" unicode="&#xb0;" horiz-adv-x="722" 
d="M362 1202q-103 0 -178 66t-75 184t75 184t178 66t178.5 -66t75.5 -184t-75.5 -184t-178.5 -66zM358 1298q47 0 79 40t32 114q0 72 -31.5 112t-75.5 40q-46 0 -77 -40t-31 -114q0 -72 30.5 -112t73.5 -40z" />
    <glyph glyph-name="plusminus" unicode="&#xb1;" horiz-adv-x="966" 
d="M537 258h-105v324h-323v106h323v322h105v-322h323v-106h-323v-324zM860 76h-751v106h751v-106z" />
    <glyph glyph-name="uni00B2" unicode="&#xb2;" horiz-adv-x="770" 
d="M655 922h-546q0 61 24.5 118.5t64 102.5t87 88t95 82t87 76t64 79.5t24.5 85.5q0 49 -34.5 81.5t-89.5 42t-129.5 -10t-147.5 -68.5l-17 103q75 45 166 62t170 3.5t132.5 -69t53.5 -144.5q0 -65 -38 -126t-94.5 -109.5t-113.5 -95t-103 -101t-56 -108.5q111 0 164.5 0.5
t133.5 7t114 18.5z" />
    <glyph glyph-name="uni00B3" unicode="&#xb3;" horiz-adv-x="718" 
d="M317 913q-106 0 -211 43l3 91q111 -50 200 -50q95 0 149 49t54 115q0 65 -61 122.5t-152 66.5v53q85 16 135.5 66t50.5 106q0 48 -43.5 81.5t-124.5 33.5q-82 0 -170 -33l-6 92q113 29 185 29q126 0 193 -56t67 -135q0 -70 -51.5 -127t-141.5 -71v-11q101 -9 160 -72.5
t59 -150.5q0 -99 -79.5 -170.5t-215.5 -71.5z" />
    <glyph glyph-name="paragraph" unicode="&#xb6;" horiz-adv-x="1173" 
d="M813 -184h-139v895h-21q-27 -50 -78.5 -82t-111.5 -41.5t-123.5 8.5t-114.5 59t-83.5 119.5t-32.5 181.5q0 216 137.5 350t363.5 134h457v-1624h-139v1521h-115v-1521z" />
    <glyph glyph-name="periodcentered" unicode="&#xb7;" horiz-adv-x="440" 
d="M219 338q-47 0 -78.5 33.5t-31.5 81.5q0 46 31.5 79t78.5 33t80 -33t33 -79q0 -47 -33 -81t-80 -34z" />
    <glyph glyph-name="uni00B9" unicode="&#xb9;" horiz-adv-x="389" 
d="M283 922h-152q11 19 16 39.5t6 34t1 40.5v459q0 47 -2 76.5t-13 70t-33 62.5l154 53v-721q0 -27 1 -40.5t6 -34t16 -39.5z" />
    <glyph glyph-name="ordmasculine" unicode="&#xba;" horiz-adv-x="835" 
d="M397 772q-57 0 -111 20t-101.5 60t-77 110.5t-29.5 161.5q0 90 28 159.5t75 109.5t101.5 60t114.5 20q61 0 116 -20t102 -60t74.5 -109.5t27.5 -159.5q0 -91 -29.5 -161.5t-77.5 -110.5t-102 -60t-111 -20zM397 846q33 0 66 15.5t64 46t50 87t19 129.5q0 139 -62.5 208
t-136.5 69q-32 0 -65 -15t-63.5 -46t-50 -87t-19.5 -129t19.5 -129.5t50 -87t63.5 -46t65 -15.5z" />
    <glyph glyph-name="guillemotright" unicode="&#xbb;" horiz-adv-x="1548" 
d="M784 655l-675 -409v135l454 276v2l-454 271v135l675 -401v-9zM1442 655l-676 -409v135l455 276v2l-455 271v135l676 -401v-9z" />
    <glyph glyph-name="onequarter" unicode="&#xbc;" horiz-adv-x="1507" 
d="M283 922h-152q11 19 16 39.5t6 34t1 40.5v459q0 47 -2 76.5t-13 70t-33 62.5l154 53v-721q0 -27 1 -40.5t6 -34t16 -39.5zM205 0h-88l985 1669h88zM1061 -27q-108 0 -213 43l2 90q109 -49 201 -49q94 0 148 49t54 115q0 65 -61 122.5t-152 66.5v53q87 16 137 66t50 106
q0 48 -42.5 81.5t-123.5 33.5q-84 0 -172 -33l-6 92q113 29 184 29q126 0 193 -56t67 -135q0 -70 -51 -127t-141 -71v-11q101 -9 160 -72.5t59 -150.5q0 -99 -79 -170.5t-214 -71.5z" />
    <glyph glyph-name="onehalf" unicode="&#xbd;" horiz-adv-x="1509" 
d="M283 922h-152q11 19 16 39.5t6 34t1 40.5v459q0 47 -2 76.5t-13 70t-33 62.5l154 53v-721q0 -27 1 -40.5t6 -34t16 -39.5zM193 0h-89l986 1669h88zM1391 0h-547q0 61 24.5 118.5t64 103t87 88t95 81.5t87 76.5t64 80t24.5 85.5q0 49 -34.5 81.5t-89.5 42t-129.5 -10
t-147.5 -68.5l-15 102q76 45 166.5 62.5t169.5 4t132 -69t53 -144.5q0 -48 -20.5 -93.5t-53.5 -82.5t-73.5 -73t-82.5 -70.5t-78 -68t-62.5 -73.5t-33.5 -80q338 0 410 27z" />
    <glyph glyph-name="threequarters" unicode="&#xbe;" horiz-adv-x="1583" 
d="M295 913q-106 0 -211 43l2 91q111 -50 199 -50q96 0 149 48.5t53 115.5q0 65 -60.5 122.5t-152.5 66.5v53q87 16 138 66t51 106q0 48 -43.5 81.5t-124.5 33.5q-82 0 -172 -33l-4 92q113 29 182 29q126 0 193 -56t67 -135q0 -70 -51 -127t-139 -71v-11q101 -9 159 -72.5
t58 -150.5q0 -100 -78.5 -171t-214.5 -71zM412 0h-88l985 1669h88zM1403 0h-154q16 28 19.5 51.5t3.5 63.5v82h-389v69l417 570h80v-570h93v-69h-93v-82q0 -27 1 -41t6 -34.5t16 -39.5zM1272 678l-295 -412h295v412z" />
    <glyph glyph-name="questiondown" unicode="&#xbf;" horiz-adv-x="954" 
d="M633 1397q47 0 79.5 -33.5t32.5 -81.5q0 -46 -32.5 -79.5t-79.5 -33.5q-46 0 -79.5 33.5t-33.5 79.5q0 47 33.5 81t79.5 34zM610 1065h78q14 -58 14 -96q0 -80 -30.5 -163t-76 -150t-99 -141.5t-99 -138.5t-76 -141t-30.5 -149q0 -120 72 -189t188 -69q126 0 266 86
l29 -154q-147 -84 -311 -84q-184 0 -305 104t-121 267q0 60 15.5 119.5t35 103t59.5 100.5t65.5 88.5t75.5 90.5q50 57 78.5 92t67.5 92t59 103t34 106.5t11 122.5z" />
    <glyph glyph-name="Agrave" unicode="&#xc0;" horiz-adv-x="1548" 
d="M956 1870q-106 0 -209.5 49.5t-164.5 130.5l118 123q47 -68 134 -122.5t182 -76.5q82 -20 143 -20q-69 -84 -203 -84zM403 0h-315q21 32 37 64.5t23 51.5t19.5 56t18.5 55l445 1280q15 42 16 76t-12 86h293q-23 -91 2 -162l450 -1280q2 -5 13 -39t15.5 -46t16 -40
t24.5 -52t30 -50h-318q24 61 25.5 111t-19.5 116l-112 338h-545l-113 -338q-21 -66 -19.5 -116t25.5 -111zM782 1405l-237 -713h475z" />
    <glyph glyph-name="Aacute" unicode="&#xc1;" horiz-adv-x="1548" 
d="M680 1872q-63 0 -117 22t-86 62q63 0 141 20q96 22 183 76.5t133 120.5l121 -121q-62 -82 -165.5 -131t-209.5 -49zM403 0h-315q21 32 37 64.5t23 51.5t19.5 56t18.5 55l445 1280q15 42 16 76t-12 86h293q-23 -91 2 -162l450 -1280q2 -5 13 -39t15.5 -46t16 -40t24.5 -52
t30 -50h-318q24 61 25.5 111t-19.5 116l-112 338h-545l-113 -338q-21 -66 -19.5 -116t25.5 -111zM782 1405l-237 -713h475z" />
    <glyph glyph-name="Acircumflex" unicode="&#xc2;" horiz-adv-x="1548" 
d="M479 1817l-73 131q177 98 372 280q20 -17 76.5 -66.5t78.5 -67.5t64.5 -51.5t78.5 -55.5t77 -43l-100 -123q-139 114 -275 288q-137 -163 -299 -292zM403 0h-315q21 32 37 64.5t23 51.5t19.5 56t18.5 55l445 1280q15 42 16 76t-12 86h293q-23 -91 2 -162l450 -1280
q2 -5 13 -39t15.5 -46t16 -40t24.5 -52t30 -50h-318q24 61 25.5 111t-19.5 116l-112 338h-545l-113 -338q-21 -66 -19.5 -116t25.5 -111zM782 1405l-237 -713h475z" />
    <glyph glyph-name="Atilde" unicode="&#xc3;" horiz-adv-x="1548" 
d="M981 1819q-42 0 -78 14t-62.5 36.5t-50.5 49.5t-47 54t-47 49.5t-55.5 36.5t-67.5 14q-165 0 -165 -226h-101q-10 52 -11 101t15 92.5t43 76t74 51.5t107 19q43 0 79 -14t61 -36.5t47 -50t43 -55t44 -50t54 -36.5t69 -14q70 0 114.5 59.5t18.5 163.5h121
q32 -102 6.5 -176.5t-84 -116.5t-127.5 -42zM403 0h-315q21 32 37 64.5t23 51.5t19.5 56t18.5 55l445 1280q15 42 16 76t-12 86h293q-23 -91 2 -162l450 -1280q2 -5 13 -39t15.5 -46t16 -40t24.5 -52t30 -50h-318q24 61 25.5 111t-19.5 116l-112 338h-545l-113 -338
q-21 -66 -19.5 -116t25.5 -111zM782 1405l-237 -713h475z" />
    <glyph glyph-name="Adieresis" unicode="&#xc4;" horiz-adv-x="1548" 
d="M627 1849q-52 0 -87.5 35t-35.5 86q0 54 35 88.5t88 34.5q50 0 84 -35t34 -88q0 -51 -34 -86t-84 -35zM936 1849q-52 0 -86.5 35t-34.5 86q0 54 34 88.5t87 34.5q52 0 87.5 -35t35.5 -88q0 -51 -36 -86t-87 -35zM403 0h-315q21 32 37 64.5t23 51.5t19.5 56t18.5 55
l445 1280q15 42 16 76t-12 86h293q-23 -91 2 -162l450 -1280q2 -5 13 -39t15.5 -46t16 -40t24.5 -52t30 -50h-318q24 61 25.5 111t-19.5 116l-112 338h-545l-113 -338q-21 -66 -19.5 -116t25.5 -111zM782 1405l-237 -713h475z" />
    <glyph glyph-name="Aring" unicode="&#xc5;" horiz-adv-x="1548" 
d="M778 1782q-101 0 -170 69.5t-69 169.5t69 170t170 70q100 0 170 -70t70 -170t-70 -169.5t-170 -69.5zM778 1862q20 0 38.5 6t39 21t33 49t12.5 83t-12.5 83t-33 49.5t-39 21.5t-38.5 6t-38.5 -6t-39 -21.5t-33 -49.5t-12.5 -83t12.5 -83t33 -49t39 -21t38.5 -6zM403 0
h-315q21 32 37 64.5t23 51.5t19.5 56t18.5 55l445 1280q15 42 16 76t-12 86h293q-23 -91 2 -162l450 -1280q2 -5 13 -39t15.5 -46t16 -40t24.5 -52t30 -50h-318q24 61 25.5 111t-19.5 116l-112 338h-545l-113 -338q-21 -66 -19.5 -116t25.5 -111zM782 1405l-237 -713h475z
" />
    <glyph glyph-name="AE" unicode="&#xc6;" horiz-adv-x="1861" 
d="M412 0h-324q28 44 47 84.5t28 66.5t23 76l357 1215q22 77 22 137q0 35 -10 90h1178l20 -209q-219 58 -688 58v-500h483l11 -105h-494v-759q473 0 688 57l-20 -211h-928q21 38 31.5 78t12 67t1.5 82v314h-361l-83 -314q-19 -65 -19 -112q0 -48 25 -115zM758 1538
l-234 -854h326v854h-92z" />
    <glyph glyph-name="Ccedilla" unicode="&#xc7;" horiz-adv-x="1245" 
d="M1108 246l25 -174q-159 -89 -312 -101l-22 -37q114 -6 177.5 -61.5t63.5 -132.5q0 -57 -35 -108.5t-105.5 -89.5t-177.5 -45t-251 24v82q140 -30 235.5 -7.5t145 70t49.5 103.5q0 52 -45.5 90t-132.5 45l29 65q-132 3 -248 62.5t-204.5 167.5t-139.5 273t-51 366
q0 216 48.5 384t135 272t200 157t248.5 53q201 0 392 -107l-21 -184q-179 117 -346 117q-95 0 -174 -42t-139.5 -124.5t-94.5 -217t-34 -308.5q0 -330 131 -509t342 -179q149 0 311 96z" />
    <glyph glyph-name="Egrave" unicode="&#xc8;" horiz-adv-x="1165" 
d="M756 1870q-106 0 -210 49.5t-165 130.5l119 123q47 -68 133.5 -122.5t181.5 -76.5q82 -20 143 -20q-69 -84 -202 -84zM1036 0h-927q21 38 31.5 78t12 67t1.5 82v1215q0 55 -1.5 82t-12 67t-31.5 78h927l21 -209q-219 58 -688 58v-500h483l10 -105h-493v-759q473 0 688 57
z" />
    <glyph glyph-name="Eacute" unicode="&#xc9;" horiz-adv-x="1165" 
d="M479 1872q-63 0 -117 22t-86 62q64 0 142 20q96 22 182.5 76t132.5 121l121 -121q-62 -82 -165.5 -131t-209.5 -49zM1036 0h-927q21 38 31.5 78t12 67t1.5 82v1215q0 55 -1.5 82t-12 67t-31.5 78h927l21 -209q-219 58 -688 58v-500h483l10 -105h-493v-759q473 0 688 57z
" />
    <glyph glyph-name="Ecircumflex" unicode="&#xca;" horiz-adv-x="1165" 
d="M276 1817l-73 131q177 98 372 280q20 -17 76.5 -66.5t78.5 -67.5t64.5 -51.5t78.5 -55.5t77 -43l-100 -123q-139 114 -275 288q-137 -163 -299 -292zM1036 0h-927q21 38 31.5 78t12 67t1.5 82v1215q0 55 -1.5 82t-12 67t-31.5 78h927l21 -209q-219 58 -688 58v-500h483
l10 -105h-493v-759q473 0 688 57z" />
    <glyph glyph-name="Edieresis" unicode="&#xcb;" horiz-adv-x="1165" 
d="M424 1849q-52 0 -87.5 35t-35.5 86q0 54 35 88.5t88 34.5q50 0 84.5 -35t34.5 -88q0 -51 -34.5 -86t-84.5 -35zM733 1849q-52 0 -86.5 35t-34.5 86q0 54 34 88.5t87 34.5q52 0 87.5 -35t35.5 -88q0 -51 -36 -86t-87 -35zM1036 0h-927q21 38 31.5 78t12 67t1.5 82v1215
q0 55 -1.5 82t-12 67t-31.5 78h927l21 -209q-219 58 -688 58v-500h483l10 -105h-493v-759q473 0 688 57z" />
    <glyph glyph-name="Igrave" unicode="&#xcc;" horiz-adv-x="653" 
d="M393 1872q-107 0 -210.5 49t-164.5 131l119 121q48 -67 134 -121.5t182 -75.5q82 -20 143 -20q-33 -40 -87.5 -62t-115.5 -22zM471 0h-305q21 38 31.5 78t12 67t1.5 82v1215q0 55 -1.5 82t-12 67t-31.5 78h305q-21 -38 -31.5 -78t-12 -67t-1.5 -82v-1215q0 -55 1.5 -82
t12 -67t31.5 -78z" />
    <glyph glyph-name="Iacute" unicode="&#xcd;" horiz-adv-x="749" 
d="M311 1872q-63 0 -116.5 22t-85.5 62q63 0 141 20q96 22 182.5 76t132.5 121l121 -121q-62 -82 -165.5 -131t-209.5 -49zM563 0h-305q21 38 31.5 78t12 67t1.5 82v1215q0 55 -1.5 82t-12 67t-31.5 78h305q-21 -38 -31.5 -78t-12 -67t-1.5 -82v-1215q0 -55 1.5 -82t12 -67
t31.5 -78z" />
    <glyph glyph-name="Icircumflex" unicode="&#xce;" horiz-adv-x="647" 
d="M35 1778l-74 131q180 99 373 280q18 -16 76.5 -66.5t79 -67.5t64 -51t80 -56t77.5 -43l-103 -123q-139 118 -274 289q-132 -160 -299 -293zM459 0h-305q21 38 31.5 78t12 67t1.5 82v1215q0 55 -1.5 82t-12 67t-31.5 78h305q-21 -38 -31.5 -78t-12 -67t-1.5 -82v-1215
q0 -55 1.5 -82t12 -67t31.5 -78z" />
    <glyph glyph-name="Idieresis" unicode="&#xcf;" horiz-adv-x="518" 
d="M104 1849q-52 0 -88 35t-36 86q0 54 35.5 88.5t88.5 34.5q50 0 84.5 -35t34.5 -88q0 -51 -34.5 -86t-84.5 -35zM414 1849q-52 0 -86.5 35t-34.5 86q0 54 34 88.5t87 34.5q52 0 87.5 -35t35.5 -88q0 -51 -36 -86t-87 -35zM410 0h-306q21 38 31.5 77.5t12.5 68t2 81.5v1215
q0 53 -2 81.5t-12.5 68t-31.5 77.5h306q-21 -38 -31.5 -78t-12 -67t-1.5 -82v-1215q0 -55 1.5 -82t12 -67t31.5 -78z" />
    <glyph glyph-name="Eth" unicode="&#xd0;" horiz-adv-x="1437" 
d="M174 1669h475q333 0 506.5 -198.5t173.5 -579.5q0 -432 -173 -661.5t-503 -229.5h-479q21 38 31.5 78t12 67t1.5 82v574h-162v104h162v537q0 55 -1.5 82t-12 67t-31.5 78zM434 801v-674q353 -32 516.5 164t163.5 610q0 98 -12.5 180.5t-34.5 144.5t-55.5 111.5t-71 83.5
t-85.5 58t-96 37t-105 19t-108.5 5.5t-111.5 -4.5v-631h314v-104h-314z" />
    <glyph glyph-name="Ntilde" unicode="&#xd1;" horiz-adv-x="1449" 
d="M918 1819q-42 0 -78 14t-62.5 36.5t-50.5 49.5t-47 54t-47 49.5t-55.5 36.5t-67.5 14q-166 0 -166 -226h-100q-10 52 -11 101t14.5 92.5t43 76t74 51.5t106.5 19q43 0 79 -14t61 -36.5t47 -50t43 -55t44 -50t54 -36.5t69 -14q70 0 114.5 59.5t18.5 163.5h121
q32 -102 6.5 -176.5t-83.5 -116.5t-127 -42zM414 0h-305q21 38 31.5 78t12 67t1.5 82v1166q0 195 -41 276h143q91 0 138.5 -35t90.5 -133l578 -1280v1221q0 55 -1.5 82t-12 67t-31.5 78h305q-21 -38 -31.5 -78t-12 -67t-1.5 -82v-1215q0 -55 1.5 -82t12 -67t31.5 -78h-154
q-52 0 -88 9.5t-72.5 37.5t-68.5 80t-68 135l-503 1157v-1192q0 -55 1.5 -82t12 -67t31.5 -78z" />
    <glyph glyph-name="Ograve" unicode="&#xd2;" horiz-adv-x="1398" 
d="M879 1896q-106 0 -210 50t-165 131l119 123q47 -68 133.5 -122.5t181.5 -76.5q86 -21 143 -21q-69 -84 -202 -84zM700 -35q-146 0 -260 66t-185.5 183t-108.5 273t-37 342q0 426 147.5 649.5t443.5 223.5t445 -223.5t149 -649.5q0 -186 -37.5 -342t-109.5 -273
t-186.5 -183t-260.5 -66zM700 137q23 0 46.5 4t62.5 20t72.5 43t70.5 79.5t63 123t43 179.5t17 243q0 161 -19 284t-52 201t-81.5 127.5t-102.5 69t-120 19.5q-65 0 -118.5 -19.5t-102 -69t-81.5 -127.5t-52.5 -201t-19.5 -284q0 -134 16 -243t40.5 -179.5t60 -123
t68.5 -79.5t72.5 -43t64.5 -20t52 -4z" />
    <glyph glyph-name="Oacute" unicode="&#xd3;" horiz-adv-x="1398" 
d="M602 1898q-63 0 -117 22t-86 62q60 0 142 21q96 22 182.5 76t132.5 121l121 -121q-62 -82 -165.5 -131.5t-209.5 -49.5zM700 -35q-146 0 -260 66t-185.5 183t-108.5 273t-37 342q0 426 147.5 649.5t443.5 223.5t445 -223.5t149 -649.5q0 -186 -37.5 -342t-109.5 -273
t-186.5 -183t-260.5 -66zM700 137q23 0 46.5 4t62.5 20t72.5 43t70.5 79.5t63 123t43 179.5t17 243q0 161 -19 284t-52 201t-81.5 127.5t-102.5 69t-120 19.5q-65 0 -118.5 -19.5t-102 -69t-81.5 -127.5t-52.5 -201t-19.5 -284q0 -134 16 -243t40.5 -179.5t60 -123
t68.5 -79.5t72.5 -43t64.5 -20t52 -4z" />
    <glyph glyph-name="Ocircumflex" unicode="&#xd4;" horiz-adv-x="1398" 
d="M401 1843l-73 131q175 96 372 281q23 -20 77 -67t78 -67t65.5 -52.5t77.5 -55t77 -43.5l-100 -123q-136 113 -275 289q-140 -166 -299 -293zM700 -35q-146 0 -260 66t-185.5 183t-108.5 273t-37 342q0 426 147.5 649.5t443.5 223.5t445 -223.5t149 -649.5
q0 -186 -37.5 -342t-109.5 -273t-186.5 -183t-260.5 -66zM700 137q23 0 46.5 4t62.5 20t72.5 43t70.5 79.5t63 123t43 179.5t17 243q0 161 -19 284t-52 201t-81.5 127.5t-102.5 69t-120 19.5q-65 0 -118.5 -19.5t-102 -69t-81.5 -127.5t-52.5 -201t-19.5 -284
q0 -134 16 -243t40.5 -179.5t60 -123t68.5 -79.5t72.5 -43t64.5 -20t52 -4z" />
    <glyph glyph-name="Otilde" unicode="&#xd5;" horiz-adv-x="1398" 
d="M903 1845q-48 0 -89.5 19t-68.5 47t-56.5 61t-54 61t-61 47t-77.5 19q-166 0 -166 -225h-101q-10 52 -11 101t15 92.5t43 76t74 51.5t107 19q43 0 79 -14t61 -36.5t47 -50t43 -55t44 -50t54 -36.5t69 -14q70 0 114.5 59.5t18.5 163.5h121q32 -102 6.5 -176.5t-84 -117
t-127.5 -42.5zM700 -35q-146 0 -260 66t-185.5 183t-108.5 273t-37 342q0 426 147.5 649.5t443.5 223.5t445 -223.5t149 -649.5q0 -186 -37.5 -342t-109.5 -273t-186.5 -183t-260.5 -66zM700 137q23 0 46.5 4t62.5 20t72.5 43t70.5 79.5t63 123t43 179.5t17 243
q0 161 -19 284t-52 201t-81.5 127.5t-102.5 69t-120 19.5q-65 0 -118.5 -19.5t-102 -69t-81.5 -127.5t-52.5 -201t-19.5 -284q0 -134 16 -243t40.5 -179.5t60 -123t68.5 -79.5t72.5 -43t64.5 -20t52 -4z" />
    <glyph glyph-name="Odieresis" unicode="&#xd6;" horiz-adv-x="1398" 
d="M549 1876q-52 0 -87.5 35t-35.5 86q0 54 35 88.5t88 34.5q50 0 84.5 -35t34.5 -88q0 -51 -34.5 -86t-84.5 -35zM858 1876q-52 0 -86.5 35t-34.5 86q0 54 34 88.5t87 34.5q52 0 87.5 -35t35.5 -88q0 -51 -36 -86t-87 -35zM700 -35q-146 0 -260 66t-185.5 183t-108.5 273
t-37 342q0 426 147.5 649.5t443.5 223.5t445 -223.5t149 -649.5q0 -186 -37.5 -342t-109.5 -273t-186.5 -183t-260.5 -66zM700 137q23 0 46.5 4t62.5 20t72.5 43t70.5 79.5t63 123t43 179.5t17 243q0 161 -19 284t-52 201t-81.5 127.5t-102.5 69t-120 19.5
q-65 0 -118.5 -19.5t-102 -69t-81.5 -127.5t-52.5 -201t-19.5 -284q0 -134 16 -243t40.5 -179.5t60 -123t68.5 -79.5t72.5 -43t64.5 -20t52 -4z" />
    <glyph glyph-name="multiply" unicode="&#xd7;" horiz-adv-x="823" 
d="M410 561l-230 -229l-71 76l229 229l-229 227l73 74l228 -227l229 227l74 -74l-228 -227l230 -229l-74 -76z" />
    <glyph glyph-name="Oslash" unicode="&#xd8;" horiz-adv-x="1398" 
d="M1012 1767l-37 -129q319 -177 319 -809q0 -186 -37.5 -342t-109.5 -273t-186.5 -183t-260.5 -66q-98 0 -192 33l-27 -94h-100l39 139q-153 99 -232 305.5t-79 480.5q0 426 147.5 649.5t443.5 223.5q102 0 185 -27l26 92h101zM326 829q0 -423 151 -589l359 1263
q-62 27 -136 27q-65 0 -118.5 -19.5t-102 -69t-81.5 -127.5t-52.5 -201t-19.5 -284zM700 137q23 0 46.5 4t62.5 20t72.5 43t70.5 79.5t63 123t43 179.5t17 243q0 459 -155 617l-363 -1274q64 -35 143 -35z" />
    <glyph glyph-name="Ugrave" unicode="&#xd9;" horiz-adv-x="1347" 
d="M852 1870q-106 0 -210 49.5t-165 130.5l119 123q47 -68 133.5 -122.5t181.5 -76.5q82 -20 144 -20q-69 -84 -203 -84zM672 -35q-132 0 -232.5 38t-162 107t-92.5 161.5t-31 205.5v965q0 55 -1.5 82t-12 67t-31.5 78h305q-21 -38 -31.5 -78t-12 -67t-1.5 -82v-1051
q0 -90 45 -155.5t113 -96t149 -30.5q125 0 216 74.5t91 207.5l-2 1051q0 55 -1.5 82t-12 67t-31.5 78h305q-21 -38 -31.5 -78t-12 -67t-1.5 -82v-965q0 -112 -32 -204.5t-94.5 -162t-164 -107.5t-233.5 -38z" />
    <glyph glyph-name="Uacute" unicode="&#xda;" horiz-adv-x="1347" 
d="M575 1872q-63 0 -116.5 22t-85.5 62q63 0 141 20q96 22 182.5 76t132.5 121l121 -121q-62 -82 -165.5 -131t-209.5 -49zM672 -35q-132 0 -232.5 38t-162 107t-92.5 161.5t-31 205.5v965q0 55 -1.5 82t-12 67t-31.5 78h305q-21 -38 -31.5 -78t-12 -67t-1.5 -82v-1051
q0 -90 45 -155.5t113 -96t149 -30.5q125 0 216 74.5t91 207.5l-2 1051q0 55 -1.5 82t-12 67t-31.5 78h305q-21 -38 -31.5 -78t-12 -67t-1.5 -82v-965q0 -112 -32 -204.5t-94.5 -162t-164 -107.5t-233.5 -38z" />
    <glyph glyph-name="Ucircumflex" unicode="&#xdb;" horiz-adv-x="1347" 
d="M375 1817l-74 131q180 99 373 280q20 -17 76.5 -66.5t78.5 -67.5t64.5 -51.5t78.5 -55.5t77 -43l-101 -123q-136 112 -274 288q-137 -163 -299 -292zM672 -35q-132 0 -232.5 38t-162 107t-92.5 161.5t-31 205.5v965q0 55 -1.5 82t-12 67t-31.5 78h305q-21 -38 -31.5 -78
t-12 -67t-1.5 -82v-1051q0 -90 45 -155.5t113 -96t149 -30.5q125 0 216 74.5t91 207.5l-2 1051q0 55 -1.5 82t-12 67t-31.5 78h305q-21 -38 -31.5 -78t-12 -67t-1.5 -82v-965q0 -112 -32 -204.5t-94.5 -162t-164 -107.5t-233.5 -38z" />
    <glyph glyph-name="Udieresis" unicode="&#xdc;" horiz-adv-x="1347" 
d="M522 1849q-52 0 -87.5 35t-35.5 86q0 54 35 88.5t88 34.5q50 0 84.5 -35t34.5 -88q0 -51 -34.5 -86t-84.5 -35zM831 1849q-52 0 -86 35t-34 86q0 54 33.5 88.5t86.5 34.5q52 0 87.5 -35t35.5 -88q0 -51 -36 -86t-87 -35zM672 -35q-132 0 -232.5 38t-162 107t-92.5 161.5
t-31 205.5v965q0 55 -1.5 82t-12 67t-31.5 78h305q-21 -38 -31.5 -78t-12 -67t-1.5 -82v-1051q0 -90 45 -155.5t113 -96t149 -30.5q125 0 216 74.5t91 207.5l-2 1051q0 55 -1.5 82t-12 67t-31.5 78h305q-21 -38 -31.5 -78t-12 -67t-1.5 -82v-965q0 -112 -32 -204.5
t-94.5 -162t-164 -107.5t-233.5 -38z" />
    <glyph glyph-name="Yacute" unicode="&#xdd;" horiz-adv-x="1433" 
d="M618 1872q-63 0 -116.5 22t-85.5 62q63 0 141 20q96 22 182.5 76t132.5 121l121 -121q-62 -82 -165.5 -131t-209.5 -49zM870 0h-305q21 38 31.5 78t12 67t1.5 82v443l-403 776q-60 114 -131 223h252q1 -15 4.5 -32.5t10.5 -37t12.5 -34.5t16 -36.5t15.5 -32t16 -31.5
t13 -25l305 -594l307 596q6 11 19.5 38.5t19.5 40.5t16 36t14.5 38.5t8.5 35.5t4 38h250q-56 -80 -131 -223l-404 -776v-443q0 -55 1.5 -82t12 -67t31.5 -78z" />
    <glyph glyph-name="Thorn" unicode="&#xde;" horiz-adv-x="1280" 
d="M414 0h-305q21 38 31.5 78t12 67t1.5 82v1215q0 55 -1.5 82t-12 67t-31.5 78h305q-21 -38 -31.5 -78t-12 -67t-1.5 -82v-211h10q112 155 323 155q93 0 178 -29.5t155.5 -87.5t112.5 -157t42 -227q0 -112 -30.5 -205t-80.5 -155t-116.5 -105t-136.5 -62.5t-142 -19.5
q-103 0 -187 40t-120 109h-8v-260q0 -55 1.5 -82t12 -67t31.5 -78zM631 444q67 0 128 27t109.5 79t77.5 136.5t29 190.5q0 95 -30 172t-80.5 125t-113 74t-130.5 26q-77 0 -144.5 -31t-107.5 -88v-582q42 -60 113 -94.5t149 -34.5z" />
    <glyph glyph-name="germandbls" unicode="&#xdf;" horiz-adv-x="1427" 
d="M872 -39q-101 0 -184.5 42t-138.5 132.5t-57 216.5q22 -128 107 -197t194 -69q63 0 122 24t106.5 69t76 116.5t28.5 159.5q0 151 -123 269t-358 153v116q108 63 164.5 158.5t56.5 191.5q0 103 -62.5 171.5t-174.5 68.5q-73 0 -127 -31t-82.5 -80t-41.5 -99.5t-13 -100.5
v-1065q0 -31 -3 -79.5t-2 -77.5t9 -54h-281q38 51 50 94t12 107v1026q0 120 40 214.5t107.5 151t149 85t171.5 28.5q166 0 280 -92.5t114 -241.5q0 -76 -21.5 -143.5t-57 -115.5t-68 -79.5t-68.5 -56.5q136 -12 241.5 -58t170 -115.5t97.5 -154t33 -178.5q0 -120 -41 -219
t-108.5 -160t-149.5 -94t-168 -33z" />
    <glyph glyph-name="agrave" unicode="&#xe0;" horiz-adv-x="1277" 
d="M850 1384q-106 0 -210 50t-165 131l119 123q47 -68 133.5 -122.5t181.5 -76.5q86 -21 144 -21q-69 -84 -203 -84zM469 -31q-94 0 -175 41.5t-133 124.5t-52 191q0 93 38.5 167t102.5 119t143.5 69t165.5 24q105 0 202 -34.5t163 -97.5q-107 74 -258 74q-71 0 -134 -18.5
t-113.5 -55t-80 -95.5t-29.5 -134q0 -110 63.5 -172.5t159.5 -62.5q78 0 156 49.5t143 149.5t93 231v303q0 106 -80.5 173.5t-204.5 67.5q-165 0 -344 -125l-47 140q96 59 208 91t220 32q94 0 176.5 -24.5t147 -72t102 -124t37.5 -173.5v-694q0 -44 12 -76t49 -57h-151
q-66 0 -95.5 36.5t-29.5 96.5v246h-6q-44 -198 -169.5 -304t-279.5 -106z" />
    <glyph glyph-name="aacute" unicode="&#xe1;" horiz-adv-x="1277" 
d="M573 1386q-63 0 -116.5 22t-85.5 62q59 0 141 21q96 22 182.5 76t132.5 121l121 -121q-62 -82 -165.5 -131.5t-209.5 -49.5zM469 -31q-94 0 -175 41.5t-133 124.5t-52 191q0 93 38.5 167t102.5 119t143.5 69t165.5 24q105 0 202 -34.5t163 -97.5q-107 74 -258 74
q-71 0 -134 -18.5t-113.5 -55t-80 -95.5t-29.5 -134q0 -110 63.5 -172.5t159.5 -62.5q78 0 156 49.5t143 149.5t93 231v303q0 106 -80.5 173.5t-204.5 67.5q-165 0 -344 -125l-47 140q96 59 208 91t220 32q94 0 176.5 -24.5t147 -72t102 -124t37.5 -173.5v-694q0 -44 12 -76
t49 -57h-151q-66 0 -95.5 36.5t-29.5 96.5v246h-6q-44 -198 -169.5 -304t-279.5 -106z" />
    <glyph glyph-name="acircumflex" unicode="&#xe2;" horiz-adv-x="1277" 
d="M373 1331l-74 131q177 97 373 281q23 -20 77 -67t78 -67t65.5 -52.5t77.5 -55t77 -43.5l-101 -123q-133 110 -274 289q-140 -166 -299 -293zM469 -31q-94 0 -175 41.5t-133 124.5t-52 191q0 93 38.5 167t102.5 119t143.5 69t165.5 24q105 0 202 -34.5t163 -97.5
q-107 74 -258 74q-71 0 -134 -18.5t-113.5 -55t-80 -95.5t-29.5 -134q0 -110 63.5 -172.5t159.5 -62.5q78 0 156 49.5t143 149.5t93 231v303q0 106 -80.5 173.5t-204.5 67.5q-165 0 -344 -125l-47 140q96 59 208 91t220 32q94 0 176.5 -24.5t147 -72t102 -124t37.5 -173.5
v-694q0 -44 12 -76t49 -57h-151q-66 0 -95.5 36.5t-29.5 96.5v246h-6q-44 -198 -169.5 -304t-279.5 -106z" />
    <glyph glyph-name="atilde" unicode="&#xe3;" horiz-adv-x="1277" 
d="M874 1333q-48 0 -89.5 19t-68.5 47t-56.5 61t-54 61t-61 47t-77.5 19q-166 0 -166 -225h-100q-10 52 -11 101t14.5 92.5t43 76t74 51.5t106.5 19q43 0 79 -14t61 -36.5t47 -50t43 -55t44 -50t54 -36.5t69 -14q70 0 114.5 59.5t18.5 163.5h121q32 -102 6.5 -176.5
t-84 -117t-127.5 -42.5zM469 -31q-94 0 -175 41.5t-133 124.5t-52 191q0 93 38.5 167t102.5 119t143.5 69t165.5 24q105 0 202 -34.5t163 -97.5q-107 74 -258 74q-71 0 -134 -18.5t-113.5 -55t-80 -95.5t-29.5 -134q0 -110 63.5 -172.5t159.5 -62.5q78 0 156 49.5t143 149.5
t93 231v303q0 106 -80.5 173.5t-204.5 67.5q-165 0 -344 -125l-47 140q96 59 208 91t220 32q94 0 176.5 -24.5t147 -72t102 -124t37.5 -173.5v-694q0 -44 12 -76t49 -57h-151q-66 0 -95.5 36.5t-29.5 96.5v246h-6q-44 -198 -169.5 -304t-279.5 -106z" />
    <glyph glyph-name="adieresis" unicode="&#xe4;" horiz-adv-x="1277" 
d="M520 1364q-52 0 -87.5 35t-35.5 86q0 54 35 88.5t88 34.5q50 0 84.5 -35t34.5 -88q0 -51 -34.5 -86t-84.5 -35zM829 1364q-52 0 -86 35t-34 86q0 54 33.5 88.5t86.5 34.5q52 0 87.5 -35t35.5 -88q0 -51 -36 -86t-87 -35zM469 -31q-94 0 -175 41.5t-133 124.5t-52 191
q0 93 38.5 167t102.5 119t143.5 69t165.5 24q105 0 202 -34.5t163 -97.5q-107 74 -258 74q-71 0 -134 -18.5t-113.5 -55t-80 -95.5t-29.5 -134q0 -110 63.5 -172.5t159.5 -62.5q78 0 156 49.5t143 149.5t93 231v303q0 106 -80.5 173.5t-204.5 67.5q-165 0 -344 -125l-47 140
q96 59 208 91t220 32q94 0 176.5 -24.5t147 -72t102 -124t37.5 -173.5v-694q0 -44 12 -76t49 -57h-151q-66 0 -95.5 36.5t-29.5 96.5v246h-6q-44 -198 -169.5 -304t-279.5 -106z" />
    <glyph glyph-name="aring" unicode="&#xe5;" horiz-adv-x="1277" 
d="M672 1296q-101 0 -170.5 70t-69.5 170t69.5 170t170.5 70q100 0 169.5 -70t69.5 -170t-69.5 -170t-169.5 -70zM672 1376q20 0 38.5 6t39 21.5t33 49.5t12.5 83t-12.5 83t-33 49.5t-39 21.5t-38.5 6t-38.5 -6t-39 -21.5t-33 -49.5t-12.5 -83t12.5 -83t33 -49.5t39 -21.5
t38.5 -6zM469 -31q-94 0 -175 41.5t-133 124.5t-52 191q0 93 38.5 167t102.5 119t143.5 69t165.5 24q105 0 202 -34.5t163 -97.5q-107 74 -258 74q-71 0 -134 -18.5t-113.5 -55t-80 -95.5t-29.5 -134q0 -110 63.5 -172.5t159.5 -62.5q78 0 156 49.5t143 149.5t93 231v303
q0 106 -80.5 173.5t-204.5 67.5q-165 0 -344 -125l-47 140q96 59 208 91t220 32q94 0 176.5 -24.5t147 -72t102 -124t37.5 -173.5v-694q0 -44 12 -76t49 -57h-151q-66 0 -95.5 36.5t-29.5 96.5v246h-6q-44 -198 -169.5 -304t-279.5 -106z" />
    <glyph glyph-name="ae" unicode="&#xe6;" horiz-adv-x="2170" 
d="M489 -31q-100 0 -185.5 41.5t-140 125t-54.5 192.5q0 118 62 205.5t160 129.5t216 42q183 0 346 -99q-66 23 -142.5 31t-155 -4.5t-142 -44.5t-104 -96t-40.5 -152q0 -106 58.5 -163.5t148.5 -57.5q54 0 109.5 21t108.5 65t94.5 104.5t67.5 147.5t28 186v145
q0 143 -78.5 219t-206.5 76q-175 0 -354 -125l-37 140q97 59 209 91t219 32q138 0 246 -61t153 -179q82 109 205.5 170t255.5 61q207 0 322.5 -94.5t115.5 -234.5q0 -122 -73.5 -214t-190 -137t-256.5 -45q-127 0 -242 41v9q126 -24 258 10t221 117t89 186q0 109 -69 171
t-171 62q-55 0 -110.5 -18t-108 -57.5t-93.5 -95t-65.5 -138t-23.5 -180.5q1 -111 40 -201.5t105 -147t148 -86.5t172 -30q124 0 244 56.5t206 160.5l45 -166q-104 -103 -238.5 -156t-273.5 -53q-126 0 -245 47.5t-211 142t-125 218.5h-11q-24 -106 -80.5 -188t-129 -128.5
t-148 -70t-148.5 -23.5z" />
    <glyph glyph-name="ccedilla" unicode="&#xe7;" horiz-adv-x="1075" 
d="M623 -31q-27 0 -39 2l-23 -37q115 -6 178.5 -61.5t63.5 -132.5q0 -57 -35 -108.5t-105.5 -89.5t-178 -45t-251.5 24v82q140 -30 236 -7.5t145.5 70t49.5 103.5q0 52 -46 90t-133 45l33 76q-193 36 -310.5 201.5t-117.5 424.5q0 144 42 262t114.5 194.5t168.5 118.5
t206 42q215 0 419 -150l-45 -186q-176 164 -358 164q-148 0 -245 -120t-97 -331q0 -225 97 -348t259 -123q197 0 420 172v-178q-231 -154 -448 -154z" />
    <glyph glyph-name="egrave" unicode="&#xe8;" horiz-adv-x="1306" 
d="M838 1384q-106 0 -210 50t-165 131l119 123q47 -68 133.5 -122.5t181.5 -76.5q86 -21 143 -21q-69 -84 -202 -84zM766 -37q-135 0 -257 44.5t-215.5 125.5t-148.5 204.5t-55 272.5q0 135 45 249t124.5 193t190.5 123t240 44q231 0 376.5 -107.5t145.5 -257.5
q0 -156 -156 -262.5t-442 -106.5q-150 0 -295 54q93 -3 164 2q135 4 240.5 31.5t167.5 71t93.5 94t31.5 104.5q0 98 -87 168.5t-229 70.5q-71 0 -139 -27t-126.5 -79.5t-94 -142t-35.5 -203.5q0 -117 40 -214.5t108.5 -161t157 -98t186.5 -34.5q103 0 207 38t192 107
l39 -160q-219 -143 -469 -143z" />
    <glyph glyph-name="eacute" unicode="&#xe9;" horiz-adv-x="1306" 
d="M561 1386q-63 0 -117 22t-86 62q60 0 142 21q96 22 182.5 76t132.5 121l121 -121q-62 -82 -165.5 -131.5t-209.5 -49.5zM766 -37q-135 0 -257 44.5t-215.5 125.5t-148.5 204.5t-55 272.5q0 135 45 249t124.5 193t190.5 123t240 44q231 0 376.5 -107.5t145.5 -257.5
q0 -156 -156 -262.5t-442 -106.5q-150 0 -295 54q93 -3 164 2q135 4 240.5 31.5t167.5 71t93.5 94t31.5 104.5q0 98 -87 168.5t-229 70.5q-71 0 -139 -27t-126.5 -79.5t-94 -142t-35.5 -203.5q0 -117 40 -214.5t108.5 -161t157 -98t186.5 -34.5q103 0 207 38t192 107
l39 -160q-219 -143 -469 -143z" />
    <glyph glyph-name="ecircumflex" unicode="&#xea;" horiz-adv-x="1306" 
d="M360 1331l-73 131q175 96 372 281q23 -20 77 -67t78 -67t65.5 -52.5t77.5 -55t77 -43.5l-100 -123q-136 113 -275 289q-140 -166 -299 -293zM766 -37q-135 0 -257 44.5t-215.5 125.5t-148.5 204.5t-55 272.5q0 135 45 249t124.5 193t190.5 123t240 44q231 0 376.5 -107.5
t145.5 -257.5q0 -156 -156 -262.5t-442 -106.5q-150 0 -295 54q93 -3 164 2q135 4 240.5 31.5t167.5 71t93.5 94t31.5 104.5q0 98 -87 168.5t-229 70.5q-71 0 -139 -27t-126.5 -79.5t-94 -142t-35.5 -203.5q0 -117 40 -214.5t108.5 -161t157 -98t186.5 -34.5q103 0 207 38
t192 107l39 -160q-219 -143 -469 -143z" />
    <glyph glyph-name="edieresis" unicode="&#xeb;" horiz-adv-x="1306" 
d="M508 1364q-52 0 -87.5 35t-35.5 86q0 54 35 88.5t88 34.5q50 0 84.5 -35t34.5 -88q0 -51 -34.5 -86t-84.5 -35zM817 1364q-52 0 -86.5 35t-34.5 86q0 54 34 88.5t87 34.5q52 0 87.5 -35t35.5 -88q0 -51 -36 -86t-87 -35zM766 -37q-135 0 -257 44.5t-215.5 125.5
t-148.5 204.5t-55 272.5q0 135 45 249t124.5 193t190.5 123t240 44q231 0 376.5 -107.5t145.5 -257.5q0 -156 -156 -262.5t-442 -106.5q-150 0 -295 54q93 -3 164 2q135 4 240.5 31.5t167.5 71t93.5 94t31.5 104.5q0 98 -87 168.5t-229 70.5q-71 0 -139 -27t-126.5 -79.5
t-94 -142t-35.5 -203.5q0 -117 40 -214.5t108.5 -161t157 -98t186.5 -34.5q103 0 207 38t192 107l39 -160q-219 -143 -469 -143z" />
    <glyph glyph-name="igrave" unicode="&#xec;" horiz-adv-x="520" 
d="M365 1384q-105 0 -208.5 50t-166.5 131l121 123q46 -68 132.5 -122.5t182.5 -76.5q82 -21 141 -21q-32 -40 -85.5 -62t-116.5 -22zM414 0h-305q21 38 31.5 78t12 67t1.5 82v791q0 55 -10.5 86t-34.5 59q80 0 155.5 22t104.5 60v-1018q0 -55 1.5 -82t12 -67t31.5 -78z" />
    <glyph glyph-name="iacute" unicode="&#xed;" horiz-adv-x="520" 
d="M170 1386q-61 0 -115.5 22t-87.5 62q58 0 144 21q96 22 182.5 76t132.5 121l119 -121q-61 -82 -164.5 -131.5t-210.5 -49.5zM414 0h-305q21 38 31.5 78t12 67t1.5 82v791q0 55 -10.5 86t-34.5 59q80 0 155.5 22t104.5 60v-1018q0 -55 1.5 -82t12 -67t31.5 -78z" />
    <glyph glyph-name="icircumflex" unicode="&#xee;" horiz-adv-x="520" 
d="M-39 1331l-74 131q177 97 373 281q22 -19 77 -67t78 -67t65.5 -52t79 -55.5t77.5 -43.5l-102 -123q-142 120 -275 289q-132 -160 -299 -293zM414 0h-305q21 38 31.5 78t12 67t1.5 82v791q0 55 -10.5 86t-34.5 59q80 0 155.5 22t104.5 60v-1018q0 -55 1.5 -82t12 -67
t31.5 -78z" />
    <glyph glyph-name="idieresis" unicode="&#xef;" horiz-adv-x="518" 
d="M104 1364q-52 0 -88 35t-36 86q0 54 35.5 88.5t88.5 34.5q50 0 84.5 -35t34.5 -88q0 -51 -34.5 -86t-84.5 -35zM414 1364q-52 0 -86.5 35t-34.5 86q0 54 34 88.5t87 34.5q52 0 87.5 -35t35.5 -88q0 -51 -36 -86t-87 -35zM410 0h-306q21 38 31.5 77.5t12.5 68t2 81.5v791
q0 56 -10.5 87t-35.5 58q80 0 156 22t105 60v-1018q0 -55 1.5 -82t12 -67t31.5 -78z" />
    <glyph glyph-name="eth" unicode="&#xf0;" horiz-adv-x="1345" 
d="M881 1661l-127 -115q106 -62 193.5 -144t157.5 -186.5t109 -237t39 -278.5q0 -169 -49 -308t-132.5 -228.5t-192 -138t-230.5 -48.5q-108 0 -207.5 38.5t-178.5 110t-126 184.5t-47 251q0 87 19.5 166t54 141.5t82.5 116.5t105 91.5t121.5 66.5t132 41t137 15.5
t135.5 -9.5v-107q-52 7 -107.5 5.5t-111.5 -21.5t-107.5 -48.5t-96.5 -74t-78 -99.5t-52 -124t-19 -148q0 -197 99.5 -309t238.5 -112q60 0 116.5 21.5t108 68t90 112t61.5 161t23 208.5q0 233 -106 414t-299 305l-201 -182l-53 65l174 162q-109 58 -238 98l74 96
q136 -24 277 -90l127 119z" />
    <glyph glyph-name="ntilde" unicode="&#xf1;" horiz-adv-x="1361" 
d="M829 1333q-49 0 -90.5 19t-69 47t-56.5 61t-54 61t-61.5 47t-77.5 19q-166 0 -166 -225h-98q-11 52 -12 101t14.5 92.5t43 76t73.5 51.5t106 19q59 0 104.5 -26.5t75.5 -64t58.5 -75t68.5 -64t90 -26.5q71 0 115 59.5t18 163.5h121q33 -102 8 -176.5t-83.5 -117
t-127.5 -42.5zM426 0h-305q21 38 31.5 78t12 67t1.5 82v764q0 56 -10 87.5t-35 58.5q80 0 155.5 22t104.5 60v-361h10q28 117 99 201.5t158.5 123t182.5 38.5q75 0 142 -24.5t120 -70.5t84 -118.5t31 -161.5v-619q0 -55 1.5 -82t12 -67t31.5 -78h-305q21 38 31.5 78t12 67
t1.5 82v594q0 124 -67 192t-168 68q-78 0 -152 -38.5t-136.5 -122t-88.5 -199.5v-494q0 -55 1.5 -82t12 -67t31.5 -78z" />
    <glyph glyph-name="ograve" unicode="&#xf2;" horiz-adv-x="1316" 
d="M838 1384q-106 0 -210 50t-165 131l119 123q47 -68 133.5 -122.5t181.5 -76.5q86 -21 143 -21q-69 -84 -202 -84zM659 -27q-79 0 -157 21.5t-153 70t-132 119t-92 177.5t-35 237q0 129 33 234.5t88.5 175.5t130 118.5t154 69.5t163.5 21q85 0 164.5 -21t153 -69.5
t128.5 -118.5t87.5 -175.5t32.5 -234.5q0 -130 -35 -237t-91.5 -177.5t-131.5 -119t-152.5 -70t-155.5 -21.5zM659 104q45 0 91 16t93.5 54t84 93t59.5 141t23 190q0 105 -23 191.5t-59.5 141t-84 91.5t-93.5 52.5t-91 15.5q-46 0 -92.5 -15.5t-94.5 -52.5t-84.5 -91.5
t-59.5 -140.5t-23 -192q0 -104 23 -190t59.5 -141t84 -93t94.5 -54t93 -16z" />
    <glyph glyph-name="oacute" unicode="&#xf3;" horiz-adv-x="1316" 
d="M561 1386q-63 0 -117 22t-86 62q60 0 142 21q96 22 182.5 76t132.5 121l121 -121q-62 -82 -165.5 -131.5t-209.5 -49.5zM659 -27q-79 0 -157 21.5t-153 70t-132 119t-92 177.5t-35 237q0 129 33 234.5t88.5 175.5t130 118.5t154 69.5t163.5 21q85 0 164.5 -21t153 -69.5
t128.5 -118.5t87.5 -175.5t32.5 -234.5q0 -130 -35 -237t-91.5 -177.5t-131.5 -119t-152.5 -70t-155.5 -21.5zM659 104q45 0 91 16t93.5 54t84 93t59.5 141t23 190q0 105 -23 191.5t-59.5 141t-84 91.5t-93.5 52.5t-91 15.5q-46 0 -92.5 -15.5t-94.5 -52.5t-84.5 -91.5
t-59.5 -140.5t-23 -192q0 -104 23 -190t59.5 -141t84 -93t94.5 -54t93 -16z" />
    <glyph glyph-name="ocircumflex" unicode="&#xf4;" horiz-adv-x="1316" 
d="M358 1331l-73 131q175 96 372 281q23 -20 77 -67t78 -67t65.5 -52.5t77.5 -55t77 -43.5l-100 -123q-136 113 -275 289q-140 -166 -299 -293zM659 -27q-79 0 -157 21.5t-153 70t-132 119t-92 177.5t-35 237q0 129 33 234.5t88.5 175.5t130 118.5t154 69.5t163.5 21
q85 0 164.5 -21t153 -69.5t128.5 -118.5t87.5 -175.5t32.5 -234.5q0 -130 -35 -237t-91.5 -177.5t-131.5 -119t-152.5 -70t-155.5 -21.5zM659 104q45 0 91 16t93.5 54t84 93t59.5 141t23 190q0 105 -23 191.5t-59.5 141t-84 91.5t-93.5 52.5t-91 15.5q-46 0 -92.5 -15.5
t-94.5 -52.5t-84.5 -91.5t-59.5 -140.5t-23 -192q0 -104 23 -190t59.5 -141t84 -93t94.5 -54t93 -16z" />
    <glyph glyph-name="otilde" unicode="&#xf5;" horiz-adv-x="1316" 
d="M862 1333q-48 0 -89.5 19t-68.5 47t-56.5 61t-54 61t-61 47t-77.5 19q-166 0 -166 -225h-101q-10 52 -11 101t15 92.5t43 76t74 51.5t107 19q43 0 79 -14t61 -36.5t47 -50t43 -55t44 -50t54 -36.5t69 -14q70 0 114.5 59.5t18.5 163.5h121q32 -102 6.5 -176.5t-84 -117
t-127.5 -42.5zM659 -27q-79 0 -157 21.5t-153 70t-132 119t-92 177.5t-35 237q0 129 33 234.5t88.5 175.5t130 118.5t154 69.5t163.5 21q85 0 164.5 -21t153 -69.5t128.5 -118.5t87.5 -175.5t32.5 -234.5q0 -130 -35 -237t-91.5 -177.5t-131.5 -119t-152.5 -70t-155.5 -21.5
zM659 104q45 0 91 16t93.5 54t84 93t59.5 141t23 190q0 105 -23 191.5t-59.5 141t-84 91.5t-93.5 52.5t-91 15.5q-46 0 -92.5 -15.5t-94.5 -52.5t-84.5 -91.5t-59.5 -140.5t-23 -192q0 -104 23 -190t59.5 -141t84 -93t94.5 -54t93 -16z" />
    <glyph glyph-name="odieresis" unicode="&#xf6;" horiz-adv-x="1316" 
d="M508 1364q-52 0 -87.5 35t-35.5 86q0 54 35 88.5t88 34.5q50 0 84.5 -35t34.5 -88q0 -51 -34.5 -86t-84.5 -35zM817 1364q-52 0 -86.5 35t-34.5 86q0 54 34 88.5t87 34.5q52 0 87.5 -35t35.5 -88q0 -51 -36 -86t-87 -35zM659 -27q-79 0 -157 21.5t-153 70t-132 119
t-92 177.5t-35 237q0 129 33 234.5t88.5 175.5t130 118.5t154 69.5t163.5 21q85 0 164.5 -21t153 -69.5t128.5 -118.5t87.5 -175.5t32.5 -234.5q0 -130 -35 -237t-91.5 -177.5t-131.5 -119t-152.5 -70t-155.5 -21.5zM659 104q45 0 91 16t93.5 54t84 93t59.5 141t23 190
q0 105 -23 191.5t-59.5 141t-84 91.5t-93.5 52.5t-91 15.5q-46 0 -92.5 -15.5t-94.5 -52.5t-84.5 -91.5t-59.5 -140.5t-23 -192q0 -104 23 -190t59.5 -141t84 -93t94.5 -54t93 -16z" />
    <glyph glyph-name="divide" unicode="&#xf7;" horiz-adv-x="864" 
d="M416 856q-40 0 -67 27t-27 67q0 37 27.5 63.5t66.5 26.5q40 0 68 -26.5t28 -63.5q0 -40 -28 -67t-68 -27zM758 578h-649v106h649v-106zM416 207q-40 0 -67 27t-27 65q0 37 27.5 64.5t66.5 27.5t67.5 -27.5t28.5 -64.5q0 -38 -28 -65t-68 -27z" />
    <glyph glyph-name="oslash" unicode="&#xf8;" horiz-adv-x="1316" 
d="M977 1524l-98 -346q155 -60 250.5 -205t95.5 -375q0 -130 -35 -237t-91.5 -177.5t-131.5 -119t-152.5 -70t-155.5 -21.5q-53 0 -120 13l-93 -326h-98l101 354q-59 23 -110.5 57.5t-98 86t-79 114.5t-52 146.5t-19.5 179.5q0 129 33 234.5t88.5 175.5t130 118.5t154 69.5
t163.5 21q59 0 129 -13l91 320h98zM305 598q0 -162 51 -271t133 -167l261 913q-44 17 -91 17q-46 0 -92.5 -15.5t-94.5 -52.5t-84.5 -91.5t-59.5 -140.5t-23 -192zM659 104q45 0 91 16t93.5 54t84 93t59.5 141t23 190q0 300 -174 430l-258 -911q47 -13 81 -13z" />
    <glyph glyph-name="ugrave" unicode="&#xf9;" horiz-adv-x="1363" 
d="M842 1384q-106 0 -210 50t-165 131l119 123q47 -68 133.5 -122.5t181.5 -76.5q86 -21 143 -21q-69 -84 -202 -84zM543 -35q-169 0 -279 101t-110 280v645q0 55 -10.5 87t-34.5 59q80 0 155.5 22t104.5 60v-848q0 -131 64.5 -198t176.5 -67q125 0 233.5 104t137.5 282v499
q0 55 -10.5 87t-34.5 59q80 0 155.5 22t104.5 60v-1059q0 -63 16.5 -97.5t65.5 -62.5h-148q-75 0 -112 46t-37 120v211h-10q-29 -186 -146 -299t-282 -113z" />
    <glyph glyph-name="uacute" unicode="&#xfa;" horiz-adv-x="1363" 
d="M565 1386q-63 0 -117 22t-86 62q60 0 142 21q96 22 182.5 76t132.5 121l121 -121q-62 -82 -165.5 -131.5t-209.5 -49.5zM543 -35q-169 0 -279 101t-110 280v645q0 55 -10.5 87t-34.5 59q80 0 155.5 22t104.5 60v-848q0 -131 64.5 -198t176.5 -67q125 0 233.5 104
t137.5 282v499q0 55 -10.5 87t-34.5 59q80 0 155.5 22t104.5 60v-1059q0 -63 16.5 -97.5t65.5 -62.5h-148q-75 0 -112 46t-37 120v211h-10q-29 -186 -146 -299t-282 -113z" />
    <glyph glyph-name="ucircumflex" unicode="&#xfb;" horiz-adv-x="1363" 
d="M365 1331l-74 131q177 97 373 281q25 -21 77 -67t77 -67t65.5 -52.5t77 -54.5t77.5 -44l-100 -123q-133 110 -274 289q-140 -166 -299 -293zM543 -35q-169 0 -279 101t-110 280v645q0 55 -10.5 87t-34.5 59q80 0 155.5 22t104.5 60v-848q0 -131 64.5 -198t176.5 -67
q125 0 233.5 104t137.5 282v499q0 55 -10.5 87t-34.5 59q80 0 155.5 22t104.5 60v-1059q0 -63 16.5 -97.5t65.5 -62.5h-148q-75 0 -112 46t-37 120v211h-10q-29 -186 -146 -299t-282 -113z" />
    <glyph glyph-name="udieresis" unicode="&#xfc;" horiz-adv-x="1363" 
d="M512 1364q-52 0 -87.5 35t-35.5 86q0 54 35 88.5t88 34.5q50 0 84.5 -35t34.5 -88q0 -51 -34.5 -86t-84.5 -35zM821 1364q-52 0 -86.5 35t-34.5 86q0 54 34 88.5t87 34.5q52 0 87.5 -35t35.5 -88q0 -51 -36 -86t-87 -35zM543 -35q-169 0 -279 101t-110 280v645
q0 55 -10.5 87t-34.5 59q80 0 155.5 22t104.5 60v-848q0 -131 64.5 -198t176.5 -67q125 0 233.5 104t137.5 282v499q0 55 -10.5 87t-34.5 59q80 0 155.5 22t104.5 60v-1059q0 -63 16.5 -97.5t65.5 -62.5h-148q-75 0 -112 46t-37 120v211h-10q-29 -186 -146 -299t-282 -113z
" />
    <glyph glyph-name="yacute" unicode="&#xfd;" horiz-adv-x="1202" 
d="M508 1386q-63 0 -117 22t-86 62q59 0 141 21q96 22 183 76.5t133 120.5l121 -121q-62 -82 -165.5 -131.5t-209.5 -49.5zM49 -377l-14 193q143 -36 242.5 -41t164.5 22.5t101.5 78.5t58.5 134l10 51h-163l-312 943q-41 120 -82 180h262q-9 -88 15 -154l301 -874l207 874
q17 86 10 154h260q-43 -63 -70 -180l-252 -1004q-30 -120 -84 -201t-143 -132t-214 -59.5t-298 15.5z" />
    <glyph glyph-name="thorn" unicode="&#xfe;" horiz-adv-x="1275" 
d="M414 -338h-305q21 38 31.5 78t12 67t1.5 82v1295q0 55 -1.5 82t-12 67t-31.5 78h305q-21 -38 -31.5 -78t-12 -67t-1.5 -82v-291h10q57 78 148 117t175 39q149 0 262 -72.5t169.5 -189t56.5 -255.5q0 -129 -42 -237t-112.5 -177.5t-159.5 -108t-184 -38.5q-186 0 -315 129
h-8v-211q0 -55 1.5 -82t12 -67t31.5 -78zM629 72q146 0 246 126t100 332q0 191 -101.5 307.5t-242.5 116.5q-157 0 -262 -137v-631q120 -114 260 -114z" />
    <glyph glyph-name="ydieresis" unicode="&#xff;" horiz-adv-x="1202" 
d="M455 1364q-52 0 -87.5 35t-35.5 86q0 54 35 88.5t88 34.5q50 0 84 -35t34 -88q0 -51 -34 -86t-84 -35zM764 1364q-52 0 -86.5 35t-34.5 86q0 54 34 88.5t87 34.5q52 0 87.5 -35t35.5 -88q0 -51 -36 -86t-87 -35zM49 -377l-14 193q143 -36 242.5 -41t164.5 22.5
t101.5 78.5t58.5 134l10 51h-163l-312 943q-41 120 -82 180h262q-9 -88 15 -154l301 -874l207 874q17 86 10 154h260q-43 -63 -70 -180l-252 -1004q-30 -120 -84 -201t-143 -132t-214 -59.5t-298 15.5z" />
    <glyph glyph-name="Amacron" unicode="&#x100;" horiz-adv-x="1548" 
d="M1116 1939h-674v109h674v-109zM403 0h-315q21 32 37 64.5t23 51.5t19.5 56t18.5 55l445 1280q15 42 16 76t-12 86h293q-23 -91 2 -162l450 -1280q2 -5 13 -39t15.5 -46t16 -40t24.5 -52t30 -50h-318q24 61 25.5 111t-19.5 116l-112 338h-545l-113 -338
q-21 -66 -19.5 -116t25.5 -111zM782 1405l-237 -713h475z" />
    <glyph glyph-name="amacron" unicode="&#x101;" horiz-adv-x="1277" 
d="M1010 1454h-674v109h674v-109zM469 -31q-94 0 -175 41.5t-133 124.5t-52 191q0 93 38.5 167t102.5 119t143.5 69t165.5 24q105 0 202 -34.5t163 -97.5q-107 74 -258 74q-71 0 -134 -18.5t-113.5 -55t-80 -95.5t-29.5 -134q0 -110 63.5 -172.5t159.5 -62.5q78 0 156 49.5
t143 149.5t93 231v303q0 106 -80.5 173.5t-204.5 67.5q-165 0 -344 -125l-47 140q96 59 208 91t220 32q94 0 176.5 -24.5t147 -72t102 -124t37.5 -173.5v-694q0 -44 12 -76t49 -57h-151q-66 0 -95.5 36.5t-29.5 96.5v246h-6q-44 -198 -169.5 -304t-279.5 -106z" />
    <glyph glyph-name="Abreve" unicode="&#x102;" horiz-adv-x="1548" 
d="M780 1819q-69 0 -134 23t-119 66t-89.5 112t-42.5 155h131q13 -109 86.5 -169t167.5 -60q95 0 168 60t84 169h131q-13 -168 -124 -262t-259 -94zM403 0h-315q21 32 37 64.5t23 51.5t19.5 56t18.5 55l445 1280q15 42 16 76t-12 86h293q-23 -91 2 -162l450 -1280
q2 -5 13 -39t15.5 -46t16 -40t24.5 -52t30 -50h-318q24 61 25.5 111t-19.5 116l-112 338h-545l-113 -338q-21 -66 -19.5 -116t25.5 -111zM782 1405l-237 -713h475z" />
    <glyph glyph-name="abreve" unicode="&#x103;" horiz-adv-x="1277" 
d="M674 1333q-69 0 -134 23t-119 66.5t-89.5 112.5t-42.5 155h131q13 -110 86.5 -170t167.5 -60t167.5 60.5t84.5 169.5h131q-13 -168 -124 -262.5t-259 -94.5zM469 -31q-94 0 -175 41.5t-133 124.5t-52 191q0 93 38.5 167t102.5 119t143.5 69t165.5 24q105 0 202 -34.5
t163 -97.5q-107 74 -258 74q-71 0 -134 -18.5t-113.5 -55t-80 -95.5t-29.5 -134q0 -110 63.5 -172.5t159.5 -62.5q78 0 156 49.5t143 149.5t93 231v303q0 106 -80.5 173.5t-204.5 67.5q-165 0 -344 -125l-47 140q96 59 208 91t220 32q94 0 176.5 -24.5t147 -72t102 -124
t37.5 -173.5v-694q0 -44 12 -76t49 -57h-151q-66 0 -95.5 36.5t-29.5 96.5v246h-6q-44 -198 -169.5 -304t-279.5 -106z" />
    <glyph glyph-name="Aogonek" unicode="&#x104;" horiz-adv-x="1548" 
d="M1479 0h-101q-80 0 -135 -51.5t-55 -114.5q0 -51 45 -88t133 -41l-53 -92q-120 -30 -201.5 28.5t-81.5 159.5q0 61 34 114.5t99 84.5h-2q24 61 25.5 111t-19.5 116l-112 338h-545l-113 -338q-21 -66 -19.5 -116t25.5 -111h-315q21 32 37 64.5t23 51.5t19.5 56t18.5 55
l445 1280q15 42 16 76t-12 86h293q-23 -91 2 -162l450 -1280q2 -5 13 -39t15.5 -46t16 -40t24.5 -52t30 -50zM782 1405l-237 -713h475z" />
    <glyph glyph-name="aogonek" unicode="&#x105;" horiz-adv-x="1277" 
d="M1200 0h-45q-80 0 -135 -51.5t-55 -114.5q0 -51 45 -88t133 -41l-53 -92q-120 -30 -201.5 28.5t-81.5 159.5q0 70 44 128.5t128 86.5q-55 31 -55 117v246h-6q-44 -198 -169.5 -304t-279.5 -106q-94 0 -175 41.5t-133 124.5t-52 191q0 93 38.5 167t102.5 119t143.5 69
t165.5 24q105 0 202 -34.5t163 -97.5q-107 74 -258 74q-71 0 -134 -18.5t-113.5 -55t-80 -95.5t-29.5 -134q0 -110 63.5 -172.5t159.5 -62.5q78 0 156 49.5t143 149.5t93 231v303q0 106 -80.5 173.5t-204.5 67.5q-165 0 -344 -125l-47 140q96 59 208 91t220 32
q94 0 176.5 -24.5t147 -72t102 -124t37.5 -173.5v-694q0 -44 12 -76t49 -57z" />
    <glyph glyph-name="Cacute" unicode="&#x106;" horiz-adv-x="1245" 
d="M555 1872q-63 0 -117 22t-86 62q64 0 142 20q96 22 182.5 76t132.5 121l121 -121q-62 -82 -165.5 -131t-209.5 -49zM768 -31q-135 0 -254 58t-209.5 166t-143 274.5t-52.5 370.5q0 216 48.5 384t135 272t200 157t248.5 53q201 0 392 -107l-21 -184q-179 117 -346 117
q-95 0 -174 -42t-139.5 -124.5t-94.5 -217t-34 -308.5q0 -330 131 -509t342 -179q149 0 311 96l25 -174q-183 -103 -365 -103z" />
    <glyph glyph-name="cacute" unicode="&#x107;" horiz-adv-x="1075" 
d="M473 1386q-63 0 -117 22t-86 62q60 0 142 21q96 22 182.5 76t132.5 121l121 -121q-62 -82 -165.5 -131.5t-209.5 -49.5zM623 -31q-234 0 -383.5 171.5t-149.5 465.5q0 144 42 262t114.5 194.5t168.5 118.5t206 42q215 0 419 -150l-45 -186q-176 164 -358 164
q-148 0 -245 -120t-97 -331q0 -225 97 -348t259 -123q197 0 420 172v-178q-231 -154 -448 -154z" />
    <glyph glyph-name="Cdotaccent" unicode="&#x10a;" horiz-adv-x="1245" 
d="M653 1905q-60 0 -99.5 40.5t-39.5 100.5t39.5 100.5t99.5 40.5t101 -40.5t41 -100.5t-41 -100.5t-101 -40.5zM768 -31q-135 0 -254 58t-209.5 166t-143 274.5t-52.5 370.5q0 216 48.5 384t135 272t200 157t248.5 53q201 0 392 -107l-21 -184q-179 117 -346 117
q-95 0 -174 -42t-139.5 -124.5t-94.5 -217t-34 -308.5q0 -330 131 -509t342 -179q149 0 311 96l25 -174q-183 -103 -365 -103z" />
    <glyph glyph-name="cdotaccent" unicode="&#x10b;" horiz-adv-x="1075" 
d="M571 1419q-60 0 -99.5 41t-39.5 101t39.5 100.5t99.5 40.5t101 -40.5t41 -100.5t-41 -101t-101 -41zM623 -31q-234 0 -383.5 171.5t-149.5 465.5q0 144 42 262t114.5 194.5t168.5 118.5t206 42q215 0 419 -150l-45 -186q-176 164 -358 164q-148 0 -245 -120t-97 -331
q0 -225 97 -348t259 -123q197 0 420 172v-178q-231 -154 -448 -154z" />
    <glyph glyph-name="Ccaron" unicode="&#x10c;" horiz-adv-x="1245" 
d="M322 2103l73 131q170 -135 299 -292q133 169 277 288l100 -123q-41 -21 -77.5 -43t-80 -56t-64 -51t-79 -67.5t-76.5 -66.5q-195 182 -372 280zM768 -31q-135 0 -254 58t-209.5 166t-143 274.5t-52.5 370.5q0 216 48.5 384t135 272t200 157t248.5 53q201 0 392 -107
l-21 -184q-179 117 -346 117q-95 0 -174 -42t-139.5 -124.5t-94.5 -217t-34 -308.5q0 -330 131 -509t342 -179q149 0 311 96l25 -174q-183 -103 -365 -103z" />
    <glyph glyph-name="ccaron" unicode="&#x10d;" horiz-adv-x="1075" 
d="M203 1634l73 131q170 -135 299 -292q133 169 277 288l100 -123q-41 -21 -77.5 -43t-80 -56t-64 -51t-79 -67.5t-76.5 -66.5q-195 182 -372 280zM623 -31q-234 0 -383.5 171.5t-149.5 465.5q0 144 42 262t114.5 194.5t168.5 118.5t206 42q215 0 419 -150l-45 -186
q-176 164 -358 164q-148 0 -245 -120t-97 -331q0 -225 97 -348t259 -123q197 0 420 172v-178q-231 -154 -448 -154z" />
    <glyph glyph-name="Dcaron" unicode="&#x10e;" horiz-adv-x="1368" 
d="M311 2120l74 131q167 -133 299 -293q135 172 277 289l100 -123q-41 -21 -77.5 -43.5t-79 -55.5t-65.5 -52t-78 -67t-77 -67q-196 184 -373 281zM586 0h-477q21 38 31.5 78t12 67t1.5 82v1215q0 55 -1.5 82t-12 67t-31.5 78h473q334 0 508 -198.5t174 -579.5
q0 -432 -173 -661.5t-505 -229.5zM369 1536v-1409q352 -32 516 164t164 610q0 98 -12.5 180.5t-34.5 144.5t-55.5 111.5t-71 83.5t-85.5 58t-96 37t-105 19t-108.5 5.5t-111.5 -4.5z" />
    <glyph glyph-name="dcaron" unicode="&#x10f;" horiz-adv-x="1724" 
d="M582 -31q-92 0 -177.5 37.5t-157 110.5t-114.5 195t-43 276q0 130 29 236.5t77.5 176.5t113.5 117.5t134 68.5t142 21q116 0 213 -51t139 -139h10v459q0 56 -10 87t-35 58q81 0 156.5 22t103.5 60v-1503q0 -142 80 -201h-117q-84 0 -131 59t-47 125h-10
q-48 -102 -145.5 -158.5t-210.5 -56.5zM1489 1120h-78q13 71 20 164t3 202.5t-23 182.5h205zM651 92q91 0 172 49.5t125 134.5v619q-40 70 -128 117t-183 47q-52 0 -99 -15t-90 -50.5t-74.5 -88t-50 -133t-18.5 -180.5q0 -128 29 -226.5t79 -157t110 -87.5t128 -29z" />
    <glyph glyph-name="Dcroat" unicode="&#x110;" horiz-adv-x="1503" 
d="M242 1669h473q334 0 508 -198.5t174 -579.5q0 -432 -173 -661.5t-505 -229.5h-477q21 38 31.5 78t12 67t1.5 82v574h-164v104h164v537q0 55 -1.5 82t-12 67t-31.5 78zM502 801v-674q352 -32 516 164t164 610q0 98 -12.5 180.5t-34.5 144.5t-55.5 111.5t-71 83.5t-85.5 58
t-96 37t-105 19t-108.5 5.5t-111.5 -4.5v-631h311v-104h-311z" />
    <glyph glyph-name="dcroat" unicode="&#x111;" horiz-adv-x="1296" 
d="M1298 1331v-104h-135v-1026q0 -142 80 -201h-117q-84 0 -131 59t-47 125h-10q-48 -102 -145.5 -158.5t-210.5 -56.5q-92 0 -177.5 37.5t-157 110.5t-114.5 195t-43 276q0 130 29 236.5t77.5 176.5t113.5 117.5t134 68.5t142 21q116 0 213 -51t139 -139h10v209h-172v104
h172v146q0 56 -10 87t-35 58q81 0 156.5 22t103.5 60v-373h135zM948 276v619q-40 70 -128 117t-183 47q-52 0 -99 -15t-90 -50.5t-74.5 -88t-50 -133t-18.5 -180.5q0 -128 29 -226.5t79 -157t110 -87.5t128 -29q91 0 172 49.5t125 134.5z" />
    <glyph glyph-name="Emacron" unicode="&#x112;" horiz-adv-x="1165" 
d="M913 1939h-673v109h673v-109zM1036 0h-927q21 38 31.5 78t12 67t1.5 82v1215q0 55 -1.5 82t-12 67t-31.5 78h927l21 -209q-219 58 -688 58v-500h483l10 -105h-493v-759q473 0 688 57z" />
    <glyph glyph-name="emacron" unicode="&#x113;" horiz-adv-x="1306" 
d="M997 1454h-673v109h673v-109zM766 -37q-135 0 -257 44.5t-215.5 125.5t-148.5 204.5t-55 272.5q0 135 45 249t124.5 193t190.5 123t240 44q231 0 376.5 -107.5t145.5 -257.5q0 -156 -156 -262.5t-442 -106.5q-150 0 -295 54q93 -3 164 2q135 4 240.5 31.5t167.5 71
t93.5 94t31.5 104.5q0 98 -87 168.5t-229 70.5q-71 0 -139 -27t-126.5 -79.5t-94 -142t-35.5 -203.5q0 -117 40 -214.5t108.5 -161t157 -98t186.5 -34.5q103 0 207 38t192 107l39 -160q-219 -143 -469 -143z" />
    <glyph glyph-name="Edotaccent" unicode="&#x116;" horiz-adv-x="1165" 
d="M575 1905q-60 0 -99.5 40.5t-39.5 100.5t39.5 100.5t99.5 40.5t101 -40.5t41 -100.5t-41 -100.5t-101 -40.5zM1036 0h-927q21 38 31.5 78t12 67t1.5 82v1215q0 55 -1.5 82t-12 67t-31.5 78h927l21 -209q-219 58 -688 58v-500h483l10 -105h-493v-759q473 0 688 57z" />
    <glyph glyph-name="edotaccent" unicode="&#x117;" horiz-adv-x="1306" 
d="M659 1419q-60 0 -99.5 41t-39.5 101t39.5 100.5t99.5 40.5t101 -40.5t41 -100.5t-41 -101t-101 -41zM766 -37q-135 0 -257 44.5t-215.5 125.5t-148.5 204.5t-55 272.5q0 135 45 249t124.5 193t190.5 123t240 44q231 0 376.5 -107.5t145.5 -257.5q0 -156 -156 -262.5
t-442 -106.5q-150 0 -295 54q93 -3 164 2q135 4 240.5 31.5t167.5 71t93.5 94t31.5 104.5q0 98 -87 168.5t-229 70.5q-71 0 -139 -27t-126.5 -79.5t-94 -142t-35.5 -203.5q0 -117 40 -214.5t108.5 -161t157 -98t186.5 -34.5q103 0 207 38t192 107l39 -160
q-219 -143 -469 -143z" />
    <glyph glyph-name="Eogonek" unicode="&#x118;" horiz-adv-x="1165" 
d="M862 913h-493v-759q473 0 688 57l-21 -211q-80 0 -135 -51.5t-55 -114.5q0 -51 45 -88t133 -41l-53 -92q-120 -30 -201.5 28.5t-81.5 159.5q0 61 34 114.5t99 84.5h-712q21 38 31.5 78t12 67t1.5 82v1215q0 55 -1.5 82t-12 67t-31.5 78h927l21 -209q-219 58 -688 58v-500
h483z" />
    <glyph glyph-name="eogonek" unicode="&#x119;" horiz-adv-x="1306" 
d="M764 -162q0 -51 45 -88t133 -41l-53 -92q-120 -30 -201.5 28.5t-81.5 159.5q0 98 76 162q-122 13 -228.5 63t-188 130.5t-128.5 196.5t-47 253q0 135 45 249t124.5 193t190.5 123t240 44q231 0 376.5 -107.5t145.5 -257.5q0 -156 -156 -262.5t-442 -106.5q-150 0 -295 54
q93 -3 164 2q135 4 240.5 31.5t167.5 71t93.5 94t31.5 104.5q0 98 -87 168.5t-229 70.5q-71 0 -139 -27t-126.5 -79.5t-94 -142t-35.5 -203.5q0 -117 40 -214.5t108.5 -161t157 -98t186.5 -34.5q103 0 207 38t192 107l39 -160q-184 -122 -399 -141q-34 -23 -53 -57t-19 -70z
" />
    <glyph glyph-name="Ecaron" unicode="&#x11a;" horiz-adv-x="1165" 
d="M209 2120l74 131q167 -133 299 -293q137 174 276 289l100 -123q-41 -21 -78 -43.5t-78 -55t-65.5 -52.5t-77.5 -66.5t-77 -67.5q-196 184 -373 281zM1036 0h-927q21 38 31.5 78t12 67t1.5 82v1215q0 55 -1.5 82t-12 67t-31.5 78h927l21 -209q-219 58 -688 58v-500h483
l10 -105h-493v-759q473 0 688 57z" />
    <glyph glyph-name="ecaron" unicode="&#x11b;" horiz-adv-x="1306" 
d="M293 1634l74 131q170 -135 299 -292q135 171 276 288l100 -123q-41 -21 -77.5 -43.5t-78.5 -55t-65 -51.5t-78.5 -67.5t-76.5 -66.5q-193 181 -373 280zM766 -37q-135 0 -257 44.5t-215.5 125.5t-148.5 204.5t-55 272.5q0 135 45 249t124.5 193t190.5 123t240 44
q231 0 376.5 -107.5t145.5 -257.5q0 -156 -156 -262.5t-442 -106.5q-150 0 -295 54q93 -3 164 2q135 4 240.5 31.5t167.5 71t93.5 94t31.5 104.5q0 98 -87 168.5t-229 70.5q-71 0 -139 -27t-126.5 -79.5t-94 -142t-35.5 -203.5q0 -117 40 -214.5t108.5 -161t157 -98
t186.5 -34.5q103 0 207 38t192 107l39 -160q-219 -143 -469 -143z" />
    <glyph glyph-name="Gbreve" unicode="&#x11e;" horiz-adv-x="1380" 
d="M788 1819q-69 0 -134 23t-119 66t-89.5 112t-42.5 155h132q13 -110 86 -169.5t167 -59.5q95 0 168 60t84 169h131q-13 -168 -124 -262t-259 -94zM1272 0h-457q-122 0 -224 26.5t-173.5 71t-127 108.5t-89 134t-55 152.5t-29.5 158.5t-8 158q0 441 185.5 666t508.5 225
q199 0 428 -90l-27 -205q-211 119 -391 119q-104 0 -191 -42.5t-154 -127.5t-104.5 -225.5t-37.5 -325.5q0 -138 27 -252t71.5 -190.5t104.5 -130.5t124 -80t133 -31h220v391q0 89 -13.5 157t-56.5 154h336q-31 -64 -41 -129t-10 -166v-317q0 -148 51 -209z" />
    <glyph glyph-name="gbreve" unicode="&#x11f;" horiz-adv-x="1323" 
d="M635 1333q-69 0 -134 23t-119 66.5t-89.5 112.5t-42.5 155h131q13 -110 86.5 -170t167.5 -60t167.5 60.5t84.5 169.5h131q-13 -168 -124 -262.5t-259 -94.5zM600 -410q-150 0 -293 32.5t-248 92.5l15 183q110 -65 254 -99.5t288 -34.5q128 0 231.5 26t169.5 81.5
t70 132.5q5 91 -62 161.5t-179.5 107t-247.5 36.5q-201 0 -375 -76v140q115 47 262 55q-188 34 -294.5 137.5t-106.5 237.5q0 76 36 147t102.5 129t172 93t234.5 36q335 78 557 228l31 -211q-60 -14 -179 -35.5t-155 -28.5q144 -44 220.5 -139.5t76.5 -208.5
q0 -134 -107 -240t-293 -139q111 -15 202.5 -48.5t162 -86t107.5 -130t32 -173.5q-7 -131 -106.5 -225t-249 -137.5t-328.5 -43.5zM633 528q161 0 251.5 84t90.5 205q0 123 -92 210t-250 87q-163 0 -255.5 -86t-92.5 -209q0 -121 92 -206t256 -85z" />
    <glyph glyph-name="Gdotaccent" unicode="&#x120;" horiz-adv-x="1380" 
d="M786 1905q-60 0 -99.5 40.5t-39.5 100.5t39.5 100.5t99.5 40.5t101 -40.5t41 -100.5t-41 -100.5t-101 -40.5zM1272 0h-457q-122 0 -224 26.5t-173.5 71t-127 108.5t-89 134t-55 152.5t-29.5 158.5t-8 158q0 441 185.5 666t508.5 225q199 0 428 -90l-27 -205
q-211 119 -391 119q-104 0 -191 -42.5t-154 -127.5t-104.5 -225.5t-37.5 -325.5q0 -138 27 -252t71.5 -190.5t104.5 -130.5t124 -80t133 -31h220v391q0 89 -13.5 157t-56.5 154h336q-31 -64 -41 -129t-10 -166v-317q0 -148 51 -209z" />
    <glyph glyph-name="gdotaccent" unicode="&#x121;" horiz-adv-x="1323" 
d="M633 1419q-60 0 -99.5 41t-39.5 101t39.5 100.5t99.5 40.5t100.5 -40.5t40.5 -100.5t-40.5 -101t-100.5 -41zM600 -410q-150 0 -293 32.5t-248 92.5l15 183q110 -65 254 -99.5t288 -34.5q128 0 231.5 26t169.5 81.5t70 132.5q5 91 -62 161.5t-179.5 107t-247.5 36.5
q-201 0 -375 -76v140q115 47 262 55q-188 34 -294.5 137.5t-106.5 237.5q0 76 36 147t102.5 129t172 93t234.5 36q335 78 557 228l31 -211q-60 -14 -179 -35.5t-155 -28.5q144 -44 220.5 -139.5t76.5 -208.5q0 -134 -107 -240t-293 -139q111 -15 202.5 -48.5t162 -86
t107.5 -130t32 -173.5q-7 -131 -106.5 -225t-249 -137.5t-328.5 -43.5zM633 528q161 0 251.5 84t90.5 205q0 123 -92 210t-250 87q-163 0 -255.5 -86t-92.5 -209q0 -121 92 -206t256 -85z" />
    <glyph glyph-name="uni0122" unicode="&#x122;" horiz-adv-x="1380" 
d="M1272 0h-457q-122 0 -224 26.5t-173.5 71t-127 108.5t-89 134t-55 152.5t-29.5 158.5t-8 158q0 441 185.5 666t508.5 225q199 0 428 -90l-27 -205q-211 119 -391 119q-104 0 -191 -42.5t-154 -127.5t-104.5 -225.5t-37.5 -325.5q0 -138 27 -252t71.5 -190.5t104.5 -130.5
t124 -80t133 -31h220v391q0 89 -13.5 157t-56.5 154h336q-31 -64 -41 -129t-10 -166v-317q0 -148 51 -209zM623 -541h-70l61 465h189z" />
    <glyph glyph-name="uni0123" unicode="&#x123;" horiz-adv-x="1323" 
d="M694 1368h-188l221 465h80zM600 -410q-150 0 -293 32.5t-248 92.5l15 183q110 -65 254 -99.5t288 -34.5q128 0 231.5 26t169.5 81.5t70 132.5q5 91 -62 161.5t-179.5 107t-247.5 36.5q-201 0 -375 -76v140q115 47 262 55q-188 34 -294.5 137.5t-106.5 237.5q0 76 36 147
t102.5 129t172 93t234.5 36q335 78 557 228l31 -211q-60 -14 -179 -35.5t-155 -28.5q144 -44 220.5 -139.5t76.5 -208.5q0 -134 -107 -240t-293 -139q111 -15 202.5 -48.5t162 -86t107.5 -130t32 -173.5q-7 -131 -106.5 -225t-249 -137.5t-328.5 -43.5zM633 528
q161 0 251.5 84t90.5 205q0 123 -92 210t-250 87q-163 0 -255.5 -86t-92.5 -209q0 -121 92 -206t256 -85z" />
    <glyph glyph-name="Hbar" unicode="&#x126;" horiz-adv-x="1384" 
d="M1233 1442v-1215q0 -55 1.5 -82t12 -67t31.5 -78h-305q21 38 31.5 78t12 67t1.5 82v645h-649v-645q0 -55 1.5 -82t12 -67t31.5 -78h-305q21 38 31.5 78t12 67t1.5 82v1215q0 55 -1.5 82t-12 67t-31.5 78h305q-21 -38 -31.5 -78t-12 -67t-1.5 -82v-152h649v152
q0 55 -1.5 82t-12 67t-31.5 78h305q-21 -38 -31.5 -78t-12 -67t-1.5 -82zM369 1186v-211h649v211h-649z" />
    <glyph glyph-name="hbar" unicode="&#x127;" horiz-adv-x="1415" 
d="M1307 0h-306q21 38 31.5 77.5t12.5 68t2 81.5v594q0 124 -67.5 192t-168.5 68q-78 0 -152 -38.5t-136.5 -122t-88.5 -199.5v-494q0 -55 1.5 -82t12 -67t31.5 -78h-305q21 38 31.5 78t12 67t1.5 82v1016h-160v105h160v127q0 56 -10 87t-35 58q80 0 155.5 22t104.5 60v-354
h316v-105h-316v-385h8q49 175 172.5 269t270.5 94q75 0 142 -24.5t120 -70.5t84 -118.5t31 -161.5v-619q0 -55 1.5 -82t12 -67t31.5 -78z" />
    <glyph glyph-name="Imacron" unicode="&#x12a;" horiz-adv-x="520" 
d="M594 1931h-676v109h676v-109zM414 0h-305q21 38 31.5 78t12 67t1.5 82v1215q0 55 -1.5 82t-12 67t-31.5 78h305q-21 -38 -31.5 -78t-12 -67t-1.5 -82v-1215q0 -55 1.5 -82t12 -67t31.5 -78z" />
    <glyph glyph-name="imacron" unicode="&#x12b;" horiz-adv-x="520" 
d="M602 1454h-676v109h676v-109zM414 0h-305q21 38 31.5 78t12 67t1.5 82v791q0 55 -10.5 86t-34.5 59q80 0 155.5 22t104.5 60v-1018q0 -55 1.5 -82t12 -67t31.5 -78z" />
    <glyph glyph-name="Iogonek" unicode="&#x12e;" horiz-adv-x="520" 
d="M369 1442v-1215q0 -55 1.5 -82t12 -67t31.5 -78h-25q-80 0 -135 -51.5t-55 -114.5q0 -51 45 -88t133 -41l-53 -92q-120 -30 -201.5 28.5t-81.5 159.5q0 61 34 114.5t99 84.5h-65q21 38 31.5 78t12 67t1.5 82v1215q0 55 -1.5 82t-12 67t-31.5 78h305q-21 -38 -31.5 -78
t-12 -67t-1.5 -82z" />
    <glyph glyph-name="iogonek" unicode="&#x12f;" horiz-adv-x="520" 
d="M260 1419q-60 0 -99.5 41t-39.5 101t39.5 100.5t99.5 40.5t100.5 -40.5t40.5 -100.5t-40.5 -101t-100.5 -41zM414 0h-27q-80 0 -135 -51.5t-55 -114.5q0 -51 45 -88t133 -41l-53 -92q-120 -30 -201.5 28.5t-81.5 159.5q0 61 34 114.5t99 84.5h-63q21 38 31.5 78t12 67
t1.5 82v791q0 55 -10.5 86t-34.5 59q80 0 155.5 22t104.5 60v-1018q0 -55 1.5 -82t12 -67t31.5 -78z" />
    <glyph glyph-name="Idotaccent" unicode="&#x130;" horiz-adv-x="520" 
d="M260 1905q-60 0 -99.5 40.5t-39.5 100.5t39.5 100.5t99.5 40.5t100.5 -40.5t40.5 -100.5t-40.5 -100.5t-100.5 -40.5zM414 0h-305q21 38 31.5 78t12 67t1.5 82v1215q0 55 -1.5 82t-12 67t-31.5 78h305q-21 -38 -31.5 -78t-12 -67t-1.5 -82v-1215q0 -55 1.5 -82t12 -67
t31.5 -78z" />
    <glyph glyph-name="dotlessi" unicode="&#x131;" horiz-adv-x="520" 
d="M414 0h-305q21 38 31.5 78t12 67t1.5 82v791q0 55 -10.5 86t-34.5 59q80 0 155.5 22t104.5 60v-1018q0 -55 1.5 -82t12 -67t31.5 -78z" />
    <glyph glyph-name="uni0136" unicode="&#x136;" horiz-adv-x="1259" 
d="M414 0h-305q21 38 31.5 78t12 67t1.5 82v1215q0 55 -1.5 82t-12 67t-31.5 78h305q-21 -38 -31.5 -78t-12 -67t-1.5 -82v-529q142 10 240.5 105.5t195.5 296.5q71 160 115 354h213q-116 -369 -256 -552.5t-332 -223.5v-16q93 0 165.5 -11.5t136.5 -38.5t106 -77.5
t59 -122.5l94 -400q24 -104 84 -227h-313q30 69 14 158l-68 387q-7 39 -21 73t-32 59.5t-44.5 47t-50.5 36t-58.5 27t-60.5 19.5t-64 14t-62 10t-61 7v-611q0 -55 1.5 -82t12 -67t31.5 -78zM563 -541h-69l61 465h188z" />
    <glyph glyph-name="uni0137" unicode="&#x137;" horiz-adv-x="1236" 
d="M414 0h-305q21 38 31.5 78t12 67t1.5 82v1250q0 55 -10.5 86t-34.5 59q80 0 155.5 22t104.5 60v-987q119 63 285 209t214 258h254q-123 -148 -279 -271t-304 -204v-7q77 18 146.5 -2.5t123 -71t100.5 -116.5t87 -143.5t74 -146.5t69.5 -131t66.5 -91h-268
q-124 295 -181 398q-98 179 -202 220q-83 32 -186 -12v-379q0 -55 1.5 -82t12 -67t31.5 -78zM463 -541h-70l62 465h188z" />
    <glyph glyph-name="Lacute" unicode="&#x139;" horiz-adv-x="1153" 
d="M131 1872q-63 0 -117.5 22t-87.5 62q66 0 144 20q96 22 182.5 76t132.5 121l121 -121q-62 -82 -165.5 -131t-209.5 -49zM1004 0h-891q15 37 20.5 53t13 63.5t7.5 110.5v1215q0 55 -1.5 82t-12 67t-31.5 78h305q-21 -38 -31.5 -78t-12 -67t-1.5 -82v-1288h141q105 0 166 2
t166 15.5t202 39.5z" />
    <glyph glyph-name="lacute" unicode="&#x13a;" horiz-adv-x="520" 
d="M326 1802q-61 0 -115.5 22t-87.5 62q57 0 143 21q96 22 183 76t133 120l118 -121q-61 -82 -164 -131t-210 -49zM414 0h-305q21 38 31.5 78t12 67t1.5 82v1243q0 55 -10.5 87t-34.5 59q80 0 155.5 22t104.5 60v-1471q0 -55 1.5 -82t12 -67t31.5 -78z" />
    <glyph glyph-name="uni013B" unicode="&#x13b;" horiz-adv-x="1153" 
d="M1004 0h-891q15 37 20.5 53t13 63.5t7.5 110.5v1215q0 55 -1.5 82t-12 67t-31.5 78h305q-21 -38 -31.5 -78t-12 -67t-1.5 -82v-1288h141q105 0 166 2t166 15.5t202 39.5zM401 -541h-69l61 465h189z" />
    <glyph glyph-name="uni013C" unicode="&#x13c;" horiz-adv-x="534" 
d="M426 0h-305q21 38 31.5 78t12 67t1.5 82v1243q0 56 -10 87.5t-35 58.5q80 0 155.5 22t104.5 60v-1471q0 -55 1.5 -82t12 -67t31.5 -78zM197 -541h-70l61 465h189z" />
    <glyph glyph-name="Lcaron" unicode="&#x13d;" horiz-adv-x="1355" 
d="M1004 0h-891q15 37 20.5 53t13 63.5t7.5 110.5v1215q0 55 -1.5 82t-12 67t-31.5 78h305q-21 -38 -31.5 -78t-12 -67t-1.5 -82v-1288h141q105 0 166 2t166 15.5t202 39.5zM1122 1120h-80q13 71 20 164t3 202.5t-23 182.5h207z" />
    <glyph glyph-name="lcaron" unicode="&#x13e;" horiz-adv-x="856" 
d="M414 0h-305q21 38 31.5 78t12 67t1.5 82v1243q0 55 -10.5 87t-34.5 59q80 0 155.5 22t104.5 60v-1471q0 -55 1.5 -82t12 -67t31.5 -78zM715 1120h-80q13 71 20 164t3 202.5t-23 182.5h207z" />
    <glyph glyph-name="Lslash" unicode="&#x141;" horiz-adv-x="1153" 
d="M369 154h141q105 0 166 2t166 15.5t202 39.5l-40 -211h-891q15 37 20.5 53t13 63.5t7.5 110.5v506l-234 -86v111l234 86v598q0 55 -1.5 82t-12 67t-31.5 78h305q-21 -38 -31.5 -78t-12 -67t-1.5 -82v-518l391 145v-111l-391 -145v-659z" />
    <glyph glyph-name="lslash" unicode="&#x142;" horiz-adv-x="520" 
d="M618 1307v-111l-249 -119v-850q0 -55 1.5 -82t12 -67t31.5 -78h-305q21 38 31.5 78t12 67t1.5 82v748l-189 -90v110l189 90v385q0 55 -10.5 87t-34.5 59q80 0 155.5 22t104.5 60v-510z" />
    <glyph glyph-name="Nacute" unicode="&#x143;" horiz-adv-x="1449" 
d="M616 1872q-63 0 -116.5 22t-85.5 62q63 0 141 20q96 22 182.5 76t132.5 121l121 -121q-62 -82 -165.5 -131t-209.5 -49zM414 0h-305q21 38 31.5 78t12 67t1.5 82v1166q0 195 -41 276h143q91 0 138.5 -35t90.5 -133l578 -1280v1221q0 55 -1.5 82t-12 67t-31.5 78h305
q-21 -38 -31.5 -78t-12 -67t-1.5 -82v-1215q0 -55 1.5 -82t12 -67t31.5 -78h-154q-52 0 -88 9.5t-72.5 37.5t-68.5 80t-68 135l-503 1157v-1192q0 -55 1.5 -82t12 -67t31.5 -78z" />
    <glyph glyph-name="nacute" unicode="&#x144;" horiz-adv-x="1347" 
d="M514 1386q-63 0 -117 22t-86 62q60 0 142 21q96 22 182.5 76t132.5 121l121 -121q-62 -82 -165.5 -131.5t-209.5 -49.5zM414 0h-305q21 38 31.5 78t12 67t1.5 82v764q0 55 -10.5 87t-34.5 59q80 0 155.5 22t104.5 60v-361h8q29 117 100.5 201.5t159 123t182.5 38.5
q74 0 141.5 -24.5t120 -70.5t84 -118.5t31.5 -161.5v-619q0 -55 1.5 -82t12 -67t31.5 -78h-305q21 38 31.5 78t12 67t1.5 82v594q0 123 -68.5 191.5t-169.5 68.5q-122 0 -229 -94t-145 -266v-494q0 -55 1.5 -82t12 -67t31.5 -78z" />
    <glyph glyph-name="uni0145" unicode="&#x145;" horiz-adv-x="1449" 
d="M414 0h-305q21 38 31.5 78t12 67t1.5 82v1166q0 195 -41 276h143q91 0 138.5 -35t90.5 -133l578 -1280v1221q0 55 -1.5 82t-12 67t-31.5 78h305q-21 -38 -31.5 -78t-12 -67t-1.5 -82v-1215q0 -55 1.5 -82t12 -67t31.5 -78h-154q-52 0 -88 9.5t-72.5 37.5t-68.5 80
t-68 135l-503 1157v-1192q0 -55 1.5 -82t12 -67t31.5 -78zM639 -541h-70l62 465h188z" />
    <glyph glyph-name="uni0146" unicode="&#x146;" horiz-adv-x="1347" 
d="M414 0h-305q21 38 31.5 78t12 67t1.5 82v764q0 55 -10.5 87t-34.5 59q80 0 155.5 22t104.5 60v-361h8q29 117 100.5 201.5t159 123t182.5 38.5q74 0 141.5 -24.5t120 -70.5t84 -118.5t31.5 -161.5v-619q0 -55 1.5 -82t12 -67t31.5 -78h-305q21 38 31.5 78t12 67t1.5 82
v594q0 123 -68.5 191.5t-169.5 68.5q-122 0 -229 -94t-145 -266v-494q0 -55 1.5 -82t12 -67t31.5 -78zM537 -541h-70l61 465h189z" />
    <glyph glyph-name="Ncaron" unicode="&#x147;" horiz-adv-x="1449" 
d="M346 2120l74 131q167 -133 299 -293q137 174 276 289l101 -123q-41 -21 -77.5 -43.5t-79 -55.5t-65.5 -52t-78 -67t-77 -67q-196 184 -373 281zM414 0h-305q21 38 31.5 78t12 67t1.5 82v1166q0 195 -41 276h143q91 0 138.5 -35t90.5 -133l578 -1280v1221q0 55 -1.5 82
t-12 67t-31.5 78h305q-21 -38 -31.5 -78t-12 -67t-1.5 -82v-1215q0 -55 1.5 -82t12 -67t31.5 -78h-154q-52 0 -88 9.5t-72.5 37.5t-68.5 80t-68 135l-503 1157v-1192q0 -55 1.5 -82t12 -67t31.5 -78z" />
    <glyph glyph-name="ncaron" unicode="&#x148;" horiz-adv-x="1347" 
d="M244 1634l73 131q170 -135 299 -292q133 169 277 288l100 -123q-41 -21 -77.5 -43t-80 -56t-64 -51t-79 -67.5t-76.5 -66.5q-195 182 -372 280zM414 0h-305q21 38 31.5 78t12 67t1.5 82v764q0 55 -10.5 87t-34.5 59q80 0 155.5 22t104.5 60v-361h8q29 117 100.5 201.5
t159 123t182.5 38.5q74 0 141.5 -24.5t120 -70.5t84 -118.5t31.5 -161.5v-619q0 -55 1.5 -82t12 -67t31.5 -78h-305q21 38 31.5 78t12 67t1.5 82v594q0 123 -68.5 191.5t-169.5 68.5q-122 0 -229 -94t-145 -266v-494q0 -55 1.5 -82t12 -67t31.5 -78z" />
    <glyph glyph-name="Eng" unicode="&#x14a;" horiz-adv-x="1449" 
d="M901 -412l-55 142q107 30 158 99t20 153l-655 1386v-1141q0 -55 1.5 -82t12 -67t31.5 -78h-305q21 38 31.5 78t12 67t1.5 82v1176q0 180 -43 266h145q91 0 136.5 -34.5t92.5 -133.5l578 -1231v1172q0 55 -1.5 82t-12 67t-31.5 78h305q-21 -38 -31.5 -78t-12 -67t-1.5 -82
v-1395q0 -197 -100.5 -310t-276.5 -149z" />
    <glyph glyph-name="eng" unicode="&#x14b;" horiz-adv-x="1302" 
d="M791 -287v158q31 0 57.5 7.5t45 18.5t33.5 30.5t24 37t15.5 44t9.5 45.5t4.5 48t1.5 45.5t-0.5 43.5t-0.5 36v594q0 123 -68.5 191.5t-169.5 68.5q-122 0 -229 -94t-145 -266v-494q0 -55 1.5 -82t12 -67t31.5 -78h-305q21 38 31.5 78t12 67t1.5 82v764q0 55 -10.5 87
t-34.5 59q80 0 155.5 22t104.5 60v-361h8q29 117 100.5 201.5t159 123t182.5 38.5q74 0 141.5 -24.5t120 -70.5t84 -118.5t31.5 -161.5v-619q0 -121 -26 -215t-66.5 -149t-96 -90t-107.5 -47.5t-109 -12.5z" />
    <glyph glyph-name="Omacron" unicode="&#x14c;" horiz-adv-x="1398" 
d="M1038 1966h-673v109h673v-109zM700 -35q-146 0 -260 66t-185.5 183t-108.5 273t-37 342q0 426 147.5 649.5t443.5 223.5t445 -223.5t149 -649.5q0 -186 -37.5 -342t-109.5 -273t-186.5 -183t-260.5 -66zM700 137q23 0 46.5 4t62.5 20t72.5 43t70.5 79.5t63 123t43 179.5
t17 243q0 161 -19 284t-52 201t-81.5 127.5t-102.5 69t-120 19.5q-65 0 -118.5 -19.5t-102 -69t-81.5 -127.5t-52.5 -201t-19.5 -284q0 -134 16 -243t40.5 -179.5t60 -123t68.5 -79.5t72.5 -43t64.5 -20t52 -4z" />
    <glyph glyph-name="omacron" unicode="&#x14d;" horiz-adv-x="1316" 
d="M997 1454h-673v109h673v-109zM659 -27q-79 0 -157 21.5t-153 70t-132 119t-92 177.5t-35 237q0 129 33 234.5t88.5 175.5t130 118.5t154 69.5t163.5 21q85 0 164.5 -21t153 -69.5t128.5 -118.5t87.5 -175.5t32.5 -234.5q0 -130 -35 -237t-91.5 -177.5t-131.5 -119
t-152.5 -70t-155.5 -21.5zM659 104q45 0 91 16t93.5 54t84 93t59.5 141t23 190q0 105 -23 191.5t-59.5 141t-84 91.5t-93.5 52.5t-91 15.5q-46 0 -92.5 -15.5t-94.5 -52.5t-84.5 -91.5t-59.5 -140.5t-23 -192q0 -104 23 -190t59.5 -141t84 -93t94.5 -54t93 -16z" />
    <glyph glyph-name="Ohungarumlaut" unicode="&#x150;" horiz-adv-x="1398" 
d="M344 1847q104 51 166.5 146.5t62.5 230.5h201q-12 -178 -137.5 -281.5t-292.5 -95.5zM653 1847q99 53 170.5 153.5t71.5 223.5h209q0 -102 -64 -192t-169 -140.5t-218 -44.5zM700 -35q-146 0 -260 66t-185.5 183t-108.5 273t-37 342q0 426 147.5 649.5t443.5 223.5
t445 -223.5t149 -649.5q0 -186 -37.5 -342t-109.5 -273t-186.5 -183t-260.5 -66zM700 137q23 0 46.5 4t62.5 20t72.5 43t70.5 79.5t63 123t43 179.5t17 243q0 161 -19 284t-52 201t-81.5 127.5t-102.5 69t-120 19.5q-65 0 -118.5 -19.5t-102 -69t-81.5 -127.5t-52.5 -201
t-19.5 -284q0 -134 16 -243t40.5 -179.5t60 -123t68.5 -79.5t72.5 -43t64.5 -20t52 -4z" />
    <glyph glyph-name="ohungarumlaut" unicode="&#x151;" horiz-adv-x="1316" 
d="M352 1362q104 51 167 146.5t63 230.5h200q-12 -178 -137.5 -281.5t-292.5 -95.5zM662 1362q98 53 169.5 153.5t71.5 223.5h209q0 -102 -64 -192t-168.5 -140.5t-217.5 -44.5zM659 -27q-79 0 -157 21.5t-153 70t-132 119t-92 177.5t-35 237q0 129 33 234.5t88.5 175.5
t130 118.5t154 69.5t163.5 21q85 0 164.5 -21t153 -69.5t128.5 -118.5t87.5 -175.5t32.5 -234.5q0 -130 -35 -237t-91.5 -177.5t-131.5 -119t-152.5 -70t-155.5 -21.5zM659 104q45 0 91 16t93.5 54t84 93t59.5 141t23 190q0 105 -23 191.5t-59.5 141t-84 91.5t-93.5 52.5
t-91 15.5q-46 0 -92.5 -15.5t-94.5 -52.5t-84.5 -91.5t-59.5 -140.5t-23 -192q0 -104 23 -190t59.5 -141t84 -93t94.5 -54t93 -16z" />
    <glyph glyph-name="OE" unicode="&#x152;" horiz-adv-x="2150" 
d="M1849 913h-495v-759q475 0 690 57l-21 -211h-929q28 50 36.5 94t8.5 107q-157 -236 -439 -236q-146 0 -260 66t-185.5 183t-108.5 273t-37 342q0 426 147.5 649.5t443.5 223.5q289 0 439 -213q-3 106 -45 180h929l21 -209q-219 58 -690 58v-500h485zM700 137q23 0 46.5 4
t62.5 20t72.5 43t70.5 79.5t63 123t43 179.5t17 243q0 161 -19 284t-52 201t-81.5 127.5t-102.5 69t-120 19.5q-65 0 -118.5 -19.5t-102 -69t-81.5 -127.5t-52.5 -201t-19.5 -284q0 -134 16 -243t40.5 -179.5t60 -123t68.5 -79.5t72.5 -43t64.5 -20t52 -4z" />
    <glyph glyph-name="oe" unicode="&#x153;" horiz-adv-x="2254" 
d="M2146 266l39 -160q-219 -143 -469 -143q-179 0 -331 75.5t-242 213.5q-78 -139 -211 -209t-273 -70q-79 0 -157 21.5t-153 70t-132 119t-92 177.5t-35 237q0 129 33 234.5t88.5 175.5t130 118.5t154 69.5t163.5 21q146 0 274 -64t204 -192q79 123 209.5 190.5t293.5 67.5
q231 0 377 -107.5t146 -257.5q0 -74 -38 -140t-110 -117.5t-189 -81.5t-263 -30q-148 0 -293 54q93 -3 162 2q136 4 241.5 31.5t167 71t92.5 94t31 104.5q0 98 -86 168.5t-227 70.5q-71 0 -139 -27t-126.5 -79.5t-94.5 -142t-36 -203.5q0 -117 40 -214.5t108 -161t156.5 -98
t185.5 -34.5q104 0 208.5 38t192.5 107zM659 104q45 0 91 16t93.5 54t84 93t59.5 141t23 190q0 105 -23 191.5t-59.5 141t-84 91.5t-93.5 52.5t-91 15.5q-46 0 -92.5 -15.5t-94.5 -52.5t-84.5 -91.5t-59.5 -140.5t-23 -192q0 -104 23 -190t59.5 -141t84 -93t94.5 -54t93 -16
z" />
    <glyph glyph-name="Racute" unicode="&#x154;" horiz-adv-x="1226" 
d="M514 1872q-63 0 -117 22t-86 62q64 0 142 20q96 22 182.5 76t132.5 121l121 -121q-62 -82 -165.5 -131t-209.5 -49zM414 0h-305q21 38 31.5 78t12 67t1.5 82v1215q0 153 -41 227h524q113 0 203.5 -34.5t146 -93t84.5 -131t29 -153.5q0 -109 -52.5 -203t-156 -156
t-238.5 -69v-6q113 -13 192.5 -59.5t119.5 -109t68.5 -150t40 -167t33 -176t48.5 -161.5h-287q19 103 -2 360q-35 388 -403 414h-94v-547q0 -55 1.5 -82t12 -67t31.5 -78zM369 1575v-684h69q121 0 212.5 30t145 82t79.5 115.5t26 136.5q0 133 -87 226.5t-243 93.5h-202z" />
    <glyph glyph-name="racute" unicode="&#x155;" horiz-adv-x="952" 
d="M426 1386q-63 0 -117 22t-86 62q60 0 142 21q96 22 182.5 76t132.5 121l121 -121q-62 -82 -165.5 -131.5t-209.5 -49.5zM414 0h-305q21 38 31.5 78t12 67t1.5 82v764q0 55 -10.5 87t-34.5 59q80 0 155.5 22t104.5 60v-424h14q61 265 212 369.5t353 2.5l-49 -186
q-75 36 -143.5 41.5t-122 -17.5t-98.5 -65t-77.5 -102.5t-54.5 -128.5t-34 -144v-338q0 -55 1.5 -82t12 -67t31.5 -78z" />
    <glyph glyph-name="uni0156" unicode="&#x156;" horiz-adv-x="1226" 
d="M414 0h-305q21 38 31.5 78t12 67t1.5 82v1215q0 153 -41 227h524q113 0 203.5 -34.5t146 -93t84.5 -131t29 -153.5q0 -109 -52.5 -203t-156 -156t-238.5 -69v-6q113 -13 192.5 -59.5t119.5 -109t68.5 -150t40 -167t33 -176t48.5 -161.5h-287q19 103 -2 360
q-35 388 -403 414h-94v-547q0 -55 1.5 -82t12 -67t31.5 -78zM369 1575v-684h69q121 0 212.5 30t145 82t79.5 115.5t26 136.5q0 133 -87 226.5t-243 93.5h-202zM547 -541h-70l62 465h188z" />
    <glyph glyph-name="uni0157" unicode="&#x157;" horiz-adv-x="952" 
d="M414 0h-305q21 38 31.5 78t12 67t1.5 82v764q0 55 -10.5 87t-34.5 59q80 0 155.5 22t104.5 60v-424h14q61 265 212 369.5t353 2.5l-49 -186q-75 36 -143.5 41.5t-122 -17.5t-98.5 -65t-77.5 -102.5t-54.5 -128.5t-34 -144v-338q0 -55 1.5 -82t12 -67t31.5 -78zM180 -541
h-71l61 465h190z" />
    <glyph glyph-name="Rcaron" unicode="&#x158;" horiz-adv-x="1226" 
d="M244 2120l73 131q167 -133 299 -293q135 172 277 289l100 -123q-41 -21 -77.5 -43.5t-79 -55.5t-65.5 -52t-78 -67t-77 -67q-197 185 -372 281zM414 0h-305q21 38 31.5 78t12 67t1.5 82v1215q0 153 -41 227h524q113 0 203.5 -34.5t146 -93t84.5 -131t29 -153.5
q0 -109 -52.5 -203t-156 -156t-238.5 -69v-6q113 -13 192.5 -59.5t119.5 -109t68.5 -150t40 -167t33 -176t48.5 -161.5h-287q19 103 -2 360q-35 388 -403 414h-94v-547q0 -55 1.5 -82t12 -67t31.5 -78zM369 1575v-684h69q121 0 212.5 30t145 82t79.5 115.5t26 136.5
q0 133 -87 226.5t-243 93.5h-202z" />
    <glyph glyph-name="rcaron" unicode="&#x159;" horiz-adv-x="952" 
d="M156 1634l73 131q170 -135 299 -292q133 169 277 288l100 -123q-41 -21 -77.5 -43t-80 -56t-64 -51t-79 -67.5t-76.5 -66.5q-195 182 -372 280zM414 0h-305q21 38 31.5 78t12 67t1.5 82v764q0 55 -10.5 87t-34.5 59q80 0 155.5 22t104.5 60v-424h14q61 265 212 369.5
t353 2.5l-49 -186q-75 36 -143.5 41.5t-122 -17.5t-98.5 -65t-77.5 -102.5t-54.5 -128.5t-34 -144v-338q0 -55 1.5 -82t12 -67t31.5 -78z" />
    <glyph glyph-name="Sacute" unicode="&#x15a;" horiz-adv-x="1257" 
d="M559 1872q-63 0 -117 22t-86 62q64 0 142 20q96 22 182.5 76t132.5 121l121 -121q-62 -82 -165.5 -131t-209.5 -49zM612 -29q-150 0 -292 60t-246 176l45 192q97 -121 234 -186.5t268 -65.5q150 0 253 84t103 224q0 67 -29 125.5t-78 104t-113.5 87t-135 78.5
t-141.5 74.5t-135 80t-113.5 89.5t-79 108t-29.5 131q0 93 42 165t116.5 116t170 66t207.5 22q210 0 420 -72l-14 -207q-75 53 -185 83t-216 30q-91 0 -165.5 -21t-122.5 -68t-48 -114q0 -47 29.5 -90t79 -79.5t113.5 -72t135 -72.5t142 -77t135 -89t113.5 -104t79 -127.5
t29.5 -154.5q0 -117 -47.5 -212.5t-127.5 -156.5t-182 -94t-215 -33z" />
    <glyph glyph-name="sacute" unicode="&#x15b;" horiz-adv-x="1218" 
d="M465 1386q-63 0 -117 22t-86 62q59 0 141 21q96 22 183 76.5t133 120.5l121 -121q-62 -82 -165.5 -131.5t-209.5 -49.5zM125 82l29 190q123 -61 245.5 -91.5t222 -28t177 29.5t120.5 80.5t44 124.5q0 51 -29.5 86.5t-79.5 53.5t-115 29.5t-137 19t-144 17t-137 29
t-115 49.5t-79.5 83.5t-28.5 126.5q0 90 50.5 158t132.5 105t186.5 54t212.5 11.5t210 -28.5t179 -61l-18 -188q-91 49 -221.5 71.5t-249.5 14.5t-204.5 -57t-86.5 -132q-1 -51 28.5 -85.5t80 -51.5t116.5 -26.5t138 -16.5t144 -16.5t136.5 -30.5t113 -54t74.5 -91.5
t21 -139.5q-4 -85 -53 -153.5t-127 -111t-180.5 -64t-212.5 -18t-226 31.5t-217 80z" />
    <glyph glyph-name="Scedilla" unicode="&#x15e;" horiz-adv-x="1257" 
d="M1184 467q0 -110 -41.5 -201t-113 -152t-163.5 -97t-196 -44l-25 -39q115 -6 178.5 -61.5t63.5 -132.5q0 -57 -35 -108.5t-105.5 -89.5t-178 -45t-251.5 24v82q140 -30 236 -7.5t145.5 70t49.5 103.5q0 52 -46 90t-133 45l31 67q-147 3 -286 63t-240 173l45 192
q97 -121 234 -186.5t268 -65.5q150 0 253 84t103 224q0 67 -29 125.5t-78 104t-113.5 87t-135 78.5t-141.5 74.5t-135 80t-113.5 89.5t-79 108t-29.5 131q0 93 42 165t116.5 116t170 66t207.5 22q210 0 420 -72l-14 -207q-75 53 -185 83t-216 30q-91 0 -165.5 -21
t-122.5 -68t-48 -114q0 -47 29.5 -90t79 -79.5t113.5 -72t135 -72.5t142 -77t135 -89t113.5 -104t79 -127.5t29.5 -154.5z" />
    <glyph glyph-name="scedilla" unicode="&#x15f;" horiz-adv-x="1218" 
d="M289 829q-1 -51 28.5 -85.5t80 -51.5t116.5 -26.5t138 -16.5t144 -16.5t136.5 -30.5t113 -54t74.5 -91.5t21 -139.5q-6 -112 -87 -193.5t-205 -118.5t-274 -34l-22 -37q115 -6 178.5 -61.5t63.5 -132.5q0 -57 -35 -108.5t-105.5 -89.5t-178 -45t-251.5 24v82
q140 -30 235.5 -7.5t145 70t49.5 103.5q0 52 -45.5 90t-132.5 45l31 69q-208 19 -383 109l29 190q123 -61 245.5 -91.5t222 -28t177 29.5t120.5 80.5t44 124.5q0 51 -29.5 86.5t-79.5 53.5t-115 29.5t-137 19t-144 17t-137 29t-115 49.5t-79.5 83.5t-28.5 126.5
q0 90 50.5 158t132.5 105t186.5 54t212.5 11.5t210 -28.5t179 -61l-18 -188q-91 49 -221.5 71.5t-249.5 14.5t-204.5 -57t-86.5 -132z" />
    <glyph glyph-name="Scaron" unicode="&#x160;" horiz-adv-x="1257" 
d="M289 2120l73 131q170 -136 300 -293q137 174 276 289l100 -123q-41 -21 -78 -43.5t-78 -55t-65.5 -52.5t-77.5 -66.5t-77 -67.5q-196 184 -373 281zM612 -29q-150 0 -292 60t-246 176l45 192q97 -121 234 -186.5t268 -65.5q150 0 253 84t103 224q0 67 -29 125.5t-78 104
t-113.5 87t-135 78.5t-141.5 74.5t-135 80t-113.5 89.5t-79 108t-29.5 131q0 93 42 165t116.5 116t170 66t207.5 22q210 0 420 -72l-14 -207q-75 53 -185 83t-216 30q-91 0 -165.5 -21t-122.5 -68t-48 -114q0 -47 29.5 -90t79 -79.5t113.5 -72t135 -72.5t142 -77t135 -89
t113.5 -104t79 -127.5t29.5 -154.5q0 -117 -47.5 -212.5t-127.5 -156.5t-182 -94t-215 -33z" />
    <glyph glyph-name="scaron" unicode="&#x161;" horiz-adv-x="1218" 
d="M197 1634l73 131q170 -135 299 -292q133 169 277 288l100 -123q-41 -21 -77.5 -43t-80 -56t-64 -51t-79 -67.5t-76.5 -66.5q-195 182 -372 280zM125 82l29 190q123 -61 245.5 -91.5t222 -28t177 29.5t120.5 80.5t44 124.5q0 51 -29.5 86.5t-79.5 53.5t-115 29.5t-137 19
t-144 17t-137 29t-115 49.5t-79.5 83.5t-28.5 126.5q0 90 50.5 158t132.5 105t186.5 54t212.5 11.5t210 -28.5t179 -61l-18 -188q-91 49 -221.5 71.5t-249.5 14.5t-204.5 -57t-86.5 -132q-1 -51 28.5 -85.5t80 -51.5t116.5 -26.5t138 -16.5t144 -16.5t136.5 -30.5t113 -54
t74.5 -91.5t21 -139.5q-4 -85 -53 -153.5t-127 -111t-180.5 -64t-212.5 -18t-226 31.5t-217 80z" />
    <glyph glyph-name="uni0162" unicode="&#x162;" horiz-adv-x="1345" 
d="M702 0l-40 -66q114 -6 177.5 -61.5t63.5 -132.5q0 -57 -35 -108.5t-105.5 -89.5t-177.5 -45t-251 24v82q140 -30 235.5 -7.5t145 70t49.5 103.5q0 52 -45.5 90t-132.5 45l43 96h-109q21 38 31.5 78t12 67t1.5 82v1305q-253 -4 -456 -57l14 194h1098l16 -194
q-203 53 -457 57v-1305q0 -55 1.5 -82t12 -67t31.5 -78h-123z" />
    <glyph glyph-name="uni0163" unicode="&#x163;" horiz-adv-x="901" 
d="M510 -29l-23 -37q115 -6 178.5 -61.5t63.5 -132.5q0 -57 -35 -108.5t-105.5 -89.5t-177.5 -45t-251 24v82q140 -30 235.5 -7.5t145 70t49.5 103.5q0 52 -45.5 90t-132.5 45l34 80q-113 32 -182 125t-69 251v639q0 145 -127 185q62 22 115.5 67.5t88 98.5t61 115t39.5 111
t19 93h19l-2 -485h387v-168q-72 29 -159.5 41t-227.5 12l2 -700q0 -124 52.5 -181t135.5 -57q61 0 128.5 25.5t121.5 64.5l26 -158q-59 -45 -140 -70.5t-165 -25.5q-19 0 -59 4z" />
    <glyph glyph-name="Tcaron" unicode="&#x164;" horiz-adv-x="1345" 
d="M303 2120l74 131q167 -133 299 -293q137 174 276 289l101 -123q-41 -21 -77.5 -43.5t-79 -55.5t-65.5 -52t-78 -67t-77 -67q-196 184 -373 281zM825 0h-305q21 38 31.5 78t12 67t1.5 82v1305q-253 -4 -456 -57l14 194h1098l16 -194q-203 53 -457 57v-1305q0 -55 1.5 -82
t12 -67t31.5 -78z" />
    <glyph glyph-name="tcaron" unicode="&#x165;" horiz-adv-x="1275" 
d="M569 -33q-59 0 -112 13t-101.5 43t-83.5 74.5t-56 112t-21 150.5v639q0 145 -127 185q62 22 115.5 67.5t88 98.5t61 115t39.5 111t19 93h19l-2 -485h387v-168q-72 29 -159.5 41t-227.5 12l2 -700q0 -124 52.5 -181t135.5 -57q61 0 128.5 25.5t121.5 64.5l26 -158
q-59 -45 -140 -70.5t-165 -25.5zM1028 1120h-80q13 71 20 164t3 202.5t-23 182.5h207z" />
    <glyph glyph-name="Tbar" unicode="&#x166;" horiz-adv-x="1345" 
d="M780 1532v-627h244v-104h-244v-574q0 -55 1.5 -82t12 -67t31.5 -78h-305q21 38 31.5 78t12 67t1.5 82v574h-231v104h231v627q-253 -4 -456 -57l14 194h1098l16 -194q-203 53 -457 57z" />
    <glyph glyph-name="tbar" unicode="&#x167;" horiz-adv-x="964" 
d="M860 221l29 -158q-59 -45 -140.5 -70.5t-166.5 -25.5q-74 0 -139 21.5t-118.5 66.5t-84.5 123t-31 182v279h-141v104h141v256q0 145 -129 185q63 22 116.5 68t88 98.5t61.5 114.5t40 111t20 93h18l-2 -485h385v-168q-72 29 -159 41t-226 12v-326h336v-104h-334v-270
q0 -124 52 -181t136 -57q123 0 248 90z" />
    <glyph glyph-name="Umacron" unicode="&#x16a;" horiz-adv-x="1347" 
d="M1012 1939h-674v109h674v-109zM672 -35q-132 0 -232.5 38t-162 107t-92.5 161.5t-31 205.5v965q0 55 -1.5 82t-12 67t-31.5 78h305q-21 -38 -31.5 -78t-12 -67t-1.5 -82v-1051q0 -90 45 -155.5t113 -96t149 -30.5q125 0 216 74.5t91 207.5l-2 1051q0 55 -1.5 82t-12 67
t-31.5 78h305q-21 -38 -31.5 -78t-12 -67t-1.5 -82v-965q0 -112 -32 -204.5t-94.5 -162t-164 -107.5t-233.5 -38z" />
    <glyph glyph-name="umacron" unicode="&#x16b;" horiz-adv-x="1363" 
d="M1001 1454h-673v109h673v-109zM543 -35q-169 0 -279 101t-110 280v645q0 55 -10.5 87t-34.5 59q80 0 155.5 22t104.5 60v-848q0 -131 64.5 -198t176.5 -67q125 0 233.5 104t137.5 282v499q0 55 -10.5 87t-34.5 59q80 0 155.5 22t104.5 60v-1059q0 -63 16.5 -97.5
t65.5 -62.5h-148q-75 0 -112 46t-37 120v211h-10q-29 -186 -146 -299t-282 -113z" />
    <glyph glyph-name="Uring" unicode="&#x16e;" horiz-adv-x="1347" 
d="M674 1782q-101 0 -170.5 69.5t-69.5 169.5t69.5 170t170.5 70q100 0 169.5 -70t69.5 -170t-69.5 -169.5t-169.5 -69.5zM674 1862q20 0 38.5 6t39 21t33 49t12.5 83t-12.5 83t-33 49.5t-39 21.5t-38.5 6t-38.5 -6t-39 -21.5t-33 -49.5t-12.5 -83t12.5 -83t33 -49t39 -21
t38.5 -6zM672 -35q-132 0 -232.5 38t-162 107t-92.5 161.5t-31 205.5v965q0 55 -1.5 82t-12 67t-31.5 78h305q-21 -38 -31.5 -78t-12 -67t-1.5 -82v-1051q0 -90 45 -155.5t113 -96t149 -30.5q125 0 216 74.5t91 207.5l-2 1051q0 55 -1.5 82t-12 67t-31.5 78h305
q-21 -38 -31.5 -78t-12 -67t-1.5 -82v-965q0 -112 -32 -204.5t-94.5 -162t-164 -107.5t-233.5 -38z" />
    <glyph glyph-name="uring" unicode="&#x16f;" horiz-adv-x="1363" 
d="M664 1296q-101 0 -170.5 70t-69.5 170t69.5 170t170.5 70q100 0 169.5 -70t69.5 -170t-69.5 -170t-169.5 -70zM664 1376q20 0 38.5 6t39 21.5t32.5 49.5t12 83t-12 83t-32.5 49.5t-39 21.5t-38.5 6t-38.5 -6t-39 -21.5t-33 -49.5t-12.5 -83t12.5 -83t33 -49.5t39 -21.5
t38.5 -6zM543 -35q-169 0 -279 101t-110 280v645q0 55 -10.5 87t-34.5 59q80 0 155.5 22t104.5 60v-848q0 -131 64.5 -198t176.5 -67q125 0 233.5 104t137.5 282v499q0 55 -10.5 87t-34.5 59q80 0 155.5 22t104.5 60v-1059q0 -63 16.5 -97.5t65.5 -62.5h-148q-75 0 -112 46
t-37 120v211h-10q-29 -186 -146 -299t-282 -113z" />
    <glyph glyph-name="Uhungarumlaut" unicode="&#x170;" horiz-adv-x="1347" 
d="M369 1847q104 51 166.5 146.5t62.5 230.5h201q-12 -178 -137.5 -281.5t-292.5 -95.5zM678 1847q99 53 170.5 153.5t71.5 223.5h208q0 -102 -64 -192t-168.5 -140.5t-217.5 -44.5zM672 -35q-132 0 -232.5 38t-162 107t-92.5 161.5t-31 205.5v965q0 55 -1.5 82t-12 67
t-31.5 78h305q-21 -38 -31.5 -78t-12 -67t-1.5 -82v-1051q0 -90 45 -155.5t113 -96t149 -30.5q125 0 216 74.5t91 207.5l-2 1051q0 55 -1.5 82t-12 67t-31.5 78h305q-21 -38 -31.5 -78t-12 -67t-1.5 -82v-965q0 -112 -32 -204.5t-94.5 -162t-164 -107.5t-233.5 -38z" />
    <glyph glyph-name="uhungarumlaut" unicode="&#x171;" horiz-adv-x="1363" 
d="M358 1362q104 51 167 146.5t63 230.5h200q-12 -178 -137.5 -281.5t-292.5 -95.5zM668 1362q98 53 169.5 153.5t71.5 223.5h209q0 -102 -64 -192t-168.5 -140.5t-217.5 -44.5zM543 -35q-169 0 -279 101t-110 280v645q0 55 -10.5 87t-34.5 59q80 0 155.5 22t104.5 60v-848
q0 -131 64.5 -198t176.5 -67q125 0 233.5 104t137.5 282v499q0 55 -10.5 87t-34.5 59q80 0 155.5 22t104.5 60v-1059q0 -63 16.5 -97.5t65.5 -62.5h-148q-75 0 -112 46t-37 120v211h-10q-29 -186 -146 -299t-282 -113z" />
    <glyph glyph-name="Uogonek" unicode="&#x172;" horiz-adv-x="1347" 
d="M936 1669h305q-21 -38 -31.5 -78t-12 -67t-1.5 -82v-965q0 -143 -51.5 -254t-153.5 -176v-27q-80 0 -135 -51t-55 -114q0 -51 45 -88t133 -41l-53 -93q-120 -30 -201.5 29t-81.5 160q0 83 57 143h-28q-132 0 -232.5 38t-162 107t-92.5 161.5t-31 205.5v965q0 55 -1.5 82
t-12 67t-31.5 78h305q-21 -38 -31.5 -78t-12 -67t-1.5 -82v-1051q0 -90 45 -155.5t113 -96t149 -30.5q125 0 216 74.5t91 207.5l-2 1051q0 55 -1.5 82t-12 67t-31.5 78z" />
    <glyph glyph-name="uogonek" unicode="&#x173;" horiz-adv-x="1363" 
d="M1278 0h-72q-80 0 -135 -51.5t-55 -114.5q0 -51 45 -88t133 -41l-53 -92q-120 -30 -201.5 28.5t-81.5 159.5q0 73 48.5 133.5t140.5 85.5q-66 43 -66 146v211h-10q-29 -186 -146 -299t-282 -113q-169 0 -279 101t-110 280v645q0 55 -10.5 87t-34.5 59q80 0 155.5 22
t104.5 60v-848q0 -131 64.5 -198t176.5 -67q125 0 233.5 104t137.5 282v499q0 55 -10.5 87t-34.5 59q80 0 155.5 22t104.5 60v-1059q0 -63 16.5 -97.5t65.5 -62.5z" />
    <glyph glyph-name="Wcircumflex" unicode="&#x174;" horiz-adv-x="2201" 
d="M809 1817l-74 131q180 99 373 280q20 -17 76.5 -66.5t78.5 -67.5t64.5 -51.5t78.5 -55.5t77 -43l-101 -123q-136 112 -274 288q-137 -163 -299 -292zM858 0h-338q6 35 5.5 74t-3 68.5t-11.5 75t-14.5 66.5t-19 71t-16.5 63l-260 979q-41 151 -113 272h289
q-3 -36 1.5 -101t16.5 -110l328 -1206l211 1022q2 11 11.5 53.5t12.5 59t9.5 54t7.5 60t1 54.5t-5.5 59.5t-14.5 54.5h316q-11 -38 -14 -79t3.5 -97t12.5 -88t21 -106q3 -17 5 -25l216 -1016l309 1200q10 48 15.5 113.5t2.5 97.5h273q-37 -64 -59 -120.5t-46 -151.5
l-252 -979q-3 -13 -16.5 -63.5t-17.5 -69.5t-13 -63.5t-10.5 -73t-1.5 -69t6 -79.5h-342q2 74 -12 198t-35 220l-201 911l-194 -911q-64 -289 -64 -418z" />
    <glyph glyph-name="wcircumflex" unicode="&#x175;" horiz-adv-x="1826" 
d="M598 1331l-74 131q177 97 373 281q23 -20 77 -67t78 -67t65.5 -52.5t77.5 -55t77 -43.5l-101 -123q-133 110 -274 289q-140 -166 -299 -293zM688 0h-280q3 14 -2 42.5t-11 50.5t-18.5 63.5t-16.5 54.5l-245 793q-3 10 -11.5 41t-14 49t-17 44t-25.5 46h244
q-4 -96 12 -154l262 -860l236 772q16 74 14.5 137t-16.5 105h243q-40 -113 -6 -242l236 -745l250 833q18 64 14 154h246q-42 -68 -76 -180l-246 -793q-4 -13 -13.5 -44.5t-14 -48t-12 -46.5t-7.5 -41v-31h-258q1 19 1.5 31t-7 41.5t-13 47t-15 47.5t-13.5 44l-188 582
l-187 -582q-3 -10 -9.5 -31t-10 -33.5t-9.5 -34t-8.5 -33.5t-6.5 -31t-3 -27t2 -21z" />
    <glyph glyph-name="Ycircumflex" unicode="&#x176;" horiz-adv-x="1433" 
d="M418 1817l-74 131q180 99 373 280q20 -17 76.5 -66.5t78.5 -67.5t64.5 -51.5t78.5 -55.5t77 -43l-101 -123q-136 112 -274 288q-137 -163 -299 -292zM870 0h-305q21 38 31.5 78t12 67t1.5 82v443l-403 776q-60 114 -131 223h252q1 -15 4.5 -32.5t10.5 -37t12.5 -34.5
t16 -36.5t15.5 -32t16 -31.5t13 -25l305 -594l307 596q6 11 19.5 38.5t19.5 40.5t16 36t14.5 38.5t8.5 35.5t4 38h250q-56 -80 -131 -223l-404 -776v-443q0 -55 1.5 -82t12 -67t31.5 -78z" />
    <glyph glyph-name="ycircumflex" unicode="&#x177;" horiz-adv-x="1202" 
d="M307 1331l-74 131q177 97 373 281q23 -20 77 -67t78 -67t65.5 -52.5t77.5 -55t77 -43.5l-100 -123q-136 113 -275 289q-140 -166 -299 -293zM49 -377l-14 193q143 -36 242.5 -41t164.5 22.5t101.5 78.5t58.5 134l10 51h-163l-312 943q-41 120 -82 180h262q-9 -88 15 -154
l301 -874l207 874q17 86 10 154h260q-43 -63 -70 -180l-252 -1004q-30 -120 -84 -201t-143 -132t-214 -59.5t-298 15.5z" />
    <glyph glyph-name="Ydieresis" unicode="&#x178;" horiz-adv-x="1433" 
d="M565 1849q-52 0 -87.5 35t-35.5 86q0 54 35 88.5t88 34.5q50 0 84.5 -35t34.5 -88q0 -51 -34.5 -86t-84.5 -35zM874 1849q-52 0 -86 35t-34 86q0 54 33.5 88.5t86.5 34.5q52 0 87.5 -35t35.5 -88q0 -51 -36 -86t-87 -35zM870 0h-305q21 38 31.5 78t12 67t1.5 82v443
l-403 776q-60 114 -131 223h252q1 -15 4.5 -32.5t10.5 -37t12.5 -34.5t16 -36.5t15.5 -32t16 -31.5t13 -25l305 -594l307 596q6 11 19.5 38.5t19.5 40.5t16 36t14.5 38.5t8.5 35.5t4 38h250q-56 -80 -131 -223l-404 -776v-443q0 -55 1.5 -82t12 -67t31.5 -78z" />
    <glyph glyph-name="Zacute" unicode="&#x179;" horiz-adv-x="1296" 
d="M582 1872q-63 0 -117 22t-86 62q63 0 141 20q96 22 183 76.5t133 120.5l120 -121q-62 -82 -165 -131t-209 -49zM1167 0h-1089l848 1538h-344q-303 0 -498 -82l27 213h1089l-844 -1540h349q161 0 275.5 23.5t213.5 85.5z" />
    <glyph glyph-name="zacute" unicode="&#x17a;" horiz-adv-x="1230" 
d="M512 1386q-63 0 -117 22t-86 62q60 0 142 21q96 22 182.5 76t132.5 121l121 -121q-62 -82 -165.5 -131.5t-209.5 -49.5zM1108 0h-1024l729 1063q-566 6 -711 -55l17 176h1003l-727 -1071q210 -6 425 6t304 57z" />
    <glyph glyph-name="Zdotaccent" unicode="&#x17b;" horiz-adv-x="1296" 
d="M680 1905q-60 0 -99.5 40.5t-39.5 100.5t39.5 100.5t99.5 40.5t100.5 -40.5t40.5 -100.5t-40.5 -100.5t-100.5 -40.5zM1167 0h-1089l848 1538h-344q-303 0 -498 -82l27 213h1089l-844 -1540h349q161 0 275.5 23.5t213.5 85.5z" />
    <glyph glyph-name="zdotaccent" unicode="&#x17c;" horiz-adv-x="1230" 
d="M610 1419q-60 0 -99.5 41t-39.5 101t39.5 100.5t99.5 40.5t101 -40.5t41 -100.5t-41 -101t-101 -41zM1108 0h-1024l729 1063q-566 6 -711 -55l17 176h1003l-727 -1071q210 -6 425 6t304 57z" />
    <glyph glyph-name="Zcaron" unicode="&#x17d;" horiz-adv-x="1296" 
d="M313 2120l74 131q167 -133 299 -293q135 172 277 289l100 -123q-41 -21 -77.5 -43.5t-79 -55.5t-65.5 -52t-78 -67t-77 -67q-196 184 -373 281zM1167 0h-1089l848 1538h-344q-303 0 -498 -82l27 213h1089l-844 -1540h349q161 0 275.5 23.5t213.5 85.5z" />
    <glyph glyph-name="zcaron" unicode="&#x17e;" horiz-adv-x="1230" 
d="M244 1634l73 131q170 -135 299 -292q133 169 277 288l100 -123q-41 -21 -77.5 -43t-80 -56t-64 -51t-79 -67.5t-76.5 -66.5q-195 182 -372 280zM1108 0h-1024l729 1063q-566 6 -711 -55l17 176h1003l-727 -1071q210 -6 425 6t304 57z" />
    <glyph glyph-name="uni0218" unicode="&#x218;" horiz-adv-x="1257" 
d="M612 -29q-150 0 -292 60t-246 176l45 192q97 -121 234 -186.5t268 -65.5q150 0 253 84t103 224q0 67 -29 125.5t-78 104t-113.5 87t-135 78.5t-141.5 74.5t-135 80t-113.5 89.5t-79 108t-29.5 131q0 93 42 165t116.5 116t170 66t207.5 22q210 0 420 -72l-14 -207
q-75 53 -185 83t-216 30q-91 0 -165.5 -21t-122.5 -68t-48 -114q0 -47 29.5 -90t79 -79.5t113.5 -72t135 -72.5t142 -77t135 -89t113.5 -104t79 -127.5t29.5 -154.5q0 -117 -47.5 -212.5t-127.5 -156.5t-182 -94t-215 -33zM582 -541h-70l61 465h189z" />
    <glyph glyph-name="uni0219" unicode="&#x219;" horiz-adv-x="1218" 
d="M125 82l29 190q123 -61 245.5 -91.5t222 -28t177 29.5t120.5 80.5t44 124.5q0 51 -29.5 86.5t-79.5 53.5t-115 29.5t-137 19t-144 17t-137 29t-115 49.5t-79.5 83.5t-28.5 126.5q0 90 50.5 158t132.5 105t186.5 54t212.5 11.5t210 -28.5t179 -61l-18 -188
q-91 49 -221.5 71.5t-249.5 14.5t-204.5 -57t-86.5 -132q-1 -51 28.5 -85.5t80 -51.5t116.5 -26.5t138 -16.5t144 -16.5t136.5 -30.5t113 -54t74.5 -91.5t21 -139.5q-4 -85 -53 -153.5t-127 -111t-180.5 -64t-212.5 -18t-226 31.5t-217 80zM489 -541h-69l61 465h189z" />
    <glyph glyph-name="uni021A" unicode="&#x21a;" horiz-adv-x="1345" 
d="M825 0h-305q21 38 31.5 78t12 67t1.5 82v1305q-253 -4 -456 -57l14 194h1098l16 -194q-203 53 -457 57v-1305q0 -55 1.5 -82t12 -67t31.5 -78zM598 -541h-70l62 465h188z" />
    <glyph glyph-name="uni021B" unicode="&#x21b;" horiz-adv-x="901" 
d="M569 -33q-59 0 -112 13t-101.5 43t-83.5 74.5t-56 112t-21 150.5v639q0 145 -127 185q62 22 115.5 67.5t88 98.5t61 115t39.5 111t19 93h19l-2 -485h387v-168q-72 29 -159.5 41t-227.5 12l2 -700q0 -124 52.5 -181t135.5 -57q61 0 128.5 25.5t121.5 64.5l26 -158
q-59 -45 -140 -70.5t-165 -25.5zM424 -541h-70l62 465h188z" />
    <glyph glyph-name="gravecomb" unicode="&#x300;" 
d="M-227 1384q-106 0 -210 50t-165 131l119 123q47 -68 133.5 -122.5t181.5 -76.5q86 -21 143 -21q-69 -84 -202 -84z" />
    <glyph glyph-name="acutecomb" unicode="&#x301;" 
d="M-520 1386q-63 0 -117 22t-86 62q59 0 141 21q96 22 183 76.5t133 120.5l121 -121q-62 -82 -165.5 -131.5t-209.5 -49.5z" />
    <glyph glyph-name="uni0302" unicode="&#x302;" 
d="M-764 1331l-74 131q177 97 373 281q23 -20 77 -67t78 -67t65.5 -52.5t77.5 -55t77 -43.5l-100 -123q-136 113 -275 289q-140 -166 -299 -293z" />
    <glyph glyph-name="tildecomb" unicode="&#x303;" 
d="M-352 1333q-42 0 -78 14t-62.5 36.5t-50.5 49.5t-47 54t-47 49.5t-55.5 36.5t-67.5 14q-166 0 -166 -225h-100q-10 52 -11 101t14.5 92.5t43 76t74 51.5t106.5 19q50 0 90.5 -19t66 -47.5t52.5 -61.5t50.5 -61.5t59.5 -47.5t79 -19q70 0 114.5 59.5t18.5 163.5h121
q32 -102 6.5 -176.5t-84 -117t-127.5 -42.5z" />
    <glyph glyph-name="uni0304" unicode="&#x304;" 
d="M-109 1454h-673v109h673v-109z" />
    <glyph glyph-name="uni0306" unicode="&#x306;" 
d="M-492 1333q-69 0 -134 23t-119 66.5t-89.5 112.5t-42.5 155h132q13 -110 86 -170t167 -60t167.5 60.5t84.5 169.5h131q-13 -168 -124 -262.5t-259 -94.5z" />
    <glyph glyph-name="uni0307" unicode="&#x307;" 
d="M-174 1419q-60 0 -99.5 41t-39.5 101t39.5 100.5t99.5 40.5t100.5 -40.5t40.5 -100.5t-40.5 -101t-100.5 -41z" />
    <glyph glyph-name="uni0308" unicode="&#x308;" 
d="M-539 1364q-52 0 -87.5 35t-35.5 86q0 54 35 88.5t88 34.5q50 0 84.5 -35t34.5 -88q0 -51 -34.5 -86t-84.5 -35zM-229 1364q-52 0 -86.5 35t-34.5 86q0 54 34 88.5t87 34.5q52 0 87.5 -35t35.5 -88q0 -51 -36 -86t-87 -35z" />
    <glyph glyph-name="hookabovecomb" unicode="&#x309;" 
d="M-381 1440h-80v104q80 -21 124 17.5t44 99.5q0 46 -26.5 78.5t-73.5 32.5q-13 0 -58 -9v62q69 35 148 35q93 0 145 -47.5t52 -120.5q0 -89 -62.5 -146t-150.5 -57q-35 0 -62 8v-57z" />
    <glyph glyph-name="uni030A" unicode="&#x30a;" 
d="M-348 1296q-101 0 -170.5 70t-69.5 170t69.5 170t170.5 70q100 0 169.5 -70t69.5 -170t-69.5 -170t-169.5 -70zM-348 1376q20 0 38.5 6t39 21.5t33 49.5t12.5 83t-12.5 83t-33 49.5t-39 21.5t-38.5 6t-38.5 -6t-39 -21.5t-33 -49.5t-12.5 -83t12.5 -83t33 -49.5t39 -21.5
t38.5 -6z" />
    <glyph glyph-name="uni030B" unicode="&#x30b;" 
d="M-860 1362q104 51 166.5 146.5t62.5 230.5h201q-12 -178 -137.5 -281.5t-292.5 -95.5zM-551 1362q99 53 170.5 153.5t71.5 223.5h209q0 -102 -64 -192t-169 -140.5t-218 -44.5z" />
    <glyph glyph-name="uni030C" unicode="&#x30c;" 
d="M-815 1638l74 131q170 -135 299 -292q135 171 276 288l100 -123q-41 -21 -77.5 -43.5t-78.5 -55t-65 -51.5t-78.5 -67.5t-76.5 -66.5q-193 181 -373 280z" />
    <glyph glyph-name="uni0312" unicode="&#x312;" 
d="M-143 1368h-189l221 465h80z" />
    <glyph glyph-name="uni031B" unicode="&#x31b;" 
d="M-543 1376v41q179 6 274 131t95 357h237q0 -68 -17 -137t-61 -142.5t-110 -129t-174 -89.5t-244 -31z" />
    <glyph glyph-name="dotbelowcomb" unicode="&#x323;" 
d="M-217 -307q-46 0 -76.5 31t-30.5 77t30.5 77.5t76.5 31.5t77 -31.5t31 -77.5t-31 -77t-77 -31z" />
    <glyph glyph-name="uni0326" unicode="&#x326;" 
d="M-381 -541h-70l62 465h188z" />
    <glyph glyph-name="uni0327" unicode="&#x327;" 
d="M-676 -479v82q140 -30 235.5 -7.5t145 70t49.5 103.5q0 52 -45.5 90t-132.5 45l43 96h74l-41 -66q115 -6 178.5 -61.5t63.5 -132.5q0 -57 -35 -108.5t-105.5 -89.5t-178 -45t-251.5 24z" />
    <glyph glyph-name="uni0328" unicode="&#x328;" 
d="M-63 -295l-54 -92q-120 -30 -201 28.5t-81 159.5q0 103 89.5 173t258.5 63v-37q-80 0 -135.5 -51.5t-55.5 -114.5q0 -51 45.5 -88t133.5 -41z" />
    <glyph glyph-name="uni0335" unicode="&#x335;" 
d="M-168 647h-690v105h690v-105z" />
    <glyph glyph-name="uni0336" unicode="&#x336;" 
d="M-106 612h-865v105h865v-105z" />
    <glyph glyph-name="uni0337" unicode="&#x337;" 
d="M-106 831l-840 -311v111l840 311v-111z" />
    <glyph glyph-name="uni0338" unicode="&#x338;" 
d="M-610 -289h-99l531 1864h98z" />
    <glyph glyph-name="Wgrave" unicode="&#x1e80;" horiz-adv-x="2201" 
d="M1286 1870q-106 0 -210 49.5t-165 130.5l119 123q47 -68 134 -122.5t182 -76.5q82 -20 143 -20q-69 -84 -203 -84zM858 0h-338q6 35 5.5 74t-3 68.5t-11.5 75t-14.5 66.5t-19 71t-16.5 63l-260 979q-41 151 -113 272h289q-3 -36 1.5 -101t16.5 -110l328 -1206l211 1022
q2 11 11.5 53.5t12.5 59t9.5 54t7.5 60t1 54.5t-5.5 59.5t-14.5 54.5h316q-11 -38 -14 -79t3.5 -97t12.5 -88t21 -106q3 -17 5 -25l216 -1016l309 1200q10 48 15.5 113.5t2.5 97.5h273q-37 -64 -59 -120.5t-46 -151.5l-252 -979q-3 -13 -16.5 -63.5t-17.5 -69.5t-13 -63.5
t-10.5 -73t-1.5 -69t6 -79.5h-342q2 74 -12 198t-35 220l-201 911l-194 -911q-64 -289 -64 -418z" />
    <glyph glyph-name="wgrave" unicode="&#x1e81;" horiz-adv-x="1826" 
d="M1077 1384q-106 0 -210 50t-165 131l119 123q47 -68 134 -122.5t182 -76.5q86 -21 143 -21q-69 -84 -203 -84zM688 0h-280q3 14 -2 42.5t-11 50.5t-18.5 63.5t-16.5 54.5l-245 793q-3 10 -11.5 41t-14 49t-17 44t-25.5 46h244q-4 -96 12 -154l262 -860l236 772
q16 74 14.5 137t-16.5 105h243q-40 -113 -6 -242l236 -745l250 833q18 64 14 154h246q-42 -68 -76 -180l-246 -793q-4 -13 -13.5 -44.5t-14 -48t-12 -46.5t-7.5 -41v-31h-258q1 19 1.5 31t-7 41.5t-13 47t-15 47.5t-13.5 44l-188 582l-187 -582q-3 -10 -9.5 -31t-10 -33.5
t-9.5 -34t-8.5 -33.5t-6.5 -31t-3 -27t2 -21z" />
    <glyph glyph-name="Wacute" unicode="&#x1e82;" horiz-adv-x="2201" 
d="M1010 1872q-63 0 -117 22t-86 62q63 0 141 20q96 22 183 76.5t133 120.5l120 -121q-62 -82 -165 -131t-209 -49zM858 0h-338q6 35 5.5 74t-3 68.5t-11.5 75t-14.5 66.5t-19 71t-16.5 63l-260 979q-41 151 -113 272h289q-3 -36 1.5 -101t16.5 -110l328 -1206l211 1022
q2 11 11.5 53.5t12.5 59t9.5 54t7.5 60t1 54.5t-5.5 59.5t-14.5 54.5h316q-11 -38 -14 -79t3.5 -97t12.5 -88t21 -106q3 -17 5 -25l216 -1016l309 1200q10 48 15.5 113.5t2.5 97.5h273q-37 -64 -59 -120.5t-46 -151.5l-252 -979q-3 -13 -16.5 -63.5t-17.5 -69.5t-13 -63.5
t-10.5 -73t-1.5 -69t6 -79.5h-342q2 74 -12 198t-35 220l-201 911l-194 -911q-64 -289 -64 -418z" />
    <glyph glyph-name="wacute" unicode="&#x1e83;" horiz-adv-x="1826" 
d="M799 1386q-63 0 -117 22t-86 62q59 0 141 21q96 22 183 76.5t133 120.5l121 -121q-62 -82 -165.5 -131.5t-209.5 -49.5zM688 0h-280q3 14 -2 42.5t-11 50.5t-18.5 63.5t-16.5 54.5l-245 793q-3 10 -11.5 41t-14 49t-17 44t-25.5 46h244q-4 -96 12 -154l262 -860l236 772
q16 74 14.5 137t-16.5 105h243q-40 -113 -6 -242l236 -745l250 833q18 64 14 154h246q-42 -68 -76 -180l-246 -793q-4 -13 -13.5 -44.5t-14 -48t-12 -46.5t-7.5 -41v-31h-258q1 19 1.5 31t-7 41.5t-13 47t-15 47.5t-13.5 44l-188 582l-187 -582q-3 -10 -9.5 -31t-10 -33.5
t-9.5 -34t-8.5 -33.5t-6.5 -31t-3 -27t2 -21z" />
    <glyph glyph-name="Wdieresis" unicode="&#x1e84;" horiz-adv-x="2201" 
d="M956 1849q-52 0 -87 35t-35 86q0 54 34.5 88.5t87.5 34.5q50 0 84.5 -35t34.5 -88q0 -51 -34.5 -86t-84.5 -35zM1266 1849q-52 0 -86.5 35t-34.5 86q0 54 34 88.5t87 34.5q52 0 87.5 -35t35.5 -88q0 -51 -36 -86t-87 -35zM858 0h-338q6 35 5.5 74t-3 68.5t-11.5 75
t-14.5 66.5t-19 71t-16.5 63l-260 979q-41 151 -113 272h289q-3 -36 1.5 -101t16.5 -110l328 -1206l211 1022q2 11 11.5 53.5t12.5 59t9.5 54t7.5 60t1 54.5t-5.5 59.5t-14.5 54.5h316q-11 -38 -14 -79t3.5 -97t12.5 -88t21 -106q3 -17 5 -25l216 -1016l309 1200
q10 48 15.5 113.5t2.5 97.5h273q-37 -64 -59 -120.5t-46 -151.5l-252 -979q-3 -13 -16.5 -63.5t-17.5 -69.5t-13 -63.5t-10.5 -73t-1.5 -69t6 -79.5h-342q2 74 -12 198t-35 220l-201 911l-194 -911q-64 -289 -64 -418z" />
    <glyph glyph-name="wdieresis" unicode="&#x1e85;" horiz-adv-x="1826" 
d="M745 1364q-52 0 -87 35t-35 86q0 54 34.5 88.5t87.5 34.5q50 0 84.5 -35t34.5 -88q0 -51 -34.5 -86t-84.5 -35zM1055 1364q-52 0 -86.5 35t-34.5 86q0 54 34 88.5t87 34.5q52 0 87.5 -35t35.5 -88q0 -51 -36 -86t-87 -35zM688 0h-280q3 14 -2 42.5t-11 50.5t-18.5 63.5
t-16.5 54.5l-245 793q-3 10 -11.5 41t-14 49t-17 44t-25.5 46h244q-4 -96 12 -154l262 -860l236 772q16 74 14.5 137t-16.5 105h243q-40 -113 -6 -242l236 -745l250 833q18 64 14 154h246q-42 -68 -76 -180l-246 -793q-4 -13 -13.5 -44.5t-14 -48t-12 -46.5t-7.5 -41v-31
h-258q1 19 1.5 31t-7 41.5t-13 47t-15 47.5t-13.5 44l-188 582l-187 -582q-3 -10 -9.5 -31t-10 -33.5t-9.5 -34t-8.5 -33.5t-6.5 -31t-3 -27t2 -21z" />
    <glyph glyph-name="uni1E9E" unicode="&#x1e9e;" horiz-adv-x="1468" 
d="M967 -35q-99 0 -180 42t-132 131.5t-51 213.5h21q32 -114 110 -174.5t170 -60.5q112 0 193.5 83t81.5 226q0 88 -31 165t-93 139.5t-166.5 102.5t-240.5 48v69q59 20 105.5 52t76.5 69.5t51 85.5t31.5 94.5t14.5 103t3 104t-5 104.5q-59 0 -108.5 -3.5t-109 -15
t-106 -30.5t-93 -53.5t-76.5 -80.5t-49 -114.5t-19 -153.5v-926q0 -94 -35 -142t-129 -48h-113q38 51 50 94t12 107v815q0 128 27.5 230.5t73 173.5t116 123.5t145.5 83t173 49t187 24.5t199 6q17 -128 17.5 -232t-12.5 -181t-40.5 -138t-63.5 -103t-85 -77v-10
q93 -5 181 -45t157.5 -106.5t112 -165t42.5 -210.5q0 -111 -36.5 -202.5t-96.5 -148.5t-132 -87.5t-148 -30.5z" />
    <glyph glyph-name="Ygrave" unicode="&#x1ef2;" horiz-adv-x="1433" 
d="M895 1870q-106 0 -210 49.5t-165 130.5l119 123q47 -68 133.5 -122.5t181.5 -76.5q82 -20 144 -20q-69 -84 -203 -84zM870 0h-305q21 38 31.5 78t12 67t1.5 82v443l-403 776q-60 114 -131 223h252q1 -15 4.5 -32.5t10.5 -37t12.5 -34.5t16 -36.5t15.5 -32t16 -31.5
t13 -25l305 -594l307 596q6 11 19.5 38.5t19.5 40.5t16 36t14.5 38.5t8.5 35.5t4 38h250q-56 -80 -131 -223l-404 -776v-443q0 -55 1.5 -82t12 -67t31.5 -78z" />
    <glyph glyph-name="ygrave" unicode="&#x1ef3;" horiz-adv-x="1202" 
d="M786 1384q-106 0 -209.5 50t-164.5 131l118 123q47 -68 134 -122.5t182 -76.5q86 -21 143 -21q-69 -84 -203 -84zM49 -377l-14 193q143 -36 242.5 -41t164.5 22.5t101.5 78.5t58.5 134l10 51h-163l-312 943q-41 120 -82 180h262q-9 -88 15 -154l301 -874l207 874
q17 86 10 154h260q-43 -63 -70 -180l-252 -1004q-30 -120 -84 -201t-143 -132t-214 -59.5t-298 15.5z" />
    <glyph glyph-name="endash" unicode="&#x2013;" horiz-adv-x="993" 
d="M887 588h-778v106h778v-106z" />
    <glyph glyph-name="emdash" unicode="&#x2014;" horiz-adv-x="1144" 
d="M1038 588h-929v106h929v-106z" />
    <glyph glyph-name="quoteleft" unicode="&#x2018;" horiz-adv-x="409" 
d="M240 1911h63v-549h-194z" />
    <glyph glyph-name="quoteright" unicode="&#x2019;" horiz-adv-x="397" 
d="M184 1372h-75v549h180z" />
    <glyph glyph-name="quotesinglbase" unicode="&#x201a;" horiz-adv-x="409" 
d="M170 -381h-61v549h194z" />
    <glyph glyph-name="quotedblleft" unicode="&#x201c;" horiz-adv-x="700" 
d="M240 1913h63v-549h-194zM530 1913h64v-549h-195z" />
    <glyph glyph-name="quotedblright" unicode="&#x201d;" horiz-adv-x="700" 
d="M240 1913h63v-549h-194zM530 1913h64v-549h-195z" />
    <glyph glyph-name="quotedblbase" unicode="&#x201e;" horiz-adv-x="686" 
d="M170 -381h-61v549h194zM449 -381h-64v549h195z" />
    <glyph glyph-name="dagger" unicode="&#x2020;" horiz-adv-x="1038" 
d="M539 137h-41q0 119 -13.5 264.5t-27 237t-41.5 264.5q76 160 71 254q-36 -2 -71 -19t-59 -36t-59.5 -35t-72.5 -16q-55 0 -85.5 39t-30.5 94q0 54 30.5 93.5t85.5 39.5q31 0 59 -13.5t50.5 -32.5t44.5 -38.5t50 -33.5t58 -15q-1 68 -19 122.5t-38.5 83.5t-37.5 71t-17 89
q0 67 42 103.5t101 36.5t101.5 -37t42.5 -103q0 -39 -11 -72.5t-27.5 -60.5t-33 -56.5t-28.5 -75t-13 -101.5q38 0 73.5 21t59.5 45.5t59.5 45.5t73.5 21q55 0 86 -39.5t31 -93.5q0 -55 -31 -94t-86 -39q-38 0 -73.5 16.5t-59.5 36.5t-59.5 36.5t-73.5 16.5q-5 -92 72 -254
q-28 -173 -41.5 -264.5t-27 -237t-13.5 -264.5z" />
    <glyph glyph-name="daggerdbl" unicode="&#x2021;" horiz-adv-x="1038" 
d="M539 137h-41q0 107 -32 218t-89 202q8 21 21.5 54t19 48.5t12.5 41.5t9.5 52t2.5 60q-19 -5 -90.5 -41.5t-126.5 -36.5t-85.5 39t-30.5 94q0 54 30.5 93.5t85.5 39.5q40 0 76 -18.5t73.5 -46t61.5 -37.5q51 97 51 258q-36 -2 -71 -19t-59 -36t-59.5 -35t-72.5 -16
q-55 0 -85.5 39t-30.5 94q0 54 30.5 93.5t85.5 39.5q31 0 59 -13.5t50.5 -32.5t44.5 -38.5t50 -33.5t58 -15q-1 68 -19 122.5t-38.5 83.5t-37.5 71t-17 89q0 68 42.5 106t100.5 38t101 -38t43 -106q0 -39 -11 -72.5t-27.5 -60.5t-33 -56.5t-28.5 -75t-13 -101.5
q38 0 73.5 21t59.5 45.5t59.5 45.5t73.5 21q55 0 86 -39.5t31 -93.5q0 -55 -31 -94t-86 -39q-38 0 -73.5 16.5t-59.5 36.5t-59.5 36.5t-73.5 16.5q0 -161 51 -260q27 10 63.5 37.5t73.5 47t78 19.5q55 0 86 -39.5t31 -93.5q0 -55 -31 -94t-86 -39t-125 38t-96 44
q0 -73 14 -121t54 -139q-123 -162 -123 -420z" />
    <glyph glyph-name="bullet" unicode="&#x2022;" horiz-adv-x="544" 
d="M272 303q-70 0 -116.5 48.5t-46.5 119.5q0 67 47 116.5t116 49.5q68 0 117 -49.5t49 -116.5q0 -70 -48.5 -119t-117.5 -49z" />
    <glyph glyph-name="ellipsis" unicode="&#x2026;" horiz-adv-x="1390" 
d="M219 -18q-47 0 -78.5 33t-31.5 81q0 46 31.5 79.5t78.5 33.5t80 -33.5t33 -79.5q0 -47 -33 -80.5t-80 -33.5zM707 -18q-47 0 -80 33.5t-33 80.5q0 46 33 79.5t80 33.5q46 0 79 -33.5t33 -79.5q0 -47 -33 -80.5t-79 -33.5zM1169 -18q-47 0 -79.5 33.5t-32.5 80.5
q0 46 32.5 79.5t79.5 33.5t80 -33.5t33 -79.5q0 -47 -33 -80.5t-80 -33.5z" />
    <glyph glyph-name="perthousand" unicode="&#x2030;" horiz-adv-x="2744" 
d="M571 -29h-139l785 1569q-167 -20 -390 16q74 -113 74 -290q0 -125 -43 -221t-134 -153.5t-220 -57.5q-192 0 -293.5 119.5t-101.5 312.5q0 214 100 325t301 111q67 0 185 -17t220 -33t241 -14.5t261 31.5zM500 987q25 0 53.5 6.5t62.5 25.5t60.5 48t44.5 80.5t18 116.5
q0 139 -58 205t-177 75q-113 0 -174.5 -71.5t-61.5 -208.5q0 -277 232 -277zM1389 -37q-192 0 -294 119.5t-102 312.5q0 213 99 324.5t297 111.5t297.5 -111.5t99.5 -324.5q0 -125 -43 -221t-134 -153.5t-220 -57.5zM2241 -37q-192 0 -294 119.5t-102 312.5q0 213 99 324.5
t297 111.5t297.5 -111.5t99.5 -324.5q0 -125 -43 -221t-134 -153.5t-220 -57.5zM1384 117q26 0 54.5 6.5t62.5 25.5t60.5 48.5t44.5 80t18 115.5q0 79 -20 136.5t-55.5 88.5t-76 44.5t-88.5 13.5q-44 0 -82.5 -14t-72.5 -44.5t-54 -88t-20 -136.5q0 -276 229 -276zM2236 117
q26 0 54.5 6.5t62.5 25.5t60.5 48.5t44.5 80t18 115.5q0 79 -20.5 136.5t-56 88.5t-76 44.5t-87.5 13.5q-35 0 -66 -8t-62 -28.5t-53.5 -51.5t-36 -81t-13.5 -114q0 -66 14 -116t36 -79.5t53 -48.5t61.5 -25.5t66.5 -6.5z" />
    <glyph glyph-name="guilsinglleft" unicode="&#x2039;" horiz-adv-x="890" 
d="M784 381v-135l-675 409v9l675 401v-135l-456 -271v-2z" />
    <glyph glyph-name="guilsinglright" unicode="&#x203a;" horiz-adv-x="890" 
d="M784 655l-675 -409v135l454 276v2l-454 271v135l675 -401v-9z" />
    <glyph glyph-name="fraction" unicode="&#x2044;" horiz-adv-x="1339" 
d="M246 0h-88l985 1669h88z" />
    <glyph glyph-name="Euro" unicode="&#x20ac;" horiz-adv-x="1353" 
d="M883 -31q-124 0 -234.5 48.5t-198.5 139t-146.5 230.5t-74.5 313h-120v91h114v47v67h-114v90h120q33 349 203.5 529t423.5 180q200 0 391 -107l-20 -184q-179 117 -346 117q-171 0 -289 -134.5t-146 -400.5h529v-90h-537v-114h537v-91h-529q30 -265 155 -407.5
t310 -142.5q150 0 312 96l24 -174q-183 -103 -364 -103z" />
    <glyph glyph-name="trademark" unicode="&#x2122;" horiz-adv-x="1120" 
d="M358 1083h-106q16 29 16 80v457q-79 0 -159 -21l4 70h385l6 -70q-83 21 -160 21v-457q0 -51 14 -80zM623 1083h-107q14 29 14 80l2 426q0 53 -16 80h68q14 0 22.5 -4t11.5 -9t11 -20l133 -295l141 293q17 35 47 35h62q-15 -25 -15 -80l-2 -426q0 -49 17 -80h-107
q17 31 17 80v418l-152 -332h-14l-150 332v-418q0 -49 17 -80z" />
    <glyph glyph-name="minus" unicode="&#x2212;" horiz-adv-x="966" 
d="M860 582h-751v106h751v-106z" />
    <glyph glyph-name="approxequal" unicode="&#x2248;" horiz-adv-x="1275" 
d="M930 561q-61 0 -125.5 36t-119 87.5t-105.5 103t-103.5 87.5t-95.5 36q-80 0 -120 -54t-40 -202l-112 4q0 66 7 118.5t26 101.5t49.5 81.5t80.5 52t117 19.5q53 0 117 -36.5t121 -88.5t111.5 -103.5t106 -88t87.5 -35.5q47 0 80 77.5t32 211.5l125 -19q0 -72 -11.5 -136
t-37.5 -123.5t-75 -94.5t-115 -35zM930 141q-52 0 -106.5 26t-99 65t-92.5 84.5t-87.5 84.5t-83 65t-80.5 26q-80 0 -120 -54t-40 -202l-112 4q0 66 7 118.5t26 101.5t49.5 81t80.5 51.5t117 19.5q53 0 117 -36.5t121 -88.5t111.5 -103.5t106 -88t87.5 -35.5q47 0 80 77.5
t32 211.5l125 -19q0 -72 -11.5 -136t-37.5 -123.5t-75 -94.5t-115 -35z" />
    <glyph glyph-name="notequal" unicode="&#x2260;" horiz-adv-x="966" 
d="M322 299h-105l86 135h-194v107h264l114 182h-378v106h448l123 195h104l-122 -195h198v-106h-266l-117 -182h383v-107h-450z" />
    <glyph glyph-name="lessequal" unicode="&#x2264;" horiz-adv-x="892" 
d="M786 381v-135l-675 409v9l675 401v-135l-456 -271v-2zM786 80h-677v106h677v-106z" />
    <glyph glyph-name="greaterequal" unicode="&#x2265;" horiz-adv-x="892" 
d="M784 655l-675 -409v135l454 276v2l-454 271v135l675 -401v-9zM786 80h-677v106h677v-106z" />
    <glyph glyph-name="lozenge" unicode="&#x25ca;" horiz-adv-x="1251" 
d="M639 0h-21l-509 721l509 717h21l506 -717zM250 721l377 -528l374 528l-372 528z" />
    <glyph glyph-name="A.ss01" unicode="&#xe000;" horiz-adv-x="1808" 
d="M662 0h-316q17 27 29.5 50t23 48.5t15.5 39t15.5 45.5t14.5 44l379 1092q41 120 8 203t-104 126.5t-156 43.5q-96 0 -162 -56t-69 -163q-3 -79 46 -127t118 -48q53 0 95 35.5t52 102.5q32 -106 2.5 -182.5t-102 -120t-166.5 -43.5q-124 0 -210.5 84t-86.5 231
q0 65 25 124.5t73 108.5t127 78t179 29q101 0 200.5 -23.5t190.5 -47t172 -23.5q63 0 131 18q-22 -88 4 -162l448 -1280q5 -14 17 -50t20 -56.5t24.5 -54.5t37.5 -66h-316q24 61 25.5 111t-19.5 116l-112 338h-545l-115 -338q-20 -65 -18 -115.5t25 -111.5zM1042 1405
l-237 -713h475z" />
    <glyph glyph-name="B.ss01" unicode="&#xe001;" horiz-adv-x="1998" 
d="M1354 0h-523q21 38 31.5 77.5t12.5 68t2 81.5v1260q0 66 -42.5 116t-106 74.5t-134.5 24.5q-112 0 -189 -61.5t-77 -174.5q0 -62 37 -110.5t98 -48.5q38 0 68 24t34 64q45 -20 68.5 -59.5t23.5 -88.5q0 -101 -68 -161t-173 -60q-127 0 -217 92.5t-90 249.5
q0 113 57.5 202t150.5 136t201 47q91 0 172.5 -15.5t130.5 -33.5t115 -33.5t131 -15.5q45 0 133 12t143 12q212 0 325.5 -103.5t113.5 -264.5q0 -155 -93.5 -265t-263.5 -128v-11q218 0 341.5 -117.5t123.5 -291.5q0 -93 -33 -180t-96.5 -159t-169 -115.5t-237.5 -43.5z
M1092 1569v-627q246 -22 373.5 71.5t127.5 256.5q0 147 -85 235t-238 88q-84 0 -178 -24zM1092 864v-743q73 -10 145 -6t136.5 16t120 42.5t95.5 73.5t63 108.5t23 148.5q0 62 -16 113t-44 87t-66 64.5t-82.5 45t-93 29t-97 16t-96 6t-88.5 -0.5z" />
    <glyph glyph-name="C.ss01" unicode="&#xe002;" horiz-adv-x="1245" 
d="M1458 -319l-18 -181q-123 -4 -253 19t-260 76t-250 131t-223.5 189t-180 243.5t-120.5 302.5t-44 358t40 342.5t111.5 259t168.5 173t211.5 92t241.5 8.5t257 -70l-27 -190q-121 61 -236 77t-215 -19.5t-175 -116.5t-118.5 -224t-43.5 -332q0 -170 41.5 -320t111 -261.5
t163.5 -204.5t197.5 -155.5t215 -106.5t212.5 -65t193 -25z" />
    <glyph glyph-name="D.ss01" unicode="&#xe003;" horiz-adv-x="2093" 
d="M1311 0h-480q21 38 31.5 77.5t12.5 68t2 81.5v1207q0 84 -50 149.5t-123.5 98t-152.5 32.5q-99 0 -165.5 -56.5t-66.5 -160.5q0 -63 38 -113.5t100 -50.5q38 0 69 24t37 64q43 -18 66.5 -55t23.5 -82q0 -108 -69 -168.5t-168 -60.5q-57 0 -110.5 21t-98 61.5t-71.5 107.5
t-27 150q0 173 112.5 276t294.5 103q62 0 135.5 -18.5t132.5 -40t142 -40t161 -18.5q63 0 166.5 19.5t163.5 19.5q282 0 426 -204.5t144 -586.5q0 -442 -172.5 -673.5t-503.5 -231.5zM1092 1526v-1399q354 -32 517 167.5t163 627.5q0 320 -109.5 488.5t-312.5 168.5
q-113 0 -258 -53z" />
    <glyph glyph-name="E.ss01" unicode="&#xe004;" horiz-adv-x="1888" 
d="M1761 0h-930q21 38 31.5 77.5t12.5 68t2 81.5v1260q0 73 -44 128.5t-109 82t-138 26.5q-108 0 -183 -59.5t-75 -167.5q0 -64 37.5 -114t101.5 -50q37 0 66 24t32 64q45 -20 68.5 -59t23.5 -88q0 -101 -68 -161t-173 -60q-127 0 -217 92.5t-90 249.5q0 113 57.5 200.5
t150 133t201.5 45.5q79 0 151.5 -15t133 -36t126 -42t159 -36t204.5 -15q32 0 70.5 2t66.5 3.5t81 6.5t74.5 7.5t89.5 10t87 9.5l21 -209q-219 58 -690 58v-500h485l10 -105h-495v-759q475 0 690 57z" />
    <glyph glyph-name="F.ss01" unicode="&#xe005;" horiz-adv-x="1888" 
d="M1137 0h-306q21 38 31.5 77.5t12.5 68t2 81.5v1262q0 110 -87.5 173.5t-203.5 63.5q-107 0 -181.5 -59.5t-74.5 -171.5q0 -64 36.5 -113t96.5 -49q38 0 68 24t34 64q45 -20 68.5 -59t23.5 -88q0 -101 -68 -161t-173 -60q-127 0 -217 92.5t-90 249.5q0 113 57.5 200.5
t150 133t201.5 45.5q79 0 151.5 -15t133 -36t126 -42t159 -36t204.5 -15q32 0 70.5 2t66.5 3.5t81 6.5t74.5 7.5t89.5 10t87 9.5l21 -209q-219 58 -690 58v-508h485l10 -107h-495v-676q0 -55 1.5 -82t12 -67t31.5 -78z" />
    <glyph glyph-name="H.ss01" unicode="&#xe006;" horiz-adv-x="2109" 
d="M1137 0h-306q21 38 31.5 77.5t12.5 68t2 81.5v1248q0 77 -44.5 136t-110.5 87t-140 28q-105 0 -178.5 -59.5t-73.5 -171.5q0 -64 36.5 -113t96.5 -49q38 0 68 24t34 64q45 -20 68.5 -59t23.5 -88q0 -101 -68 -161t-173 -60q-127 0 -217 92.5t-90 249.5q0 113 57.5 200.5
t150 133t201.5 45.5q90 0 184.5 -24.5t153 -49.5t139 -38.5t142.5 7.5q-21 -38 -31.5 -78t-12 -67t-1.5 -82v-467h649v467q0 55 -1.5 82t-12 67t-31.5 78h305q-21 -38 -31.5 -78t-12 -67t-1.5 -82v-1215q0 -55 1.5 -82t12 -67t31.5 -78h-305q21 38 31.5 78t12 67t1.5 82v645
h-649v-645q0 -55 1.5 -82t12 -67t31.5 -78z" />
    <glyph glyph-name="I.ss01" unicode="&#xe007;" horiz-adv-x="1245" 
d="M1137 0h-306q21 38 31.5 77.5t12.5 68t2 81.5v1248q0 77 -44.5 136t-110.5 87t-140 28q-105 0 -178.5 -59.5t-73.5 -171.5q0 -64 36.5 -113t96.5 -49q38 0 68 24t34 64q45 -20 68.5 -59t23.5 -88q0 -101 -68 -161t-173 -60q-127 0 -217 92.5t-90 249.5q0 113 57.5 200.5
t150 133t201.5 45.5q90 0 184.5 -24.5t153 -49.5t139 -38.5t142.5 7.5q-21 -38 -31.5 -78t-12 -67t-1.5 -82v-1215q0 -55 1.5 -82t12 -67t31.5 -78z" />
    <glyph glyph-name="J.ss01" unicode="&#xe008;" horiz-adv-x="1112" 
d="M510 -39q-200 0 -430 109l47 170q87 -56 185 -90.5t184 -34.5q111 0 180 63.5t69 196.5v1100q0 77 -45 136t-111 87t-140 28q-105 0 -178.5 -59.5t-73.5 -171.5q0 -64 37 -113t96 -49q38 0 68 24t34 64q45 -20 69.5 -59.5t24.5 -87.5q0 -100 -68.5 -160.5t-172.5 -60.5
q-127 0 -218.5 92.5t-91.5 249.5q0 113 58.5 201t151 133t200.5 45q75 0 151 -16.5t128.5 -37t115 -39t110.5 -23.5t116 11q-21 -38 -31.5 -78t-12 -67t-1.5 -82v-1020q0 -226 -123.5 -343.5t-327.5 -117.5z" />
    <glyph glyph-name="K.ss01" unicode="&#xe009;" horiz-adv-x="2185" 
d="M1137 0h-306q21 38 31.5 77.5t12.5 68t2 81.5v1248q0 77 -44.5 136t-110.5 87t-140 28q-105 0 -178.5 -59.5t-73.5 -171.5q0 -64 36.5 -113t96.5 -49q38 0 68 24t34 64q45 -20 68.5 -59t23.5 -88q0 -101 -68 -161t-173 -60q-127 0 -217 92.5t-90 249.5q0 113 57.5 200.5
t150 133t201.5 45.5q90 0 184.5 -24.5t153 -49.5t139 -38.5t142.5 7.5q-21 -38 -31.5 -78t-12 -67t-1.5 -82v-541q144 24 245.5 130.5t200.5 320.5q64 136 107 317h213q-118 -370 -258 -553t-332 -223v-16q94 0 167 -11.5t136.5 -38.5t105.5 -77.5t60 -122.5l94 -400
q24 -104 84 -227h-313q30 69 14 158l-68 387q-9 50 -30 91t-46.5 69t-65 50.5t-72 35t-82 23t-80.5 14.5t-80 10v-611q0 -55 1.5 -82t12 -67t31.5 -78z" />
    <glyph glyph-name="L.ss01" unicode="&#xe00a;" horiz-adv-x="1875" 
d="M1729 0h-893q15 37 20.5 53t13 63.5t7.5 110.5v1248q0 77 -44.5 136t-110.5 87t-140 28q-105 0 -178.5 -59.5t-73.5 -171.5q0 -64 36.5 -113t96.5 -49q38 0 68 24t34 64q45 -20 68.5 -59t23.5 -88q0 -101 -68 -161t-173 -60q-127 0 -217 92.5t-90 249.5q0 113 57.5 200.5
t150 133t201.5 45.5q90 0 184.5 -24.5t153 -49.5t139 -38.5t142.5 7.5q-21 -38 -31.5 -78t-12 -67t-1.5 -82v-1325l120 35q226 3 333 16q115 14 224 43z" />
    <glyph glyph-name="M.ss01" unicode="&#xe00b;" horiz-adv-x="2299" 
d="M1079 0h-305q21 38 31.5 78t12 67t1.5 82l2 1313q0 73 -23 131t-61 93t-84 53t-96 18q-97 0 -168.5 -63t-71.5 -173q0 -69 41.5 -122.5t104.5 -53.5q38 0 68 24t34 64q45 -21 68.5 -60.5t23.5 -86.5q0 -102 -68 -161.5t-173 -59.5q-127 0 -217 92t-90 248q0 126 65.5 219
t168 137.5t226.5 44.5q164 0 311.5 -85t223.5 -247l375 -815l399 836q47 96 135 96h180q-7 -11 -13 -23t-10.5 -22t-8 -24t-5.5 -21.5t-3.5 -23.5t-2.5 -21.5t-1.5 -24t-0.5 -21.5v-23.5v-22.5l-2 -1215q0 -55 1.5 -82t12 -67t31.5 -78h-305q21 38 31.5 78t12 67t1.5 82
v1190l-432 -942h-41l-424 942v-1190q0 -55 1.5 -82t12 -67t31.5 -78z" />
    <glyph glyph-name="N.ss01" unicode="&#xe00c;" horiz-adv-x="2154" 
d="M1137 0h-306q21 38 31.5 77.5t12.5 68t2 81.5v1276q0 99 -84.5 157t-196.5 58q-71 0 -129.5 -23t-97.5 -74.5t-39 -125.5q0 -64 36.5 -113t96.5 -49q38 0 68 24t34 64q45 -20 68.5 -59t23.5 -88q0 -101 -68 -161t-173 -60q-127 0 -217 92.5t-90 249.5q0 99 44.5 179
t120 129.5t170 76t199.5 26.5q185 0 342.5 -79.5t222.5 -225.5l578 -1280v1221q0 55 -1.5 82t-12 67t-31.5 78h305q-21 -38 -31.5 -78t-12 -67t-1.5 -82v-1215q0 -55 1.5 -82t12 -67t31.5 -78h-152q-52 0 -88.5 9.5t-73 37.5t-69 80t-68.5 135l-503 1147v-1182
q0 -55 1.5 -82t12 -67t31.5 -78z" />
    <glyph glyph-name="P.ss01" unicode="&#xe00d;" horiz-adv-x="1998" 
d="M1137 0h-306q21 38 31.5 77.5t12.5 68t2 81.5v1178q0 80 -25.5 143.5t-67.5 102t-93 58.5t-105 20q-105 0 -180.5 -66t-75.5 -180q0 -69 35 -109.5t98 -40.5q38 0 68 24t34 64q45 -20 68.5 -59t23.5 -88q0 -101 -68 -161t-173 -60q-127 0 -217 92.5t-90 249.5
q0 113 57.5 200.5t150 133t201.5 45.5q77 0 152 -17.5t127.5 -38t132.5 -38t166 -17.5q66 0 184 15.5t170 15.5q104 0 184.5 -29.5t132.5 -79.5t85.5 -120.5t47 -146t13.5 -163.5q0 -111 -28 -204.5t-75.5 -158t-110.5 -109.5t-132.5 -66t-141.5 -21q-97 0 -183.5 39
t-141.5 110h-8v-518q0 -55 1.5 -82t12 -67t31.5 -78zM1354 700q69 0 130.5 29.5t109.5 84.5t76 143.5t28 197.5q0 436 -379 436q-99 0 -227 -28v-732q48 -63 118 -97t144 -34z" />
    <glyph glyph-name="R.ss01" unicode="&#xe00e;" horiz-adv-x="1984" 
d="M1137 0h-306q21 38 31.5 77.5t12.5 68t2 81.5v1219q0 90 -46 158t-113.5 100.5t-142.5 32.5q-103 0 -174 -63t-71 -179q0 -64 36.5 -113t96.5 -49q38 0 68 24t34 64q45 -20 68.5 -59t23.5 -88q0 -101 -68 -161t-173 -60q-127 0 -217 92.5t-90 249.5q0 113 57.5 200.5
t150 133t201.5 45.5q60 0 130 -16.5t125.5 -37t135.5 -37t158 -16.5q55 0 147.5 13.5t151.5 13.5q208 0 332.5 -112.5t124.5 -324.5q0 -81 -31 -156t-87.5 -133.5t-141 -96t-185.5 -42.5v-6q113 -13 192.5 -59.5t119.5 -109t68.5 -150t40 -167t33 -176t48.5 -161.5h-287
q19 104 -4 360q-9 110 -45 190t-95.5 126t-131 69t-162.5 29h-63v-547q0 -55 1.5 -82t12 -67t31.5 -78zM1092 1587v-704h47q487 26 487 372q0 87 -27.5 152.5t-75.5 103t-114.5 60t-144.5 23.5t-164 -7h-8z" />
    <glyph glyph-name="T.ss01" unicode="&#xe00f;" horiz-adv-x="1650" 
d="M1137 0h-306q21 38 31.5 77.5t12.5 68t2 81.5v1221q0 108 -90 173t-224 65q-95 0 -164 -61.5t-69 -168.5q0 -64 36.5 -113t96.5 -49q38 0 68 24.5t34 63.5q44 -20 68 -59t24 -86q0 -102 -68 -162.5t-173 -60.5q-127 0 -217 92.5t-90 249.5q0 172 120.5 276.5t305.5 104.5
q76 0 184 -20t203.5 -39t259 -26.5t352.5 17.5l14 -194q-203 53 -456 57v-1305q0 -55 1.5 -82t12 -67t31.5 -78z" />
    <glyph glyph-name="U.ss01" unicode="&#xe010;" horiz-adv-x="2072" 
d="M1397 -35q-132 0 -232.5 38t-163 107t-93.5 161.5t-31 205.5v998q0 77 -44.5 136t-110.5 87t-140 28q-105 0 -178.5 -59.5t-73.5 -171.5q0 -64 36.5 -113t96.5 -49q38 0 68 24t34 64q45 -20 68.5 -59t23.5 -88q0 -101 -68 -161t-173 -60q-127 0 -217 92.5t-90 249.5
q0 113 57.5 200.5t150 133t201.5 45.5q90 0 184.5 -24.5t153 -49.5t139 -38.5t142.5 7.5q-21 -38 -31.5 -78t-12 -67t-1.5 -82v-1051q0 -133 91.5 -207.5t217.5 -74.5q58 0 112 18t97.5 52t69.5 89t26 123l-2 1051q0 55 -1.5 82t-12 67t-31.5 78h305q-21 -38 -31.5 -78
t-12 -67t-1.5 -82v-965q0 -113 -31.5 -205t-94 -161.5t-163.5 -107.5t-233 -38z" />
    <glyph glyph-name="V.ss01" unicode="&#xe011;" horiz-adv-x="2160" 
d="M1608 0h-328q8 58 2.5 111.5t-29.5 142.5l-309 1116q-30 111 -100 195t-152.5 124t-163.5 40q-96 0 -157.5 -59.5t-61.5 -170.5q0 -65 37.5 -115.5t97.5 -50.5q38 0 67.5 24.5t33.5 63.5q45 -20 68.5 -59t23.5 -88q0 -101 -68.5 -161t-173.5 -60q-127 0 -217 92.5
t-90 249.5q0 85 33.5 157t88.5 120t125.5 75t145.5 27q69 0 136.5 -13t121 -31t108.5 -35t120.5 -25t134.5 -1l350 -1413l356 1413h265q-57 -91 -81 -147.5t-53 -163.5l-305 -1108q-25 -88 -31 -139.5t5 -110.5z" />
    <glyph glyph-name="W.ss01" unicode="&#xe012;" horiz-adv-x="2959" 
d="M1602 0h-338q20 148 -54 418l-270 993q-39 142 -149 221.5t-230 79.5q-102 0 -168.5 -56t-66.5 -157q0 -64 38 -115t99 -51q38 0 68 24t34 64q45 -20 68.5 -59t23.5 -88q0 -101 -68 -161t-173 -60q-127 0 -217 92.5t-90 249.5q0 113 57.5 200.5t150 133t201.5 45.5
q71 0 151 -18.5t140.5 -39.5t145.5 -36.5t169 -10.5q-5 -32 -1.5 -99t16.5 -116l327 -1202l211 1022q2 7 14 62t14.5 70.5t9.5 62t6 71.5t-5.5 61.5t-15.5 67.5h332q-8 -24 -13.5 -46t-7.5 -46t-4 -40.5t0.5 -43t3 -39t6 -43.5t7.5 -41.5t10 -47.5t10 -48l213 -1016
l311 1200q10 49 16 114.5t3 96.5h284q-34 -59 -54.5 -113.5t-49.5 -158.5l-273 -979q-70 -248 -43 -418h-344q2 74 -12 198t-35 220l-200 911l-197 -911q-61 -296 -61 -418z" />
    <glyph glyph-name="X.ss01" unicode="&#xe013;" horiz-adv-x="2209" 
d="M1087 0h-301q118 125 193 244l381 602l-393 614q-79 122 -196 191t-226 69q-95 0 -155 -57t-60 -162q0 -67 37 -117.5t98 -50.5q37 0 66.5 24t33.5 64q45 -20 68.5 -59t23.5 -88q0 -101 -68 -161t-173 -60q-128 0 -217.5 94.5t-89.5 261.5q0 163 110 264t283 101
q75 0 155 -16.5t140 -36.5t145 -36.5t168 -17.5q-1 -11 1.5 -24.5t9 -31.5t12.5 -33.5t18.5 -40t21 -41t25 -46t26.5 -46t29.5 -50t28.5 -49.5l188 -320l207 332q65 104 111.5 206t42.5 146h301q-24 -17 -59.5 -60t-57.5 -77l-434 -688l434 -682q5 -8 21.5 -33t27 -40.5
t29.5 -40.5t39 -48h-301q-6 57 -39 130t-119 222l-203 359l-217 -359q-65 -106 -110.5 -208t-55.5 -144z" />
    <glyph glyph-name="Y.ss01" unicode="&#xe014;" horiz-adv-x="2164" 
d="M1599 0h-305q21 38 31.5 78t12 67t1.5 82v443l-438 848q-49 94 -154.5 150t-214.5 56q-103 0 -169 -55.5t-66 -167.5q0 -67 37 -117.5t98 -50.5q37 0 66.5 24t33.5 64q45 -20 69 -59.5t24 -87.5q0 -101 -68.5 -161t-173.5 -60q-127 0 -217 92.5t-90 249.5
q0 170 113.5 274.5t279.5 104.5q86 0 167 -16.5t134.5 -36t131 -36t157.5 -16.5q4 -76 88 -229l305 -594l307 596q6 11 19.5 38.5t19.5 40.5t16 36t14.5 38.5t8.5 35.5t4 38h248q-56 -80 -131 -223l-404 -776v-443q0 -55 1.5 -82t12 -67t31.5 -78z" />
    <glyph glyph-name="Z.ss01" unicode="&#xe015;" horiz-adv-x="1488" 
d="M1360 0h-1090l860 1554q-75 26 -217 54t-264 28q-254 0 -254 -139q0 -46 22 -72t56 -26q24 0 53 16q6 -45 -16 -84q-17 -57 -67.5 -91t-120.5 -34q-102 0 -173 65.5t-71 172.5q0 128 106 198t289 70q79 0 207 -15.5t231 -29.5t242 -18t240 20l-846 -1540h350
q161 0 275.5 23.5t213.5 85.5z" />
    <glyph glyph-name="A.ss02" unicode="&#xe016;" horiz-adv-x="1808" 
d="M2120 -625q-79 0 -159.5 29t-156 85t-139 150.5t-100.5 215.5l-250 710h-545l-115 -338q-20 -65 -18 -115.5t25 -111.5h-316q17 27 29.5 50t23 48.5t15.5 39t15.5 45.5t14.5 44l379 1092q41 120 8 203t-104 126.5t-156 43.5q-99 0 -165 -59.5t-66 -168.5q0 -75 48 -120.5
t116 -45.5q53 0 95 35.5t52 102.5q17 -47 17 -97q0 -113 -81.5 -181t-201.5 -68q-124 0 -210.5 84t-86.5 231q0 68 28 130t82 112t144.5 75.5t204.5 16.5q112 -4 268 -46t240 -42q63 0 131 18q-22 -88 4 -162l629 -1783q37 -110 85 -158.5t97 -48.5q37 0 62.5 25.5
t25.5 60.5q0 28 -19 52t-57 28q10 73 58 109t120 36q90 0 153.5 -59t63.5 -152q0 -103 -81 -172.5t-207 -69.5zM1042 1405l-237 -713h475z" />
    <glyph glyph-name="H.ss02" unicode="&#xe017;" horiz-adv-x="2109" 
d="M2198 -735q-64 0 -127 17.5t-123 56.5t-106 95.5t-73.5 140t-27.5 183.5v1123h-649v-654q0 -55 1.5 -82t12 -67t31.5 -78h-306q21 38 31.5 77.5t12.5 68t2 81.5v1248q0 77 -44.5 136t-110.5 87t-140 28q-105 0 -178.5 -59.5t-73.5 -171.5q0 -64 36.5 -113t96.5 -49
q38 0 68 24t34 64q45 -20 68.5 -59t23.5 -88q0 -101 -68 -161t-173 -60q-127 0 -217 92.5t-90 249.5q0 113 57.5 200.5t150 133t201.5 45.5q90 0 184.5 -24.5t153 -49.5t139 -38.5t142.5 7.5q-21 -38 -31.5 -78t-12 -67t-1.5 -82v-455h649l2 455q0 55 -1.5 82t-12 67
t-31.5 78h305q-21 -38 -31.5 -78.5t-12.5 -66t-3 -82.5v-1786q0 -91 21.5 -159.5t58 -106.5t78.5 -56t88 -18q43 0 66.5 20.5t23.5 49.5q0 36 -32 55.5t-77 11.5q-11 82 34 129t112 47q59 0 103 -41t44 -116q0 -95 -80 -151t-198 -56z" />
    <glyph glyph-name="J.ss02" unicode="&#xe018;" horiz-adv-x="1644" 
d="M348 -274q-104 0 -171.5 68.5t-67.5 180.5q0 108 83 184.5t218 76.5q89 0 174 -28.5t150.5 -69.5t127.5 -81.5t131.5 -69t136.5 -28.5q79 0 113.5 43t34.5 125v1348q0 77 -44.5 136t-110.5 87t-140 28q-106 0 -180 -59.5t-74 -171.5q0 -64 37.5 -113t97.5 -49
q39 0 68.5 24t32.5 64q46 -20 70 -59t24 -88q0 -100 -69 -160.5t-173 -60.5q-127 0 -218 92.5t-91 249.5q0 85 34 157t91.5 120t131.5 75t155 27q75 0 151 -16.5t128 -37t114 -39t110 -23.5t115 11q-21 -38 -31.5 -78t-12 -67t-1.5 -82v-1317q0 -148 -73.5 -227.5
t-207.5 -79.5q-85 0 -167 31t-146.5 75t-126 88.5t-129 75.5t-131.5 31q-58 0 -86.5 -26.5t-28.5 -65.5q0 -33 21 -57.5t53 -24.5q37 0 78 35q26 -106 -36 -180t-165 -74z" />
    <glyph glyph-name="K.ss02" unicode="&#xe019;" horiz-adv-x="1984" 
d="M2380 -829q-322 0 -500 205.5t-178 553.5q0 355 -12 482q-24 251 -118 351q-87 91 -251 91q-93 0 -229 -31v-596q0 -55 1.5 -82t12 -67t31.5 -78h-306q21 38 31.5 77.5t12.5 68t2 81.5v1248q0 77 -44.5 136t-110.5 87t-140 28q-105 0 -178.5 -59.5t-73.5 -171.5
q0 -64 36.5 -113t96.5 -49q38 0 68 24t34 64q45 -20 68.5 -59t23.5 -88q0 -101 -68 -161t-173 -60q-127 0 -217 92.5t-90 249.5q0 113 57.5 200.5t150 133t201.5 45.5q78 0 157.5 -18.5t133 -40t117 -40t114.5 -18.5q48 0 97 12q-21 -38 -31.5 -78t-12 -67t-1.5 -82v-531
q149 42 248.5 97.5t171.5 144t110 213t53 303.5h258q-30 -44 -64 -115.5t-60.5 -138.5t-66 -144.5t-82.5 -140t-110 -116.5t-147 -82v-12q235 0 346 -125t131 -418q22 -290 34 -383q91 -744 404 -744q74 0 114 35t40 84q0 35 -22.5 57.5t-59.5 22.5q-32 0 -51 -12
q-12 38 -12 69q0 86 66.5 135.5t156.5 49.5q94 0 161.5 -54t67.5 -155q0 -128 -106 -219.5t-293 -91.5z" />
    <glyph glyph-name="T.ss02" unicode="&#xe01a;" horiz-adv-x="1656" 
d="M1137 0h-306q21 38 31.5 77.5t12.5 68t2 81.5v1221q0 108 -90 173t-224 65q-95 0 -164 -61.5t-69 -168.5q0 -64 36.5 -113t96.5 -49q38 0 68 24.5t34 63.5q44 -20 68 -59t24 -86q0 -102 -68 -162.5t-173 -60.5q-127 0 -217 92.5t-90 249.5q0 172 120.5 276.5t305.5 104.5
q97 0 233 -30.5t252 -68t259 -71.5t251 -39q91 -9 165 10.5t118.5 58.5t68 86.5t23.5 96.5q0 69 -47.5 116.5t-133.5 47.5q-38 0 -69 -24t-35 -62q-46 21 -70 60.5t-24 86.5q0 95 67 148t162 53q142 0 235 -100t93 -244q0 -78 -29 -148.5t-86 -128.5t-151.5 -92.5
t-214.5 -34.5q-96 0 -288 46.5t-222 51.5v-1329q0 -55 1.5 -82t12 -67t31.5 -78z" />
    <glyph glyph-name="a.ss01" unicode="&#xe01b;" horiz-adv-x="1273" 
d="M1376 -735q-64 0 -127 17.5t-123 56.5t-105.5 95.5t-73 140t-27.5 183.5v621h-13q-44 -198 -166.5 -304t-275.5 -106q-146 0 -253.5 96.5t-107.5 253.5q0 95 38.5 170.5t103 121.5t143.5 70t166 24q105 0 202 -34.5t163 -97.5q-109 74 -254 74q-98 0 -177.5 -31.5
t-131.5 -102t-52 -169.5q0 -110 64 -172.5t159 -62.5q78 0 156 49.5t143 149.5t93 231v303q0 106 -80.5 173.5t-204.5 67.5q-175 0 -354 -125l-37 140q200 121 430 121q93 0 175 -24.5t146.5 -71.5t102 -123t37.5 -173v-1171q0 -91 21 -159.5t57 -106.5t77.5 -56t87.5 -18
q43 0 67.5 21t24.5 49q0 36 -32 55.5t-76 11.5q-11 82 33 129t110 47q61 0 105.5 -41t44.5 -116q0 -95 -81 -151t-198 -56z" />
    <glyph glyph-name="b.ss01" unicode="&#xe01c;" horiz-adv-x="1306" 
d="M733 -33q-113 0 -207.5 68.5t-140.5 193.5h-4q0 -233 -154 -233h-118q37 51 49 100t12 125v1467q0 71 -32.5 108t-78.5 37q-47 0 -72.5 -30.5t-25.5 -73.5t24.5 -77.5t67.5 -41.5q-11 -47 -49.5 -70.5t-89.5 -23.5q-78 0 -136.5 49.5t-58.5 134.5q0 100 75 165.5
t206 65.5q69 0 135 -22.5t123 -65.5t92 -116t35 -164v-582q64 115 163.5 175.5t209.5 60.5q87 0 168.5 -38.5t146.5 -109.5t104.5 -185t39.5 -253q0 -159 -43 -289t-113 -210t-154.5 -122.5t-173.5 -42.5zM672 131q134 0 233 140.5t99 367.5q0 214 -93.5 339.5t-226.5 125.5
q-83 0 -161 -55t-138 -164v-510q52 -122 128 -183t159 -61z" />
    <glyph glyph-name="c.ss01" unicode="&#xe01d;" horiz-adv-x="1976" 
d="M1729 -127q-77 0 -129 38.5t-70 95.5t-8 122q94 -35 153.5 2.5t59.5 114.5q0 59 -41.5 99t-124.5 40q-69 0 -145 -31t-140.5 -77t-143 -100t-152.5 -100t-170.5 -77t-194.5 -31q-234 0 -383.5 171.5t-149.5 465.5q0 144 42 262t114.5 194.5t168.5 118.5t206 42
q215 0 419 -150l-45 -186q-176 164 -358 164q-148 0 -245 -120t-97 -331q0 -225 97 -348t259 -123q103 0 210.5 36t199.5 87t181 102t185.5 87t182.5 36q161 0 262.5 -94t101.5 -223q0 -112 -69.5 -199.5t-175.5 -87.5z" />
    <glyph glyph-name="d.ss01" unicode="&#xe01e;" horiz-adv-x="1300" 
d="M1407 -735q-65 0 -128.5 17.5t-123.5 56.5t-105.5 95.5t-73.5 140t-28 183.5v426h-10q-48 -102 -145.5 -158.5t-210.5 -56.5q-92 0 -177.5 37.5t-157 110.5t-114.5 195t-43 276q0 130 29 236.5t77.5 176.5t113.5 117.5t134 68.5t142 21q116 0 213 -51t139 -139h10v459
q0 56 -10 87t-35 58q81 0 156.5 22t103.5 60v-2048q0 -91 21.5 -159.5t58 -106.5t78.5 -56t88 -18q43 0 66.5 20.5t23.5 49.5q0 36 -31.5 55.5t-74.5 11.5q-13 82 31.5 129t111.5 47q59 0 103 -41t44 -116q0 -95 -79.5 -151t-196.5 -56zM651 92q91 0 172 49.5t125 134.5v619
q-40 70 -128 117t-183 47q-52 0 -99 -15t-90 -50.5t-74.5 -88t-50 -133t-18.5 -180.5q0 -128 29 -226.5t79 -157t110 -87.5t128 -29z" />
    <glyph glyph-name="e.ss01" unicode="&#xe01f;" horiz-adv-x="2265" 
d="M1917 -109q-98 0 -161 55t-60 142q87 -10 141.5 46t54.5 130q0 63 -46.5 99t-137.5 18q-61 -13 -140 -61.5t-161 -106t-179.5 -114t-231 -94.5t-279.5 -38q-122 0 -234 44t-200 124t-140.5 203.5t-52.5 271.5q0 135 45 249t124.5 193t190.5 123t240 44q213 0 336 -97
t123 -239q0 -119 -70 -213t-188.5 -144.5t-263.5 -50.5q-156 0 -308 64q85 -17 173 -16t171 29t147.5 70t104 106.5t39.5 139.5q0 98 -74 155.5t-180 57.5q-71 0 -139 -27t-126.5 -79.5t-94 -142t-35.5 -203.5q0 -120 36 -220t97.5 -165.5t142.5 -101.5t171 -36
q111 0 215.5 23t182 59t159.5 79.5t149 82t149 68t160 37.5q189 19 300.5 -71.5t111.5 -227.5q0 -106 -71.5 -185.5t-190.5 -79.5z" />
    <glyph glyph-name="f.ss01" unicode="&#xe020;" horiz-adv-x="759" 
d="M520 0h-305q21 38 31.5 78t12 67t1.5 82v678q0 66 -47 141t-133 113v25q108 -39 270 -39q100 0 158 12v10q-69 3 -152 23q-158 50 -259 177.5t-101 285.5q0 106 42 193.5t113.5 144t165.5 87.5t199 31q92 0 175 -24.5t149 -71t105.5 -121t39.5 -166.5q0 -145 -97 -249.5
t-247 -104.5q-145 0 -231 91.5t-54 222.5q25 -84 87 -128.5t135 -44.5q92 0 159.5 65.5t67.5 178.5q0 117 -82.5 182.5t-200.5 65.5q-62 0 -121 -21t-108 -61t-79 -106t-30 -148q0 -71 17 -138t56 -130t96.5 -110t144 -76t192.5 -31v-25q-94 0 -153.5 -79.5t-59.5 -174.5
l-2 -678q0 -55 1.5 -82t12 -67t31.5 -78z" />
    <glyph glyph-name="h.ss01" unicode="&#xe021;" horiz-adv-x="1347" 
d="M1438 -735q-65 0 -128 17.5t-123 56.5t-105.5 95.5t-73 140t-27.5 183.5v1063q0 123 -68.5 191.5t-169.5 68.5q-122 0 -229 -94t-145 -266v-494q0 -55 1.5 -82t12 -67t31.5 -78h-305q21 38 31.5 78t12 67t1.5 82v1248q0 55 -10.5 86t-34.5 59q80 0 155.5 22t104.5 60
v-844h8q29 117 100.5 201.5t159 123t182.5 38.5q74 0 141.5 -24.5t120 -70.5t84 -118.5t31.5 -161.5v-1190q0 -91 21 -159.5t57.5 -106.5t78 -56t87.5 -18q43 0 66.5 20.5t23.5 49.5q0 36 -32 55.5t-75 11.5q-11 82 33.5 129t110.5 47q61 0 105 -41t44 -116
q0 -95 -80.5 -151t-197.5 -56z" />
    <glyph glyph-name="i.ss01" unicode="&#xe022;" horiz-adv-x="1245" 
d="M258 1384q-54 0 -92.5 39t-38.5 93q0 53 38.5 91t92.5 38q52 0 90.5 -38.5t38.5 -90.5q0 -54 -38 -93t-91 -39zM727 -104q-90 0 -184.5 24.5t-152.5 49t-138.5 38t-142.5 -7.5q21 38 31.5 78t12 67t1.5 82v791q0 55 -10.5 86t-34.5 59q80 0 155.5 22t104.5 60v-1050
q0 -77 44.5 -136t110.5 -87.5t140 -28.5q105 0 178 59.5t73 171.5q0 64 -37 113t-96 49q-38 0 -68 -24t-34 -64q-45 21 -69.5 60.5t-24.5 86.5q0 100 68.5 160.5t172.5 60.5q127 0 218.5 -92.5t91.5 -249.5q0 -113 -58 -200.5t-150.5 -132.5t-201.5 -45z" />
    <glyph glyph-name="k.ss01" unicode="&#xe023;" horiz-adv-x="1236" 
d="M1468 -735q-151 0 -255.5 121t-202.5 383l-215 536q-25 60 -44 99t-45.5 81t-56 67t-70 46.5t-92.5 31t-118 9.5v-412q0 -55 1.5 -82t12 -67t31.5 -78h-305q21 38 31.5 78t12 67t1.5 82v1250q0 55 -10.5 86t-34.5 59q80 0 155.5 22t104.5 60v-1006q188 4 318.5 120.5
t246.5 365.5h207q-43 -128 -137.5 -246.5t-202.5 -191t-195 -78.5v-4q153 -18 242 -108.5t158 -287.5l217 -598q79 -201 108 -253q47 -84 107 -99q18 -4 39 -4q41 0 65.5 21.5t24.5 50.5q0 38 -33.5 56.5t-81.5 10.5q-11 83 30.5 129.5t106.5 46.5q60 0 104 -41t44 -116
q0 -96 -76.5 -151.5t-192.5 -55.5z" />
    <glyph glyph-name="l.ss01" unicode="&#xe024;" horiz-adv-x="520" 
d="M610 -735q-65 0 -128 17.5t-122.5 56.5t-105 95.5t-73 140t-27.5 183.5v1712q0 55 -10.5 87t-34.5 59q80 0 155.5 22t104.5 60v-2042q0 -91 21 -159.5t57 -106.5t77.5 -56t87.5 -18q43 0 66.5 20.5t23.5 49.5q0 36 -31.5 55.5t-74.5 11.5q-11 82 33 129t110 47
q61 0 105.5 -41t44.5 -116q0 -95 -81 -151t-198 -56z" />
    <glyph glyph-name="m.ss01" unicode="&#xe025;" horiz-adv-x="2174" 
d="M2265 -735q-65 0 -128 17.5t-123 56.5t-105.5 95.5t-73 140t-27.5 183.5v1055q0 122 -71.5 190t-175.5 68q-66 0 -129 -28t-116 -81.5t-86 -142t-34 -198.5v-394q0 -55 1.5 -82t12 -67t31.5 -78h-305q21 38 31.5 78t12 67t1.5 82v621q0 109 -68 169t-168 60
q-53 0 -105 -17t-101 -54t-86.5 -89t-60 -128.5t-23.5 -167.5v-394q0 -55 1.5 -82t12 -67t31.5 -78h-305q21 38 31.5 78t12 67t1.5 82v764q0 55 -10.5 87t-34.5 59q80 0 155.5 22t104.5 60v-361h8q26 164 152 262.5t290 98.5q79 0 146.5 -23t119.5 -68t81.5 -117t29.5 -165
v12h8q17 109 83 192.5t160 126t200 42.5q165 0 270.5 -95.5t105.5 -277.5v-1190q0 -91 21 -159.5t57.5 -106.5t78 -56t87.5 -18q43 0 66.5 20.5t23.5 49.5q0 36 -31.5 55.5t-74.5 11.5q-11 82 33 129t110 47q61 0 105.5 -41t44.5 -116q0 -95 -81 -151t-198 -56z" />
    <glyph glyph-name="n.ss01" unicode="&#xe026;" horiz-adv-x="1347" 
d="M1438 -735q-81 0 -160 33.5t-146.5 96t-109 164.5t-41.5 226v1036q0 123 -68.5 191.5t-169.5 68.5q-122 0 -229 -94t-145 -266v-494q0 -55 1.5 -82t12 -67t31.5 -78h-305q21 38 31.5 78t12 67t1.5 82v764q0 55 -10.5 87t-34.5 59q80 0 155.5 22t104.5 60v-361h8
q29 117 100.5 201.5t159 123t182.5 38.5q74 0 141.5 -24.5t120 -70.5t84 -118.5t31.5 -161.5v-1190q0 -91 21 -159.5t57.5 -106.5t78 -56t87.5 -18q43 0 66.5 20.5t23.5 49.5q0 36 -32 55.5t-75 11.5q-11 82 33.5 129t110.5 47q61 0 105 -41t44 -116q0 -95 -80.5 -151
t-197.5 -56z" />
    <glyph glyph-name="o.ss01" unicode="&#xe027;" horiz-adv-x="1382" 
d="M705 -25q-101 0 -191 25.5t-168 80.5t-134.5 136t-89 199.5t-32.5 263.5q0 146 74 277.5t200.5 211.5t270.5 80q89 0 182 -35q-104 -3 -190 -37.5t-144 -89.5t-98 -128.5t-58 -154t-18 -167.5q0 -143 45.5 -269t135 -208t202.5 -82q75 0 138 28.5t106 76.5t73 112t44 134
t14 144q0 100 -30 186.5t-81.5 141t-121 71.5t-148.5 -24q24 61 84.5 96t134.5 35q69 0 136 -31.5t124 -91.5t92 -161.5t35 -227.5q0 -111 -36 -208t-96 -166t-136 -119t-158 -74.5t-161 -24.5z" />
    <glyph glyph-name="p.ss01" unicode="&#xe028;" horiz-adv-x="1312" 
d="M414 -449h-305q21 38 31.5 78t12 67.5t1.5 82.5v1212q0 55 -10.5 87t-34.5 59q80 0 155.5 22t104.5 60v-273q65 137 159 200.5t201 63.5q116 0 210.5 -49.5t156 -134t94.5 -195t33 -235.5q0 -172 -60.5 -315t-176.5 -229.5t-265 -86.5q-92 0 -164.5 33t-115.5 88.5
t-65 122t-22 139.5q0 90 33.5 169.5t93.5 119.5q-46 -99 -22 -205q9 -120 83 -193t167 -59q97 10 162.5 79t90 165.5t15.5 204.5q-10 81 -41 152t-80 123t-115 72t-147 -1q-103 -14 -175 -92.5t-101.5 -188.5t-34 -231t19.5 -229.5t66 -174.5v-280q0 -55 1.5 -82.5t12 -67.5
t31.5 -78z" />
    <glyph glyph-name="q.ss01" unicode="&#xe029;" horiz-adv-x="1298" 
d="M1389 -735q-65 0 -128.5 17.5t-123.5 56.5t-105.5 95.5t-73.5 140t-28 183.5v555h-10q-21 -158 -124.5 -245.5t-240.5 -87.5q-68 0 -134 22.5t-126 71t-105.5 117t-72.5 167.5t-27 215q0 128 31 235.5t84.5 182.5t125 127t152.5 76.5t168 24.5q66 0 160 -25t143 -25
q81 0 193 52l-2 -994v-571q0 -91 21.5 -159.5t58 -106.5t78.5 -56t88 -18q43 0 66.5 20.5t23.5 49.5q0 36 -32 55.5t-75 11.5q-13 82 32.5 129t111.5 47q60 0 103.5 -41t43.5 -116q0 -95 -79.5 -151t-196.5 -56zM635 129q89 0 168 65.5t129 196.5v641q-116 49 -219 49
q-184 0 -297 -137.5t-113 -359.5q0 -201 97.5 -328t234.5 -127z" />
    <glyph glyph-name="r.ss01" unicode="&#xe02a;" horiz-adv-x="737" 
d="M444 0h-305q21 38 31.5 78t12 67t1.5 82v764q0 133 -75 193q55 15 98.5 34.5t81 50t64.5 59.5t58.5 80t54.5 94t60 118q87 179 230.5 291t290.5 112q153 0 253.5 -89.5t100.5 -235.5q0 -64 -22.5 -118t-58.5 -89t-83 -55t-94.5 -22t-94.5 15.5t-81 53.5q21 -18 49 4
q95 3 143.5 69t48.5 156q0 76 -53 120t-139 44q-79 0 -162 -33.5t-165 -107t-146 -176.5t-104 -255t-40 -329v-748q0 -55 1.5 -82t12 -67t31.5 -78z" />
    <glyph glyph-name="s.ss01" unicode="&#xe02b;" horiz-adv-x="1173" 
d="M610 -631q-108 0 -207.5 33t-177.5 93.5t-125 154t-47 205.5q0 78 29 142t75 102.5t104.5 60.5t116.5 23t112 -16.5t90 -53.5q-70 15 -124.5 1t-92 -50t-57 -85.5t-19.5 -105.5q0 -60 21.5 -116.5t62.5 -103.5t110 -75.5t156 -28.5q77 0 148.5 25.5t128 71.5t90.5 118.5
t34 159.5q0 40 -9 79t-22.5 72t-38 67.5t-46.5 60.5t-58.5 57.5t-63.5 52.5t-71.5 51t-71.5 47.5t-75 47.5q-50 32 -67 43t-62.5 40.5t-63 43.5t-53 42.5t-50.5 46.5t-38 46t-32.5 52t-17.5 53t-8 59q0 160 123 244.5t332 84.5q176 0 280.5 -74.5t104.5 -189.5
q0 -81 -53.5 -153t-151.5 -109q56 89 56 172q0 97 -68.5 161t-169.5 64q-71 0 -131.5 -24.5t-100.5 -79t-40 -129.5q0 -38 11.5 -74.5t28.5 -66.5t49 -63t58.5 -56.5t72 -55.5t76 -51.5t83.5 -52.5q49 -30 75 -46t72 -46.5t72 -51.5t64 -53.5t60 -59.5t47.5 -63.5t39 -71.5
t23 -77.5t9.5 -87.5q0 -114 -49 -210t-131.5 -160t-191.5 -100t-230 -36z" />
    <glyph glyph-name="t.ss01" unicode="&#xe02c;" horiz-adv-x="952" 
d="M569 -35q-59 0 -112 13t-101.5 43.5t-83.5 75t-56 112.5t-21 151v639q0 140 -119 185q118 0 220.5 43.5t167 127t64.5 189.5q0 96 -56 147.5t-134 51.5q-85 0 -133.5 -51.5t-48.5 -126.5q0 -63 40 -107.5t111 -38.5q-48 -51 -129 -51q-104 0 -168.5 63t-64.5 160
q0 120 95 202.5t257 82.5t273.5 -87t111.5 -230q0 -78 -35 -147.5t-87.5 -114t-106 -72.5t-99.5 -35v-6h441v-168q-72 29 -159.5 41t-227.5 12l2 -700q0 -124 52.5 -181t135.5 -57q61 0 128.5 25.5t121.5 64.5l26 -158q-60 -45 -141 -71.5t-164 -26.5z" />
    <glyph glyph-name="u.ss01" unicode="&#xe02d;" horiz-adv-x="1359" 
d="M1434 -735q-64 0 -127 17.5t-123 56.5t-106 95.5t-73.5 140t-27.5 183.5v602h-6q-29 -117 -100 -201t-158.5 -122.5t-182.5 -38.5q-101 0 -185 41.5t-137.5 128.5t-53.5 205v618q0 55 -10.5 87t-34.5 59q80 0 155.5 22t104.5 60v-822q0 -122 67.5 -190t167.5 -68
q75 0 148 36t135.5 116.5t89.5 191.5v508q0 56 -10 87.5t-35 58.5q80 0 155.5 22t104.5 60v-1563q0 -91 21.5 -159.5t58 -106.5t78.5 -56t88 -18q43 0 66.5 20.5t23.5 49.5q0 36 -32 55.5t-77 11.5q-11 82 33.5 129t110.5 47q61 0 105 -41t44 -116q0 -95 -80 -151t-198 -56z
" />
    <glyph glyph-name="v.ss01" unicode="&#xe02e;" horiz-adv-x="1839" 
d="M737 0h-327q5 28 -4.5 86t-22.5 102l-254 816q-27 90 -82 180h248q-7 -61 18 -154l262 -907l275 907q23 89 16 158q55 -18 134.5 -6.5t141.5 32.5t148 41.5t154 20.5q101 0 172.5 -44.5t103 -110.5t31.5 -144t-32 -147t-98.5 -114.5t-154.5 -45.5q-96 0 -150 56t-54 136
q0 56 30 94q34 -34 92 -34t100 40t42 115q0 73 -47 114.5t-119 41.5q-106 0 -213.5 -88t-159.5 -254l-213 -680q-19 -58 -31 -120t-6 -91z" />
    <glyph glyph-name="w.ss01" unicode="&#xe02f;" horiz-adv-x="2496" 
d="M696 0h-280q4 5 1.5 25t-4.5 32.5t-8.5 37t-11 39.5t-11.5 40t-11 37l-246 793q-37 123 -78 180h262q-10 -24 -8 -71t16 -97l258 -846l236 772q16 74 14.5 137t-16.5 105h244q-40 -113 -6 -242l235 -745l248 827q26 104 10 164q54 -18 134.5 -5t144 36t150.5 45t155 22
q81 0 145.5 -25.5t103 -68.5t58.5 -95.5t20 -111.5q0 -126 -81.5 -220.5t-215.5 -94.5q-96 0 -150 56t-54 136q0 56 30 94q34 -34 93 -34q58 0 99.5 40t41.5 115q0 79 -43.5 122.5t-112.5 43.5q-108 0 -220.5 -100t-168.5 -281l-199 -651q-57 -172 -47 -211h-258
q4 6 1.5 25.5t-5 32.5t-9 37.5t-11 40t-12 39.5t-11.5 36l-188 582l-187 -582q-3 -11 -11 -36.5t-12 -39.5t-11 -40t-9 -37.5t-5 -32.5t1 -25z" />
    <glyph glyph-name="x.ss01" unicode="&#xe030;" horiz-adv-x="1900" 
d="M354 0h-276q62 50 95 86.5t69 87.5l280 414l-280 413q-3 4 -18 25t-21 29t-20.5 27t-24 29.5t-24 25.5t-28.5 26.5t-28 20.5h266l293 -447l233 359q16 23 20.5 58t-7.5 67q54 -21 118 -21q72 0 233 52.5t241 52.5q85 0 152 -27t107 -73t60.5 -101.5t20.5 -116.5
q0 -125 -78 -218t-209 -93q-95 0 -157 54t-62 142q0 54 24 103q29 -62 92 -62q62 0 107 48.5t45 123.5q0 74 -49 115t-127 41q-93 0 -193.5 -56t-171.5 -161l-295 -436l312 -414q2 -3 12.5 -17t14.5 -19t14 -18t15 -19t15.5 -18t17 -19t17 -17t19 -17t19 -15t20.5 -15h-283
l-293 438z" />
    <glyph glyph-name="y.ss01" unicode="&#xe031;" horiz-adv-x="2146" 
d="M590 -575q-253 0 -506 90l14 188q254 -98 502 -98q182 0 296 55t114 150q0 85 -94 136.5t-283 63.5q-218 12 -343.5 119.5t-125.5 282.5v510q0 65 -3.5 100t-22.5 79.5t-58 82.5h168q62 0 96.5 -46t34.5 -122v-637q0 -86 41 -145.5t102 -85t135 -25.5q114 0 204.5 58
t90.5 145v704q0 92 -51 158q96 -22 164 -19.5t148.5 23t144 43.5t150 42t165.5 19q184 0 284.5 -86t100.5 -219q0 -118 -70.5 -187t-175.5 -69q-114 0 -186.5 77t-52.5 196q40 -31 90 -32t85.5 31t31.5 89q-4 66 -65 103.5t-150 37.5q-68 0 -136.5 -22t-128 -62.5
t-96.5 -108t-37 -149.5v-496q0 -76 -29 -139t-76 -102t-99 -61.5t-105 -28.5q318 -42 318 -289q0 -163 -162.5 -258.5t-423.5 -95.5z" />
    <glyph glyph-name="z.ss01" unicode="&#xe032;" horiz-adv-x="1966" 
d="M1100 -43q-524 58 -658 65q-207 11 -358 -22l729 1063q-566 6 -711 -55l17 176h1003l-719 -1086q76 0 170.5 -6.5t163 -13.5t186 -20t177.5 -19q120 -11 214 8t147.5 59.5t80.5 88.5t27 100q0 70 -47.5 115t-110.5 42.5t-104 -53.5q-10 121 67.5 200t196.5 79
q126 0 210 -88t77 -242q-4 -73 -36.5 -138t-94 -119t-151.5 -89t-209 -48.5t-267 3.5z" />
    <glyph glyph-name="a.ss02" unicode="&#xe033;" horiz-adv-x="1978" 
d="M1397 -213q-87 0 -169.5 24.5t-151 71t-110.5 123t-42 170.5v203h-13q-44 -198 -166.5 -304t-275.5 -106q-94 0 -175 41t-133 122.5t-52 186.5q0 95 38.5 170.5t102.5 121.5t143.5 70t165.5 24q105 0 202 -34.5t163 -97.5q-92 57 -202 68t-200.5 -19.5t-151.5 -104
t-61 -173.5q0 -110 63.5 -172.5t159.5 -62.5q78 0 156 49.5t143 149.5t93 231v303q0 106 -80.5 173.5t-204.5 67.5q-175 0 -354 -125l-37 140q200 121 428 121q94 0 176.5 -24.5t147 -71.5t102 -123t37.5 -173v-704q0 -90 38 -155.5t94 -95.5t120 -30q115 0 176 60.5
t61 146.5q0 73 -39.5 123.5t-101.5 50.5q-43 0 -92 -30q-12 126 59.5 203t185.5 77q118 0 195.5 -73.5t77.5 -202.5q0 -82 -35 -155.5t-99.5 -130.5t-163.5 -90.5t-218 -33.5z" />
    <glyph glyph-name="d.ss02" unicode="&#xe034;" horiz-adv-x="2021" 
d="M1468 -223q-83 0 -161.5 22t-152.5 67.5t-128.5 127t-77.5 190.5h-10q-48 -102 -145.5 -158.5t-210.5 -56.5q-92 0 -177.5 37.5t-157 110.5t-114.5 195t-43 276q0 130 29 236.5t77.5 176.5t113.5 117.5t134 68.5t142 21q116 0 213 -51t139 -139h10v438q0 65 -9 100.5
t-36 65.5q81 0 156.5 22t103.5 60v-1497q0 -84 20 -151t51.5 -108.5t73.5 -69.5t83 -39t82 -11q123 0 188 60t65 149q0 75 -46 129.5t-119 54.5q-51 0 -80 -41q-11 46 -11 76q0 110 70.5 175t173.5 65q112 0 190 -75.5t78 -199.5q0 -104 -44.5 -190t-117.5 -140.5t-164 -84
t-188 -29.5zM651 92q91 0 172 49.5t125 134.5v619q-40 70 -128 117t-183 47q-52 0 -99 -15t-90 -50.5t-74.5 -88t-50 -133t-18.5 -180.5q0 -128 29 -226.5t79 -157t110 -87.5t128 -29z" />
    <glyph glyph-name="h.ss02" unicode="&#xe035;" horiz-adv-x="2072" 
d="M1554 -104q-90 0 -184.5 24.5t-152.5 49t-138.5 38t-142.5 -7.5q33 58 39 90.5t6 136.5v594q0 123 -68.5 191.5t-169.5 68.5q-122 0 -229 -94t-145 -266v-494q0 -55 1.5 -82t12 -67t31.5 -78h-305q21 38 31.5 78t12 67t1.5 82v1248q0 55 -10.5 86t-34.5 59q80 0 155.5 22
t104.5 60v-844h8q29 117 100.5 201.5t159 123t182.5 38.5q74 0 141.5 -24.5t120 -70.5t84 -118.5t31.5 -161.5v-651q0 -77 44.5 -136t110.5 -87.5t140 -28.5q105 0 178.5 59.5t73.5 171.5q0 64 -37 113t-96 49q-38 0 -68.5 -24t-34.5 -64q-45 21 -69.5 60.5t-24.5 86.5
q0 100 69 160.5t173 60.5q127 0 218 -92.5t91 -249.5q0 -113 -58 -200.5t-150.5 -132.5t-201.5 -45z" />
    <glyph glyph-name="i.ss02" unicode="&#xe036;" horiz-adv-x="491" 
d="M414 0h-305q21 38 31.5 78t12 67t1.5 82v789q0 69 -8 103.5t-37 66.5q95 -12 191.5 18t135.5 80q-36 -86 -51.5 -152t-15.5 -169v-736q0 -55 1.5 -82t12 -67t31.5 -78z" />
    <glyph glyph-name="l.ss02" unicode="&#xe037;" horiz-adv-x="1245" 
d="M727 -104q-90 0 -184.5 24.5t-152.5 49t-138.5 38t-142.5 -7.5q21 38 31.5 78t12 67t1.5 82v1248q0 55 -10.5 86t-34.5 57q79 0 155 23t105 61v-1507q0 -77 44.5 -136t110.5 -87.5t140 -28.5q105 0 178 59.5t73 171.5q0 64 -37 113t-96 49q-38 0 -68 -24t-34 -64
q-45 21 -69.5 60.5t-24.5 86.5q0 100 68.5 160.5t172.5 60.5q127 0 218.5 -92.5t91.5 -249.5q0 -113 -58 -200.5t-150.5 -132.5t-201.5 -45z" />
    <glyph glyph-name="m.ss02" unicode="&#xe038;" horiz-adv-x="2949" 
d="M2410 -72q-109 0 -284 41t-256 41q-45 0 -107 -10q21 38 31.5 78t12 67t1.5 82v586q0 122 -71.5 190t-175.5 68q-66 0 -129 -28t-116 -81.5t-86 -142t-34 -198.5v-394q0 -55 1.5 -82t12 -67t31.5 -78h-305q21 38 31.5 78t12 67t1.5 82v621q0 109 -68 169t-168 60
q-53 0 -105 -17t-101 -54t-86.5 -89t-60 -128.5t-23.5 -167.5v-394q0 -55 1.5 -82t12 -67t31.5 -78h-305q21 38 31.5 78t12 67t1.5 82v764q0 55 -10.5 87t-34.5 59q80 0 155.5 22t104.5 60v-361h8q26 164 152 262.5t290 98.5q79 0 146.5 -23t119.5 -68t81.5 -117t29.5 -165
v12h8q17 109 83 192.5t160 126t200 42.5q165 0 270.5 -95.5t105.5 -277.5v-649q0 -94 87.5 -153.5t203.5 -59.5q122 0 209.5 71.5t87.5 210.5q0 92 -49 140.5t-119 48.5t-122 -46t-52 -124q-26 65 -26 125q0 113 83 182.5t205 69.5q130 0 221 -90.5t91 -247.5
q0 -177 -117.5 -286.5t-315.5 -109.5z" />
    <glyph glyph-name="n.ss02" unicode="&#xe039;" horiz-adv-x="2072" 
d="M1554 -104q-90 0 -184.5 24.5t-152.5 49t-138.5 38t-142.5 -7.5q21 38 31.5 78t12 67t1.5 82v594q0 123 -68.5 191.5t-169.5 68.5q-122 0 -229 -94t-145 -266v-494q0 -55 1.5 -82t12 -67t31.5 -78h-305q21 38 31.5 78t12 67t1.5 82v764q0 55 -10.5 87t-34.5 59
q80 0 155.5 22t104.5 60v-361h8q29 117 100.5 201.5t159 123t182.5 38.5q74 0 141.5 -24.5t120 -70.5t84 -118.5t31.5 -161.5v-651q0 -77 44.5 -136t110.5 -87.5t140 -28.5q105 0 178.5 59.5t73.5 171.5q0 64 -37 113t-96 49q-38 0 -68.5 -24t-34.5 -64q-45 21 -69.5 60.5
t-24.5 86.5q0 100 69 160.5t173 60.5q127 0 218 -92.5t91 -249.5q0 -113 -58 -200.5t-150.5 -132.5t-201.5 -45z" />
    <glyph glyph-name="o.ss02" unicode="&#xe03a;" horiz-adv-x="1417" 
d="M694 -25q-79 0 -160.5 24.5t-157.5 74.5t-135.5 119t-95.5 166t-36 208q0 126 35 227.5t92 161.5t123.5 91.5t134.5 31.5q75 0 135 -34.5t86 -96.5q-79 41 -149 24t-122 -71t-82 -141t-30 -187q0 -74 14 -144t44 -134t73 -112t106 -76.5t138 -28.5q113 0 202.5 82
t135 208t45.5 269q0 87 -18 167.5t-58 154t-98 128.5t-144 89.5t-190 37.5q96 35 182 35q145 0 271.5 -80t200 -211t73.5 -278q0 -145 -32.5 -263.5t-89 -199.5t-134.5 -136t-168 -80.5t-191 -25.5z" />
    <glyph glyph-name="t.ss02" unicode="&#xe03b;" horiz-adv-x="931" 
d="M883 -709q-98 0 -193.5 28t-185.5 90t-158.5 151t-109.5 220t-41 288v931q0 145 -127 185q65 31 125.5 94t103 135t71 137.5t42.5 118.5l-2 -485h387v-168q-72 29 -159.5 41t-227.5 12l2 -1139q0 -115 25.5 -211.5t67 -161.5t97 -110.5t114.5 -66.5t120 -21
q123 0 206 85.5t74 231.5q20 100 -16 148q87 29 158.5 -18t70.5 -160q-2 -109 -64.5 -191t-162 -123t-217.5 -41z" />
    <glyph glyph-name="u.ss02" unicode="&#xe03c;" horiz-adv-x="2066" 
d="M1491 -162q-102 0 -193.5 32t-163.5 93t-114.5 158.5t-42.5 218.5v20h-6q-29 -117 -100 -201t-158.5 -122.5t-182.5 -38.5q-101 0 -185 41.5t-137.5 128.5t-53.5 205v618q0 55 -10.5 87t-34.5 59q80 0 155.5 22t104.5 60v-822q0 -122 67.5 -190t167.5 -68q75 0 147 36
t134.5 116t91.5 192v508q0 56 -10 87.5t-35 58.5q80 0 155.5 22t104.5 60v-979q0 -84 26.5 -151t71 -108t98.5 -62t113 -21q112 0 192.5 70t80.5 194q0 74 -42.5 117.5t-103.5 37.5q-33 9 -61 -1.5t-43 -39.5q-35 127 30 206t179 79q104 0 175.5 -71t71.5 -193
q0 -201 -139 -330t-350 -129z" />
    <glyph glyph-name="x.ss02" unicode="&#xe03d;" horiz-adv-x="1228" 
d="M1255 -778q-116 0 -221 98t-184.5 273t-128.5 432t-55 559h-11l-409 -596h-262q74 48 163 182l252 373q42 251 7.5 444.5t-124.5 325.5t-203 200t-229 68q-131 0 -219 -82q-57 54 -57 129q0 93 70.5 158t195.5 65q110 -1 216 -51.5t196.5 -151.5t155 -239.5t93 -329.5
t9.5 -407h10l365 510l200 -15l-313 -434q-19 -195 -4 -382t68 -355t125 -295t168 -201.5t196 -74.5q148 0 283 165q-48 -125 -109 -208q-94 -160 -244 -160z" />
    <glyph glyph-name="a.ss03" unicode="&#xe03e;" horiz-adv-x="1288" 
d="M522 -31q-174 0 -293.5 105t-119.5 274q0 124 57.5 217.5t148 139t199.5 45.5q142 0 221.5 -69t79.5 -167q0 -96 -74 -170q15 108 -42.5 174t-153.5 66q-105 0 -177.5 -63t-72.5 -179q0 -99 77 -167.5t185 -68.5q63 0 118.5 16t107 54.5t88.5 98t59 152.5t22 212
q0 192 -95 306t-253 114q-155 0 -315 -103l-60 148q206 113 412 113q105 0 196 -31t161 -90t110.5 -151.5t40.5 -207.5v-536q0 -65 12 -108.5t49 -92.5h-106q-130 0 -157 286q-1 5 -1 7q-49 -154 -162 -239t-262 -85z" />
    <glyph glyph-name="d.ss03" unicode="&#xe03f;" horiz-adv-x="1329" 
d="M582 -31q-92 0 -177.5 37.5t-157 110.5t-114.5 195t-43 276q0 130 29 236.5t77.5 176.5t113.5 117.5t134 68.5t142 21q116 0 213 -51t139 -139h10v403q0 100 27.5 184t73.5 140t106 95.5t123 57t127 17.5q117 0 197.5 -56t80.5 -151q0 -75 -44.5 -116.5t-104.5 -41.5
q-70 0 -111.5 50.5t-31.5 128.5q44 -8 76 10.5t32 54.5q0 29 -24.5 50.5t-67.5 21.5q-47 0 -88 -19t-77.5 -59.5t-57.5 -114.5t-21 -174v-1298q0 -68 17.5 -117t64.5 -84h-119q-84 0 -131 59t-47 125h-10q-48 -102 -145.5 -158.5t-210.5 -56.5zM651 92q91 0 172 49.5
t125 134.5v621q-42 71 -128.5 117.5t-182.5 46.5q-66 0 -123.5 -25.5t-105 -79t-75.5 -147t-28 -217.5q0 -128 29 -226.5t79 -157t110 -87.5t128 -29z" />
    <glyph glyph-name="h.ss03" unicode="&#xe040;" horiz-adv-x="1347" 
d="M1438 -735q-65 0 -128 17.5t-123 56.5t-105.5 95.5t-73 140t-27.5 183.5v1063q0 123 -68.5 191.5t-169.5 68.5q-122 0 -229 -94t-145 -266v-494q0 -55 1.5 -82t12 -67t31.5 -78h-305q21 38 31.5 78t12 67t1.5 82v1004q0 63 -10 95.5t-35 59.5q43 0 90.5 12.5t97 46.5
t72.5 85v-672h8q29 117 100.5 201.5t159 123t182.5 38.5q74 0 141.5 -24.5t120 -70.5t84 -118.5t31.5 -161.5v-1190q0 -91 21 -159.5t57.5 -106.5t78 -56t87.5 -18q43 0 66.5 20.5t23.5 49.5q0 36 -32 55.5t-75 11.5q-11 82 33.5 129t110.5 47q61 0 105 -41t44 -116
q0 -95 -80.5 -151t-197.5 -56z" />
    <glyph glyph-name="l.ss03" unicode="&#xe041;" horiz-adv-x="520" 
d="M414 0h-305q21 38 31.5 78t12 67t1.5 82v1282q0 91 -21.5 159.5t-58 106.5t-78.5 56t-88 18q-43 0 -66.5 -20.5t-23.5 -48.5q0 -36 31.5 -56t74.5 -12q11 -82 -33 -129t-110 -47q-61 0 -105.5 41.5t-44.5 116.5q0 95 81 151t198 56q82 0 160.5 -29.5t146.5 -87
t110 -155.5t42 -222v-1180q0 -55 1.5 -82t12 -67t31.5 -78z" />
    <glyph glyph-name="t.ss03" unicode="&#xe042;" horiz-adv-x="1845" 
d="M1462 -156q-97 0 -163.5 54t-73.5 141q18 -6 53 -6q99 0 154 53t55 123q0 57 -39 97t-109 40q-59 0 -121.5 -28t-115 -70t-117 -91.5t-125 -91.5t-142 -70t-165.5 -28q-74 0 -136.5 22.5t-113 68.5t-79.5 123.5t-29 178.5v639q0 145 -127 185q65 31 125.5 94t103 135
t71 137.5t42.5 118.5l-2 -485h387v-168q-72 29 -159.5 41t-227.5 12l2 -700q0 -136 67.5 -201.5t169.5 -44.5q85 5 170 38.5t154 77.5t137.5 87.5t147.5 73.5t157 30q151 0 248.5 -84t97.5 -219q0 -127 -87.5 -205t-209.5 -78z" />
    <glyph glyph-name="u.ss03" unicode="&#xe043;" horiz-adv-x="1363" 
d="M530 -2q-101 0 -185 41.5t-137.5 128.5t-53.5 205v618q0 55 -10.5 87t-34.5 59q80 0 155.5 22t104.5 60v-822q0 -122 67.5 -190t167.5 -68q75 0 148 36t135.5 116.5t89.5 191.5v834q0 100 27.5 183.5t73.5 140t106 95.5t123 56.5t127 17.5q119 0 198.5 -55.5t79.5 -150.5
q0 -75 -44.5 -116.5t-104.5 -41.5q-66 0 -110.5 47t-33.5 129q45 -8 77 12t32 56q0 28 -23.5 48.5t-66.5 20.5q-46 0 -88 -18t-78.5 -56t-58 -106.5t-21.5 -159.5v-1218q0 -68 17.5 -117t64.5 -84h-160q-73 0 -105 50.5t-32 146.5v163h-6q-29 -117 -100 -201t-158.5 -122.5
t-182.5 -38.5z" />
    <glyph glyph-name="a.ss04" unicode="&#xe044;" horiz-adv-x="1290" 
d="M469 -31q-94 0 -175 41.5t-133 124.5t-52 191q0 93 38.5 167t102.5 119t143.5 69t165.5 24q87 0 191.5 -29.5t173.5 -79.5v246q0 106 -80.5 173.5t-204.5 67.5q-175 0 -354 -125l-37 140q96 59 208 91t220 32q94 0 176.5 -24.5t147 -72t102 -124t37.5 -173.5v-694
q0 -44 12 -76t49 -57h-151q-125 0 -125 131v248h-9q-44 -198 -168.5 -304t-277.5 -106zM528 109q122 0 233.5 106.5t158.5 294.5q-65 45 -147 70.5t-161 25.5q-131 0 -217 -67.5t-86 -198.5q0 -109 62 -170t157 -61z" />
    <glyph glyph-name="d.ss04" unicode="&#xe045;" horiz-adv-x="1339" 
d="M582 -31q-92 0 -177.5 37.5t-157 110.5t-114.5 195t-43 276q0 130 29 236.5t77.5 176.5t113.5 117.5t134 68.5t142 21q116 0 213 -51t139 -139h10v506q0 91 -21 160t-57 107t-77.5 56.5t-87.5 18.5q-43 0 -68 -21.5t-25 -50.5q0 -36 32.5 -54.5t76.5 -10.5
q11 -84 -33 -131.5t-110 -47.5q-61 0 -105.5 41.5t-44.5 116.5q0 95 81 151t198 56q81 0 159 -29.5t146 -87t109.5 -155.5t41.5 -222v-1220q0 -68 17.5 -117t64.5 -84h-119q-84 0 -131 59t-47 125h-10q-48 -102 -145.5 -158.5t-210.5 -56.5zM651 92q91 0 172 49.5t125 134.5
v619q-40 70 -128 117t-183 47q-52 0 -99 -15t-90 -50.5t-74.5 -88t-50 -133t-18.5 -180.5q0 -128 29 -226.5t79 -157t110 -87.5t128 -29z" />
    <glyph glyph-name="i.loclTRK" horiz-adv-x="520" 
d="M260 1419q-60 0 -99.5 41t-39.5 101t39.5 100.5t99.5 40.5t100.5 -40.5t40.5 -100.5t-40.5 -101t-100.5 -41zM414 0h-305q21 38 31.5 78t12 67t1.5 82v791q0 55 -10.5 86t-34.5 59q80 0 155.5 22t104.5 60v-1018q0 -55 1.5 -82t12 -67t31.5 -78z" />
    </font>
</defs>
</svg>
