<svg><defs><font id="iconfont" horiz-adv-x="1024"><font-face font-family="iconfont" font-weight="500" units-per-em="1024" ascent="896" descent="-128"/><glyph glyph-name="x" unicode="x" horiz-adv-x="1001" d="M281 543q-27-1-53-1h-83q-18 0-36.5-6T76 517.5t-23-32-9-45.5v-76h912v41q0 16-.5 30t-.5 18q0 13-5 29t-17 29.5-31.5 22.5-49.5 9H719v-97H281v97zm674-233v-52q0-23 .5-52t.5-58-10.5-47.5-26-30-33-16T855 50q-14-1-29.5-.5T796 50h-32l-45 128H280L236 50h-63q-20 0-45 1-25 0-41 9.5t-25.5 23T48 113t-4 30v167h911zm-792-63q-12 0-21-8.5t-9-21.5 9-21.5 21-8.5q13 0 22 8.5t9 21.5-9 21.5-22 8.5zm153-124q-8-26-14-48-5-19-10.5-37T284 13t-3-15 1-14.5 9.5-10.5 21.5-4h365q23 0 34 12t2 38q-5 13-9.5 30.5T695 84q-5 19-11 39H316zm20 375v228q0 11 2.5 23t10 21.5T369 786t34 6h188q31 0 51.5-14.5T663 725V498H336z"/><glyph glyph-name="loading" unicode="" d="M988.08 263.556c-4.669 20.497-26.907 31.245-26.907 31.245-41.233 15.499-69.386 51.555-69.386 97.572 0 46.377 35.132 86.207 76.862 101.493l-.065.06c11.398 4.44 24.106 17.346 21.365 39.923-4.61 38.726-21.862 81.303-42.79 100.941-11.523 10.874-28.65 10.874-40.174 4.195-.065-.028-.065.125-.125.185-40.425-17.95-94.115-16.94-127.315 15.685-32.577 32.015-38.366 78.917-21.49 118.195 2.49 4.32 7.165 21.38 1.682 30.785-21.49 36.733-79.353 57.688-117.228 57.688-12.894 0-26.345-13.604-30.954-24.603-15.51-41.108-55.313-69.845-102.52-69.845-46.902.033-83.406 32.44-97.917 68.9 0-.093.06.06 0 0-4.423 11.485-14.205 25.554-31.583 25.554-27.405 0-103.022-18.137-120.149-56-4.047-8.914-.617-20.312 1.622-28.766 4.178-15.532 10.59-82.804-22.861-115.643-33.074-32.534-81.221-37.771-122.454-22.086-12.272 4.658-22.359 6.493-32.888.218-26.723-15.843-49.147-71.75-49.147-106.365.06-16.82 9.028-34.646 20.742-38.939 0-.125.066-.246.066-.399 41.293-15.466 80.036-53.15 80.036-99.194 0-45.859-38.617-86.513-79.725-102.132-11.895-4.194-18.372-15.472-20.425-28.465-5.418-33.636 23.795-105.84 52.756-118.734 8.41-3.741 18.066-4.107 28.59-1.29 0 0 78.42 26.412 117.905-15.717 31.332-33.39 31.769-77.993 17.001-107.681-11.086-22.364-8.65-34.527-2.179-43.997 18.623-27.203 84.831-54.897 122.329-54.897 16.63 0 32.2 6.433 38.06 22.949 14.45 40.867 56.552 76.038 103.208 75.972 46.967 0 85.956-35.963 101.652-76.677.125.033.31.093.437.153 4.483-11.398 16.384-22.364 29.524-22.397 36.252-.093 96.228 25.03 112.24 46.995 10.088 13.844 10.465 25.27 3.61 40.801-17.372 39.611-13.33 86.12 19.06 118.987 31.207 31.648 88.758 26.771 116.786 17.306 15.073-5.084 25.286-6.619 41.796 1.47 32.21 15.827 57.185 85.737 50.954 116.555M511.093 206.42c-104.639 0-189.6 83.422-189.6 186.384 0 102.903 84.961 186.385 189.6 186.385 104.705 0 189.602-83.482 189.602-186.385S615.798 206.42 511.093 206.42" horiz-adv-x="1024"/><glyph glyph-name="406-telegram" unicode="" d="M512 896C229.184 896 0 666.816 0 384s229.184-512 512-512 512 229.184 512 512-229.184 512-512 512zm251.584-350.976l-84.032-395.776c-5.824-28.224-22.784-34.816-46.4-21.824l-128 94.592-61.376-59.776c-7.168-6.976-12.8-12.8-25.6-12.8-16.576 0-13.824 6.208-19.392 22.016L355.2 314.624l-126.592 39.424c-27.392 8.384-27.584 27.2 6.208 40.576L728 585.024c22.4 10.176 44.224-5.376 35.584-40z" horiz-adv-x="1024"/><glyph glyph-name="appliances" unicode="" d="M972.8 38.4H51.2A51.2 51.2 0 0 0 0 89.6V704a51.2 51.2 0 0 0 51.2 51.2h921.6A51.2 51.2 0 0 0 1024 704V89.6a51.2 51.2 0 0 0-51.2-51.2zm0 614.4a51.2 51.2 0 0 1-51.2 51.2H102.4a51.2 51.2 0 0 1-51.2-51.2v-512a51.2 51.2 0 0 1 51.2-51.2h819.2a51.2 51.2 0 0 1 51.2 51.2v512zM819.2 345.6h51.2V243.2h-51.2v102.4zM768 499.2h102.4V448H768v51.2zm0 102.4h102.4v-51.2H768v51.2zM665.6 243.2H204.8a51.2 51.2 0 0 0-51.2 51.2v307.2a51.2 51.2 0 0 0 51.2 51.2h460.8a51.2 51.2 0 0 0 51.2-51.2V294.4a51.2 51.2 0 0 0-51.2-51.2zm0 307.2a51.2 51.2 0 0 1-51.2 51.2H256a51.2 51.2 0 0 1-51.2-51.2V345.6c0-28.211 22.938-51.2 51.2-51.2h358.4c28.262 0 51.2 22.989 51.2 51.2v204.8z" horiz-adv-x="1024"/><glyph glyph-name="account" unicode="" d="M1006.933-128H17.067c0 9.216.887 18.193 1.4 27.34-.513 2.254-1.4 4.404-1.4 6.793a33.45 33.45 0 0 0 2.32 11.4C37.308 120.696 173.91 289.452 359.39 354.749a35.499 35.499 0 0 0 3.755 11.332l-1.195.068A265.557 265.557 0 0 0 256 579.516v52.702C256 777.898 370.62 896 512 896s256-118.101 256-263.782v-52.702a265.42 265.42 0 0 0-106.94-213.777 34.572 34.572 0 0 0 3.618-11.4c185.379-65.332 322.014-233.746 339.934-436.805a32.666 32.666 0 0 0 2.321-11.4c0-2.39-.887-4.54-1.4-6.793.513-9.148 1.4-18.125 1.4-27.341zm-307.2 713.728v40.311c0 111.378-84.07 201.694-187.733 201.694s-187.733-90.35-187.733-201.728v-40.277C324.267 474.317 408.303 384 512 384c103.663 0 187.733 90.317 187.733 201.728zM529.067 315.733c-221.799 0-405.06-162.85-437.965-375.466h841.762c-32.905 212.616-181.999 375.466-403.797 375.466z" horiz-adv-x="1024"/><glyph glyph-name="airpods" unicode="" d="M1019.75 721.306c-49.817 64.41-122.521 111.206-213.043 111.052-8.909 0-17.971-.41-27.136-1.33l-.665-.052-.564-.102a209.05 209.05 0 0 1-148.019-96.154c-35.635-55.5-67.072-104.602-67.072-209.51V-38.042c0-33.075 39.578-51.148 73.626-51.148h25.856c33.945.05 54.17 18.073 54.17 51.148v460.8c28.313-11.724 65.894-12.288 96.102-12.288 81.254 0 162.918 40.756 208.179 115.968l2.918 4.813v184.525l-4.352 5.53zM981.914 543.13c-37.632-59.136-103.527-91.597-168.96-91.597a185.549 185.549 0 0 0-98.51 27.494l-32.358 20.224V-29.184a19.251 19.251 0 0 0-19.456-18.944h-25.804c-10.701 0-37.786 1.536-37.786 11.98l-1.69 536.935c-.05 100.045 38.81 165.94 68.608 212.07 29.799 45.876 69.428 69.223 118.477 77.364 7.578.717 14.95 1.075 22.221 1.075 72.858-.102 131.072-35.533 175.258-89.754V543.13zM245.709 830.874l-.563.102-.666.051a273.152 273.152 0 0 1-27.187 1.383C126.77 832.512 54.067 785.766 4.3 721.357l-4.3-5.53V531.302l2.918-4.812c45.312-75.162 126.925-115.968 208.128-115.968 30.208 0 67.84.512 96.154 12.236v-460.85c0-33.076 20.122-51.15 54.118-51.15h25.856c33.997.103 73.626 18.074 73.626 51.2v563.2c0 104.91-31.488 154.01-67.123 209.562-35.482 55.603-88.371 86.989-147.968 96.154zM426.7-42.394c0-10.444-28.775-5.734-39.475-5.734h-25.908a19.2 19.2 0 0 0-19.404 18.944v528.486l-32.41-20.224a185.498 185.498 0 0 0-98.458-27.494c-65.433 0-131.276 32.46-168.96 91.597v158.361c44.135 54.221 102.35 89.652 175.207 89.754 7.27 0 14.643-.358 22.22-1.075 49.101-8.141 88.679-31.488 118.477-77.363 29.799-46.132 68.71-112.026 68.71-212.07V-42.395z" horiz-adv-x="1024"/><glyph glyph-name="add" unicode="" d="M955.733 310.784H580.267V-64.683H443.733v375.467H68.267v136.567h375.466v375.467h136.534V447.351h375.466V310.784z" horiz-adv-x="1024"/><glyph glyph-name="tshirt" unicode="" d="M304.765-102.502c-28.262 0-51.302 26.112-51.302 58.214v494.95l-43.213-50.585a48.486 48.486 0 0 0-72.55-1.536L15.69 532.275A61.542 61.542 0 0 0 .074 573.133a62.054 62.054 0 0 0 14.336 41.37L206.307 839.73c26.164 30.72 36.404 30.72 41.882 30.72H369.02c31.078 0 37.786-2.304 44.544-10.291l7.014-8.192-.307-11.571c0-26.42 8.755-49.255 25.447-65.997 16.486-16.589 40.038-25.651 66.304-25.651 54.016 0 91.75 37.632 91.75 91.545v10.701l6.605 9.165.102.102c6.81 7.936 13.415 10.292 44.493 10.292h120.832c5.53 0 15.872 0 41.933-30.72l191.846-225.23c9.42-11.11 14.592-25.804 14.336-41.369a61.696 61.696 0 0 0-15.616-40.857l-122.01-133.786a48.077 48.077 0 0 0-35.635-16.282 48.845 48.845 0 0 0-36.915 17.716l-43.11 50.636-.103-494.95c0-32.102-22.988-58.214-51.302-58.214H304.765zm-35.533 631.654c15.309 0 23.399-17.254 23.399-46.797V-53.914c0-2.201-5.07-5.99 0 0h438.835c2.048 0 0-2.304 0 0v536.27c0 29.49 7.987 46.796 23.296 46.796 6.912 0 17.408-2.662 28.21-15.36l65.025-76.288c1.075-1.28 1.997-1.946 2.662-1.946.666 0 1.536.666 2.714 1.844l122.01 133.683c.972 1.024 1.075 2.304 1.177 2.97a4.864 4.864 0 0 1-1.075 3.071L783.536 802.304a150.682 150.682 0 0 1-13.67 14.234H655.024l-5.427-.052c-10.65-72.96-65.536-121.65-137.574-121.65-36.045 0-68.301 11.98-93.39 34.764-24.166 22.016-39.474 52.02-44.236 86.938l-5.325.05H254.231c-2.304-2.047-7.424-6.86-13.722-14.284L48.663 577.075a4.608 4.608 0 0 1-1.024-3.072c0-.665.153-1.945 1.075-2.918l122.06-133.735c1.076-1.177 1.997-1.843 2.612-1.843.665 0 1.587.666 2.662 1.997l64.973 76.186c10.906 12.8 21.35 15.462 28.211 15.462z" horiz-adv-x="1024"/><glyph glyph-name="arrow-left" unicode="" d="M759.402 830.456L317.21 384.376 759.4-61.672c7.302-7.37 11.294-17.06 11.294-27.5a38.59 38.59 0 0 0-38.418-38.795c-10.27 0-19.926 3.992-27.194 11.328L235.7 356.909a38.658 38.658 0 0 0-11.294 27.466c0 10.373 3.992 20.13 11.226 27.5L705.083 885.39a39.135 39.135 0 0 0 54.353 0c7.267-7.302 11.26-17.094 11.26-27.467 0-10.372-3.993-20.164-11.294-27.466z" horiz-adv-x="1024"/><glyph glyph-name="baby" unicode="" d="M883.2-128H166.4a51.2 51.2 0 0 0-51.2 51.2v512a51.2 51.2 0 0 0 51.2 51.2v102.4A153.6 153.6 0 0 0 320 742.4h116.378a100.813 100.813 0 0 0-13.978 51.2 102.4 102.4 0 0 0 204.8 0c0-18.74-5.171-36.198-13.978-51.2H729.6a153.6 153.6 0 0 0 153.6-153.6V486.4a51.2 51.2 0 0 0 51.2-51.2v-512a51.2 51.2 0 0 0-51.2-51.2zM832 537.6a153.6 153.6 0 0 1-153.6 153.6H576v102.4a51.2 51.2 0 1 1-102.4 0V691.2H371.2a153.6 153.6 0 0 1-153.6-153.6v-51.2H832v51.2zM883.2 384a51.2 51.2 0 0 1-51.2 51.2H217.6a51.2 51.2 0 0 1-51.2-51.2V-25.6a51.2 51.2 0 0 1 51.2-51.2H832a51.2 51.2 0 0 1 51.2 51.2V384zM550.4 76.8H243.2a25.6 25.6 0 0 0 0 51.2h307.2a25.6 25.6 0 0 0 0-51.2zM448 230.4H243.2a25.6 25.6 0 0 0 0 51.2H448a25.6 25.6 0 0 0 0-51.2z" horiz-adv-x="1024"/><glyph glyph-name="beauty" unicode="" d="M989.85 256a384 384 0 0 0-768 0c0 185.6 132.25 338.586 307.2 374.374v23.092L467.149 691.2H413.44c-28.006-59.546-102.656-102.4-191.59-102.4-113.101 0-204.8 68.762-204.8 153.6S108.749 896 221.85 896c89.139 0 164.403-42.803 192.46-102.4h103.783v34.1H529.1v17.1h153.6v-17.1h26.88v-34.1h24.32V691.2h-24.32v-22.528H682.7v-38.195C857.65 594.688 989.85 441.549 989.85 256zm-768 588.8c-84.839 0-153.6-45.824-153.6-102.4 0-56.525 68.761-102.4 153.6-102.4s153.6 45.875 153.6 102.4c0 56.576-68.813 102.4-153.6 102.4zm51.2-588.8a332.8 332.8 0 1 1 333.21 332.8h-.922A332.8 332.8 0 0 1 273.05 256z" horiz-adv-x="1024"/><glyph glyph-name="bags" unicode="" d="M717.875 613.325v48.691C718.695 776.909 626.227 870.4 512 870.4c-113.51 0-205.978-93.542-205.978-208.384v-48.742A253.44 253.44 0 0 1 76.8 360.858V-33.126c0-38.042 30.822-69.223 68.403-69.223h733.645a68.608 68.608 0 0 1 68.403 69.223v393.984a252.928 252.928 0 0 1-229.376 252.467zm-3.993-183.296v-69.223a23.5 23.5 0 0 0-22.58-23.603 22.938 22.938 0 0 0-22.579 23.603v69.223c0 12.902 10.547 23.552 22.58 23.552a22.886 22.886 0 0 0 22.579-23.552zM512 824.064c88.73 0 160.102-73.062 160.102-162.048v-46.387H351.898v46.387c0 89.805 72.14 162.048 160.102 162.048zM351.13 430.029v-69.223a23.45 23.45 0 0 0-22.528-23.603 22.938 22.938 0 0 0-22.58 23.603v69.223c0 12.902 10.548 23.552 22.58 23.552a22.886 22.886 0 0 0 22.528-23.552zm-45.108 136.909v-71.936a69.734 69.734 0 0 1-45.875-64.973v-69.223c0-38.81 30.823-69.939 68.403-69.939 38.35 0 68.352 31.13 68.352 69.94v69.222c0 30.31-18.944 55.757-45.056 65.536v73.677h320.205v-73.524c-28.16-9.01-49.203-34.56-49.203-65.69v-69.222c0-38.81 30.822-69.939 68.403-69.939 38.349 0 68.403 31.13 68.403 69.94v69.222c0 29.081-17.305 53.862-41.779 64.46v72.397a206.694 206.694 0 0 0 182.682-206.028V103.322c-2.253.512-4.403 1.177-6.81 1.177H123.392v256.359h-.768a207.155 207.155 0 0 0 183.398 206.08zm571.956-622.9H145.92a22.733 22.733 0 0 0-22.528 22.784V58.88h770.406c2.407 0 4.557.717 6.81 1.178v-93.236a22.784 22.784 0 0 0-22.63-22.784z" horiz-adv-x="1024"/><glyph glyph-name="blog" unicode="" d="M212.617 462.643v2.253c15.496 3.755 27.955 12.151 37.41 25.225 9.455 13.073 14.2 28.842 14.2 47.308 0 28.092-10.855 48.811-32.564 62.089-21.709 13.312-54.955 19.934-99.704 19.934H17V289.997h128.238c38.742 0 69.36 8.601 91.819 25.805 22.46 17.203 33.69 40.72 33.69 70.656 0 20.104-4.574 36.488-13.756 49.083-9.148 12.698-23.962 21.71-44.373 27.102zm-106.599 89.464h25.02c27.92 0 41.916-9.25 41.916-27.75 0-10.377-3.516-18.16-10.48-23.416-6.997-5.257-16.861-7.885-29.627-7.885h-26.829v59.05zm31.3-193.332h-31.3v69.189h29.525c14.132 0 24.918-2.936 32.325-8.807 7.44-5.836 11.161-14.233 11.161-25.224 0-23.45-13.892-35.158-41.71-35.158zm185.48-68.744h88.133v350.652H322.8V290.03zm332.87 243.814c-19.218 10.684-41.405 16.009-66.458 16.009-40.585 0-72.09-11.503-94.55-34.611-22.46-23.04-33.69-55.399-33.69-97.007 0-40.721 11.435-73.011 34.373-96.87 22.903-23.928 53.76-35.875 92.467-35.875 40.448 0 71.885 11.708 94.345 35.055 22.46 23.347 33.69 55.945 33.69 97.69 0 26.59-5.223 49.834-15.668 69.734a109.295 109.295 0 0 1-44.51 45.875zm-37.991-165.751c-5.598-11.503-15.258-17.237-28.945-17.237-13.824 0-23.655 5.734-29.526 17.237-5.87 11.503-8.806 28.194-8.806 50.142 0 21.947 2.935 38.4 8.806 49.459 5.871 11.025 15.531 16.555 29.082 16.555 13.824 0 23.586-5.564 29.286-16.692 5.7-11.093 8.568-27.545 8.568-49.322 0-21.948-2.8-38.64-8.465-50.142zm389.325 177.254h-89.02a396.834 396.834 0 0 1-25.225 2.936 300.988 300.988 0 0 1-24.132 1.57c-35.123 0-62.19-7.646-81.135-22.972-18.91-15.326-28.399-36.898-28.399-64.648 0-17.886 3.789-33.076 11.4-45.5 7.612-12.493 17.989-21.675 31.199-27.512-13.79-8.396-22.904-15.667-27.273-21.743a35.43 35.43 0 0 1-6.52-21.06c0-7.202 2.902-14.506 8.705-21.88 5.768-7.338 12.56-12.697 20.377-16.008-37.854-8.874-56.764-28.535-56.764-59.05 0-22.665 9.797-40.073 29.39-52.122 19.626-12.083 47.513-18.125 83.694-18.125 47.923 0 85.163 8.602 111.684 25.873 26.522 17.34 39.8 41.506 39.8 72.602 0 48.196-28.604 72.328-85.88 72.328h-42.359c-11.435 0-20.65 1.16-27.682 3.482-7.066 2.321-10.616 5.7-10.616 10.07 0 3.48 1.024 7.133 3.14 11.058 5.564-1.228 13.074-1.877 22.529-1.877 38.331 0 67.14 7.612 86.425 22.801 19.32 15.155 28.98 36.523 28.98 64 0 11.571-2.39 21.709-7.203 30.413l34.953 12.868v42.496zM848.35 281.225h34.475c14.609 0 25.77-1.4 33.587-4.165 7.816-2.799 11.707-7.577 11.707-14.302 0-8.43-6.417-15.291-19.217-20.616-12.868-5.29-29.969-7.987-51.302-7.987-13.073 0-23.518 2.218-31.3 6.622-7.817 4.471-11.742 10.274-11.742 17.476 0 6.485 3.277 11.946 9.796 16.35a41.643 41.643 0 0 0 23.996 6.622zm40.653 151.005a22.528 22.528 0 0 0-19.456-9.693c-18.193 0-27.273 13.073-27.273 39.219s9.08 39.219 27.273 39.219c17.544 0 26.316-13.21 26.316-39.663 0-12.937-2.252-22.63-6.86-29.082z" horiz-adv-x="1024"/><glyph glyph-name="car" unicode="" d="M511.898-127.949C229.613-127.949-.05 101.766-.05 384c0 282.336 229.664 512 511.95 512 282.336 0 512-229.664 512-511.949s-229.664-512-512-512zm0 976.901c-256.306 0-464.901-208.594-464.901-464.9 0-256.359 208.595-464.902 464.901-464.902 256.41 0 464.953 208.543 464.953 464.901 0 256.307-208.544 464.901-464.953 464.901zM897.228 384c0-26.183-2.762-52.622-8.131-78.702h.358v-.205l-1.38-6.955-5.728-20.353c-1.432-5.114-3.069-10.023-4.603-14.932l-2.045-5.78c-1.381-4.09-2.864-7.977-4.398-11.914a194.327 194.327 0 0 0-3.222-8.183l-3.58-8.284-1.125-2.506a198.162 198.162 0 0 0-3.784-8.284l-1.994-3.99a385.176 385.176 0 0 0-35.542-58.4l-1.84-2.505c-2.762-3.631-5.626-7.364-8.643-10.995l-24.956-29.61v.052l-.307-.358-.716.972c-8.847-8.95-19.023-15.751-28.535-23.678-10.126-8.489-19.637-17.95-30.479-25.313-1.84-1.279-3.988-1.944-5.83-3.222a378.63 378.63 0 0 0-208.85-62.236 381.494 381.494 0 0 0-275.126 115.983l-.818-.92-4.449 5.266-.307.307-17.694 21.12a378.17 378.17 0 0 0-31.399 45.463c-5.625 9.358-11.301 18.665-16.057 28.484l-1.33 2.71-.46 1.023a284.944 284.944 0 0 0-5.165 11.353l-3.324 7.67a261.216 261.216 0 0 0-3.273 8.387l-.102.307a2.506 2.506 0 0 1-.205.563c-1.38 3.477-2.659 7.108-3.989 10.739l-2.096 6.239c-.819 2.403-1.483 4.858-2.2 7.262-.766 2.403-1.533 4.807-2.198 7.21l-.205.716-.613 1.79-4.807 17.387-2.097 7.415.92.205a386.25 386.25 0 0 0-7.977 75.071c0 1.227-.205 2.506-.205 3.733a385.074 385.074 0 0 0 256.92 363.238l-.255.358 6.597 2.352 19.688 5.472c3.938 1.074 7.006 1.892 10.023 2.608l4.143.972a433.565 433.565 0 0 0 18.92 3.989l5.064.869c3.426.563 6.903 1.125 10.38 1.585l5.012.614c5.728.767 11.609 1.38 17.592 1.841l3.12.153 3.068.256 4.653.256 4.96.307 7.774.204 2.761.051 4.756.154 14.575-.307c3.222-.102 6.392-.307 9.512-.511l6.699-.46a345.3 345.3 0 0 0 16.313-1.637l5.983-.767c3.375-.46 6.597-.92 9.921-1.483l5.83-1.074a364.152 364.152 0 0 0 15.904-3.17l6.955-1.637 8.489-2.2 2.045-.51 25.007-6.853v-.154l-.307-.818A384.818 384.818 0 0 0 897.228 384c0 .051 0 .051 0 0zM610.033 614.89c0-142.676 95.425-265.409 232.835-300.592A337.617 337.617 0 0 1 622.92 703.514a310.412 310.412 0 0 1-12.887-88.623zM577.51 715.84a332.094 332.094 0 0 1-120.585 1.943l-1.79-.307-1.636-.307-8.642-1.636a357.615 357.615 0 0 0 14.42-100.641c0-56.764-13.909-110.51-37.74-158.632a355.414 355.414 0 0 0-227.822-186.912l1.278-3.733 4.807-12.069c10.28-24.24 22.808-46.434 37.792-67.145a358.84 358.84 0 0 0 252.88 104.988h40.502c95.118 0 187.372-38.66 254.261-106.266 6.086 8.387 11.558 17.182 16.825 25.978 7.926 13.296 15.24 26.797 21.222 40.911l1.074 2.506 2.966 7.466 1.33 3.478 1.278 3.528a356.232 356.232 0 0 0-267.045 345.953c.05 34.263 4.96 68.168 14.625 100.897zM180.93 314.656A309.235 309.235 0 0 1 412.28 614.84a309.389 309.389 0 0 1-12.784 88.112 337.822 337.822 0 0 1-218.567-388.296zm350.095-70.316h-40.502c-83.56 0-164.308-34.262-222.657-94.3A339.56 339.56 0 0 1 511.847 45.77a339.05 339.05 0 0 1 242.909 103.197 311.383 311.383 0 0 1-223.732 95.373z" horiz-adv-x="1025"/><glyph glyph-name="clock" unicode="" d="M512-128C229.24-128 0 101.24 0 384s229.24 512 512 512 512-229.24 512-512-229.24-512-512-512zm0 955.733C266.923 827.733 68.267 629.077 68.267 384S266.923-59.733 512-59.733 955.733 138.923 955.733 384 757.077 827.733 512 827.733zm84.48-661.81l-152.747 149.81c1.127 11.674-.17 27.41 0 41.745v265.455a34.133 34.133 0 1 0 68.267 0V349.867c0-.854-.444-1.605-.512-2.39L644.71 214.221a34.1 34.1 0 1 0-48.23-48.299z" horiz-adv-x="1024"/><glyph glyph-name="cart" unicode="" d="M926.003 299.725h-.956a32.7 32.7 0 0 0-30.754-21.675H437.385a32.7 32.7 0 0 0-32.973 32.46c0 17.92 14.745 32.462 32.973 32.462H820.77c41.78-2.663 40.55 2.218 53.828 40.004 15.087 63.659 63.59 160.46 72.875 197.769 9.148 36.625-20.787 34.474-20.787 34.474h-673.52s-39.73 2.628-30.992-42.7c15.223-78.78 47.616-280.338 62.908-359.493 9.762-31.949 8.26-45.943 56.012-43.213H929.11s-16.418-64.136-44.441-63.59h-.137s-549.888-.478-602.931-1.126a137.216 137.216 0 0 1-10.786.34c-17.988-.852-35.772 13.006-39.697 37.138L109.329 788.036c-.068.273-.034.58-.102.854l-24.815-.478H32.905a32.7 32.7 0 0 0-32.973 32.46c0 17.955 14.78 32.461 32.973 32.461h94.242c38.4-8.772 47.104-52.087 47.104-52.087l-.478-.103c.205-.955.512-1.843.682-2.798l22.904-118.17h106.94l652.492-.853c22.597.682 69.155-2.936 67.209-60.04-30.822-157.868-97.997-319.557-97.997-319.557zM416.53 27.477c36.42 0 65.98-29.081 65.98-64.921 0-35.874-29.526-64.922-65.98-64.922s-65.98 29.082-65.98 64.922c.034 35.84 29.56 64.921 65.98 64.921zm373.794 0c36.386 0 65.946-29.081 65.946-64.921 0-35.874-29.526-64.922-65.946-64.922-36.454 0-66.014 29.082-66.014 64.922.034 35.84 29.56 64.921 66.014 64.921z" horiz-adv-x="1024"/><glyph glyph-name="topbrand" unicode="" d="M841.14 271.848a12.177 12.177 0 0 0-3.224.512C780.664 155.398 667.233 77.373 539.63 67.14V-72.947h189.717a27.526 27.526 0 0 0 0-55.053h-434.23a27.526 27.526 0 0 0 0 55.053h189.716V67.14a360.247 360.247 0 0 0-298.236 204.862c-1.228-.154-2.302-.154-3.223-.154A183.935 183.935 0 0 0 0 455.937v205.22c0 13.25 10.49 27.577 27.424 27.577h124.33v179.74c0 13.251 10.488 27.526 27.423 27.526h666.158c13.2 0 27.373-10.489 27.373-27.526V688.683h124.329a27.629 27.629 0 0 0 27.475-27.578v-205.27A183.884 183.884 0 0 0 841.14 271.848zM151.805 428.462V633.63H54.848V455.886c0-64.109 48.197-117.78 111.385-126.069a357.996 357.996 0 0 0-14.428 98.645zM817.962 838.9H206.55V428.46c0-169.148 137.12-306.83 305.655-306.83 168.586 0 305.706 137.63 305.706 306.83V838.9zm151.702-205.27h-94.858V428.41c0-32.03-4.81-65.132-14.48-98.594 62.932 8.289 109.338 60.988 109.338 126.069V633.63zM607.575 496.05l13.866-81.76c2.507-3.48 2.507-6.96 2.507-9.108a20.875 20.875 0 0 0-21.08-21.13c-2.405 0-6.293 0-9.977 3.171l-78.537 40.522-79.305-40.931a19.647 19.647 0 0 0-22.154 3.275 25.684 25.684 0 0 0-8.186 19.288l14.326 88.821-56.792 59.095c-5.935 5.986-8.238 14.224-5.935 20.62a16.27 16.27 0 0 0 16.833 15.553l86.416 12.177 38.527 79.51c2.507 7.674 8.8 12.023 18.317 12.023 7.828 0 14.633-4.451 18.316-11.972l38.527-79.56 89.333-12.843a31.261 31.261 0 0 0 13.302-13.456c3.889-11.256-1.176-17.959-5.27-22.103l-63.034-61.192zm-156.358-51.625l51.727 27.73a20.005 20.005 0 0 0 18.42.052l51.829-27.782-10.284 56.894c-.154 5.884-.154 12.229 5.986 18.317l41.392 39.806-58.685 9.26c-4.605 2.252-10.233 5.117-13.354 11.257l-25.992 52.187-25.991-52.085c-2.763-5.577-8.647-11.972-16.168-11.972l-55.922-8.596 41.34-39.754c6.14-6.14 6.14-12.536 6.14-17.243l-10.438-58.071z" horiz-adv-x="1025"/><glyph glyph-name="tablet" unicode="" d="M813.978 870.451h-585.78c-22.784 0-39.936-20.275-39.936-47.309V-55.04c0-27.034 17.101-47.309 39.936-47.309h585.78c22.784 0 39.884 20.275 39.884 47.309v878.182c.052 27.034-17.05 47.31-39.884 47.31zm0-925.491h-585.78v168.909h585.78V-55.04zm0 216.115h-585.78v662.067h585.78V161.075zM479.028 33.382a51.2 51.2 0 1 1 102.4 0 51.2 51.2 0 1 1-102.4 0z" horiz-adv-x="1024"/><glyph glyph-name="computers" unicode="" d="M962.355 870.451H66.918a35.738 35.738 0 0 1-36.044-35.277V158.31c0-19.456 26.01-55.808 45.875-55.808h418.918V-8.243H271.718a21.658 21.658 0 0 1-21.862-21.453c0-11.776 9.78-21.402 21.862-21.402h491.623a21.658 21.658 0 0 1 21.862 21.402 21.709 21.709 0 0 1-21.862 21.453H539.392v110.745H947.2c19.814 0 51.149 36.352 51.149 55.808v676.864a35.686 35.686 0 0 1-35.994 35.277zm-15.155-716.8H76.749l-2.1 12.237v141.363l2.1.051H947.2l1.69-.05-1.69-153.6zm2.253 203.674c-.717.153-1.587 1.126-2.253 1.126H74.65v469.146h880.025l-5.222-470.272zM517.53 241.152a27.443 27.443 0 0 1-27.7-27.085v-.051c0-14.95 12.39-27.085 27.7-27.085 15.308 0 27.648 12.083 27.648 27.085s-12.39 27.136-27.648 27.136z" horiz-adv-x="1024"/><glyph glyph-name="collection" unicode="" d="M512-71.85l-23.108 23.142c-23.45 23.483-45.33 40.209-88.918 73.489-26.965 20.616-60.484 46.216-107.827 83.695-59.153 46.797-132.778 105.062-190.157 173.807C33.485 364.339.17 445.918.17 531.729c0 196.233 155.717 317.645 299.964 317.645 80.76 0 155.136-35.943 211.9-101.854 56.832 65.946 131.311 101.956 212.173 101.956 144.145 0 299.656-120.763 299.656-315.801 0-201.967-190.19-347.375-292.386-425.472a12751.222 12751.222 0 0 0-58.948-44.886l-.922-.716C595.012 4.335 566.374-17.476 535.142-48.674L512-71.851zM300.1 783.598c-112.742 0-234.427-96.29-234.427-251.87 0-160.358 154.112-282.283 266.615-371.234A6511.684 6511.684 0 0 1 439.671 77.14l.171-.136c31.335-23.996 52.736-40.346 72.021-57.31 27.478 24.78 59.836 49.39 120.15 95.3 16.247 12.322 36.42 27.716 59.767 45.534 128.956 98.543 266.582 216.85 266.582 373.146 0 154.419-121.583 250.026-234.155 250.026-72.533 0-138.24-38.604-184.969-108.68L512 634.197l-27.204 40.824C438.1 745.028 372.53 783.599 300.1 783.599z" horiz-adv-x="1024"/><glyph glyph-name="delete" unicode="" d="M989.867 725.333H921.6V-59.733A68.267 68.267 0 0 0 853.333-128H170.667A68.267 68.267 0 0 0 102.4-59.733v785.066H34.133a34.133 34.133 0 1 0 0 68.267h409.6v34.133a68.267 68.267 0 0 0 136.534 0V793.6h409.6a34.133 34.133 0 0 0 0-68.267zm-136.534 0H170.667V-25.6A34.133 34.133 0 0 1 204.8-59.733h614.4A34.133 34.133 0 0 1 853.333-25.6v750.933zM614.4 42.667A34.133 34.133 0 0 0 580.267 76.8v477.867a34.133 34.133 0 1 0 68.266 0V76.8A34.133 34.133 0 0 0 614.4 42.667zm-204.8 0A34.133 34.133 0 0 0 375.467 76.8v477.867a34.133 34.133 0 1 0 68.266 0V76.8A34.133 34.133 0 0 0 409.6 42.667z" horiz-adv-x="1024"/><glyph glyph-name="edit" unicode="" d="M990.515-128H34.031C15.258-128 0-112.401 0-93.252c0 19.149 16.555 32.05 35.328 32.05h955.733c18.91 0 33.451-12.936 33.451-32.05A34.406 34.406 0 0 0 990.515-128zM385.126 76.015L151.791 8.738a67.925 67.925 0 0 0-14.302-1.74c-11.81 0-21.163 4.061-27.17 11.741-7.066 9.046-9.045 22.528-5.803 39.049l64.615 243.234 551.014 574.225c26.522 27.648 63.317 27.614 89.839 0L935.765 744.14c27.239-28.4 27.239-65.127 0-93.662L385.126 76.015zm-47.923 54.784L221.696 251.187 178.142 85.402l159.061 45.397zm400.93 413.32L618.325 668.98 267.503 303.343l119.842-124.86L738.133 544.12zm143.292 153.157c.034 3.31-4.881 8.499-12.322 16.315l-86.084 89.635c-8.329 9.318-14.03 15.394-17.852 15.394-3.857 0-9.626-6.042-17.954-15.292l-80.999-84.412 119.843-124.791 80.861 84.31c8.977 9.318 14.507 15.223 14.507 18.84z" horiz-adv-x="1024"/><glyph glyph-name="contact" unicode="" d="M977.579 443.017A431.104 431.104 0 0 1 962.492 556.1c-33.417 120.764-105.609 214.426-214.597 278.392-54.545 32.017-115.336 51.78-180.736 58.743a1075.541 1075.541 0 0 1-20.07 1.946l-8.636.785-.648.034H495.65l-.478-.068-1.638-.24a42.394 42.394 0 0 0-3.175-.477 758.155 758.155 0 0 0-17.032-1.74c-12.083-1.161-24.61-2.356-36.864-4.472-75.571-13.21-143.121-42.838-200.806-88.133-57.413-45.124-101.65-97.962-131.414-157.013-29.798-59.085-45.807-125.815-47.684-198.383a2611.883 2611.883 0 0 1-.273-87.996l.17-30.208c.035-6.178.65-12.731 1.878-20.036 9.352-55.979 59.972-98.167 117.76-98.167 8.158 0 16.35.853 24.337 2.56a120.73 120.73 0 0 1 68.915 41.438 118.101 118.101 0 0 1 26.692 75.332c.137 42.018.103 76.834-.068 109.636a148.514 148.514 0 0 1-2.014 23.791 114.62 114.62 0 0 1-41.165 69.461 120.593 120.593 0 0 1-75.98 27.614 112.14 112.14 0 0 1-20.037-1.809 193.74 193.74 0 0 1-13.653-3.106c40.516 137.523 179.473 273.374 373.624 273.374 3.345 0 6.758-.034 10.103-.137 190.157-4.608 325.359-139.468 364.1-273.715l-2.935.717c-7.578 1.843-15.394 3.755-23.45 4.232A119.023 119.023 0 0 1 737.93 439.74a31187.627 31187.627 0 0 1 .034-111.958c.102-31.948 12.629-61.815 35.362-84.104a120.115 120.115 0 0 1 91.648-34.304l1.194.068C803.601 92.774 704.887 22.494 572.69.546L571.494.41c-.136.239-.375.58-.648 1.16a91.648 91.648 0 0 1-113.971 45.773 90.112 90.112 0 0 1-56.73-108.032 91.546 91.546 0 0 1 83.183-67.209l4.813-.102a91.102 91.102 0 0 1 85.88 58.402c.34.922.58 1.331.648 1.536l.682.137a460.39 460.39 0 0 1 253.133 116.19 452.813 452.813 0 0 1 130.082 205.858c.683 2.082 1.195 4.198 1.741 6.28 1.331 4.915 2.56 9.592 4.54 13.722 8.636 18.09 12.8 35.942 12.8 54.613v42.803c0 23.416.034 47.65-.068 71.476zm-170.326-114.21c-.102 13.55-.068 27.34-.068 40.618v32.632c0 12.492-.034 25.395.034 38.092.17 25.976 19.354 46.968 45.705 49.903 1.74.205 3.55.307 5.325.307a50.722 50.722 0 0 0 50.005-50.414c.136-39.936.136-76.527.034-111.89-.068-26.248-18.773-46.899-45.5-50.107-1.843-.205-3.72-.342-5.598-.342a50.62 50.62 0 0 0-49.937 51.2zm-580.471 110.42l.034-39.32V365.67c0-12.39.034-25.19-.034-37.785-.137-26.01-19.354-47.002-45.67-49.937a50.654 50.654 0 0 0-55.33 50.585 20089.446 20089.446 0 0 0-.035 110.934 50.176 50.176 0 0 0 50.45 50.756l.068 6.144v-6.144a50.313 50.313 0 0 0 50.517-50.995z" horiz-adv-x="1024"/><glyph glyph-name="electronics" unicode="" d="M934.761 395.213v37.478c0 241.357-189.594 437.709-422.758 437.709-233.114 0-422.759-196.352-422.759-437.709v-37.478A153.856 153.856 0 0 1 .003 254.823V51.148c0-84.634 66.97-153.549 149.35-153.549 35.277 0 64 29.542 64 65.843V342.63c0 36.301-28.723 65.792-64 65.792-5.99 0-11.674-1.075-17.46-1.843v26.112c0 217.19 170.497 393.83 380.11 393.83 209.561 0 380.16-176.64 380.16-393.779V406.63c-5.786.717-11.52 1.844-17.51 1.844-35.278 0-64-29.492-64-65.792V-36.506c0-36.3 28.722-65.843 64-65.843 82.38 0 149.4 68.915 149.4 153.549v203.674a153.754 153.754 0 0 1-89.292 140.339zM170.652 342.63V-36.557a21.709 21.709 0 0 0-21.35-21.965c-58.778 0-106.65 49.152-106.65 109.67v203.674c0 60.519 47.872 109.722 106.65 109.722a21.606 21.606 0 0 0 21.35-21.914zM981.353 51.15c0-60.519-47.82-109.67-106.7-109.67a21.658 21.658 0 0 0-21.3 21.964V342.63c0 12.135 9.626 21.965 21.3 21.965 58.88 0 106.7-49.203 106.7-109.721V51.149z" horiz-adv-x="1024"/><glyph glyph-name="email" unicode="" d="M955.733-42.667H68.267A68.267 68.267 0 0 0 0 25.6v682.667a68.267 68.267 0 0 0 68.267 68.266h887.466A68.267 68.267 0 0 0 1024 708.267V25.6a68.267 68.267 0 0 0-68.267-68.267zm-9.284 685.09L729.225 425.2l226.508-226.51v456.124a64.17 64.17 0 0 0-9.284-12.39zM102.4 25.6h819.2a34.133 34.133 0 0 1 34.133 34.133v45.534a33.041 33.041 0 0 0-9.284 6.212L680.96 376.97 560.299 256.273a68.267 68.267 0 0 0-96.564 0L343.075 376.97 77.585 111.48a33.69 33.69 0 0 0-9.318-6.212V59.733A34.133 34.133 0 0 1 102.4 25.6zM77.55 642.423a62.805 62.805 0 0 0-9.283 12.39V198.725l226.508 226.51-217.224 217.19zm68.063 65.844a33.69 33.69 0 0 1 4.335-41.711l337.92-337.886a34.1 34.1 0 0 1 48.264 0l337.886 337.886a33.69 33.69 0 0 1 4.37 41.71H145.612z" horiz-adv-x="1024"/><glyph glyph-name="email1" unicode="" d="M955.733-25.6H68.267A68.267 68.267 0 0 0 0 42.667v11.4a32.324 32.324 0 0 1 9.284 6.212L343.04 394.001 463.701 273.34a68.267 68.267 0 0 1 96.564 0L680.925 394l333.758-333.72a32.768 32.768 0 0 1 9.284-6.212v671.266V42.667C1024 4.949 993.416-25.6 955.733-25.6zm58.983 753.357c3.242 3.242 5.632 6.929 7.953 10.615.819-4.232 1.331-8.567 1.331-13.039V147.456l-294.81 294.81 285.526 285.49zm-72.431 24.132L536.132 345.737a34.1 34.1 0 0 0-48.264 0l-337.92 337.92c-10.48 10.444-78.95 81.169-108.544 104.413 8.26 3.516 17.305 5.53 26.863 5.53h878.387a33.621 33.621 0 0 0-4.37-41.71zm-933-24.132l285.49-285.491L0 147.456v577.877c0 4.438.512 8.807 1.331 13.005 2.321-3.686 4.71-7.339 7.953-10.581z" horiz-adv-x="1024"/><glyph glyph-name="equal" unicode="" d="M62.19 157.184v136.533h887.468V157.184H62.19zm0 477.867h887.468V498.517H62.19v136.534z" horiz-adv-x="1024"/><glyph glyph-name="faq" unicode="" d="M512-128C229.205-128 0 101.24 0 384s229.205 512 512 512c282.76 0 512-229.24 512-512S794.76-128 512-128zm0 955.733C266.923 827.733 68.267 629.077 68.267 384S266.923-59.733 512-59.733 955.733 138.923 955.733 384 757.077 827.733 512 827.733zm77.517-423.048c-19.73-17.954-41.78-37.99-41.78-52.531v-38.912c0-18.057-16.008-32.666-35.737-32.666-19.763 0-35.874 14.61-35.874 32.666v38.912c0 41.506 33.04 71.714 62.123 98.406 17.578 16.077 38.673 35.362 38.673 46.558 0 33.007-29.184 59.801-64.922 59.801-36.386 0-64.887-25.565-64.887-58.231 0-18.057-16.111-32.768-35.84-32.768-19.764 0-35.84 14.711-35.84 32.768 0 68.198 61.269 123.767 136.601 123.767s136.533-56.217 136.533-125.337c0-38.4-30.037-65.843-59.05-92.433zm-43.315-184.457c9.08-8.26 14.13-19.66 14.13-31.232 0-11.673-5.05-23.074-14.13-31.232a50.313 50.313 0 0 0-34.168-13.005c-12.868 0-25.36 4.745-34.304 13.005a42.598 42.598 0 0 0-14.131 31.232c0 11.571 5.188 22.972 14.2 31.232 17.954 16.487 50.55 16.487 68.403 0z" horiz-adv-x="1024"/><glyph glyph-name="fb" unicode="" d="M439.671 663.86V506.71H280.405V349.627h159.266v-417.86h159.3v417.86h159.301v157.081h-159.3v103.527c0 29.593 24.37 51.78 52.463 51.78h104.96v157.15h-159.3c-86.187 1.843-157.424-68.437-157.424-155.307z" horiz-adv-x="1024"/><glyph glyph-name="gaming" unicode="" d="M966.56-51.456c-24.116-27.085-54.682-41.011-88.526-41.42-80.742-.922-155.34 61.08-196.044 144.486-25.6 52.582-94.464 142.08-170.906 143.718-67.072 1.382-122.112-73.523-181.76-137.626C270.495-5.58 218.066-92.877 134.354-92.877c-33.843 0-64.46 14.285-88.524 41.421C9.938-10.956-6.343 54.118 2.207 122.419l29.799 236.903c10.905 87.705 75.059 162.918 156.467 194.457h635.392c81.408-31.539 137.011-117.043 148.019-204.8l51.2-204.8c8.602-68.352-20.685-155.136-56.525-195.635zm5.324 195.584l-51.2 204.8c-11.98 93.645-81.203 154.01-178.278 154.01H278.892c-97.075 0-165.376-60.365-177.46-154.01L51.667 156.006C44.55 100.66 57.145 49.101 85.305 18.022 101.484.205 121.657-9.37 143.724-9.165c59.443.41 99.533 56.32 149.606 118.119 52.43 64.87 124.16 144.793 217.344 144.793 93.236 0 186.983-65.433 211.712-145.1 20.122-64.922 96.922-123.29 155.341-117.914 21.965 1.997 42.138 9.523 58.266 27.29 28.16 31.129 42.957 70.86 35.891 126.105zM792.633 348.979a25.6 25.6 0 1 0 0 51.2 25.6 25.6 0 0 0 0-51.2zm-51.2 51.2a25.6 25.6 0 1 0 0 51.2 25.6 25.6 0 0 0 0-51.2zm-51.2-51.2a25.6 25.6 0 1 0 0 51.2 25.6 25.6 0 0 0 0-51.2zm51.2 0a25.6 25.6 0 1 0-.103-51.302 25.6 25.6 0 0 0 .103 51.302zm-409.907-.256h-25.55v-25.549a25.6 25.6 0 0 0-51.046 0v25.55h-25.497a25.498 25.498 0 0 0 0 50.994h25.549v25.6a25.549 25.549 0 0 0 51.046 0v-25.6h25.549a25.498 25.498 0 1 0-.051-50.995zm409.6 252.007a77.312 77.312 0 0 0-76.647 77.875c0 42.905-34.355 77.824-76.595 77.824s-76.595-34.919-76.595-77.824V554.138H460.19v124.467c0 71.526 57.293 129.638 127.642 129.638 70.4 0 127.693-58.112 127.693-129.638 0-14.285 11.417-25.959 25.548-25.959a25.754 25.754 0 0 1 25.447 25.959v156.313c0 14.336 11.417 25.959 25.549 25.959s25.548-11.623 25.548-25.959V678.605c.052-42.906-34.355-77.875-76.492-77.875z" horiz-adv-x="1024"/><glyph glyph-name="information" unicode="" d="M512 896C229.24 896 0 666.76 0 384s229.24-512 512-512 512 229.24 512 512-229.24 512-512 512zm0-955.733C266.923-59.733 68.267 138.923 68.267 384S266.923 827.733 512 827.733 955.733 629.043 955.733 384c0-245.077-198.656-443.733-443.733-443.733zM512 640a42.667 42.667 0 1 1 0-85.333A42.667 42.667 0 0 1 512 640zm0-149.333c-23.518 0-42.667-19.15-42.667-42.667V170.667c0-23.552 19.15-42.667 42.667-42.667s42.564 19.115 42.667 42.667V448A42.735 42.735 0 0 1 512 490.667z" horiz-adv-x="1024"/><glyph glyph-name="ipad" unicode="" d="M825.344 870.451H155.75c-41.267 0-74.803-32.46-74.803-72.397V-30.003c0-39.936 33.536-72.346 74.803-72.346h669.594c41.216 0 74.752 32.41 74.752 72.346v828.109c0 39.936-33.536 72.345-74.752 72.345zM155.75 817.715h669.594a19.968 19.968 0 0 0 20.275-19.61l3.328-593.305h-716.8l3.328 593.306a19.968 19.968 0 0 0 20.275 19.61zM825.344-49.613H155.75a19.968 19.968 0 0 0-20.275 19.661L132.147 153.6h716.8l-3.379-183.552a19.968 19.968 0 0 0-20.224-19.66zM440.678 33.638a51.2 51.2 0 1 1 102.4 0 51.2 51.2 0 1 1-102.4 0z" horiz-adv-x="1024"/><glyph glyph-name="home" unicode="" d="M790.323-76.8a20.634 20.634 0 0 0-20.89 20.275l-1.382 30.771H256l-.614-30.77A20.685 20.685 0 0 0 234.445-76.8a20.685 20.685 0 0 0-20.941 20.275v22.733l-2.406.768c-43.52 8.14-74.906 44.646-74.906 87.654v202.804l.82 22.681h-2.458C57.242 290.662 0 356.352 0 430.95c0 77.108 59.648 141.978 137.78 151.706h2.406V712.55c0 65.69 36.25 132.25 116.838 132.25h515.635c31.386 0 58.778-10.547 78.95-30.874 23.348-23.5 36.25-60.057 36.25-101.376l.82-129.894h2.406C966.81 571.29 1024 506.419 1024 431.77s-58.06-139.52-133.734-150.887h-2.407l.82-22.681V54.579c0-43.008-31.386-79.513-74.906-87.654l-2.458-.768v-22.682A21.248 21.248 0 0 0 790.323-76.8zM157.901 543.744c-64.461 0-116.839-51.149-116.839-112.742 0-61.696 52.378-113.562 116.839-113.562 5.632 0 11.315-2.458 14.49-5.683a19.456 19.456 0 0 0 5.631-14.592l-.819-41.319V53.043c0-26.829 22.58-49.51 50.74-49.51h568.012a49.869 49.869 0 0 1 50.74 49.51v202.803l-.82 41.319a19.456 19.456 0 0 0 20.122 20.275c64.46 0 116.787 50.278 116.787 112.742s-51.558 113.562-116.02 113.562c-63.64 0-116.018-50.278-116.838-111.974l1.639-20.276v-205.21a20.634 20.634 0 0 0-20.941-20.274h-437.35a20.685 20.685 0 0 0-20.941 20.275v205.21l1.587 19.455c0 62.516-52.326 112.794-116.02 112.794zm107.161 252.365c-49.97 0-71.68-44.595-71.68-88.474V579.43l2.407-.819c65.229-11.366 115.2-61.645 124.057-124.928V233.83h385.895v220.672c9.677 63.232 62.822 115.2 128.921 124.928h2.458v127.437c0 43.827-21.76 88.423-70.963 88.423H265.062v.819z" horiz-adv-x="1024"/><glyph glyph-name="instagram" unicode="" d="M653.926 384a142.234 142.234 0 0 1-141.96 141.96A142.234 142.234 0 0 1 370.006 384a142.2 142.2 0 0 1 141.96-141.96A142.268 142.268 0 0 1 653.926 384zm76.493 0a218.18 218.18 0 0 0-218.453-218.487A218.214 218.214 0 0 0 293.478 384c0 120.866 97.588 218.453 218.488 218.453A218.112 218.112 0 0 0 730.419 384zm59.904 227.362a50.859 50.859 0 0 0-50.995-51.03 50.927 50.927 0 0 0-50.995 51.03c0 28.263 22.767 50.995 50.995 50.995a50.859 50.859 0 0 0 50.995-50.995zM511.966 733.355c-62.123 0-195.209 5.017-251.187-17.17a136.26 136.26 0 0 1-48.811-32.153c-14.985-14.985-24.405-29.355-32.154-48.777-22.186-56.012-17.169-189.098-17.169-251.187 0-62.122-4.983-195.174 17.17-251.187 7.782-19.422 17.168-33.86 32.153-48.81 14.985-15.02 29.389-24.406 48.81-32.154 56.013-22.153 189.1-17.17 251.188-17.17s195.174-4.983 251.153 17.17a135.817 135.817 0 0 1 48.81 32.153c15.02 14.95 24.44 29.355 32.154 48.811 22.153 56.013 17.17 189.065 17.17 251.187 0 62.089 4.983 195.175-17.17 251.187a135.68 135.68 0 0 1-32.153 48.777 135.236 135.236 0 0 1-48.811 32.154c-55.979 22.186-189.065 17.169-251.153 17.169zM937.847 384c0-58.778.58-117.01-2.764-175.787-3.345-68.232-18.876-128.648-68.745-178.551-49.937-49.869-110.353-65.434-178.551-68.745-58.778-3.345-117.044-2.73-175.787-2.73-58.778 0-117.01-.615-175.753 2.73-68.232 3.345-128.648 18.876-178.551 68.745-49.903 49.937-65.434 110.353-68.745 178.551-3.379 58.778-2.798 117.01-2.798 175.787 0 58.778-.58 117.01 2.764 175.753 3.345 68.232 18.842 128.648 68.745 178.551s110.353 65.468 178.551 68.779c58.778 3.345 117.01 2.764 175.787 2.764 58.743 0 117.01.58 175.787-2.764 68.232-3.345 128.648-18.842 178.551-68.745 49.869-49.903 65.434-110.319 68.745-178.551 3.31-58.778 2.764-117.01 2.764-175.787z" horiz-adv-x="1024"/><glyph glyph-name="gplus" unicode="" d="M498.79 319.386H325.154v130.15h304.299v-1.638h1.672c.24-11.333 2.287-23.518 4.95-32.94v-23.107h1.672v-29.662h-1.672v-24.713h-1.673v-13.175h-1.638v-11.537h-1.639v-9.899h-1.672v-6.588h-1.673v-8.226h-1.672v-4.95h-1.639l-4.983-23.073h-1.673v-3.311h-1.638l-3.311-14.848h-1.673l-1.672-6.588h-1.638v-4.95h-1.639a1649.664 1649.664 0 0 0-3.345-9.864h-1.672v-3.345h-1.639l-1.672-6.553-3.311-1.673-3.345-9.899-3.277-1.638v-3.311l-3.345-1.638v-3.311h-1.673l-1.638-4.95-3.311-1.672v-3.311c-1.673-1.092-3.345-2.15-4.984-3.311v-3.277a301.636 301.636 0 0 0-6.621-4.915v-3.345l-9.9-8.192v-3.345l-13.243-11.537-3.31-4.95h-3.312l-6.622-8.226h-3.31l-4.95-6.587c-1.638-.58-3.31-1.093-4.983-1.639l-1.639-3.345h-3.31c-.547-1.058-1.127-2.15-1.64-3.277a284.672 284.672 0 0 1-4.983-1.672v-1.605h-3.31l-1.673-3.345-4.983-1.638v-1.638h-3.311v-1.673h-3.311v-1.672h-3.311v-1.639h-3.311c-.546-1.092-1.127-2.184-1.639-3.31l-14.882-4.95v-1.673h-3.31v-1.638c-2.185-.58-4.404-1.092-6.623-1.638v-1.673h-4.949v-1.673h-3.31V80.18l-21.505-5.017v-1.605h-4.95v-1.672h-4.983v-1.673h-6.621v-1.638l-26.454-3.311c-33.997-9.796-96.802-6.349-127.317 3.31h-8.26c-15.429 4.984-30.857 9.9-46.32 14.815v1.672c-2.184.546-4.403 1.058-6.587 1.639v1.638h-3.311v1.673h-4.95v1.672l-6.621 1.604v1.673l-6.622 1.672c-.58 1.059-1.092 2.15-1.638 3.277l-9.933 3.345-1.639 3.277-6.622 1.673-1.638 3.276h-3.31l-1.64 3.346h-3.31l-1.673 3.276h-3.31l-1.64 3.311h-3.31l-3.31 4.984h-3.312a825.344 825.344 0 0 0-4.95 6.553h-3.31l-8.26 9.899h-3.311L91.785 159.3l-9.933 8.26v3.277a1394.347 1394.347 0 0 1-8.26 6.588v3.311l-6.622 4.983-1.639 4.882-3.31 1.672v3.311c-1.093.546-2.22 1.058-3.312 1.638l-1.638 4.984h-1.638v3.277a100.01 100.01 0 0 0-3.311 1.672v3.311l-3.311 1.639a844.595 844.595 0 0 1-1.639 4.949H45.5a667.307 667.307 0 0 1-3.311 9.864c-1.092.615-2.185 1.127-3.311 1.673l-1.639 6.588h-1.638a840.704 840.704 0 0 1-3.31 9.898h-1.64v4.916H28.98v3.31h-1.638l-1.639 6.588h-1.638l-1.673 8.226h-1.638l-1.638 9.899h-1.639v4.95h-1.672v4.949h-1.639v4.915h-1.638v6.588H10.89l-1.639 13.21H7.612l-1.673 16.451H4.301L2.662 355.43C-.034 365.022.99 381.1.99 393.353c0 32.938 6.178 61.542 14.882 85.708v6.588h1.673v3.277h1.638l3.31 14.848h1.673l1.639 6.588h1.638v4.949h1.639l3.31 9.864h1.639v3.311h1.638v3.277h1.639v3.311h1.638v3.277h1.673v3.31h1.638v3.312l3.311 1.638 1.673 6.588h1.638l1.638 4.95c1.195.716 2.321 1.262 3.414 1.808v3.277l3.31 1.673v3.31l3.312 1.639v3.31l3.31 1.64 1.639 4.949 4.983 3.276v3.311l9.933 8.26v3.277l16.52 14.814 14.849 16.487h3.31l6.622 8.226 4.984 1.672 1.638 3.277h3.311l3.311 4.95h3.311l1.639 3.31 4.983 1.639v1.638h3.31l1.64 3.311 4.949 1.639v1.638l6.622 1.638 1.638 3.277h3.31v1.639h3.312v1.638h3.31v1.638h3.312l1.672 3.311h4.95v1.639h3.31v1.638h3.311v1.639l9.933 3.31v1.639c3.277.614 6.588 1.16 9.899 1.707v1.638h3.31v1.638h4.984v1.639h4.95v1.638h4.983v1.639h4.984v1.672h6.621v1.638h6.588v1.639h6.622v1.672h8.294v1.639h8.26v1.638h8.26v1.639h14.883v1.638h21.504v1.673h24.815v-1.673h21.504v-1.638h13.244v-1.639h9.898v-1.638h8.26v-1.639h8.295v-1.672l19.832-3.277v-1.672h4.983v-1.639h4.983v-1.638h4.95v-1.639h4.983v-1.638h3.311v-1.638h4.984v-1.639h3.31v-1.638l8.26-1.639v-1.672l9.934-3.277v-1.638l9.932-3.311 1.673-3.311 9.899-3.277 1.672-3.311 6.622-1.638 3.311-4.95h3.31v-1.638c1.64-.546 3.312-1.127 4.984-1.639.342-1.126.888-2.218 1.434-3.31h3.31l1.64-3.277h1.672l1.638-3.311h3.311l6.622-8.226h3.311v-1.673l8.26-6.588v-3.31c-4.403-2.526-6.45-6.452-9.898-9.9l-23.177-23.073h-1.638l-39.697-41.2c-5.905-5.87-13.893-10.751-18.193-18.124-1.878 1.365-.24-.205-1.639 1.638-3.993 2.321-5.427 6.213-8.26 8.226h-3.311l-3.311 4.984h-3.31l-3.312 4.915h-3.31c-.547 1.092-1.127 2.185-1.64 3.311l-9.932 3.311-1.638 3.277h-4.984v1.638h-3.31v1.673l-6.623 1.604v1.638h-4.983v1.639h-4.984v1.638h-4.949v1.639h-4.983v1.638l-13.244 1.638v1.639h-11.571v1.638h-24.815c-31.642 0-49.733-5.461-71.1-14.814h-4.983v-1.672c-3.209-.956-6.52-2.048-9.83-3.14v-1.639a234.086 234.086 0 0 0-6.623-1.638l-1.672-3.311-6.588-1.639-1.673-3.31h-3.31l-3.311-4.95h-3.311l-3.311-4.915h-3.311l-13.244-14.848-13.21-11.537v-3.277l-6.621-4.983v-3.277l-3.311-1.639-1.673-4.949h-1.638v-3.31l-3.311-1.64-3.311-9.898-3.311-1.638v-3.277h-1.638v-3.311h-1.639v-4.95h-1.638l-1.639-6.587h-1.672v-4.95h-1.639v-3.276h-1.638v-6.588h-1.638v-4.983h-1.673v-6.588c-7.748-23.074-9.182-59.426-1.638-84.036.546-4.95 1.126-9.865 1.638-14.814 24.405-68.608 63.352-107.589 130.662-133.496h6.622c23.416-7.816 65.741-9.728 90.966-1.638l19.865 3.277v1.672h4.984v1.673h3.31v1.638h4.984v1.638h4.984v1.673l9.932 3.31v1.64l6.622 1.672 1.639 3.277 6.622 1.672 1.638 3.277h3.31c1.093 1.673 2.185 3.345 3.312 4.95h3.31c2.731 3.344 5.496 6.587 8.261 9.932h3.31v1.673c1.64 1.058 3.312 2.15 4.95 3.276v3.311c2.765 2.15 5.53 4.37 8.295 6.588v3.277l4.949 3.31v3.312l3.31 1.638v3.345c1.093.546 2.22 1.058 3.312 1.639l1.638 6.553h1.639v3.345h1.638l3.311 9.865h1.638l1.673 9.864h1.638l4.881 21.3zM827.87 553.37h81.032V441.31h112.47c2.457-6.724 1.672-18.74 1.672-28.024V360.55c-9.25-3.379-26.043-1.638-38.058-1.638h-76.084v-112.06H827.87v112.06H713.762v82.398H827.87v112.06z" horiz-adv-x="1024"/><glyph glyph-name="like" unicode="" d="M938.53 485.854H666.385C771.857 876.066 593.75 896 593.75 896c-75.468 0-59.835-59.802-65.536-69.769 0-190.839-202.308-340.377-202.308-340.377V-55.364c0-53.385 72.67-72.636 101.171-72.636h408.85c38.502 0 69.836 101.103 69.836 101.103 101.171 344.678 101.171 447.215 101.171 447.215 0 71.202-68.403 65.536-68.403 65.536zm-724.343-.205H51.234c-33.621 0-34.167-33.11-34.167-33.11L50.722-93.285C50.722-128 85.47-128 85.47-128h141.039c29.354 0 29.15 22.972 29.15 22.972v549.307c-.034 41.916-41.472 41.37-41.472 41.37z" horiz-adv-x="1024"/><glyph glyph-name="led" unicode="" d="M848.111 659.877a387.104 387.104 0 0 1-76.796 122.925A357.05 357.05 0 0 1 657.4 865.691a334.166 334.166 0 0 1-139.462 30.308c-48.382 0-95.33-10.188-139.513-30.36a356.846 356.846 0 0 1-113.914-82.888 388.025 388.025 0 0 1-76.796-122.925 410.603 410.603 0 0 1-28.159-150.52c0-69.68 17.356-137.978 50.225-197.52 30.82-55.908 78.28-102.702 130.348-135.622V-82.793c0-24.882 18.739-45.156 41.829-45.156h272.165c23.09 0 41.777 20.274 41.777 45.208v259.775c51.607 32.92 99.374 79.203 129.94 134.393a410.091 410.091 0 0 1 50.429 197.93 408.658 408.658 0 0 1-28.159 150.52zM638.918-82.434H397.215c-8.242 0-14.95 7.219-14.95 16.076v84.987h271.552v-84.987c.051-8.909-6.656-16.076-14.899-16.076zm28.927 294.385a22.578 22.578 0 0 1-13.977-21.4V64.092H538.776v309.693h136.185c11.673 0 21.043 10.188 21.043 22.732s-9.42 22.731-21.043 22.731H361.224c-11.622 0-21.094-10.188-21.094-22.731 0-12.595 9.472-22.732 21.094-22.732H496.59V64.093H382.266V190.55a22.68 22.68 0 0 1-13.977 21.4c-98.35 60.823-166.597 175.3-166.597 297.407 0 188.15 141.869 341.282 316.196 341.282 174.378 0 316.297-153.132 316.297-341.282 0-122.977-67.017-236.942-166.34-297.406z" horiz-adv-x="1024"/><glyph glyph-name="like1" unicode="" d="M1006.581 410.904L891.594-66.924c-.239-.99-6.38-26.41-40.604-46.506-20.063-11.738-50.737-14.195-55.924-14.195l-720.085.41c-40.468 0-57.733 16.787-57.733 56.163l.068 258.124.069 253.313c0 37.089 20.165 49.27 58.005 47.974 142.42-4.88 157.297 18.152 180.704 32.312 5.869 3.549 10.1 4.163 22.963 9.144 57.357 43.71 84.244 133.55 99.496 197.355 3.686 15.525 6.313 30.607 8.77 45.176 11.055 64.693 20.608 120.583 124.54 123.586 22.452.58 43.095-8.701 61.896-27.672 36.85-37.124 65.136-109.392 59.2-175.108-4.436-49.441-18.085-85.2-29.14-114.442l-5.596-13.443c-7.063-16.89-.034-39.546-.92-44.596h272.966c87.554 0 136.176-62.68 136.483-108.402v-.682l-.17-.683zm-818.729 7.404c-34.598 0-85.882-.102-102.362 0V-59.383l104.341-.375-1.979 478.066zM529.06 520.671c-1.262 20.472.444 54.696.376 68.242-.103 29.753 22.963 71.62 32.312 113.485 9.247 41.218-8.257 87.384-28.354 112.463-7.234 9.042-15.184 13.682-20.848 13.204-46.984-3.958-52.717-46.95-59.95-101.44-4.163-31.085-8.428-63.26-21.326-91.854-34.94-77.625-60.291-127.85-116.795-170.945l-1.502-.82c-20.95-8.018-42.173-5.766-56.88-10.577V-59.383l543.443-.375c12.454 0 14.126 3.821 20.404 18.084a248.845 248.845 0 0 0 2.696 6.107c4.333 16.958 112.155 438.316 114.85 449.2 1.638 6.62-1.296 19.006-10.03 29.823-7.03 8.769-35.487 8.973-57.187 8.973H563.18c-30.845 0-34.12 38.08-34.12 68.242z" horiz-adv-x="1024"/><glyph glyph-name="msg" unicode="" d="M512 821.692c-245.077 0-443.733-183.945-443.733-410.863 0-129.366 64.512-244.634 165.273-320.034V-65.81l151.143 82.944A479.445 479.445 0 0 1 511.966-.068c245.077 0 443.733 184.013 443.733 410.897.034 226.85-198.656 410.863-443.699 410.863zm44.066-553.302L443.085 388.915 222.618 268.39l242.517 257.468L580.88 405.3l217.77 120.56-242.583-257.47z" horiz-adv-x="1024"/><glyph glyph-name="msg1" unicode="" d="M512-36.762c-45.26 0-90.112 5.36-133.461 16.009L178.859-128V75.435C64.956 164.25 0 292.455 0 429.602 0 686.762 229.683 896 512 896s512-209.237 512-466.398c0-257.126-229.683-466.364-512-466.364zm0 870.127c-247.057 0-448-181.111-448-403.729 0-122.265 60.484-236.578 165.99-313.685l12.869-9.387V-22.084l127.454 68.437 12.492-3.413a496.299 496.299 0 0 1 129.16-17.033c247.058 0 448 181.146 448 403.763C960 652.254 759.058 833.365 512 833.365zm-82.33-425.472L175.445 268.595 455.134 566.17l133.495-139.264L839.68 566.17 560.026 268.595 429.67 407.893z" horiz-adv-x="1024"/><glyph glyph-name="office" unicode="" d="M924.293 128.11h-51.186V-25.446c0-56.509-45.913-102.371-102.371-102.371H279.352c-56.51 0-122.795-5.324-122.795 51.186V128.11h-51.186C38.216 122.429-13.175 165.22 3 230.482v368.59c0 56.508 45.862 92.134 102.371 92.134h102.372v102.371c0 56.51 15.1 102.372 71.66 102.372h470.91c56.611 0 71.66-45.863 71.66-102.372V691.206c1.996-.256 162.515.204 153.557 0 54.257-3.379 50.725-36.24 51.186-92.135V230.482a102.474 102.474 0 0 0-102.423-102.371zM292.2-75.966h445.214c53.284-2.969 89.524 29.841 84.763 71.506v223.478l-.256 11.516c-1.126 35.267-9.52 51.084-52.72 51.084H260.412c-43.2 0-51.646-15.817-52.721-51.084l-.256-20.423V13.455l.256-38.85c-4.3-41.87 29.892-54.923 84.508-50.572zm427.35 920.679H310.063c-43.712 6.808-54.308-7.269-51.185-51.186V691.154h511.858v102.372c4.043 39.515-6.296 55.025-51.186 51.186zM924.293 639.97H105.32c-35.779-4.863-52.312 1.894-51.185-51.186v-358.3c-5.682-39.619-7.474-53.9 50.418-52.21.767 1.023 51.953 1.023 51.953 1.023v102.372c0 56.56 45.811 51.186 102.372 51.186h511.858c56.458 0 102.371 5.323 102.371-51.186V179.296h51.186c28.152-.87 40.334-2.917 51.186 51.186v358.3c5.323 44.84-1.792 50.93-51.186 51.187zm-92.134-163.744a51.186 51.186 0 1 0 0 102.372 51.186 51.186 0 0 0 0-102.372z" horiz-adv-x="1027"/><glyph glyph-name="ok" unicode="" d="M730.01 375.467c-29.526 0-88.542-59.051-206.644-59.051-118.067 0-177.083 59.05-206.609 59.05-32.426 0-59.016-26.59-59.016-59.05 0-29.457 17.715-44.203 29.525-50.21 35.396-20.65 147.559-67.789 147.559-67.789L307.917 39.014S284.33 12.493 284.33-8.192c0-32.46 26.521-59.05 59.016-59.05a56.32 56.32 0 0 1 44.271 20.65l135.748 156.399L656.213-46.592s14.746-20.65 44.271-20.65c32.461 0 59.017 26.59 59.017 59.05 0 17.647-23.552 47.206-23.552 47.206L611.942 198.417s112.128 47.138 147.525 67.789c11.878 8.943 29.593 20.719 29.593 50.21 0 32.46-26.658 59.05-59.05 59.05zM523.366 818.176a205.346 205.346 0 0 1-206.609-206.61 205.312 205.312 0 0 1 206.61-206.574A205.38 205.38 0 0 1 730.01 611.567a205.346 205.346 0 0 1-206.644 206.609zm0-309.862c-56.115 0-103.253 47.206-103.253 103.253 0 56.081 47.172 103.322 103.253 103.322 56.116 0 103.288-47.241 103.288-103.322 0-56.047-47.172-103.253-103.288-103.253z" horiz-adv-x="1024"/><glyph glyph-name="iphone" unicode="" d="M460.561 805.615h125.44c3.004 0 5.973 2.935 5.973 5.803 0 2.935-2.97 5.87-5.973 5.87h-125.44a5.905 5.905 0 0 1-5.973-5.87c0-3.175 2.662-5.803 5.973-5.803zm-221.013 3.55c0 46.421 38.57 84.002 86.016 84.002H720.93c47.514 0 86.016-37.65 86.016-84.002V-43.998c0-46.421-38.57-84.002-86.016-84.002H325.598c-47.514 0-86.016 37.615-86.016 84.002v853.163zM532.24-104.687c32.973 0 59.733 26.112 59.733 58.368 0 32.222-26.76 58.334-59.733 58.334s-59.733-26.112-59.733-58.334c0-32.222 26.726-58.368 59.733-58.368zM305.254 47.07h441.993v688.537H305.254V47.07z" horiz-adv-x="1024"/><glyph glyph-name="pinterest" unicode="" d="M306.551-65.911c-27.033 184.593 39.732 323.242 70.69 470.528-52.872 85.64 6.35 257.877 117.829 215.347 137.113-52.156-118.818-318.157 52.975-351.437 179.405-34.748 252.62 299.486 141.414 408.132-160.802 156.98-467.9 3.618-430.148-220.979 9.216-54.955 68.096-71.578 23.552-147.388-102.878 21.914-133.564 99.977-129.707 204.015 6.35 170.428 159.096 289.587 312.286 306.074 193.775 20.89 375.57-68.37 400.657-243.746 28.433-197.837-87.347-412.229-294.4-396.8-56.15 4.198-79.701 30.993-123.767 56.763-24.2-122.129-53.726-239.308-141.38-300.51" horiz-adv-x="1024"/><glyph glyph-name="party" unicode="" d="M840.858 435.814c-1.434 1.434-1.434 1.434-9.114 1.434a50.842 50.842 0 0 0-45.056 15.104c-16.538 16.384-16.538 33.331-16.538 44.544 0 7.578-.102 7.578-1.484 9.011-1.383 1.434-1.383 1.434-9.114 1.434-1.382-.256-4.557-.512-7.834-.512-14.336 0-26.47 5.12-37.12 15.667-16.588 16.435-16.588 33.331-16.588 44.493 0 7.526 0 7.526-1.485 9.011-1.434 1.434-1.434 1.434-9.165 1.434a50.893 50.893 0 0 0-7.834-.512c-14.336 0-26.47 5.12-37.17 15.667-16.538 16.384-16.538 33.28-16.538 44.493 0 7.577 0 7.577-1.485 8.96-1.383 1.484-1.383 1.484-9.114 1.484h-5.325c-11.622 0-25.139 1.639-38.195 13.773l-3.584 1.741L816.128 29.747a78.336 78.336 0 0 0 70.86-78.387c0-44.134-35.02-78.694-79.718-78.694H233.523c-44.646 0-79.667 34.56-79.667 78.694 0 40.5 31.027 73.933 70.86 78.285l226.356 568.73a69.376 69.376 0 0 0-21.248-5.53c-6.963-.973-7.27-1.434-8.346-2.765-.102-.563.359-3.174.666-5.222l.46-3.328c1.588-10.752 4.25-28.57-8.703-46.08-12.544-17.152-28.416-21.197-42.138-22.887-6.86-.973-7.219-1.485-8.192-2.713-.102-.512.256-3.072.615-5.12l.512-3.533c1.587-10.65 4.198-28.519-8.704-46.08-14.388-19.405-33.178-21.76-42.24-22.938-6.912-.921-7.22-1.331-8.244-2.662-.153-.615.308-3.123.615-5.223l.46-3.328c1.588-10.65 4.199-28.518-8.703-46.08a24.115 24.115 0 0 0-20.583-10.24 29.03 29.03 0 0 0-13.21 3.79 25.907 25.907 0 0 0-7.833 35.48c.82 1.588.41 4.2.102 6.298l-.46 3.328c-1.588 10.752-4.199 28.57 8.652 46.08 12.596 17.204 28.365 21.248 42.138 22.887 6.912 1.024 7.27 1.485 8.294 2.867.103.46-.307 3.072-.614 5.171l-.512 3.328c-1.536 10.65-4.198 28.519 8.755 46.08 12.647 17.152 28.365 21.197 42.138 22.887 6.86 1.024 7.219 1.433 8.192 2.713.153.615-.256 3.226-.563 5.325l-.512 3.226c-1.639 10.7-4.199 28.57 8.755 46.13 12.595 17.153 28.313 21.198 42.086 22.938 6.963.973 7.27 1.434 8.295 2.663.153.614-.308 3.174-.615 5.273l-.46 3.328a21.504 21.504 0 0 0-.615 2.612 63.488 63.488 0 0 0-26.47 2.508 26.931 26.931 0 0 1-5.274 1.383c-1.178-.256-1.536-1.127-2.048-4.25-2.509-17.408-11.213-30.361-25.754-38.195-13.26-8.448-32.256-6.912-43.212-3.891a34.15 34.15 0 0 1-6.4 1.74c-1.127-.255-1.434-1.075-1.946-4.198a49.357 49.357 0 0 0-25.805-38.246c-13.414-8.5-32.307-7.015-43.315-3.891a32.922 32.922 0 0 1-6.246 1.74c-1.127-.256-1.485-1.126-1.946-4.25a49.408 49.408 0 0 0-25.805-38.194c-5.683-2.816-9.318-2.816-12.493-2.816a26.266 26.266 0 0 0-22.118 11.93c-6.4 15.154-2.15 28.825 9.216 35.48.922.103 1.229 1.025 1.792 4.148a49.357 49.357 0 0 0 25.651 38.195c13.312 8.5 32.359 7.066 43.315 3.891 5.07-1.638 6.093-1.74 6.247-1.792 1.229.308 1.536 1.178 2.048 4.25 2.509 17.408 11.213 30.362 25.702 38.195 13.466 8.602 32.359 6.963 43.367 3.891 4.966-1.587 5.99-1.74 5.99-1.74 1.434.256 1.792 1.126 2.304 4.25 2.509 17.407 11.213 30.36 25.754 38.246 13.516 8.499 32.358 6.963 43.212 3.89 5.07-1.586 6.093-1.689 6.093-1.689 1.434.205 1.792 1.127 2.355 4.25a50.022 50.022 0 0 0 17.204 32.358l-37.99 35.482c-6.452 4.045-10.036 14.336-7.425 24.832 1.28 5.273 5.632 14.592 19.507 18.022l57.754 9.37 25.498 50.33a26.266 26.266 0 0 0 45.004 2.713l26.215-51.61 57.907-8.038c11.213-2.662 15.872-9.626 18.995-14.234 5.94-8.704 4.352-20.172-4.045-28.57l-40.55-40.038 8.294-45.721h5.223a50.586 50.586 0 0 0 45.005-15.155c16.537-16.384 16.537-33.332 16.537-44.544 0-7.527 0-7.527 1.485-9.012 1.382-1.484 1.382-1.484 9.062-1.484a52.173 52.173 0 0 0 45.056-15.053c16.64-16.435 16.64-33.331 16.64-44.595 0-7.578 0-7.578 1.383-8.96 1.485-1.434 1.485-1.434 9.165-1.434a51.2 51.2 0 0 0 45.056-15.104c16.537-16.384 16.537-33.331 16.537-44.493 0-7.577.051-7.629 1.434-9.062 1.382-1.434 1.382-1.434 9.113-1.434 1.434.256 4.506.512 7.834.512a50.688 50.688 0 0 0 37.222-15.667 24.832 24.832 0 0 0 0-35.533 25.088 25.088 0 0 0-35.788.051zM808.55-76.954c16.333 0 28.672 12.186 28.672 28.314a27.853 27.853 0 0 1-28.672 28.365H234.803a27.802 27.802 0 0 1-28.62-28.365c0-16.077 12.287-28.314 28.62-28.314H808.55zM541.9 585.318l-1.638-1.638c-7.168-7.117-7.833-9.216-7.833-12.8 0-3.738.665-5.683 7.833-12.851 8.09-7.987 23.04-22.784 23.04-48.384a65.843 65.843 0 0 0-25.036-48.947c-6.554-6.554-7.22-8.5-7.22-12.237 0-3.687.615-5.581 7.936-12.851 7.988-7.885 22.99-22.682 22.99-48.333a66.048 66.048 0 0 0-25.038-48.999c-6.86-6.81-7.219-7.475-7.219-12.134 0-3.738.666-5.683 7.885-12.902 8.038-7.885 23.091-22.784 23.091-48.333a25.395 25.395 0 0 0-25.497-25.242 24.576 24.576 0 0 0-25.55 25.242c0 3.737-.614 5.632-7.935 12.8-8.09 8.14-22.989 22.937-22.989 48.435 1.638 26.368 15.104 40.55 25.088 48.947 6.81 6.759 7.168 7.424 7.168 12.186 0 3.737-.666 5.683-7.885 12.851-8.038 7.936-23.091 22.733-23.091 48.333 1.638 26.317 15.104 40.55 25.037 48.998 6.758 6.707 7.27 7.424 7.27 12.186 0 3.686-.717 5.785-7.936 12.8a76.902 76.902 0 0 0-19.149 26.931l-204.8-519.373h481.28L541.901 585.318zm-54.63 184.474c5.581-5.58 10.087-15.462 7.066-24.422l-2.406-16.794 16.69 8.806c5.53 2.714 9.166 2.714 12.391 2.714 3.38 0 8.704 0 13.312-3.226l16.23-8.294-3.327 18.483c-1.434 3.789-.205 8.653.512 11.879v5.222l4.25 6.656 13.26 13.056-18.995 2.765a21.709 21.709 0 0 0-20.429 14.797l-7.27 14.848-7.988-16.384c-1.945-5.632-8.09-11.264-16.486-14.03l-20.531-3.122 13.721-12.954z" horiz-adv-x="1024"/><glyph glyph-name="pwd" unicode="" d="M955.733-128H68.267A68.267 68.267 0 0 0 0-59.733V486.4a68.267 68.267 0 0 0 68.267 68.267h887.466A68.267 68.267 0 0 0 1024 486.4V-59.733A68.267 68.267 0 0 0 955.733-128zm0 580.267A34.133 34.133 0 0 1 921.6 486.4H102.4a34.133 34.133 0 0 1-34.133-34.133V-25.6A34.133 34.133 0 0 1 102.4-59.733h819.2A34.133 34.133 0 0 1 955.733-25.6v477.867zm-409.6-229.479v-77.721h-68.266v77.721c-20.31 11.845-34.134 33.587-34.134 58.812a68.267 68.267 0 0 0 136.534 0c0-25.19-13.79-46.967-34.134-58.812zm202.07 331.879c1.604 11.195 2.73 22.528 2.73 34.133a238.933 238.933 0 0 1-477.866 0c0-11.64 1.092-22.972 2.696-34.133h-68.95A304.981 304.981 0 0 0 204.8 588.8a307.2 307.2 0 0 0 614.4 0c0-11.571-.75-22.903-2.014-34.133h-68.983z" horiz-adv-x="1024"/><glyph glyph-name="pwd1" unicode="" d="M955.733-128H68.267A68.267 68.267 0 0 0 0-59.733V486.4a68.267 68.267 0 0 0 68.267 68.267h887.466A68.267 68.267 0 0 0 1024 486.4V-59.733A68.267 68.267 0 0 0 955.733-128zM512 349.867a68.267 68.267 0 0 1-68.267-68.267c0-25.19 13.824-46.967 34.134-58.778v-77.755h68.266v77.755c20.344 11.81 34.134 33.553 34.134 58.778A68.267 68.267 0 0 1 512 349.867zm236.203 204.8c1.604 11.195 2.73 22.528 2.73 34.133a238.933 238.933 0 0 1-477.866 0c0-11.64 1.092-22.972 2.696-34.133h-68.95A305.46 305.46 0 0 0 204.8 588.8C204.8 758.477 342.323 896 512 896s307.2-137.523 307.2-307.2c0-11.571-.75-22.903-2.014-34.133h-68.983z" horiz-adv-x="1024"/><glyph glyph-name="price" unicode="" d="M551.792-126.567c-5.7-.921-11.262-1.433-16.825-1.433-5.494 0-10.989.512-16.483 1.365-17.78 3.071-425.765 79.788-425.765 661.717V685.41c0 25.493 11.194 50.132 30.714 67.537a100.06 100.06 0 0 0 71.803 24.4c2.252-.136 11.228-.58 24.742-.58 25.22 0 74.294 1.57 119.512 12.217 21.568 5.017 67.639 22.763 134.356 85.283 4.334 4.027 7.27 6.143 7.884 6.552a101.015 101.015 0 0 0 106.304.069c5.529-3.55 14.265-10.307 25.22-19.009 29.929-23.684 80.027-63.373 120.843-72.929 45.183-10.613 93.711-12.183 118.624-12.183 13.31 0 22.216.41 24.196.546l7.098.273c24.23 0 47.402-8.736 65.216-24.605 19.52-17.337 30.748-41.942 30.748-67.571V535.082c.035-581.587-410.68-658.646-428.187-661.649zM914.286 685.41c0 7.644-3.413 15.05-9.317 20.271a31.43 31.43 0 0 1-20.92 7.85c-1.74-.035-13.275-.751-31.294-.751-27.847 0-82.177 1.808-133.981 13.923-55.354 12.968-112.687 58.391-146.916 85.522-8.634 6.825-15.39 12.32-19.76 15.084a32.932 32.932 0 0 1-32.215 1.194c-60.097-55.9-116.406-90.401-165.002-101.766-51.805-12.183-106.749-13.992-134.903-13.992-17.746 0-29.076.683-30.202.82a32.898 32.898 0 0 1-22.012-7.884 27.301 27.301 0 0 1-9.317-20.271V535.082c0-528.793 355.942-595.989 371.06-598.583 3.037-.477 7.405-.614 11.228.069 14.981 2.525 373.55 70.062 373.55 598.514V685.41zM651.919 446.148a32.216 32.216 0 0 0-9.657-1.502 30.339 30.339 0 0 0-28.906 19.862c-6.689 19.042-30.85 41.259-76.921 41.259-37.88 0-60.405-24.162-62.998-48.085-3.208-29.417 23.342-53.34 69.209-62.486 94.633-18.872 122.378-79.31 117.362-125.313-5.051-46.72-42.42-85.453-93.132-96.783v-33.274c0-16.005-13.685-29.007-30.51-29.007s-30.509 13.002-30.509 29.007v32.216c-59.892 9.658-93.097 46.856-104.257 78.594a27.574 27.574 0 0 0 1.638 22.148 29.93 29.93 0 0 0 17.644 14.572 32.318 32.318 0 0 0 9.692 1.536c13.104 0 24.742-7.986 28.87-19.862 6.69-19.077 30.851-41.26 76.922-41.26 37.915 0 60.405 24.163 62.998 48.051 3.208 29.383-23.342 53.34-69.209 62.486-94.633 18.906-122.378 79.345-117.361 125.382 5.05 46.685 42.42 85.385 93.131 96.749v33.205c0 16.04 13.651 29.076 30.476 29.076s30.509-13.036 30.509-29.076v-32.147c59.892-9.658 93.132-46.822 104.257-78.56a27.574 27.574 0 0 0-1.638-22.148 29.758 29.758 0 0 0-17.61-14.64z" horiz-adv-x="1024"/><glyph glyph-name="qrcode" unicode="" d="M78.78-49.22h315.05H78.78zm78.745 236.27h157.526V29.526H157.525v157.526zm393.83 157.56h78.78V29.56h-78.78v315.05zM0-128h472.61v472.61H0V-128zm78.78 78.78v315.119h315.05v-315.12H78.78zm472.576 0H708.88V-128H551.356v78.78zM945.22 187.05H1024v-78.78h-78.78v78.78zM787.695 344.61H1024v-78.745H787.695v78.745zm-78.78 393.865h157.56V580.949h-157.56v157.526zM1024 896H551.356V423.39H1024V896zm-78.78-393.83H630.101v315.05h315.12V502.17zM0 423.39h472.61V896H0V423.39zm78.78 393.83h315.05V502.17H78.78v315.05zM945.22-49.22H787.695V-128H1024V29.525h-78.78V-49.22zM708.915 187.05V29.526h157.56v78.78h-78.78v78.746h-78.78zm-551.39 551.425h157.526V580.949H157.525v157.526z" horiz-adv-x="1024"/><glyph glyph-name="search" unicode="" d="M1013.248-66.833a35.635 35.635 0 1 0-50.415-50.415L761.071 84.48c-.205.239-.273.546-.478.717a458.752 458.752 0 0 0-299.52-111.07c-254.498 0-460.8 206.336-460.8 460.8 0 254.498 206.302 460.8 460.8 460.8 254.464 0 460.8-206.302 460.8-460.8 0-114.45-41.984-218.931-111.07-299.52.205-.205.512-.273.717-.478l201.728-201.762zM461.073 827.494c-216.815 0-392.533-175.752-392.533-392.533 0-216.815 175.718-392.533 392.533-392.533S853.606 218.146 853.606 434.96c0 216.78-175.752 392.533-392.533 392.533z" horiz-adv-x="1024"/><glyph glyph-name="reddit" unicode="" d="M989.867 375.398a103.253 103.253 0 0 0-58.13-93.354c4.267-16.077 6.418-32.87 6.418-50.347 0-54.204-18.978-104.414-56.832-150.528S791.825-1.434 726.39-28.16C660.958-54.886 589.892-68.3 513.058-68.3c-76.8 0-147.797 13.414-213.06 40.14C234.769-1.434 183.194 35.055 145.34 81.17c-37.854 46.147-56.798 96.323-56.798 150.527 0 16.418 1.945 32.87 5.87 49.289a105.677 105.677 0 0 0-43.724 38.57 100.489 100.489 0 0 0-16.555 55.877c0 28.637 10.309 53.248 30.925 73.66 20.617 20.48 45.705 30.685 75.196 30.685 30.208 0 56.013-11.025 77.312-33.04 77.517 53.145 169.062 81.441 274.603 84.957l61.883 273.237a17.75 17.75 0 0 0 7.987 11.025 17.75 17.75 0 0 0 13.859 2.629l196.778-42.496c6.383 12.97 15.975 23.38 28.775 31.232 12.8 7.85 26.863 11.81 42.12 11.81 22.05 0 40.892-7.612 56.525-22.801 15.667-15.224 23.484-33.69 23.484-55.365a75.093 75.093 0 0 0-23.484-55.603 77.62 77.62 0 0 0-56.525-23.074 77.312 77.312 0 0 0-56.252 22.835 74.752 74.752 0 0 0-23.21 55.33L586 779.264l-55.432-247.57c106.632-3.173 198.894-31.129 276.753-83.899 20.616 21.334 46.045 31.983 76.253 31.983 29.492 0 54.58-10.24 75.196-30.686 20.617-20.446 30.925-45.022 30.925-73.66l.17-.034zm-732.74-104.38c0-21.708 7.748-40.243 23.21-55.603a76.8 76.8 0 0 1 56.252-23.142 77.824 77.824 0 0 1 56.525 23.142c15.633 15.36 23.483 33.895 23.483 55.604 0 21.674-7.816 40.106-23.483 55.33a78.2 78.2 0 0 1-56.525 22.8c-21.709 0-40.346-7.713-56.013-23.073-15.633-15.36-23.45-33.724-23.45-55.057zM689.083 84.822a18.5 18.5 0 0 1 5.837 13.62 18.569 18.569 0 0 1-5.837 13.619 18.261 18.261 0 0 1-13.312 5.222 20.207 20.207 0 0 1-13.858-5.222c-14.61-14.712-36.08-25.532-64.547-32.53-28.467-6.963-56.9-10.478-85.333-10.478s-56.866 3.515-85.333 10.479c-28.467 6.997-49.971 17.817-64.546 32.529a20.207 20.207 0 0 1-13.858 5.222 18.261 18.261 0 0 1-13.312-5.222 17.306 17.306 0 0 1-5.837-13.38c0-5.428 1.945-10.036 5.837-13.893 15.291-14.984 36.352-26.931 63.214-35.67 26.83-8.737 48.606-13.857 65.332-15.462a507.836 507.836 0 0 1 97.075 0c16.691 1.536 38.502 6.725 65.331 15.463 26.829 8.806 47.89 20.685 63.18 35.67h-.033v.033zm-1.57 107.554c22.05 0 40.755 7.715 56.251 23.075 15.463 15.394 23.245 33.928 23.245 55.603a74.41 74.41 0 0 1-23.484 55.057 77.005 77.005 0 0 1-55.978 23.074 78.165 78.165 0 0 1-56.56-22.801 74.342 74.342 0 0 1-23.483-55.33 75.093 75.093 0 0 1 23.484-55.603c15.599-15.395 34.474-23.075 56.525-23.075z" horiz-adv-x="1024"/><glyph glyph-name="star" unicode="" d="M1004.213 439.896l-179.27-182.203c-12.28-12.281-17.91-30.43-14.805-47.35L852.85-47.15a66.659 66.659 0 0 0-15.556-56.8c-10.098-14.84-27.94-23.982-48.1-23.982-10.064 0-19.616 2.388-30.09 7.608L537.432 1.394c-17.91 9.04-34.558 7.88-47.726.205L268.237-120.086a66.522 66.522 0 0 0-30.566-7.812 67 67 0 0 0-49.704 23.198c-12.997 14.874-18.524 34.898-15.59 56.459l42.71 257.628a53.798 53.798 0 0 1-14.668 47.487L20.194 439.998a68.808 68.808 0 0 0-16.34 71.162 66.045 66.045 0 0 0 52.535 45.406L303.75 594.5c16.716 2.525 31.214 13.51 38.788 29.338l110.597 234.295c11.633 24.12 33.295 37.901 59.495 37.901 25.45 0 47.964-14.567 58.778-38.037L681.972 623.77c7.54-15.76 22.072-26.745 38.822-29.27l247.258-37.866a65.67 65.67 0 0 0 52.706-45.781 69.251 69.251 0 0 0-16.545-70.957zM287.955 197.277L247.36-47.696 454.534 65.87c33.398 20.127 80.236 20.98 118.444.921L780.39-47.286 740.546 197.31a127.791 127.791 0 0 0 35.069 111.86l173.163 175.96-238.15 36.4a125.778 125.778 0 0 0-94.667 70.923l-102.546 217.58-103.23-217.58a125.983 125.983 0 0 0-94.768-70.922l-236.854-36.4 174.391-176.028a127.723 127.723 0 0 0 35.001-111.826z" horiz-adv-x="1024"/><glyph glyph-name="sports" unicode="" d="M889.856 689.869l.358.358-12.134 13.927-4.966 5.376-3.79 4.096a414.566 414.566 0 0 1-13.106 13.721l-2.304 2.202a486.707 486.707 0 0 1-64 53.299c-2.407 1.69-4.813 3.43-7.27 5.069-3.38 2.304-6.862 4.454-10.343 6.656a500.685 500.685 0 0 1-11.11 6.912l-8.602 4.966c-4.608 2.611-9.114 5.171-13.773 7.629a659.046 659.046 0 0 1-23.194 11.469l-5.785 2.662a465.408 465.408 0 0 1-18.074 7.629c-1.536.666-3.174 1.229-4.659 1.843a706.1 706.1 0 0 1-19.814 7.22l-3.738 1.228a434.688 434.688 0 0 1-21.094 6.4l-3.124.922a443.238 443.238 0 0 1-21.964 5.376l-2.868.665c-7.372 1.536-14.745 2.97-22.22 4.25l-3.124.563a622.797 622.797 0 0 1-21.862 2.97l-3.789.46a486.4 486.4 0 0 1-21.35 1.741c-1.485.052-2.97.256-4.506.359a539.034 539.034 0 0 1-51.456-.051c-1.536-.052-3.02-.256-4.505-.359a486.4 486.4 0 0 1-21.35-1.74l-3.79-.461a591.492 591.492 0 0 1-21.862-2.97l-3.123-.512c-7.424-1.28-14.797-2.714-22.17-4.25l-2.867-.665a458.138 458.138 0 0 1-21.965-5.427l-3.072-.922a436.634 436.634 0 0 1-24.832-7.578c-6.656-2.252-13.26-4.608-19.763-7.168l-4.71-1.843c-6.042-2.457-12.084-4.966-18.023-7.629l-5.888-2.662c-5.376-2.509-10.7-5.12-16.025-7.782l-7.168-3.687c-4.608-2.406-9.165-5.017-13.722-7.629l-8.602-4.966c-3.737-2.253-7.475-4.608-11.11-6.912-3.482-2.202-6.963-4.352-10.394-6.656l-7.219-5.069a491.213 491.213 0 0 1-64.051-53.299l-2.253-2.202a473.958 473.958 0 0 1-16.896-17.868c-1.587-1.844-3.328-3.533-4.915-5.376l-12.186-13.927.359-.358A484.198 484.198 0 0 1 25.6 384.05c0-268.134 218.163-486.4 486.4-486.4s486.349 218.266 486.349 486.4a484.198 484.198 0 0 1-108.493 305.82zm-26.47-576.973A486.605 486.605 0 0 1 533.043 262.81v96.102h422.349a441.651 441.651 0 0 0-92.006-246.016zM68.556 358.912h422.298V262.81a486.502 486.502 0 0 1-330.342-149.914 441.6 441.6 0 0 0-91.955 246.016zm127.745 337.254l3.737 3.79c3.84 3.788 7.783 7.474 11.776 11.212l4.148 3.789c3.942 3.481 7.884 6.912 11.93 10.291l5.068 4.096a395.11 395.11 0 0 0 28.877 21.504c2.867 1.997 5.785 3.84 8.704 5.734 3.02 1.997 5.99 3.994 9.062 5.888 3.994 2.407 8.039 4.71 12.083 7.066 2.1 1.178 4.148 2.458 6.298 3.635a467.66 467.66 0 0 0 18.995 9.83 443.546 443.546 0 0 0 173.875 44.647V552.755a444.672 444.672 0 0 0-300.339 137.319c1.895 2.048 3.789 4.096 5.786 6.092zm513.024 85.658c5.58-2.765 11.161-5.632 16.589-8.653l6.4-3.635c3.993-2.355 8.038-4.66 11.98-7.066 3.124-1.894 6.093-3.89 9.114-5.836 2.918-1.895 5.837-3.738 8.704-5.735a715.776 715.776 0 0 0 17.254-12.39 702.71 702.71 0 0 0 11.623-9.114l5.017-4.147a332.134 332.134 0 0 0 16.077-14.131c3.994-3.687 7.885-7.424 11.827-11.162 1.178-1.28 2.51-2.509 3.738-3.789l5.734-6.041a444.16 444.16 0 0 0-300.339-137.267v274.841a442.675 442.675 0 0 0 173.875-44.646c.82-.41 1.588-.87 2.407-1.229zm-218.47-271.258V401.101H68.25a441.651 441.651 0 0 0 94.566 256.973 486.246 486.246 0 0 1 328.038-147.508zm0-564.838a443.904 443.904 0 0 0-300.493 137.42 444.518 444.518 0 0 0 300.492 137.473V-54.272zm42.24 274.893A444.211 444.211 0 0 0 833.586 83.149 443.904 443.904 0 0 0 533.094-54.272v274.893zm0 180.48v109.465a486.451 486.451 0 0 1 328.089 147.508A441.856 441.856 0 0 0 955.75 401.1H533.094z" horiz-adv-x="1024"/><glyph glyph-name="tax" unicode="" d="M930.406 276.173C806.912-40.926 567.057-115.814 520.226-127.59l-.512-.137H507.46C422.263-107.417 213.47-27.58 93.355 276.207c-46.353 116.77-72.124 260.232-76.493 426.36 0 35.19 19.456 65.672 49.527 77.79 134.35 63.146 416.7 115.37 446.976 115.37 21.948 0 314.3-53.077 447.147-115.473 24.917-12.527 49.425-46.831 46.353-77.995-3.004-115.575-18.705-283.58-76.459-426.086zm-33.109 444.109c-111.172 52.292-365.773 99.328-384.136 99.328-25.976 0-268.46-44.92-384.24-99.363-23.312-9.386-38.195-32.904-38.195-60.074 3.79-142.916 25.908-266.308 65.707-366.626C259.21 33.553 437.248-34.51 509.03-51.712l9.25.137c38.913 9.932 243.474 73.864 349.082 345.053 49.63 122.505 63.147 267.094 65.74 366.797 2.288 23.723-17.032 50.586-35.805 60.007zm-143.53-405.675l-42.155 99.055-41.78-99.055H605.15l72.875 147.797-67.14 144.487h65.057l37.684-94.55 37.273 94.55h64.273l-67.96-144.487 72.875-147.797h-66.32zm-226.1 61.815h-77.79l-13.516-61.815h-61.406l77.38 292.284h72.875l77.38-292.284h-61.406l-13.517 61.815zm-38.502 179.712h-.82l-28.262-131.413h57.31l-28.228 131.413zM306.074 314.607h-58.949v243.985h-63.863v48.299h186.675v-48.299h-63.863V314.607z" horiz-adv-x="1024"/><glyph glyph-name="star1" unicode="" d="M795.639-127.966a54.612 54.612 0 0 0-25.053 6.485L543.914 3.068a69.118 69.118 0 0 1-30.788 8.089c-10.512 0-21.06-2.423-30.753-8.09L255.735-121.48a54.953 54.953 0 0 0-25.087-6.485c-15.393 0-30.753 7.27-41.3 19.387-11.332 12.97-15.393 29.934-12.97 47.717l43.69 263.74a67.65 67.65 0 0 1-18.603 59.8L16.913 450.37a58.093 58.093 0 0 0-13.756 59.8 55.294 55.294 0 0 0 43.724 38.057l253.397 38.842a66.25 66.25 0 0 1 49.355 37.17l113.319 240.223c9.728 20.206 27.51 31.538 49.39 31.538 21.059 0 39.66-12.117 48.57-31.538l113.352-240.223c9.66-20.24 28.33-33.961 49.321-37.17l253.432-38.842a53.997 53.997 0 0 0 43.69-38.057 58.161 58.161 0 0 0-13.756-59.8L823.183 263.496a67.752 67.752 0 0 1-18.602-59.833l43.69-263.706a55.738 55.738 0 0 0-12.97-47.648 47.102 47.102 0 0 0-39.662-20.275z" horiz-adv-x="1024"/><glyph glyph-name="tools" unicode="" d="M1025.69 674.15H894.003c-10.24 57.959-57.395 96.717-121.753 96.717H742.4v24.218a24.115 24.115 0 0 1-23.91 24.166H191.334c-65.075 0-117.964-53.606-117.964-119.296v-99.84c0-65.843 40.704-139.264 105.779-139.264h25.805l-78.695-318.566h-76.8a24.064 24.064 0 0 1-23.91-24.167V42.496c0-51.66 41.677-93.696 92.62-93.696h340.48C509.697-51.2 537.6-.41 537.6 51.2v51.2c0 13.414 2.867 39.834-10.291 39.834h-64.973L541.03 460.8H742.4c13.107 0 0 30.72 0 44.083v24.167h17.92c68.096 0 121.395 40.192 133.325 96.716h132.096a24.166 24.166 0 1 1-.051 48.384zM486.4 102.4V51.2c0-24.986-2.918-54.118-27.75-54.118H118.17a45.107 45.107 0 0 0-44.8 45.414v51.405l3.43 8.499h49.715l.154-.358c.41.153.41.358 1.331.358h358.4zm-73.267 39.834H175.667L281.6 460.8h204.8l-73.267-318.566zM691.2 512h-512c-38.707 0-58.01 48.947-58.01 88.064v99.738c0 39.168 31.488 71.065 70.196 71.065l503.244-.051L691.2 512zm69.12 65.434H742.4v145.1h29.85c47.052 0 76.134-27.801 76.134-72.55 0-47.155-45.26-72.55-88.064-72.55z" horiz-adv-x="1049"/><glyph glyph-name="toys" unicode="" d="M896.768 384h-5.376C877.363 537.6 768 633.344 614.4 639.283v22.835c51.2-.716 115.507 45.978 115.507 105.063 0 57.958-47.053 105.113-106.957 105.113-30.72 0-58.828-12.544-79.206-34.15a109.26 109.26 0 0 1-79.77 34.15C404.122 872.294 352 825.14 352 767.181c0-59.085 57.6-107.11 108.8-105.063v-22.835c-153.6-5.939-255.642-112.64-268.851-249.6C82.483 376.781 0 285.645 0 177.971V76.8h118.784C132.198-25.6 189.491-31.846 256.307-31.846S380.416-25.6 393.83 76.8h237.21C644.557-25.6 701.798-31.846 768.563-31.846c66.867 0 124.109 6.246 137.523 108.646H1024v194.253C1024 337.459 965.427 384 896.768 384zM624.742 817.05c28.672 0 51.712-22.426 51.712-50.074s-23.04-50.022-51.712-50.022c-28.416 0-51.61 22.425-51.61 50.022s23.246 50.074 51.61 50.074zM563.2 588.8h45.62c115.097 0 211.865-102.4 225.791-204.8H563.2v204.8zm-38.144 91.136a114.658 114.658 0 0 1 19.66 16.282c5.838-6.196 12.442-11.725 19.61-16.333v-40.397h-39.27v40.448zm-60.518 37.171c-28.468 0-51.661 22.426-51.661 50.074 0 27.597 23.193 50.022 51.66 50.022 28.519 0 51.713-22.425 51.713-50.022 0-27.648-23.194-50.074-51.712-50.074zM480.614 588.8H512V384H254.669C268.8 486.4 365.517 588.8 480.614 588.8zM256.512 3.942c-46.131 0-83.712 36.352-83.712 81.05 0 44.749 37.58 81.152 83.712 81.152 46.182 0 83.712-36.403 83.712-81.152 0-44.698-37.53-81.05-83.712-81.05zm512.307 0c-46.131 0-83.763 36.352-83.763 81.05 0 44.749 37.58 81.152 83.763 81.152 46.131 0 83.712-36.403 83.712-81.152-.051-44.698-37.58-81.05-83.712-81.05zM972.8 128h-66.509c-13.414 51.2-70.707 108.646-137.523 108.646S644.71 179.2 631.194 128H394.035c-13.414 51.2-70.707 108.646-137.574 108.646-66.765 0-124.109-57.446-137.472-108.646H51.2v51.2c.102 51.2 27.085 84.48 33.587 92.006 42.394 45.568 83.456 61.594 139.879 61.594h672.307c37.273 0 75.827-25.856 75.827-61.952V128z" horiz-adv-x="1024"/><glyph glyph-name="video" unicode="" d="M512-128C229.24-128 0 101.24 0 384s229.24 512 512 512 512-229.24 512-512-229.24-512-512-512zm0 955.733C266.923 827.733 68.267 629.077 68.267 384S266.923-59.733 512-59.733 955.733 138.923 955.733 384 757.077 827.733 512 827.733zm215.654-489.745L480.358 155c-8.84-6.45-18.295-10-27.613-10-21.436 0-43.077 18.329-43.077 53.384v371.234c-.068 50.313 41.472 64.853 70.69 43.384l247.296-183.023C742.468 419.089 750.9 402.295 750.9 384c0-18.33-8.43-35.123-23.245-46.012zM477.97 520.226V247.194l204.97 136.499-204.97 136.533z" horiz-adv-x="1024"/><glyph glyph-name="twitter" unicode="" d="M892.382 581.12c.341-8.533.58-17.135.58-25.737 0-261.973-197.359-563.95-558.387-563.95-110.831 0-214.016 32.802-300.783 89.053a392.875 392.875 0 0 1 290.543 82.057c-85.88 1.604-158.379 58.948-183.364 137.66a193.946 193.946 0 0 1 88.61 3.379c-89.737 18.193-157.355 98.27-157.355 194.32v2.459a194.253 194.253 0 0 1 88.883-24.713A198.451 198.451 0 0 0 73.83 640.546c0 36.386 9.66 70.417 26.556 99.738 96.734-119.979 241.357-198.861 404.412-207.19a199.168 199.168 0 0 0-5.052 45.193c0 109.466 87.86 198.246 196.233 198.246a195.243 195.243 0 0 0 143.223-62.6 389.12 389.12 0 0 1 124.62 48.094 198.93 198.93 0 0 0-86.322-109.67 390.485 390.485 0 0 1 112.742 31.197 399.701 399.701 0 0 0-97.86-102.434z" horiz-adv-x="1024"/><glyph glyph-name="warning" unicode="" d="M512-128C229.205-128 0 101.24 0 384s229.205 512 512 512c282.76 0 512-229.24 512-512S794.76-128 512-128zm0 955.733C266.923 827.733 68.267 629.077 68.267 384S266.923-59.733 512-59.733 955.733 138.923 955.733 384 757.077 827.733 512 827.733zM512 128a42.667 42.667 0 1 0 0 85.333A42.667 42.667 0 0 0 512 128zm0 149.333c-23.518 0-42.667 19.115-42.667 42.667v277.333c0 23.518 19.15 42.667 42.667 42.667s42.564-19.183 42.667-42.667V320A42.735 42.735 0 0 0 512 277.333z" horiz-adv-x="1024"/><glyph glyph-name="vk" unicode="" d="M485.205 67.038h53.863s41.677 13.653 51.131 24.2c8.67 9.66 8.397 27.853 8.397 27.853s-1.194 85.06 36.898 97.587c37.581 12.357 85.777-82.193 136.91-118.613 38.604-27.546 63.214-31.061 63.214-31.061h134.827s78.097 16.145 44.168 74.41c-2.73 4.745-19.695 43.145-101.58 121.89-85.71 82.433-74.206 69.086 29.013 211.764 62.873 86.903 87.996 139.878 80.145 162.61-7.51 21.71-53.726 15.975-53.726 15.975l-159.812.137s-5.496.478-13.927-4.745c-8.294-5.154-13.585-17.135-13.585-17.135s-24.337-67.208-56.832-124.381c-68.505-120.628-93.15-140.596-104.345-133.12-26.044 17.476-26.966 74.342-26.966 111.752 0 116.907 21.743 175.036-28.672 187.665-16.69 4.199-36.352 7.475-79.12 7.92-54.921.613-94.072-.684-120.355-14.064-17.51-8.875-30.993-28.706-22.767-29.867 10.172-1.399 33.178-6.417 45.398-23.654 15.77-22.255 15.223-72.192 15.223-72.192s4.847-150.528-25.327-167.595c-20.719-11.741-45.022 25.123-106.052 134.52-31.3 56.08-54.955 118.033-54.955 118.033s-4.574 11.64-12.732 17.818c-9.83 7.475-14.984 9.045-14.984 9.045l-154.863-.137s-21.948-.648-30.003-10.547c-7.168-8.806-.546-27-.546-27s114.483-277.674 244.053-417.62C366.148 70.143 485.206 67.037 485.206 67.037z" horiz-adv-x="1024"/><glyph glyph-name="warehouse" unicode="" d="M989.491 382.413a28.16 28.16 0 0 0-15.309-4.813 23.091 23.091 0 0 0-16.844 7.22L530.125 814.13a26.214 26.214 0 0 1-18.483 8.039 25.6 25.6 0 0 1-18.484-8.039L65.946 386.458a23.142 23.142 0 0 0-16.896-7.22 22.426 22.426 0 0 0-16.077 6.452 18.637 18.637 0 0 0-7.27 15.257 24.576 24.576 0 0 0 7.27 19.303l424.755 427.724a74.445 74.445 0 0 0 53.094 22.477c20.122 0 38.605-8.038 53.095-22.477L991.13 418.662c4.812-4.812 7.27-11.264 7.27-18.483a23.808 23.808 0 0 0-8.909-17.766zM486.4 307.2H281.6V512h460.8V307.2h-256zm0 153.6H332.8V358.4h153.6v102.4zm204.8 0H537.6V358.4h153.6v102.4zm-546.406-47.82c13.67 0 24.115-10.446 24.115-24.116v-417.28c0-14.438 11.264-25.702 25.753-25.702h176.18v45.824a140.902 140.902 0 0 0 140.8 140.697A141.312 141.312 0 0 0 652.39-8.294v-45.824h176.18c14.49 0 25.804 11.264 25.804 25.702v417.28c0 13.67 10.394 24.115 24.116 24.115 13.721 0 17.51 10.291 17.51-3.379V-51.2c0-41.011-26.368-51.149-67.38-51.149H604.212v94.874a92.57 92.57 0 0 1-185.088 0v-94.874h-224.46c-41.012 0-66.714 10.138-66.714 51.149v460.8c.051 13.67 3.174 3.38 16.845 3.38z" horiz-adv-x="1024"/><glyph glyph-name="watch" unicode="" d="M932.864 463.667h-57.396c-22.681 98.457-86.425 182.579-173.414 235.724l-35.481 178.125a24.78 24.78 0 0 1-23.86 18.483H328.397a24.166 24.166 0 0 1-23.757-18.483L269.107 699.39C159.335 632.421 86.631 516.044 86.631 384c0-131.942 72.755-248.063 182.476-314.982l35.482-178.124c2.048-10.906 12.032-18.79 23.757-18.893h314.316a24.064 24.064 0 0 1 23.86 18.893l35.481 178.124c86.835 53.044 150.681 137.114 173.414 235.367h57.395c13.364 0 24.218 10.188 24.218 22.732v113.818c0 12.493-10.854 22.733-24.166 22.733zM348.416 850.533h274.278l24.525-123.391A418.61 418.61 0 0 1 485.53 759.5a418.61 418.61 0 0 1-161.689-32.358l24.576 123.391zM622.694-82.483H348.416L323.84 40.909a419.532 419.532 0 0 1 323.38 0L622.693-82.483zM485.53 54.067c-193.895 0-350.566 147.456-350.566 329.932S291.635 713.983 485.53 713.983c193.894 0 350.617-147.456 350.617-329.984 0-182.476-156.672-329.932-350.617-329.932zm423.116 295.782h-25.651c1.075 11.315 1.485 22.528 1.485 34.15a376.832 376.832 0 0 1-1.485 34.15h25.651v-68.3zm-274.432-43.11l-128.41 79.564v244.583c0 11.776-10.956 22.067-23.449 22.067-12.544 0-23.5-10.291-23.5-22.067V375.96c0-7.424 4.71-14.745 10.956-19.2l139.315-86.937c4.71-2.97 7.783-2.97 12.493-2.97a23.296 23.296 0 0 1 20.378 10.291 20.89 20.89 0 0 1-7.783 29.594z" horiz-adv-x="1024"/><glyph glyph-name="whatsapp" unicode="" d="M520.055 827.733c58.949 0 115.269-11.468 168.995-34.372 53.725-22.938 100.079-53.726 138.99-92.33 38.878-38.605 69.871-84.549 93.014-137.9a417.963 417.963 0 0 0 34.68-167.696c0-58.47-11.572-114.381-34.68-167.697-23.143-53.317-54.136-99.26-93.082-137.865-38.878-38.605-85.197-69.359-138.922-92.33A426.189 426.189 0 0 0 520.055-36.83c-75.093 0-145.408 17.954-210.91 53.897l-240.878-76.8 78.575 232.209c-41.609 67.993-62.396 142.37-62.396 222.993 0 58.47 11.537 114.38 34.68 167.697 23.108 53.35 54.1 99.294 93.013 137.899 38.912 38.604 85.23 69.393 138.99 92.33a426.803 426.803 0 0 0 168.926 34.338m0-792.337c48.914 0 95.813 9.523 140.698 28.672 44.851 19.08 83.49 44.715 115.883 76.834 32.324 32.12 58.129 70.417 77.38 114.961 19.183 43.998 29.013 91.58 28.91 139.572 0 48.537-9.625 95.061-28.91 139.605-19.251 44.544-45.056 82.842-77.38 114.961-32.359 32.085-70.998 57.72-115.883 76.8a356.01 356.01 0 0 1-140.698 28.672c-48.913 0-95.812-9.557-140.697-28.672-44.885-19.115-83.49-44.715-115.849-76.8-32.324-32.12-58.095-70.417-77.38-114.961a348.297 348.297 0 0 1-28.91-139.605c0-77.585 23.107-147.9 69.358-210.978l-45.67-133.564 139.81 44.134c60.894-39.765 127.317-59.63 199.338-59.63m117.317 303.888c4.983 0 23.79-8.396 56.32-25.19 32.563-16.862 49.766-26.931 51.712-30.413.75-1.945 1.16-4.779 1.16-8.601 0-12.596-3.31-27.136-9.83-43.555-6.144-14.916-19.797-27.443-40.994-37.58-21.197-10.138-40.824-15.19-58.914-15.19-22.016 0-58.573 11.879-109.807 35.601a329.557 329.557 0 0 0-98.202 67.584c-27.75 27.921-56.218 63.284-85.504 106.087-27.716 40.891-41.404 77.96-41.028 111.206v4.608c1.16 34.782 15.428 64.956 42.769 90.556 9.25 8.397 19.251 12.63 30.037 12.63 2.287 0 5.769-.308 10.41-.854 4.643-.58 8.295-.853 10.992-.853 7.304 0 12.424-1.263 15.292-3.721 2.9-2.492 5.87-7.748 8.977-15.77 3.072-7.645 9.42-24.473 19.046-50.449 9.66-26.01 14.438-40.345 14.438-43.008 0-8.021-6.621-19.012-19.933-32.972-13.278-13.961-19.9-22.836-19.9-26.659.102-3.072 1.126-6.075 2.867-8.601 13.107-27.887 32.734-54.067 58.948-78.541 21.573-20.241 50.654-39.526 87.245-57.89 4.642-2.663 8.875-3.994 12.698-3.994 5.802 0 16.213 9.285 31.232 27.819 14.916 18.466 24.917 27.75 29.969 27.75" horiz-adv-x="1024"/><glyph glyph-name="youtube" unicode="" d="M815.275 699.87c-143.531 9.352-463.19 9.318-606.516 0-155.204-10.104-173.465-99.5-174.626-334.814C35.293 130.185 53.385 40.38 208.76 30.242c143.36-9.318 462.985-9.318 606.516 0 155.17 10.104 173.431 99.499 174.592 334.814-1.16 234.906-19.286 324.71-174.592 334.814zM392.533 213.163v303.82L711.1 365.33 392.533 213.163z" horiz-adv-x="1024"/><glyph glyph-name="arrow-up" unicode="" d="M958.771 122.027L512.512 564.395 66.287 122.027c-7.373-7.305-17.067-11.298-27.512-11.298a38.707 38.707 0 0 0-38.81 38.434c0 10.308 3.96 19.934 11.299 27.204l473.77 469.572a38.57 38.57 0 0 0 27.478 11.332c10.377 0 20.173-3.993 27.511-11.264l473.737-469.64a39.15 39.15 0 0 0 0-54.374c-7.339-7.27-17.135-11.264-27.511-11.264s-20.173 3.993-27.478 11.298z" horiz-adv-x="1024"/><glyph glyph-name="arrows-small-left" unicode="" d="M418.1 400.725l152.712 144.726a25.668 25.668 0 0 0 35.089 0 22.733 22.733 0 0 0-.034-33.417L470.8 384l135.066-128a22.767 22.767 0 0 0 1.126-32.256c-.341-.444-.717-.75-1.126-1.126a25.702 25.702 0 0 0-35.124 0L418.1 367.343a22.767 22.767 0 0 0 0 33.382z" horiz-adv-x="1024"/><glyph glyph-name="arrow-right" unicode="" d="M235.75-62.095l442.055 445.944L235.75 829.76c-7.265 7.368-11.29 17.055-11.29 27.493a38.68 38.68 0 0 0 38.407 38.782c10.3 0 19.92-3.957 27.185-11.29l469.241-473.437c7.334-7.333 11.324-17.088 11.324-27.458 0-10.369-3.99-20.158-11.256-27.492L290.051-117.01a39.123 39.123 0 0 0-54.336 0c-7.265 7.333-11.256 17.123-11.256 27.492s4.025 20.125 11.29 27.424z" horiz-adv-x="1024"/><glyph glyph-name="arrows-small-right" unicode="" d="M606.993 399.599a22.699 22.699 0 0 0-1.126-32.29L453.29 222.618a25.737 25.737 0 0 0-36.284 1.126A22.767 22.767 0 0 0 418.133 256L553.2 384 418.133 512l-1.263 1.229a22.767 22.767 0 0 0 1.23 32.222 25.77 25.77 0 0 0 35.122 0l152.645-144.726a5.018 5.018 0 0 0 1.126-1.126z" horiz-adv-x="1024"/><glyph glyph-name="arrows-small-up" unicode="" d="M496.401 479.027a22.699 22.699 0 0 0 32.29-1.126l144.726-152.576a25.702 25.702 0 0 0-1.127-36.25 22.733 22.733 0 0 0-32.256 1.127L512 425.233 384 290.167c-.41-.477-.82-.853-1.229-1.262a22.767 22.767 0 0 0-32.222 1.194 25.77 25.77 0 0 0 0 35.123l144.726 152.645a5.222 5.222 0 0 0 1.126 1.16z" horiz-adv-x="1024"/><glyph glyph-name="arrows-small-down" unicode="" d="M495.275 290.1L350.549 442.777a25.77 25.77 0 0 0 0 35.123 22.767 22.767 0 0 0 33.451-.034L512 342.8l128 135.066a22.801 22.801 0 0 0 32.29 1.126c.41-.341.751-.717 1.127-1.126a25.737 25.737 0 0 0 0-35.158L528.69 290.1a22.767 22.767 0 0 0-32.29-1.126c-.41.307-.75.717-1.126 1.126z" horiz-adv-x="1024"/><glyph glyph-name="arrow-down1" unicode="" d="M65.57 645.973l446.26-442.368 446.224 442.368c7.373 7.305 17.067 11.298 27.512 11.298a38.707 38.707 0 0 0 38.81-38.434c0-10.308-3.96-19.934-11.299-27.204l-473.77-469.572a38.57 38.57 0 0 0-27.478-11.332 38.912 38.912 0 0 0-27.511 11.264L10.615 591.633a39.15 39.15 0 0 0 0 54.374c7.305 7.27 17.101 11.264 27.478 11.264 10.376 0 20.173-3.993 27.477-11.298z" horiz-adv-x="1024"/><glyph glyph-name="lever" unicode="" d="M900.37 625.39l-11.88 28.57-21.845-21.879-107.861-107.725a75.025 75.025 0 0 0-106.052-4.54 75.025 75.025 0 0 0-.069 110.558l129.741 129.707-28.672 11.776A269.79 269.79 0 0 1 401.135 420.08L131.209 150.426A103.936 103.936 0 0 1 278.255 3.686L548.18 273.271a272.677 272.677 0 0 1 102.742-20.206A269.62 269.62 0 0 1 900.369 625.39zm-87.928-264.43a226.645 226.645 0 0 0-161.588-66.901 230.707 230.707 0 0 0-98.44 22.152l-13.176 6.28L249.105 32.359a62.805 62.805 0 0 0-88.78 88.747l290.133 290.133-6.247 13.142a228.693 228.693 0 0 0 263.441 319.488l-84.24-84.173a116.326 116.326 0 0 1 164.556-164.42l84.275 84.207a227.635 227.635 0 0 0-59.801-218.522z" horiz-adv-x="1024"/><glyph glyph-name="tag" unicode="" d="M849.75 512.205l-55.672 218.794a80.555 80.555 0 0 1-99.635 59.29l-212.002-59.7a154.214 154.214 0 0 1-83.968-67.071L181.726 276.82a85.47 85.47 0 0 1 29.696-114.79L507.358-14.03A80.145 80.145 0 0 1 617.131 14.3c.58.82.99 1.776 1.502 2.63l216.78 386.696a164.22 164.22 0 0 1 14.336 108.578zm-59.085-90.829L584.84 53.76a38.23 38.23 0 0 0-51.78-15.428c-.41.205-.718.443-1.127.682l-281.259 167.22a40.721 40.721 0 0 0-13.994 54.647l206.165 367.582a107.793 107.793 0 0 0 56.32 45.124l201.352 56.764a37.99 37.99 0 0 0 46.729-26.42l.41-1.501 52.906-208.009a114.553 114.553 0 0 0-9.898-73.045zM683.793 658.5a83.388 83.388 0 0 1-114.244-29.389c-.546-.853-.956-1.706-1.434-2.594a88.951 88.951 0 0 1 31.062-119.466 83.285 83.285 0 0 1 115.677 31.983 88.644 88.644 0 0 1-31.06 119.466zm-4.062-98.201a43.35 43.35 0 0 0-58.88-17.272l-1.194.683a45.705 45.705 0 0 0-16.077 61.815 43.35 43.35 0 0 0 58.675 17.408l1.4-.819c21.026-13.107 28.057-40.277 16.076-61.815zm-262.826-215.04c28.296-16.726 64.819-7.441 81.544 20.855l1.058 1.843a63.147 63.147 0 0 1-22.186 84.992 59.529 59.529 0 0 1-81.545-20.89l-1.058-1.877a63.01 63.01 0 0 1 22.187-84.923zm13.312 63.897a19.217 19.217 0 0 0 26.01 7.714l.648-.34c9.25-5.735 12.424-17.75 7.168-27.308a19.183 19.183 0 0 0-26.01-7.748l-.614.341a20.48 20.48 0 0 0-7.168 27.375l-.034-.034zm91.477-168.482a59.153 59.153 0 0 1-81.067-20.65c-.41-.717-.819-1.4-1.194-2.15a63.317 63.317 0 0 1 21.845-84.993c28.33-16.725 64.82-7.339 81.579 20.992l.99 1.81a63.01 63.01 0 0 1-22.153 84.991zm-13.312-63.932a19.183 19.183 0 0 0-26.01-7.748l-.648.341a20.548 20.548 0 0 0-7.168 27.546 19.32 19.32 0 0 0 26.078 7.714l.58-.375a20.207 20.207 0 0 0 7.168-27.41v-.068zm113.323 171.486l-301.056-83.217a20.685 20.685 0 0 1-14.336-24.746 19.456 19.456 0 0 1 23.62-14.268l.614.136 301.432 83.15a20.514 20.514 0 0 1 13.96 24.814 19.422 19.422 0 0 1-24.234 14.2v-.069z" horiz-adv-x="1024"/><glyph glyph-name="shield" unicode="" d="M803.43 241.8A413.867 413.867 0 0 0 692.497 93.629 382.737 382.737 0 0 0 521.114 9.387a64.99 64.99 0 0 0-20.822 0c-13.312 2.15-329.728 58.265-329.728 490.36v115.336a51.2 51.2 0 0 0 18.774 39.116 61.884 61.884 0 0 0 43.69 14.063h.342c1.024 0 8.874-.512 21.162-.512a512.41 512.41 0 0 1 102.059 9.933 280.405 280.405 0 0 1 118.101 69.837 33.007 33.007 0 0 0 3.755 3.174 63.83 63.83 0 0 0 64.546 0c4.437-2.628 10.923-7.407 19.183-13.448a321.638 321.638 0 0 1 106.086-59.563 492.578 492.578 0 0 1 122.198-9.42h4.062a62.857 62.857 0 0 0 39.936-14.064c11.776-9.66 18.67-24.03 18.807-39.219V499.678A619.554 619.554 0 0 0 803.43 241.8zm-3.106 376.56c-4.403 0-10.854-.274-19.08-.274a582.076 582.076 0 0 0-121.856 12.015 397.244 397.244 0 0 0-148.549 81.34 373.043 373.043 0 0 0-145.749-81.34 583.953 583.953 0 0 0-122.539-12.015c-8.192 0-14.677 0-19.114.273V505.173c0-209.032 78.165-320.478 144.042-377.173a177.015 177.015 0 0 1 287.437 0c66.594 56.695 145.408 168.175 145.408 377.173V618.36zm-338.91-372.293a25.6 25.6 0 0 0-18.773 7.783l-119.467 120.9a26.112 26.112 0 0 0 0 37 25.805 25.805 0 0 0 36.489.376l.375-.376 101.376-102.229 202.411 204.8a25.873 25.873 0 0 0 36.557.341l.273-.34a26.078 26.078 0 0 0 .068-37.001h-.068L479.846 253.952a26.453 26.453 0 0 0-18.432-7.885z" horiz-adv-x="1024"/><glyph glyph-name="shake-hands" unicode="" d="M1022.43 404.378l-.17.375-148.651 306.654a21.436 21.436 0 0 1-12.323 10.65 21.094 21.094 0 0 1-15.018 0l-.717-.24-124.075-61.644a21.23 21.23 0 0 1-10.718-27.443l.171-.41 142.029-292.147-42.667-41.336a565.692 565.692 0 0 0-135.543-92.945L437.93 88.302c-5.154-2.15-10.274-2.49-13.995-.818l-.614.205-.683.204a16.828 16.828 0 0 0-9.557 9.455l-.273.615a19.456 19.456 0 0 0-.717 14.984 16.452 16.452 0 0 0 8.738 9.694l.239.17 132.95 65.605a20.036 20.036 0 0 1 10.922 11.742 21.572 21.572 0 0 1-.24 15.667 20.48 20.48 0 0 1-19.216 12.868 21.094 21.094 0 0 1-8.09-1.604l-.375-.136-132.37-64.717-64.682-32.188c-5.12-2.15-10.274-2.526-13.995-.887l-.614.204-.683.205c-3.789 1.058-7.646 4.984-9.557 9.455-1.331 3.14-3.243 9.216-1.024 14.404 1.604 3.687 4.608 8.67 9.83 10.889l37.684 19.046 152.268 75.913a20.207 20.207 0 0 1 10.889 11.742 22.118 22.118 0 0 1-.24 15.735 20.48 20.48 0 0 1-19.25 12.8 23.177 23.177 0 0 1-8.09-1.536l-.375-.205-141.585-69.973-11.47-6.349-62.634-30.105-.17-.069a17.75 17.75 0 0 0-7.988-1.98 18.876 18.876 0 0 0-17.51 25.6 15.974 15.974 0 0 0 8.704 9.729l24.132 11.673 169.916 84.31a20.207 20.207 0 0 1 10.888 11.741 22.118 22.118 0 0 1-.239 15.736 20.548 20.548 0 0 1-19.25 12.8 21.094 21.094 0 0 1-8.09-1.604l-.376-.137-109.67-54.34-60.86-30.242a16.725 16.725 0 0 0-7.953-1.946 18.773 18.773 0 0 0-17.647 24.747 18.534 18.534 0 0 0 9.387 10.752l90.419 44.714a21.23 21.23 0 0 1 10.684 27.478 20.446 20.446 0 0 1-19.252 12.834 21.572 21.572 0 0 1-8.055-1.57l-.444-.103-90.76-44.817a59.802 59.802 0 0 1-33.622-34.304c-5.7-15.36-4.778-32.085 2.663-47.138 4.13-8.328 9.864-15.53 16.896-21.265a61.44 61.44 0 0 1-5.598-63.01 60.416 60.416 0 0 1 52.6-34.133c.136-9.387 2.218-18.33 6.212-26.317 6.963-14.063 18.5-24.576 34.372-31.198l.102-.068c6.144-2.458 13.585-3.926 20.48-3.926 8.67 0 18.5 2.39 26.351 6.35l9.83 4.778c.82-6.383 2.731-12.595 5.735-18.637 6.93-13.96 18.5-24.542 34.338-31.164l.137-.068c6.11-2.492 13.585-3.891 20.48-3.891 8.704 0 18.568 2.32 26.35 6.349l237.09 117.657c51.679 25.6 100.694 59.392 145.784 100.728l52.463 48.879 121.993 60.62a21.163 21.163 0 0 1 10.786 27.444zm-133.905-41.575L758.784 630.75l85.88 42.53 129.74-267.98-85.88-42.497zM279.142 629.59a107.52 107.52 0 0 1 35.533-6.041A102.4 102.4 0 0 1 360.62 634.3l12.254 6.212c8.977 4.267 18.67 6.485 28.023 6.485 7.031 0 13.79-1.263 20.105-3.72l.17-.068 238.524-83.661c-1.81-8.397-6.349-18.603-14.097-24.27-9.899-6.553-24.713-6.45-42.837.206l-107.486 36.59a23.552 23.552 0 0 1-7.134 1.23c-4.096 0-7.85-1.332-10.855-3.79a27 27 0 0 1-8.396-10.171l-1.127-2.287v-1.263c-1.877-6.656-16.862-55.944-60.28-79.19l-.136-.102a101.717 101.717 0 0 0-49.869-12.185c-17.442 0-36.864 3.618-57.753 10.786a20.139 20.139 0 0 1-7.1 1.297 21.675 21.675 0 0 1-19.968-13.688 21.743 21.743 0 0 1 12.152-27.648l.443-.204c24.747-8.67 48.81-13.108 71.578-13.108 26.692 0 50.62 6.076 71.168 18.023 42.53 22.528 64.546 62.771 74.342 86.46l87.074-29.935c13.415-4.847 26.317-7.305 38.4-7.305 16.248 0 30.516 4.335 42.36 12.8 35.089 24.508 35.533 74.001 35.533 74.513a23.142 23.142 0 0 1-13.176 20.139l-.682.341-255.25 88.747a106.7 106.7 0 0 1-80.35-4.608l-.511-.273-13.38-8.295c-8.875-4.13-18.637-6.314-28.263-6.314a55.296 55.296 0 0 0-20.48 3.72l-21.982 8.09a11.093 11.093 0 0 1-3.96 1.74L137.83 724.037a19.763 19.763 0 0 1-7.031 1.297 21.709 21.709 0 0 1-19.968-13.721l-.137-.273L1.331 388.13a22.733 22.733 0 0 1 0-15.19l.24-.716.34-.683a21.504 21.504 0 0 1 12.357-10.683l131.89-45.056a12.425 12.425 0 0 1 5.565-1.332 20.582 20.582 0 0 1 19.558 14.985l102.605 301.943 5.256-1.809zM138.786 363.076l-89.975 31.471 96.085 282.522 89.327-31.54-95.437-282.453z" horiz-adv-x="1024"/><glyph glyph-name="airplane" unicode="" d="M379.46-25.975c-33.211 38.707-63.624 79.667-94.515 120.183a310.204 310.204 0 0 1-62.054 62.123c-35.226 26.214-69.462 53.589-104.005 80.657a29.355 29.355 0 0 0-4.915 50.073c1.946 2.253 4.301 4.267 6.11 6.588a44.373 44.373 0 0 0 51.644 14.916c28.979-7.816 58.914-12.697 87.108-22.596 20.924-9.626 45.739-3.072 59.119 15.736 30.515 33.86 64.17 64.785 96.46 97.28 4.745 3.822 8.773 8.43 11.88 13.653a63.283 63.283 0 0 1-17.067 15.804A79407.65 79407.65 0 0 1 227.908 576.99a112.708 112.708 0 0 0-29.627 35.874 56.866 56.866 0 0 0 2.594 59.904 133.325 133.325 0 0 0 37.546 38.298 71.68 71.68 0 0 0 57.14 8.874 195.211 195.211 0 0 0 29.32-8.67c91.75-34.133 183.433-68.335 275.046-102.604 5.53-2.083 11.128-4.096 16.009-5.871 6.076 3.447 11.469 8.021 15.804 13.482A58381.965 58381.965 0 0 1 777.216 761.55a104.482 104.482 0 0 0 52.531 29.628 72.294 72.294 0 0 0 88.747-91.512 106.906 106.906 0 0 0-29.833-50.551c-48.094-47.992-95.88-96.256-143.94-144.214a186.537 186.537 0 0 1-14.848-13.141 96.15 96.15 0 0 1 7.646-22.22c33.587-91.342 67.38-182.717 101.205-273.853a150.274 150.274 0 0 0 10.24-45.533c.82-15.087-3.515-30.14-12.288-42.462A133.427 133.427 0 0 0 800.7 72.704a56.593 56.593 0 0 0-61.44-2.628 118.545 118.545 0 0 0-36.694 31.437 76254.14 76254.14 0 0 1-148.275 181.52c-4.13 5.052-8.465 9.968-12.424 14.644a21.777 21.777 0 0 1-12.05-8.807c-37.512-37.58-74.308-75.025-112.196-112.128a26.01 26.01 0 0 1-7.543-28.706c8.772-35.533 15.019-71.68 24.849-107.042a45.978 45.978 0 0 0-20.48-55.842 33.758 33.758 0 0 1-13.653-11.06h-21.64l.306-.067zM170.462 260.028c3.618-6.417 8.806-11.776 15.12-15.53 28.536-22.051 57.038-44.135 85.949-65.673 12.015-8.978 22.664-19.627 31.607-31.71 23.484-31.198 47.445-62.055 71.407-92.877a18.295 18.295 0 0 1 11.605-10.274 22.323 22.323 0 0 1-1.536 12.39c-9.045 33.553-17.544 67.413-27.306 100.796a22.153 22.153 0 0 0 6.52 25.259c61.44 61.03 122.23 122.504 183.33 183.74a16.725 16.725 0 0 0 12.083 8.02c3.413-4.368 7.202-9.01 10.717-13.653 54.34-73.352 108.647-146.875 162.919-220.296 2.867-3.823 5.495-7.85 8.738-11.47a26.078 26.078 0 0 1 40.926-2.115c6.485 6.383 10.479 14.848 11.025 23.893a75.435 75.435 0 0 1-5.973 36.932c-35.567 97.587-70.998 195.311-106.292 293a58.402 58.402 0 0 0-5.222 16.829 179.145 179.145 0 0 0 13.414 12.014 55856.071 55856.071 0 0 1 168.005 168.55 92.678 92.678 0 0 1 12.117 13.245c8.875 12.015 9.66 28.16 2.082 40.96a33.11 33.11 0 0 1-34.133 15.018 41.821 41.821 0 0 1-27.785-14.916c-57.685-56.9-115.61-113.766-173.602-170.667a40.994 40.994 0 0 0-15.735-12.766c-6.793 2.39-14.2 4.882-21.47 7.51L318.02 658.432a81.17 81.17 0 0 1-45.704 6.11 29.97 29.97 0 0 1-23.894-23.893 26.146 26.146 0 0 1 10.787-28.468c3.413-2.628 6.826-5.051 10.24-7.543l218.453-162.031a41.953 41.953 0 0 0 14.131-12.902L295.458 226.816l-124.996 33.212z" horiz-adv-x="1024"/><glyph glyph-name="reduce" unicode="" d="M933.875 319.096H90.125v129.808h843.75V319.096z" horiz-adv-x="1024"/><glyph glyph-name="catelog" unicode="" d="M887.467 332.8H136.533a51.2 51.2 0 1 0 0 102.4h750.934a51.2 51.2 0 1 0 0-102.4zm0 273.067H136.533a51.2 51.2 0 1 0 0 102.4h750.934a51.2 51.2 0 1 0 0-102.4zM136.533 162.133h750.934a51.2 51.2 0 0 0 0-102.4H136.533a51.2 51.2 0 1 0 0 102.4z" horiz-adv-x="1024"/><glyph glyph-name="top" unicode="" d="M13.21 419.772h322.799v-84.856H227.703V76.117H121.515v258.8H13.21v84.855zm317.064-172.066c0 56.115 15.633 99.805 46.9 131.037 31.265 31.267 74.751 46.9 130.56 46.9 57.207 0 101.307-15.36 132.232-46.08 30.925-30.686 46.387-73.728 46.387-129.058 0-40.175-6.724-73.114-20.275-98.816-13.517-25.703-33.041-45.705-58.607-60.007S550.127 70.246 512 70.246c-38.775 0-70.827 6.179-96.222 18.535-25.395 12.322-46.012 31.88-61.781 58.607-15.804 26.726-23.723 60.177-23.723 100.318zm106.223-.444c0-34.714 6.451-59.631 19.32-74.752 12.902-15.155 30.446-22.767 52.633-22.767 22.835 0 40.516 7.441 53.01 22.255 12.492 14.882 18.773 41.506 18.773 79.974 0 32.325-6.52 55.979-19.593 70.895-13.039 14.95-30.72 22.392-53.111 22.392-21.402 0-38.605-7.612-51.576-22.733-12.97-15.155-19.456-40.277-19.456-75.264zm282.658 172.51h176.538c38.434 0 67.242-9.148 86.357-27.443 19.183-18.262 28.74-44.306 28.74-78.063 0-34.68-10.444-61.816-31.3-81.34s-52.702-29.287-95.54-29.287h-58.128V76.117H719.155v343.655zm106.667-146.5h26.01c20.514 0 34.85 3.55 43.178 10.683 8.26 7.1 12.39 16.214 12.39 27.307 0 10.752-3.583 19.934-10.751 27.443-7.203 7.51-20.72 11.23-40.55 11.23h-30.243l-.034-76.664zM506.539 697.753L320.512 538.35l65.126-55.808 120.9 103.595 120.9-103.595 65.127 55.808z" horiz-adv-x="1024"/><glyph glyph-name="star-half" unicode="" d="M1004.485 439.897c18.558 18.592 24.903 46.088 16.477 70.957a65.602 65.602 0 0 1-52.706 45.782l-247.26 37.9a52.027 52.027 0 0 0-38.857 29.237L571.61 858.035a64.988 64.988 0 0 1-118.24 0L342.771 623.738a52.024 52.024 0 0 0-38.788-29.304L56.586 556.5A66.011 66.011 0 0 1 4.05 511.093a68.808 68.808 0 0 1 16.375-71.128l180.226-183.16c12.315-12.554 17.807-30.259 14.669-47.52L172.609-48.313c-2.73-16.512.853-33.125 9.347-47.249a52.4 52.4 0 0 1 43.564-31.283 64.233 64.233 0 0 1 42.916 6.721L489.906 1.528a48.374 48.374 0 0 0 47.725 0l221.743-121.72a65.325 65.325 0 0 1 30.089-7.64 57.312 57.312 0 0 1 48.067 23.88 66.523 66.523 0 0 1 15.59 56.8l-42.711 257.494a54.003 54.003 0 0 0 14.84 47.385l179.236 182.17zM775.715 309.17a127.69 127.69 0 0 1-35.07-111.827L780.491-47.29 573.076 66.789a124.244 124.244 0 0 1-60.621 14.464v726.634l1.058 2.218 102.581-217.683a125.745 125.745 0 0 1 94.701-70.924l238.084-36.366-173.164-175.961z" horiz-adv-x="1025"/><glyph glyph-name="view" unicode="" d="M512 497.63a113.835 113.835 0 1 1 .068-227.67A113.835 113.835 0 0 1 512 497.665zm407.04-108.954c-1.57 2.697-151.825 268.39-407.04 268.39s-405.538-265.693-407.04-268.39L102.4 384l2.56-4.745c1.365-2.696 148.924-268.322 407.04-268.322 258.15 0 405.606 265.762 407.04 268.459L921.6 384l-2.56 4.676zm-65.434-4.88c-22.596-33.28-151.79-210.467-341.538-214.153h-5.427c-182.135 0-308.702 181.111-330.342 214.255 22.562 33.04 154.726 214.425 334.097 214.425H512c180.429-1.263 317.44-181.18 341.504-214.528h.102z" horiz-adv-x="1024"/><glyph glyph-name="collection1" unicode="" d="M568.736-127.8l-25.6 25.6a914.546 914.546 0 0 1-98.703 81.692c-29.866 22.755-67.129 51.2-119.75 92.984a1414.116 1414.116 0 0 0-211.343 193.11C37.109 356.608.131 447.403.131 542.748A343.751 343.751 0 0 0 333.5 895.688a308.31 308.31 0 0 0 235.52-113.153 307.2 307.2 0 0 0 235.52 113.237 342.642 342.642 0 0 0 333.084-350.89c0-224.398-211.342-385.934-324.835-472.775-21.902-16.64-43.805-33.28-65.422-49.863l-1.138-.825A1414.144 1414.144 0 0 1 594.62-102.23l-25.884-25.6z" horiz-adv-x="1137"/><glyph glyph-name="home1" unicode="" d="M934.4 403.2c0-6.4-6.4-6.4-12.8-6.4s-6.4 0-12.8 6.4L512 729.6 115.2 403.2c-6.4 0-6.4-6.4-12.8-6.4s-6.4 0-12.8 6.4l-32 44.8c-6.4 6.4-6.4 19.2 0 25.6l409.6 339.2c25.6 19.2 64 19.2 89.6 0l140.8-115.2v115.2c0 12.8 6.4 19.2 19.2 19.2h108.8c12.8 0 19.2-6.4 19.2-19.2V576l128-102.4c6.4-6.4 6.4-19.2 0-25.6l-38.4-44.8zm-96-268.8c0-19.2-19.2-38.4-38.4-38.4H582.4v224H441.6V102.4h-224c-19.2 0-38.4 19.2-38.4 38.4V416L512 684.8 838.4 416V134.4z" horiz-adv-x="1024"/><glyph glyph-name="play" unicode="" d="M510.833 831.074c-246.912 0-447.075-200.16-447.075-447.074S263.921-63.074 510.833-63.074 957.91 137.086 957.91 384 757.746 831.074 510.833 831.074zm0-864.272C280.421-33.198 93.635 153.586 93.635 384S280.42 801.198 510.833 801.198s417.2-186.784 417.2-417.198-186.787-417.198-417.2-417.198zM689.12 388.568c-.147.753-.285 1.502-.504 2.247-.206.688-.488 1.366-.762 2.055-.317.797-.643 1.577-1.045 2.34-.123.227-.186.481-.319.714-.225.394-.53.705-.775 1.086a23.286 23.286 0 0 1-1.5 2.098 23.68 23.68 0 0 1-1.546 1.69 24.247 24.247 0 0 1-1.673 1.56 23.934 23.934 0 0 1-2.085 1.512c-.373.245-.683.551-1.075.783L465.031 528.56c-1.908 1.362-4.039 2.383-6.307 3.14-.221.084-.442.141-.665.21a23.434 23.434 0 0 1-3.339.763c-.698.114-1.391.162-2.092.21-.474.026-.923.144-1.404.144-.28 0-.542-.075-.82-.083-.986-.03-1.953-.15-2.924-.298-.53-.082-1.06-.144-1.576-.267-1.067-.24-2.095-.582-3.12-.968-.393-.15-.795-.27-1.177-.442-1.056-.464-2.055-1.03-3.038-1.646-.308-.198-.627-.369-.924-.574-.913-.63-1.757-1.358-2.583-2.134-.326-.298-.66-.582-.97-.898-.662-.696-1.258-1.454-1.844-2.234-.395-.53-.786-1.047-1.137-1.599-.173-.276-.396-.495-.559-.78-.258-.455-.396-.937-.622-1.392a23.784 23.784 0 0 1-.952-2.138 23.377 23.377 0 0 1-.705-2.268 23.404 23.404 0 0 1-.502-2.238 23.892 23.892 0 0 1-.252-2.493c-.028-.473-.141-.916-.141-1.397V258.817c0-.478.113-.92.14-1.393.049-.837.117-1.66.253-2.497.126-.762.305-1.498.502-2.234.203-.766.423-1.52.705-2.272.277-.736.606-1.437.952-2.129.226-.464.364-.945.622-1.397.164-.28.386-.507.559-.783.35-.552.743-1.069 1.137-1.59.586-.785 1.182-1.547 1.845-2.235.308-.324.643-.604.969-.906.826-.767 1.669-1.494 2.583-2.134.297-.205.615-.372.924-.57.983-.613 1.982-1.187 3.038-1.646.382-.171.784-.294 1.177-.447 1.025-.381 2.053-.728 3.12-.964.516-.12 1.046-.189 1.576-.268.972-.153 1.938-.27 2.924-.297.278-.004.538-.083.82-.083.48 0 .93.113 1.404.144a22.924 22.924 0 0 1 2.092.21 23.434 23.434 0 0 1 3.34.762c.223.066.444.131.664.206 2.268.758 4.399 1.778 6.307 3.145L677.837 363.35c.392.228.702.53 1.075.775a24.642 24.642 0 0 1 2.085 1.516 23.551 23.551 0 0 1 1.673 1.563 23.693 23.693 0 0 1 1.546 1.683 23.805 23.805 0 0 1 1.5 2.103c.245.38.55.691.775 1.085.132.233.196.482.32.715.402.762.727 1.542 1.044 2.334.274.688.556 1.366.763 2.063.219.74.356 1.489.503 2.247.148.757.308 1.516.38 2.286.073.753.059 1.516.06 2.278-.001.762.013 1.52-.06 2.278-.073.771-.234 1.525-.382 2.291z" horiz-adv-x="1024"/><glyph glyph-name="close" unicode="" d="M731.887 639.932L512.102 419.908 292.147 639.863l-35.874-35.908 219.921-220.057L256.24 163.977l35.874-35.943 219.99 220.058 219.85-219.922 35.806 35.874-219.819 219.853 219.82 219.955-35.875 36.079z" horiz-adv-x="1024"/></font>
</defs>
</svg>
