<?xml version="1.0" standalone="no"?>
<!DOCTYPE svg PUBLIC "-//W3C//DTD SVG 1.1//EN" "http://www.w3.org/Graphics/SVG/1.1/DTD/svg11.dtd" >
<svg xmlns="http://www.w3.org/2000/svg" xmlns:xlink="http://www.w3.org/1999/xlink" version="1.1">
<metadata>
Created by FontForge 20160407 at Wed Oct  5 08:18:23 2016
 By Jimmy Warting
 (c) geronimofonts. All Rights Reserved.
</metadata>
<defs>
<font id="Gondola" horiz-adv-x="630" >
  <font-face 
    font-family="Gondola"
    font-weight="400"
    font-stretch="normal"
    units-per-em="1000"
    panose-1="2 0 5 3 0 0 0 0 0 0"
    ascent="800"
    descent="-200"
    x-height="562"
    cap-height="772"
    bbox="-20 -212 901 779"
    underline-thickness="0"
    underline-position="0"
    unicode-range="U+0021-007E"
  />
<missing-glyph horiz-adv-x="370" 
 />
    <glyph glyph-name=".notdef" horiz-adv-x="370" 
 />
    <glyph glyph-name=".notdef" horiz-adv-x="370" 
 />
    <glyph glyph-name=".null" horiz-adv-x="0" 
 />
    <glyph glyph-name="nonmarkingreturn" horiz-adv-x="333" 
 />
    <glyph glyph-name="ltr33" unicode="!" horiz-adv-x="290" 
d="M60 19v-1v-20h40v20v1v20h-40v-20zM60 700v-510v-20h40v20v510v20h-40v-20z" />
    <glyph glyph-name="ltr34" unicode="&#x22;" horiz-adv-x="350" 
d="M180 700v-170v-20h40v20v170v20h-40v-20zM40 700v-170v-20h40v20v170v20h-40v-20z" />
    <glyph glyph-name="ltr35" unicode="#" 
d="M407 511h73h20v40h-20h-68l17 147l2 22h-40l-2 -18l-18 -151h-177l17 147l2 22h-40l-2 -18l-18 -151h-113h-20v-40h20h109l-36 -301h-73h-20v-40h20h69l-18 -149l-2 -22h40l2 18l18 153h178l-18 -149l-2 -22h40l2 18l18 153h113h20v40h-20h-108zM367 511l-36 -301h-177
l35 301h178z" />
    <glyph glyph-name="ltr36" unicode="$" horiz-adv-x="610" 
d="M270 632v68v20h-40v-20v-68h-110q-33 0 -46.5 -73.5t0 -146t46.5 -72.5h110v-227h-110h-20v-40h20h110v-54v-20h40v20v54h103q38 0 53.5 76.5t-0.5 153.5t-53 77h-103v211h104h20l-1 41h-20h-103zM270 340h103q14 0 22 -36t8.5 -78.5t-7.5 -77.5t-23 -35h-103v227z
M230 380h-110q-14 0 -20 53t-0.5 106t20.5 53h110v-212z" />
    <glyph glyph-name="ltr37" unicode="%" horiz-adv-x="710" 
d="M290 164q2 -82 43 -124t99 -41q60 1 101 45.5t41 123.5q1 79 -40.5 125t-102.5 47q-59 1 -100.5 -46.5t-40.5 -129.5zM330 164q-1 69 27 103t74 33q103 -2 103 -132q1 -127 -102 -129q-98 -2 -102 125zM188 677q103 -2 100 -127q1 -68 -26 -99.5t-74 -31.5
q-48 -1 -78 31.5t-30 98.5q1 65 30.5 97t77.5 31zM188 717q-60 1 -104 -43.5t-44 -124.5q1 -81 44 -125.5t104 -44.5q59 -1 100 44.5t40 126.5q1 80 -40 123t-100 44zM544 709l-500 -678l-24 -32h50l6 8l500 678l24 32h-50z" />
    <glyph glyph-name="ltr38" unicode="&#x26;" horiz-adv-x="730" 
d="M203 419q87 -130 217 -271q-37 -50 -77 -79.5t-91 -29.5t-90.5 16.5t-62 43.5t-33 61.5t-7 71.5t18.5 71q22 49 125 116zM451 116q61 -64 116 -112l5 -5h61l-40 35q-56 50 -119 115q12 20 30.5 51.5t28.5 47.5t23 29.5t24 13.5h20v40h-20q-23 0 -46.5 -22.5t-44 -55.5
t-46.5 -71q-125 135 -208 258q32 20 46 29.5t39 27.5t36 30t20 28t9 31q0 63 -43.5 99t-89.5 35t-87 -36t-42 -99q0 -39 57 -132q-110 -71 -138 -134q-17 -38 -20 -82t10.5 -86t40 -76.5t73.5 -55t106 -20.5q112 1 199 117zM213 474q-50 79 -50 111q1 48 27 71t62 24
t64.5 -23t28.5 -71q0 -12 -10.5 -25.5t-29 -27t-42.5 -28.5t-50 -31z" />
    <glyph glyph-name="ltr39" unicode="'" horiz-adv-x="290" 
d="M60 700v-169v-20h40v20v169v20h-40v-20z" />
    <glyph glyph-name="ltr40" unicode="(" horiz-adv-x="370" 
d="M205 671q-81 -91 -122.5 -180t-42.5 -214q0 -126 46.5 -226t119.5 -169l6 -6h58l-36 34q-155 150 -154 367q1 117 39 199t116 169l30 33h-54z" />
    <glyph glyph-name="ltr41" unicode=")" horiz-adv-x="370" 
d="M45 645q155 -173 155 -368q1 -104 -44 -199.5t-111 -168.5l-30 -33h54l6 7q68 75 116.5 179.5t48.5 214.5q1 209 -165 394l-6 7h-54z" />
    <glyph glyph-name="ltr42" unicode="*" horiz-adv-x="590" 
d="M250 572l-76 138l-6 10h-46l16 -30l77 -140h-155h-20v-40h20h156l-78 -141l-16 -30h46l6 10l76 138l76 -138l6 -10h46l-16 30l-78 141h156h20v40h-20h-155l77 140l16 30h-46l-6 -10z" />
    <glyph glyph-name="ltr43" unicode="+" horiz-adv-x="550" 
d="M250 340h150h20v40h-20h-150v151v20h-40v-20v-151h-150h-20v-40h20h150v-150v-20h40v20v150z" />
    <glyph glyph-name="ltr44" unicode="," horiz-adv-x="250" 
d="M80 63q-8 -86 -35 -118l-27 -33h51l6 7q36 45 45 140l2 22h-40z" />
    <glyph glyph-name="ltr45" unicode="-" horiz-adv-x="470" 
d="M60 340h260h20v40h-20h-260h-20v-40h20z" />
    <glyph glyph-name="ltr46" unicode="." horiz-adv-x="290" 
d="M60 19v-1v-20h40v20v1v20h-40v-20z" />
    <glyph glyph-name="ltr47" unicode="/" horiz-adv-x="410" 
d="M241 706l-220 -681l-8 -26h42l4 14l220 681l8 26h-42z" />
    <glyph glyph-name="ltr48" unicode="0" 
d="M40 380q0 -155 68.5 -268t163.5 -113q95 -1 161.5 112.5t66.5 268.5q0 100 -30 187.5t-83 140t-115 52.5q-95 -1 -163.5 -113.5t-68.5 -266.5zM80 380q0 144 56 242t136 98q79 -1 133.5 -98.5t54.5 -241.5q1 -145 -54 -243t-134 -98q-79 -1 -135.5 97.5t-56.5 243.5z" />
    <glyph glyph-name="ltr49" unicode="1" horiz-adv-x="370" 
d="M58 371l142 283v-635v-20h40v20v720v20h-32l-6 -11l-180 -359l-14 -29h44z" />
    <glyph glyph-name="ltr50" unicode="2" 
d="M80 560q0 68 54.5 114t135.5 46q82 -1 136 -46.5t54 -113.5q0 -42 -23 -83t-60 -75.5t-82 -69t-89.5 -70t-82 -72t-60.5 -81t-23 -90.5v-20h440h20v40h-20h-400q0 48 43.5 98t105 94.5t123 92t105 109t43.5 127.5q1 80 -68.5 140t-161.5 60q-92 -1 -161 -60t-69 -140v-20
h40v20z" />
    <glyph glyph-name="ltr51" unicode="3" 
d="M120 720h284l-161 -255l-19 -31h16h20q85 0 142.5 -55t57.5 -137q1 -87 -56.5 -145t-143.5 -58q-76 -1 -126 38t-60 99l-3 17h-41l4 -23q12 -70 75 -120.5t151 -50.5q98 -1 169 71.5t71 171.5q1 90 -65 161t-139 71l161 255l19 31h-16h-20h-320h-20v-40h20z" />
    <glyph glyph-name="ltr52" unicode="4" 
d="M242 748l-221 -539l-11 -28h10h20l341 -2v-160v-20h40v20v160h59h20v40h-20h-59v336v20h-40v-20v-336l-311 2l210 511l11 28h-43z" />
    <glyph glyph-name="ltr53" unicode="5" horiz-adv-x="650" 
d="M450 760h-280h-15l-4 -15l-83 -306q-1 -2 -2 -5l-9 -27h2h40h1l2 9l2 4q16 44 65.5 76.5t110.5 32.5q86 -1 143 -70.5t57 -173.5q1 -105 -57 -175.5t-143 -70.5q-72 -1 -124.5 46.5t-61.5 112.5l-3 17h-40l3 -23q11 -75 76 -134t150 -59q98 -1 169 84.5t71 201.5
q1 114 -70.5 199t-169.5 85q-81 -1 -151 -55l56 206h265h20v40h-20z" />
    <glyph glyph-name="ltr54" unicode="6" 
d="M263 759q-40 -16 -80 -64t-72 -114.5t-51.5 -153t-19.5 -173.5v-1v-20h1q7 -97 73.5 -165.5t155.5 -68.5q94 -1 162 75t68 179q1 102 -67.5 177.5t-162.5 75.5q-50 0 -95.5 -24t-77.5 -66q24 115 75 199.5t105 105.5l13 5v44zM80 253q0 90 55 151.5t135 61.5
q81 -1 135.5 -61.5t54.5 -151.5q1 -91 -54 -152.5t-136 -61.5q-80 -1 -135 61t-55 153z" />
    <glyph glyph-name="ltr55" unicode="7" horiz-adv-x="590" 
d="M40 720h364q-110 -180 -180.5 -344.5t-106.5 -352.5l-4 -24h41l3 16q35 186 106 349t194 366l19 30h-16h-420h-20v-40h20z" />
    <glyph glyph-name="ltr56" unicode="8" 
d="M40 225q0 -91 68.5 -158t161.5 -67q93 -1 161.5 66.5t68.5 158.5q1 66 -37.5 122.5t-98.5 84.5q47 23 76.5 64t29.5 89q1 70 -59 122.5t-140 52.5q-80 -1 -140.5 -52.5t-60.5 -122.5q0 -47 30 -88.5t79 -63.5q-62 -28 -100.5 -84.5t-38.5 -123.5zM110 585q0 58 45.5 96.5
t115.5 38.5q69 -1 114 -39t45 -96q1 -54 -40 -91t-104 -42q-8 1 -15.5 1t-14.5 -1q-63 4 -104.5 42t-41.5 91zM286 412q75 -5 124.5 -58t49.5 -129q1 -79 -54 -132t-136 -53q-80 -1 -135 52.5t-55 132.5q0 76 50 129t126 59q8 -1 15 -1h15z" />
    <glyph glyph-name="ltr57" unicode="9" 
d="M500 514v17h-1q-7 94 -74 161.5t-155 67.5q-93 -1 -161.5 -75t-68.5 -174q1 -101 69 -174t162 -73q71 -1 130 44q-50 -112 -148 -279l-18 -30h46l6 10q165 283 202 429q10 33 11 67v5v4zM460 511v-14q-2 -22 -9 -49q-18 -64 -67 -104t-113 -40q-80 -1 -135.5 59
t-55.5 148q1 88 55.5 148.5t134.5 60.5q81 -1 135.5 -61t54.5 -148z" />
    <glyph glyph-name="ltr58" unicode=":" horiz-adv-x="270" 
d="M62 103v-1v-20h40v20v1v20h-40v-20zM62 444v-1v-20h40v20v1v20h-40v-20z" />
    <glyph glyph-name="ltr59" unicode=";" horiz-adv-x="250" 
d="M80 63q-8 -86 -35 -118l-27 -33h51l6 7q36 45 45 140l2 22h-40zM61 444v-1v-20h40v20v1v20h-40v-20z" />
    <glyph glyph-name="ltr60" unicode="&#x3c;" 
d="M472 549l-420 -170l-12 -6v-26l12 -6l420 -171l28 -11v43l-12 6l-375 152l375 151l12 6v43z" />
    <glyph glyph-name="ltr61" unicode="=" 
d="M60 202h420h20v40h-20h-420h-20v-40h20zM60 450h420h20v40h-20h-420h-20v-40h20z" />
    <glyph glyph-name="ltr62" unicode="&#x3e;" 
d="M52 511l375 -151l-375 -152l-12 -6v-43l28 11l420 171l12 6v26l-12 6l-420 170l-28 11v-43z" />
    <glyph glyph-name="ltr63" unicode="?" horiz-adv-x="550" 
d="M211 19v-2v-20h40v20v2v20h-40v-20zM80 531q0 71 42.5 110.5t107.5 38.5q64 -1 107 -41t43 -109q0 -30 -17 -56t-42 -47.5t-50 -46t-42.5 -62.5t-17.5 -86v-42v-20h40v20v41v1q0 38 17.5 69t42.5 54t49.5 46t42 56t17.5 73q1 83 -56.5 136t-133.5 54t-133 -51.5
t-57 -137.5v-20h40v20z" />
    <glyph glyph-name="ltr64" unicode="@" horiz-adv-x="1030" 
d="M481 464q50 0 81 -43t22 -115l-7 -38q-26 -90 -69.5 -144t-103.5 -55h-1q-67 -2 -99 49.5t-5 142.5v1q28 104 75.5 153t106.5 49zM481 504q-70 0 -130.5 -59.5t-89.5 -172.5q-31 -105 14.5 -175t128.5 -68q80 1 140 80l-4 -18q-6 -30 2 -55.5t28.5 -39.5t48 -17.5t63 8.5
t70.5 40q53 38 96.5 118.5t43.5 161.5q0 110 -55.5 205.5t-150.5 151.5t-205 56q-84 0 -162 -36.5t-134.5 -97.5t-90.5 -144.5t-34 -174.5q0 -122 57 -226t154 -165t210 -61q141 -1 241 47t154 117l25 32h-51l-6 -8q-51 -64 -140.5 -106t-222.5 -42q-104 0 -191.5 54
t-138.5 149t-51 209q0 113 51 208t138.5 150t191.5 55q103 0 188 -49.5t134 -135t49 -188.5q1 -73 -37.5 -143t-86.5 -105q-36 -29 -67.5 -40t-50.5 -5.5t-27.5 24t-2.5 45.5l80 397l4 24h-40l-4 -16l-14 -71q-19 40 -52.5 63.5t-72.5 23.5z" />
    <glyph glyph-name="ltr65" unicode="A" horiz-adv-x="810" 
d="M156 182h406h10l69 -170l6 -12h43l-11 28l-298 732l-6 12h-26l-5 -12l-302 -732l-12 -28h43l5 12l70 170h8zM556 222h-391l197 477z" />
    <glyph glyph-name="ltr66" unicode="B" horiz-adv-x="750" 
d="M482 395q44 28 71 74.5t27 98.5q1 82 -59.5 143t-140.5 61l-259 -1h-20v-20l-1 -731v-20h20h300q81 -1 140.5 60t59.5 142q1 64 -38.5 118t-99.5 75zM140 405v327h240q69 -1 114.5 -47.5t45.5 -116.5q1 -69 -45 -115.5t-115 -46.5zM141 366h239h3h37q69 -1 114.5 -47.5
t45.5 -116.5q1 -69 -45 -115.5t-115 -46.5l-279 -1v327z" />
    <glyph glyph-name="ltr67" unicode="C" horiz-adv-x="750" 
d="M582 185q-12 -23 -34 -48q-77 -97 -196 -97q-113 -1 -192.5 99.5t-79.5 246.5q1 145 80 245.5t193 100.5q113 -2 193 -97q23 -29 33 -50l6 -11h44l-14 29q-14 26 -38 58h-1q-43 52 -102 81.5t-121 29.5q-128 -1 -220.5 -115t-92.5 -271q1 -158 92.5 -272t219.5 -114
q67 -1 126 28.5t102 82.5q28 36 38 56l15 29h-45z" />
    <glyph glyph-name="ltr68" unicode="D" horiz-adv-x="790" 
d="M120 0h261q75 0 139.5 52.5t102 141.5t37.5 192q1 156 -82 271t-197 115l-260 -1h-20v-20l-1 -731v-20h20zM140 40v692h241q101 -1 170 -100.5t69 -245.5q1 -147 -69 -246.5t-170 -99.5h-241z" />
    <glyph glyph-name="ltr69" unicode="E" horiz-adv-x="730" 
d="M580 772h-460h-20v-20v-346v-40v-346v-20h20h460h20v40h-20h-440v326h316h20v40h-20h-316v326h440h20v40h-20z" />
    <glyph glyph-name="ltr70" unicode="F" horiz-adv-x="670" 
d="M520 772h-400h-20v-20v-346v-40v-346v-20h40v20v346h271h20v40h-20h-271v326h380h20v40h-20z" />
    <glyph glyph-name="ltr71" unicode="G" horiz-adv-x="810" 
d="M371 366h269q0 -132 -78.5 -229t-190.5 -97q-113 -1 -192 99.5t-79 246.5q1 146 79.5 246t191.5 100q123 -2 198 -96l1 -1q21 -24 33 -50l6 -11h44l-14 29q-18 34 -39 58q-41 52 -101 81.5t-128 29.5q-127 -1 -219 -115t-92 -271q1 -158 92 -272t219 -114
q127 -1 218 113.5t91 272.5v20h-309h-20v-40h20z" />
    <glyph glyph-name="ltr72" unicode="H" horiz-adv-x="750" 
d="M620 366v40v346v20h-40v-20v-346h-440v346v20h-40v-20v-346v-40v-346v-20h40v20v346h440v-346v-20h40v20v346z" />
    <glyph glyph-name="ltr73" unicode="I" horiz-adv-x="310" 
d="M101 752v-732v-20h40v20v732v20h-40v-20z" />
    <glyph glyph-name="ltr74" unicode="J" horiz-adv-x="610" 
d="M440 752v-550q-1 -67 -49.5 -114.5t-120.5 -47.5q-73 -1 -121 45.5t-49 116.5v20h-40v-20q1 -82 62.5 -142t147.5 -60q84 -1 146.5 61t63.5 141v550v20h-40v-20z" />
    <glyph glyph-name="ltr75" unicode="K" horiz-adv-x="750" 
d="M232 366l354 -360l6 -6h56l-34 34l-346 352l346 352l34 34h-56l-6 -6l-354 -360h-92v346v20h-40v-20v-346v-40v-346v-20h40v20v346h92z" />
    <glyph glyph-name="ltr76" unicode="L" horiz-adv-x="650" 
d="M100 752v-732v-20h20h380h20v40h-20h-360v712v20h-40v-20z" />
    <glyph glyph-name="ltr77" unicode="M" horiz-adv-x="870" 
d="M140 20v630l261 -638l6 -12h26l6 12l260 638l1 -630v-20h40v20l-1 732v20h-33l-6 -12l-280 -687l-281 687l-6 12h-33v-20v-732v-20h40v20z" />
    <glyph glyph-name="ltr78" unicode="N" horiz-adv-x="750" 
d="M140 20v665l442 -676l6 -9h31v20l1 732v20h-40v-20l-1 -665l-442 676l-6 9h-31v-20v-732v-20h40v20z" />
    <glyph glyph-name="ltr79" unicode="O" horiz-adv-x="850" 
d="M60 386q0 -157 98 -271.5t233 -114.5q89 0 165 52.5t120 141.5t44 192q1 156 -96.5 271t-231.5 115q-135 -1 -233.5 -115t-98.5 -271zM100 386q0 146 84.5 246t207.5 100q122 -1 205 -100.5t83 -245.5q1 -146 -83 -246t-206 -100q-122 -1 -206.5 99.5t-84.5 246.5z" />
    <glyph glyph-name="ltr80" unicode="P" horiz-adv-x="750" 
d="M140 405v327h264q178 -1 176 -164q1 -65 -50 -113.5t-126 -48.5zM140 366h264q89 -1 153 62t63 140q1 87 -53.5 145.5t-162.5 58.5l-283 -1h-20v-20l-1 -731v-20h40v20v346z" />
    <glyph glyph-name="ltr81" unicode="Q" horiz-adv-x="850" 
d="M60 386q0 -157 98 -271.5t233 -114.5q121 -1 215 95l79 -88l14 -15l29 27l-13 14l-83 92q88 112 88 261q1 156 -96.5 271t-231.5 115q-135 -1 -233.5 -115t-98.5 -271zM100 386q0 146 84.5 246t207.5 100q122 -1 205 -100.5t83 -245.5q1 -136 -73 -234l-58 64l-14 15
l-29 -27l13 -14l62 -68q-81 -82 -190 -82q-122 -1 -206.5 99.5t-84.5 246.5z" />
    <glyph glyph-name="ltr82" unicode="R" horiz-adv-x="750" 
d="M455 371q71 17 118.5 74t46.5 122q0 41 -12 77t-37.5 65t-68 46t-97.5 17l-284 -1h-20v-20l-1 -731v-20h40v20v346h258q40 -29 63.5 -58.5t54 -100t65.5 -192.5l4 -15h42l-8 25q-44 155 -81.5 230t-82.5 116zM344 406l-204 -1v327h265q177 -1 175 -165
q1 -64 -49.5 -112.5t-124.5 -48.5h-62z" />
    <glyph glyph-name="ltr83" unicode="S" horiz-adv-x="670" 
d="M520 569q0 82 -68.5 142.5t-161.5 60.5q-92 -1 -161 -61t-69 -142q0 -47 33 -86t81.5 -63t105.5 -49t106 -46t81.5 -53.5t32.5 -70.5q1 -68 -59.5 -114.5t-149.5 -46.5q-89 -1 -150 46.5t-61 115.5v20h-40v-20q0 -82 74.5 -142t176.5 -60q100 -1 174.5 59t74.5 142
q0 56 -45 100t-110 72t-129.5 54t-110 62t-45.5 80q1 69 55.5 116t134.5 47q82 -1 136 -47.5t54 -115.5v-20h40v20z" />
    <glyph glyph-name="ltr84" unicode="T" horiz-adv-x="690" 
d="M311 772h-40h-231h-20v-40h20h231v-712v-20h40v20v712h229h20v40h-20h-229z" />
    <glyph glyph-name="ltr85" unicode="U" horiz-adv-x="770" 
d="M80 752v-424q1 -134 83.5 -231t196.5 -97q115 -1 197.5 96.5t82.5 231.5l1 423l1 20h-42v-19v-424q1 -122 -68.5 -205t-171.5 -83q-101 -1 -170.5 82.5t-69.5 205.5l1 423l1 20h-42v-19z" />
    <glyph glyph-name="ltr86" unicode="V" horiz-adv-x="770" 
d="M41 745l281 -732l5 -13h28l5 13l279 732l10 27h-43l-5 -13l-260 -683l-262 683l-5 13h-43z" />
    <glyph glyph-name="ltr87" unicode="W" horiz-adv-x="1010" 
d="M40 748l160 -732l4 -16h30l5 14l221 674l221 -674l5 -14h30l4 16l160 732l5 24h-41l-4 -16l-144 -660l-217 662l-5 14h-28l-5 -14l-217 -662l-144 660l-4 16h-41z" />
    <glyph glyph-name="ltr88" unicode="X" horiz-adv-x="710" 
d="M310 438l-213 325l-6 9h-48l20 -31l223 -340l-243 -370l-20 -31h48l6 9l233 355l233 -355l6 -9h48l-20 31l-243 370l223 340l20 31h-48l-6 -9z" />
    <glyph glyph-name="ltr89" unicode="Y" horiz-adv-x="750" 
d="M352 379l264 361l23 32h-49l-6 -8l-252 -344l-256 344l-6 8h-50l24 -32l268 -361v-359v-20h40v20v359z" />
    <glyph glyph-name="ltr90" unicode="Z" horiz-adv-x="690" 
d="M80 732h404l-441 -701l-19 -31h16h20h480h20v40h-20h-444l441 701l19 31h-16h-20h-440h-20v-40h20z" />
    <glyph glyph-name="ltr91" unicode="[" horiz-adv-x="390" 
d="M240 678h-180h-20v-20v-762v-20h20h180h20v40h-20h-160v722h160h20v40h-20z" />
    <glyph glyph-name="ltr92" unicode="\" horiz-adv-x="450" 
d="M41 693l240 -681l5 -13h42l-9 27l-240 681l-5 13h-42z" />
    <glyph glyph-name="ltr93" unicode="]" horiz-adv-x="390" 
d="M60 638h160v-722h-160h-20v-40h20h180h20v20v762v20h-20h-180h-20v-40h20z" />
    <glyph glyph-name="ltr94" unicode="^" horiz-adv-x="550" 
d="M78 351l153 304l151 -304l6 -11h44l-14 29l-169 340l-6 11h-24l-6 -11l-171 -340l-14 -29h44z" />
    <glyph glyph-name="ltr95" unicode="_" horiz-adv-x="530" 
d="M0 -124h520h20v40h-20h-520h-20v-40h20z" />
    <glyph glyph-name="ltr96" unicode="`" horiz-adv-x="310" 
d="M43 690l100 -169l6 -10h46l-18 30l-100 169l-6 10h-46z" />
    <glyph glyph-name="ltr97" unicode="a" horiz-adv-x="670" 
d="M40 281q0 -114 74 -197.5t176 -83.5q64 0 120 35.5t90 95.5v-111v-20h40v20v261v4v258v20h-40v-20v-111q-34 60 -90 95.5t-120 35.5q-102 -1 -176 -84.5t-74 -197.5zM80 281q0 103 60.5 172.5t149.5 69.5q89 -1 149.5 -70t60.5 -172v-4q-1 -101 -61.5 -169t-148.5 -68
q-88 -1 -149 69t-61 172z" />
    <glyph glyph-name="ltr98" unicode="b" horiz-adv-x="710" 
d="M80 281v-261v-20h40v20v110q34 -59 90 -94.5t120 -35.5q102 -1 176 82.5t74 198.5q1 113 -73.5 197.5t-176.5 84.5q-64 0 -120 -36t-90 -95v327v20h-40v-20v-478zM120 281q0 103 60.5 172.5t149.5 69.5q89 -1 149.5 -70t60.5 -172q1 -103 -60 -172t-150 -69
q-88 -1 -149 69t-61 172z" />
    <glyph glyph-name="ltr99" unicode="c" 
d="M497 454q-28 48 -86.5 78t-120.5 31q-102 0 -176 -83.5t-74 -198.5q1 -115 74.5 -198t175.5 -83q59 1 119 34.5t88 80.5l19 30h-47l-6 -10q-24 -39 -73.5 -66.5t-99.5 -28.5q-89 0 -149.5 69.5t-60.5 171.5q1 102 61.5 172t148.5 70q54 -1 101.5 -25t71.5 -64l6 -10h46z
" />
    <glyph glyph-name="ltr100" unicode="d" horiz-adv-x="670" 
d="M40 282q0 -115 74 -198.5t176 -83.5q64 0 120 35.5t90 95.5v-111v-20h40v20v262v4v473v20h-40v-20v-327q-35 60 -90.5 95.5t-119.5 35.5q-101 -1 -175.5 -84t-74.5 -197zM80 282q0 102 60.5 171.5t149.5 69.5q89 -1 149.5 -70t60.5 -171v-4q-1 -102 -61.5 -170
t-148.5 -68q-88 -1 -149 69t-61 173z" />
    <glyph glyph-name="ltr101" unicode="e" horiz-adv-x="670" 
d="M81 301q7 96 66 159t143 63q88 -1 149 -67t61 -155h-419zM41 261q7 -109 79.5 -185t169.5 -76q70 -1 132 32t90 87l15 29h-45l-6 -11q-24 -45 -74 -71.5t-112 -25.5q-84 0 -143.5 63t-65.5 158h439h20v20q0 115 -74 198.5t-176 83.5q-97 -1 -169.5 -77t-79.5 -185h-1v-20
v-20h1z" />
    <glyph glyph-name="ltr102" unicode="f" horiz-adv-x="450" 
d="M126 563q7 64 52.5 95t121.5 31h20v40h-20q-87 0 -146.5 -43t-67.5 -123h-46h-20v-40h20h45v-503v-20h40v20v503h175h20v40h-20h-174z" />
    <glyph glyph-name="ltr103" unicode="g" horiz-adv-x="670" 
d="M40 282q0 -115 74 -198.5t176 -83.5q64 0 120 35.5t90 95.5v-111q1 -59 -58 -112t-151 -54h-20v-40h20q53 0 101 20.5t79.5 51t50 66.5t18.5 68l1 522l1 20h-42v-19v-111q-35 60 -90.5 95.5t-119.5 35.5q-101 -1 -175.5 -84t-74.5 -197zM80 282q0 102 60.5 171.5
t149.5 69.5q89 -1 149.5 -70t60.5 -171v-4q-1 -102 -61.5 -170t-148.5 -68q-88 -1 -149 69t-61 173z" />
    <glyph glyph-name="ltr104" unicode="h" horiz-adv-x="650" 
d="M520 20v306q1 95 -65 166t-155 71q-54 0 -101.5 -28.5t-78.5 -75.5v236v20h-40v-20v-369v-20v-286v-20h40v20v286v20q0 84 52 140.5t128 56.5q77 -1 128.5 -57t51.5 -140l1 -307l1 -20h39z" />
    <glyph glyph-name="ltr105" unicode="i" horiz-adv-x="290" 
d="M100 592h1h20v40h-20h-1h-20v-40h20zM80 543v-523v-20h40v20v523v20h-40v-20z" />
    <glyph glyph-name="ltr106" unicode="j" horiz-adv-x="330" 
d="M180 589h1h20v40h-20h-1h-20v-40h20zM160 543v-523q1 -72 -34 -119t-86 -47h-20v-40h20q65 0 112.5 61.5t47.5 144.5l1 522l1 20h-42v-19z" />
    <glyph glyph-name="ltr107" unicode="k" horiz-adv-x="610" 
d="M182 262l264 -256l6 -6h57l-35 34l-255 248l255 247l35 34h-57l-6 -6l-264 -255h-62v457v20h-40v-20v-457v-40v-242v-20h40v20v242h62z" />
    <glyph glyph-name="ltr108" unicode="l" horiz-adv-x="310" 
d="M80 759v-739v-20h40v20v739v20h-40v-20z" />
    <glyph glyph-name="ltr109" unicode="m" horiz-adv-x="930" 
d="M440 440q-24 55 -70 89t-100 34q-44 0 -83.5 -23.5t-66.5 -63.5v67v20h-40v-20v-198v-20v-305v-20h40v20v305v20q0 76 43 127t107 51q65 -1 107.5 -51.5t42.5 -126.5v-20l1 -306l1 -20h39l-1 21v305v20v2q1 76 44 126t106 50q65 -1 107.5 -51.5t42.5 -126.5l1 -326l1 -20
h39l-1 21v325q1 87 -56 152.5t-134 65.5q-54 -1 -100 -35t-70 -88z" />
    <glyph glyph-name="ltr110" unicode="n" horiz-adv-x="650" 
d="M120 459v84v20h-40v-20v-217v-20v-286v-20h40v20v286v20q0 84 52 140.5t128 56.5q77 -1 128.5 -57t51.5 -140l1 -307l1 -20h39l-1 21v306q1 95 -65 166t-155 71q-54 0 -101.5 -28.5t-78.5 -75.5z" />
    <glyph glyph-name="ltr111" unicode="o" horiz-adv-x="670" 
d="M40 282q0 -115 74 -198.5t176 -83.5q102 -1 176 83t74 199q1 113 -73.5 197t-176.5 84q-101 -1 -175.5 -84t-74.5 -197zM80 282q0 102 60.5 171.5t149.5 69.5q89 -1 149.5 -70t60.5 -171q1 -103 -60 -172.5t-150 -69.5q-88 -1 -149 69t-61 173z" />
    <glyph glyph-name="ltr112" unicode="p" horiz-adv-x="710" 
d="M120 432v111v20h-40v-20v-261v-448v-20h40v20v297q34 -60 90 -95.5t120 -35.5q102 -1 176 83t74 199q1 113 -73.5 197t-176.5 84q-64 0 -120 -36t-90 -95zM120 282q0 102 60.5 171.5t149.5 69.5q89 -1 149.5 -70t60.5 -171q1 -103 -60 -172.5t-150 -69.5q-88 -1 -149 69
t-61 173z" />
    <glyph glyph-name="ltr113" unicode="q" horiz-adv-x="670" 
d="M40 282q0 -115 74 -198.5t176 -83.5q64 0 120 35.5t90 95.5v-297v-20h40v20v448v4v257v20h-40v-20v-111q-35 60 -90.5 95.5t-119.5 35.5q-101 -1 -175.5 -84t-74.5 -197zM80 282q0 102 60.5 171.5t149.5 69.5q89 -1 149.5 -70t60.5 -171v-4q-1 -102 -61.5 -170
t-148.5 -68q-88 -1 -149 69t-61 173z" />
    <glyph glyph-name="ltr114" unicode="r" horiz-adv-x="530" 
d="M120 435v108v20h-40v-20v-257v-4v-20v-242v-20h40v20v242v20v4q1 114 71 175.5t189 61.5h20v40h-20q-85 0 -153.5 -33.5t-106.5 -94.5z" />
    <glyph glyph-name="ltr115" unicode="s" horiz-adv-x="590" 
d="M440 413q0 61 -57 105.5t-133 44.5q-76 -1 -133 -45t-57 -105q0 -45 37.5 -77.5t90 -51.5t105.5 -35.5t90 -41t37 -57.5q1 -47 -47.5 -78.5t-122.5 -31.5q-73 -1 -121.5 31.5t-48.5 78.5v20h-40v-20q0 -62 63 -106t147 -44q84 -1 147 44t63 106q0 45 -37 77.5t-90 51.5
t-106 35.5t-90 41t-37 57.5q1 46 43.5 78t106.5 32q66 -1 108 -32t42 -78v-20h40v20z" />
    <glyph glyph-name="ltr116" unicode="t" horiz-adv-x="390" 
d="M111 523h129h20v40h-20h-129v101v20h-40v-20v-101h-31h-20v-40h20h31v-371q1 -71 46.5 -111.5t122.5 -40.5h20v40h-20q-66 0 -97 27t-32 85v371z" />
    <glyph glyph-name="ltr117" unicode="u" 
d="M60 543v-336q1 -85 66 -146t154 -61q89 -1 154.5 61t65.5 146l1 335l1 20h-41l-1 -19v-336q1 -71 -51 -119t-129 -48q-76 -1 -128 47.5t-52 119.5l1 335l1 20h-41z" />
    <glyph glyph-name="ltr118" unicode="v" horiz-adv-x="650" 
d="M42 535l220 -523l5 -12h26l5 12l220 523l12 28h-43l-5 -12l-202 -479l-202 479l-5 12h-43z" />
    <glyph glyph-name="ltr119" unicode="w" horiz-adv-x="890" 
d="M41 538l140 -523l4 -15h29l5 13l181 474l181 -474l5 -13h29l4 15l140 523l7 25h-41l-4 -15l-124 -463l-178 465l-5 13h-28l-5 -13l-178 -465l-124 463l-4 15h-41z" />
    <glyph glyph-name="ltr120" unicode="x" horiz-adv-x="650" 
d="M306 294l190 236l26 33h-52l-6 -7l-184 -229l-184 229l-6 7h-52l26 -33l190 -236l-210 -261l-26 -33h52l6 7l204 254l204 -254l6 -7h52l-26 33z" />
    <glyph glyph-name="ltr121" unicode="y" horiz-adv-x="590" 
d="M240 77l-181 473l-5 13h-43l10 -27l197 -515q-44 -101 -79.5 -134t-98.5 -33h-20v-40h20q74 0 120 40.5t93 145.5h1l5 12l200 524l10 27h-43l-5 -13z" />
    <glyph glyph-name="ltr122" unicode="z" horiz-adv-x="650" 
d="M80 523h358l-394 -490l-26 -33h22h20h440h20v40h-20h-398l394 490l26 33h-22h-20h-400h-20v-40h20z" />
    <glyph glyph-name="ltr123" unicode="{" horiz-adv-x="390" 
d="M240 678q-59 0 -89.5 -65.5t-31.5 -143.5q-1 -112 -73 -177l-6 -6v-18q78 -68 79 -181q1 -50 12.5 -95.5t39.5 -80t68 -35.5l21 -1v40l-19 1q-40 1 -60.5 50.5t-21.5 120.5q-1 65 -21.5 116t-47.5 75q25 24 46.5 76t22.5 115q1 69 21 119t60 50h20v40h-20z" />
    <glyph glyph-name="ltr124" unicode="|" horiz-adv-x="290" 
d="M62 700v-892v-20h40v20v892v20h-40v-20z" />
    <glyph glyph-name="ltr125" unicode="}" horiz-adv-x="390" 
d="M60 638q67 -1 69 -169v-1q3 -62 30 -118t50 -74q-26 -23 -51.5 -71.5t-28.5 -116.5q0 -42 -2.5 -68.5t-9.5 -52.5t-21 -38.5t-36 -12.5h-20v-40h20q35 0 57.5 18t33 52t14.5 65.5t4 74.5q5 107 84 176l7 6v19q-37 30 -62.5 77.5t-28.5 105.5q-2 207 -109 208h-20v-40h20z
" />
    <glyph glyph-name="ltr126" unicode="~" 
d="M80 360q1 37 22 64t64 28q30 0 98 -56t111 -56q56 -1 90.5 41.5t34.5 91.5v20h-40v-20q0 -38 -22 -65.5t-63 -27.5q-19 0 -44.5 17t-48 38t-54.5 39t-62 18q-60 -1 -92.5 -43.5t-33.5 -88.5v-20h40v20z" />
  </font>
</defs>
</svg>
