<?xml version="1.0" standalone="no"?>
<!DOCTYPE svg PUBLIC "-//W3C//DTD SVG 1.1//EN" "http://www.w3.org/Graphics/SVG/1.1/DTD/svg11.dtd" >
<svg xmlns="http://www.w3.org/2000/svg">
<metadata>Generated by IcoMoon</metadata>
<defs>
<font id="proxicon" horiz-adv-x="1024">
<font-face units-per-em="1024" ascent="960" descent="-64" />
<missing-glyph horiz-adv-x="1024" />
<glyph unicode="&#x20;" horiz-adv-x="512" d="" />
<glyph unicode="&#xe000;" glyph-name="Watch2" d="M874.030 810.020c-96.704 96.712-225.27 149.98-362.030 149.98-136.768 0-265.326-53.268-362.030-149.98-96.702-96.694-149.97-225.26-149.97-362.028 0-136.75 53.268-265.32 149.97-362.030 96.704-96.692 225.262-149.962 362.030-149.962 136.76 0 265.326 53.27 362.030 149.96 96.702 96.712 149.97 225.282 149.97 362.032 0 136.768-53.268 265.334-149.97 362.028zM512-19.816c-257.962 0-467.816 209.864-467.816 467.808 0 257.962 209.854 467.824 467.816 467.824s467.816-209.862 467.816-467.824c0-257.946-209.854-467.808-467.816-467.808zM612.9 680.184l-39.846 19.068-108.59-226.918c-10.222 2.276-23.010 4.48-34.166 4.48-8.978 0-16.316-1.394-22.382-4.25-26.422-12.418-37.782-44.026-25.356-70.464 8.686-18.454 27.506-30.394 47.914-30.394 7.824 0 15.408 1.696 22.524 5.046 14.684 6.914 27.2 26.282 35.92 43.532l164.222-49.050 12.638 42.312-157.908 47.166 105.030 219.472zM433.764 416.524c-1.068-0.442-2.17-0.652-3.29-0.652-3.394 0-6.516 1.976-7.962 5.046-1.984 4.214-0.308 9.258 3.756 11.464 0.502 0.086 1.772 0.262 4.030 0.262 4.172 0 9.136-0.562 14.136-1.39-4.186-7.164-8.156-12.79-10.67-14.73zM512 850.958c-222.2 0-402.958-180.758-402.958-402.95 0-222.208 180.758-402.968 402.958-402.968 222.192 0 402.958 180.762 402.958 402.97 0 222.19-180.766 402.948-402.958 402.948zM561.22 86.792l-3.018 76.566h-92.39l-3.034-76.566c-161.71 21.922-290.056 150.242-311.998 311.954l77.38 3.050v92.408l-77.38 3.050c21.942 161.674 150.252 289.994 311.926 311.954l3.086-78.138h92.408l3.088 78.138c161.674-21.942 290.002-150.262 311.928-311.954l-77.38-3.050v-92.408l77.38-3.050c-21.924-161.71-150.296-290.046-311.996-311.954z" />
<glyph unicode="&#xe001;" glyph-name="Watch" d="M874.030 810.020c-96.704 96.712-225.27 149.98-362.030 149.98-136.768 0-265.326-53.268-362.030-149.98-96.702-96.694-149.97-225.26-149.97-362.028 0-136.75 53.268-265.32 149.97-362.030 96.704-96.692 225.262-149.962 362.030-149.962 136.76 0 265.326 53.27 362.030 149.96 96.702 96.712 149.97 225.282 149.97 362.032 0 136.768-53.268 265.334-149.97 362.028zM512-19.816c-257.962 0-467.816 209.864-467.816 467.808 0 257.962 209.854 467.824 467.816 467.824s467.816-209.862 467.816-467.824c0-257.946-209.854-467.808-467.816-467.808zM612.9 680.184l-39.846 19.068-108.59-226.918c-10.222 2.276-23.010 4.48-34.166 4.48-8.978 0-16.316-1.394-22.382-4.25-26.422-12.418-37.782-44.026-25.356-70.464 8.686-18.454 27.506-30.394 47.914-30.394 7.824 0 15.408 1.696 22.524 5.046 14.684 6.914 27.2 26.282 35.92 43.532l164.222-49.050 12.638 42.312-157.908 47.166 105.030 219.472zM433.764 416.524c-1.068-0.442-2.17-0.652-3.29-0.652-3.394 0-6.516 1.976-7.962 5.046-1.984 4.214-0.308 9.258 3.756 11.464 0.502 0.086 1.772 0.262 4.030 0.262 4.172 0 9.136-0.562 14.136-1.39-4.186-7.164-8.156-12.79-10.67-14.73zM512 850.958c-222.2 0-402.958-180.758-402.958-402.95 0-222.208 180.758-402.968 402.958-402.968 222.192 0 402.958 180.762 402.958 402.97 0 222.19-180.766 402.948-402.958 402.948zM561.22 86.792l-3.018 76.566h-92.39l-3.034-76.566c-161.71 21.922-290.056 150.242-311.998 311.954l77.38 3.050v92.408l-77.38 3.050c21.942 161.674 150.252 289.994 311.926 311.954l3.086-78.138h92.408l3.088 78.138c161.674-21.942 290.002-150.262 311.928-311.954l-77.38-3.050v-92.408l77.38-3.050c-21.924-161.71-150.296-290.046-311.996-311.954z" />
<glyph unicode="&#xe002;" glyph-name="Warning-box" d="M557.478 310.574c0-0.478-0.058-0.956-0.058-1.494 0-36.406-14.618-50.874-43.85-74.126-29.142 23.254-43.834 37.72-43.834 74.126 0 0.54 0 1.016-0.060 1.494l-30.354 342.614c0.388 40.292 33.566 72.9 74.336 72.9 40.708 0 73.888-32.61 74.246-72.9l-30.426-342.614zM546.42 96.382c-8.816-8.61-20.176-13.33-31.998-13.33h-1.524c-11.85 0-23.268 4.72-32.040 13.33-7.414 7.474-10.418 16.442-10.356 30.966 0 29.352 19.382 46.27 43.012 64.502 21.52-17.276 43.31-36.884 43.31-64.562 0.056-14.464-2.932-23.494-10.404-30.906zM1004.274 152.098l-435.436 697.734c-3.048 4.366-6.964 8.37-10.852 12.016-11.148 10.284-24.644 17.158-37.108 19.192-0.51 0-1.062 0.238-1.554 0.418-0.524 0-0.792 0-1.286 0.12-1.552 0.12-3.124 0.238-4.932 0.238-1.838 0-3.662-0.12-5.47-0.238h-0.254c-1.314-0.12-2.87-0.298-4.408-0.538-0.54 0-1.060 0-1.286-0.24-0.508-0.12-1.060-0.12-1.314-0.24-11.658-2.39-22.792-7.89-32.954-17.394-4.14-3.768-7.788-8.19-11.672-13.332l-10.64-17.096-425.020-680.64c-20.446-25.706-25.93-58.044-13.464-88.116 12.208-30.128 41.502-49.796 73.916-49.796h863.538c32.192 0 61.482 19.668 73.706 49.796 4.128 9.864 6.218 20.384 6.218 30.906-0.002 20.744-5.71 40.054-19.728 57.21z" />
<glyph unicode="&#xe003;" glyph-name="View360" d="M499.96 488.652c-10.596 9.908-25.342 14.858-44.222 14.858-15.544 0-28.948-4.040-40.224-12.102 2.28 14.16 7.008 24.782 14.186 31.866 7.16 7.076 17.792 10.63 31.976 10.63 9.132 0 18.742-1.242 28.778-3.682l7.33 26.056c-4.726 1.378-10.408 2.542-17.042 3.554-6.618 0.996-13.42 1.48-20.428 1.48-53.304 0-79.974-32.896-79.974-98.702 0-25.428 5.578-44.602 16.788-57.47 11.192-12.876 28.982-19.314 53.356-19.314 14.17 0 26.16 2.594 35.99 7.766 9.796 5.188 17.18 12.314 22.044 21.372s7.292 19.542 7.292 31.422c0 18.284-5.286 32.36-15.85 42.266zM475.042 421.708c-5.73-5.928-14.132-8.904-25.274-8.904-13.386 0-22.792 3.902-28.184 11.77-5.426 7.822-8.13 19.906-8.13 36.208v0.212c4.406 4.422 9.542 8.182 15.324 11.32 5.784 3.122 12.792 4.686 20.99 4.686 11.292 0 19.764-2.824 25.376-8.444 5.646-5.646 8.468-13.258 8.468-22.852 0.004-10.068-2.87-18.060-8.57-23.996zM675.098 539.492c-12.96 14.84-32.248 22.282-57.83 22.282s-44.87-7.442-57.794-22.282c-12.96-14.858-19.424-36.748-19.424-65.678 0-28.95 6.462-50.854 19.424-65.694 12.926-14.858 32.214-22.292 57.794-22.292s44.87 7.434 57.83 22.292c12.926 14.84 19.406 36.744 19.406 65.694 0 28.93-6.48 50.82-19.406 65.678zM650.282 428.094c-6.922-9.574-17.928-14.388-33.014-14.388s-26.092 4.814-33.014 14.388c-6.94 9.602-10.408 24.858-10.408 45.718 0 20.87 3.468 36.11 10.408 45.684 6.922 9.592 17.928 14.406 33.014 14.406s26.092-4.814 33.014-14.406c6.922-9.576 10.392-24.816 10.392-45.684 0-20.86-3.47-36.116-10.392-45.718zM799.176 542.578c-3.59 5.936-8.42 10.638-14.51 14.048-6.124 3.418-12.738 5.146-19.9 5.146-7.142 0-13.776-1.726-19.866-5.146-6.090-3.41-10.936-8.114-14.508-14.048-3.59-5.944-5.358-12.424-5.358-19.424s1.768-13.48 5.358-19.416c3.572-5.944 8.418-10.63 14.508-14.058 6.090-3.436 12.722-5.12 19.866-5.12 7.162 0 13.778 1.684 19.9 5.12 6.090 3.426 10.92 8.114 14.51 14.058 3.57 5.936 5.358 12.416 5.358 19.416s-1.788 13.48-5.358 19.424zM776.996 510.704c-3.402-3.418-7.502-5.136-12.23-5.136-4.71 0-8.792 1.718-12.196 5.136-3.436 3.426-5.134 7.578-5.134 12.45s1.7 9.024 5.134 12.45c3.402 3.436 7.484 5.146 12.196 5.146 4.728 0 8.828-1.71 12.23-5.146 3.436-3.426 5.152-7.578 5.152-12.45s-1.716-9.024-5.152-12.45zM312.578 420.102c-6.242-4.566-15.988-6.846-29.256-6.846-9.286 0-17.996 1.13-26.142 3.436-8.148 2.28-16.26 5.39-24.34 9.372l-10.052-25.606c17.060-9.756 37.384-14.628 61.026-14.628 22.69 0 40.244 4.992 52.642 14.976 12.4 9.976 18.642 23.702 18.642 41.244 0 8.692-1.99 16.328-5.954 22.954-3.962 6.616-9.44 12-16.448 16.108 11.564 7.314 17.366 18.2 17.366 32.672 0 14.772-5.766 26.458-17.264 35.082-11.498 8.606-28.046 12.91-49.682 12.91-21.634 0-40.752-4.652-57.352-13.938l11.43-23.982c7.756 3.19 15.24 5.732 22.486 7.628 7.246 1.914 15.052 2.874 23.438 2.874 12.196 0 20.852-1.862 26.058-5.614 5.17-3.724 7.738-8.564 7.738-14.508 0-8.062-2.926-13.446-8.776-16.108-5.884-2.644-15.342-3.988-28.456-3.988h-19.168v-26.508l27.384 0.23c11.43 0.136 19.968-2.092 25.616-6.726 5.612-4.652 8.436-11.022 8.436-19.084 0-10.056-3.114-17.366-9.372-21.95zM1022.788 572.028c-0.212 1.316-0.556 2.578-0.972 3.798l0.038 0.012c-21.126 67.124-56.212 127.54-104.28 179.584-78.26 84.68-182.216 137.108-295.748 149.832-104.12 44.856-219.614 48.484-326.902 9.88-111.868-40.25-201.418-121.55-252.136-228.91-50.72-107.41-56.554-228.018-16.38-339.642 32.834-91.274 93.21-167.588 172.902-219.972 5.424-6.53 11.026-12.948 16.83-19.228 93.308-100.98 221.060-153.078 349.898-153.078 98.192 0 197.030 30.268 281.628 92.238l-27.52 37.588c-144.668-105.95-335.294-109.184-481.028-18.538 84.302-20.712 172.888-16.26 256.482 13.818 52.726 18.964 100.674 47.106 142.498 83.682 4.864 4.236 7.738 10.308 7.958 16.754s-2.262 12.68-6.802 17.246l-66.98 66.998 253.292 26.074-7.636-305.68 46.586-1.164 8.284 332.152c0.17 6.684-2.568 13.13-7.466 17.68-4.916 4.542-11.548 6.762-18.2 6.064l-328.334-33.78c-8.93-0.918-16.548-6.914-19.56-15.376s-0.884-17.902 5.476-24.264l83.428-83.46c-32.656-25.13-68.986-44.956-108.328-59.098-120.786-43.462-249.006-24.908-349.562 39.128-64.672 80.728-97.678 180.946-93.408 285.454 4.676 114.868 53.832 221.138 138.364 299.258 84.55 78.094 194.342 118.694 309.232 114.29 8.502-0.324 16.95-0.922 25.348-1.732 1.836-0.83 3.678-1.644 5.506-2.502 96.234-45.166 169.032-125.056 204.97-224.94 10.476-29.102 17.536-59.3 21.006-89.746l0.028 0.002c3.94-24.134 17.156-45.292 37.17-59.6 15.852-11.32 34.444-17.238 53.528-17.238 4.95 0 9.95 0.4 14.934 1.2 24.186 3.92 45.394 17.034 59.716 36.908 14.336 19.876 20.084 44.14 16.14 68.308zM243.608 781.286c-93.684-86.54-148.128-204.3-153.334-331.566-2.51-61.604 6.698-121.862 26.624-178.254-19.006 27.548-34.808 57.944-46.66 90.876-74.192 206.25 33.678 434.566 240.47 508.952 47.13 16.962 96.034 24.824 144.634 23.692-78.294-18.876-150.926-57.512-211.734-113.7zM968.87 530.96c-7.058-9.772-17.484-16.234-29.408-18.148-11.958-1.948-24.016 0.892-33.932 7.96-9.856 7.024-16.33 17.428-18.276 29.242-3.952 33.234-11.72 66.18-23.156 97.94-24.116 67.036-63.092 125.988-113.656 173.334 49.57-23.236 94.65-56.068 132.91-97.476 43.050-46.598 74.54-100.642 93.618-160.632 1.488-11.43-1.334-22.814-8.1-32.22z" />
<glyph unicode="&#xe004;" glyph-name="Video" d="M939.028 169.6c-0.032-0.47-0.042-0.938-0.042-1.404 0-55.112-44.758-99.95-99.778-99.95l-721.316-0.288c-10.216 0-18.53 8.374-18.53 18.662 0 0.938-0.058 1.874-0.174 2.802l-53.38 424.644c-10.152 110.838 64.598 132.538 98.040 136.698l13.578 0.772 48.5-479.122h623.418l22.196 522.080h-654.438l-2.834 34.764c-2.208 29.69 4.446 53.118 19.772 69.628 24.72 26.626 64.578 28.696 76.206 28.696 50.276 0 664.142 0.452 670.322 0.456 10.028 0 18.21-8.028 18.512-18.012l-40.052-640.426zM810.786 655.44l-18.872-443.968h-550.688l-44.938 443.968h614.498zM960.55 872.952c-6.196-0.004-620.048-0.456-670.306-0.456-20.792 0-73.044-4.194-109.12-43.050-24.172-26.036-34.818-60.864-31.632-103.674l2.41-29.56-11.33-0.646c-0.462-0.028-0.926-0.068-1.388-0.122-40.826-4.878-76.748-22.77-101.142-50.38-29.314-33.18-42.084-80.042-36.924-135.512 0.024-0.24 0.050-0.48 0.080-0.718l53.27-423.764c0.828-34.34 28.96-62.022 63.424-62.022l721.324 0.288c79.536 0 144.286 64.588 144.68 144.132l40.062 640.592c0.028 0.466 0.042 0.934 0.042 1.4 0 35.010-28.454 63.492-63.45 63.492zM458.528 514.514c0.99 4.512 4.16 8.348 8.552 10.156 5.316 2.222 11.044 1.292 15.556-2.406l103.406-78.066c0.992-0.638 1.708-1.326 2.422-2.078 1.664-1.834 2.704-3.788 3.078-5.856 0.050-0.066 0.050-0.192 0.050-0.248 0.046-0.090 0.046-0.208 0.046-0.208 0-0.298 0-0.538 0.070-0.806v-0.032c0-0.396 0.054-0.718 0.054-1.028-0.054-0.272-0.054-0.542-0.126-0.804v-0.486c-0.368-2.254-1.632-4.746-3.414-6.728-0.64-0.626-1.36-1.388-2.184-1.926l-103.406-78.006c-3.006-2.47-6.416-3.544-10.128-3.544-1.806 0-3.742 0.416-5.428 1.074-4.392 1.806-7.562 5.722-8.552 10.27v160.722zM510.558 288.324c80.524 0 145.796 65.276 145.796 145.794 0 80.536-65.274 145.81-145.796 145.81-80.534 0-145.8-65.276-145.8-145.81 0-80.518 65.268-145.794 145.8-145.794z" />
<glyph unicode="&#xe005;" glyph-name="Validation-box" d="M511.974 960c-282.294 0-511.974-229.722-511.974-512s229.68-512 511.974-512c282.344 0 512.026 229.72 512.026 512s-229.682 512-512.026 512zM271.236 535.456l168.422-168.308 293.088 293.072c23.318 23.37 64.194 23.37 87.564 0 11.686-11.686 18.13-27.248 18.13-43.754 0-16.61-6.446-32.122-18.13-43.858l-336.948-336.828c-2.096-2.148-4.298-4.034-6.604-5.764-10.794-8.068-23.582-12.366-37.206-12.366-16.456 0-32.070 6.496-43.756 18.128l-212.072 212.118c-11.738 11.632-18.13 27.248-18.13 43.806 0 16.506 6.392 32.070 18.13 43.754 11.634 11.686 27.25 18.13 43.808 18.13s32.070-6.446 43.704-18.13z" />
<glyph unicode="&#xe006;" glyph-name="Usage2" d="M621.838 530.8l351.716-0.628c-11.378 99.4-55.974 195.792-121.896 261.718-61.882 61.934-142.734 103.456-229.894 118.522l0.074-379.612zM450.84 832.956c-11.802-0.64-23.588-1.768-35.238-3.374-92.476-12.748-176.342-54.516-242.534-120.79-80.422-80.318-124.7-187.166-124.7-300.886 0-113.892 44.278-220.83 124.674-301.124 80.448-80.412 187.294-124.696 300.864-124.696 113.548 0 220.404 44.284 300.88 124.692 67.61 67.612 111.382 161.36 122.152 260.236l-298.126-1.138c-6.094 0-11.942 2.414-16.262 6.716-4.34 4.32-6.778 10.196-6.782 16.322l-0.016 95.878-102.832 0.182c-6.118 0.012-11.976 2.456-16.29 6.79-4.318 4.334-6.734 10.206-6.714 16.322l0.924 324.87zM473.908-64c-125.876 0-244.292 49.072-333.44 138.178-89.11 88.992-138.188 207.514-138.188 333.728 0 126.044 49.078 244.474 138.196 333.476 73.342 73.43 166.31 119.724 268.832 133.856 21.332 2.942 43.066 4.434 64.6 4.434 6.124 0 12.016-2.438 16.344-6.774 4.322-4.336 6.764-10.212 6.748-16.336l-0.926-325.538 79.674-0.142-0.078 406.068c-0.004 6.556 2.792 12.804 7.68 17.176s11.398 6.462 17.922 5.728c107.218-11.972 207.714-60.052 282.988-135.38 41.106-41.114 74.178-91.098 98.292-148.56 22.278-53.088 35.812-111.002 39.136-167.484 0.372-6.342-1.89-12.554-6.254-17.176-4.352-4.608-10.414-7.218-16.75-7.218h-0.040l-376.802 0.676 0.016-72.66 299.98 1.148c6.32 0.028 12.41-2.564 16.782-7.158 4.37-4.592 6.654-10.784 6.318-17.114-6.338-118.936-56.478-233.658-137.568-314.748-89.188-89.11-207.61-138.18-333.462-138.18z" />
<glyph unicode="&#xe007;" glyph-name="Usage" d="M621.834 530.8l351.72-0.628c-11.382 99.4-55.978 195.792-121.896 261.718-61.886 61.934-142.738 103.456-229.894 118.522l0.070-379.612zM450.84 832.956c-11.804-0.64-23.588-1.768-35.238-3.374-92.476-12.748-176.342-54.516-242.534-120.79-80.422-80.318-124.7-187.166-124.7-300.886 0-113.892 44.278-220.83 124.674-301.124 80.448-80.412 187.294-124.696 300.864-124.696 113.548 0 220.4 44.284 300.88 124.692 67.61 67.612 111.382 161.36 122.148 260.236l-298.122-1.138c-6.098 0-11.946 2.414-16.262 6.716-4.34 4.32-6.782 10.196-6.782 16.322l-0.020 95.878-102.828 0.182c-6.116 0.012-11.976 2.454-16.29 6.79-4.318 4.334-6.732 10.206-6.714 16.322l0.924 324.87zM473.908-64c-125.876 0-244.292 49.072-333.44 138.178-89.108 88.992-138.188 207.514-138.188 333.728 0 126.044 49.080 244.474 138.196 333.476 73.342 73.43 166.31 119.724 268.832 133.856 21.332 2.942 43.066 4.434 64.6 4.434 6.122 0 12.016-2.438 16.344-6.774 4.322-4.336 6.764-10.212 6.748-16.336l-0.924-325.536 79.674-0.144-0.082 406.068c0 6.556 2.792 12.804 7.68 17.176s11.402 6.462 17.926 5.728c107.214-11.972 207.714-60.052 282.984-135.38 41.106-41.114 74.178-91.098 98.292-148.56 22.282-53.088 35.816-111.002 39.14-167.482 0.372-6.342-1.89-12.554-6.254-17.176-4.356-4.608-10.414-7.22-16.754-7.22h-0.036l-376.802 0.676 0.012-72.66 299.98 1.148c6.32 0.028 12.41-2.564 16.782-7.158 4.37-4.592 6.654-10.784 6.318-17.114-6.334-118.936-56.474-233.658-137.564-314.748-89.194-89.11-207.616-138.18-333.464-138.18z" />
<glyph unicode="&#xe008;" glyph-name="Trash" d="M373.772 82.888l40.552 1.054-9.53 366.552-40.552-1.054 9.53-366.552zM496.084 83.342l40.564 0.152-1.36 366.548-40.566-0.148 1.362-366.552zM658.696 83.042l6.804 366.552-40.558 0.75-6.8-366.55 40.554-0.752zM916.148 664.308l-0.406-64.046c0-3.152-4.582-6.806-10.492-6.806h-33.348c-31.446 0-53.71-20.108-56.73-51.218l-0.050-0.518-28.652-551.112-0.032-1.21c0-3.12-4.61-6.746-10.546-6.746h-526.728c-5.892 0-10.298 3.56-10.298 6.746l-33.392 562.472h570.836l5.878 113.268 0.028 1.054c0 27.764-24.258 50.352-54.082 50.352h-447.198c-65.22 0-118.282-48.646-118.282-108.434l0.862-14.652h-45.496c-5.816 0-10.164 3.552-10.164 6.728v127.122c0 35.214 33.584 63.862 74.868 63.862l236.386-0.002v39.386c0 45.656 42.144 82.796 93.946 82.796 51.976 0 94.266-37.14 94.266-82.796v-39.392l233.634 0.002c41.464 0 75.196-28.646 75.196-63.862v-62.994zM203.218 608.666c0.346 37.168 35.078 67.31 77.716 67.31h447.198c7.164 0 13.246-4.288 13.512-9.438l-3.848-74.106h-533.608l-0.97 16.234zM962.8 664.16v63.144c0 60.934-54.66 110.508-121.848 110.508l-187.204-0.004c-4.112 68.018-65.646 122.192-140.694 122.192-74.876 0-136.274-54.174-140.376-122.192l-189.956 0.004c-67.006 0-121.516-49.574-121.516-110.508v-127.122c0-29.43 25.488-53.378 56.812-53.378h41.024l33.182-558.208c0.456-29.074 25.824-52.598 56.94-52.598h526.726c31.286 0 56.79 23.576 57.188 52.7l28.57 549.5c0.684 6.338 2.446 8.606 10.254 8.606h33.348c31.508 0 57.14 23.982 57.14 53.302l0.41 64.054z" />
<glyph unicode="&#xe009;" glyph-name="Transfer" d="M1001.934 470.54l-232.054 233.25c-2.504 2.434-5.15 4.674-7.882 6.684-13.21 10.020-28.84 15.33-45.208 15.33-41.558 0-75.388-33.972-75.388-75.722 0-17.694 5.858-34.256 16.898-47.888l0.386-0.494c1.448-1.588 4.446-4.886 4.446-4.886l102.866-103.978h-106.27c-0.092 0.474-0.164 0.956-0.266 1.428-2.364 11.5-7.498 22.472-14.854 31.768l-1.34 1.64c-0.776 0.898-1.55 1.746-2.292 2.556-0.6 0.67-1.216 1.34-1.816 1.958-0.778 0.828-1.5 1.462-1.994 1.886l-0.086 0.088c-0.936 0.918-2.064 2.012-3.37 3.14l-0.566 0.422c-0.246 0.212-0.528 0.388-0.776 0.546-11.272 9.014-24.694 14.518-38.91 15.946l-0.284 0.018c-2.222 0.178-4.726 0.388-7.444 0.388h-327.748l98.6 99.764h0.106l3.906 3.952c14.172 14.322 21.996 33.3 21.996 53.48 0 41.75-33.76 75.722-75.264 75.722-8.088 0-16.166-1.36-24.024-4.022-11.050-3.67-20.876-9.736-29.202-18.080l-232.060-232.934c-14.218-14.392-22.040-33.444-22.040-53.622 0-20.214 7.858-39.202 22.074-53.418l232.062-233.254c2.486-2.434 5.14-4.656 7.876-6.668 13.204-10.018 28.822-15.346 45.208-15.346 41.558 0 75.372 33.97 75.372 75.742 0 17.672-5.83 34.252-16.888 47.872l-0.396 0.492c-1.43 1.588-4.448 4.904-4.448 4.904l-102.86 103.998h106.272c0.090-0.48 0.164-0.968 0.266-1.448 2.374-11.5 7.498-22.472 14.854-31.75l1.332-1.658c0.792-0.916 1.55-1.764 2.292-2.574 0.616-0.67 1.234-1.342 1.824-1.94 0.778-0.848 1.5-1.482 2.012-1.906l0.070-0.070c0.936-0.918 2.054-2.012 3.376-3.14l0.556-0.422c0.256-0.212 0.53-0.388 0.776-0.566 11.272-8.994 24.696-14.496 38.91-15.944h0.292c2.214-0.178 4.728-0.388 7.436-0.388h327.752l-98.6-99.764h-0.106l-3.9-3.952c-14.18-14.324-22.012-33.3-22.012-53.48 0-41.77 33.76-75.74 75.282-75.74 8.078 0 16.156 1.376 24.024 4.022 11.042 3.67 20.866 9.736 29.208 18.098l232.054 232.936c14.216 14.392 22.032 33.442 22.032 53.622-0.002 20.214-7.854 39.182-22.068 53.402zM216.69 407.084l124.688-126.048c0.608-0.67 2.636-2.892 3.846-4.234 7.020-8.784 10.742-19.438 10.742-30.866 0-27.060-21.874-49.108-48.746-49.108-10.53 0-20.626 3.458-29.174 9.984l-0.21 0.14c-1.736 1.27-3.45 2.716-5.062 4.27l-231.844 233.044c-9.208 9.216-14.288 21.528-14.288 34.616 0 13.158 5.098 25.558 14.304 34.888l231.994 232.864c5.362 5.362 11.686 9.26 18.786 11.606l0.14 0.052c5.080 1.748 10.274 2.628 15.46 2.628 26.818 0 48.638-22.032 48.638-49.106 0-12.152-4.35-23.636-12.33-32.666l-149.39-151.166h391.488c1.606 0 3.352-0.124 5.206-0.282 9.172-0.936 17.866-4.586 25.168-10.514l0.426-0.336c0.174-0.158 0.386-0.282 0.562-0.404 0.442-0.424 0.934-0.898 1.448-1.412l1.55-1.446c0.406-0.406 0.812-0.864 1.236-1.324l0.14-0.138c0.564-0.636 1.144-1.272 1.782-1.976l0.406-0.564c4.032-5.048 6.936-10.686 8.718-16.756h-194.11c-22.526 0-43.708-10.108-58.084-27.64-8.404-10.142-13.936-22.394-16.128-35.39h-170.064l22.702-22.716zM632.732 466.2c-1.786-6.748-4.984-13.060-9.448-18.442-9.366-11.394-23.018-17.956-37.552-17.956h-194.472c1.788 6.756 4.992 13.084 9.452 18.484 9.36 11.384 23.038 17.912 37.554 17.912h194.466zM983.060 382.248l-231.984-232.866c-5.378-5.362-11.71-9.278-18.802-11.606l-0.14-0.072c-5.080-1.728-10.266-2.61-15.452-2.61-26.828 0-48.646 22.046-48.646 49.106 0 12.134 4.338 23.634 12.346 32.668l149.382 151.162h-391.498c-1.606 0-3.344 0.106-5.204 0.282-9.174 0.954-17.878 4.586-25.152 10.514l-0.442 0.352c-0.178 0.142-0.378 0.248-0.556 0.388-0.45 0.424-0.944 0.918-1.448 1.412l-1.568 1.444c-0.396 0.426-0.81 0.848-1.226 1.306l-0.132 0.14c-0.572 0.636-1.154 1.306-1.78 2.012l-0.424 0.53c-4.032 5.084-6.936 10.726-8.71 16.792h194.11c22.526 0 43.708 10.088 58.084 27.622 8.4 10.124 13.934 22.378 16.128 35.376h170.064l-22.702 22.736-124.67 126.028c-0.634 0.67-2.646 2.892-3.864 4.252-7.020 8.766-10.74 19.456-10.74 30.868 0 27.074 21.872 49.106 48.754 49.106 10.51 0 20.62-3.458 29.174-9.966l0.21-0.14c1.728-1.288 3.456-2.734 5.044-4.304l231.844-233.046c9.224-9.198 14.288-21.51 14.288-34.598 0-13.158-5.080-25.576-14.288-34.888z" />
<glyph unicode="&#xe00a;" glyph-name="Tools" d="M953.328 6.636c-32.656-32.668-85.792-32.668-118.442 0.004l-425.928 426.060c-24.296 24.304-44.472 51.63-60.198 81.122 20.254 10.876 39.024 24.782 55.736 41.5 16.82 16.826 30.794 35.73 41.694 56.136 29.522-15.742 56.88-35.944 81.206-60.278l425.932-426.068c15.816-15.82 24.528-36.86 24.528-59.238s-8.708-43.416-24.528-59.238zM236.93 532.054c-50.974 0-98.896 19.858-134.94 55.912-37.864 37.874-57.634 89.768-55.726 142.234l72.188-72.21c4.326-4.328 10.196-6.76 16.314-6.76h128.672c2.276-38.934 10.28-76.774 23.608-112.552-16.136-4.364-32.952-6.624-50.116-6.624zM309.7 650.472c32.546-2.236 64.194-9.042 94.214-20.082-8.542-15.37-19.274-29.648-32.048-42.424-12.672-12.68-26.822-23.346-42.048-31.858-11.062 30.066-17.88 61.764-20.118 94.364zM230.25 913.72c2.224 0.080 4.45 0.118 6.676 0.118 50.974 0 98.896-19.856 134.938-55.908 36.046-36.054 55.896-83.994 55.896-134.982 0-17.030-2.224-33.712-6.516-49.734-35.706 13.286-73.462 21.266-112.308 23.536v128.706c0 6.122-2.434 11.992-6.76 16.32l-71.926 71.944zM985.958 157.754l-425.926 426.068c-28.706 28.708-61.124 52.342-96.158 70.498 6.608 21.972 10.034 45.038 10.034 68.626 0 63.32-24.652 122.85-69.41 167.626-44.76 44.774-104.27 69.428-167.572 69.428-20.676 0-41.27-2.694-61.206-8.006-6.298-1.678-11.6-5.952-14.58-11.75-4.588-8.92-2.886-19.784 4.204-26.876l97.446-97.472v-118.502h-118.466l-97.442 97.474c-0.104 0.104-0.208 0.208-0.314 0.308l-0.18 0.174c-5.882 5.662-14.312 7.794-22.178 5.61-7.86-2.184-13.984-8.36-16.108-16.242-21.972-81.716 1.5-169.616 61.256-229.394 44.762-44.772 104.272-69.432 167.572-69.432 23.732 0 46.934 3.466 69.024 10.162 18.136-34.97 41.724-67.332 70.374-95.99l425.926-426.066c25.324-25.336 58.582-38 91.852-37.996 33.262 0 66.532 12.664 91.852 37.992 24.536 24.542 38.046 57.176 38.046 91.882 0 34.71-13.516 67.338-38.046 91.878z" />
<glyph unicode="&#xe00b;" glyph-name="Tips2" d="M953.27 6.71c-15.8-15.798-36.808-24.496-59.156-24.496-22.344 0-43.356 8.7-59.156 24.496l-425.718 425.568c-24.404 24.39-44.726 51.904-60.618 81.998 20.254 10.86 39.024 24.762 55.736 41.464 16.784 16.78 30.5 35.476 41.186 55.384 30.092-15.88 57.602-36.192 82.002-60.584l425.718-425.566c15.804-15.794 24.508-36.796 24.508-59.134s-8.702-43.336-24.502-59.13zM236.844 532.596h-0.016c-50.916 0-98.792 19.826-134.804 55.822-37.63 37.616-57.388 89.144-55.7 141.284l71.762-71.738c4.336-4.332 10.214-6.766 16.346-6.766l131.612-0.002c2.252-38.244 10.116-75.5 23.468-111.262-16.91-4.828-34.596-7.338-52.668-7.338zM229.7 913.652c2.38 0.088 4.764 0.134 7.15 0.134 50.928 0 98.808-19.826 134.818-55.818 50.768-50.752 66.836-123.236 48.262-187.774-35.788 13.368-73.082 21.24-111.374 23.496l-0.004 131.57c0 6.128-2.434 12.004-6.77 16.338l-72.082 72.054zM326.764 555.020c-11.714 31.696-18.624 64.706-20.62 98.578 33.906-1.994 66.936-8.9 98.64-20.616-8.598-16.016-19.616-31.066-33.118-44.566-13.458-13.454-28.582-24.648-44.902-33.396zM985.958 157.652l-425.72 425.566c-28.708 28.698-61.24 52.412-96.904 70.728 24.64 81.028 4.99 172.748-58.976 236.696-44.742 44.728-104.232 69.358-167.508 69.358-20.862 0-41.632-2.742-61.732-8.146-7.924-2.132-14.126-8.304-16.292-16.218-2.164-7.912 0.028-16.38 5.766-22.246l0.174-0.18c0.062-0.064 0.122-0.126 0.184-0.188l97.37-97.334 0.004-118.28-118.318 0.002-97.372 97.34c-7.106 7.098-17.988 8.796-26.92 4.208-5.81-2.988-10.084-8.292-11.766-14.602-21.706-81.468 1.816-169.066 61.386-228.614 44.748-44.73 104.224-69.36 167.494-69.36h0.022c23.696 0.002 46.862 3.458 68.92 10.128 18.328-35.672 42.060-68.208 70.78-96.912l425.716-425.566c24.534-24.526 57.152-38.032 91.848-38.032s67.316 13.506 91.848 38.032 38.042 57.128 38.042 91.808c0 34.682-13.516 67.286-38.046 91.812z" />
<glyph unicode="&#xe00c;" glyph-name="Tips1" d="M953.326 6.636c-32.654-32.668-85.792-32.668-118.442 0.004l-425.926 426.060c-24.296 24.306-44.472 51.632-60.198 81.122 20.254 10.876 39.024 24.782 55.736 41.5 16.82 16.826 30.794 35.73 41.694 56.136 29.522-15.742 56.88-35.944 81.206-60.278l425.93-426.068c15.818-15.82 24.53-36.86 24.53-59.238s-8.71-43.416-24.53-59.238zM236.93 532.054c-50.974 0-98.896 19.858-134.94 55.912-37.864 37.874-57.634 89.768-55.726 142.234l72.188-72.21c4.326-4.328 10.196-6.76 16.314-6.76h128.672c2.276-38.934 10.28-76.774 23.608-112.552-16.136-4.364-32.952-6.624-50.116-6.624zM309.7 650.472c32.546-2.236 64.194-9.042 94.214-20.082-8.542-15.37-19.274-29.648-32.048-42.424-12.672-12.68-26.822-23.346-42.048-31.858-11.062 30.064-17.88 61.762-20.118 94.364zM230.25 913.72c2.224 0.080 4.45 0.118 6.676 0.118 50.974 0 98.896-19.856 134.938-55.908 36.046-36.054 55.896-83.994 55.896-134.982 0-17.030-2.224-33.712-6.516-49.734-35.706 13.286-73.462 21.266-112.308 23.536v128.704c0 6.122-2.434 11.992-6.76 16.32l-71.926 71.946zM985.956 157.754l-425.926 426.068c-28.702 28.708-61.122 52.342-96.156 70.498 6.608 21.972 10.034 45.038 10.034 68.626 0 63.32-24.652 122.85-69.41 167.626-44.76 44.772-104.27 69.428-167.572 69.428-20.676 0-41.27-2.694-61.206-8.006-6.298-1.678-11.6-5.952-14.58-11.75-4.588-8.92-2.886-19.784 4.204-26.876l97.446-97.472v-118.502h-118.466l-97.442 97.472c-0.104 0.104-0.208 0.208-0.314 0.308l-0.18 0.174c-5.882 5.662-14.312 7.794-22.178 5.61-7.86-2.184-13.984-8.36-16.108-16.242-21.972-81.716 1.5-169.616 61.256-229.394 44.762-44.772 104.272-69.432 167.572-69.432 23.732 0 46.934 3.466 69.024 10.162 18.136-34.97 41.724-67.334 70.374-95.99l425.924-426.066c25.326-25.336 58.584-38 91.854-37.996 33.262 0 66.53 12.664 91.852 37.992 24.534 24.542 38.046 57.176 38.044 91.882 0 34.712-13.514 67.34-38.046 91.88z" />
<glyph unicode="&#xe00d;" glyph-name="Television" d="M155.774 64.85h703.826v-38.012h-703.826v38.012zM980.504 869.24l-808.788-0.266c-49.138 0-86.192-39.55-86.192-91.998l0.39-8.656h-0.006l0.080-1.708c-22.134-4.32-42.128-15.35-57.606-32.040-19.922-21.478-29.932-49.72-28.186-79.556l29.024-484.034c0.34-24.094 19.716-43.588 43.48-43.588l816.738 0.158c51.214 0.028 95.292 41.644 98.258 92.734l36.27 604.328 0.034 1.14c0 23.978-19.508 43.486-43.496 43.486zM949.754 222.526c-1.792-30.862-29.422-56.946-60.328-56.962l-816.726-0.16c-2.814 0-5.474 3.026-5.474 6.224v0.568l-29.086 485.070c-1.134 19.372 5.298 37.646 18.108 51.46 8.626 9.298 19.48 15.85 31.556 19.248l23.494-500.040h787.842l30.708 540.946-805.904-0.184-0.408 8.702c0.172 31.562 19.936 53.568 48.186 53.568l808.79 0.266c2.898 0 5.278-2.26 5.464-5.11l-36.222-603.596zM125.73 730.686l763.888 0.176-26.39-464.916h-715.662l-21.836 464.74zM325.758 566.808h60.056v-169.038h38.588v169.038h60.058v32.062h-158.702zM589.882 446.694l-58.698 152.176h-41.304l80.988-201.1h37.768l80.982 201.1h-41.306z" />
<glyph unicode="&#xe00e;" glyph-name="Telephony" d="M639.108-58.748c-0.006 0-0.006 0-0.008 0-120.544 0-223.108 48.988-234.108 54.42-8.38 3.518-48.172 22.696-57.958 73.044-9.864 50.75-36.064 185.556-36.066 378.918 0-0.008 0-0.008 0-0.008 0 0.008 0 0.008 0 0.008 0 193.368 26.202 328.164 36.066 378.91 9.784 50.346 49.572 69.522 57.956 73.042 10.988 5.426 113.546 54.414 234.092 54.414 0.008 0 0.012 0 0.020 0 34.358 0 52.852-15.442 62.32-28.396 36.080-49.376 4.912-147.11-15.712-211.784l-2.544-7.986c-8.924-28.118-33.058-35.702-38.596-37.094-3.548-0.956-34.66-9.192-70.458-13.596-8.988-1.106-17.484-1.878-25.5-2.318-6.438-52.212-12.262-119.362-12.264-205.2s5.824-152.992 12.264-205.204c8.016-0.44 16.51-1.214 25.5-2.318 35.744-4.398 66.816-12.618 70.44-13.596 5.534-1.386 29.692-8.958 38.616-37.092l2.536-7.966c20.628-64.682 51.802-162.43 15.718-211.81-9.466-12.948-27.962-28.388-62.314-28.388zM421.642 36.046c0.89-0.308 1.332-0.526 2.208-0.968 0.982-0.494 101.066-50.144 215.252-50.144 0.002 0 0.006 0 0.006 0 17.378 0 23.758 5.982 27.046 10.482 22.998 31.468-7.44 126.902-22.066 172.764l-2.558 8.032c-1.946 6.134-6.968 7.78-7.018 7.792-0.392 0.084-0.78 0.18-1.168 0.286-0.296 0.080-30.862 8.352-65.028 12.514-4.81 0.586-9.378 1.052-13.712 1.408 1.184-8.122 2.334-15.76 3.414-22.938 8.434-56.020 12.666-84.14-2.332-104.148-10.62-14.166-26.966-20.418-44.832-17.172-30.524 5.56-61.914 38.548-73.016 76.728-10.136 34.86-1.41 68.294 23.942 91.728 10.126 9.36 24.376 15.484 43.014 18.418-6.416 52.922-12.124 120.622-12.124 206.798v0c0 86.174 5.706 153.87 12.124 206.794-18.638 2.934-32.886 9.060-43.012 18.418-25.354 23.434-34.080 56.866-23.944 91.726 11.102 38.184 42.492 71.17 73.014 76.728 17.868 3.254 34.212-3.004 44.832-17.172 15-20.004 10.766-48.126 2.334-104.156-1.078-7.156-2.224-14.77-3.406-22.864 26.364 2.146 55.758 7.574 78.738 13.856 0.734 0.2 0.416 0.17 0.852 0.238 1.646 0.562 5.618 2.448 7.334 7.85l2.562 8.046c14.622 45.856 45.052 141.274 22.060 172.74-3.29 4.502-9.672 10.486-27.052 10.486-114.618 0.006-214.258-49.638-215.25-50.14-0.876-0.442-1.318-0.66-2.21-0.968-2.212-0.91-25.958-11.322-31.728-41-9.644-49.618-35.264-181.414-35.264-370.584 0.002-189.148 25.62-320.956 35.264-370.574 5.764-29.68 29.512-40.092 31.724-41.004zM510.564 197.49c-9.734-1.612-15.986-4.244-19.14-7.158-23.42-21.648-11.752-50.6-5.648-62.044 12.080-22.644 29.632-32.348 34.494-31.494 0.092 0.088 0.25 0.252 0.462 0.536 3.812 6.836-1.356 41.158-5.914 71.44-1.334 8.872-2.774 18.432-4.254 28.72zM519.62 798.51c-5.592 0-22.254-9.816-33.846-31.55-6.102-11.442-17.766-40.392 5.654-62.038 3.896-3.6 10.566-5.966 19.112-7.33 1.488 10.35 2.936 19.962 4.278 28.878 4.558 30.286 9.726 64.612 5.812 71.6-0.146 0.186-0.274 0.314-0.358 0.388-0.198 0.034-0.414 0.052-0.652 0.052z" />
<glyph unicode="&#xe00f;" glyph-name="Tarifs" d="M554.692 342.342c-38.968 0-62.268 16.056-72.716 51.418h91.206v43.404h-97.628v10.848c0 5.204 0 10.030 0.402 14.858h97.626v43.38h-90.408c10.85 32.548 33.748 47.428 71.52 47.428 31.336 0 55.050-6.844 56.246-6.844l8.836 46.614c-4.406 2.012-35.344 9.236-65.082 9.236-72.318 0-116.516-32.95-132.192-96.434h-31.334v-43.38h25.31c-0.396-4.828-0.396-9.654-0.396-14.858v-10.848h-25.312v-43.404h30.534c14.858-65.898 59.458-100.442 133.39-100.442 38.578 0 70.308 8.836 74.734 10.852l-8.836 46.61c-0.818 0-28.546-8.438-65.9-8.438zM976.122 348.504l-307.754-283.328c-0.254-0.232-0.504-0.472-0.746-0.716-12.766-12.858-29.328-15.556-40.98-15.556h-0.008c-20.984 0.004-42.958 9-57.398 23.54l-521.156 521.162c-2.624 2.644-2.636 6.932-0.028 9.562 0.172 0.174 0.34 0.354 0.508 0.53l204.144 219.542c12.28 12.234 28.516 18.964 45.762 18.964 17.352 0 33.674-6.816 45.966-19.192l3.822-3.848-28.388-30.618c-15.674-15.916-24.3-37.002-24.3-59.388-0.032-22.496 8.67-43.676 24.514-59.666 15.858-15.962 36.944-24.756 59.374-24.756h0.066c22.474 0 43.592 8.8 59.474 24.794 15.816 15.952 24.522 37.13 24.522 59.618 0.030 22.48-8.678 43.664-24.534 59.66l-31.534 31.752 6.906 7.746c12.244 12.122 28.41 18.79 45.584 18.79 17.356 0 33.69-6.818 46.038-19.254l469.962-469.964c2.538-2.556 2.598-6.69 0.184-9.374zM348.574 697.768c-8.312 8.386-12.882 19.514-12.868 31.36 0 11.87 4.582 23.014 12.9 31.39 0.162 0.162 0.322 0.33 0.476 0.498l29.414 31.722 31.988-32.206c8.328-8.402 12.904-19.53 12.888-31.362 0-11.854-4.576-22.998-12.874-31.366-8.278-8.336-19.284-12.926-31-12.926l-0.042-20.072v20.072c-11.66 0-22.63 4.584-30.882 12.89zM1008.618 390.48l-469.946 469.946c-21.024 21.172-48.984 32.832-78.736 32.832-29.756 0-57.722-11.66-78.748-32.832-0.29-0.292-0.572-0.596-0.848-0.902l-3.362-3.772c-20.998 21.034-48.868 32.616-78.512 32.616-29.752 0-57.726-11.666-78.764-32.848-0.178-0.178-0.352-0.362-0.526-0.548l-204.206-219.606c-20.088-20.588-19.964-53.826 0.408-74.344l521.162-521.166c23.078-23.236 56.762-37.112 90.090-37.116h0.012c28.656 0 54.68 10.222 73.348 28.798l307.922 283.48c0.258 0.236 0.508 0.48 0.754 0.728 20.46 20.63 20.448 54.136-0.048 74.734z" />
<glyph unicode="&#xe010;" glyph-name="Tailor" d="M221.762-17.84c4.726 146.104 54.616 269.304 148.49 366.506 26.672 27.618 53.506 49.294 76.968 65.764 2.986-6.362 8.262-15.974 17.316-32.472 6.32-11.518 13.89-25.312 21.566-39.716-33.476-65.618-38.134-87.824-38.106-100.754l0.264-112.936c0.098-29.51 37.75-53.276 53.936-62.118l11.298-6.18 11.196 6.378c15.714 8.956 52.254 32.96 52.164 62.306l-0.274 112.9c-0.024 12.912-4.762 35.060-38.406 100.482 7.762 14.664 15.39 28.67 21.77 40.358 10.082 18.498 15.368 28.194 18.012 34.402 22.726-15.17 48.64-35.284 74.59-61.3 94.852-95.092 145.16-220.692 149.722-373.622h-580.506zM436.834 542.064c-41.482 29.2-73.098 63.57-89.024 96.786-3.050 6.378-8.766 10.97-15.666 12.524-2.16 0.816-8.382 8.532-10.956 22.76-2.804 15.534 0.432 28.088 4.906 32.016 4.318 3.786 7.066 9.046 7.712 14.764l5.894 52.282c20.53 86.79 86.446 140.646 172.3 140.646 100.834 0 176.044-80.58 178.838-191.612 0.156-6.168 2.77-12.012 7.266-16.234 4.516-4.244 7.636-17.22 4.524-32.926-2.782-14.024-8.676-20.708-10.626-21.654h-3.7c-8.238 0-15.848-4.398-19.976-11.524-43.184-74.642-136.414-129.776-157.504-136.42-9.532 1.708-39.072 14.022-73.988 38.592zM530.69 130.41c-2.036-3.776-9.274-10.368-17.69-16.434-8.7 6.002-16.366 12.67-18.584 16.474l-0.264 111.136c-0.006 2.892 1.584 13.834 18.070 49.118 16.568-35.16 18.202-46.084 18.208-48.964l0.26-111.33zM519.416 404.782c-2.222-4.098-4.61-8.466-7.104-13.046l-0.246 0.47-0.246-0.47c-2.384 4.364-4.672 8.526-6.816 12.424-5.282 9.626-11.098 20.226-14.23 26.29 0.598 2.138 1.414 4.326 2.458 6.538 1.522 3.228 3.864 5.98 7.176 8.412 2.962 2.196 8.384 2.654 12.404 2.654 5.202 0 9.35-0.9 11.4-2.466 3.118-2.39 5.274-5.054 6.602-8.134l0.122-0.278c0.976-2.198 1.758-4.426 2.332-6.654-3.062-5.962-8.716-16.32-13.852-25.74zM797.87 222.020c-27.164 62.696-65.062 118.662-112.632 166.358-44.64 44.75-89.192 73.642-120.824 90.786 13.512 8.098 26.574 16.974 36.082 23.902 30.79 22.43 72.344 57.966 101.398 103.24 17.352 3.844 32.156 18.054 40.704 39.622 10.446 26.36 11.042 62.372-5.938 85.802-3.39 63.024-27.094 120.19-67.214 161.736-41.444 42.902-97.354 66.534-157.442 66.534-107.27 0-192.674-69.744-217.57-177.694-0.2-0.854-0.35-1.722-0.454-2.6l-5.19-46.072c-16.954-21.32-17.088-52.934-11.374-75.318 5.738-22.458 17.652-39.434 32.934-47.626 25.802-48.272 69.184-85.008 101.894-107.756 13.782-9.584 29.476-19.214 44.77-27.14-31.356-18.512-74.844-48.686-118.432-93.484-47.462-48.76-85.28-104.88-112.406-166.804-33.802-77.164-50.946-163.43-50.946-256.422 0-12.754 10.34-23.084 23.084-23.084h627.376c12.746 0 23.082 10.33 23.082 23.084 0.004 96.526-17.122 184.99-50.902 262.936z" />
<glyph unicode="&#xe012;" glyph-name="Tablet" d="M858.582 51.644c-2.178-37.516-35.762-69.226-73.334-69.242l-621.052-0.2c-3.422 0-6.654 3.68-6.654 7.57 0 0.45-0.012 0.902-0.040 1.352l-41.608 711.2c-1.376 23.546 6.444 45.762 22.016 62.554 11.186 12.064 25.46 20.318 41.338 24.168l31.32-666.92h577.77l40.456 712.632h-21.266c-407.002-0.026-542.208-0.038-587.184-0.044l-0.64 13.64c0.21 38.37 24.234 65.118 58.58 65.118l623.318 0.324c3.526 0 6.422-2.756 6.644-6.226l-49.664-855.926zM786.268 794.578l-35.892-632.274h-501.47l-29.694 632.232c93.654 0.012 472.76 0.036 567.056 0.042zM901.59 960l-623.318-0.324c-59.73 0-104.774-48.078-104.774-111.832 0-0.362 0.008-0.72 0.026-1.084l0.54-11.516c-26.912-5.25-51.212-18.66-70.034-38.95-24.212-26.108-36.38-60.44-34.258-96.67l41.568-710.616c0.406-29.3 23.96-53.008 52.856-53.008l621.070 0.196c62.254 0.032 115.836 50.618 119.446 112.77l49.716 856.834c0.024 0.446 0.040 0.892 0.040 1.338-0.002 29.148-23.718 52.862-52.878 52.862zM531.772 81.332h-60.256l3.376-61.114h53.36z" />
<glyph unicode="&#xe013;" glyph-name="Surfgsm" d="M343.030 12.68h48.582l3.204 55.64h-54.858zM722.458 736.174l-2.724-19.072c-0.496-3.468-0.744-6.688-0.744-9.662-1.488-7.18-7.43-18.824-25.762-18.824-13.126 0-21.3 6.686-21.3 25.512 0 29.97 10.404 43.842 30.714 43.842 16.84 0.002 20.312-10.154 19.816-21.796zM825.746 739.642c0 64.152-50.778 104.032-122.86 103.784-14.574 0.052-28.544-2.122-41.542-6.172-14.85-4.626-28.4-11.74-40.088-20.9-26.758-20.976-43.702-52.666-43.702-89.84 0-49.126 17.432-79.204 44.436-96.41 10.942-6.97 23.454-11.832 37.018-14.984 14.396-3.348 29.974-4.776 46.11-4.776 12.134 0 21.3 1.486 30.712 4.212l-7.184 27.988c-7.68-1.236-15.854-2.476-24.772-2.476-16.908 0-31.174 2.094-43.066 6.066-16.422 5.486-28.304 14.566-36.34 26.688-9.334 14.080-13.476 32.256-13.476 53.692 0 22.034 7.162 41.564 19.872 56.53 9.97 11.742 23.358 20.664 39.384 25.776 9.93 3.168 20.868 4.882 32.636 4.882 54.246 0 89.418-27.742 89.418-76.042 0-34.428-9.658-52.758-26.502-52.758-9.412 0-14.862 6.442-12.384 25.512l9.66 73.566h-33.934l-1.98-13.376c-5.452 9.414-15.112 15.854-30.964 15.854-10.484 0-19.766-2.724-27.686-7.568-20.152-12.32-31.512-38.358-31.512-68.226 0-25.714 11.192-39.574 24.884-45.972 6.878-3.218 14.392-4.56 21.434-4.56 20.312 0 32.202 10.652 38.888 24.522 6.44-16.348 21.3-24.274 39.878-24.522 43.102-0.248 63.662 33.934 63.662 79.51zM892.704 726.912c0-105.352-85.706-191.064-191.052-191.064-17.606 0-34.658 2.406-50.858 6.886-14.464 4-28.246 9.656-41.126 16.76-21.49 11.858-40.472 27.732-55.916 46.606-21.68 26.494-36.388 58.894-41.322 94.382-1.202 8.64-1.834 17.46-1.834 26.428 0 36.352 10.208 70.36 27.9 99.318 9.548 15.632 21.282 29.796 34.77 42.058 33.944 30.854 79.006 49.684 128.384 49.684 105.348 0.002 191.054-85.706 191.054-191.058zM490.8 826.19c-14.246-30.138-22.23-63.792-22.23-99.278 0-8.94 0.522-17.754 1.506-26.434-152.284-0.020-217.042-0.036-244.628-0.046l-3.116 66.264c0.196 34.942 22.080 59.308 53.372 59.308l215.096 0.186zM500.82 142.222h-248.24l-24.428 521.666c50.606 0.018 174.11 0.036 249.068 0.044 8.078-28.75 21.548-55.258 39.242-78.38l-15.642-443.33zM217.706 105.676h318.392l15.626 442.922c16.622-14 35.212-25.722 55.298-34.68l-27.422-472.644c-1.984-34.168-32.576-63.050-66.804-63.070l-340.986-0.176c-3.124 0-6.080 3.36-6.080 6.91v0.61l-34.286 591.622c-1.264 21.568 5.902 42.008 20.174 57.556 10.824 11.792 24.786 19.662 40.24 22.912l25.848-551.962zM934.73 726.912c0 128.524-104.56 233.088-233.080 233.088-75.428 0-142.586-36.024-185.214-91.76l-240.752-0.206c-54.376 0-95.378-43.766-95.378-101.802l3.14-67.376c-24.090-4.988-45.876-17.28-62.79-35.704-22.032-24.004-33.102-55.41-31.168-88.42l34.22-590.478c0.366-26.672 21.804-48.254 48.106-48.254l341.004 0.18c56.672 0.028 105.45 46.082 108.734 102.66l26.76 461.15c17.134-4.030 34.99-6.166 53.338-6.166 128.52-0.002 233.080 104.564 233.080 233.088z" />
<glyph unicode="&#xe014;" glyph-name="Stopwatch" d="M838.974 505.512c0-181.070-147.314-328.39-328.392-328.39-181.076 0-328.392 147.32-328.392 328.39 0 181.078 147.316 328.394 328.392 328.394 181.078 0 328.392-147.316 328.392-328.394zM563.212 24.738c-5.484-24.82-28.1-42.836-53.77-42.836-7.642 0-15.026 1.652-21.938 4.91-13.176 6.208-23.054 17.27-27.816 31.144-4.834 14.106-3.79 29.176 2.946 42.442 9.804 19.312 26.518 37.492 47.732 52.122 31.198-20.754 60.4-53.618 52.846-87.782zM889.002 777.542l-87.43 87.428-58.744-66.142c-50.856 40.354-112.406 67.772-179.642 77.268l4.97 83.904h-123.642l5.872-85.052c-63.55-10.322-121.788-36.678-170.39-74.796l-57.57 64.818-87.426-87.428 67.908-59.142c-41.974-60.478-66.622-133.854-66.622-212.888 0-190.496 143.052-348.208 327.376-371.36-17.846-15.774-32.25-33.856-41.96-52.976-12.4-24.426-14.326-52.16-5.432-78.106 8.822-25.722 27.172-46.242 51.672-57.786 13.082-6.16 27.042-9.286 41.502-9.286h0.004c47.028 0 88.494 33.152 98.588 78.832 10.472 47.368-15.168 89.254-50.286 119.348 184.206 23.262 327.128 180.918 327.128 371.332 0 78.364-24.224 151.166-65.552 211.352l69.676 60.68zM510.584 280.484c-124.084 0-225.034 100.95-225.034 225.028 0 117.050 89.828 213.5 204.168 224.064v-165.736c-19.788-8.82-33.626-28.664-33.626-51.692 0-31.198 25.38-56.58 56.576-56.58s56.576 25.382 56.576 56.58c0 23.028-13.834 42.872-33.622 51.692v165.31c112.342-12.496 199.996-108.016 199.996-223.638 0.002-124.078-100.95-225.028-225.034-225.028zM510.584 776.454c-149.398 0-270.938-121.544-270.938-270.942 0-149.39 121.54-270.934 270.938-270.934s270.94 121.542 270.94 270.934c0 149.398-121.544 270.942-270.94 270.942z" />
<glyph unicode="&#xe015;" glyph-name="Stay-informed" d="M955.328 291.304c-2.356-38.69-37.020-71.354-75.778-71.376h-622.884c-12.496-0.004-27.398-6.176-36.24-15.008-0.142-0.144-0.282-0.29-0.42-0.432l-141.874-149.368-31.802 590.076c-1.394 23.808 6.364 46.402 21.838 63.626 10.952 12.18 24.958 20.774 40.6 25.162l24.508-431.88h753.404l25.102 478.234-21.148 0.002c-526.886 0.064-690.204 0.042-741.042 0.014l-0.952 16.758c0.256 39.642 25.126 67.274 60.656 67.274h761.114c3.996 0 7.266-3.168 7.426-7.128l-22.508-565.954zM869.476 740.202l-20.886-397.962h-677.39l-22.582 397.982c109.294 0.044 611.222-0.008 720.858-0.020zM970.41 910.542h-761.114c-60.896 0-106.82-49.030-106.82-114.050 0-0.436 0.014-0.87 0.040-1.306l0.844-14.946c-26.842-5.958-50.982-19.93-69.526-40.566-23.772-26.458-35.704-60.97-33.59-97.070l33.726-625.748c0.326-20.616 14.416-31.398 28.34-31.4h0.004c5.824 0 14.616 1.852 23.436 10.67 0.14 0.14 0.278 0.282 0.412 0.426l166.758 175.558c0.934 0.654 2.966 1.488 4.044 1.658h622.604c63.504 0.038 118.168 51.648 121.852 115.052 0.008 0.14 0.016 0.282 0.024 0.42l22.542 566.792c0.012 0.306 0.020 0.612 0.020 0.916-0.002 29.552-24.046 53.594-53.596 53.594zM263.784 562.714h500.564v-40.138h-500.564v40.138z" />
<glyph unicode="&#xe016;" glyph-name="Stayinformed" d="M955.324 291.304c-2.356-38.69-37.020-71.354-75.778-71.376h-622.884c-12.496-0.004-27.398-6.176-36.238-15.008-0.144-0.144-0.284-0.29-0.422-0.432l-141.872-149.368-31.804 590.076c-1.392 23.808 6.366 46.402 21.84 63.626 10.954 12.18 24.958 20.774 40.6 25.162l24.508-431.88h753.404l25.102 478.234-21.148 0.002c-526.886 0.064-690.202 0.042-741.040 0.014l-0.952 16.758c0.258 39.642 25.126 67.274 60.656 67.274h761.112c3.996 0 7.266-3.168 7.426-7.128l-22.51-565.954zM869.472 740.202l-20.886-397.962h-677.39l-22.582 397.982c109.296 0.044 611.222-0.008 720.858-0.020zM970.406 910.542h-761.112c-60.894 0-106.82-49.030-106.82-114.050 0-0.436 0.016-0.87 0.042-1.306l0.846-14.946c-26.844-5.958-50.984-19.93-69.528-40.566-23.774-26.458-35.708-60.97-33.594-97.070l33.726-625.746c0.324-20.616 14.418-31.398 28.34-31.4h0.004c5.824 0 14.618 1.852 23.436 10.67 0.138 0.14 0.28 0.282 0.412 0.426l166.758 175.558c0.934 0.654 2.964 1.488 4.044 1.658h622.602c63.504 0.038 118.168 51.648 121.852 115.052 0.008 0.14 0.016 0.282 0.024 0.42l22.542 566.792c0.012 0.306 0.020 0.612 0.020 0.916 0 29.55-24.042 53.592-53.594 53.592zM263.78 562.712h500.564v-40.136h-500.564v40.136z" />
<glyph unicode="&#xe017;" glyph-name="Sondage" d="M127.466 63.464l-40.656-0.004c-22.416 0-40.652-18.236-40.652-40.65 0-22.416 18.24-40.652 40.656-40.652s40.648 18.236 40.648 40.652c0 0.102 0 0.204 0.004 0.306v40.348zM86.814-64c-47.868 0-86.814 38.942-86.814 86.81s38.944 86.81 86.81 86.81l40.656 0.004v827.296c0 12.746 10.332 23.080 23.080 23.080 12.744 0 23.078-10.334 23.078-23.080v-827.292l40.648 0.004c22.332 0 40.516 18.102 40.648 40.404 0 0.082 0 0.162 0 0.246l0.008 254.602c-0.002 0.112-0.002 0.222-0.002 0.336 0 0.13 0.002 0.266 0.004 0.396 0.212 47.686 39.068 86.41 86.8 86.41 47.864 0 86.802-38.942 86.802-86.806l0.004-254.198c0.008-0.248 0.012-0.496 0.012-0.74 0-22.418 18.232-40.654 40.644-40.654s40.646 18.236 40.646 40.654v532.588c0 47.868 38.94 86.812 86.806 86.812s86.8-38.944 86.8-86.812l0.012-532.586c0-22.418 18.234-40.654 40.648-40.654 22.41 0 40.644 18.236 40.644 40.654v719.378c0 0.202 0.004 0.402 0.008 0.602 0.324 47.594 39.136 86.216 86.8 86.216 47.75 0 86.618-38.758 86.804-86.468 0-0.118 0-0.232 0-0.35v-719.376c0-22.414 18.234-40.652 40.648-40.652l21.074-0.008c12.746-0.004 23.078-10.342 23.074-23.088s-10.34-23.072-23.082-23.072l-21.074 0.008c-47.856 0-86.796 38.944-86.796 86.812v719.084c-0.004 0.1-0.004 0.2-0.004 0.3 0 22.416-18.23 40.65-40.644 40.65-22.41 0-40.64-18.236-40.64-40.65 0-0.172-0.004-0.344-0.008-0.52v-718.866c0-47.872-38.942-86.814-86.804-86.814-47.868 0-86.808 38.944-86.808 86.814l-0.008 532.586c0 22.414-18.234 40.652-40.644 40.652-22.414 0-40.648-18.238-40.648-40.652v-532.586c0-47.872-38.938-86.814-86.804-86.814-47.574 0-86.332 38.472-86.798 85.944-0.010 0.288-0.016 0.578-0.016 0.872l-0.004 254.938c0 22.414-18.234 40.652-40.644 40.652s-40.644-18.238-40.644-40.652l-0.008-254.63c0-0.102 0.002-0.204 0.002-0.304 0-47.87-38.944-86.812-86.804-86.812l-40.652-0.004v-40.658c0-0.122-0.004-0.24-0.004-0.36-0.19-47.708-39.060-86.456-86.806-86.456z" />
<glyph unicode="&#xe018;" glyph-name="Sms" d="M193.118 716.86h629.666l-24.164-386.44h-590.032l-15.47 386.44zM956.79 526.498c-7.352-129.498-14.946-263.412-18.578-286.268-5.696-35.986-23.254-51.35-58.7-51.35h-541.454c-6.678 0-13.038-2.862-17.462-7.85l-93.674-105.702-4.944 90.408c-0.682 12.372-10.9 22.044-23.29 22.044l-126.678-0.11-25.39 463.83c0 34.364 27.974 62.32 62.37 62.32h43.656l16.964-423.962h667.122l29.234 467.566h-672.1c0.362 1.794 0.532 3.658 0.452 5.568l-1.208 29.836c0 34.446 27.962 62.462 62.326 62.462h716.514c2.852 0 5.050-2.032 5.368-4.834-5.436-57.804-13.11-193.096-20.528-323.958zM971.95 901.936h-716.516c-60.088 0-108.97-48.944-108.95-110.040l1.226-30.768c0.010-0.216 0.024-0.446 0.032-0.664h-38.754c-60.114 0-109.016-48.882-108.984-110.244l26.628-487.154c0.688-12.372 10.902-22.048 23.292-22.048l126.676 0.11 6.848-125.020c0.522-9.436 6.684-17.634 15.614-20.748 2.518-0.87 5.1-1.296 7.674-1.296 6.56 0 12.948 2.764 17.462 7.856l124.356 140.318h530.956c58.3 0 95.52 32.216 104.77 90.676 4.012 25.172 10.992 148.332 19.082 290.942 7.458 131.598 15.172 267.668 20.532 323.694 0.078 0.732 0.11 1.474 0.11 2.218 0 28.766-23.352 52.168-52.054 52.168zM357.992 544.914c-29.96 10.494-33.746 12.95-33.746 21.92 0 7.884 9.778 12.404 26.822 12.404 22.106 0 45.634-7.588 48.244-8.456l2.118-0.7 6.056 27.822-1.532 0.646c-0.986 0.418-24.47 10.192-56.768 10.192-37.49 0-59.874-16.604-59.874-44.414 0-24.536 12.020-35.738 53.576-49.948 29.986-10.35 34.784-14.556 34.784-22.75 0-11.84-10.218-17.842-30.37-17.842-21.748 0-39.692 6.82-48.452 10.886l-2.156 1.002-7.762-28.608 1.96-0.876c17.686-7.944 37.72-12.318 56.41-12.318 40.762 0 65.096 18.006 65.096 48.168 0 29.020-17.548 40.17-54.406 52.872zM505.276 531.892l-41.020 73.712h-32.848v-158.594h33.674v96.116l33.812-57.892h12.748l33.818 57.894v-96.118h33.676v158.594h-32.846zM666.836 544.914c-29.96 10.494-33.742 12.95-33.742 21.92 0 7.884 9.774 12.404 26.82 12.404 22.106 0 45.632-7.588 48.242-8.456l2.118-0.7 6.058 27.822-1.536 0.646c-0.984 0.418-24.48 10.192-56.762 10.192-37.492 0-59.876-16.604-59.876-44.414 0-24.536 12.016-35.738 53.574-49.948 29.984-10.35 34.786-14.556 34.786-22.75 0-11.84-10.218-17.842-30.368-17.842-21.754 0-39.7 6.82-48.458 10.886l-2.156 1.002-7.762-28.608 1.96-0.874c17.688-7.946 37.718-12.32 56.414-12.32 40.758 0 65.090 18.006 65.090 48.168 0.004 29.020-17.542 40.17-54.402 52.872z" />
<glyph unicode="&#xe019;" glyph-name="Smiley" d="M282.556 209.348c6.794-13.884 15.346-29.218 25.962-44.898 47.492-70.13 112.484-114.622 193.212-132.284 83.786 14.43 149.396 57.676 195.052 128.584 11.218 17.424 19.852 34.544 26.414 49.812-46.878-23.794-121.708-50.698-220.46-50.698-97.144 0.002-172.24 26.032-220.18 49.484zM764.776 287.166c3.992 0 8-1.022 11.61-3.108 8.46-4.888 12.984-14.522 11.29-24.144-0.43-2.426-10.95-60.152-50.762-122.702-23.438-36.824-60.2-79.792-115.628-111.43 172.254 19.982 351.434 176.65 354.472 395.088-0.116 248.978-208.096 451.518-463.716 451.51-255.69 0-463.71-202.684-463.71-451.814 0-0.132-0.002-0.268-0.004-0.398-1.894-110.396 34.568-206.864 105.45-278.972 59.358-60.384 140.562-99.374 228.462-110.838-44.344 26.976-82.598 63.844-113.268 109.592-41.004 61.164-54.042 116.47-54.578 118.796-2.226 9.684 1.946 19.712 10.382 24.956 8.444 5.246 19.286 4.544 26.976-1.744 0.888-0.718 95.336-75.604 250.984-75.604 155.342 0 246.164 74.618 247.062 75.37 4.294 3.596 9.618 5.442 14.978 5.442zM584.392-22.87c-29.020 0-57.16 2.62-83.722 7.79-20.468-3.038-41.984-4.578-64.024-4.578-60.222 0-118.34 11.144-172.73 33.126-54.792 22.142-103 54.15-143.292 95.136-79.774 81.16-120.848 189.098-118.782 312.156 0.052 133.14 53.204 258.274 149.676 352.372 96.344 93.976 224.382 145.734 360.522 145.734 136.21 0.004 264.266-51.71 360.574-145.618 96.484-94.078 149.622-219.28 149.626-352.538 0-0.106 0-0.21 0-0.314-1.668-123.544-53.3-238.17-145.398-322.756-82.156-75.458-191.48-120.51-292.45-120.51zM434.084 602.852h-158.834l9.326-157.010h140.516zM748.764 602.852h-158.832l9.324-157.010h140.516z" />
<glyph unicode="&#xe01a;" glyph-name="Smartphone" d="M526.88 20.218l3.52 61.114h-60.252l3.372-61.114h53.36zM439.724 825.172h122.466v40.14h-122.466v-40.14zM671.304 734.932l-20.208-571.014h-276.668l-26.828 570.958c64.442 0.024 259.406 0.048 323.704 0.056zM783.018 907.59l-49.666-855.966c-2.18-37.528-35.78-69.25-73.37-69.27l-374.514-0.2c-3.434 0.004-6.68 3.692-6.68 7.594v0.668l-37.66 649.798c-1.388 23.69 6.482 46.14 22.16 63.216 11.94 13.008 27.36 21.67 44.424 25.21l28.42-604.866h353.704l23.054 651.3-20.796-0.002c-231.408-0.030-316.39-0.050-347.69-0.064l-3.446 73.368c0.21 38.378 24.248 64.972 58.616 64.972h376.776c3.536 0.002 6.444-2.272 6.668-5.758zM829.192 907.162c0 29.134-23.706 52.838-52.862 52.838l-376.778-0.324c-59.72 0-104.756-48.070-104.756-111.814l3.45-74c-26.458-5.478-50.386-18.978-68.962-39.214-24.2-26.366-36.356-60.858-34.234-97.114l37.584-648.542c0.402-29.288 23.948-52.992 52.836-52.992l374.536 0.196c62.244 0.032 115.82 50.618 119.426 112.754l49.72 856.874 0.040 1.338z" />
<glyph unicode="&#xe01b;" glyph-name="Settings" d="M597.65 241.262c-27.394-11.304-56.176-17.042-85.526-17.042-90.87 0-172.042 54.26-206.824 138.174-47.13 113.954 7.128 245.128 121.086 292.302 27.348 11.348 56.13 17.13 85.478 17.13 90.914 0 172.132-54.26 206.914-138.174 47.088-113.956-7.304-245.13-121.128-292.39zM987.822 693.478c-7.086 13.87-21.824 22.564-37.128 21.74l-0.348-0.044-121.090-5-8 9.088c-12.042 13.564-24.738 26.216-37.782 37.652l-9.128 8.042 4.782 121.696c0.696 15.566-7.824 30.174-21.652 37.216-26.916 13.872-54.74 25.35-82.568 34.218-4 1.304-8.042 1.912-12.304 1.912-11.128 0-21.91-4.738-29.476-12.958l-82.172-89.39-12.176 0.74c-17.696 1.174-35.566 1.174-53.218-0.044l-12.086-0.782-82.654 89.522c-7.61 8.218-18.262 12.914-29.436 12.914-4.174 0-8.262-0.608-12.086-1.87-28.176-9-56-20.522-82.872-34.304-13.738-7.042-22.26-21.652-21.564-37.13l4.958-121.476-9.088-8c-13.434-11.872-26.086-24.566-37.61-37.784l-8-9.13-121.74 4.87c-0.262 0-0.61 0-0.958 0-15.476 0-29.304-8.304-36.174-21.652-13.652-26.348-25.216-54.174-34.434-82.738-4.61-14.74-0.304-31.088 11.086-41.564l89.35-82.304-0.696-12.044c-1.13-17.868-1.042-35.826 0.088-53.302l0.782-12.13-89.522-82.616c-11.39-10.564-15.696-26.912-11-41.652 9.088-28.478 20.566-56.304 34.262-82.696 6.87-13.216 20.87-21.696 35.652-21.696 0.434 0 0.87 0 1.302 0h0.262l121.438 5.086 8.042-9.128c11.87-13.566 24.522-26.174 37.696-37.652l9.174-8-4.87-121.87c-0.61-15.392 7.912-29.958 21.696-37.13 26.216-13.522 54.042-25.044 82.652-34.218 3.826-1.26 7.912-1.87 12.13-1.87 11.174 0 21.87 4.696 29.434 12.914l82.304 89.434 12.042-0.738c17.74-1.13 35.74-1.13 53.478 0l12.046 0.738 82.562-89.434c7.566-8.262 18.262-12.914 29.39-12.914 4.176 0 8.262 0.61 12.218 1.87 28.348 9.088 56.176 20.61 82.652 34.304 13.914 7.13 22.348 21.696 21.652 37.088l-4.958 121.522 9.132 8c13.652 12.086 26.258 24.738 37.562 37.696l8.042 9.13 122.61-4.826c15.042 0 29.652 8.738 36.304 21.738 13.738 26.61 25.262 54.436 34.262 82.61 4.782 14.826 0.434 31.174-11 41.696l-89.348 82.262 0.782 12.042c1.042 17.912 1.042 35.912-0.086 53.39l-0.872 12.13 89.566 82.61c11.39 10.522 15.738 26.826 10.958 41.564-8.948 28.088-20.424 55.914-34.252 82.652z" />
<glyph unicode="&#xe01c;" glyph-name="Seealso" d="M516.864 202.534c-1.452-0.008-2.874-0.016-4.32-0.016-188.57 0-360.4 91.312-462.94 245.484 77.898 117.114 195.77 197.904 330.598 230.002-31.096-32.672-50.208-76.852-50.208-125.416 0-100.348 81.648-181.99 182.010-181.99 100.372 0 182.032 81.64 182.032 181.99 0 48.904-19.39 93.36-50.878 126.1 137.118-31.702 255.66-113.038 331.498-230.688-98.338-152.556-268.474-244.068-457.792-245.466zM655.756 552.588c0-79.244-64.488-143.712-143.754-143.712-79.254 0-143.734 64.468-143.734 143.712 0 67.93 47.368 124.964 110.79 139.904 12.514 0.726 25.114 1.060 37.788 0.97 9.236-0.068 18.436-0.354 27.576-0.848 63.698-14.744 111.334-71.906 111.334-140.026zM1022.238 448.002c-0.004 0.122 0.004 0.242-0.004 0.364 0.058 4.008-0.958 8.078-3.204 11.754-53.082 86.896-128.876 158.27-219.182 206.404-85.718 45.688-183.468 70.224-282.68 70.956-99.622 0.756-198.114-22.612-284.8-67.518-93.572-48.47-170.014-118.978-227.202-209.566-2.424-3.84-3.512-8.144-3.39-12.368v-0.056c-0.122-4.222 0.966-8.528 3.39-12.368 57.19-90.586 133.634-161.098 227.212-209.57 85.37-44.222 182.162-67.536 280.238-67.536 1.52 0 3.050 0.008 4.57 0.016 99.212 0.734 196.958 25.274 282.67 70.96 90.3 48.132 166.092 119.508 219.174 206.41 2.246 3.672 3.262 7.742 3.204 11.754 0.008 0.122 0 0.242 0.004 0.364z" />
<glyph unicode="&#xe01d;" glyph-name="Secure-payment" d="M273.188 84.488c-29.598 0-53.678 24.078-53.678 53.672s24.080 53.674 53.678 53.674c29.59 0 53.664-24.080 53.664-53.674s-24.074-53.672-53.664-53.672zM273.188 240.14c-56.236 0-101.982-45.748-101.982-101.98s45.748-101.98 101.982-101.98c56.226 0 101.97 45.748 101.97 101.98s-45.742 101.98-101.97 101.98zM584.462 84.488c-29.59 0-53.668 24.078-53.668 53.672s24.078 53.674 53.668 53.674c29.594 0 53.668-24.080 53.668-53.674s-24.074-53.672-53.668-53.672zM584.462 240.14c-56.226 0-101.972-45.748-101.972-101.98s45.746-101.98 101.972-101.98c56.23 0 101.976 45.748 101.976 101.98s-45.744 101.98-101.976 101.98zM455.078 486.342l5.296 90.592h-60.916l5.372-90.592zM948.012 756.16h-38.814l12.176 36.43c3.848 11.514 14.66 19.058 26.698 18.914 0.238-0.006 0.464-0.006 0.696-0.002 14.918-0.402 26.93-12.656 26.93-27.664-0.002-15.262-12.42-27.678-27.686-27.678zM719.552 341.106h-585.276l-82.134 248.798c-6.394 19.372-4.626 53.97 3.662 72.474 0.212 0.456 21.42 45.472 62.018 45.472h197.562l3.216-54.898h-1.562c-32.82 0-59.522-26.752-59.522-59.64 0-0.396 0.008-0.792 0.028-1.184l6.7-136.45c0.168-15.628 6.354-30.274 17.46-41.31 11.212-11.138 26.076-17.258 41.906-17.258l207.208 0.002c0.132-0.002 0.262-0.002 0.39-0.002 15.824 0 30.688 6.12 41.902 17.26 11.040 10.968 17.214 25.508 17.46 41.030l9.496 136.23c0.042 0.56 0.062 1.122 0.062 1.682 0 32.886-26.71 59.64-59.54 59.64h-2.214l3.844 54.898h299.902l-122.568-366.744zM378.224 776.364c12.302 12.776 30.664 19.53 53.102 19.53 20.84 0 37.93-6.48 49.416-18.746 10.668-11.384 15.92-27.27 14.788-44.608l-5.576-79.586h-122.962l-4.624 78.99c0 0.022 0.004 0.040 0.004 0.062 0 0.054-0.008 0.104-0.008 0.156-0.562 17.304 5.060 32.988 15.86 44.202zM540.592 604.646c5.988 0 10.898-4.754 11.214-10.72l-9.476-135.894c-0.042-0.558-0.058-1.122-0.058-1.684 0-3.93-2.012-6.516-3.214-7.708-1.218-1.212-3.878-3.322-8.086-3.218h-207.128c-0.052 0-0.104-0.002-0.152-0.002-4.060 0-6.716 2.008-7.938 3.218-1.198 1.19-3.212 3.776-3.212 7.708 0 0.396-0.008 0.792-0.024 1.184l-6.686 136.214c0.224 6.048 5.166 10.902 11.206 10.902h223.554zM948.012 859.818c-0.152 0-0.308-0.002-0.464-0.004-32.744-0.014-61.568-20.736-71.99-51.912l-17.292-51.744h-315.87c-3.43 20.478-12.422 39.096-26.398 54.018-20.558 21.94-50.628 34.024-84.672 34.024-35.88 0-66.274-11.872-87.9-34.33-14.2-14.744-23.534-33.272-27.39-53.712h-198.214c-72.124 0-104.706-70.906-106.056-73.922-13.226-29.538-15.642-76.744-5.496-107.474l87.432-264.854c0.5-1.642 1.172-3.21 1.992-4.688 1.784-3.214 4.236-5.912 7.122-7.958 2.758-1.964 5.946-3.364 9.402-4.030 1.5-0.294 3.040-0.444 4.594-0.444 0.186 0 0.374 0 0.562 0.004h619.574c10.386 0 19.614 6.648 22.906 16.502l133.2 398.554h54.958c41.902 0 75.992 34.086 75.992 75.986s-34.090 75.984-75.992 75.984z" />
<glyph unicode="&#xe01e;" glyph-name="Search" d="M884.66 414.402c-114.090-103.286-257.384-86.63-396.092-70.524-25.202 2.92-49.32 5.72-72.852 7.728-2.008 23.518-4.81 47.63-7.73 72.832-16.532 142.25-33.63 289.352 78.808 404.784l0.494 0.512c112.108 111.296 293.878 111.050 405.698-0.72 112.050-112.014 112.040-294.278-0.012-406.304l-8.314-8.308zM322.81 160.38l-156.422-156.958c-27.278-27.268-71.668-27.268-98.944 0-27.278 27.264-27.278 71.642-0.032 98.892l157.038 156.424c35.21 34.234 81.028 49.476 146.754 48.364 1.108-65.71-14.144-111.526-48.394-146.722zM942.102 406.494c114.262 131.162 108.958 330.936-15.882 455.756-130.372 130.332-342.518 130.332-472.892-0.006l-12.528-12.544 0.324-0.588c-50.054-56.442-79.022-124.040-88.422-206.060-8.67-75.566 0.108-151.056 8.584-224.040 2.608-22.448 5.11-44.018 7.016-64.85-77.284 0.74-132.52-18.788-176.744-61.852l-157.354-156.746c-45.606-45.588-45.606-119.786 0-165.374 45.604-45.594 119.818-45.594 165.458 0.026l156.562 157.102-16.652 16.588 16.832-16.396c43.082 44.206 62.61 99.44 61.87 176.696 20.836-1.904 42.414-4.406 64.874-7.020 73.008-8.474 148.504-17.244 224.1-8.584 88.382 10.134 160.024 42.968 219.012 100.384l16.886 16.444-1.044 1.064zM555.288 491.43c-73.35 73.338-73.356 192.664 0 265.996 73.352 73.33 192.704 73.33 266.062 0 73.35-73.338 73.35-192.658 0-265.996-73.36-73.33-192.704-73.33-266.062 0zM850.252 786.316c-89.296 89.27-234.582 89.27-323.868 0-89.294-89.264-89.294-234.506 0-323.776 89.286-89.264 234.582-89.27 323.868 0 89.29 89.264 89.29 234.512 0 323.776z" />
<glyph unicode="&#xe020;" glyph-name="Reload" d="M366.192 337.292h32.078c11.090-69.618 52.336-104.408 123.756-104.408 24.238 0 47.964 3.86 71.164 11.6l-6.972 32.862c-20.886-6.448-42.148-9.67-63.8-9.67-23.726 0-42.352 5.68-55.89 17.018-13.54 11.344-22.622 28.88-27.266 52.6h101.322v31.72h-104.416l-0.376 11.982c0 7.212 0.12 12.502 0.376 15.844h104.416v31.722h-100.54c4.88 22.434 14.048 39.052 27.452 49.878 13.402 10.834 31.466 16.252 54.14 16.252 17.28 0 35.192-2.458 53.764-7.348l6.958 32.862c-5.154 1.82-13.54 3.734-25.138 5.8-11.6 2.058-23.592 3.104-35.974 3.104-69.344 0-110.2-33.524-122.566-100.546h-32.112v-31.722h28.626c-0.272-3.342-0.392-8.63-0.392-15.844l0.392-11.982h-29v-31.724zM1006.66 392.256c-14.322 19.876-35.532 32.99-59.718 36.9-4.982 0.808-9.984 1.208-14.934 1.208-19.084 0-37.674-5.92-53.528-17.248-20.010-14.288-33.216-35.47-37.164-59.59h-0.034c-3.47-30.446-10.53-60.644-21.006-89.746-35.94-99.884-108.738-179.784-204.974-224.944-2.024-0.944-4.116-1.616-6.148-2.526-8.19-0.774-16.412-1.394-24.706-1.708-114.894-4.406-224.686 36.196-309.238 114.292-84.534 78.114-133.69 184.392-138.368 299.262-4.268 104.536 28.856 204.734 93.574 285.476 100.532 63.968 228.666 82.55 349.404 39.102 39.326-14.132 75.674-33.958 108.33-59.088l-83.428-83.462c-6.346-6.362-8.488-15.8-5.476-24.262 3.010-8.462 10.628-14.458 19.558-15.384l328.34-33.788c6.65-0.68 13.284 1.54 18.2 6.082 4.898 4.55 7.636 10.988 7.466 17.68l-8.284 332.158-46.588-1.166 7.636-305.69-253.294 26.058 66.98 67.022c4.542 4.568 7.026 10.8 6.804 17.24-0.222 6.446-3.096 12.526-7.96 16.762-41.824 36.576-89.774 64.718-142.5 83.684-83.47 30.038-171.916 34.494-256.102 13.896 145.698 90.436 336.086 87.254 480.652-18.618l27.52 37.59c-84.602 61.97-183.44 92.238-281.63 92.238-128.86 0-256.596-52.098-349.906-153.078-6.174-6.678-12.076-13.54-17.818-20.506-79.040-52.352-139.26-127.932-171.916-218.698-40.176-111.628-34.34-232.24 16.378-339.632s140.272-188.68 252.138-228.932c107.342-38.626 222.876-34.876 327.038 10.044 113.464 12.748 217.398 65.024 295.622 149.668 48.068 52.046 83.156 112.462 104.282 179.588l-0.076 0.026c0.416 1.216 0.798 2.458 1.012 3.778 3.914 24.176-1.8 48.438-16.138 68.312zM310.676 24.68c-206.76 74.386-314.63 302.704-240.438 508.962 11.872 32.988 27.724 63.41 46.774 90.988-19.96-56.426-29.254-116.714-26.738-178.372 5.204-127.27 59.65-245.022 153.334-331.57 60.552-55.952 132.838-94.398 210.756-113.364-48.286-1.002-96.864 6.508-143.688 23.356zM976.902 332.624c-19.084-59.912-50.534-113.908-93.54-160.46-38.458-41.628-83.828-74.566-133.708-97.826 50.858 47.438 90.24 106.39 114.454 173.678 11.386 31.678 19.118 64.532 23.080 97.664 0.018 0.086 0.050 0.162 0.068 0.246 1.94 11.848 8.42 22.24 18.286 29.282 9.916 7.068 21.958 9.908 33.932 7.96 11.924-1.922 22.35-8.376 29.408-18.148 6.806-9.434 9.56-20.906 8.020-32.396z" />
<glyph unicode="&#xe021;" glyph-name="Refresh" d="M1006.652 392.256c-14.32 19.876-35.532 32.99-59.718 36.9-4.982 0.808-9.984 1.208-14.934 1.208-19.084 0-37.674-5.918-53.528-17.246-20.010-14.288-33.216-35.47-37.164-59.59h-0.034c-3.47-30.446-10.53-60.646-21.006-89.748-35.942-99.884-108.738-179.786-204.974-224.944-2.026-0.944-4.118-1.616-6.15-2.526-8.19-0.784-16.404-1.394-24.688-1.708-114.912-4.406-224.704 36.196-309.256 114.292-84.534 78.114-133.69 184.394-138.368 299.262-4.27 104.528 28.846 204.72 93.558 285.46 100.548 63.988 228.684 82.578 349.422 39.12 39.34-14.134 75.672-33.958 108.328-59.088l-83.428-83.462c-6.362-6.362-8.488-15.8-5.476-24.262s10.63-14.458 19.56-15.384l328.34-33.788c6.65-0.68 13.284 1.54 18.2 6.080 4.898 4.55 7.622 10.988 7.466 17.682l-8.284 332.158-46.588-1.166 7.636-305.692-253.296 26.058 66.982 67.024c4.542 4.566 7.024 10.8 6.82 17.238-0.238 6.446-3.114 12.528-7.96 16.762-41.842 36.578-89.79 64.718-142.518 83.684-83.47 30.038-171.916 34.494-256.094 13.896 145.698 90.436 336.078 87.256 480.646-18.616l27.52 37.59c-84.602 61.972-183.424 92.24-281.632 92.24-128.842 0-256.596-52.098-349.908-153.080-6.174-6.684-12.078-13.548-17.826-20.512-79.040-52.362-139.26-127.932-171.91-218.692-40.158-111.63-34.324-232.24 16.38-339.634 50.72-107.394 140.272-188.68 252.14-228.932 107.342-38.626 222.892-34.876 327.038 10.042 113.474 12.758 217.416 65.026 295.624 149.67 48.068 52.048 83.158 112.464 104.284 179.59l-0.078 0.026c0.418 1.216 0.8 2.458 1.014 3.776 3.93 24.176-1.8 48.436-16.14 68.312zM310.682 24.676c-206.778 74.388-314.648 302.708-240.456 508.966 11.872 32.988 27.734 63.41 46.784 90.998-19.952-56.436-29.248-116.724-26.73-178.382 5.188-127.268 59.634-245.020 153.318-331.57 60.552-55.952 132.848-94.4 210.766-113.366-48.286-1.002-96.856 6.506-143.682 23.354zM976.896 332.624c-19.084-59.914-50.55-113.908-93.542-160.462-38.466-41.628-83.828-74.574-133.708-97.826 50.848 47.438 90.24 106.382 114.454 173.678 11.404 31.712 19.142 64.618 23.116 97.792 0.008 0.042 0.026 0.076 0.034 0.12 1.94 11.848 8.42 22.24 18.3 29.282 9.9 7.066 21.944 9.908 33.916 7.96 11.924-1.924 22.35-8.376 29.408-18.15 6.814-9.432 9.562-20.896 8.022-32.394z" />
<glyph unicode="&#xe023;" glyph-name="Products" d="M693.538 146.306l3.246 57.234h-57.848l0.914-15.582 2.464-41.652h39.418zM687.030 239.598h1.578l3.246 57.266h-57.864l3.394-57.266h5.396zM979.138 758.142l-150.976-0.166 7.058 121.758 0.036 1.266c0 27.668-22.492 50.174-50.16 50.174l-587.934-0.3c-56.5 0-99.1-45.48-99.1-105.776l0.432-9.624 0.066-1.964v-0.066c-25.336-4.994-48.21-17.646-65.956-36.792-22.874-24.668-34.394-57.13-32.378-91.39l39.188-670.27c0.382-27.768 22.74-50.276 50.158-50.276h800.736c49.894 0.034 92.742 42.084 95.64 91.894l38.004 655.42 0.050 1.264c0 24.706-20.126 44.848-44.864 44.848zM197.178 886.694l587.916 0.298c3.18 0 5.762-2.462 5.976-5.594l-7.156-123.456-67.458-0.034 3.296 58.2-577.060-0.232-0.466 9.688c0.2 36.026 22.74 61.13 54.952 61.13zM606.838 663.854l0.102-2.398h-0.020c-19.976-4.66-37.988-15.016-52.136-30.264-19.378-20.842-29.102-48.278-27.418-77.212l21.758-372.148h-376.666l-27.702 589.894 528.238 0.168-0.914-16.148c-38.376-8.722-65.426-43.548-65.426-87.764l0.184-4.128zM89.572 8.898c-3.064 0-5.994 3.33-5.994 6.826v0.666l-39.27 671.47c-1.298 22.108 6.042 42.982 20.676 58.764 9.772 10.522 22.042 17.978 35.708 21.876l29.632-630.85h421.394l7.41-126.752c0.016-0.632 0.050-1.232 0.082-1.864l-469.638-0.136zM941.866 59.174c-1.532-26.436-25.188-48.742-51.656-48.742l-286.154-0.168c-0.266 0.168-0.766 0.766-0.766 1.366v0.632l-7.324 125.386-2.578 44.184-21.942 374.712c-0.968 16.814 4.578 32.662 15.68 44.582 6.21 6.692 13.77 11.718 22.126 14.95l14.214-276.162h299.418l11.488 324.338h-283.352l-0.204 4.228c0.118 14.916 6.042 30.498 18.532 38.922 5.808 3.93 13.050 6.292 21.84 6.292l287.964 0.266c0.3 0 0.566-0.2 0.632-0.464l-37.918-654.322zM653.268 620.104h235.36l-8.36-236.042h-214.848l-6.86 133.426-5.292 102.616zM382.614 44.458h50.34l3.314 57.632h-56.834zM746.326 110.248h-2l1-17.346 2.246-39.922h51.258l3.364 57.268h-11.622zM848.072 52.98h51.208l3.398 57.268h-57.852zM757.146 296.864h-12.82l3.246-57.266h51.258l3.364 57.266h-0.802zM853.002 146.306h51.238l3.364 57.234h-57.848zM647.24 52.98h51.242l3.226 57.268h-57.846zM857.928 239.598h51.242l3.364 57.266h-57.852zM751.736 203.54h-7.41l3.246-57.234h51.258l3.364 57.234h-6.192z" />
<glyph unicode="&#xe024;" glyph-name="Print" d="M1010.978 569.396c-8.602 8.992-20.626 13.954-33.902 13.954l-165.868-0.194 14.050 281.4c0.676 14.438-3.934 27.65-12.954 37.126-8.606 8.992-20.626 13.986-33.84 13.986h-490.384c-0.128 0-0.242 0-0.354 0-26.748-0.418-51.336-11.28-69.254-30.582-17.934-19.272-26.942-44.666-25.362-71.316l13.858-258.328h-112.148c-26.78-0.418-51.37-11.278-69.286-30.582-17.918-19.272-26.91-44.666-25.362-71.286l17.482-334.554c0.372-23.558 19.352-42.636 42.652-42.636h133.884l6.124-54.3c0.758-23.204 19.61-41.862 42.636-41.862h446.382c46.242 0.032 86.012 37.608 88.688 83.852l0.738 13.792h125.040c46.118 0.034 85.852 37.416 88.688 83.434l31.386 370.136 0.066 0.838c0.672 14.436-3.936 27.616-12.96 37.122zM216.134 88.886l-3.754-0.418v3.962l3.754 0.226v-3.77zM948.428 164.78l-0.032-0.58c-1.32-22.848-21.754-42.15-44.602-42.15h-166.868l-2.996-55.494c-1.324-22.85-21.754-42.152-44.602-42.152h-444.882l-6.574 58.716 391.966 0.16c31.55 2.062 56.626 28.134 56.626 59.942 0 31.71-24.528 57.814-55.594 60.424v0.226h-330.512v-19.53l-0.306 19.208c-29.422-0.452-56.444-12.344-76.118-33.548-13.036-14.018-21.768-31.002-25.668-49.434h-136.446l-17.546 335.458c-0.854 14.63 3.98 28.392 13.616 38.8 9.604 10.344 22.898 16.178 37.448 16.436h118.802l4.368-81 461.256-1.062c33.61 0 61.004 27.376 61.004 61.020 0 34.064-27.942 62.874-61.070 62.874l-428.32-0.934-14.178 264.094c-0.838 14.63 3.996 28.392 13.63 38.8 9.604 10.344 22.88 16.178 37.448 16.436h490.194c1.16 0 1.774-0.226 1.836-0.292 0.226-0.16 0.968-1.578 0.808-4.512l-16.308-327.74 212.34 0.258c1.16 0 1.774-0.226 1.868-0.29 0.196-0.194 0.872-1.514 0.808-4.254l-31.396-369.88zM238.42 121.534c2.998 8.216 7.572 15.79 13.648 22.332 12.488 13.438 29.728 21.012 48.582 21.3v0.292h325.13c12.278 0 22.27-9.99 22.27-22.236 0-12.182-9.766-21.688-22.27-21.688h-387.36zM252.47 513.742l427.29 0.966c12.020 0 22.59-11.44 22.59-24.492 0-12.472-10.152-22.59-22.558-22.59l-424.904 0.934-2.418 45.182zM297.812 773.776h417.908v-38.412h-417.908v38.412zM297.812 670.232h417.908v-38.412h-417.908v38.412zM776.792 194.878h50.078l3.288 55.914h-56.524zM781.592 377.184h50.082l3.284 55.944h-56.522zM862.19 377.184h50.082l3.284 55.944h-56.492zM857.388 286.016h50.082l3.254 55.944h-56.492zM779.208 286.016h50.048l3.286 55.944h-56.494zM852.556 194.878h50.078l3.29 55.914h-56.496z" />
<glyph unicode="&#xe025;" glyph-name="Presencehome" d="M598.378 385.032c-7.188 0-13.946-2.8-19.032-7.878l-90.846-90.86-50.162 50.156c-5.080 5.090-11.834 7.894-19.032 7.894-7.186 0-13.944-2.804-19.034-7.894-10.492-10.492-10.492-27.578 0-38.070l69.196-69.204c5.078-5.078 11.834-7.878 19.024-7.878 5.884 0 11.464 1.864 16.146 5.382 1.032 0.774 2.004 1.614 2.898 2.496l109.884 109.898c5.078 5.086 7.878 11.848 7.878 19.036 0 7.196-2.8 13.954-7.878 19.042-5.088 5.078-11.846 7.88-19.042 7.88zM976.598 534.336c-1.278-1.166-3.3-1.86-5.398-1.86h-72.636c-29.532 0-54.528-22.674-55.036-49.702l-30.602-495.016c-0.028-0.472-0.032-0.828-0.032-1.3-0.29-1.106-3.68-4.292-8.546-4.292h-351.572c-36.31 0-66.39 25.39-73.58 61.914l-1.12 19.024h313.42l25.004 467.994h-409.138l25.168-426.842h-125.296c-4.316 0-7.072 2.626-7.072 4.434 0 0.458-0.014 0.91-0.040 1.368l-22.122 372.67c-0.448 27.504-24.050 49.75-53.060 49.75l-71.996-0.198c-2.188 0-4.092 0.652-5.666 1.936-0.546 0.54-1.114 1.296-1.114 2.108 0.002 0.816 0.598 1.568 1.142 2.084l410.062 357.286c0.124 0.106 0.246 0.214 0.366 0.326 12.636 11.49 29.582 17.818 47.718 17.818 18.13 0 35.048-6.32 47.642-17.8 0.218-0.198 0.438-0.388 0.66-0.578l423.196-357.244c0.594-0.56 0.89-1.12 0.894-1.66 0.004-0.696-0.442-1.488-1.246-2.22zM372.798 103.246l-22.862 387.708h324.224l-20.714-387.708h-280.648zM1007.438 572.874c-0.14 0.124-0.282 0.244-0.422 0.366l-423.168 357.228c-21.078 19.046-48.898 29.532-78.396 29.532-29.556 0-57.454-10.528-78.58-29.654l-410.13-357.342c-0.118-0.102-0.236-0.208-0.352-0.312-10.546-9.574-16.366-22.468-16.386-36.302-0.020-13.862 5.782-26.804 16.336-36.444 0.134-0.124 0.272-0.246 0.412-0.366 9.974-8.682 22.83-13.464 36.256-13.464l71.996 0.196c3.918 0 6.844-2.312 6.844-4.378 0-0.458 0.014-0.914 0.040-1.368l22.124-372.674c0.448-27.536 24.15-49.8 53.222-49.8h124.898l1.074-18.204c0.054-0.922 0.166-1.84 0.33-2.746 10.772-59.55 59.806-101.14 119.244-101.14h351.572c29.344 0 54.176 22.578 54.688 49.492l30.598 495.016c0.032 0.476 0.036 0.86 0.036 1.334 0.286 1.148 3.79 4.47 8.894 4.47h72.632c13.676 0 26.626 4.928 36.476 13.89 10.472 9.546 16.422 22.912 16.328 36.67-0.094 13.628-6.132 26.75-16.566 36z" />
<glyph unicode="&#xe026;" glyph-name="Posts" d="M955.286 291.308c-2.364-38.67-37.016-71.322-75.758-71.344h-622.84c-12.492 0-27.402-6.17-36.256-15.004-0.142-0.146-0.288-0.294-0.43-0.444l-141.822-149.32-31.804 589.994c-1.392 23.798 6.362 46.386 21.834 63.604 15.324 17.046 36.618 27.108 60.018 28.368h243.126v-100.974c0-35.972 29.266-65.236 65.24-65.236 35.978 0 65.246 29.264 65.246 65.236 0 10.73 8.728 19.458 19.456 19.458 11.41 0 14.324-4.444 15.422-6.118 6.128-9.358 4.71-30.968-3.23-49.186-7.512-17.228-20.476-30.88-34.202-45.336-21.144-22.26-45.104-47.496-49.62-88.772-4.926-45.032 6.116-70.046 30.746-93.604-16.682-14.526-31.996-33.394-31.996-63.060-0.042-12.192 1.674-30.184 16.948-45.61l0.204-0.206c12.46-12.222 28.768-18.958 45.922-18.958l0.53 0.004 0.528-0.004c17.114 0 33.398 6.734 45.86 18.958l0.156 0.156c15.36 15.406 17.082 33.438 17.036 45.592 0 27.996-15.878 47.908-31.98 62.568 18.36 16.34 31.958 34.922 31.964 69.010 0.004 22.582 12.332 34.264 35.954 54.636 1.696 1.462 3.406 2.936 5.062 4.378 45.718 39.486 65.922 106.206 51.468 169.978-14.976 66.080-70.64 109.37-141.816 110.282l-113.12 0.002-1.242 16.918c0.326 33.462 21.134 67.070 60.626 67.070h497.876c3.984 0 7.242-3.16 7.402-7.102l-22.508-565.934zM535.418 309.432c0.032-9.74-1.976-13.778-5.238-17.078-4.886-4.76-11.148-7.38-17.636-7.38l-0.528 0.008-0.53-0.008c-6.52 0-12.79 2.612-17.676 7.356-3.164 3.234-5.252 7.42-5.222 17.172 0 15.442 8.632 25.176 23.216 36.984 14.228-11.996 23.614-22.816 23.614-37.054zM535.398 441.086c-0.004-20.772-6.524-29.31-23.24-43.104-21.818 19.3-25.906 33.29-22.558 63.88 3.042 27.808 19.62 45.262 38.818 65.476 15.516 16.338 31.558 33.232 41.898 56.948 10.532 24.172 16.856 61.534 0.004 87.258-7.254 11.074-21.648 24.278-49.028 24.278-32.88 0-59.632-26.752-59.632-59.636 0-13.816-11.246-25.056-25.068-25.056-13.82 0-25.060 11.24-25.060 25.056v103.99h114.324c41.304-0.572 90.020-21.618 103.020-78.986 11.218-49.482-3.914-100.78-38.598-130.738-1.672-1.452-3.332-2.886-4.984-4.31-23.384-20.166-49.888-43.022-49.896-85.056zM970.386 910.546h-497.876c-60.906 0-106.836-49.040-106.836-114.068 0-0.566 0.020-1.132 0.062-1.696l0.84-11.416h-238.938c-0.372 0-0.74-0.010-1.114-0.026-36.018-1.736-68.934-17.242-92.68-43.664-23.782-26.462-35.714-60.976-33.6-97.080l33.73-625.724c0.326-20.628 14.43-31.42 28.368-31.42 5.824 0 14.62 1.852 23.444 10.666 0.14 0.146 0.282 0.29 0.42 0.432l166.736 175.554c0.936 0.652 2.96 1.482 4.040 1.656h622.558c63.516 0.034 118.192 51.648 121.882 115.062 0.008 0.138 0.016 0.282 0.020 0.422l22.542 566.77c0.012 0.304 0.020 0.612 0.020 0.916 0 29.566-24.054 53.616-53.618 53.616z" />
<glyph unicode="&#xe028;" glyph-name="Photo" d="M809.054 675.6h107.5l5.93 104.206h-120.442zM741.45 452.148v-247.984h-247.854c-136.664 0-247.85 111.186-247.85 247.852s111.186 247.848 247.85 247.848c136.622 0 247.786-111.11 247.854-247.716zM942.902 203.844h-161.316v248.172c0 158.796-129.192 287.988-287.99 287.988-158.796 0-287.988-129.192-287.988-287.988s129.192-287.99 287.988-287.99h247.864v-93.798h-647.95c-3.876 0-6.382 4.918-6.808 9.612l-40.472 677.47c-0.792 17.408 5.674 34.226 18.21 47.374 12.782 13.402 30.302 21.088 48.068 21.088h858.484c3.618 0 6.59-3.33 6.836-7.53-8.398-120.056-29.71-516.7-34.926-614.398zM970.992 871.93h-858.484c-30.328 0-60.024-12.9-81.472-35.394-21.366-22.404-32.342-51.366-30.908-81.55 0.004-0.094 0.008-0.188 0.014-0.282l40.498-677.896c0.008-0.154 0.020-0.306 0.032-0.458 2.378-29.806 25.090-52.282 52.838-52.282h671.030c12.75 0 23.082 10.332 23.082 23.078v110.538h177.164c12.27 0 22.394 9.604 23.042 21.858 0.266 5.002 26.652 501.808 36.122 636.514 0.036 0.538 0.054 1.078 0.054 1.618 0 29.916-23.782 54.256-53.012 54.256zM493.598 337.1c-63.366 0-114.918 51.548-114.918 114.912 0 63.368 51.552 114.918 114.918 114.918 63.362 0 114.914-51.55 114.914-114.918 0-63.364-51.552-114.912-114.914-114.912zM493.598 607.068c-85.5 0-155.058-69.56-155.058-155.056 0-85.494 69.558-155.050 155.058-155.050 85.496 0 155.054 69.556 155.054 155.050 0 85.496-69.558 155.056-155.054 155.056z" />
<glyph unicode="&#xe029;" glyph-name="Packs" d="M851.612 644.502c-5.912-2.196-9.964-7.68-10.33-13.974l-22.27-382.912c-0.15-2.536-3.296-6.774-5.626-7.648l-301.442-111.754-306.656 113.762-22.658 388.576c-0.37 6.342-4.478 11.856-10.45 14.020l-110.126 39.914 220.758 81.942 165.362-59.836c0.314-0.138 0.636-0.27 0.96-0.39l27.764-10.28-267.768-99.246 302.81-112.292 302.84 112.292-267.776 99.24 27.808 10.284c0.362 0.132 0.714 0.28 1.062 0.438l165.348 61.152 221.222-82.088-110.832-41.2zM511.942 675.004l211.378-78.336-211.378-78.378-211.354 78.378 211.354 78.336zM1013.636 700.614l-266.87 99.028c-3.56 1.322-7.478 1.324-11.042 0.006l-171.94-63.586c-0.36-0.136-0.714-0.284-1.062-0.44l-50.774-18.778-50.704 18.774c-0.384 0.174-0.778 0.336-1.18 0.48l-171.914 62.206c-3.536 1.282-7.412 1.264-10.94-0.042l-266.846-99.052c-6.252-2.32-10.39-8.294-10.364-14.962s4.21-12.612 10.478-14.882l141.024-51.114 22.654-388.494c0.368-6.296 4.426-11.782 10.34-13.976l321.918-119.426c1.786-0.66 3.658-0.992 5.53-0.992s3.742 0.332 5.528 0.992l307.048 113.832c14.068 5.304 25.346 20.59 26.228 35.57l21.668 372.562 141.228 52.494c6.228 2.314 10.36 8.258 10.358 14.904-0.002 6.642-4.136 12.586-10.366 14.896z" />
<glyph unicode="&#xe02b;" glyph-name="Overview" d="M977.848 44.404c0-25.796-9.41-43.274-28.762-53.43-15.886-8.336-32.782-8.8-33.598-8.816h-807.072c-25.8 0-43.278 9.406-53.434 28.758-8.508 16.204-8.818 33.454-8.82 33.488v807.19c0 25.794 9.408 43.272 28.758 53.428 16.208 8.504 33.46 8.816 33.496 8.818h807.18c25.796 0 43.274-9.408 53.434-28.758 8.508-16.206 8.816-33.456 8.816-33.488v-807.19zM1010.902 904.578c-17.87 35.74-51.718 55.422-95.304 55.422h-807.182c-2.742 0-27.516-0.368-52.986-13.102-35.742-17.868-55.426-51.716-55.426-95.304v-807.19c0-2.742 0.368-27.52 13.104-52.988 17.87-35.738 51.722-55.418 95.31-55.418h807.18c2.738 0 27.516 0.368 52.988 13.102 35.738 17.868 55.418 51.714 55.418 95.304v807.19c0 2.74-0.368 27.516-13.102 52.984zM312.89 574.106h568.89v-40.138h-568.89v40.138zM312.89 785.366h568.89v-40.138h-568.89v40.138zM312.89 362.044h568.89v-40.136h-568.89v40.136zM312.89 149.97h568.89v-40.14h-568.89v40.14zM174.856 797.924c-18.020 0-32.632-14.612-32.632-32.642 0-18.016 14.612-32.628 32.632-32.628 18.024 0 32.632 14.612 32.632 32.628 0 18.030-14.608 32.642-32.632 32.642zM174.856 586.68c-18.020 0-32.632-14.614-32.632-32.646 0-18.014 14.612-32.624 32.632-32.624 18.024 0 32.632 14.61 32.632 32.624 0 18.034-14.608 32.646-32.632 32.646zM174.856 374.604c-18.020 0-32.632-14.61-32.632-32.644 0-18.012 14.612-32.626 32.632-32.626 18.024 0 32.632 14.614 32.632 32.626 0 18.034-14.608 32.644-32.632 32.644zM174.856 162.544c-18.020 0-32.632-14.614-32.632-32.644 0-18.016 14.612-32.628 32.632-32.628 18.024 0 32.632 14.614 32.632 32.628 0 18.032-14.608 32.644-32.632 32.644z" />
<glyph unicode="&#xe02c;" glyph-name="Outcomingcalls" d="M484.57 579.118h167.732l10.168 178.992h-177.9v-178.992zM691.664 537.46h-248.752v262.308h263.648l-14.896-262.308zM694.376 387.024h-68.314l3.824-67.596h60.5zM596.972 387.024h-68.308l3.824-67.596h60.496zM499.576 387.024h-68.31l3.824-67.596h60.496zM688.554 276.858h-68.316l3.828-67.596h60.496zM594.062 276.858h-68.308l3.824-67.596h60.496zM499.578 276.858h-68.312l3.824-67.596h60.496zM682.73 166.69h-68.312l3.828-67.596h60.496zM591.156 166.69h-68.316l3.828-67.596h60.496zM499.578 166.69h-68.312l3.824-67.596h60.496zM170.030 137.898h162.602l0.104 620.394-194.608-0.168 31.902-620.226zM96.56 755.226c-13.34-3.704-25.328-10.924-34.852-21.18-14.082-15.164-21.154-35.234-19.908-56.51l37.582-642.496v-0.608c0-3.522 2.93-6.854 6.030-6.854l576.846 0.178c33.922 0.018 64.246 28.646 66.21 62.516l44.79 771.96c-0.972 2.136-6.594 6.188-11.426 6.188l-573.448-0.292c-30.998 0-52.686-24.132-52.896-58.744l0.496-9.606 238.416 0.206-0.12-703.744h-243.822l-33.898 658.986zM85.42-14.080h-0.006c-26.068 0-47.32 21.388-47.684 47.822l-37.516 641.36c-1.916 32.724 9.084 63.726 30.97 87.294 16.99 18.294 38.926 30.378 63.204 35.102l-0.556 11.376c0 57.53 40.644 100.912 94.542 100.912l573.452 0.292c25.136 0 53.136-19.584 53.136-47.688l-0.036-1.206-44.872-773.324c-3.254-56.082-51.606-101.732-107.782-101.762l-576.852-0.178zM952.714 526.996c-0.59 0.592-1.226 1.118-1.872 1.6-3.046 2.332-6.746 3.602-10.622 3.602-9.766 0-17.704-7.98-17.704-17.8 0-4.146 1.398-8.066 3.984-11.228 0.376-0.47 0.77-0.92 1.192-1.346h0.028l0.012-0.024 35.608-36.016h-102.524c-5.472 0-10.386-2.526-13.628-6.492-2.528-3.064-4.040-7.004-4.040-11.294 0-1.228 0.122-2.42 0.364-3.58 0.566-2.804 1.804-5.368 3.524-7.526 0.046-0.076 0.102-0.138 0.152-0.204 0.218-0.266 0.45-0.514 0.68-0.756 0.156-0.178 0.296-0.354 0.458-0.514 0.144-0.144 0.296-0.268 0.45-0.406 0.266-0.254 0.528-0.514 0.816-0.744 0.050-0.044 0.114-0.076 0.172-0.124 2.582-2.102 5.762-3.49 9.25-3.852 0.59-0.056 1.192-0.086 1.804-0.086h102.528l-14.778-14.954-20.844-21.040v-0.036h-0.028c-3.34-3.38-5.176-7.826-5.176-12.6 0-9.808 7.914-17.778 17.672-17.778 1.942 0 3.836 0.326 5.632 0.94 2.546 0.858 4.89 2.28 6.848 4.238l66.152 66.4c3.336 3.374 5.176 7.862 5.176 12.616 0 4.75-1.84 9.238-5.176 12.576l-66.11 66.428z" />
<glyph unicode="&#xe02d;" glyph-name="Options" d="M937.438 97.126c0-54.218-44.11-98.342-98.34-98.342l-717.92-0.278c-9.632 0-17.478 7.876-17.478 17.54 0 0.71-0.030 1.432-0.098 2.14l-56.944 619.246c0.544 53.784 44.454 97.37 98.36 97.37h15.6l48.060-623.73h622.002l21.59 667.332h-650.928l-1.176 20.262c0 54.25 44.128 98.376 98.486 98.376l661.226 0.448c9.632 0 17.48-7.834 17.508-16.28l-39.948-784.084zM801.090 450.828h-261.836v287.012h271.126l-9.29-287.012zM539.254 410.266h260.524l-8.372-258.632h-252.152v258.632zM498.686 410.266v-258.632h-252.458l-19.924 258.632h272.382zM959.86 944.134l-661.316-0.446c-79.97 0-145.020-65.052-144.982-146.348l0.902-15.896h-9.448c-79.96 0-145.012-65.050-145.012-145.022 0-0.712 0.030-1.424 0.098-2.14l56.966-619.422c0.634-34.85 29.154-62.994 64.11-62.994l717.928 0.276c79.942 0 144.976 65.036 144.95 143.798l39.95 784.082c-0.002 35.354-28.772 64.112-64.146 64.112z" />
<glyph unicode="&#xe032;" glyph-name="Number-9" d="M554.138 438.708c12.864 7.206 24.204 15.824 33.878 25.866-0.68 34.748-7.054 60.348-19.074 76.726-12.044 16.392-32.28 24.594-60.714 24.594-24.076 0-42.47-6.452-55.196-19.302-12.712-12.902-19.062-30.036-19.062-51.454 0-21.052 5.858-37.544 17.576-49.386 11.68-11.894 30.112-17.828 55.184-17.828 18.732 0 34.534 3.564 47.408 10.784zM660.75 456.536c0-144.484-58.522-216.738-175.59-216.738-29.772 0-60.374 4.524-91.834 13.544l16.568 59.742c8.366-3.048 19.074-6.022 32.102-8.83 13.052-2.836 26.42-4.234 40.152-4.234 31.788 0 55.6 8.152 71.5 24.542 15.862 16.442 26.154 40.82 30.878 73.276-25.802-18.76-56.064-28.122-90.85-28.122-41.462 0-73.59 10.632-96.318 31.838-22.754 21.266-34.118 51.97-34.118 92.148 0 39.762 12.284 71.6 36.876 95.538 24.594 23.924 60.122 35.87 106.612 35.87 53.496 0 92.564-14.136 117.144-42.42 24.594-28.274 36.878-70.316 36.878-126.154zM1024.002 448.032c0 282.718-229.236 511.968-512.006 511.968s-511.994-229.25-511.994-511.968c0-282.77 229.224-512.032 511.994-512.032s512.006 229.262 512.006 512.032z" />
<glyph unicode="&#xe033;" glyph-name="Number-8" d="M563.896 490.624c10.734 8.39 16.076 21.142 16.076 38.164 0 14.376-5.82 25.402-17.562 33.112-11.716 7.71-28.424 11.528-50.168 11.528s-38.452-3.818-50.168-11.528-17.562-18.736-17.562-33.112c0-17.022 5.342-29.774 16.050-38.164 10.684-8.354 27.768-12.538 51.202-12.538 24.036 0.002 41.448 4.186 52.132 12.538zM570.17 308.244c13.582 9.878 20.334 23.84 20.334 41.932 0 20.046-5.92 35.532-17.764 46.418-11.892 10.848-32.050 16.292-60.5 16.292-28.398 0-48.682-5.444-60.676-16.292-12.070-10.886-18.092-26.372-18.092-46.418 0-18.092 6.854-32.052 20.562-41.932 13.732-9.828 33.134-14.754 58.206-14.754 25.124 0 44.424 4.926 57.93 14.754zM595.52 446.474c22.426-7.66 39.054-19.428 49.916-35.378 10.884-15.864 16.328-36.024 16.328-60.428 0-35.48-13.002-62.836-38.906-82.038-25.928-19.24-62.766-28.814-110.616-28.814-47.8 0-84.814 9.574-110.894 28.814-26.054 19.202-39.106 46.556-39.106 82.038 0 48.848 22.098 80.79 66.244 95.806-36.838 15.384-55.234 42.992-55.234 82.806 0 31.122 12.044 55.048 36.132 71.792 24.088 16.668 58.382 25.024 102.856 25.024s78.792-8.354 102.856-25.024c24.088-16.746 36.158-40.672 36.158-71.792 0.002-39.814-18.62-67.42-55.734-82.806zM1024.002 448c0 282.788-229.246 512-512.012 512s-511.988-229.212-511.988-512 229.222-512 511.988-512c282.766 0 512.012 229.212 512.012 512z" />
<glyph unicode="&#xe034;" glyph-name="Number-7" d="M645.94 559.38l-157.032-312.074h-76.75l157.056 312.074h-191.148v59.252h267.874v-59.252zM512.014 960c-282.79 0-512.012-229.212-512.012-511.982 0-282.768 229.222-512.018 512.012-512.018 282.766 0 511.988 229.25 511.988 512.018s-229.22 511.982-511.988 511.982z" />
<glyph unicode="&#xe035;" glyph-name="Number-6" d="M571.196 318.546c12.528 13.072 18.802 30.614 18.802 52.698 0 21.044-6.182 37.808-18.542 50.148-12.386 12.376-30.954 18.604-55.702 18.604-18.048 0-33.43-3.446-46.148-10.334-12.716-6.842-23.898-15.1-33.62-24.82v-0.472c0-35.814 5.946-62.334 17.836-79.556 11.844-17.212 32.51-25.812 61.93-25.812 24.42-0.002 42.916 6.522 55.444 19.544zM660.752 372.766c0-26.094-5.356-49.122-16.042-69.046-10.71-19.866-26.8-35.52-48.412-46.904-21.586-11.372-47.892-17.024-79.010-17.024-53.554 0-92.576 14.11-117.184 42.376-24.56 28.266-36.85 70.356-36.85 126.214 0 144.5 58.532 216.778 175.596 216.778 15.36 0 30.34-1.132 44.874-3.304 14.58-2.182 27.060-4.766 37.418-7.786l-16.090-57.18c-22.060 5.332-43.126 8.010-63.206 8.010-31.094 0-54.522-7.774-70.234-23.31-15.712-15.584-26.094-38.87-31.118-70.014 24.748 17.73 54.192 26.602 88.304 26.602 41.476 0 73.844-10.854 97.13-32.594 23.216-21.766 34.824-52.72 34.824-92.818zM1024.002 448.018c0 282.746-229.222 511.982-512 511.982-282.754 0-512-229.236-512-511.982 0-282.792 229.246-512.018 512-512.018 282.778 0 512 229.224 512 512.018z" />
<glyph unicode="&#xe036;" glyph-name="Number-5" d="M636.924 303.762c-11.868-20.222-29.28-35.946-52.16-47.172-22.932-11.188-50.65-16.792-83.056-16.792-50.524 0-94.67 10.042-132.47 30.114l22.578 56.176c35.456-17.398 71.916-26.090 109.388-26.090 27.088 0 47.324 6.45 60.704 19.324 13.38 12.878 20.084 30.868 20.084 53.926 0 20.722-6.048 36.95-18.068 48.668-12.070 11.718-30.29 17.574-54.706 17.574-16.38 0-30.038-2.43-40.874-7.282-10.886-4.852-18.974-9.286-24.342-13.292-5.342-4.020-8.516-6.36-9.524-7.042h-60.73l29.104 206.738h227.796v-59.214h-168.1l-12.020-78.266c22.754 11.352 46.34 17.060 70.708 17.060 42.158 0 74.966-10.634 98.352-31.864 23.436-21.244 35.126-51.946 35.126-92.072 0-26.764-5.922-50.26-17.79-70.494zM511.99 960c-282.782 0-511.988-229.224-511.988-511.968 0-282.77 229.206-512.032 511.988-512.032s512.012 229.262 512.012 512.032c0 282.744-229.232 511.968-512.012 511.968z" />
<glyph unicode="&#xe037;" glyph-name="Number-4" d="M667.782 327.066h-50.13v-79.778h-71.272v79.778h-190.168v59.192l130.954 232.304h73.25l-128.446-232.304h114.412v97.366h71.272v-97.366h50.13v-59.192zM512.008 960c-282.77 0-512.006-229.242-512.006-511.994 0-282.776 229.236-512.006 512.006-512.006s511.994 229.23 511.994 512.006c0 282.752-229.224 511.994-511.994 511.994z" />
<glyph unicode="&#xe038;" glyph-name="Number-3" d="M616.376 272.624c-27.3-21.91-65.816-32.846-115.644-32.846-51.87 0-96.508 10.684-133.964 32.104l22.086 56.192c17.726-8.718 35.528-15.56 53.406-20.562 17.904-5.040 37.028-7.534 57.438-7.534 29.104 0 50.496 5.002 64.254 15.042 13.67 10.030 20.562 26.080 20.562 48.18 0 17.714-6.224 31.674-18.584 41.868-12.384 10.218-31.094 15.156-56.192 14.816l-60.198-0.49v58.182h42.13c28.75 0 49.614 2.948 62.464 8.782 12.902 5.858 19.3 17.638 19.3 35.366 0 13.066-5.642 23.662-17.020 31.876-11.416 8.202-30.452 12.272-57.238 12.272-18.37 0-35.53-2.080-51.404-6.262-15.862-4.184-32.378-9.778-49.4-16.794l-25.084 52.69c36.46 20.386 78.44 30.604 125.888 30.604 47.522 0 83.884-9.474 109.144-28.36 25.236-18.886 37.884-44.564 37.884-77.032 0-31.75-12.7-55.676-38.112-71.726 15.346-9.034 27.428-20.828 36.096-35.378 8.718-14.552 13.052-31.348 13.052-50.41 0.008-38.482-13.612-68.668-40.864-90.58zM512.008 960c-282.77 0-512.006-229.242-512.006-511.994 0-282.776 229.236-512.006 512.006-512.006s511.994 229.23 511.994 512.006c0 282.752-229.224 511.994-511.994 511.994z" />
<glyph unicode="&#xe039;" glyph-name="Number-2" d="M646.946 306.504v-59.214h-271.94v31.12c0 31.764 8.618 59.444 25.854 83.030 17.21 23.586 39.372 45.57 66.472 65.982 11.378 8.366 25.074 17.386 41.15 27.088 23.068 14.060 40.154 26.168 51.192 36.386 11.024 10.194 16.542 21.834 16.542 34.862 0 13.368-5.694 23.586-17.084 30.604-11.352 7.018-27.58 10.52-48.658 10.52-19.076 0-36.386-2.244-51.92-6.752-15.56-4.498-32.38-11.302-50.41-20.336l-25.11 52.69c21.746 12.36 43.064 21.078 63.992 26.092 20.902 5.028 43.556 7.56 67.96 7.56 30.792 0 56.128-4.472 76.048-13.342 19.868-8.858 34.496-20.574 43.882-35.114 9.374-14.54 14.072-30.868 14.072-48.886 0-18.080-4.876-34.572-14.59-49.464-9.702-14.88-20.79-27.316-33.364-37.358-12.536-10.042-27.654-20.724-45.406-32.126-2.658-1.676-7.85-5.002-15.56-10.004l-15.018-10.558c-22.452-15.042-39.586-28.588-51.456-40.644-11.87-12.044-17.802-26.080-17.802-42.132h191.154zM511.996 960c-282.778 0-511.994-229.242-511.994-512.018 0-282.752 229.216-511.982 511.994-511.982 282.776 0 512.006 229.23 512.006 511.982 0 282.776-229.23 512.018-512.006 512.018z" />
<glyph unicode="&#xe03a;" glyph-name="Number-1" d="M637.948 247.29h-242.34v59.19h90.308v240.328l-82.774-21.57-17.046 57.226 119.904 36.134h51.164v-312.118h80.786v-59.19zM512.008 960c-282.77 0-512.006-229.242-512.006-511.994 0-282.776 229.236-512.006 512.006-512.006s511.994 229.23 511.994 512.006c0 282.752-229.224 511.994-511.994 511.994z" />
<glyph unicode="&#xe03c;" glyph-name="Newsletter" d="M977.348 773.082l-34.264-591.344c-0.024-0.45-0.038-0.898-0.038-1.348 0-9.946-2.454-19.312-6.712-27.618l-281.8 222.718 252.32 296.55c5.892 6.926 7.222 16.644 3.41 24.898-3.816 8.256-12.082 13.54-21.172 13.54h-735.946l-0.302 5.514c0.32 33.356 27.638 60.388 61.194 60.388l758.31 0.488c1.822 0 3.328-0.908 4.13-1.76 0.932-0.984 0.886-1.716 0.87-2.026zM107.982 663.832h12.16l239.106-287.43-286.348-224.516-26.168 452.030c-0.83 14.242 4.65 28.372 15.426 39.798 12.062 12.786 28.766 20.118 45.824 20.118zM180.82 663.832h657.802l-332.614-390.914-325.188 390.914zM106.728 119.136l282.362 221.39 98.788-118.754c4.402-5.292 10.918-8.368 17.8-8.406h0.13c6.834 0 13.332 3 17.76 8.208l100.716 118.368 275.612-217.824c-5.732-1.774-11.82-2.73-18.128-2.73l-775.040-0.252zM1010.424 807.104c-9.826 10.432-23.708 16.416-38.092 16.416l-758.312-0.488c-59.458 0-107.828-48.284-107.828-107.63 0-0.43 0.012-0.858 0.036-1.288l0.206-3.644c-29.304-0.432-57.73-13.042-78.208-34.744-19.68-20.868-29.648-47.334-28.058-74.518l27.66-477.854c0.134-9.176 2.708-17.758 7.042-25.188 0.542-1.066 1.2-2.098 1.92-3.098 0.102-0.148 0.204-0.29 0.306-0.438 0.074-0.094 0.132-0.196 0.208-0.29 0.036-0.046 0.078-0.086 0.114-0.132 9.36-13.128 24.672-21.726 41.972-21.726l802.384 0.258c27.932 0 53.412 10.648 72.596 28.074 1.674 1.226 3.228 2.66 4.576 4.364 0.070 0.090 0.124 0.184 0.194 0.274 18.734 19.238 30.362 45.398 30.554 74.226l34.22 590.676c0.806 13.608-3.982 26.664-13.49 36.75z" />
</font>
</defs>
</svg>
