<?xml version="1.0" standalone="no"?>
<!DOCTYPE svg PUBLIC "-//W3C//DTD SVG 1.1//EN" "http://www.w3.org/Graphics/SVG/1.1/DTD/svg11.dtd" >
<svg xmlns="http://www.w3.org/2000/svg" xmlns:xlink="http://www.w3.org/1999/xlink" version="1.1">
<metadata>
Created by FontForge 20150804 at Mon Jun 12 14:01:06 2017
 By cloudconvert
Copyright(c) Beijing Founder Electronics Co.,Ltd.2013
</metadata>
<defs>
<font id="FZSKJW--GB1-0" horiz-adv-x="256" vert-adv-y="256" >
  <font-face 
    font-family="FZShangKuS-R-GB"
    font-weight="400"
    font-stretch="normal"
    units-per-em="256"
    panose-1="3 0 5 9 0 0 0 0 0 0"
    ascent="204"
    descent="-52"
    x-height="141"
    cap-height="179"
    bbox="-5 -58 256.083 229"
    underline-thickness="12"
    underline-position="-52"
    unicode-range="U+0020-FFE5"
  />
<missing-glyph 
 />
    <glyph glyph-name=".notdef" 
 />
    <glyph glyph-name="space" unicode=" " horiz-adv-x="71" 
 />
    <glyph glyph-name="exclam" unicode="!" horiz-adv-x="99" 
d="M28 194h44l-6 -153h-32zM30 27h40v-40h-40v40z" />
    <glyph glyph-name="quotedbl" unicode="&#x22;" horiz-adv-x="121" 
d="M17 194h40l-8 -83h-24zM63 194h40l-8 -83h-24z" />
    <glyph glyph-name="numbersign" unicode="#" horiz-adv-x="142" 
d="M81 73l6 36h-25l-6 -36h25zM135 109h-21l-6 -36h22l-4 -27h-23l-11 -59h-26l10 59h-25l-10 -59h-27l11 59h-22l5 27h21l7 36h-23l4 28h23l10 57h27l-10 -57h25l10 57h27l-10 -57h21z" />
    <glyph glyph-name="dollar" unicode="$" horiz-adv-x="142" 
d="M64 213h19v-18q45 -8 54 -58l-33 -10q-6 27 -21 33v-51q59 -19 57 -63q-1 -54 -57 -60v-21h-19v22q-52 4 -61 64l33 10q7 -36 28 -42v59q-59 17 -57 59q3 53 57 59v17zM83 73v-54q23 3 23 26q1 19 -23 28zM64 115v47q-24 -3 -24 -22q0 -15 24 -25z" />
    <glyph glyph-name="percent" unicode="%" horiz-adv-x="227" 
d="M152 199h33l-107 -217h-33zM55 109q17 1 18 33q-1 30 -17 31q-18 0 -19 -32q1 -30 18 -32zM56 200q43 -2 45 -60q-2 -55 -47 -57q-42 3 -44 57q2 58 46 60zM174 7q17 1 18 32q-1 30 -17 31q-18 0 -19 -32q1 -29 18 -31zM174 97q44 -3 46 -59q-1 -54 -47 -56q-43 3 -45 56
q2 56 46 59z" />
    <glyph glyph-name="ampersand" unicode="&#x26;" horiz-adv-x="199" 
d="M41 45q2 -28 32 -30q24 0 43 19q-26 24 -47 47q-28 -16 -28 -36zM64 146q-1 -10 14 -27q25 13 23 29q0 19 -19 19q-18 0 -18 -21zM140 101l34 -5q-3 -30 -15 -58q4 -3 13 -10q20 -15 28 -20l-25 -26q-25 19 -35 29q-27 -27 -68 -27q-63 2 -65 58q0 39 42 63
q-17 23 -17 42q5 48 50 51q49 -3 52 -49q1 -34 -35 -54q2 -2 7 -8q17 -16 27 -25q5 13 7 39z" />
    <glyph glyph-name="quotesingle" unicode="'" horiz-adv-x="60" 
d="M11 194h40l-8 -83h-24z" />
    <glyph glyph-name="parenleft" unicode="(" horiz-adv-x="85" 
d="M80 -46h-29q-37 56 -38 132q2 79 38 135h28q-38 -62 -39 -136q0 -73 40 -131z" />
    <glyph glyph-name="parenright" unicode=")" horiz-adv-x="85" 
d="M35 -46h-27q38 60 38 132q-1 72 -38 135h27q36 -59 38 -135q-1 -74 -38 -132z" />
    <glyph glyph-name="asterisk" unicode="*" horiz-adv-x="142" 
d="M50 199h41l-8 -38l33 20l12 -39l-36 -3l29 -25l-33 -24l-17 35l-18 -36l-33 24l30 26l-38 2l12 39l34 -18z" />
    <glyph glyph-name="plus" unicode="+" horiz-adv-x="149" 
d="M142 104v-28h-53v-59h-29v59h-53v28h53v59h29v-59h53z" />
    <glyph glyph-name="comma" unicode="," horiz-adv-x="71" 
d="M13 30h46v-32q1 -36 -33 -56l-13 13q20 14 22 32h-22v43z" />
    <glyph glyph-name="hyphen" unicode="-" horiz-adv-x="149" 
d="M12 104h126v-29h-126v29z" />
    <glyph glyph-name="period" unicode="." horiz-adv-x="71" 
d="M13 30h45v-43h-45v43z" />
    <glyph glyph-name="slash" unicode="/" horiz-adv-x="113" 
d="M68 197h33l-55 -213h-33z" />
    <glyph glyph-name="zero" unicode="0" horiz-adv-x="142" 
d="M42 90q0 -77 30 -76q29 -1 29 76q0 76 -30 76q-28 -3 -29 -76zM8 90q2 106 63 109q64 -3 65 -109q0 -106 -64 -107t-64 107z" />
    <glyph glyph-name="one" unicode="1" horiz-adv-x="142" 
d="M78 194h29v-207h-35v146q-24 -20 -55 -29v36q47 20 61 54z" />
    <glyph glyph-name="two" unicode="2" horiz-adv-x="142" 
d="M134 19v-32h-128v22q21 42 60 74q36 30 35 52q0 30 -29 30q-20 -1 -31 -33l-32 14q18 52 67 52q56 -3 60 -61q2 -39 -45 -76q-26 -20 -42 -42h85z" />
    <glyph glyph-name="three" unicode="3" horiz-adv-x="142" 
d="M5 42l32 8q6 -35 31 -35q31 0 31 32q-1 30 -31 31h-23v32h16q30 1 31 30q-1 24 -23 25q-23 -1 -28 -32l-33 9q13 55 60 56q57 -2 59 -59q0 -28 -25 -42q32 -14 32 -50q-2 -60 -66 -63q-54 0 -63 58z" />
    <glyph glyph-name="four" unicode="4" horiz-adv-x="142" 
d="M83 67v67l-42 -67h42zM137 67v-33h-19v-47h-35v47h-77v25l84 135h28v-127h19z" />
    <glyph glyph-name="five" unicode="5" horiz-adv-x="142" 
d="M23 194h103v-33h-72l-4 -39q8 7 23 7q59 -3 62 -71q-1 -73 -64 -75q-57 0 -67 59l33 10q6 -39 33 -38q30 1 31 43q-1 36 -31 38q-23 1 -33 -22l-26 5z" />
    <glyph glyph-name="six" unicode="6" horiz-adv-x="142" 
d="M71 14q28 1 29 42q0 38 -29 39q-26 -2 -28 -36q1 -44 28 -45zM133 148l-33 -12q-5 30 -24 30q-30 -2 -33 -55q13 17 35 17q54 -4 57 -71q-2 -72 -64 -74q-64 -1 -63 97q1 116 69 119q43 0 56 -51z" />
    <glyph glyph-name="seven" unicode="7" horiz-adv-x="142" 
d="M8 194h125v-26q-51 -68 -68 -181h-35q16 98 62 174h-84v33z" />
    <glyph glyph-name="eight" unicode="8" horiz-adv-x="142" 
d="M72 13q29 2 31 32q-1 34 -32 35q-30 -1 -31 -35q1 -31 32 -32zM71 167q-21 -1 -24 -27q1 -29 24 -30q23 2 24 28q-1 28 -24 29zM129 139q0 -28 -22 -43q29 -15 29 -51q-2 -60 -65 -62q-62 2 -64 62q1 34 29 51q-22 15 -22 43q4 57 57 60q56 -3 58 -60z" />
    <glyph glyph-name="nine" unicode="9" horiz-adv-x="142" 
d="M69 166q-29 -2 -30 -42q0 -39 29 -40q32 1 33 37q0 45 -32 45zM8 31l31 13q8 -31 28 -30q30 1 34 53q-14 -15 -36 -15q-56 3 -59 71q5 71 62 76q69 0 69 -104q0 -113 -71 -112q-47 0 -58 48z" />
    <glyph glyph-name="colon" unicode=":" horiz-adv-x="71" 
d="M12 30h46v-43h-46v43zM12 140h46v-45h-46v45z" />
    <glyph glyph-name="semicolon" unicode=";" horiz-adv-x="71" 
d="M13 140h45v-45h-45v45zM13 30h45v-32q1 -36 -33 -56l-13 13q20 14 22 32h-21v43z" />
    <glyph glyph-name="less" unicode="&#x3c;" horiz-adv-x="149" 
d="M11 104l127 85v-41l-91 -58l91 -60v-38l-127 84v28z" />
    <glyph glyph-name="equal" unicode="=" horiz-adv-x="149" 
d="M139 134v-28h-127v28h127zM139 73v-28h-127v28h127z" />
    <glyph glyph-name="greater" unicode="&#x3e;" horiz-adv-x="149" 
d="M12 148v40l125 -85v-27l-125 -84v38l91 60z" />
    <glyph glyph-name="question" unicode="?" horiz-adv-x="128" 
d="M73 51v-9h-29v10q0 30 24 51q21 18 20 37q-1 23 -23 24q-22 0 -29 -37l-32 10q12 60 61 60q53 -3 56 -57q1 -34 -34 -61q-15 -12 -14 -28zM41 24h35v-37h-35v37z" />
    <glyph glyph-name="at" unicode="@" horiz-adv-x="249" 
d="M130 125q-31 -4 -38 -54q-2 -32 19 -32q31 6 36 61q-2 24 -17 25zM211 10l16 -20q-41 -38 -101 -37q-116 2 -118 126q8 124 122 132q107 -6 113 -114q-5 -83 -66 -89q-33 0 -34 23q-15 -22 -40 -22q-44 1 -42 64q7 78 67 83q16 0 25 -12l1 10h31l-11 -93q-1 -7 -1 -12
q-1 -10 9 -9q27 4 29 55q-3 83 -82 85q-83 -7 -89 -101q1 -94 88 -95q47 0 83 26z" />
    <glyph glyph-name="A" unicode="A" horiz-adv-x="184" 
d="M66 70h52l-26 76zM145 -13l-16 49h-74l-17 -49h-35l74 207h30l74 -207h-36z" />
    <glyph glyph-name="B" unicode="B" horiz-adv-x="170" 
d="M91 77h-39v-59h42q33 1 34 29q-1 29 -37 30zM52 161v-50h37q30 1 31 27q-2 22 -31 23h-37zM99 -13h-82v207h77q58 -3 61 -55q0 -28 -20 -42q27 -17 28 -50q0 -60 -64 -60z" />
    <glyph glyph-name="C" unicode="C" horiz-adv-x="170" 
d="M161 136l-34 -12q-10 41 -38 41q-42 -4 -44 -75q1 -74 43 -76q33 0 41 50l35 -10q-16 -73 -76 -71q-77 2 -78 107q4 101 80 109q56 -1 71 -63z" />
    <glyph glyph-name="D" unicode="D" horiz-adv-x="184" 
d="M81 161h-29v-143h30q60 -2 59 72q0 71 -60 71zM80 -13h-63v207h62q94 -2 96 -104q1 -105 -95 -103z" />
    <glyph glyph-name="E" unicode="E" horiz-adv-x="156" 
d="M52 18h94v-31h-129v207h124v-33h-89v-50h82v-34h-82v-59z" />
    <glyph glyph-name="F" unicode="F" horiz-adv-x="142" 
d="M133 161h-80v-50h67v-33h-67v-91h-35v207h115v-33z" />
    <glyph glyph-name="G" unicode="G" horiz-adv-x="199" 
d="M96 101h88v-80q-25 -38 -81 -38q-89 4 -92 106q5 103 91 110q63 1 82 -63l-34 -13q-12 44 -48 43q-55 -5 -56 -76q2 -72 57 -76q28 0 46 18v36h-53v33z" />
    <glyph glyph-name="H" unicode="H" horiz-adv-x="184" 
d="M132 194h35v-207h-35v90h-79v-90h-35v207h35v-84h79v84z" />
    <glyph glyph-name="I" unicode="I" horiz-adv-x="71" 
d="M18 194h35v-207h-35v207z" />
    <glyph glyph-name="J" unicode="J" horiz-adv-x="142" 
d="M88 194h35v-141q1 -71 -63 -70q-55 -3 -59 64l35 6q4 -39 25 -38q27 0 27 37v142z" />
    <glyph glyph-name="K" unicode="K" horiz-adv-x="170" 
d="M129 -13l-57 94l-21 -24v-70h-35v207h35v-88l73 88h44l-74 -87l76 -120h-41z" />
    <glyph glyph-name="L" unicode="L" horiz-adv-x="142" 
d="M19 194h36v-176h80v-31h-116v207z" />
    <glyph glyph-name="M" unicode="M" horiz-adv-x="241" 
d="M182 194h43v-207h-35v121l2 30l-58 -151h-26l-58 149l2 -29v-120h-35v207h44l60 -155z" />
    <glyph glyph-name="N" unicode="N" horiz-adv-x="199" 
d="M148 48v146h35v-207h-35l-96 146v-146h-35v207h36z" />
    <glyph glyph-name="O" unicode="O" horiz-adv-x="199" 
d="M99 14q55 3 57 76q-3 72 -56 76q-53 -4 -56 -77q2 -72 55 -75zM100 199q86 -6 90 -108q-2 -105 -91 -108q-86 5 -90 106q5 104 91 110z" />
    <glyph glyph-name="P" unicode="P" horiz-adv-x="156" 
d="M81 161h-29v-62h29q32 -1 31 32q0 30 -31 30zM81 65h-29v-78h-34v207h60q67 -2 69 -63q-1 -65 -66 -66z" />
    <glyph glyph-name="Q" unicode="Q" horiz-adv-x="199" 
d="M44 90q3 -69 55 -73q55 3 57 73q-2 73 -56 76q-52 -5 -56 -76zM136 -7l44 -38l-42 -9l-37 40h-2q-86 4 -90 103q5 104 92 110q86 -5 90 -109q-1 -74 -55 -97z" />
    <glyph glyph-name="R" unicode="R" horiz-adv-x="170" 
d="M52 161v-54h35q30 1 31 29q0 25 -31 25h-35zM165 -13h-40l-50 87h-23v-87h-35v207h68q68 0 68 -59q0 -48 -43 -59z" />
    <glyph glyph-name="S" unicode="S" horiz-adv-x="170" 
d="M158 138l-34 -10q-9 37 -39 37q-35 0 -36 -27q-3 -16 40 -26q75 -15 74 -67q-2 -59 -73 -61q-69 -3 -83 66l34 10q8 -46 48 -45q38 1 39 31q1 21 -44 31q-72 17 -70 61q4 57 70 60q63 0 74 -60z" />
    <glyph glyph-name="T" unicode="T" horiz-adv-x="156" 
d="M150 161h-53v-174h-36v174h-55v33h144v-33z" />
    <glyph glyph-name="U" unicode="U" horiz-adv-x="199" 
d="M148 194h35v-118q1 -93 -85 -92q-83 -3 -81 91v119h35v-118q-1 -62 46 -61q51 -2 50 61v118z" />
    <glyph glyph-name="V" unicode="V" horiz-adv-x="184" 
d="M4 194h35l54 -159l52 159h36l-75 -207h-28z" />
    <glyph glyph-name="W" unicode="W" 
d="M218 194h35l-55 -207h-30l-40 150l-42 -150h-30l-52 207h35l33 -165l40 165h33l38 -163z" />
    <glyph glyph-name="X" unicode="X" horiz-adv-x="184" 
d="M138 194h39l-64 -101l68 -106h-40l-48 79l-50 -79h-39l70 106l-64 101h39l45 -75z" />
    <glyph glyph-name="Y" unicode="Y" horiz-adv-x="170" 
d="M168 194l-65 -118v-89h-35v88l-65 119h36l46 -90l46 90h37z" />
    <glyph glyph-name="Z" unicode="Z" horiz-adv-x="156" 
d="M13 194h134v-27l-98 -149h102v-31h-145v25l98 149h-91v33z" />
    <glyph glyph-name="bracketleft" unicode="[" horiz-adv-x="85" 
d="M17 220h59v-29h-24v-203h24v-29h-59v261z" />
    <glyph glyph-name="backslash" unicode="\" horiz-adv-x="71" 
d="M-4 197h28l55 -213h-31z" />
    <glyph glyph-name="bracketright" unicode="]" horiz-adv-x="85" 
d="M11 220h59v-261h-60v29h25v203h-24v29z" />
    <glyph glyph-name="asciicircum" unicode="^" horiz-adv-x="71" 
d="M28 194h16l33 -121h-27l-14 77l-15 -77h-24z" />
    <glyph glyph-name="underscore" unicode="_" horiz-adv-x="128" 
d="M0 -20h128v-29h-128v29z" />
    <glyph glyph-name="grave" unicode="`" horiz-adv-x="71" 
d="M31 158l-36 36h33l26 -36h-23z" />
    <glyph glyph-name="a" unicode="a" horiz-adv-x="142" 
d="M90 49v9q-8 -6 -27 -10q-23 -4 -22 -19q1 -14 18 -15q29 2 31 35zM135 -13h-35q-5 6 -7 16q-13 -20 -39 -19q-44 1 -45 44q1 44 48 52q22 3 32 9q-1 23 -22 24q-20 0 -26 -26l-32 9q14 49 58 49q54 -1 55 -66v-52q1 -25 13 -40z" />
    <glyph glyph-name="b" unicode="b" horiz-adv-x="156" 
d="M49 74v-19q0 -43 31 -42q32 0 32 48q0 52 -32 50q-30 -2 -31 -37zM49 -13h-35v207h35v-66q16 16 36 16q60 -3 62 -83q-1 -77 -61 -77q-26 -1 -37 16v-13z" />
    <glyph glyph-name="c" unicode="c" horiz-adv-x="128" 
d="M121 95l-32 -11q-4 28 -23 28q-24 -2 -25 -50q0 -48 26 -48q19 0 23 33l33 -8q-10 -58 -57 -56q-58 1 -59 78q2 81 59 84q45 0 55 -50z" />
    <glyph glyph-name="d" unicode="d" horiz-adv-x="156" 
d="M108 55v20q-1 36 -33 37q-33 -1 -33 -50t33 -49q33 1 33 42zM108 195h35v-208h-35v13q-12 -16 -39 -16q-62 -1 -62 78q2 81 65 83q23 0 36 -17v67z" />
    <glyph glyph-name="e" unicode="e" horiz-adv-x="142" 
d="M44 82h56q-1 30 -27 31q-25 -1 -29 -31zM102 41l33 -10q-14 -49 -62 -48q-63 2 -65 78q3 80 65 84q62 -2 63 -84v-11h-93q4 -36 30 -37q23 -1 29 28z" />
    <glyph glyph-name="f" unicode="f" horiz-adv-x="85" 
d="M52 154v-13h24v-32h-24v-122h-35v122h-17v32h17v12q0 45 39 45q15 0 29 -5l-9 -29q-6 3 -13 2q-11 0 -11 -12z" />
    <glyph glyph-name="g" unicode="g" horiz-adv-x="156" 
d="M107 57v20q-1 35 -30 37q-34 -1 -35 -49q1 -44 33 -46q32 0 32 38zM107 142h35v-130q1 -68 -71 -67q-32 0 -56 24l18 23q22 -15 38 -15q36 0 36 26q-12 -13 -38 -13q-58 3 -60 74q3 77 63 81q23 0 35 -16v13z" />
    <glyph glyph-name="h" unicode="h" horiz-adv-x="156" 
d="M141 84v-97h-35v95q0 31 -23 31q-30 -2 -32 -34v-92h-35v207h35v-66q16 17 38 17q51 -1 52 -61z" />
    <glyph glyph-name="i" unicode="i" horiz-adv-x="71" 
d="M18 141h35v-154h-35v154zM18 194h35v-40h-35v40z" />
    <glyph glyph-name="j" unicode="j" horiz-adv-x="71" 
d="M21 194h35v-40h-35v40zM21 141h35v-156q1 -42 -37 -41q-12 0 -21 6l4 27q6 -3 11 -2q8 0 8 10v156z" />
    <glyph glyph-name="k" unicode="k" horiz-adv-x="142" 
d="M99 -13l-39 68l-9 -9v-59h-35v207h35v-101l42 48h46l-56 -61l57 -93h-41z" />
    <glyph glyph-name="l" unicode="l" horiz-adv-x="71" 
d="M19 194h35v-207h-35v207z" />
    <glyph glyph-name="m" unicode="m" horiz-adv-x="241" 
d="M227 83v-96h-35v94q0 31 -23 31q-28 -2 -30 -32v-93h-35v94q0 32 -22 31q-29 -2 -31 -31v-94h-34v154h34v-13q16 17 37 17q30 0 44 -24q17 23 42 24q52 -1 53 -62z" />
    <glyph glyph-name="n" unicode="n" horiz-adv-x="156" 
d="M142 83v-96h-35v95q0 31 -23 31q-32 -2 -34 -34v-92h-34v154h34v-14q18 18 40 18q50 -3 52 -62z" />
    <glyph glyph-name="o" unicode="o" horiz-adv-x="156" 
d="M78 13q35 2 36 49q0 51 -35 52q-35 -2 -36 -52q1 -47 35 -49zM78 145q67 -3 70 -82q-1 -79 -71 -80q-67 3 -69 78q3 80 70 84z" />
    <glyph glyph-name="p" unicode="p" horiz-adv-x="156" 
d="M48 71v-20q1 -37 31 -37q34 0 34 50q-1 48 -33 49q-31 -1 -32 -42zM49 -57h-35v198h34v-15q16 19 40 19q56 -5 59 -81q-1 -79 -63 -80q-23 0 -35 15v-56z" />
    <glyph glyph-name="q" unicode="q" horiz-adv-x="156" 
d="M107 51v23q-1 37 -31 38q-31 -2 -32 -49q0 -49 32 -49q30 0 31 37zM107 141h35v-198h-35v56q-14 -15 -36 -15q-62 0 -62 78q2 78 60 82q23 1 38 -15v12z" />
    <glyph glyph-name="r" unicode="r" horiz-adv-x="99" 
d="M101 135l-15 -32q-7 6 -15 6q-22 0 -22 -39v-83h-34v154h34v-14q12 17 26 17q16 1 26 -9z" />
    <glyph glyph-name="s" unicode="s" horiz-adv-x="128" 
d="M120 101l-32 -10q-6 22 -24 22q-21 -1 -22 -15q-2 -12 29 -18q53 -10 53 -49q-2 -46 -59 -48q-46 -1 -60 50l31 9q7 -30 29 -29q25 0 25 18q0 13 -26 17q-57 10 -55 49q3 46 53 48q48 -1 58 -44z" />
    <glyph glyph-name="t" unicode="t" horiz-adv-x="99" 
d="M84 16l7 -25q-16 -6 -31 -7q-39 -1 -38 38v88h-21v31h21v37l35 17v-54h29v-31h-29v-87q-1 -12 9 -11q6 0 18 4z" />
    <glyph glyph-name="u" unicode="u" horiz-adv-x="156" 
d="M107 141h35v-154h-35v14q-13 -18 -37 -18q-57 -2 -55 59v99h35v-96q0 -32 25 -32q31 1 32 33v95z" />
    <glyph glyph-name="v" unicode="v" horiz-adv-x="142" 
d="M103 141h36l-55 -154h-29l-52 154h36l31 -110z" />
    <glyph glyph-name="w" unicode="w" horiz-adv-x="227" 
d="M189 141h36l-53 -154h-36l-24 114l-26 -114h-35l-48 154h35l29 -118l28 118h36l26 -117z" />
    <glyph glyph-name="x" unicode="x" horiz-adv-x="142" 
d="M6 141h36l30 -52l29 52h36l-47 -77l50 -77h-39l-29 53l-32 -53h-38l52 78z" />
    <glyph glyph-name="y" unicode="y" horiz-adv-x="142" 
d="M3 141h36l34 -101l31 101h36l-56 -152q-14 -47 -47 -44q-12 0 -28 8l7 26q1 0 3 -1q8 -3 15 -3q10 -1 16 14l6 10z" />
    <glyph glyph-name="z" unicode="z" horiz-adv-x="128" 
d="M10 141h109v-26l-72 -97h75v-31h-116v25l70 96h-66v33z" />
    <glyph glyph-name="braceleft" unicode="{" horiz-adv-x="85" 
d="M73 220h6v-29h-6q-16 1 -15 -17v-58q0 -20 -11 -31q11 -10 11 -31v-55q-1 -18 15 -17h6v-29h-6q-48 -2 -46 44v56q1 18 -13 17h-6v29h6q14 -1 13 18v58q-2 47 46 45z" />
    <glyph glyph-name="bar" unicode="|" horiz-adv-x="71" 
d="M21 214h31v-262h-31v262z" />
    <glyph glyph-name="braceright" unicode="}" horiz-adv-x="85" 
d="M9 221h6q44 1 43 -45v-58q0 -18 12 -18h5v-29h-5q-12 0 -12 -17v-57q1 -44 -43 -43h-6v29h6q13 -1 12 17v54q0 21 11 31q-11 12 -11 31v59q0 18 -12 17h-6v29z" />
    <glyph glyph-name="asciitilde" unicode="~" horiz-adv-x="149" 
d="M137 126v-45q-11 -16 -34 -17q-18 0 -31 9q-13 7 -23 7q-20 -2 -35 -26v45q15 14 36 16q15 1 32 -9q13 -7 21 -7q20 0 34 27z" />
    <glyph glyph-name="currency" unicode="&#xa4;" 
d="M177 144l23 -22l-16 -16q9 -18 9 -33q0 -19 -10 -34l16 -16l-22 -22l-16 16q-18 -9 -32 -9q-16 0 -34 9l-16 -16l-23 22l17 16q-9 15 -9 34q0 17 8 32l-17 17l23 22l15 -17q15 10 36 10q18 0 32 -9zM94 73q2 -34 34 -36q32 2 34 36q-2 34 -33 36q-33 -2 -35 -36z" />
    <glyph glyph-name="section" unicode="&#xa7;" 
d="M121 113q-27 -8 -27 -25t37 -23q30 9 31 26q-1 18 -41 22zM180 187l-9 -24q-23 9 -45 9q-28 0 -29 -15q-3 -14 51 -23q44 -8 45 -41q0 -22 -30 -35q32 -10 31 -35q-1 -39 -65 -40q-26 -1 -57 8l8 23q21 -8 45 -8q38 1 38 16q1 14 -41 19q-60 7 -59 43q1 25 31 37
q-29 10 -28 33q3 40 61 42q26 0 53 -9z" />
    <glyph glyph-name="dieresis" unicode="&#xa8;" 
d="M114 158h-27v28h27v-28zM169 158h-27v28h27v-28z" />
    <glyph glyph-name="degree" unicode="&#xb0;" 
d="M92 159q-2 -37 -38 -40q-35 2 -37 40q3 37 37 40q36 -2 38 -40zM37 159q1 -20 17 -21q17 1 18 21q-1 20 -18 21q-16 -1 -17 -21z" />
    <glyph glyph-name="plusminus" unicode="&#xb1;" 
d="M66 11v26h124v-26h-124zM190 117v-26h-48v-42h-28v42h-48v26h48v42h28v-42h48z" />
    <glyph glyph-name="periodcentered" unicode="&#xb7;" 
d="M129 114q22 -2 24 -25q-2 -22 -24 -24q-23 2 -25 24q2 23 25 25z" />
    <glyph glyph-name="multiply" unicode="&#xd7;" 
d="M67 121l21 21l40 -40l39 42l21 -20l-39 -43l40 -40l-21 -21l-40 40l-40 -40l-21 21l41 40z" />
    <glyph glyph-name="agrave" unicode="&#xe0;" 
d="M129 154l-36 36h36l23 -36h-23zM161 55v20q-1 36 -33 37q-32 -1 -33 -50q1 -48 33 -49q32 1 33 42zM161 145h35v-158h-35v13q-13 -16 -38 -16q-61 2 -63 78q3 79 64 83q24 0 37 -17v17z" />
    <glyph glyph-name="aacute" unicode="&#xe1;" 
d="M103 154l35 36h23l-23 -36h-35zM161 55v20q-1 36 -33 37q-32 -1 -33 -50q1 -48 33 -49q32 1 33 42zM161 145h35v-158h-35v13q-13 -16 -38 -16q-61 2 -63 78q3 79 64 83q24 0 37 -17v17z" />
    <glyph glyph-name="egrave" unicode="&#xe8;" 
d="M100 82h56q-1 30 -27 31q-26 0 -29 -31zM157 41l34 -10q-15 -49 -62 -48q-64 2 -65 78q3 80 65 84q61 -3 63 -84v-11h-93q2 -36 30 -37q22 -1 28 28zM129 154l-36 36h36l23 -36h-23z" />
    <glyph glyph-name="eacute" unicode="&#xe9;" 
d="M100 82h56q-1 30 -27 31q-26 0 -29 -31zM157 41l34 -10q-15 -49 -62 -48q-64 2 -65 78q3 80 65 84q61 -3 63 -84v-11h-93q2 -36 30 -37q22 -1 28 28zM103 154l35 36h23l-23 -36h-35z" />
    <glyph glyph-name="ecircumflex" unicode="&#xea;" 
d="M100 82h56q-1 30 -27 31q-26 0 -29 -31zM157 41l34 -10q-15 -49 -62 -48q-64 2 -65 78q3 80 65 84q61 -3 63 -84v-11h-93q2 -36 30 -37q22 -1 28 28zM115 154h-29l27 36h30l27 -36h-29l-13 21z" />
    <glyph glyph-name="igrave" unicode="&#xec;" 
d="M111 141h34v-154h-34v154zM129 154l-36 36h36l23 -36h-23z" />
    <glyph glyph-name="iacute" unicode="&#xed;" 
d="M111 141h34v-154h-34v154zM103 154l35 36h23l-23 -36h-35z" />
    <glyph glyph-name="ograve" unicode="&#xf2;" 
d="M127 13q35 2 36 49q-1 51 -35 52q-34 -2 -35 -52q1 -47 34 -49zM128 145q67 -4 70 -82q-1 -79 -72 -80q-66 2 -68 78q4 79 70 84zM129 154l-36 36h36l23 -36h-23z" />
    <glyph glyph-name="oacute" unicode="&#xf3;" 
d="M127 13q35 2 36 49q-1 51 -35 52q-34 -2 -35 -52q1 -47 34 -49zM128 145q67 -4 70 -82q-1 -79 -72 -80q-66 2 -68 78q4 79 70 84zM103 154l35 36h23l-23 -36h-35z" />
    <glyph glyph-name="divide" unicode="&#xf7;" 
d="M190 95v-28h-124v28h124zM111 16v31h34v-31h-34zM111 113v31h34v-31h-34z" />
    <glyph glyph-name="ugrave" unicode="&#xf9;" 
d="M156 141h35v-154h-35v14q-13 -18 -37 -18q-54 0 -54 62v96h34v-96q1 -32 25 -32q30 2 32 37v91zM129 154l-36 36h36l23 -36h-23z" />
    <glyph glyph-name="uacute" unicode="&#xfa;" 
d="M156 141h35v-154h-35v14q-13 -18 -37 -18q-54 0 -54 62v96h34v-96q1 -32 25 -32q30 2 32 37v91zM103 154l35 36h23l-23 -36h-35z" />
    <glyph glyph-name="udieresis" unicode="&#xfc;" 
d="M156 141h35v-154h-35v14q-13 -18 -37 -18q-54 0 -54 62v96h34v-96q1 -32 25 -32q30 2 32 37v91zM119 171v-23h-23v23h23zM160 171v-23h-23v23h23z" />
    <glyph glyph-name="amacron" unicode="&#x101;" 
d="M165 183v-22h-74v22h74zM161 55v20q-1 36 -33 37q-32 -1 -33 -50q1 -48 33 -49q32 1 33 42zM161 145h35v-158h-35v13q-13 -16 -38 -16q-61 2 -63 78q3 79 64 83q24 0 37 -17v17z" />
    <glyph glyph-name="emacron" unicode="&#x113;" 
d="M100 82h56q-1 30 -27 31q-26 0 -29 -31zM157 41l34 -10q-15 -49 -62 -48q-64 2 -65 78q3 80 65 84q61 -3 63 -84v-11h-93q2 -36 30 -37q22 -1 28 28zM165 183v-22h-74v22h74z" />
    <glyph glyph-name="ecaron" unicode="&#x11b;" 
d="M100 82h56q-1 30 -27 31q-26 0 -29 -31zM157 41l34 -10q-15 -49 -62 -48q-64 2 -65 78q3 80 65 84q61 -3 63 -84v-11h-93q2 -36 30 -37q22 -1 28 28zM115 190l13 -21l13 21h29l-27 -36h-30l-27 36h29z" />
    <glyph glyph-name="imacron" unicode="&#x12b;" 
d="M111 141h34v-154h-34v154zM165 183v-22h-74v22h74z" />
    <glyph glyph-name="nacute" unicode="&#x144;" 
d="M191 83v-96h-35v95q0 31 -23 31q-31 -2 -33 -34v-92h-35v154h35v-14q16 18 40 18q49 -3 51 -62zM103 154l35 36h23l-23 -36h-35z" />
    <glyph glyph-name="ncaron" unicode="&#x148;" 
d="M191 83v-96h-35v95q0 31 -23 31q-31 -2 -33 -34v-92h-35v154h35v-14q16 18 40 18q49 -3 51 -62zM115 190l13 -21l13 21h29l-27 -36h-30l-27 36h29z" />
    <glyph glyph-name="omacron" unicode="&#x14d;" 
d="M127 13q35 2 36 49q-1 51 -35 52q-34 -2 -35 -52q1 -47 34 -49zM128 145q67 -4 70 -82q-1 -79 -72 -80q-66 2 -68 78q4 79 70 84zM165 183v-22h-74v22h74z" />
    <glyph glyph-name="umacron" unicode="&#x16b;" 
d="M156 141h35v-154h-35v14q-13 -18 -37 -18q-54 0 -54 62v96h34v-96q1 -32 25 -32q30 2 32 37v91zM165 183v-22h-74v22h74z" />
    <glyph glyph-name="uni01CE" unicode="&#x1ce;" 
d="M115 190l13 -21l13 21h29l-27 -36h-30l-27 36h29zM161 55v20q-1 36 -33 37q-32 -1 -33 -50q1 -48 33 -49q32 1 33 42zM161 145h35v-158h-35v13q-13 -16 -38 -16q-61 2 -63 78q3 79 64 83q24 0 37 -17v17z" />
    <glyph glyph-name="uni01D0" unicode="&#x1d0;" 
d="M111 141h34v-154h-34v154zM115 190l13 -21l13 21h29l-27 -36h-30l-27 36h29z" />
    <glyph glyph-name="uni01D2" unicode="&#x1d2;" 
d="M127 13q35 2 36 49q-1 51 -35 52q-34 -2 -35 -52q1 -47 34 -49zM128 145q67 -4 70 -82q-1 -79 -72 -80q-66 2 -68 78q4 79 70 84zM115 190l13 -21l13 21h29l-27 -36h-30l-27 36h29z" />
    <glyph glyph-name="uni01D4" unicode="&#x1d4;" 
d="M156 141h35v-154h-35v14q-13 -18 -37 -18q-54 0 -54 62v96h34v-96q1 -32 25 -32q30 2 32 37v91zM115 190l13 -21l13 21h29l-27 -36h-30l-27 36h29z" />
    <glyph glyph-name="uni01D6" unicode="&#x1d6;" 
d="M119 171v-23h-24v23h24zM161 171v-23h-24v23h24zM165 200v-17h-74v17h74zM156 141h35v-154h-35v14q-13 -18 -37 -18q-54 0 -54 62v96h34v-96q1 -32 25 -32q30 2 32 37v91z" />
    <glyph glyph-name="uni01D8" unicode="&#x1d8;" 
d="M103 178l32 27h20l-19 -27h-33zM156 141h35v-154h-35v14q-13 -18 -37 -18q-54 0 -54 62v96h34v-96q1 -32 25 -32q30 2 32 37v91zM119 171v-23h-23v23h23zM160 171v-23h-23v23h23z" />
    <glyph glyph-name="uni01DA" unicode="&#x1da;" 
d="M118 205l10 -15l10 15h26l-23 -27h-26l-23 27h26zM156 141h35v-154h-35v14q-13 -18 -37 -18q-54 0 -54 62v96h34v-96q1 -32 25 -32q30 2 32 37v91zM119 171v-23h-23v23h23zM160 171v-23h-23v23h23z" />
    <glyph glyph-name="uni01DC" unicode="&#x1dc;" 
d="M127 178l-31 27h33l19 -27h-21zM156 141h35v-154h-35v14q-13 -18 -37 -18q-54 0 -54 62v96h34v-96q1 -32 25 -32q30 2 32 37v91zM119 171v-23h-23v23h23zM160 171v-23h-23v23h23z" />
    <glyph glyph-name="uni0251" unicode="&#x251;" 
d="M161 55v20q-1 36 -33 37q-32 -1 -33 -50q1 -48 33 -49q32 1 33 42zM161 145h35v-158h-35v13q-13 -16 -38 -16q-61 2 -63 78q3 79 64 83q24 0 37 -17v17z" />
    <glyph glyph-name="uni0261" unicode="&#x261;" 
d="M160 57v20q-1 35 -30 37q-34 -1 -35 -49q1 -44 32 -46q33 0 33 38zM160 142h35v-130q1 -68 -71 -67q-32 0 -56 24l18 23q22 -15 38 -15q37 -1 36 26q-12 -13 -38 -13q-59 3 -61 74q3 77 64 81q23 0 35 -16v13z" />
    <glyph glyph-name="caron" unicode="&#x2c7;" 
d="M115 190l13 -21l13 21h29l-27 -36h-30l-27 36h29z" />
    <glyph glyph-name="uni02C9" unicode="&#x2c9;" 
d="M165 183v-22h-74v22h74z" />
    <glyph glyph-name="Alpha" unicode="&#x391;" 
d="M69 0h-25l69 178h27l72 -178h-25l-22 55h-76zM158 75l-32 80l-30 -80h62z" />
    <glyph glyph-name="Beta" unicode="&#x392;" 
d="M61 178h70q38 0 50 -31q10 -41 -19 -53v-1q37 -11 31 -53q-10 -38 -50 -40h-82v178zM82 159v-57h49q27 1 30 29q-1 27 -29 28h-50zM82 82v-63h53q33 1 37 31q-2 30 -35 32h-55z" />
    <glyph glyph-name="Gamma" unicode="&#x393;" 
d="M69 178h118v-19h-97v-159h-21v178z" />
    <glyph glyph-name="uni0394" unicode="&#x394;" 
d="M125 181l88 -181h-170zM125 131l-48 -111h101z" />
    <glyph glyph-name="Epsilon" unicode="&#x395;" 
d="M164 101v-19h-73v-63h94v-19h-114v178h111v-19h-91v-58h73z" />
    <glyph glyph-name="Zeta" unicode="&#x396;" 
d="M69 178h128l-99 -158h99v-20h-139l100 158h-89v20z" />
    <glyph glyph-name="Eta" unicode="&#x397;" 
d="M172 105v73h21v-178h-21v85h-88v-85h-21v178h21v-73h88z" />
    <glyph glyph-name="Theta" unicode="&#x398;" 
d="M84 102h88v-20h-88v20zM128 167q-59 -1 -61 -75q2 -71 61 -75q60 3 61 76q-3 72 -61 74zM129 187q78 -3 82 -95q-3 -90 -83 -93q-80 3 -83 92q3 94 84 96z" />
    <glyph glyph-name="Iota" unicode="&#x399;" 
d="M118 178h20v-178h-20v178z" />
    <glyph glyph-name="Kappa" unicode="&#x39a;" 
d="M160 178h29q-32 -52 -83 -84q-1 0 0 -2q51 -36 89 -92h-31q-29 45 -82 84v-84h-21v178h21v-76q55 38 78 76z" />
    <glyph glyph-name="Lambda" unicode="&#x39b;" 
d="M115 178h27l72 -178h-27l-60 154l-58 -154h-27z" />
    <glyph glyph-name="Mu" unicode="&#x39c;" 
d="M47 178h31l51 -101l51 101h29v-178h-21v149l-56 -112h-8l-56 115v-152h-21v178z" />
    <glyph glyph-name="Nu" unicode="&#x39d;" 
d="M62 178h20l91 -125v125h21v-178h-11l-101 141v-141h-20v178z" />
    <glyph glyph-name="Xi" unicode="&#x39e;" 
d="M61 179h132l-81 -77h81l-83 -83h85v-19h-134l82 82h-81l80 78h-81v19z" />
    <glyph glyph-name="Omicron" unicode="&#x39f;" 
d="M128 166q-59 -1 -61 -75q2 -70 61 -74q60 2 61 75q-3 72 -61 74zM129 186q80 -3 82 -95q-3 -90 -83 -92q-80 3 -83 92q3 93 84 95z" />
    <glyph glyph-name="Pi" unicode="&#x3a0;" 
d="M89 0h-20v157h-23v20h164v-20h-23v-157h-20v157h-78v-157z" />
    <glyph glyph-name="Rho" unicode="&#x3a1;" 
d="M70 178h58q56 -2 58 -57q-4 -49 -55 -52h-40v-69h-21v178zM91 158v-69h39q32 2 34 32q-2 35 -35 37h-38z" />
    <glyph glyph-name="Sigma" unicode="&#x3a3;" 
d="M61 180h132v-19h-100l79 -73l-80 -69h104v-19h-136v20l77 69l-76 69v22z" />
    <glyph glyph-name="Tau" unicode="&#x3a4;" 
d="M138 0h-20v157h-66v20h152v-20h-66v-157z" />
    <glyph glyph-name="Upsilon" unicode="&#x3a5;" 
d="M42 178h27l59 -85l59 85h27l-76 -107v-71h-20v70z" />
    <glyph glyph-name="Phi" unicode="&#x3a6;" 
d="M138 0h-21v16q-73 6 -74 75q2 67 74 74v13h21l1 -13q71 -8 74 -75q-2 -66 -75 -74v-16zM117 37v107q-52 -4 -53 -53q1 -48 53 -54zM138 144v-107q53 5 54 53q-1 47 -54 54z" />
    <glyph glyph-name="Chi" unicode="&#x3a7;" 
d="M72 0h-27l69 91l-66 87h27l53 -69l53 69h27l-66 -87l69 -91h-27l-56 73z" />
    <glyph glyph-name="Psi" unicode="&#x3a8;" 
d="M45 178h22q0 -65 51 -77v76h20v-77q52 10 52 78h21q0 -89 -73 -99v-78h-20v78q-71 13 -73 99z" />
    <glyph glyph-name="uni03A9" unicode="&#x3a9;" 
d="M198 21v-21h-58v26q46 29 47 79q-6 52 -58 56q-57 -2 -60 -53q1 -50 47 -82v-26h-59v21h35q-42 36 -43 88q6 67 79 72q73 -4 79 -76q-1 -52 -43 -84h34z" />
    <glyph glyph-name="alpha" unicode="&#x3b1;" 
d="M198 123v-22q-26 -8 -27 -41q1 -28 27 -39v-21q-27 8 -36 28v0h-1q-15 -28 -48 -28q-52 2 -55 61q1 62 58 64q31 -1 45 -27h2q11 22 35 25zM78 61q1 -40 35 -42q37 3 38 46q-5 37 -35 40q-37 0 -38 -44z" />
    <glyph glyph-name="beta" unicode="&#x3b2;" 
d="M137 90h-31v16h11q30 2 33 29q-2 30 -29 31q-31 0 -31 -32v-106q17 -12 38 -12q36 4 39 38q-2 35 -30 36zM90 -52h-21v187q3 50 52 51q47 -1 49 -49q0 -19 -13 -32v-1q31 -15 30 -49q-3 -53 -58 -56q-20 -1 -39 7v-58z" />
    <glyph glyph-name="gamma" unicode="&#x3b3;" 
d="M187 121l17 -16q-65 -66 -95 -160h-21q10 38 27 71q-8 81 -63 84l6 20q59 -4 73 -75q23 41 56 76z" />
    <glyph glyph-name="delta" unicode="&#x3b4;" 
d="M183 160l-9 -19q-57 32 -74 14q-2 -17 33 -31q51 -19 49 -67q-3 -54 -54 -57q-53 2 -55 60q2 42 35 55q-39 22 -27 50q8 17 41 16q33 -3 61 -21zM128 101q-33 -3 -35 -44q2 -36 35 -39q31 2 35 40q-4 42 -35 43z" />
    <glyph glyph-name="epsilon" unicode="&#x3b5;" 
d="M167 115l-7 -18q-41 18 -49 -8q0 -19 21 -21h29v-19h-28q-23 -1 -25 -18q5 -28 55 -4l5 -21q-73 -22 -80 24q0 17 14 29q-1 1 -2 4q-10 13 -9 28q15 50 76 24z" />
    <glyph glyph-name="zeta" unicode="&#x3b6;" 
d="M168 166l18 -10l-39 -64q-46 28 -57 -10q-1 -11 24 -33q10 -8 15 -13q17 -17 17 -33q-2 -31 -43 -32h-17l3 19h11q24 1 26 13q0 10 -23 30q-33 27 -33 46q10 59 70 39z" />
    <glyph glyph-name="eta" unicode="&#x3b7;" 
d="M188 71v-125h-20v125q-1 29 -23 30q-29 -3 -31 -30v-71h-20v87q1 8 -3 7q-4 0 -14 -9l-10 16q36 37 44 4q1 1 1 0q14 16 38 16q36 -2 38 -50z" />
    <glyph glyph-name="theta" unicode="&#x3b8;" 
d="M158 77h-60q3 -59 29 -61q28 2 31 61zM128 176q48 0 50 -85q0 -91 -49 -93q-51 0 -51 93q1 84 50 85zM98 96h60q-3 59 -31 60q-27 0 -29 -60z" />
    <glyph glyph-name="iota" unicode="&#x3b9;" 
d="M112 119h19v-92q-1 -12 12 -10l1 -17q-31 -5 -32 15v104z" />
    <glyph glyph-name="kappa" unicode="&#x3ba;" 
d="M156 121l17 -14l-3 -3q-21 -18 -48 -40q5 -4 13 -11q29 -22 45 -36l-13 -17q-35 31 -71 58v-58h-20v120h20v-51q32 25 60 52z" />
    <glyph glyph-name="lambda" unicode="&#x3bb;" 
d="M190 12l-12 -16q-15 4 -33 65q-7 23 -12 37l-44 -98h-20l55 124q-11 34 -23 32q-10 2 -30 -10l-5 20q25 12 37 10q29 0 44 -57q6 -20 15 -49q15 -58 28 -58z" />
    <glyph glyph-name="uni03BC" unicode="&#x3bc;" 
d="M74 117h21v-65q3 -33 29 -36q26 2 29 34v67h20v-72q0 -25 9 -37l-16 -11q-6 8 -9 16q-12 -15 -32 -14q-19 -1 -31 11v-46h-20v153z" />
    <glyph glyph-name="nu" unicode="&#x3bd;" 
d="M158 117h20q-11 -89 -61 -117h-16q-7 97 -23 109l15 13q21 -13 26 -100q34 34 39 95z" />
    <glyph glyph-name="xi" unicode="&#x3be;" 
d="M173 175v-19q-64 15 -69 -23q1 -25 33 -27h36v-19h-30q-44 -4 -45 -36q1 -27 37 -32q43 -5 43 -33q-3 -38 -47 -40q-12 0 -25 4l6 19q45 -10 44 22q-4 9 -25 11q-22 3 -33 10q-18 13 -19 38q1 36 29 47q-27 8 -24 43q10 50 89 35z" />
    <glyph glyph-name="omicron" unicode="&#x3bf;" 
d="M127 107q-31 -3 -33 -43q3 -43 33 -45q35 2 35 45q-3 43 -35 43zM127 126q54 -2 55 -61q-1 -64 -55 -65q-52 4 -53 66q5 58 53 60z" />
    <glyph glyph-name="pi" unicode="&#x3c0;" 
d="M108 0h-21v101h-14q-7 0 -19 -2q-7 -1 -10 -1v20q3 0 8 1q10 2 16 2h144v-20h-43v-67q0 -7 10 -10l-2 -22q-27 -1 -29 26v73h-40v-101z" />
    <glyph glyph-name="rho" unicode="&#x3c1;" 
d="M94 15v-66h-21v96q2 74 58 75q47 -2 51 -61q-3 -58 -51 -59q-24 0 -37 15zM131 101q-32 -3 -36 -42q3 -36 34 -42q32 2 34 39q-2 42 -32 45z" />
    <glyph glyph-name="sigma" unicode="&#x3c3;" 
d="M192 116v-18h-33q13 -16 13 -41q-2 -57 -53 -59q-52 1 -55 58q3 59 54 62q7 0 13 -2h61zM118 98q-31 -2 -34 -41q2 -39 35 -41q31 1 33 41q-3 39 -34 41z" />
    <glyph glyph-name="tau" unicode="&#x3c4;" 
d="M155 19v-19q-31 -1 -31 20v76h-33q-10 -1 -22 -3v19q2 0 7 1q10 2 15 2h96v-19h-43v-67q0 -8 11 -10z" />
    <glyph glyph-name="upsilon" unicode="&#x3c5;" 
d="M73 121h21v-41q1 -59 35 -62q32 3 33 64v39h21v-39q-1 -82 -55 -83q-55 1 -55 81v41z" />
    <glyph glyph-name="phi" unicode="&#x3c6;" 
d="M118 20v83q-32 -6 -33 -41q1 -33 33 -42zM118 123v51h20v-51q50 -8 52 -62q-2 -53 -52 -60v-49h-20v49q-50 9 -52 61q2 53 52 61zM138 103v-83q32 6 33 41q-1 35 -33 42z" />
    <glyph glyph-name="chi" unicode="&#x3c7;" 
d="M81 -38h-23l57 85q-24 46 -31 53q-6 6 -16 2l-5 20q26 8 40 -13q13 -21 25 -42l37 56h23l-49 -76q3 -5 7 -15q8 -15 22 -41q11 -18 24 -13l2 1l5 -17q-10 -5 -20 -5q-18 2 -29 27q-5 10 -15 27q-6 11 -9 16z" />
    <glyph glyph-name="psi" unicode="&#x3c8;" 
d="M49 88v29h19v-30q1 -62 50 -71v101h19v-100q50 8 51 76v24h19v-25q-1 -86 -70 -93v-51h-19v51q-67 4 -69 89z" />
    <glyph glyph-name="omega" unicode="&#x3c9;" 
d="M94 122l4 -22q-36 -9 -39 -46q1 -32 28 -36q28 0 31 46v16h19v-17q3 -41 31 -45q27 3 27 37q-1 35 -38 47l4 20q51 -12 56 -64q0 -56 -47 -60q-27 1 -42 22q-1 2 -1 0q-9 -20 -39 -21q-47 1 -49 55q5 58 55 68z" />
    <glyph glyph-name="uni0401" unicode="&#x401;" 
d="M192 0h-128v178h124v-22h-102v-53h93v-22h-93v-59h106v-22zM117 221v-26h-24v26h24zM159 221v-25h-23v25h23z" />
    <glyph glyph-name="uni0410" unicode="&#x410;" 
d="M48 0l65 178h28l67 -178h-25l-18 45h-76l-16 -45h-25zM127 152l-31 -85h62z" />
    <glyph glyph-name="uni0411" unicode="&#x411;" 
d="M58 0v179h126v-23h-103v-48h56q58 -4 60 -53q-2 -54 -56 -55h-83zM138 86h-57v-63h60q31 1 32 31q-1 31 -35 32z" />
    <glyph glyph-name="uni0412" unicode="&#x412;" 
d="M58 0v180h84q42 -1 47 -43q0 -34 -28 -42q36 -9 37 -44q-2 -50 -55 -51h-85zM137 158h-56v-54h47q36 0 37 31q-4 22 -28 23zM136 81h-55v-58h55q37 -1 37 27q4 27 -37 31z" />
    <glyph glyph-name="uni0413" unicode="&#x413;" 
d="M95 0h-23v178h112v-22h-89v-156z" />
    <glyph glyph-name="uni0414" unicode="&#x414;" 
d="M86 137v44h108v-159h25l-2 -60h-20v38h-138v-38h-21l-1 61h17q34 32 32 114zM171 22v137h-62v-21q1 -80 -28 -116h90z" />
    <glyph glyph-name="uni0415" unicode="&#x415;" 
d="M192 0h-128v178h124v-22h-102v-53h93v-22h-93v-59h106v-22z" />
    <glyph glyph-name="uni0416" unicode="&#x416;" 
d="M92 95l-78 83h30l74 -77v77h22v-78l74 78h29l-80 -82l83 -96h-31l-75 90v-90h-22v92l-79 -92h-29z" />
    <glyph glyph-name="uni0417" unicode="&#x417;" 
d="M81 131h-22q4 54 70 53q56 -1 63 -45q2 -32 -27 -42q33 -4 36 -46q-6 -51 -66 -52q-74 -3 -80 58h23q0 -39 53 -39q42 1 49 33q0 33 -41 35h-28v22h24q36 2 35 30q-6 25 -43 26q-44 -1 -46 -33z" />
    <glyph glyph-name="uni0418" unicode="&#x418;" 
d="M57 0v178h23v-140l94 140h24v-178h-22v142l-95 -142h-24z" />
    <glyph glyph-name="uni0419" unicode="&#x419;" 
d="M57 0v178h23v-140l94 140h24v-178h-22v143l-95 -143h-24zM86 229h19q2 -16 24 -17q22 1 25 17h20q-7 -33 -47 -34q-35 2 -41 34z" />
    <glyph glyph-name="uni041A" unicode="&#x41a;" 
d="M58 0v179h23v-79l80 78h30l-83 -81l90 -97h-31l-86 92v-92h-23z" />
    <glyph glyph-name="uni041B" unicode="&#x41b;" 
d="M95 179h110v-179h-22v156h-65v-50q3 -106 -67 -106v24q27 -1 36 21q9 18 8 85v49z" />
    <glyph glyph-name="uni041C" unicode="&#x41c;" 
d="M37 0v178h35l57 -144l55 144h34v-178h-22v148l-58 -148h-19l-59 146v-146h-23z" />
    <glyph glyph-name="uni041D" unicode="&#x41d;" 
d="M84 83v-83h-23v178h23v-73h88v73h23v-178h-23v83h-88z" />
    <glyph glyph-name="uni041E" unicode="&#x41e;" 
d="M127 164q-57 -2 -60 -72q3 -70 61 -74q62 3 62 74q-5 69 -63 72zM127 186q81 -2 85 -95q-1 -91 -86 -93q-78 3 -82 94q5 91 83 94z" />
    <glyph glyph-name="uni041F" unicode="&#x41f;" 
d="M60 0v179h136v-179h-22v157h-91v-157h-23z" />
    <glyph glyph-name="uni0420" unicode="&#x420;" 
d="M61 0v178h74q54 -1 60 -52q0 -56 -57 -56h-54v-70h-23zM134 157h-50v-66h52q36 4 36 34q-6 31 -38 32z" />
    <glyph glyph-name="uni0421" unicode="&#x421;" 
d="M206 124h-24q-6 38 -52 39q-58 -4 -60 -70q0 -73 61 -74q45 -1 53 41h24q-9 -60 -76 -62q-83 1 -84 95q6 91 82 93q69 -2 76 -62z" />
    <glyph glyph-name="uni0422" unicode="&#x422;" 
d="M117 0v157h-59v21h139v-21h-57v-157h-23z" />
    <glyph glyph-name="uni0423" unicode="&#x423;" 
d="M122 46l-66 131h27l52 -102l40 102h25l-58 -146q-10 -39 -65 -30v22q37 -9 45 23z" />
    <glyph glyph-name="uni0424" unicode="&#x424;" 
d="M117 48v100q-71 -1 -70 -51q-1 -51 70 -49zM117 169v26h22v-26q95 -1 91 -71q3 -69 -91 -71v-27h-22v26q-91 0 -91 72q-1 70 91 71zM139 148v-100q72 1 68 51q3 47 -68 49z" />
    <glyph glyph-name="uni0425" unicode="&#x425;" 
d="M112 90l-59 88h29l45 -70l47 70h27l-58 -87l64 -91h-31l-49 72l-49 -72h-29z" />
    <glyph glyph-name="uni0426" unicode="&#x426;" 
d="M47 0v178h23v-156h91v156h23v-156h24l-1 -58h-21v36h-139z" />
    <glyph glyph-name="uni0427" unicode="&#x427;" 
d="M66 131v47h23v-47q-1 -30 27 -32h19q8 -1 25 1q5 1 7 1v77h23v-178h-23v78h-2q-11 -2 -24 -2h-20q-53 -1 -55 55z" />
    <glyph glyph-name="uni0428" unicode="&#x428;" 
d="M233 0h-210v178h22v-155h71v155h23v-155h72v155h22v-178z" />
    <glyph glyph-name="uni0429" unicode="&#x429;" 
d="M226 0h-219v178h23v-155h74v155h22v-155h73v155h23v-155h27l-3 -59h-20v36z" />
    <glyph glyph-name="uni042A" unicode="&#x42a;" 
d="M108 23h48q38 -1 38 34q-3 32 -36 31h-50v-65zM85 0v156h-46v23h69v-69h54q51 -1 55 -52q-1 -57 -59 -58h-73z" />
    <glyph glyph-name="uni042B" unicode="&#x42b;" 
d="M197 178h22v-178h-22v178zM37 0v178h22v-68h54q54 -7 56 -54q-2 -55 -59 -56h-73zM59 23h49q36 0 38 32q-3 31 -36 32h-51v-64z" />
    <glyph glyph-name="uni042C" unicode="&#x42c;" 
d="M62 0v179h22v-69h53q53 -4 57 -53q-1 -57 -60 -57h-72zM84 23h49q37 0 38 34q-4 30 -36 30h-51v-64z" />
    <glyph glyph-name="uni042D" unicode="&#x42d;" 
d="M74 130h-25q15 59 78 58q75 -7 80 -94q-4 -90 -79 -95q-74 1 -79 62h25q1 -41 53 -42q52 4 58 66h-87v23h86q-11 55 -57 57q-44 1 -53 -35z" />
    <glyph glyph-name="uni042E" unicode="&#x42e;" 
d="M152 163q-59 -3 -61 -69q0 -75 61 -75q61 1 62 73q-2 70 -62 71zM69 87h-27v-84h-22v179h22v-74h28q9 77 83 78q81 -1 83 -94q-2 -93 -84 -94q-78 2 -83 89z" />
    <glyph glyph-name="uni042F" unicode="&#x42f;" 
d="M89 0h-29l44 71q-43 8 -44 53q1 55 58 55h78v-179h-22v70h-43zM174 156h-53q-38 0 -39 -31q0 -32 37 -32h55v63z" />
    <glyph glyph-name="uni0430" unicode="&#x430;" 
d="M178 94v-64q1 -11 11 -9v-21h-15q-16 2 -17 17q0 1 -1 0h-1q-21 -22 -57 -18q-30 5 -31 33q0 38 43 42q2 0 8 1q34 2 37 16v2q-2 23 -32 23q-28 -1 -31 -23h-22q2 41 54 43q52 -1 54 -42zM155 53v13q-10 -7 -39 -9q-27 -1 -28 -24q1 -20 32 -17q31 8 35 37z" />
    <glyph glyph-name="uni0431" unicode="&#x431;" 
d="M162 189h21q-5 -32 -49 -34q-49 -2 -52 -49q17 25 49 26q56 -2 60 -66q-3 -66 -64 -67q-59 3 -62 75v21q2 53 30 71q15 7 37 9q22 1 30 14zM89 64q1 -42 37 -49q41 2 43 47q-2 52 -39 52q-40 -1 -41 -50z" />
    <glyph glyph-name="uni0432" unicode="&#x432;" 
d="M75 0v135h68q27 -1 34 -26q4 -31 -20 -38q27 -10 23 -40q-7 -30 -36 -31h-69zM133 117h-35v-38h35q22 1 23 19q-1 18 -23 19zM136 61h-38v-43h37q22 1 24 21q-1 21 -23 22z" />
    <glyph glyph-name="uni0433" unicode="&#x433;" 
d="M106 110v-110h-22v129h88v-19h-66z" />
    <glyph glyph-name="uni0434" unicode="&#x434;" 
d="M88 98v35h94v-114h22l-2 -48h-21v29h-107v-29h-20l-2 48h16q21 23 20 79zM93 19h66v95h-49v-20q0 -48 -17 -75z" />
    <glyph glyph-name="uni0435" unicode="&#x435;" 
d="M189 61h-99q2 -38 37 -44q27 0 38 24h24q-16 -43 -62 -43q-59 6 -61 71q5 71 64 71q61 -3 59 -79zM90 81h75q-3 35 -34 39q-37 -1 -41 -39z" />
    <glyph glyph-name="uni0436" unicode="&#x436;" 
d="M95 70l-56 61h29l48 -56v56h23v-56l48 56h28l-55 -61l58 -70h-27l-52 65v-65h-23v65l-51 -65h-27l57 69v1z" />
    <glyph glyph-name="uni0437" unicode="&#x437;" 
d="M96 97h-21q7 40 56 40q45 -1 48 -37q1 -24 -20 -30q-1 0 1 -1q24 -5 24 -31q-2 -38 -53 -39q-58 1 -59 45h21q1 -28 38 -29q31 3 32 22q-1 23 -27 23h-23v20h22q23 2 23 19q-1 19 -27 20t-35 -22z" />
    <glyph glyph-name="uni0438" unicode="&#x438;" 
d="M97 0h-26v131h23v-97l65 97h26v-131h-23v99z" />
    <glyph glyph-name="uni0439" unicode="&#x439;" 
d="M84 180h18q4 -18 25 -20q22 1 26 20h19q-7 -34 -46 -36q-36 4 -42 36zM97 0h-26v131h23v-97l65 97h26v-131h-23v99z" />
    <glyph glyph-name="uni043A" unicode="&#x43a;" 
d="M74 0v131h23v-59l54 59h27l-60 -63l64 -68h-28l-57 62v-62h-23z" />
    <glyph glyph-name="uni043B" unicode="&#x43b;" 
d="M99 81v50h90v-131h-22v112h-45v-46q2 -67 -45 -66h-10v19q36 -8 32 62z" />
    <glyph glyph-name="uni043C" unicode="&#x43c;" 
d="M77 0h-23v131h31l44 -103l44 103h28v-131h-22v97l-42 -97h-18l-42 99v-99z" />
    <glyph glyph-name="uni043D" unicode="&#x43d;" 
d="M74 0v131h22v-53h64v53h22v-131h-22v59h-64v-59h-22z" />
    <glyph glyph-name="uni043E" unicode="&#x43e;" 
d="M127 117q-36 -3 -39 -49q2 -51 40 -53q39 1 40 52q-1 50 -41 50zM128 136q61 -2 63 -69q-3 -67 -62 -69q-61 2 -64 70q3 64 63 68z" />
    <glyph glyph-name="uni043F" unicode="&#x43f;" 
d="M73 0v131h110v-131h-23v112h-64v-112h-23z" />
    <glyph glyph-name="uni0440" unicode="&#x440;" 
d="M89 132v-17q17 23 46 22q50 -3 55 -72q-3 -64 -57 -67q-30 0 -44 20v-62h-23v176h23zM130 12q36 5 37 54q-3 52 -40 54q-35 -3 -38 -54q3 -51 41 -54z" />
    <glyph glyph-name="uni0441" unicode="&#x441;" 
d="M165 48h23q-8 -50 -59 -50q-59 2 -61 69q3 66 60 71q52 -3 59 -47h-23q-4 26 -35 28q-37 -2 -38 -53q2 -47 38 -51q31 1 36 33z" />
    <glyph glyph-name="uni0442" unicode="&#x442;" 
d="M72 113v19h111v-19h-45v-113h-22v113h-44z" />
    <glyph glyph-name="uni0443" unicode="&#x443;" 
d="M121 0l-56 129h27l41 -101l34 101h24l-54 -150q-12 -37 -51 -24v21q30 -9 35 24z" />
    <glyph glyph-name="uni0444" unicode="&#x444;" 
d="M117 19v97q-59 -1 -57 -49q-2 -48 57 -48zM117 138v45h23v-45q79 -2 78 -70q1 -68 -78 -69v-41h-23v41q-80 1 -79 68q-1 69 79 71zM140 116v-97q58 1 56 49q1 46 -56 48z" />
    <glyph glyph-name="uni0445" unicode="&#x445;" 
d="M114 67l-44 64h27l31 -48l32 48h26l-44 -64l48 -67h-26l-35 52l-37 -52h-26z" />
    <glyph glyph-name="uni0446" unicode="&#x446;" 
d="M61 0v132h23v-113h66v113h22v-112h23l-2 -49h-19v29h-113z" />
    <glyph glyph-name="uni0447" unicode="&#x447;" 
d="M78 83v48h22v-44q0 -16 33 -16h2h21v60h22v-131h-22v52h-39q-39 0 -39 31z" />
    <glyph glyph-name="uni0448" unicode="&#x448;" 
d="M40 0v131h23v-113h54v113h22v-113h54v113h23v-131h-176z" />
    <glyph glyph-name="uni0449" unicode="&#x449;" 
d="M204 0h-174v132h23v-112h53v112h23v-112h53v112h22v-112h22l-3 -47h-19v27z" />
    <glyph glyph-name="uni044A" unicode="&#x44a;" 
d="M91 0v112h-33v18h56v-49h44q40 -1 40 -42q-3 -38 -39 -39h-68zM155 62h-41v-44h40q21 1 22 21q-2 22 -21 23z" />
    <glyph glyph-name="uni044B" unicode="&#x44b;" 
d="M201 0h-23v130h23v-130zM55 0v130h23v-49h44q37 -1 41 -39q-1 -41 -41 -42h-67zM119 62h-41v-43h40q21 1 22 22q-1 20 -21 21z" />
    <glyph glyph-name="uni044C" unicode="&#x44c;" 
d="M74 0v130h23v-49h43q40 -1 42 -42q-2 -37 -41 -39h-67zM137 63h-40v-45h39q22 1 23 22q-1 22 -22 23z" />
    <glyph glyph-name="uni044D" unicode="&#x44d;" 
d="M91 92h-22q8 45 59 46q58 -1 60 -70q-1 -67 -60 -69q-52 1 -60 50h22q7 -31 38 -32q33 1 37 44h-55v19h55q-7 38 -37 38q-30 -1 -37 -26z" />
    <glyph glyph-name="uni044E" unicode="&#x44e;" 
d="M150 119q-37 -1 -39 -50q1 -53 40 -54q38 1 39 53q0 51 -40 51zM88 63h-21v-60h-23v129h23v-53h22q8 56 61 59q62 -2 62 -70q-2 -69 -62 -70q-58 1 -62 65z" />
    <glyph glyph-name="uni044F" unicode="&#x44f;" 
d="M116 132h66v-132h-23v53h-26l-33 -53h-26l35 53q-33 7 -33 40q2 38 40 39zM159 113h-41q-21 0 -22 -21q2 -19 23 -21h40v42z" />
    <glyph glyph-name="uni0451" unicode="&#x451;" 
d="M189 61h-99q2 -37 37 -43q29 0 38 23h24q-16 -42 -62 -42q-59 5 -61 71q5 69 64 70q61 -3 59 -79zM90 81h75q-3 36 -34 39q-37 -1 -41 -39zM156 183q9 -1 10 -11q-1 -10 -10 -11q-10 1 -11 11q1 10 11 11zM98 183q10 -1 11 -11q-1 -10 -11 -11q-9 1 -10 11q1 10 10 11z
" />
    <glyph glyph-name="emdash" unicode="&#x2014;" 
d="M0 98h256v-21h-256v21z" />
    <glyph glyph-name="uni2016" unicode="&#x2016;" 
d="M111 -26h-11v234h11v-234zM156 -26h-11v234h11v-234z" />
    <glyph glyph-name="quoteleft" unicode="&#x2018;" 
d="M173 124v37q6 35 35 41v-16q-11 -5 -13 -15v-7h16v-40h-38z" />
    <glyph glyph-name="quoteright" unicode="&#x2019;" 
d="M83 202v-37q-3 -36 -35 -41v16q11 2 13 15v7h-16v40h38z" />
    <glyph glyph-name="quotedblleft" unicode="&#x201c;" 
d="M203 127v37q3 33 35 41v-16q-5 -3 -8 -6q0 -1 -2 -2q-3 -5 -3 -7v-7h16v-40h-38zM144 127v37q6 35 35 41v-16q-11 -5 -13 -15v-7h16v-40h-38z" />
    <glyph glyph-name="quotedblright" unicode="&#x201d;" 
d="M112 205v-37q-3 -35 -35 -41v16q5 2 8 6q5 5 5 9v7h-16v40h38zM54 205v-37q-3 -36 -35 -41v16q11 2 13 15v7h-16v40h38z" />
    <glyph glyph-name="ellipsis" unicode="&#x2026;" 
d="M112 107h33v-34h-33v34zM26 107h33v-34h-33v34zM197 107h33v-34h-33v34z" />
    <glyph glyph-name="perthousand" unicode="&#x2030;" 
d="M132 199h24l-115 -217h-24zM41 107q13 0 13 34q0 35 -13 35t-13 -35q0 -34 13 -34zM41 200q33 -3 35 -59q-1 -55 -36 -57q-33 1 -34 57q2 57 35 59zM135 5q12 1 12 34q0 36 -12 35q-13 0 -13 -35t13 -34zM135 97q34 -2 35 -58q0 -56 -36 -56q-33 -1 -34 55q2 57 35 59z
M215 5q13 0 13 34q0 35 -13 35q-12 1 -12 -35q0 -35 12 -34zM215 97q33 -3 35 -58q0 -55 -35 -56q-35 1 -35 55q1 57 35 59z" />
    <glyph glyph-name="minute" unicode="&#x2032;" 
d="M29 115l-7 3l12 71q3 11 13 7l14 -5q8 -4 4 -14z" />
    <glyph glyph-name="second" unicode="&#x2033;" 
d="M7 115l-7 3l12 71q2 11 13 7l14 -5q8 -5 3 -14zM49 115l-6 4l19 69q3 11 13 6l13 -6q8 -5 3 -14z" />
    <glyph glyph-name="uni203B" unicode="&#x203b;" 
d="M41 12l81 81l-77 77q-4 4 -1 8q4 3 8 -1l77 -77l80 80q3 3 6 -1q2 -4 -1 -8l-78 -78l79 -79q3 -8 -6 -8l-80 80l-80 -80q-8 -3 -8 6zM62 112q17 -2 19 -19q-2 -17 -19 -19q-17 2 -19 19q1 18 19 19zM129 43q17 -2 19 -19q-2 -17 -19 -19q-17 2 -19 19q1 18 19 19z
M195 112q17 -2 19 -19q-2 -17 -19 -19q-17 2 -19 19q1 18 19 19zM129 181q17 -2 19 -19q-2 -17 -19 -19q-17 2 -19 19q1 18 19 19z" />
    <glyph glyph-name="Euro" unicode="&#x20ac;" horiz-adv-x="203" 
d="M132 79l-7 -28h-43q11 -36 38 -37q34 0 42 50l35 -10q-16 -73 -76 -71q-61 0 -75 68h-38l7 28h28q-1 6 -1 11q0 6 1 12h-35l7 28h32q19 67 76 69q54 0 71 -63l-35 -12q-9 42 -38 42q-27 -1 -38 -36h59l-7 -28h-57q-1 -6 -1 -12q0 -5 1 -11h54z" />
    <glyph glyph-name="uni2103" unicode="&#x2103;" 
d="M92 159q-2 -37 -38 -40q-35 2 -37 40q3 37 37 40q36 -2 38 -40zM37 159q1 -20 17 -21q17 1 18 21q-1 20 -18 21q-16 -1 -17 -21zM237 136l-32 -12q-10 43 -35 42q-36 -3 -38 -76q2 -72 37 -76q28 -1 37 50l34 -10q-15 -74 -71 -71q-70 3 -72 106q4 103 74 110
q52 0 66 -63z" />
    <glyph glyph-name="uni2116" unicode="&#x2116;" 
d="M241 90q0 -66 -41 -66q-40 2 -41 64q2 64 41 67q39 -3 41 -65zM186 89q0 -41 14 -40q14 -1 14 40q0 42 -14 41q-14 1 -14 -41zM230 10v-23h-56v23h56zM108 64v130h34v-207h-34l-59 128v-128h-33v207h33z" />
    <glyph glyph-name="uni2160" unicode="&#x2160;" 
d="M143 204v-218h-31v218h31z" />
    <glyph glyph-name="uni2161" unicode="&#x2161;" 
d="M173 204v-218h-30v218h30zM113 203v-218h-30v218h30z" />
    <glyph glyph-name="uni2162" unicode="&#x2162;" 
d="M142 204v-218h-28v218h28zM193 204v-218h-28v218h28zM91 203v-218h-28v218h28z" />
    <glyph glyph-name="uni2163" unicode="&#x2163;" 
d="M146 16l54 188h30l-70 -219h-28l-70 219h29zM52 204v-219h-26v219h26z" />
    <glyph glyph-name="uni2164" unicode="&#x2164;" 
d="M128 16l58 187h31l-74 -217h-30l-75 217h31z" />
    <glyph glyph-name="uni2165" unicode="&#x2165;" 
d="M109 16l56 188h30l-72 -219h-28l-72 219h30zM233 204v-219h-27v219h27z" />
    <glyph glyph-name="uni2166" unicode="&#x2166;" 
d="M237 204v-219h-23v219h23zM203 204v-219h-24v219h24zM95 16l48 188h26l-63 -219h-24l-63 219h26l49 -188h1z" />
    <glyph glyph-name="uni2167" unicode="&#x2167;" 
d="M86 16l48 188h26l-62 -219h-25l-63 219h26l49 -188h1zM216 204v-219h-23v219h23zM246 204v-219h-23v219h23zM187 204v-219h-24v219h24z" />
    <glyph glyph-name="uni2168" unicode="&#x2168;" 
d="M51 204v-219h-26v219h26zM163 96l68 -111h-33l-52 89l-54 -89h-31l69 111l-65 108h33l49 -85l50 85h31z" />
    <glyph glyph-name="uni2169" unicode="&#x2169;" 
d="M146 96l71 -110h-34l-55 88l-56 -88h-33l73 110l-68 107h34l52 -84l51 84h33z" />
    <glyph glyph-name="uni216A" unicode="&#x216a;" 
d="M126 96l68 -111h-32l-52 89l-54 -89h-31l69 111l-65 108h33l49 -85l49 85h31zM231 204v-219h-26v219h26z" />
    <glyph glyph-name="uni216B" unicode="&#x216b;" 
d="M239 204v-218h-24v218h24zM205 204v-219h-24v219h24zM110 96l62 -111h-29l-48 88l-50 -88h-29l64 111l-60 107h30l46 -84l45 84h28z" />
    <glyph glyph-name="uni2170" unicode="&#x2170;" 
d="M142 144v-158h-29v158h29zM142 173h-29v30h29v-30z" />
    <glyph glyph-name="uni2171" unicode="&#x2171;" 
d="M112 144v-158h-28v158h28zM112 173h-28v30h28v-30zM172 144v-158h-28v158h28zM172 173h-28v30h28v-30z" />
    <glyph glyph-name="uni2172" unicode="&#x2172;" 
d="M141 144v-158h-26v158h26zM141 173h-26v31h26v-31zM191 144v-158h-26v158h26zM191 173h-26v31h26v-31zM91 144v-159h-26v159h26zM91 173h-26v30h26v-30z" />
    <glyph glyph-name="uni2173" unicode="&#x2173;" 
d="M69 143v-158h-25v158h25zM69 172h-25v30h25v-30zM143 12l42 131h27l-56 -159h-27l-54 159h29l38 -131h1z" />
    <glyph glyph-name="uni2174" unicode="&#x2174;" 
d="M128 13l49 131h32l-67 -158h-31l-64 158h34l46 -131h1z" />
    <glyph glyph-name="uni2175" unicode="&#x2175;" 
d="M112 13l43 131h28l-58 -158h-28l-56 158h30l40 -131h1zM215 144v-158h-26v158h26zM215 173h-26v31h26v-31z" />
    <glyph glyph-name="uni2176" unicode="&#x2176;" 
d="M229 144v-158h-24v158h24zM229 173h-24v30h24v-30zM194 144v-158h-25v158h25zM194 173h-25v30h25v-30zM94 13l40 130h28l-56 -158h-26l-53 158h28l38 -130h1z" />
    <glyph glyph-name="uni2177" unicode="&#x2177;" 
d="M78 14l37 129h24l-50 -157h-24l-48 157h26l34 -129h1zM168 144v-158h-22v158h22zM168 172h-22v31h22v-31zM203 144v-158h-21v158h21zM203 172h-21v31h21v-31zM239 144v-158h-23v158h23zM239 173h-23v30h23v-30z" />
    <glyph glyph-name="uni2178" unicode="&#x2178;" 
d="M66 144v-158h-26v158h26zM66 173h-26v31h26v-31zM162 66l54 -80h-33l-38 58l-37 -58h-32l54 80l-52 78h33l36 -56l35 56h32z" />
    <glyph glyph-name="uni2179" unicode="&#x2179;" 
d="M146 66l61 -80h-37l-43 58l-42 -58h-36l60 80l-57 78h37l40 -56l40 56h36z" />
    <glyph glyph-name="arrowleft" unicode="&#x2190;" 
d="M256 94v-8h-210q20 -22 20 -46q-27 36 -66 51q38 14 66 49q-1 -27 -20 -46h210z" />
    <glyph glyph-name="arrowup" unicode="&#x2191;" 
d="M132 -36h-8v207q-24 -20 -46 -19q36 26 50 66q13 -38 50 -66q-28 1 -46 19v-207z" />
    <glyph glyph-name="arrowright" unicode="&#x2192;" 
d="M0 94h210q-18 17 -20 46q28 -35 66 -49q-39 -15 -66 -51q0 23 20 46h-210v8z" />
    <glyph glyph-name="arrowdown" unicode="&#x2193;" 
d="M132 218v-210q20 19 46 19q-36 -26 -50 -63q-14 37 -50 63q20 2 46 -19v210h8z" />
    <glyph glyph-name="element" unicode="&#x2208;" 
d="M207 24v-15h-92q-65 2 -66 78q1 77 66 78h92v-14h-94q-46 -3 -47 -56h136v-14h-136q0 -57 46 -57h95z" />
    <glyph glyph-name="product" unicode="&#x220f;" 
d="M203 161v-160q-1 -20 25 -19v-6h-79v6q26 -1 25 19v177h-92v-177q-1 -20 25 -19v-6h-79v6q26 -1 25 19v160q0 25 -24 25v6h198v-6q-24 0 -24 -25z" />
    <glyph glyph-name="summation" unicode="&#x2211;" 
d="M195 190l2 -40h-6q0 1 -1 4q-4 26 -38 25h-67l70 -92l-75 -87h95q24 -2 34 29h6q-1 -6 -4 -15q-5 -19 -7 -40q-2 0 -7 1q-8 2 -13 2h-128q-3 0 -8 -1h-7l89 100l-89 116q14 -2 27 -2h127z" />
    <glyph glyph-name="radical" unicode="&#x221a;" 
d="M124 0l128 218h4v-11l-136 -234h-6l-82 154l-29 -16l-3 9l47 26z" />
    <glyph glyph-name="proportional" unicode="&#x221d;" 
d="M47 82q3 46 42 48q27 0 41 -36q17 35 50 34q24 -1 27 -7q0 -5 -3 -5q-2 0 -7 1h-8q-33 3 -51 -41q18 -28 49 -27q4 0 10 1q4 1 6 1q6 0 6 -3q-7 -11 -29 -12q-33 0 -45 33q-16 -36 -45 -35q-41 2 -43 48zM55 80q1 -30 30 -31q22 0 38 35q2 3 3 5q-12 25 -37 25
q-32 -2 -34 -34z" />
    <glyph glyph-name="infinity" unicode="&#x221e;" 
d="M60 81q1 -29 27 -30q26 1 27 30q-1 30 -27 31q-26 -1 -27 -31zM84 137q30 0 44 -25q15 25 45 25q48 -4 51 -56q-2 -53 -53 -56q-26 0 -43 20q-17 -20 -44 -20q-50 2 -52 56q3 52 52 56zM197 81q-1 30 -28 31q-26 -1 -27 -31q1 -29 27 -30q27 1 28 30z" />
    <glyph glyph-name="angle" unicode="&#x2220;" 
d="M41 1l121 160l9 -6l-109 -144h153v-10h-174z" />
    <glyph glyph-name="uni2225" unicode="&#x2225;" 
d="M108 -30h-9l126 248h9zM31 -30h-9l126 248h9z" />
    <glyph glyph-name="logicaland" unicode="&#x2227;" 
d="M200 -6h-13l-56 184l-62 -182h-13l67 198h16z" />
    <glyph glyph-name="logicalor" unicode="&#x2228;" 
d="M69 192l59 -187l60 187h12l-64 -201h-16l-64 201h13z" />
    <glyph glyph-name="intersection" unicode="&#x2229;" 
d="M191 0v92q-1 57 -63 59q-62 -2 -63 -59v-92h-15v92q2 72 78 74q76 -2 78 -74v-92h-15z" />
    <glyph glyph-name="union" unicode="&#x222a;" 
d="M191 68v93h15v-91q-1 -72 -78 -73q-77 1 -78 73v91h15v-93q1 -57 63 -58q62 1 63 58z" />
    <glyph glyph-name="integral" unicode="&#x222b;" 
d="M122 35l3 84q3 57 26 58q8 0 8 -7q0 -5 -5 -5q-3 0 -6 4q-2 2 -3 2q-8 3 -11 -51l-3 -86q-2 -85 -27 -81q-7 0 -7 7q0 5 5 5q3 0 6 -4q1 -2 2 -2q10 -5 12 76z" />
    <glyph glyph-name="uni222E" unicode="&#x222e;" 
d="M133 89l-1 -48q20 3 21 24q-1 20 -20 24zM122 42l2 47q-19 -4 -20 -24q1 -19 18 -23zM134 120v-25q24 -5 25 -30q-2 -26 -28 -30v-1q-1 -34 -5 -54q-5 -27 -22 -27q-7 0 -7 7q0 5 5 5q3 0 6 -4q1 -2 2 -2q10 0 12 57v19q-23 6 -24 30q1 25 26 30l2 24q2 57 25 58
q8 0 8 -7q0 -5 -5 -5q-3 0 -6 4q-2 2 -3 2q-10 2 -11 -51z" />
    <glyph glyph-name="therefore" unicode="&#x2234;" 
d="M59 36q1 17 18 18q17 -1 18 -18q-1 -16 -18 -18q-17 1 -18 18zM163 36q1 17 18 18q16 -1 17 -18q-1 -17 -17 -18q-17 1 -18 18zM111 122q1 17 17 18q17 -1 18 -18q-1 -17 -18 -18q-16 1 -17 18z" />
    <glyph glyph-name="uni2235" unicode="&#x2235;" 
d="M59 118q1 17 18 18q16 -1 17 -18q-1 -17 -17 -18q-17 1 -18 18zM163 118q1 17 17 18q17 -1 18 -18q-1 -16 -18 -17q-16 1 -17 17zM110 32q1 17 18 18q17 -1 18 -18q-1 -16 -18 -17q-17 1 -18 17z" />
    <glyph glyph-name="uni2236" unicode="&#x2236;" 
d="M112 49h32v-37h-32v37zM112 150h32v-37h-32v37z" />
    <glyph glyph-name="uni2237" unicode="&#x2237;" 
d="M171 140q12 -1 13 -13q-2 -12 -13 -13q-11 1 -13 13q1 12 13 13zM171 49q11 -1 13 -12q-1 -12 -13 -13q-12 1 -13 13q2 11 13 12zM85 140q12 -1 13 -13q-2 -12 -13 -13q-11 1 -13 13q1 12 13 13zM85 49q11 -1 13 -12q-1 -12 -13 -13q-12 1 -13 13q2 11 13 12z" />
    <glyph glyph-name="uni223D" unicode="&#x223d;" 
d="M226 49h-11q-2 53 -40 55q-18 0 -43 -26q-28 -29 -50 -29q-50 0 -52 66h10q1 -54 40 -55q20 0 46 27q27 28 49 28q49 -2 51 -66z" />
    <glyph glyph-name="approxequal" unicode="&#x2248;" 
d="M212 118v-14q-22 -18 -42 -17q-16 0 -44 11q-26 10 -39 10q-20 0 -43 -19v13q23 19 42 18q16 0 44 -11q26 -10 39 -10q20 0 43 19zM212 80v-14q-22 -18 -42 -17q-16 0 -44 11q-26 9 -39 9q-20 0 -43 -19v14q22 18 42 17q16 0 44 -11q26 -10 39 -10q19 0 43 20z" />
    <glyph glyph-name="uni224C" unicode="&#x224c;" 
d="M228 12h-204v11h204v-11zM228 48h-204v11h204v-11zM226 87h-11q-2 53 -40 54q-18 0 -43 -26q-28 -28 -50 -28q-50 0 -52 65h10q1 -54 40 -55q20 0 46 27q27 28 49 28q48 -2 51 -65z" />
    <glyph glyph-name="notequal" unicode="&#x2260;" 
d="M101 57h-58v12h68l20 27h-88v12h97l45 59h13l-45 -59h60v-12h-69l-20 -27h89v-12h-99l-44 -58h-13z" />
    <glyph glyph-name="equivalence" unicode="&#x2261;" 
d="M212 111h-168v12h168v-12zM212 41h-168v12h168v-12zM212 76h-168v12h168v-12z" />
    <glyph glyph-name="lessequal" unicode="&#x2264;" 
d="M215 59v-16l-174 48v16l174 48v-15l-152 -41zM215 12v-13l-174 47v15z" />
    <glyph glyph-name="greaterequal" unicode="&#x2265;" 
d="M215 61v-15l-174 -47v13zM215 107v-16l-174 -48v16l152 40l-152 41v15z" />
    <glyph glyph-name="uni226E" unicode="&#x226e;" 
d="M113 61l23 52l-78 -30zM213 21v-12l-94 38l-21 -48h-12l23 52l-66 26v11l99 39l16 40h12l-14 -34l57 23v-12l-63 -25l-27 -62z" />
    <glyph glyph-name="uni226F" unicode="&#x226f;" 
d="M98 -1h-12l15 34l-58 -24v13l64 25l26 62l-90 36v11l95 -37l20 48h12l-22 -53l65 -26v-11l-98 -39zM143 104l-22 -52l77 31z" />
    <glyph glyph-name="uni2299" unicode="&#x2299;" 
d="M128 76q-13 2 -15 15q2 14 15 15q14 -1 15 -15q-1 -13 -15 -15zM128 9q75 7 82 82q-7 76 -82 83q-75 -7 -82 -83q7 -75 82 -82zM128 184q85 -8 93 -93q-8 -84 -93 -91q-85 7 -93 91q8 85 93 93z" />
    <glyph glyph-name="perpendicular" unicode="&#x22a5;" 
d="M52 11h70v150h12v-150h70v-10h-152v10z" />
    <glyph glyph-name="uni2312" unicode="&#x2312;" 
d="M234 58l-1 -2q-4 0 -14 11q-39 43 -88 45h-7q-49 -2 -87 -45q-10 -11 -14 -11l-1 2q36 72 105 72q73 1 107 -72z" />
    <glyph glyph-name="uni2460" unicode="&#x2460;" 
d="M128 218q114 -11 125 -125q-11 -111 -125 -122q-114 11 -125 122q11 114 125 125zM139 178v-170h-22v121h-39v17q40 -1 45 32h16zM128 212q-109 -10 -119 -119q10 -106 119 -116q109 10 119 116q-10 109 -119 119z" />
    <glyph glyph-name="uni2461" unicode="&#x2461;" 
d="M128 218q114 -11 125 -125q-11 -111 -125 -122q-114 11 -125 122q11 114 125 125zM95 118h-22q1 59 60 60q51 -3 54 -50q2 -35 -46 -57l-18 -10q-27 -15 -30 -33h94v-20h-118q1 47 40 68l23 13q34 15 32 40q-3 29 -34 30q-34 0 -35 -41zM128 212q-109 -10 -119 -119
q10 -106 119 -116q109 10 119 116q-10 109 -119 119z" />
    <glyph glyph-name="uni2462" unicode="&#x2462;" 
d="M128 218q114 -11 125 -125q-11 -111 -125 -122q-114 11 -125 122q11 114 125 125zM115 89v19q6 -1 11 -1q32 1 33 28q-2 26 -32 27q-32 0 -34 -37h-21q2 55 56 56q50 -2 53 -45q0 -26 -22 -35q29 -10 29 -40q-3 -53 -62 -55q-20 0 -32 8q-23 11 -26 49h22q1 -37 37 -37
q36 2 38 32q0 31 -40 31h-10zM128 212q-109 -10 -119 -119q10 -106 119 -116q109 10 119 116q-10 109 -119 119z" />
    <glyph glyph-name="uni2463" unicode="&#x2463;" 
d="M128 218q114 -11 125 -125q-11 -111 -125 -122q-114 11 -125 122q11 114 125 125zM189 50h-25v-42h-22v42h-75v21l79 107h18v-110h25v-18zM142 145l-55 -77h55v77zM128 212q-109 -10 -119 -119q10 -106 119 -116q109 10 119 116q-10 109 -119 119z" />
    <glyph glyph-name="uni2464" unicode="&#x2464;" 
d="M128 218q114 -11 125 -125q-11 -111 -125 -122q-114 11 -125 122q11 114 125 125zM104 158l-7 -47q13 11 33 11q54 -5 57 -54q-4 -59 -63 -60q-49 1 -55 47h22q3 -28 37 -28q34 2 36 38q-1 36 -38 38q-20 0 -32 -16l-19 1l13 91h89v-21h-73zM128 212q-109 -10 -119 -119
q10 -106 119 -116q109 10 119 116q-10 109 -119 119z" />
    <glyph glyph-name="uni2465" unicode="&#x2465;" 
d="M128 218q114 -11 125 -125q-11 -111 -125 -122q-114 11 -125 122q11 114 125 125zM183 136h-21q-5 26 -30 26q-37 -2 -41 -63l1 -1q11 21 41 21q52 -5 54 -54q0 -25 -17 -42q-14 -18 -43 -17q-28 1 -45 25q-13 21 -13 59q3 89 64 91q46 -3 50 -45zM94 63q2 -36 37 -37
q32 2 34 38q-3 35 -35 36q-34 -1 -36 -37zM128 212q-109 -10 -119 -119q10 -106 119 -116q109 10 119 116q-10 109 -119 119z" />
    <glyph glyph-name="uni2466" unicode="&#x2466;" 
d="M128 218q114 -11 125 -125q-11 -111 -125 -122q-114 11 -125 122q11 114 125 125zM68 156v20h120v-18q-56 -62 -72 -148h-23q13 75 70 146h-95zM128 212q-109 -10 -119 -119q10 -106 119 -116q109 10 119 116q-10 109 -119 119z" />
    <glyph glyph-name="uni2467" unicode="&#x2467;" 
d="M128 218q114 -11 125 -125q-11 -111 -125 -122q-114 11 -125 122q11 114 125 125zM181 137q0 -25 -22 -36q27 -11 28 -41q-4 -52 -59 -54q-23 1 -41 13q-19 15 -18 41q0 30 29 41q-22 9 -23 33q4 46 52 47q50 -2 54 -44zM128 91q-34 -1 -36 -32q2 -32 37 -33q35 0 35 32
q-1 31 -36 33zM128 109q28 2 30 27q-1 26 -32 26q-27 -1 -29 -27q2 -24 31 -26zM128 212q-109 -10 -119 -119q10 -106 119 -116q109 10 119 116q-10 109 -119 119z" />
    <glyph glyph-name="uni2468" unicode="&#x2468;" 
d="M128 218q114 -11 125 -125q-11 -111 -125 -122q-114 11 -125 122q11 114 125 125zM72 52h22q2 -27 29 -28q34 -1 41 64q-11 -19 -40 -20q-52 3 -54 55q4 55 55 58q60 -1 61 -79q-3 -94 -63 -96q-47 1 -51 46zM127 87q34 1 34 38q-1 36 -35 37q-32 -2 -34 -39
q0 -36 35 -36zM128 212q-109 -10 -119 -119q10 -106 119 -116q109 10 119 116q-10 109 -119 119z" />
    <glyph glyph-name="uni2469" unicode="&#x2469;" 
d="M128 218q114 -11 125 -125q-11 -111 -125 -122q-114 11 -125 122q11 114 125 125zM97 178v-170h-23v121h-41v17q42 -1 47 32h17zM199 94q0 68 -36 68q-37 0 -37 -68t37 -68q36 0 36 68zM223 94q-2 -87 -60 -88q-59 1 -60 88q1 86 60 87q58 -1 60 -87zM128 212
q-109 -10 -119 -119q10 -106 119 -116q109 10 119 116q-10 109 -119 119z" />
    <glyph glyph-name="uni2474" unicode="&#x2474;" 
d="M43 214h16q-22 -39 -28 -62q-7 -27 -7 -65q-2 -46 35 -112h-15q-45 61 -44 118q0 58 43 121zM212 -25h-15q38 58 35 125q2 45 -35 114h15q46 -66 44 -120q1 -59 -44 -119zM141 184v-180h-25v127h-42v18q45 -2 49 35h18z" />
    <glyph glyph-name="uni2475" unicode="&#x2475;" 
d="M43 214h16q-22 -39 -28 -62q-7 -27 -7 -65q-2 -46 35 -112h-15q-45 61 -44 118q0 58 43 121zM212 -25h-15q38 58 35 125q2 45 -35 114h15q46 -66 44 -120q1 -59 -44 -119zM93 119h-22q1 63 62 65q53 -4 56 -54q2 -37 -48 -60l-18 -11q-28 -15 -31 -34h97v-21h-123
q2 49 43 71l23 14q35 16 33 42q-2 31 -35 32q-35 0 -37 -44z" />
    <glyph glyph-name="uni2476" unicode="&#x2476;" 
d="M43 214h16q-22 -39 -28 -62q-7 -27 -7 -65q-2 -46 35 -112h-15q-45 61 -44 118q0 58 43 121zM212 -25h-15q38 58 35 125q2 45 -35 114h15q46 -66 44 -120q1 -59 -44 -119zM114 89v19h12q33 1 34 29q-2 28 -33 29q-34 0 -35 -39h-22q2 58 58 59q53 -2 56 -48
q-1 -28 -23 -37q29 -10 29 -42q-3 -57 -64 -58q-21 0 -34 8q-25 12 -26 52h23q1 -40 38 -40q37 2 39 35q0 33 -42 33h-10z" />
    <glyph glyph-name="uni2477" unicode="&#x2477;" 
d="M43 214h16q-22 -39 -28 -62q-7 -27 -7 -65q-2 -46 35 -112h-15q-45 61 -44 118q0 58 43 121zM212 -25h-15q38 58 35 125q2 45 -35 114h15q46 -66 44 -120q1 -59 -44 -119zM192 47h-27v-43h-22v43h-79v22l83 115h18v-117h27v-20zM142 148l-57 -81h58v81h-1z" />
    <glyph glyph-name="uni2478" unicode="&#x2478;" 
d="M43 214h16q-22 -39 -28 -62q-7 -27 -7 -65q-2 -46 35 -112h-15q-45 61 -44 118q0 58 43 121zM212 -25h-15q38 58 35 125q2 45 -35 114h15q46 -66 44 -120q1 -59 -44 -119zM103 162l-7 -49q13 11 35 11q55 -5 59 -58q-3 -62 -66 -63q-51 2 -58 50h24q3 -29 38 -30
q35 2 38 41q-2 38 -40 40q-20 0 -34 -17l-19 1l14 96h93v-22h-77z" />
    <glyph glyph-name="uni2479" unicode="&#x2479;" 
d="M43 214h16q-22 -39 -28 -62q-7 -27 -7 -65q-2 -46 35 -112h-15q-45 61 -44 118q0 58 43 121zM212 -25h-15q38 58 35 125q2 45 -35 114h15q46 -66 44 -120q1 -59 -44 -119zM186 138h-22q-5 28 -31 28q-39 -2 -43 -67q15 22 43 22q54 -5 56 -58q1 -27 -17 -45
q-14 -18 -45 -17q-30 1 -47 26q-13 22 -13 63q3 94 66 96q48 -3 53 -48zM93 61q2 -39 38 -40q33 2 35 41q-2 37 -36 38q-35 -1 -37 -39z" />
    <glyph glyph-name="uni247A" unicode="&#x247a;" 
d="M43 214h16q-22 -39 -28 -62q-7 -27 -7 -65q-2 -46 35 -112h-15q-45 61 -44 118q0 58 43 121zM212 -25h-15q38 58 35 125q2 45 -35 114h15q46 -66 44 -120q1 -59 -44 -119zM66 159v23h124v-20q-59 -67 -74 -157h-25q14 81 74 154h-99z" />
    <glyph glyph-name="uni247B" unicode="&#x247b;" 
d="M43 214h16q-22 -39 -28 -62q-7 -27 -7 -65q-2 -46 35 -112h-15q-45 61 -44 118q0 58 43 121zM212 -25h-15q38 58 35 125q2 45 -35 114h15q46 -66 44 -120q1 -59 -44 -119zM183 140q0 -28 -23 -38q28 -13 29 -44q-3 -55 -61 -57q-26 1 -43 14q-19 15 -18 43q0 32 30 43
q-23 10 -24 35q4 49 54 50q52 -2 56 -46zM128 90q-35 -1 -37 -33q2 -35 38 -36q36 1 36 34q-1 34 -37 35zM127 110q30 1 32 29q-2 26 -33 27q-29 -1 -30 -29q2 -25 31 -27z" />
    <glyph glyph-name="uni247C" unicode="&#x247c;" 
d="M43 214h16q-22 -39 -28 -62q-7 -27 -7 -65q-2 -46 35 -112h-15q-45 61 -44 118q0 58 43 121zM212 -25h-15q38 58 35 125q2 45 -35 114h15q46 -66 44 -120q1 -59 -44 -119zM70 49h22q2 -28 31 -29q35 -2 43 67l-1 1q-10 -21 -41 -22q-54 3 -56 58q4 59 57 62q63 0 63 -84
q-3 -99 -65 -101q-49 1 -53 48zM127 86q34 2 35 41q-1 38 -36 39q-33 -2 -35 -41q0 -39 36 -39z" />
    <glyph glyph-name="uni247D" unicode="&#x247d;" 
d="M43 214h16q-22 -39 -28 -62q-7 -27 -7 -65q-2 -46 35 -112h-15q-45 61 -44 118q0 58 43 121zM212 -25h-15q38 58 35 125q2 45 -35 114h15q46 -66 44 -120q1 -59 -44 -119zM95 184v-180h-23v127h-41v18q42 -2 47 35h17zM201 93q-1 72 -37 73q-36 -1 -36 -73q0 -71 36 -71
q36 1 37 71zM224 93q-1 -91 -60 -92q-58 1 -59 92q1 92 59 93q59 -1 60 -93z" />
    <glyph glyph-name="uni247E" unicode="&#x247e;" 
d="M43 214h16q-22 -39 -28 -62q-7 -27 -7 -65q-2 -46 35 -112h-15q-45 61 -44 118q0 58 43 121zM212 -25h-15q38 58 35 125q2 45 -35 114h15q46 -66 44 -120q1 -59 -44 -119zM108 184v-181h-24v128h-40v18q42 -1 47 35h17zM198 184v-181h-23v128h-41v18q42 -1 47 35h17z" />
    <glyph glyph-name="uni247F" unicode="&#x247f;" 
d="M43 214h16q-22 -39 -28 -62q-7 -27 -7 -65q-2 -46 35 -112h-15q-45 61 -44 118q0 58 43 121zM212 -25h-15q38 58 35 125q2 45 -35 114h15q46 -66 44 -120q1 -59 -44 -119zM94 184v-181h-22v128h-38v18q40 -2 44 35h16zM123 119h-21q1 63 57 65q49 -4 52 -54
q2 -36 -44 -61l-17 -10q-25 -14 -29 -34h90v-22h-113q2 50 39 72l21 14q33 16 31 42q-3 31 -33 32q-32 0 -33 -44z" />
    <glyph glyph-name="uni2480" unicode="&#x2480;" 
d="M43 214h16q-22 -39 -28 -62q-7 -27 -7 -65q-2 -46 35 -112h-15q-45 61 -44 118q0 58 43 121zM212 -25h-15q38 58 35 125q2 45 -35 114h15q46 -66 44 -120q1 -59 -44 -119zM98 184v-180h-23v127h-40v18q41 -2 46 35h17zM148 89v19h11q33 1 33 29q-2 28 -32 29
q-33 0 -34 -39h-21q1 58 56 59q51 -2 54 -48q-1 -29 -23 -37q29 -10 29 -42q-3 -56 -62 -58q-16 0 -32 8q-24 14 -26 52h22q1 -39 37 -39q36 2 38 34q0 33 -40 33h-10z" />
    <glyph glyph-name="uni2481" unicode="&#x2481;" 
d="M43 214h16q-22 -39 -28 -62q-7 -27 -7 -65q-2 -46 35 -112h-15q-45 61 -44 118q0 58 43 121zM212 -25h-15q38 58 35 125q2 45 -35 114h15q46 -66 44 -120q1 -59 -44 -119zM97 184v-181h-23v128h-40v18q41 -2 46 35h17zM222 47h-25v-44h-22v44h-75v22l79 115h18v-117h25
v-20zM175 148l-55 -81h55v81z" />
    <glyph glyph-name="uni2482" unicode="&#x2482;" 
d="M43 214h16q-22 -39 -28 -62q-7 -27 -7 -65q-2 -46 35 -112h-15q-45 61 -44 118q0 58 43 121zM212 -25h-15q38 58 35 125q2 45 -35 114h15q46 -66 44 -120q1 -59 -44 -119zM137 162l-7 -50q14 12 33 12q53 -5 56 -57q-4 -63 -62 -64q-49 1 -55 50h22q3 -29 36 -30
q34 2 36 41q-1 37 -38 39q-19 -1 -31 -16l-19 1l13 96h89v-22h-73zM97 183v-179h-23v127h-40v18q41 -2 46 34h17z" />
    <glyph glyph-name="uni2483" unicode="&#x2483;" 
d="M43 214h16q-22 -39 -28 -62q-7 -27 -7 -65q-2 -46 35 -112h-15q-45 61 -44 118q0 58 43 121zM212 -25h-15q38 58 35 125q2 45 -35 114h15q46 -66 44 -120q1 -59 -44 -119zM99 184v-180h-23v127h-41v18q42 -1 47 35h17zM217 138h-21q-5 28 -30 28q-37 -2 -41 -67
q15 22 41 22q53 -5 55 -57q1 -27 -17 -45q-13 -19 -44 -18q-28 1 -44 26q-14 22 -14 63q3 94 64 96q47 -3 51 -48zM128 61q2 -37 36 -39q33 2 34 41q-2 36 -35 37q-34 -1 -35 -39z" />
    <glyph glyph-name="uni2484" unicode="&#x2484;" 
d="M43 214h16q-22 -39 -28 -62q-7 -27 -7 -65q-2 -46 35 -112h-15q-45 61 -44 118q0 58 43 121zM212 -25h-15q38 58 35 125q2 45 -35 114h15q46 -66 44 -120q1 -59 -44 -119zM94 184v-181h-22v128h-39v18q40 -2 45 35h16zM104 182h107v-20q-53 -68 -67 -157h-23
q12 79 67 154h-84v23z" />
    <glyph glyph-name="uni2485" unicode="&#x2485;" 
d="M43 214h16q-22 -39 -28 -62q-7 -27 -7 -65q-2 -46 35 -112h-15q-45 61 -44 118q0 58 43 121zM212 -25h-15q38 58 35 125q2 45 -35 114h15q46 -66 44 -120q1 -59 -44 -119zM99 184v-180h-23v127h-41v18q42 -1 47 35h17zM215 140q0 -28 -23 -38q28 -12 29 -44
q-3 -55 -59 -57q-25 1 -42 14q-19 16 -18 43q0 31 30 43q-23 10 -24 35q4 48 53 50q50 -2 54 -46zM162 91q-34 -1 -36 -34q2 -34 37 -35q34 0 34 34q-1 33 -35 35zM161 110q29 1 31 29q-2 26 -32 27q-28 0 -29 -29q2 -25 30 -27z" />
    <glyph glyph-name="uni2486" unicode="&#x2486;" 
d="M43 214h16q-22 -39 -28 -62q-7 -27 -7 -65q-2 -46 35 -112h-15q-45 61 -44 118q0 58 43 121zM212 -25h-15q38 58 35 125q2 45 -35 114h15q46 -66 44 -120q1 -59 -44 -119zM106 49h22q4 -29 30 -29q34 -1 41 67v1q-12 -21 -40 -22q-51 3 -54 58q3 59 55 62q61 0 61 -84
q-3 -99 -63 -101q-47 2 -52 48zM162 87q34 1 34 40q-2 38 -35 39q-32 -2 -34 -41q0 -38 35 -38zM99 183v-179h-23v127h-41v18q42 -1 47 34h17z" />
    <glyph glyph-name="uni2487" unicode="&#x2487;" 
d="M43 214h16q-22 -39 -28 -62q-7 -27 -7 -65q-2 -46 35 -112h-15q-45 61 -44 118q0 58 43 121zM212 -25h-15q38 58 35 125q2 45 -35 114h15q46 -66 44 -120q1 -59 -44 -119zM67 119h-16q0 64 44 65q39 -3 41 -54q1 -37 -34 -60l-14 -10q-21 -17 -22 -35h70v-21h-89
q1 49 31 71l17 14q26 16 24 42q-2 31 -26 32q-25 0 -26 -44zM210 93q-1 72 -27 73q-28 -1 -28 -73q0 -70 28 -71q27 1 27 71zM227 93q-1 -91 -44 -92q-44 1 -45 92q1 92 45 93q43 -1 44 -93z" />
    <glyph glyph-name="uni2488" unicode="&#x2488;" 
d="M118 184v-180h-24v127h-42v18q43 -2 48 35h18zM204 26v-22h-21v22h21z" />
    <glyph glyph-name="uni2489" unicode="&#x2489;" 
d="M65 119h-23q1 63 62 65q54 -3 57 -54q2 -37 -48 -60l-19 -11q-28 -15 -31 -34h98v-21h-123q1 48 42 71l24 14q35 16 33 42q-3 31 -36 32q-35 0 -36 -44zM219 26v-22h-22v22h22z" />
    <glyph glyph-name="uni248A" unicode="&#x248a;" 
d="M86 89v19h12q33 1 34 29q-2 28 -33 29q-30 0 -36 -37v-2h-22q2 58 59 59q52 -2 55 -48q-1 -29 -23 -37q30 -10 30 -42q-3 -56 -65 -58q-19 0 -33 8q-24 11 -27 52h23q1 -40 39 -40q37 2 39 35q0 33 -42 33h-10zM219 26v-22h-22v22h22z" />
    <glyph glyph-name="uni248B" unicode="&#x248b;" 
d="M164 47h-26v-43h-23v43h-78v22l82 115h19v-117h26v-20zM115 148l-58 -81h58v81zM220 26v-22h-22v22h22z" />
    <glyph glyph-name="uni248C" unicode="&#x248c;" 
d="M75 162l-8 -49q15 11 35 11q55 -5 59 -58q-4 -62 -65 -63q-52 1 -58 50h23q3 -29 38 -30q35 2 38 41q-2 38 -40 40q-20 0 -33 -17l-20 1l14 96h93v-22h-76zM219 26v-22h-22v22h22z" />
    <glyph glyph-name="uni248D" unicode="&#x248d;" 
d="M157 138h-22q-5 28 -31 28q-39 -2 -43 -67q15 22 43 22q55 -6 57 -58q1 -26 -18 -45q-14 -18 -45 -17q-30 1 -47 26q-13 22 -13 63q3 94 66 96q48 -3 53 -48zM64 61q3 -38 38 -40q33 2 35 41q-2 37 -36 38q-35 -1 -37 -39zM218 26v-22h-21v22h21z" />
    <glyph glyph-name="uni248E" unicode="&#x248e;" 
d="M37 159v23h125v-20q-59 -67 -74 -157h-25q12 78 73 154h-99zM219 26v-22h-22v22h22z" />
    <glyph glyph-name="uni248F" unicode="&#x248f;" 
d="M154 140q0 -28 -23 -38q28 -13 29 -44q-3 -55 -61 -57q-26 1 -43 14q-19 15 -18 43q0 32 30 43q-23 10 -24 35q4 49 54 50q52 -2 56 -46zM99 90q-35 -1 -37 -33q2 -35 38 -36q36 1 36 34q-1 34 -37 35zM99 110q30 2 32 29q-2 26 -34 27q-29 -1 -30 -29q2 -25 32 -27z
M218 26v-22h-21v22h21z" />
    <glyph glyph-name="uni2490" unicode="&#x2490;" 
d="M40 49h23q2 -28 30 -29q37 -2 43 67v1q-12 -20 -41 -22q-55 3 -57 58q4 59 58 62q63 -1 63 -84q-3 -99 -65 -101q-50 1 -54 48zM98 86q34 2 35 41q-1 38 -37 39q-33 -2 -35 -41q0 -39 37 -39zM218 26v-22h-22v22h22z" />
    <glyph glyph-name="uni2491" unicode="&#x2491;" 
d="M79 183v-179h-23v127h-41v18q42 -2 47 34h17zM195 93q-1 72 -37 73q-36 -1 -36 -73q0 -71 36 -71q36 1 37 71zM218 93q-2 -91 -60 -92q-58 1 -59 92q1 92 59 93q58 -1 60 -93zM241 26v-22h-21v22h21z" />
    <glyph glyph-name="uni2492" unicode="&#x2492;" 
d="M86 184v-181h-23v128h-41v18q42 -1 47 35h17zM186 184v-181h-23v128h-40v18q41 -2 46 35h17zM234 26v-22h-22v22h22z" />
    <glyph glyph-name="uni2493" unicode="&#x2493;" 
d="M77 184v-181h-22v128h-39v18q40 -2 45 35h16zM115 119h-20q1 64 57 65q48 -4 51 -54q2 -37 -44 -61l-17 -10q-24 -14 -28 -34h89v-22h-112q1 49 38 72l22 14q1 1 3 2q29 15 27 40q-2 31 -32 32q-33 0 -34 -44zM240 26v-22h-22v22h22z" />
    <glyph glyph-name="uni2494" unicode="&#x2494;" 
d="M80 183v-179h-23v127h-40v18q41 -2 46 34h17zM140 89v19h11q33 1 33 29q-2 28 -32 29q-33 0 -34 -39h-21q2 58 56 59q51 -2 54 -48q-1 -29 -23 -37q29 -10 29 -42q-3 -56 -62 -58q-16 0 -32 8q-24 14 -26 52h22q1 -39 37 -39q36 2 38 34q0 33 -40 33h-10zM239 26v-22h-21
v22h21z" />
    <glyph glyph-name="uni2495" unicode="&#x2495;" 
d="M80 184v-181h-23v128h-41v18q42 -1 47 35h17zM215 47h-26v-44h-21v44h-76v22l80 115h17v-117h26v-20zM167 148l-55 -81h56v81h-1zM240 26v-22h-22v22h22z" />
    <glyph glyph-name="uni2496" unicode="&#x2496;" 
d="M130 162l-8 -50q16 12 33 12q53 -5 57 -57q-4 -63 -62 -64q-50 1 -56 50h22q4 -30 37 -30q34 2 36 41q-1 37 -38 39q-20 0 -32 -16l-18 1l13 96h88v-22h-72zM79 183v-179h-23v127h-40v18q42 -1 46 34h17zM240 26v-22h-22v22h22z" />
    <glyph glyph-name="uni2497" unicode="&#x2497;" 
d="M80 183v-179h-23v127h-40v18q41 -2 46 34h17zM209 138h-21q-5 28 -30 28q-37 -2 -41 -67q15 22 41 22q53 -5 55 -57q1 -27 -17 -45q-13 -19 -44 -18q-28 1 -44 26q-14 22 -14 63q3 94 64 96q47 -3 51 -48zM120 61q2 -37 36 -39q33 2 34 41q-2 36 -35 37q-34 -1 -35 -39z
M239 26v-22h-21v22h21z" />
    <glyph glyph-name="uni2498" unicode="&#x2498;" 
d="M78 184v-181h-23v128h-39v18q40 -2 45 35h17zM91 159v23h114v-20q-54 -68 -68 -157h-22q11 79 67 154h-91zM241 26v-22h-22v22h22z" />
    <glyph glyph-name="uni2499" unicode="&#x2499;" 
d="M80 183v-179h-23v127h-40v18q41 -2 46 34h17zM207 140q0 -27 -22 -38q27 -12 28 -44q-3 -55 -59 -57q-25 1 -41 14q-19 16 -18 43q0 32 29 43q-22 10 -23 35q4 49 52 50q50 -2 54 -46zM154 91q-34 -1 -36 -34q2 -34 37 -35q35 0 35 34q-1 34 -36 35zM154 110q28 2 30 29
q-2 26 -32 27q-28 -1 -29 -29q2 -25 31 -27zM240 26v-22h-22v22h22z" />
    <glyph glyph-name="uni249A" unicode="&#x249a;" 
d="M99 49h21q4 -29 30 -29q34 -1 41 67v1q-12 -21 -40 -22q-51 3 -54 58q3 59 55 62q61 0 61 -84q-3 -99 -63 -101q-47 1 -51 48zM154 87q34 1 34 40q-2 38 -35 39q-32 -2 -34 -41q0 -38 35 -38zM80 183v-179h-23v127h-40v18q41 -2 46 34h17zM239 26v-22h-21v22h21z" />
    <glyph glyph-name="uni249B" unicode="&#x249b;" 
d="M31 119h-20q1 62 56 64q49 -3 52 -53q2 -38 -44 -60l-17 -11q-26 -16 -28 -34h89v-21h-113q2 49 39 71l21 14q33 16 31 42q-3 31 -33 32q-31 0 -33 -44zM214 93q0 72 -35 73q-33 -1 -34 -73q0 -70 34 -71q35 1 35 71zM236 93q-2 -91 -57 -92q-54 1 -56 92q1 92 56 93
q56 -1 57 -93zM250 26v-22h-22v22h22z" />
    <glyph glyph-name="SF100000" unicode="&#x2500;" 
d="M0 96h256v-13h-256v13z" />
    <glyph glyph-name="uni2501" unicode="&#x2501;" 
d="M0 104h256v-29h-256v29z" />
    <glyph glyph-name="SF110000" unicode="&#x2502;" 
d="M121 218v-254h13v254h-13z" />
    <glyph glyph-name="uni2503" unicode="&#x2503;" 
d="M112 218v-254h29v254h-29z" />
    <glyph glyph-name="uni2504" unicode="&#x2504;" 
d="M14 96h56v-13h-56v13zM100 96h56v-13h-56v13zM186 96h56v-13h-56v13z" />
    <glyph glyph-name="uni2505" unicode="&#x2505;" 
d="M14 104h56v-29h-56v29zM100 104h56v-29h-56v29zM186 104h56v-29h-56v29z" />
    <glyph glyph-name="uni2506" unicode="&#x2506;" 
d="M120 204h13v-57h-13v57zM133 118v-57h-13v57h13zM133 32v-55h-13v55h13z" />
    <glyph glyph-name="uni2507" unicode="&#x2507;" 
d="M141 204v-57h-29v57h29zM141 118v-57h-29v57h29zM141 32v-55h-29v55h29z" />
    <glyph glyph-name="uni2508" unicode="&#x2508;" 
d="M12 96h40v-13h-40v13zM76 96h40v-13h-40v13zM140 96h40v-13h-40v13zM204 96h40v-13h-40v13z" />
    <glyph glyph-name="uni2509" unicode="&#x2509;" 
d="M12 104h40v-29h-40v29zM76 104h40v-29h-40v29zM140 104h40v-29h-40v29zM204 104h40v-29h-40v29z" />
    <glyph glyph-name="uni250A" unicode="&#x250a;" 
d="M133 206v-40h-13v40h13zM133 142v-40h-13v40h13zM133 78v-40h-13v40h13zM133 14v-38h-13v38h13z" />
    <glyph glyph-name="uni250B" unicode="&#x250b;" 
d="M141 206v-40h-29v40h29zM141 142v-40h-29v40h29zM141 78v-40h-29v40h29zM141 14v-38h-29v38h29z" />
    <glyph glyph-name="SF010000" unicode="&#x250c;" 
d="M256 96v-13h-122v-119h-13v132h135z" />
    <glyph glyph-name="uni250D" unicode="&#x250d;" 
d="M256 104v-29h-122v-111h-13v140h135z" />
    <glyph glyph-name="uni250E" unicode="&#x250e;" 
d="M256 96v-13h-114v-119h-29v132h143z" />
    <glyph glyph-name="uni250F" unicode="&#x250f;" 
d="M256 104v-29h-114v-111h-29v140h143z" />
    <glyph glyph-name="SF030000" unicode="&#x2510;" 
d="M0 83v13h134v-132h-13v119h-121z" />
    <glyph glyph-name="uni2511" unicode="&#x2511;" 
d="M0 104h134v-140h-13v111h-121v29z" />
    <glyph glyph-name="uni2512" unicode="&#x2512;" 
d="M0 96h142v-132h-29v119h-113v13z" />
    <glyph glyph-name="uni2513" unicode="&#x2513;" 
d="M0 104h142v-140h-29v111h-113v29z" />
    <glyph glyph-name="SF020000" unicode="&#x2514;" 
d="M134 218v-122h122v-13h-135v135h13z" />
    <glyph glyph-name="uni2515" unicode="&#x2515;" 
d="M134 218v-114h122v-29h-135v143h13z" />
    <glyph glyph-name="uni2516" unicode="&#x2516;" 
d="M142 218v-122h114v-13h-143v135h29z" />
    <glyph glyph-name="uni2517" unicode="&#x2517;" 
d="M142 218v-114h114v-29h-143v143h29z" />
    <glyph glyph-name="SF040000" unicode="&#x2518;" 
d="M0 96h121v122h13v-135h-134v13z" />
    <glyph glyph-name="uni2519" unicode="&#x2519;" 
d="M0 104h121v114h13v-143h-134v29z" />
    <glyph glyph-name="uni251A" unicode="&#x251a;" 
d="M0 96h113v122h29v-135h-142v13z" />
    <glyph glyph-name="uni251B" unicode="&#x251b;" 
d="M0 104h113v114h29v-143h-142v29z" />
    <glyph glyph-name="SF080000" unicode="&#x251c;" 
d="M134 218v-122h122v-13h-122v-119h-13v254h13z" />
    <glyph glyph-name="uni251D" unicode="&#x251d;" 
d="M134 218v-114h122v-29h-122v-111h-13v254h13z" />
    <glyph glyph-name="uni251E" unicode="&#x251e;" 
d="M142 218v-122h114v-13h-122v-119h-13v127h-8v127h29z" />
    <glyph glyph-name="uni251F" unicode="&#x251f;" 
d="M134 218v-122h122v-13h-114v-119h-29v124h8v130h13z" />
    <glyph glyph-name="uni2520" unicode="&#x2520;" 
d="M142 218v-122h114v-13h-114v-119h-29v254h29z" />
    <glyph glyph-name="uni2521" unicode="&#x2521;" 
d="M142 218v-114h114v-29h-122v-111h-13v111h-8v143h29z" />
    <glyph glyph-name="uni2522" unicode="&#x2522;" 
d="M134 218v-114h122v-29h-114v-111h-29v140h8v114h13z" />
    <glyph glyph-name="uni2523" unicode="&#x2523;" 
d="M142 218v-114h114v-29h-114v-111h-29v254h29z" />
    <glyph glyph-name="SF090000" unicode="&#x2524;" 
d="M134 218v-254h-13v119h-121v13h121v122h13z" />
    <glyph glyph-name="uni2525" unicode="&#x2525;" 
d="M134 218v-254h-13v111h-121v29h121v114h13z" />
    <glyph glyph-name="uni2526" unicode="&#x2526;" 
d="M142 218v-127h-8v-127h-13v119h-121v13h113v122h29z" />
    <glyph glyph-name="uni2527" unicode="&#x2527;" 
d="M134 218v-130h8v-124h-29v119h-113v13h121v122h13z" />
    <glyph glyph-name="uni2528" unicode="&#x2528;" 
d="M142 218v-254h-29v119h-113v13h113v122h29z" />
    <glyph glyph-name="uni2529" unicode="&#x2529;" 
d="M142 218v-143h-8v-111h-13v111h-121v29h113v114h29z" />
    <glyph glyph-name="uni252A" unicode="&#x252a;" 
d="M134 218v-114h8v-140h-29v111h-113v29h121v114h13z" />
    <glyph glyph-name="uni252B" unicode="&#x252b;" 
d="M142 218v-254h-29v111h-113v29h113v114h29z" />
    <glyph glyph-name="SF060000" unicode="&#x252c;" 
d="M0 96h256v-13h-122v-119h-13v119h-121v13z" />
    <glyph glyph-name="uni252D" unicode="&#x252d;" 
d="M0 104h134v-8h122v-13h-122v-120h-13v112h-121v29z" />
    <glyph glyph-name="uni252E" unicode="&#x252e;" 
d="M0 96h121v8h135v-29h-122v-111h-13v119h-121v13z" />
    <glyph glyph-name="uni252F" unicode="&#x252f;" 
d="M0 104h256v-29h-122v-111h-13v111h-121v29z" />
    <glyph glyph-name="uni2530" unicode="&#x2530;" 
d="M0 96h256v-13h-114v-119h-29v119h-113v13z" />
    <glyph glyph-name="uni2531" unicode="&#x2531;" 
d="M0 104h142v-8h114v-13h-114v-119h-29v111h-113v29z" />
    <glyph glyph-name="uni2532" unicode="&#x2532;" 
d="M0 96h113v8h143v-29h-114v-111h-29v119h-113v13z" />
    <glyph glyph-name="uni2533" unicode="&#x2533;" 
d="M0 104h256v-29h-114v-111h-29v111h-113v29z" />
    <glyph glyph-name="SF070000" unicode="&#x2534;" 
d="M0 96h121v122h13v-122h122v-13h-256v13z" />
    <glyph glyph-name="uni2535" unicode="&#x2535;" 
d="M134 218v-122h122v-13h-122v-8h-134v29h121v114h13z" />
    <glyph glyph-name="uni2536" unicode="&#x2536;" 
d="M134 218v-114h122v-29h-135v8h-121v13h121v122h13z" />
    <glyph glyph-name="uni2537" unicode="&#x2537;" 
d="M134 218v-114h122v-29h-256v29h121v114h13z" />
    <glyph glyph-name="uni2538" unicode="&#x2538;" 
d="M142 218v-122h114v-13h-256v13h113v122h29z" />
    <glyph glyph-name="uni2539" unicode="&#x2539;" 
d="M142 218v-122h114v-13h-114v-8h-142v29h113v114h29z" />
    <glyph glyph-name="uni253A" unicode="&#x253a;" 
d="M142 218v-114h114v-29h-143v8h-113v13h113v122h29z" />
    <glyph glyph-name="uni253B" unicode="&#x253b;" 
d="M142 218v-114h114v-29h-256v29h113v114h29z" />
    <glyph glyph-name="SF050000" unicode="&#x253c;" 
d="M134 218v-122h122v-13h-122v-119h-13v119h-121v13h121v122h13z" />
    <glyph glyph-name="uni253D" unicode="&#x253d;" 
d="M134 218v-122h122v-13h-122v-119h-13v111h-121v29h121v114h13z" />
    <glyph glyph-name="uni253E" unicode="&#x253e;" 
d="M134 218v-114h122v-29h-122v-111h-13v119h-121v13h121v122h13z" />
    <glyph glyph-name="uni253F" unicode="&#x253f;" 
d="M134 218v-114h122v-29h-122v-111h-13v111h-121v29h121v114h13z" />
    <glyph glyph-name="uni2540" unicode="&#x2540;" 
d="M142 218v-122h114v-13h-122v-119h-13v119h-121v13h113v122h29z" />
    <glyph glyph-name="uni2541" unicode="&#x2541;" 
d="M134 218v-122h122v-13h-114v-119h-29v119h-113v13h121v122h13z" />
    <glyph glyph-name="uni2542" unicode="&#x2542;" 
d="M142 218v-122h114v-13h-114v-119h-29v119h-113v13h113v122h29z" />
    <glyph glyph-name="uni2543" unicode="&#x2543;" 
d="M142 218v-122h114v-13h-122v-119h-13v111h-121v29h113v114h29z" />
    <glyph glyph-name="uni2544" unicode="&#x2544;" 
d="M142 218v-114h114v-29h-122v-111h-13v119h-121v13h113v122h29z" />
    <glyph glyph-name="uni2545" unicode="&#x2545;" 
d="M134 218v-122h122v-13h-114v-119h-29v111h-113v29h121v114h13z" />
    <glyph glyph-name="uni2546" unicode="&#x2546;" 
d="M134 218v-114h122v-29h-114v-111h-29v119h-113v13h121v122h13z" />
    <glyph glyph-name="uni2547" unicode="&#x2547;" 
d="M142 218v-114h114v-29h-122v-111h-13v111h-121v29h113v114h29z" />
    <glyph glyph-name="uni2548" unicode="&#x2548;" 
d="M134 218v-114h122v-29h-114v-111h-29v111h-113v29h121v114h13z" />
    <glyph glyph-name="uni2549" unicode="&#x2549;" 
d="M142 218v-122h114v-13h-114v-119h-29v111h-113v29h113v114h29z" />
    <glyph glyph-name="uni254A" unicode="&#x254a;" 
d="M142 218v-114h114v-29h-114v-111h-29v119h-113v13h113v122h29z" />
    <glyph glyph-name="uni254B" unicode="&#x254b;" 
d="M142 218v-114h114v-29h-114v-111h-29v111h-113v29h113v114h29z" />
    <glyph glyph-name="filledbox" unicode="&#x25a0;" 
d="M230 -14h-204v202h204v-202z" />
    <glyph glyph-name="H22073" unicode="&#x25a1;" 
d="M230 -14h-204v202h204v-202zM37 177v-180h182v180h-182z" />
    <glyph glyph-name="triagup" unicode="&#x25b2;" 
d="M221 0h-186l93 188z" />
    <glyph glyph-name="uni25B3" unicode="&#x25b3;" 
d="M128 164l-76 -153h152zM221 0h-186l93 188z" />
    <glyph glyph-name="uni25C6" unicode="&#x25c6;" 
d="M128 0l-96 94l96 96l96 -96z" />
    <glyph glyph-name="uni25C7" unicode="&#x25c7;" 
d="M128 13l81 81l-81 81l-81 -81zM128 0l-96 94l96 96l96 -96z" />
    <glyph glyph-name="circle" unicode="&#x25cb;" 
d="M128 9q75 7 82 82q-7 76 -82 83q-75 -7 -82 -83q7 -75 82 -82zM128 184q85 -8 93 -93q-8 -84 -93 -91q-85 7 -93 91q8 85 93 93z" />
    <glyph glyph-name="uni25CE" unicode="&#x25ce;" 
d="M128 184q85 -8 93 -93q-8 -84 -93 -91q-85 7 -93 91q8 85 93 93zM128 178q-79 -7 -87 -87q8 -78 87 -86q79 8 87 86q-7 80 -87 87zM128 156q59 -6 65 -64q-5 -59 -65 -65q-59 6 -65 65q6 58 65 64zM128 149q-53 -5 -58 -57q5 -53 58 -58q53 5 58 58q-5 52 -58 57z" />
    <glyph glyph-name="H18533" unicode="&#x25cf;" 
d="M128 184q85 -8 93 -93q-8 -84 -93 -91q-85 7 -93 91q8 85 93 93z" />
    <glyph glyph-name="uni2605" unicode="&#x2605;" 
d="M128 179l24 -70h71l-58 -44l21 -67l-58 39l-58 -39l21 67l-58 44h71z" />
    <glyph glyph-name="uni2606" unicode="&#x2606;" 
d="M83 12l45 34l45 -33l1 1l-18 54l46 34h-57l-17 55h-1l-17 -55h-56l45 -34l-17 -55zM128 179l24 -70h71l-58 -44l21 -67l-58 40l-58 -40l20 67l-57 44h71z" />
    <glyph glyph-name="female" unicode="&#x2640;" 
d="M83 129q3 -42 45 -45q42 3 45 45q-3 42 -45 45q-42 -3 -45 -45zM84 19v12h38v42q-47 9 -51 56q5 52 57 57q52 -5 57 -57q-4 -47 -51 -56v-42h38v-12h-38v-29h-12v29h-38z" />
    <glyph glyph-name="male" unicode="&#x2642;" 
d="M83 46q4 -42 45 -46q41 4 45 46q-4 41 -45 45q-41 -4 -45 -45zM84 137l-3 5q33 23 45 43h5q9 -16 39 -38q3 -3 5 -4l-2 -6q-22 9 -39 26v-61q47 -9 51 -56q-4 -50 -57 -55q-53 5 -57 55q4 47 51 56v60q-17 -15 -38 -25z" />
    <glyph glyph-name="uni3000" unicode="&#x3000;" 
 />
    <glyph glyph-name="uni3001" unicode="&#x3001;" 
d="M27 31l19 16q32 -23 56 -52l-19 -21q-24 32 -56 57z" />
    <glyph glyph-name="uni3002" unicode="&#x3002;" 
d="M64 44q-28 -2 -30 -30q3 -28 30 -30q28 3 31 30q-2 27 -31 30zM64 55q39 -4 42 -41q-3 -36 -42 -40q-38 3 -41 40q3 38 41 41z" />
    <glyph glyph-name="uni3003" unicode="&#x3003;" 
d="M130 132l-45 -87h-4l28 84q3 10 11 12q10 0 10 -9zM175 132l-45 -87h-4l28 84q2 10 11 12q11 0 10 -9z" />
    <glyph glyph-name="uni3005" unicode="&#x3005;" 
d="M109 189l24 -12q1 0 1 -4q0 -3 -6 -5q-2 -1 -3 -2q-7 -15 -17 -28h60q3 0 8 3t7 3q17 -11 21 -22q-1 -7 -6 -7h-6q-2 0 -5 -4q-1 -1 -1 -2q-23 -33 -50 -63q38 -30 10 -41q-7 0 -22 26q-4 7 -6 10q-13 18 -27 29l1 2q20 -7 35 -19q31 35 52 74q-1 1 -2 1h-75
q-25 -29 -47 -38q-4 1 -3 4q28 23 44 50q14 25 7 39q1 8 6 6z" />
    <glyph glyph-name="uni3008" unicode="&#x3008;" 
d="M183 214l13 -7l-59 -117l59 -116l-13 -7l-64 123z" />
    <glyph glyph-name="uni3009" unicode="&#x3009;" 
d="M73 214l64 -124l-64 -123l-13 7l59 116l-59 117z" />
    <glyph glyph-name="uni300A" unicode="&#x300a;" 
d="M165 213l13 -7l-59 -116l59 -115l-13 -7l-64 122zM201 213l13 -7l-59 -116l59 -115l-13 -7l-64 122z" />
    <glyph glyph-name="uni300B" unicode="&#x300b;" 
d="M91 213l64 -123l-64 -122l-13 7l59 115l-59 116zM55 213l64 -123l-64 -122l-13 7l59 115l-59 116z" />
    <glyph glyph-name="uni300C" unicode="&#x300c;" 
d="M206 192h-70v-219h-16v235h86v-16z" />
    <glyph glyph-name="uni300D" unicode="&#x300d;" 
d="M50 -11h70v219h16v-235h-86v16z" />
    <glyph glyph-name="uni300E" unicode="&#x300e;" 
d="M188 206v-30h-45v-201h-29v231h74zM182 182v18h-62v-220h17v202h45z" />
    <glyph glyph-name="uni300F" unicode="&#x300f;" 
d="M69 -25v28h45v203h29v-231h-74zM75 -1v-18h62v220h-17v-202h-45z" />
    <glyph glyph-name="uni3010" unicode="&#x3010;" 
d="M116 -34v249h60q-31 -54 -36 -120v-9q1 -66 40 -120h-64z" />
    <glyph glyph-name="uni3011" unicode="&#x3011;" 
d="M140 -34h-64q39 54 40 120v9q-5 66 -36 120h60v-249z" />
    <glyph glyph-name="uni3013" unicode="&#x3013;" 
d="M55 157h146v-40h-146v40zM55 74h146v-40h-146v40z" />
    <glyph glyph-name="uni3014" unicode="&#x3014;" 
d="M179 212l6 -13l-50 -24v-171l50 -22l-6 -13l-58 29v185z" />
    <glyph glyph-name="uni3015" unicode="&#x3015;" 
d="M77 212l58 -29v-185l-58 -29l-6 13l50 22v171l-50 24z" />
    <glyph glyph-name="uni3016" unicode="&#x3016;" 
d="M116 -34v249h59q-32 -64 -35 -122q1 -73 40 -127h-64zM121 211v-240h50q-35 47 -36 122q0 48 31 118h-45z" />
    <glyph glyph-name="uni3017" unicode="&#x3017;" 
d="M140 -34h-64q39 52 40 127q-3 58 -35 122h59v-249zM135 211h-45q31 -66 31 -118q-1 -74 -35 -122h49v240z" />
    <glyph glyph-name="uni3041" unicode="&#x3041;" 
d="M126 29l-19 -6q-2 3 -2 5q-3 0 -4 -2q-32 -22 -50 -7q-8 5 -8 20v4q0 11 10 29q9 14 23 25q10 8 23 13v1q0 5 2 15q1 5 1 7h-25h-18l-2 19q10 -1 22 -1h14h12v1q0 2 1 6q1 5 1 8v4q-2 6 -1 13h5q3 0 11 -1t12 -1q-7 -14 -10 -28q23 3 45 9l2 -19q-25 -6 -51 -8
q-1 -9 -3 -18q11 2 23 2h3q1 2 1 5q1 4 1 6h2l22 -4q-1 -4 -3 -9q16 -3 28 -11q19 -14 20 -39v-5q0 -23 -16 -39q-13 -14 -35 -21q-2 -1 -2 0l-14 13v3q15 3 29 13q17 13 17 30v5q-1 26 -33 35q-13 -33 -39 -58q2 -8 5 -14zM115 94v-9q0 -10 1 -20q1 0 1 1l1 1q12 14 21 36
h-1q-16 -2 -23 -5v-4zM97 78v11v2q-22 -12 -29 -27q-12 -21 -2 -28q6 -5 18 1q8 3 16 11q-3 15 -3 30z" />
    <glyph glyph-name="uni3042" unicode="&#x3042;" 
d="M56 157h15q5 0 17 1h8q0 4 1 13q1 12 1 18q0 4 -1 10h5q5 0 14 -1q8 -1 12 -1q1 -4 -2 -10q-2 -3 -2 -5q0 -3 -2 -10q-1 -8 -2 -11q5 0 11 2q27 4 45 10v-24q-27 -8 -55 -11h-2q-2 -1 -3 -1v-3q-1 -13 -1 -21q11 4 30 6q0 1 1 4v4t1 3q0 2 1 3l24 -4l1 -2l-3 -9
q24 -2 39 -15q22 -22 23 -49v-7q-1 -37 -39 -61q-15 -10 -24 -10h-1q-1 1 -3 4q-11 11 -19 15q28 5 43 17q18 16 19 37v4q-1 23 -21 38q-2 1 -7 3q-4 1 -6 2q-6 2 -11 2q-14 -39 -43 -73q4 -12 7 -18q-5 -1 -14 -6q-5 -1 -7 -2q-3 2 -5 7q-7 -5 -11 -7q-21 -15 -37 -15h-4
q-22 2 -25 35v4q1 29 29 59q14 12 37 24q2 20 3 28h-15q-12 -1 -18 -1h-15q-1 0 -3 1q-1 2 -4 10q-1 3 -2 4v1q-3 6 -1 9q11 -1 21 -1zM94 29v3q-4 22 -4 50q-21 -12 -37 -38q-6 -12 -6 -20q1 -13 13 -14q15 0 25 11q1 1 5 4zM114 93v-24q0 -5 1 -18q18 23 26 48
q-16 -3 -24 -5q-1 -1 -3 -1z" />
    <glyph glyph-name="uni3043" unicode="&#x3043;" 
d="M40 154l24 -5q0 -5 -2 -8v-6q0 -37 13 -66l1 -1q6 -16 12 -20q2 -1 5 -1q4 0 10 5l3 3q6 6 12 14h2l11 -19v-3q-11 -11 -16 -15q-13 -11 -23 -11q-18 0 -32 31q-12 22 -18 73q-1 9 -2 14q-2 8 -2 15h2zM219 77l-21 -8q-15 36 -38 69l17 8h2q28 -38 40 -69z" />
    <glyph glyph-name="uni3044" unicode="&#x3044;" 
d="M18 167l1 1q1 0 4 -1q13 -2 30 -6q-3 -9 -5 -18q-1 -6 -1 -12v-7q0 -20 5 -42q4 -21 13 -39q7 -17 18 -17q8 1 14 7q9 9 17 20h2l12 -19v-2q-5 -12 -14 -19q-16 -15 -33 -15q-23 0 -38 32q-7 16 -11 34q-7 27 -10 55q-2 9 -2 20q-2 13 -2 28zM167 141l23 8h2
q23 -31 39 -66q1 -1 2 -4q5 -12 6 -18l-24 -11h-3q-12 40 -46 89z" />
    <glyph glyph-name="uni3045" unicode="&#x3045;" 
d="M173 175l-5 -21q-27 5 -51 14h-1q-6 2 -7 5l8 18q27 -12 56 -16zM184 91v-5q-1 -53 -51 -88l-16 15q31 18 42 48q2 7 4 23v2q0 10 -5 19q-10 13 -28 8q-11 -4 -20 -9q-7 -4 -13 -7q-3 -2 -7 -2l-17 23q0 1 2 1h5q7 0 21 5l9 3t8 2q18 6 28 6h4q15 -1 24 -12
q10 -15 10 -32z" />
    <glyph glyph-name="uni3046" unicode="&#x3046;" 
d="M102 183l9 24h1q42 -17 70 -21l1 -1q-1 -3 -2 -7q-3 -12 -3 -19l-2 -1q-6 0 -19 4q-1 1 -2 1q-27 8 -52 18zM60 119h6q9 0 27 5q-2 0 2 1q12 3 25 7q20 6 32 6h4q20 -1 33 -19q9 -15 9 -33v-9q-1 -61 -56 -108q-1 0 -2 -1q-2 -2 -3 -2h-1q-10 9 -21 16v2q54 39 56 98v5
q-2 26 -22 27h-4q-8 0 -22 -6q-5 -1 -7 -2q-15 -6 -28 -15l-2 -2q-4 -3 -6 -2l-21 30z" />
    <glyph glyph-name="uni3047" unicode="&#x3047;" 
d="M167 165l-11 -19q-27 9 -51 22v2l11 16q30 -15 51 -21zM145 133l19 -11v-3q-13 -8 -31 -32q-4 -5 -6 -8h7q8 1 14 -5q4 -6 5 -12q0 -2 1 -7q1 -14 3 -20q4 -11 17 -12h5q15 0 30 6v-24q-16 -3 -31 -3h-11q-15 0 -22 8t-8 18q-1 4 -2 12t-2 12q-3 8 -10 9h-4h-1
q-1 -1 -2 -1q-9 -4 -19 -17q-6 -6 -16 -20q-4 -5 -6 -8l-2 -2q-2 -4 -6 -8l-19 15q43 42 76 91q-6 -2 -20 -4q-16 -3 -24 -6q-1 0 -3 -2q-2 -1 -4 -1l-10 24q9 1 28 2q35 2 52 9h2z" />
    <glyph glyph-name="uni3048" unicode="&#x3048;" 
d="M110 205h2q4 -2 11 -5q24 -13 38 -18h2q6 -2 7 -5l-9 -21l-2 -1q-31 11 -60 28v2q5 9 11 20zM46 125h6q26 0 53 5q17 1 34 8q3 2 6 3h2l23 -14q1 -1 1 -5q-14 -9 -34 -35q-6 -9 -10 -13h7q9 0 18 -7q6 -6 8 -20q1 -14 5 -26q4 -14 15 -14h12q18 0 35 5v-28q-6 0 -17 -1
q-10 -1 -15 -1h-21q-20 0 -27 13q-6 8 -10 31q0 1 -1 4q-1 8 -3 12q-4 8 -13 8q-11 0 -21 -12q-24 -27 -43 -56h-2q-14 13 -24 16v2q30 28 69 77q1 2 4 5q15 17 21 29l-2 2q-10 -5 -30 -8q-16 -3 -23 -6q-2 0 -4 -2q-4 -3 -6 -2z" />
    <glyph glyph-name="uni3049" unicode="&#x3049;" 
d="M164 138l10 16q21 -10 38 -24l-11 -16q-2 1 -4 3q-20 16 -33 21zM88 178l26 -3l2 -2q-5 -10 -7 -27q0 -5 0 -3q6 1 20 4q5 1 8 2v-19q-5 -2 -17 -4q-9 -2 -12 -3v-29q23 9 41 9h6q17 1 30 -8q15 -11 16 -29v-4q0 -23 -19 -35q-13 -9 -40 -15l-2 1l-11 16v2q50 7 51 33
q-1 23 -31 23q-15 0 -41 -13v-11q0 -7 1 -20q1 -12 1 -18v-4q-1 -11 -11 -15q-9 -4 -23 2q-32 12 -32 32q-1 13 17 27q12 9 25 18v15q0 4 1 10v10q-12 -1 -26 -1h-7l-2 21q8 -1 14 -1h4q10 0 19 1v13v6q0 9 -2 18zM87 63q-23 -17 -22 -23q0 -5 6 -9q5 -4 14 -5q4 0 4 3
q0 10 -2 31q2 -15 0 3z" />
    <glyph glyph-name="uni304A" unicode="&#x304a;" 
d="M229 139l1 -2l-12 -20l-2 -1q-23 16 -49 29v2l12 17l2 1q26 -11 48 -26zM72 194h7q7 0 20 -2q7 -1 10 -1l1 -2q-4 -18 -7 -40q1 0 2 1q19 4 31 9l1 -25q-18 -6 -36 -10q-1 -10 -1 -17v-18q30 14 54 14h4q24 0 40 -10q19 -14 20 -36v-4q0 -14 -6 -25q-6 -12 -18 -20
q-24 -16 -53 -18q-3 7 -13 19q-2 3 -3 4q20 2 33 7q23 9 28 20q6 12 0 25q-9 13 -30 14h-5q-21 0 -49 -14q1 -3 1 -8q3 -24 3 -47v-6q-1 -18 -15 -24q-9 -3 -29 4q-36 14 -36 35q0 15 14 31q18 18 35 27v42q-18 -2 -36 -2h-7l-3 24l1 2h3q9 -2 19 -2q15 0 24 2q0 30 -4 51z
M77 50q-1 0 -2 -1q-18 -11 -21 -21q-2 -9 4 -15q12 -10 19 -4q3 2 3 9q0 8 -2 17v8q-1 5 -1 7z" />
    <glyph glyph-name="uni304B" unicode="&#x304b;" 
d="M171 149v2q3 3 9 7q6 5 9 7t9 -5q10 -10 19 -21q17 -21 31 -42v-3l-24 -15q-22 38 -53 70zM122 135h15q15 0 20 -7q6 -9 6 -20v-4q0 -27 -9 -59q-8 -35 -28 -46q-12 -7 -34 -7h-5q-2 0 -3 1q-4 13 -12 26v2q2 0 7 -1q9 -2 14 -2h4q12 0 19 9q7 7 11 20q9 23 9 48v6
q-1 12 -10 12q-8 0 -23 -2q-6 -1 -9 -1q-15 -43 -39 -82q-9 -15 -21 -28q-4 0 -11 4q-4 3 -6 4q-1 0 -2 1q-6 1 -7 4q22 19 39 54q10 20 19 39q-15 -1 -29 -8l-1 -1q-3 -2 -7 -2l-14 29l1 2q11 -3 34 1q3 1 4 1h2q8 2 18 2q0 2 1 5q0 3 1 5q6 18 6 40v4q0 3 -1 7q4 -1 11 -2
q15 -2 22 -4q1 -3 -4 -9q-1 -1 -1 -2q-2 -5 -4 -17v-2v-2q-1 -9 -4 -20q11 2 21 2z" />
    <glyph glyph-name="uni304C" unicode="&#x304c;" 
d="M222 94l-1 -2l-21 -12q-20 38 -49 69v2l19 11q27 -24 52 -68zM229 161v-2l-13 -10h-2q-1 1 -2 3q-13 17 -22 22v2l12 10h2q17 -13 25 -25zM215 195v2l12 10h2q1 -1 3 -2q7 -6 16 -15l1 -1q6 -5 5 -9l-12 -10h-2q-10 14 -25 25zM69 191l34 -8q-1 -3 -4 -8q-1 -3 -2 -4
q-1 -4 -2 -11q-1 -4 -1 -6q-1 -12 -4 -22q3 0 8 1q5 0 8 1q2 0 6 1h6h4q12 0 19 -4q10 -8 10 -20v-12q0 -27 -9 -63q-7 -34 -27 -40q-14 -6 -31 -6h-7q-4 13 -12 26l1 2q2 0 7 -1q9 -2 14 -2h4q14 0 21 13q5 11 9 27q6 22 6 46q-1 13 -14 12q-5 -1 -14 -2l-15 -3
q-17 -62 -56 -112l-2 -1q-6 5 -20 10q-3 1 -4 2v2q23 26 36 51q12 21 19 43q-15 -4 -30 -10q-4 -3 -9 -3l-11 28l2 2q2 0 6 -1q6 -1 8 0q7 1 21 4q13 3 19 4q1 3 1 6q5 23 5 47v11z" />
    <glyph glyph-name="uni304D" unicode="&#x304d;" 
d="M168 186h2q8 -14 9 -21q-15 -7 -31 -13q6 -14 14 -28q18 6 36 14h3l9 -19l-1 -2q-11 -5 -23 -8q-3 -2 -11 -4h-2q2 -3 3 -6q13 -21 28 -39l2 -2q4 -5 3 -8l-22 -21q-32 21 -80 21h-6q-13 0 -21 -4q-13 -9 -9 -22q3 -5 11 -11q11 -7 23 -8q15 -3 30 -3h5q6 0 12 1l-2 -29
h-7q-93 5 -97 55v5q1 16 20 29q18 9 40 9h10q21 0 50 -9l1 1q-2 4 -7 13l-12 21q-10 -3 -21 -4q-27 -4 -55 -5l-2 1l-12 19l1 2h7q29 0 57 5q3 1 8 1q5 1 7 1l-9 18q-3 7 -5 10q-21 -6 -43 -8q-4 7 -10 14q0 1 -2 2q-2 3 -2 5q24 3 47 8q-6 12 -12 25q0 1 -1 3q-2 4 -2 7
l27 4q6 -17 13 -32q15 5 29 12z" />
    <glyph glyph-name="uni304E" unicode="&#x304e;" 
d="M205 172l-1 -2l-14 -10h-2q-2 2 -6 7q-13 16 -23 22v2l15 10h3q16 -14 28 -29zM233 189v-2l-13 -11h-2q-12 17 -30 30v2l15 10h2q16 -13 28 -29zM137 184l11 -19v-3q-10 -7 -34 -15q5 -6 8 -14q1 -2 4 -6l3 -6q23 7 39 15l10 -20q-16 -10 -36 -16q11 -15 21 -30
q9 -10 17 -21l1 -2l-25 -16q-28 14 -59 14h-11q-16 0 -28 -6q-16 -15 -5 -28q7 -6 19 -9q11 -2 22 -2h5h8h6t5 1q4 1 6 0v-27h-26q-23 0 -46 9q-28 13 -29 38v5q1 21 24 33q18 7 42 7h11q9 0 27 -2q7 -1 11 -1q-10 14 -19 29h-6q-4 -1 -6 -1q-29 -6 -60 -6h-8l-11 24h12
q33 0 66 6q-7 13 -13 26q-21 -6 -42 -6h-4l-13 22h6q9 0 18 2q12 1 23 4q-2 4 -7 12q-8 16 -14 24l32 6h2q1 -15 10 -36q20 7 33 15z" />
    <glyph glyph-name="uni304F" unicode="&#x304f;" 
d="M144 205h3l26 -19v-3q-6 -5 -15 -19q-3 -4 -5 -6q-19 -26 -39 -50q-10 -12 -10 -20q1 -9 7 -15q9 -12 18 -22q5 -5 13 -17q9 -11 13 -17q12 -16 24 -33v-2l-26 -16h-2q-5 8 -13 23q-6 12 -10 18q-8 12 -24 35q-7 10 -11 15q-1 1 -3 4q-13 14 -12 25v4q0 10 10 24l9 12
q5 6 8 10q17 21 30 46q6 11 9 23z" />
    <glyph glyph-name="uni3050" unicode="&#x3050;" 
d="M110 205h2q13 -9 28 -15v-2q-6 -6 -10 -14q-18 -31 -40 -59q-2 -2 -5 -7q-4 -5 -6 -8q0 -1 -2 -3q-3 -6 -3 -9q0 -6 9 -15l1 -1q45 -50 63 -77q0 -1 1 -2q5 -6 4 -9l-24 -16h-2q-19 36 -59 84q-13 15 -18 24q-6 12 3 29q3 4 7 11q5 8 7 11q36 46 44 78zM144 139v2l13 13
h2q14 -9 24 -19q1 -1 2 -1q2 -1 2 -4q0 -1 -1 -2l-1 -1q-6 -6 -12 -10q0 -1 -2 0q-4 3 -11 9q-10 9 -16 13zM168 164l12 14q6 -1 15 -9q2 -1 3 -2q2 -2 6 -5l6 -6t0 -2l-13 -13q0 -1 -2 0q-13 11 -27 21v2z" />
    <glyph glyph-name="uni3051" unicode="&#x3051;" 
d="M49 93v-11q0 -28 8 -48h2q4 4 9 14q3 7 5 10h2l8 -6q-12 -32 -12 -57v-5q-10 -2 -22 -3q-7 10 -11 20q-13 33 -13 74v14q0 22 8 63q6 20 0 33q12 0 32 -8q0 -4 -3 -13q-1 -3 -2 -5q-11 -42 -11 -72zM159 191l37 -2q0 -3 -2 -9q-2 -4 -2 -6v-6q-1 -5 -1 -7v-8q0 -3 1 -9
v-10q18 5 36 9l3 -24q-18 -6 -38 -9v-17q1 -42 -7 -62q-10 -32 -41 -55h-1q-3 1 -6 3q-5 4 -16 8q1 0 -2 1l-1 1q29 18 40 43q11 20 10 62v13q-20 -2 -41 -2h-13q-2 0 -3 1l-9 25l1 2q4 0 11 -1q14 -2 22 -2h14q9 0 18 1q-1 33 -10 60z" />
    <glyph glyph-name="uni3052" unicode="&#x3052;" 
d="M17 194l32 -8q-1 -5 -4 -14q-1 -3 -2 -5q-12 -43 -12 -76v-15q1 -22 10 -42h2q6 14 12 27l13 -11q-13 -24 -16 -60l-19 -3q-25 40 -26 93v13q0 20 6 58q4 18 4 37v6zM185 185l14 12q3 -2 8 -7q13 -10 18 -17l-13 -14q-12 14 -27 26zM207 205l13 13q3 -2 9 -7
q14 -10 20 -17l-13 -13q-12 14 -29 24zM141 194h5q7 0 21 -2q5 -1 8 -1q-3 -12 -3 -24v-4q0 -4 1 -14q1 -7 1 -12q17 3 33 8h2q0 -3 1 -10q2 -10 2 -15q-17 -4 -35 -7v3q-1 3 0 1v-13v-9q0 -28 -6 -52q-5 -23 -25 -47q-1 -2 -4 -5q-6 -9 -12 -12q-12 6 -26 7l-1 1
q25 19 37 47q11 22 11 59v14q0 15 0 4q-5 -1 -11 -1q-16 -1 -33 -1h-15l-6 25l1 1q14 -2 27 -2h13q11 0 22 1q-4 39 -8 60z" />
    <glyph glyph-name="uni3053" unicode="&#x3053;" 
d="M126 170h7q25 1 50 7v-28q-21 -3 -41 -3h-23q-21 1 -41 4l-2 1l-5 28l1 1q33 -10 54 -10zM120 29h21q38 0 74 9v-32q-38 -6 -76 -6h-16q-28 0 -47 8q-17 7 -34 26q-1 1 0 3l16 16h2q13 -15 28 -20q10 -4 32 -4z" />
    <glyph glyph-name="uni3054" unicode="&#x3054;" 
d="M53 151l-6 27q5 -1 16 -3q24 -5 37 -5h4q27 1 53 7v-31q-16 -3 -34 -3h-11q-20 0 -59 8zM13 37l18 16h3q15 -16 27 -20q17 -7 39 -7h12q39 0 77 11v-35q-36 -2 -73 -2h-17q-20 -1 -40 4q-18 5 -40 25l-2 1q-4 4 -4 7zM178 139v2l13 13h2q14 -9 24 -19q1 -1 2 -1
q2 -1 2 -4q0 -1 -1 -2l-1 -1q-6 -6 -12 -10q0 -1 -2 0q-4 3 -11 9q-10 9 -16 13zM202 164l12 14q6 -1 15 -9q2 -1 3 -2q2 -2 6 -5l6 -6t0 -2l-13 -13q0 -1 -2 0q-13 11 -27 21v2z" />
    <glyph glyph-name="uni3055" unicode="&#x3055;" 
d="M187 162l2 -1l6 -20v-3q-16 -7 -34 -11q24 -41 49 -66v-2l-23 -17q-1 -1 -3 0q-15 10 -35 16t-33 6h-4q-11 0 -27 -6q-14 -9 -15 -21q1 -6 4 -10q7 -8 18 -12q13 -6 36 -6h12q9 0 17 1l1 -1l-3 -27h-17q-29 0 -60 13q-31 15 -32 42v4q1 23 20 35q17 9 36 9h13
q28 1 52 -11l1 2q-17 21 -31 45q-39 -8 -78 -10l-10 23l1 2q8 -1 14 -1h4q29 0 57 7q-1 3 -4 7q-2 3 -5 10q-5 10 -17 30v2q16 2 31 5q2 -22 18 -49q23 7 39 15z" />
    <glyph glyph-name="uni3056" unicode="&#x3056;" 
d="M166 178v2l13 13h2q12 -9 24 -19l2 -2q2 -2 2 -3q-1 -2 -2 -3q-6 -6 -12 -10q-2 -1 -2 0q-4 4 -13 11q-9 8 -14 11zM190 203l12 14q5 -1 13 -7q3 -3 5 -4q2 -2 6 -5l6 -6v-2l-13 -13q-2 -1 -2 0q-13 11 -27 21v2zM169 162h2l8 -24q-20 -7 -41 -13q3 -6 8 -12
q19 -34 39 -52l-22 -22q-27 23 -67 24h-4q-16 0 -31 -5q-15 -6 -15 -18q0 -22 36 -29q17 -4 35 -4h17l-5 -25h-11q-34 0 -57 11q-35 16 -36 45v4q1 22 20 34q18 9 42 9h9q17 0 47 -8q-15 22 -29 43q-10 -2 -31 -4h-3q-18 -2 -36 -2h-5q-3 0 -3 1l-11 23h20q29 0 57 4
q0 2 -1 4q-1 3 -2 4q-2 4 -7 13q-8 17 -14 26v1l34 3q1 -2 1 -6q1 -4 1 -6q3 -18 11 -34q23 5 44 15z" />
    <glyph glyph-name="uni3057" unicode="&#x3057;" 
d="M55 199h2l32 -6q-1 -6 -3 -12v-138q0 -20 7 -28q7 -10 21 -10h5q9 0 18 4q12 4 23 11q16 10 28 25h2l12 -23v-2q-22 -21 -42 -31q-21 -10 -44 -10h-4q-19 0 -33 9q-16 11 -19 30q-2 14 -2 29v131q0 5 -2 14q-1 5 -1 7z" />
    <glyph glyph-name="uni3058" unicode="&#x3058;" 
d="M47 199l34 -4l1 -3q-2 -4 -3 -12q-1 -1 -1 -2v-2v-128q0 -17 7 -31q8 -12 26 -12h4q34 0 68 40h2l13 -21q2 -2 0 -2q-16 -20 -38 -31q-24 -12 -49 -12h-7q-30 1 -44 25q-9 18 -9 47v123q0 13 -4 25zM143 153v2l13 13h2q14 -9 24 -19q1 -1 2 -1q2 -1 2 -4q0 -1 -1 -2
l-1 -1q-6 -6 -12 -10q0 -1 -2 0q-4 3 -11 9q-10 9 -16 13zM167 178l12 14q6 -1 15 -9q2 -1 3 -2q2 -2 6 -5l6 -6t0 -2l-13 -13q0 -1 -2 0q-13 11 -27 21v2z" />
    <glyph glyph-name="uni3059" unicode="&#x3059;" 
d="M129 79v13q0 11 -8 11q-6 0 -10 -4q-9 -8 -9 -20v-5q1 -20 13 -21q8 0 12 11q2 4 2 15zM123 213l35 -6q-5 -14 -5 -31v-9h37h45v-29q-37 6 -75 5h-7v-31q10 -10 10 -35v-17q0 -20 -10 -42q-8 -18 -22 -33q-8 -11 -19 -18q0 -2 -2 0q-2 1 -5 3q-15 9 -24 11v2q40 17 53 51
q-20 -10 -39 0q-19 14 -20 40v5q5 41 42 46h5h7v18h-11q-42 0 -85 -10l-2 1l-10 29l1 2q4 0 12 -1t11 -1h12q4 0 17 1q31 1 55 2q-4 41 -6 47z" />
    <glyph glyph-name="uni305A" unicode="&#x305a;" 
d="M242 196l-13 -11q-15 15 -24 21l11 11q3 -2 8 -6q13 -9 18 -15zM225 179l-13 -11q-17 17 -27 24l13 11q10 -7 27 -24zM125 77v14q-1 12 -10 12q-5 0 -12 -7q-10 -12 -7 -29q4 -14 15 -14q14 0 14 24zM153 207l1 -2q-5 -11 -7 -35q0 2 0 -6q7 0 21 1h20h43v-27
q-35 5 -71 5h-14v3q1 5 0 1v-14v-23l3 -3l1 -1q9 -12 9 -32v-7q-1 -47 -29 -80q-7 -8 -21 -20q1 1 -1 -1h-2q-19 10 -32 12v1q20 9 30 19q20 17 21 33q-6 -2 -12 -2h-4q-34 4 -38 43v4q5 42 42 46h4q4 0 7 -1q0 4 1 11v11h-3q-23 -1 -49 -4q-23 -3 -47 -9l-12 30l1 2
q3 0 8 -1q10 -2 15 -2h5q14 0 42 2q14 1 21 1q10 0 19 1q0 22 -8 47q18 -1 36 -3z" />
    <glyph glyph-name="uni305B" unicode="&#x305b;" 
d="M11 118l1 2q7 -1 16 -1h5q9 0 20 1q12 2 22 2v21q0 17 -5 32l34 -2q1 -2 -1 -5q-1 -1 -1 -2q-3 -10 -3 -21v-20q10 0 14 1q8 1 25 2q17 2 24 2v7q1 10 1 14v17q0 5 -2 15q-1 5 -1 8q15 -2 31 -2l1 -1q-2 -21 -4 -56q13 0 18 1q11 0 34 2q-16 -2 3 0l3 -29q-14 3 -26 3
h-15q-5 0 -19 -1v-8q-2 -25 -6 -36q-7 -19 -21 -19h-4q-7 0 -13 2v24h6q5 0 9 11q1 1 1 2q2 9 3 19v4q-7 0 -41 -3q-6 -1 -21 -2q0 -43 2 -62q3 -22 18 -22h42q24 0 47 5v-28q-6 0 -17 -1q-22 -2 -33 -2h-14q-21 -1 -41 5q-23 6 -26 32q-2 10 -2 33v38q-28 -3 -47 -8
q-4 -2 -9 -2z" />
    <glyph glyph-name="uni305C" unicode="&#x305c;" 
d="M188 164v2l13 13h2q12 -9 24 -19l2 -2q2 -2 2 -3q-1 -2 -2 -3q-6 -6 -12 -10q-2 -1 -2 0q-4 4 -13 11q-9 8 -14 11zM212 189l12 14q5 -1 13 -7q3 -3 5 -4q2 -2 6 -5l6 -6v-2l-13 -13q-2 -1 -2 0q-13 11 -27 21v2zM142 189l31 -3v-2l-2 -9q-1 -8 -1 -25q-1 -16 -1 -24
q17 2 33 3q14 0 27 2v-26q-6 0 -18 1h-16h-12q-7 0 -15 -1v-11q-1 -8 -1 -12q0 -3 -1 -10q0 -7 -1 -10q-3 -14 -13 -20t-27 0l-2 24h8q5 0 10 9q1 2 1 7q1 6 1 8q0 7 1 13h-8q-27 -1 -53 -4v-37q0 -9 1 -16q0 -8 2 -16q5 -16 23 -17h25q31 0 61 8l-3 -31h-89q-11 0 -21 5
q-9 4 -13 11q-10 14 -10 39v52l-48 -6q-5 -1 -8 -1v27h24q15 0 32 1q0 28 -5 55l31 -3q0 -4 -1 -12t-1 -11v-27q14 0 27 2q10 0 31 2q-15 -2 3 0v42q0 3 -1 11t-1 12z" />
    <glyph glyph-name="uni305D" unicode="&#x305d;" 
d="M113 145l-1 -2l-23 -11l-2 1q-10 28 -24 45q2 1 7 4q11 6 17 7q15 -21 26 -44zM172 199l31 -15v-2q-6 -3 -14 -14q-1 -1 -1 -2q-1 -2 -3 -5q-13 -19 -21 -29q-4 -6 -13 -15l21 3q14 1 21 2q3 0 10 1q13 2 20 2h5v-27h-9q-17 0 -45 -12q-18 -9 -30 -24q-14 -18 -9 -30
q8 -19 30 -25q17 -4 34 -5q-1 -3 -3 -11q-3 -12 -5 -17h-4q-11 0 -29 6q-12 4 -25 12q-24 16 -25 43v5q0 17 18 37q10 11 22 18q-45 -7 -83 -24q-1 -1 -4 -2q-10 -6 -16 -6q-4 1 -9 11q-5 9 -8 21q12 -4 36 2q3 1 4 1l21 6q11 3 16 4q1 0 3 1h2q12 9 21 21q28 33 38 69h3z
" />
    <glyph glyph-name="uni305E" unicode="&#x305e;" 
d="M89 146l-24 -11q-5 11 -16 32q-5 11 -8 16l21 8q10 -12 24 -40q2 -3 3 -5zM227 168l-13 -11q-12 14 -26 26l13 11q14 -12 26 -26zM253 190l-13 -11q-12 14 -26 26l13 11q14 -12 26 -26zM180 186v-2q-10 -7 -23 -27q-5 -7 -7 -10q-1 -2 -4 -5q-6 -8 -16 -20q-1 -3 -4 -4
l18 3q12 1 18 2q21 3 42 5l2 -27h-8q-17 0 -43 -10q-22 -9 -32 -22q-13 -15 -13 -28q0 -14 10 -22q15 -14 46 -14h8l-8 -29q-35 5 -53 16q-28 16 -29 43v5q0 17 16 36q13 16 24 22q-3 -1 -8 -2q-67 -13 -96 -33l-16 32h8q14 0 38 6q12 2 31 8q6 1 9 2q7 10 17 21
q28 34 38 67q7 -1 19 -7q11 -5 16 -6z" />
    <glyph glyph-name="uni305F" unicode="&#x305f;" 
d="M175 117h9q10 0 31 -2q-15 2 3 0l1 -27l-1 -1q-28 6 -43 6h-9q-12 0 -23 -3l5 25q5 0 14 1t13 1zM234 18l-3 -28q-16 -3 -33 -3h-10q-11 0 -34 3q-7 1 -11 2q-1 0 -3 1q-8 0 -10 3l-1 25q33 -8 53 -8h5q23 0 47 5zM98 202h2l30 -8v-3q-7 -6 -10 -16q-3 -8 -8 -23
q21 3 40 8l2 -1v-26q-24 -4 -47 -6q-2 -3 -2 -7q-26 -87 -53 -137l-28 8l-1 2q35 64 58 133q-6 0 -19 -1q-13 0 -20 -1l-2 1l-5 24l1 2q4 0 12 -1q9 -1 14 -1h7q10 0 19 1q1 2 2 6q8 27 8 40v6z" />
    <glyph glyph-name="uni3060" unicode="&#x3060;" 
d="M170 114h9q7 0 20 -2q7 -1 10 -1l-2 -26q-3 0 -8 1q-19 4 -29 4h-9q-7 0 -21 -2q-5 -1 -8 -1l3 24q3 0 10 1q16 2 25 2zM169 10h10q25 0 41 5l-3 -28q-4 0 -12 -1q-16 -2 -23 -2h-7q-18 0 -53 9q-4 1 -6 2l3 23q32 -8 50 -8zM182 156v2l13 13h2q12 -9 24 -19l2 -2
q2 -2 2 -3q-1 -2 -2 -3q-6 -6 -12 -10q-2 -1 -2 0q-4 4 -13 11q-9 8 -14 11zM206 181l12 14q5 -1 13 -7q3 -3 5 -4q2 -2 6 -5l6 -6v-2l-13 -13q-2 -1 -2 0q-13 11 -27 21v2zM84 199h3l32 -8v-2q-5 -6 -8 -14q-1 -2 -2 -5q-3 -8 -6 -21q11 2 32 7q4 1 6 1l2 -1l-3 -26
q-23 -4 -44 -6q-12 -39 -26 -77q-15 -41 -30 -67l-1 -1l-30 11q20 26 43 85q9 23 17 47h-21h-15q-1 0 -3 1l-5 26q3 0 10 -1q13 -2 20 -2h11h10q8 30 8 47v6z" />
    <glyph glyph-name="uni3061" unicode="&#x3061;" 
d="M115 199l1 -1q-7 -9 -8 -19q0 -2 -1 -5q-2 -8 -4 -20q35 3 68 15v-27q-36 -10 -72 -13q-1 -15 -3 -28q-2 -9 -2 -17v-4q0 -2 1 -2q46 26 74 25h6q23 0 40 -16q14 -17 15 -37v-4q-1 -24 -22 -45q-21 -17 -50 -22q-3 0 -10 -1q-13 -2 -19 -2h-6q-6 11 -11 18q-1 1 -2 3
q-4 3 -3 5h13q22 0 35 3q15 2 26 9q30 21 19 48q-9 16 -33 17h-4q-44 -1 -75 -45q-5 0 -15 2q-3 1 -5 1q-1 2 -1 3v4q3 45 9 84h-5h-7q-18 0 -34 3l-3 26q20 -3 39 -3h13q0 2 1 7q4 18 4 29v4v3q-1 3 -1 5q15 -1 32 -3z" />
    <glyph glyph-name="uni3062" unicode="&#x3062;" 
d="M246 181l-13 -13q-12 15 -28 28l13 12l6 -6q16 -13 22 -21zM223 163l-13 -13q-12 15 -28 28l13 12l6 -6q16 -13 22 -21zM157 169h2v-28q-15 -6 -48 -10q-12 -1 -24 -3q-3 -30 -5 -48v-6q13 12 28 19q22 10 42 10h6q28 0 44 -13q18 -16 19 -38v-5q0 -16 -13 -33
q-12 -15 -30 -24q-22 -12 -65 -15l-15 25h6q10 0 19 2q18 2 30 7q37 14 38 39v4v1q-4 14 -12 20t-19 6h-7q-51 -3 -77 -48l-21 6q5 45 9 89q-22 -1 -46 -1l-8 29q7 0 19 -2q12 -1 18 -1h20v5q2 13 2 27v5q0 7 -3 14q7 -1 20 -2q11 -2 17 -2q0 -3 -4 -8q-1 -1 -1 -2
q-7 -18 -8 -36q14 2 26 5q28 6 41 12z" />
    <glyph glyph-name="uni3063" unicode="&#x3063;" 
d="M159 157h5q25 0 42 -15q17 -17 18 -42v-4q0 -17 -9 -31q-6 -12 -27 -26q-28 -19 -60 -21l-16 19q38 5 60 19q29 17 30 43v4q-4 31 -41 35h-4q-11 0 -31 -6q-12 -4 -24 -9q-21 -9 -40 -21q-1 0 -2 -2q-4 -3 -7 -2l-21 24q28 6 55 17q3 1 8 3q42 16 64 15z" />
    <glyph glyph-name="uni3064" unicode="&#x3064;" 
d="M158 165h5q35 0 59 -19q25 -23 26 -53v-5q0 -24 -15 -43q-12 -16 -29 -26q-18 -13 -41 -19q-17 -6 -35 -8l-24 25v1q30 2 57 12q33 11 46 26q14 14 14 32v5q0 19 -18 35q-15 13 -35 13h-5q-18 0 -50 -10q-27 -9 -54 -21q-1 -1 -4 -2q-14 -6 -18 -13h-3l-26 28v2
q21 4 59 17q27 10 41 14q2 0 5 1q30 8 45 8z" />
    <glyph glyph-name="uni3065" unicode="&#x3065;" 
d="M148 162h6q34 0 58 -18q25 -20 26 -51v-7q0 -22 -11 -39q-9 -15 -29 -28q-26 -19 -81 -28l-2 1q-9 12 -19 25q25 2 49 9q37 10 54 30q14 15 15 33v4q-1 22 -21 35q-16 10 -39 10h-4q-13 0 -39 -6q-5 -1 -15 -4q-10 -2 -15 -4q-33 -10 -54 -26l-24 29q17 2 50 14q5 2 8 3
q5 2 15 4q9 3 14 4q38 10 58 10zM187 183l11 14q17 -9 30 -21l-12 -14q-2 2 -6 5q-14 11 -23 16zM212 204l11 14q17 -9 30 -21l-12 -14q-2 2 -6 5q-14 11 -23 16z" />
    <glyph glyph-name="uni3066" unicode="&#x3066;" 
d="M24 151h3l87 18q57 12 86 17q15 3 30 5l2 -29h-6q-46 0 -69 -24q-26 -29 -26 -68v-4q0 -25 14 -39q14 -15 44 -14h17v-31h-15q-40 1 -63 23q-21 22 -21 59v9q0 39 32 78q-13 -3 -40 -10q-13 -3 -20 -5l-9 -3q-20 -5 -30 -11z" />
    <glyph glyph-name="uni3067" unicode="&#x3067;" 
d="M4 151h6q11 0 32 6q7 1 10 2q19 5 37 9q33 8 65 14q26 3 40 9q0 -4 3 -11q3 -10 2 -15q-5 -1 -14 -3q-24 -3 -34 -11q-20 -17 -29 -43q-6 -22 -6 -35v-6q0 -24 15 -39q15 -14 39 -15h5q9 0 16 2v-31h-8q-37 1 -63 18q-29 23 -30 63v5q0 38 31 82q-6 -1 -17 -4
q-41 -11 -63 -18q-2 -1 -7 -2q-10 -3 -14 -8l-16 29v2zM188 138l14 12q17 -17 24 -27l-14 -12q-14 18 -24 27zM215 157l14 12q13 -12 23 -26l-15 -12q-1 2 -4 6q-10 14 -18 20z" />
    <glyph glyph-name="uni3068" unicode="&#x3068;" 
d="M185 159l22 -25v-2q-62 -18 -97 -41q-18 -12 -31 -30q-6 -10 -6 -17v-4q1 -17 19 -27q12 -6 34 -6h7q30 0 58 8l2 -31q-8 0 -24 -1q-17 -1 -26 -1h-15q-33 0 -53 11q-25 16 -26 46v5q0 32 41 63q3 2 5 3q-8 35 -32 84l27 5q15 -30 30 -75l36 18q20 8 29 17z" />
    <glyph glyph-name="uni3069" unicode="&#x3069;" 
d="M168 175l15 9q14 -15 24 -31l-15 -10q-4 6 -12 16q-8 11 -12 16zM194 193l15 9q14 -15 24 -31l-15 -10q-4 6 -12 16q-8 11 -12 16zM163 154l19 -21v-2q-21 -5 -40 -13q-33 -13 -62 -31q-17 -11 -25 -24q-6 -9 -7 -20v-4q1 -17 21 -26q14 -6 32 -6h5q16 0 46 5q9 1 13 2
l3 -30q-7 0 -21 -1t-21 -1h-21q-21 0 -41 7q-25 10 -34 25q-6 11 -6 24v5q0 23 22 47q7 8 27 22q-12 43 -33 82l26 4q14 -27 30 -73l2 1q15 7 31 13q1 0 4 1q8 3 22 10q1 0 2 1q4 3 6 3z" />
    <glyph glyph-name="uni306A" unicode="&#x306a;" 
d="M220 103h-2q-19 23 -44 40l14 19h2q19 -13 35 -28q8 -6 9 -11zM145 168v-26q-13 -5 -39 -10q-3 -1 -4 -1q-18 -59 -53 -110h-3l-23 8l-1 2q34 43 53 98q-5 0 -17 -1q-11 0 -17 -1l-3 27h8q12 0 22 1q3 0 8 1h7q6 26 6 43v6q5 -2 15 -4q9 -2 14 -4q0 -6 -3 -17
q-2 -3 -2 -5q-1 -7 -3 -15q18 2 35 8zM147 125h2l23 -5q0 -6 -1 -12q0 -13 2 -41q1 -17 1 -26q29 -8 53 -23v-3l-10 -23q-3 1 -8 5q-3 2 -5 3q-13 8 -30 13q0 -9 -3 -18q-2 -5 -7 -10q-10 -11 -33 -11h-6q-21 0 -34 13q-11 15 -7 30q4 12 14 19q17 9 36 9h7q5 0 9 -1
q-1 41 -3 81zM132 23h-4q-15 -1 -20 -10q-4 -15 13 -18h9q18 1 20 25v1q-9 2 -18 2z" />
    <glyph glyph-name="uni306B" unicode="&#x306b;" 
d="M39 191l35 -10q-1 -5 -6 -14q-2 -5 -3 -7q-15 -38 -15 -80v-8q0 -28 9 -46h2q4 11 10 21l11 -2q-8 -31 -8 -47v-6l-24 -5q-13 14 -18 40q-6 24 -6 51v11q0 23 8 64q1 3 2 8q3 16 3 25v5zM166 170h11q8 0 25 -2q9 -1 13 -1v-26q-6 0 -18 1t-18 1h-11q-10 0 -31 -3
q-15 -2 -23 -2l-3 26q8 0 24 3q20 3 31 3zM164 31h9q29 0 56 8l2 -27q-23 -7 -47 -7h-11q-45 0 -70 22q-8 6 -8 12l18 11q18 -19 51 -19z" />
    <glyph glyph-name="uni306C" unicode="&#x306c;" 
d="M142 160h7q37 -1 62 -23q22 -25 23 -56v-4q0 -27 -13 -52q14 -6 26 -15l-12 -22q-13 10 -27 17q-20 -22 -55 -23h-5q-35 3 -37 30q3 29 44 33h5q16 0 39 -9q8 16 8 34v6q0 25 -17 44q-17 14 -41 15h-4q-3 0 -7 -1q-4 -24 -13 -49q-6 -15 -14 -29q2 -3 8 -7q2 -1 3 -2
l-17 -18h-2q-1 1 -2 1q-2 2 -5 4q-2 -2 -6 -7q-5 -5 -7 -8q-23 -24 -43 -24h-4q-24 1 -26 35v5q0 21 12 43q8 14 17 27q-1 2 -3 5q-9 18 -12 28q-3 5 -3 11l24 10q3 -18 11 -36q29 26 62 34q1 7 1 13v7q0 3 -1 10q-1 8 -1 12q10 -1 28 -4q-12 2 4 -1q1 -3 -2 -6q-1 -1 -1 -2
q-3 -9 -3 -19v-3q-1 -2 -1 -4zM115 130q-14 -4 -25 -12t-20 -17q11 -16 24 -28q14 25 21 57zM34 36v-4q1 -10 10 -11q7 0 19 10l2 2q8 8 15 17q-14 15 -26 32q-3 -3 -5 -7q-15 -21 -15 -39zM154 26h-6q-6 0 -10 -3q-5 -3 -5 -9q1 -11 17 -12h5q16 0 31 15q-1 0 -2 1
q-1 0 -2 1q-13 7 -28 7z" />
    <glyph glyph-name="uni306D" unicode="&#x306d;" 
d="M60 202h3l32 -6q-1 -3 -4 -10q-1 -3 -2 -5q-6 -15 -7 -32q2 2 6 4q3 3 5 4h2q9 -8 19 -14q-18 -18 -30 -39q17 19 39 34q31 21 54 21h4q22 0 36 -28q9 -20 9 -41v-6q0 -24 -7 -42q18 -7 31 -21l-14 -21h-1q-2 1 -7 5q-3 3 -13 11q-3 2 -6 3q-17 -28 -50 -29h-5
q-27 2 -37 19q-10 23 13 40q14 9 32 9h4q14 0 27 -5q3 16 3 31v16q0 19 -11 29q-13 10 -30 3q-20 -8 -51 -36q-13 -12 -25 -24v-7q0 -17 4 -50q1 -9 1 -13t2 -15q-2 7 0 -3l-29 -2q0 11 1 32v33q-4 -5 -7 -11q-1 -1 -3 -4q-13 -19 -14 -30h-3l-24 16v3q6 5 17 19q-1 -1 1 2
q18 26 33 53v11q1 8 1 12q-3 -1 -9 -4q-22 -8 -32 -16l-11 27v2q2 0 5 1q32 5 49 11q0 7 1 14v7q1 6 1 9v5q0 6 -2 17q-1 7 -1 11zM184 30q-14 4 -29 4q-21 -3 -16 -16q4 -8 15 -8q8 0 15 4q8 5 14 13q0 1 1 2v1z" />
    <glyph glyph-name="uni306E" unicode="&#x306e;" 
d="M247 94v-7q0 -33 -26 -63q-24 -26 -50 -37h-2q-3 2 -8 6q-9 7 -15 10v2q71 35 72 87v5q0 24 -22 46q-20 16 -42 18q-9 -39 -22 -73q-1 -2 -2 -6q-16 -40 -28 -59q-14 -25 -33 -25q-28 1 -49 35q-9 16 -10 34v5q0 17 8 34q6 15 17 29q23 30 54 41q30 10 47 10h11
q45 -1 72 -27q27 -28 28 -65zM36 77v-5q1 -16 10 -30q8 -13 19 -13q9 0 18 13q4 6 11 19q1 3 2 5q26 55 33 95q-20 -2 -37 -10q-26 -14 -41 -37q-15 -21 -15 -37z" />
    <glyph glyph-name="uni306F" unicode="&#x306f;" 
d="M41 199h3l27 -10q-1 -6 -6 -16l-3 -6q-4 -11 -11 -35q-1 -5 -2 -8q-6 -27 -6 -42v-8q0 -22 7 -48h2q6 11 11 21h2l8 -8q1 -1 0 -2q-6 -25 -10 -50l-22 -5q-21 37 -21 89v15q0 18 8 52q1 4 4 13q9 28 9 44v4zM148 194l35 -5q-2 -45 -2 -57v0v8q21 2 42 6v-24
q-20 -4 -41 -6q1 -73 1 -72q9 -3 26 -11q18 -9 27 -18l-16 -19h-3q-8 6 -17 12t-18 10q-4 -14 -11 -20q-12 -15 -37 -15h-5q-18 0 -30 8q-14 9 -15 26v4q1 14 15 24q12 8 30 8h5q13 0 25 -2q0 10 -1 29q-2 19 -2 28v6h-9h-12q-21 1 -43 4l-3 25q5 0 14 -2q26 -3 40 -3h8h5
q-1 26 -3 36v2q0 12 -5 18zM132 31h-5q-14 0 -19 -5q-7 -9 6 -18q19 -8 37 4q5 3 7 14q-12 5 -26 5z" />
    <glyph glyph-name="uni3070" unicode="&#x3070;" 
d="M28 197h3l29 -11q-1 -5 -6 -14q-2 -5 -3 -7q-20 -43 -20 -84v-7q0 -33 10 -53q5 12 11 24l12 -7q-9 -29 -9 -47v-7l-22 -5h-2q-22 43 -22 93v9q0 25 11 63q8 29 8 46v7zM227 170l-13 -12q-4 4 -14 12q-9 7 -14 11l13 13q3 -3 11 -9q12 -9 17 -15zM248 188l-13 -12
q-4 4 -14 12q-9 7 -14 11l13 13q3 -3 11 -9q12 -9 17 -15zM140 191l32 -2q-3 -16 -4 -32v-3q-1 -6 -1 -14h2q2 1 3 1q20 2 40 8v-26q-22 -4 -45 -7q0 -3 1 -8q0 -5 1 -8q1 -26 4 -50v-5q23 -8 55 -27l-16 -23q-1 1 -4 3q-22 14 -35 20q-2 -14 -11 -22q-14 -13 -40 -14h-4
q-29 2 -39 21q-8 23 10 40q13 10 35 10h4q11 0 22 -2q-2 11 -5 63h-14h-12q-21 0 -40 4v25q26 -6 39 -6h12q8 0 15 1v14q-1 9 -1 13q0 2 -1 7q-1 13 -3 19zM124 31h-5q-13 0 -19 -7q-8 -10 5 -19q18 -8 38 7q5 4 7 14q-12 5 -26 5z" />
    <glyph glyph-name="uni3071" unicode="&#x3071;" 
d="M25 197h3q15 -6 29 -11v-3q-5 -6 -8 -14q-8 -22 -14 -45q-6 -30 -6 -46v-11q0 -9 2 -17q3 -15 8 -27q6 10 10 22l14 -5q-1 -2 -2 -5q-9 -31 -9 -47v-4l-19 -5h-2q-9 12 -14 26q-9 29 -10 61v17q0 16 7 48q1 6 2 9q0 2 1 5q8 30 8 46v6zM219 157q-29 1 -31 29q2 27 31 29
q28 -2 30 -29q-1 -28 -30 -29zM219 173q13 1 14 12q-1 13 -14 14q-14 -1 -15 -13q0 -13 15 -13zM122 136h12h9q-2 37 -6 55l34 -2v-2q-4 -4 -3 -13q0 -5 -1 -8q0 -5 1 -14v-13q1 0 2 1h2q24 4 35 9v-25q-12 -4 -39 -8q0 -7 1 -22v-22q1 -12 1 -23v-4q25 -9 53 -24l-14 -26
q-10 7 -33 19l-6 3q-4 -15 -10 -20q-14 -15 -37 -15h-6q-40 5 -44 36q3 31 45 35h6q11 0 21 -2v4q-2 35 -2 49v10h-13h-10q-14 0 -41 4q19 -3 -3 0v25q23 -6 46 -7zM120 31h-5q-19 -1 -20 -14q1 -11 20 -12h4q11 0 18 6q9 7 8 16q-12 4 -25 4z" />
    <glyph glyph-name="uni3072" unicode="&#x3072;" 
d="M19 170h6q38 1 72 21h2l22 -16v-2q-3 -3 -11 -9q-10 -7 -14 -11q-14 -13 -27 -41q-15 -30 -15 -52v-5q0 -17 11 -29q14 -16 32 -16h5q26 1 41 18q16 19 20 50q2 17 2 35v13q0 10 -2 30q-2 15 -2 22l24 5q0 -6 2 -10q2 -9 6 -17q2 -2 5 -8t5 -9q7 -11 24 -29q3 -4 5 -6
l3 -3q4 -3 3 -6l-21 -16h-3q-15 19 -27 40v-28q-1 -48 -21 -77q-25 -30 -63 -32h-4q-26 0 -49 18q-20 17 -20 48v8q0 48 40 101q-5 -2 -16 -6q-11 -3 -16 -6l-2 -2q-4 -3 -6 -2l-11 26v3z" />
    <glyph glyph-name="uni3073" unicode="&#x3073;" 
d="M81 191h1l22 -15v-2q-22 -12 -39 -38q-15 -22 -25 -48q-6 -13 -6 -29v-4q4 -44 47 -48h4q17 0 31 10q14 11 21 26q14 28 14 67v9q0 22 -10 59q12 2 24 3q17 -51 55 -86l-21 -16q-16 15 -26 35q-1 -6 -2 -20q-2 -45 -13 -66q-25 -44 -73 -46h-6q-28 1 -50 20
q-18 18 -19 49v6q0 32 33 86q5 7 7 11q-5 -3 -16 -5q-15 -3 -21 -8l-11 26q6 1 17 3q36 6 53 16q1 0 3 2q4 3 6 3zM190 180l14 11q15 -15 27 -32l-16 -13q-12 18 -25 34zM213 199l13 14q3 -3 9 -8q14 -14 20 -22l-13 -13q-14 15 -29 29z" />
    <glyph glyph-name="uni3074" unicode="&#x3074;" 
d="M84 191l20 -15v-2q-19 -12 -37 -41q-1 -2 -4 -7q-13 -24 -18 -38q-6 -18 -6 -28v-5q6 -43 46 -48h5q26 1 43 21q13 15 18 47q3 15 3 32v7q0 25 -6 47q0 2 -2 7q-2 7 -3 10q14 2 27 5q7 -43 53 -88l-21 -16q-7 8 -19 26q-5 8 -8 12v-17q0 -23 -5 -44q-5 -24 -16 -39
q-26 -34 -66 -35h-4q-27 0 -48 18q-24 22 -24 48v4q0 10 5 29q0 -1 1 3q5 12 9 24q12 24 27 48q-4 -2 -12 -4q-14 -3 -20 -7l-1 -1q-3 -4 -6 -3l-11 29h6q21 1 41 7q16 5 31 14h2zM225 146h-4q-25 2 -27 29q2 28 27 30h4q25 -2 27 -31q-1 -27 -27 -28zM236 175q-1 13 -13 14
q-12 -1 -13 -14q1 -12 13 -13q13 1 13 13z" />
    <glyph glyph-name="uni3075" unicode="&#x3075;" 
d="M92 173l17 19q26 -12 48 -31l-18 -20q-23 18 -47 32zM96 125h24v-3q3 -16 8 -27q6 -15 14 -28q1 -1 2 -4q18 -30 13 -46q-9 -24 -31 -25q-6 0 -17 2q-4 1 -6 1l-1 1l-4 23l1 2q17 -7 26 3q7 9 -3 27q-7 12 -13 26q-13 24 -13 44v4zM3 58l24 8q3 -10 8 -21q2 -8 9 -8
q3 0 9 4l1 1q9 7 18 16q3 -13 8 -27l-7 -7q-15 -15 -25 -18q-19 -6 -34 21q-8 15 -11 31zM182 74l20 12q26 -21 52 -57l-22 -16h-2q-22 31 -48 61z" />
    <glyph glyph-name="uni3076" unicode="&#x3076;" 
d="M93 173l16 18q1 -1 3 -2q33 -16 45 -30l-16 -18q-22 18 -48 32zM71 55l11 -21v-3q-10 -11 -21 -19q-11 -7 -20 -7h-4q-15 0 -23 20q-7 13 -12 33l24 8q0 -1 1 -3q3 -11 6 -15q3 -11 12 -11q8 0 19 11zM255 23l-22 -13h-2q-25 39 -49 62l17 11h3q1 -1 3 -2q9 -8 19 -18
q4 -4 12 -13q7 -9 11 -14l3 -3q5 -6 5 -10zM184 158l15 12q15 -14 26 -31l-16 -12h-2q-1 2 -4 6q-6 10 -19 25zM255 157l-16 -11q-12 16 -25 31l15 9q14 -14 26 -29zM95 125h24v-3q3 -16 8 -27q6 -15 14 -28q1 -1 2 -4q18 -30 13 -46q-9 -24 -31 -25q-6 0 -17 2q-4 1 -6 1
l-1 1l-4 23l1 2q17 -7 26 3q7 9 -3 27q-7 12 -13 26q-13 24 -13 44v4z" />
    <glyph glyph-name="uni3077" unicode="&#x3077;" 
d="M155 159l-16 -18q-16 14 -45 30l13 20q26 -14 48 -32zM120 124v-4v-2q3 -18 12 -34q3 -7 11 -20q7 -14 10 -21l1 -1q4 -11 4 -16v-4q-3 -29 -31 -32h-4q-2 0 -6 1h-5q-2 0 -5 1q-3 0 -5 1l-3 25l13 -3q14 -1 16 12v4q0 8 -9 25q-3 5 -4 7q-21 34 -19 62q12 -1 24 -1z
M70 55l13 -21q-10 -12 -21 -23q-6 -6 -12 -8q-11 -3 -20 2t-13 13q-14 18 -14 37l23 11q1 -9 5 -18q5 -14 14 -14q3 0 9 4l1 1q8 7 15 16zM180 73l21 12q34 -30 53 -62l-22 -13q-23 33 -52 63zM221 119q-29 2 -31 31q2 28 31 30q28 -2 30 -31q-1 -29 -30 -30zM221 135
q13 1 14 14q-1 14 -14 15q-14 -1 -15 -14q1 -14 15 -15z" />
    <glyph glyph-name="uni3078" unicode="&#x3078;" 
d="M245 62l1 -2l-16 -26h-3q-39 21 -96 69q-3 3 -10 8q-6 6 -10 8l-1 1q-11 7 -17 4q-3 -2 -8 -7q-3 -3 -5 -4q-12 -11 -21 -22q-14 -15 -18 -26h-2l-28 25v3q10 1 25 14l2 2q11 9 21 19q2 1 5 4q18 20 34 19q12 0 33 -15l3 -3q4 -3 11 -8q23 -18 37 -27q30 -19 63 -36z" />
    <glyph glyph-name="uni3079" unicode="&#x3079;" 
d="M245 50l1 -2l-16 -26h-3q-39 21 -96 69q-3 3 -10 8q-6 6 -10 8l-1 1q-11 7 -17 4q-3 -2 -8 -7q-3 -3 -5 -4q-12 -11 -21 -22q-14 -15 -18 -26h-2l-28 25v3q10 1 25 14l2 2q11 9 21 19q2 1 5 4q18 20 34 19q12 0 33 -15l3 -3q4 -3 11 -8q23 -18 37 -27q30 -19 63 -36z
M173 149v2l13 13h2q12 -9 24 -19l2 -2q2 -2 2 -3q-1 -2 -2 -3q-6 -6 -12 -10q-2 -1 -2 0q-4 4 -13 11q-9 8 -14 11zM197 174l12 14q5 -1 13 -7q3 -3 5 -4q2 -2 6 -5l6 -6v-2l-13 -13q-2 -1 -2 0q-13 11 -27 21v2z" />
    <glyph glyph-name="uni307A" unicode="&#x307a;" 
d="M202 127q-29 2 -31 31q2 29 31 31q29 -2 31 -31q-1 -30 -31 -31zM202 143q15 0 15 14q-1 15 -15 16q-14 -1 -15 -15q1 -14 15 -15zM245 49l1 -2l-16 -26h-3q-39 21 -96 69q-3 3 -10 8q-6 6 -10 8l-1 1q-11 7 -17 4q-3 -2 -8 -7q-3 -3 -5 -4q-12 -11 -21 -22
q-14 -15 -18 -26h-2l-28 25v3q10 1 25 14l2 2q11 9 21 19q2 1 5 4q18 20 34 19q12 0 33 -15l3 -3q4 -3 11 -8q23 -18 37 -27q30 -19 63 -36z" />
    <glyph glyph-name="uni307B" unicode="&#x307b;" 
d="M42 75v-11q0 -10 2 -21t6 -20h2l8 30q8 -1 14 -4q-1 -6 -3 -17q-5 -25 -5 -38v-10l-22 -5h-2q-22 30 -22 83v18q0 33 8 66q1 3 2 10q6 23 6 35v6q5 -1 15 -4q11 -2 17 -4q-12 -27 -21 -72q0 -3 -2 -10q-3 -21 -3 -32zM204 191l3 -23q-8 -3 -24 -5h-1q-2 -8 -2 -16v-20
q9 1 27 4q8 1 11 2l3 -22l-1 -2q-19 -3 -39 -5q0 -5 1 -15q2 -17 4 -44q27 -9 50 -27l-11 -23h-2q-21 16 -37 23q0 -19 -17 -28q-12 -6 -27 -6h-4q-43 4 -46 36q3 29 45 33h4q11 0 20 -2q0 3 -1 9q0 7 -1 10q0 5 -1 19q-1 8 -1 13q-22 -1 -45 -1h-12q-1 0 -3 1l-5 23l1 2
q4 0 12 -1q16 -2 23 -2h10h18v5q-1 18 0 31q-19 -1 -38 -1h-13l-7 24v3q17 -3 34 -3h12q30 0 60 8zM145 31h-4q-6 0 -14 -2q-11 -4 -11 -10q2 -12 18 -14h6q11 0 18 10q4 5 4 17q-4 -1 -12 -1h-5z" />
    <glyph glyph-name="uni307C" unicode="&#x307c;" 
d="M21 202h2q15 -5 30 -8v-3q-6 -3 -9 -15q-1 -3 -1 -4q-5 -14 -10 -42q-1 -3 -1 -4q-6 -27 -6 -53v-15q0 -14 5 -27q6 11 14 23l13 -6q-11 -33 -11 -53v-8q-12 -2 -24 -3q-21 41 -21 84v11q0 15 3 32q3 21 8 41q8 28 8 45v5zM231 146l-16 -11q-10 15 -21 30l14 10
q3 -3 8 -9q11 -12 15 -20zM218 183l13 11q3 -4 9 -11q11 -11 15 -18l-13 -11l-12 15q-8 9 -12 14zM191 191v-24q-12 0 -24 -2q-1 -11 -1 -16v-20q18 2 36 6l3 -24q-19 -3 -39 -5v-6q0 -16 2 -49q-2 24 0 -3q26 -9 53 -30l-14 -22q-17 14 -38 24q-2 -16 -12 -22
q-14 -10 -34 -10h-4q-40 3 -42 31v4q1 16 15 25q9 7 30 7h6q6 0 14 -1v50q-9 -1 -16 -1h-14q-5 0 -15 1h-15l-7 25l2 1q21 -3 44 -4h15h5v16v21q-21 -2 -42 -2h-9l-8 25v3q15 -3 31 -4h12q15 0 44 4q15 1 22 2zM124 34h-4q-21 -2 -22 -14q1 -12 21 -13q9 0 14 4q8 6 9 21
q-9 2 -18 2z" />
    <glyph glyph-name="uni307D" unicode="&#x307d;" 
d="M49 191v-2q-4 -4 -7 -16q-1 -1 -1 -2q-7 -24 -13 -48q-6 -30 -6 -46v-9q0 -22 6 -42q9 14 16 27l11 -3q-5 -16 -8 -33q0 -3 -1 -9q-2 -11 -2 -17v-7l-22 -3q-2 0 -5 7l-1 2q-1 2 -3 7q-5 11 -6 17q-6 23 -6 47v20q0 19 7 56q5 21 6 31q3 12 3 25v4q6 0 16 -3q11 -2 16 -3
zM227 128q-26 2 -28 28q2 26 28 28q27 -1 28 -28q-1 -27 -28 -28zM213 156q1 -13 14 -14q13 1 14 14q-1 13 -14 14q-13 -1 -14 -14zM107 182h12q29 0 66 7l4 -22l-1 -2q-12 -1 -24 -3l-1 -1q-2 -14 -2 -28v-8q18 2 32 5l3 -21q-14 -4 -35 -6q2 -30 5 -58v-1q20 -9 52 -29
l-11 -21l-2 -1q-11 10 -39 25q-1 -16 -12 -24q-12 -10 -31 -10h-5h-3q-40 7 -42 35q3 30 47 34h6q5 0 15 -1q-1 26 -2 49h-15h-22q-12 0 -24 1l-2 1q-1 12 -3 24q23 -3 45 -3h17h3q-1 16 -1 31v5q-21 -1 -42 -1h-9l-8 24q5 0 15 -1h14zM121 31h-6q-17 -1 -18 -13
q1 -11 18 -13h4q12 0 18 9q3 3 5 13v1q-9 3 -21 3z" />
    <glyph glyph-name="uni307E" unicode="&#x307e;" 
d="M122 202l31 -4l1 -1q-4 -6 -5 -12q-1 -2 -2 -15v-7q9 1 28 4q11 1 16 2l-2 -23q-21 -4 -42 -5q0 -5 1 -16v-16h2q23 1 44 8l-3 -24q-17 -5 -41 -7q1 -16 3 -41q-1 4 0 -7q32 -11 57 -31l-13 -19q-13 12 -43 24q-1 -20 -19 -30q-15 -6 -31 -6h-9q-23 0 -38 13
q-16 14 -7 34q5 11 18 16q17 6 35 6h9q5 0 15 -2q-6 2 2 0q0 7 -1 21q-1 13 -1 20v1h-21q-19 0 -37 1l-2 1l-4 22v2q18 -3 37 -4h20h6v14q-1 12 -1 20h-7q-26 0 -50 2l-2 1l-5 23q6 0 18 -2q18 -2 27 -2h19v11q0 6 -2 19q-1 6 -1 9zM100 26h-5q-23 -2 -24 -16q1 -7 9 -10
q7 -2 16 -2h5q13 0 22 5q7 6 7 16v4q-3 0 -10 1q-14 2 -20 2z" />
    <glyph glyph-name="uni307F" unicode="&#x307f;" 
d="M9 31v4q0 12 10 32q8 12 18 21q26 20 57 21h2q4 6 7 12q12 21 25 42l-2 2q-34 -5 -48 -16q-3 5 -8 15l-9 15l1 2h12q18 1 35 4q16 3 31 9h2l26 -25q1 -4 -5 -7l-1 -1q-9 -6 -17 -14q-3 -4 -8 -12q-3 -4 -4 -6q-2 -3 -6 -11q-5 -7 -7 -11q12 -3 22 -6q21 -8 40 -17
q6 28 6 44v7h2l27 -8v-2q-4 -9 -9 -27q-2 -9 -3 -13q-1 -6 -3 -12q24 -13 45 -31l-12 -24h-2q-16 15 -35 29q-2 2 -5 3q-5 -13 -13 -25q-18 -29 -49 -46h-2q-11 11 -21 15v1q32 18 47 35q13 14 19 31q0 1 -1 1q-34 19 -64 24q-12 -24 -25 -46q-24 -43 -51 -37q-23 7 -24 28z
M40 60q-1 -2 -3 -5q-5 -6 -6 -10q-3 -18 9 -19q7 0 13 8q6 6 10 13q12 19 21 40q-25 -3 -44 -27z" />
    <glyph glyph-name="uni3080" unicode="&#x3080;" 
d="M177 148v3l10 17q29 -12 52 -30l-14 -21h-2q-21 17 -46 31zM65 75v5v1v2q-2 10 -8 10q-4 0 -8 -3q-7 -7 -8 -23v-4q1 -15 10 -16q9 1 12 10q2 5 2 18zM60 202l32 -5q-5 -15 -6 -40q21 3 41 8l-3 -27q-19 -3 -39 -5q-1 -1 -1 -11v-11q0 -4 2 -11q1 -3 1 -5q3 -12 2 -25v-9
q0 -15 -6 -27q-2 -3 -2 -6v-4q0 -10 9 -17q5 -5 19 -5h21q14 0 26 3q11 1 16 9q11 12 11 39v5l26 -13v-4q0 -24 -12 -41q-11 -17 -38 -19q-19 -2 -40 -2h-20q-19 0 -29 9q-12 12 -13 29v4q-35 1 -40 42v4q0 19 10 32t35 15q0 -4 1 18q-14 -1 -29 -1h-8q-1 0 -3 1l-6 25
q9 -1 18 -1h23h5v12q-1 8 -1 11v6q0 8 -2 17z" />
    <glyph glyph-name="uni3081" unicode="&#x3081;" 
d="M138 197h4h2l26 -6q-3 -19 -6 -37q34 -2 52 -17q25 -23 26 -58v-6q0 -28 -14 -48t-34 -31q-13 -8 -28 -13q-2 0 -6 5q-1 2 -2 3q-6 6 -14 11q65 16 69 71v4q-1 26 -19 42q-14 11 -35 13q-11 -42 -33 -75q8 -9 18 -16l-20 -18q-2 -1 -2 0l-6 6q-5 4 -7 6q-6 -7 -14 -15
q-26 -23 -46 -23h-4q-27 2 -30 40v5q0 21 14 44q11 18 23 29q-13 22 -23 46l27 14v-5v-2q5 -20 14 -38q36 22 69 25v2q2 10 2 21v4q0 9 -3 17zM133 129q-29 -5 -51 -21q2 -4 8 -12l2 -2q8 -12 17 -22q6 10 12 22q8 17 12 35zM40 41v-4q0 -12 6 -15q5 -3 16 2q11 6 26 21l6 6
q-9 9 -15 19q-7 10 -15 22q-8 -9 -14 -19q-9 -15 -10 -32z" />
    <glyph glyph-name="uni3082" unicode="&#x3082;" 
d="M101 207h5l29 -8v-2q-4 -2 -7 -11q-1 -2 -1 -3q-5 -13 -8 -27q0 -1 -1 -3q0 -3 -1 -4h7h12q11 0 23 2l-6 -25q-1 -1 -3 -1h-22h-17q-1 -7 -2 -19q-2 -14 -3 -22q26 -4 48 -1v-4l-4 -20l-2 -1h-21q-12 0 -24 1v-14v-10q0 -17 10 -26q9 -9 23 -9h5q19 0 30 11q10 11 10 26
v4q0 17 -19 47q-2 4 -3 5l28 2q22 -23 23 -56v-5q-1 -28 -21 -45q-20 -15 -45 -15h-5q-24 1 -43 17q-17 15 -17 46v10q0 8 1 17q-16 4 -33 10l3 24q17 -7 33 -10v2q1 2 1 3q1 4 2 11q2 16 4 24q-12 3 -22 6q-7 1 -7 4l2 24q15 -6 31 -9q1 11 4 21q0 2 1 7q2 12 2 19v7z" />
    <glyph glyph-name="uni3083" unicode="&#x3083;" 
d="M146 159l-14 -13q-14 14 -32 24l14 13l9 -6q15 -11 23 -18zM76 157v-4v-2q3 -4 8 -13q6 -9 8 -14q16 8 34 15q36 16 55 15h5q36 -4 40 -38v-5q-1 -22 -30 -36q-18 -8 -46 -10l-2 1l-10 16v3h11q22 0 35 6q17 8 18 25v4q0 6 -3 9q-4 5 -10 7q-1 0 -4 1h-4q-6 0 -20 -4
q-3 -1 -5 -1q-6 -2 -17 -6q-3 -1 -4 -2q-7 -3 -21 -10q-9 -4 -13 -6q4 -6 10 -20q7 -13 10 -20q13 -26 22 -53l-19 -8q-6 19 -14 37q-13 27 -27 54q-3 -1 -8 -4q-3 -2 -5 -3q-1 -1 -3 -2q-12 -6 -15 -12h-2l-19 18v3q23 6 42 17q-3 6 -10 17q-7 12 -11 17l22 8h2z" />
    <glyph glyph-name="uni3084" unicode="&#x3084;" 
d="M96 181l16 16q23 -12 40 -30l-19 -16q-11 13 -37 30zM68 167v-6v-2q9 -18 18 -35q2 0 4 2q4 2 11 5q26 13 41 18q32 10 50 10h5q19 0 33 -9q17 -12 18 -35v-6q-1 -30 -31 -44q-21 -11 -62 -12l-14 22v2h6q30 0 48 6q32 14 21 39q-8 12 -27 13h-4q-19 0 -51 -14
q-18 -8 -36 -17l-1 -1q3 -5 8 -15q6 -10 8 -15q26 -49 36 -75v-3l-23 -11h-2q-21 54 -49 108l-6 -3q-21 -11 -30 -18l-2 -2q-5 -4 -8 -3l-21 27q15 1 42 15q2 1 3 1q2 1 6 2q3 2 4 2q-4 9 -10 19q-6 13 -16 25l1 2l28 8h2z" />
    <glyph glyph-name="uni3085" unicode="&#x3085;" 
d="M125 186l24 -5q0 -12 3 -24h5q26 0 43 -18q15 -18 15 -39v-4q-1 -29 -20 -48q-18 -17 -42 -17h-4q-6 0 -11 1q-9 -15 -19 -27l-18 8q1 2 4 5q12 13 17 21q-1 0 -3 2q-17 12 -23 31l15 10q5 -18 19 -26q1 3 3 10q1 6 2 9q3 12 3 26v9q0 18 -3 30q-23 -4 -43 -26
q-23 -25 -23 -50v-5q0 -13 5 -25l-19 -8q-13 38 -13 79v14q0 5 1 16q1 12 1 18v5q0 3 -1 8t-1 7l27 -6q0 -2 -2 -6l-3 -6q-3 -16 -3 -46v-14q22 47 71 60q-1 4 -3 13q-3 12 -4 18zM149 50h4q19 1 31 16q10 12 10 29v5q0 18 -15 32q-11 8 -25 9q3 -13 3 -28v-9q0 -28 -11 -54
h3z" />
    <glyph glyph-name="uni3086" unicode="&#x3086;" 
d="M120 197l31 -4l1 -2q0 -2 2 -8q2 -11 4 -21h4q31 0 52 -19q20 -21 21 -51v-7q-1 -29 -19 -52q-22 -25 -54 -26h-4q-8 0 -14 2q-11 -19 -26 -35l-24 13q15 14 26 33q-18 13 -30 28l13 17q9 -12 21 -21l1 -1q1 0 3 -3q9 27 8 56v21q0 9 -1 21q-4 -1 -9 -3q-14 -4 -25 -12
q-26 -17 -37 -43q-8 -16 -8 -33v-8q0 -17 8 -32l-24 -9l-2 2q-9 23 -13 49q-3 18 -3 36v13q0 7 1 21t1 21v13q0 8 -2 25q2 -12 0 3l32 -6q-1 -3 -2 -8q-3 -10 -4 -16q-5 -27 -5 -54v-12q30 60 90 75q-4 19 -13 37zM155 31h5q19 1 33 15q15 17 15 41v6q0 18 -13 32
q-14 13 -34 16q2 -15 2 -29v-17q0 -33 -10 -64h2z" />
    <glyph glyph-name="uni3087" unicode="&#x3087;" 
d="M117 186h3l25 -6q2 -3 1 -5q0 -1 -1 -3q-4 -9 -4 -13v-10v-8q35 1 53 8l6 -22q-16 -4 -47 -6h-10q0 -16 3 -57q6 -1 11 -4q20 -10 42 -27l1 -2l-14 -18l-2 -1q-15 14 -38 29q-2 -13 -15 -24q-12 -10 -32 -10h-6q-15 0 -26 9q-11 10 -11 25q2 27 40 30h14q9 0 18 -2
q0 7 -1 20q-1 14 -2 20q-1 51 -8 77zM93 26h5q28 1 30 23q-3 1 -19 5q-20 3 -29 -3q-8 -6 -5 -16q4 -9 18 -9z" />
    <glyph glyph-name="uni3088" unicode="&#x3088;" 
d="M149 194l1 -2q-6 -12 -6 -32v-12v-5q43 3 70 14l2 -33q-33 -5 -66 -5h-5q0 -3 1 -10q0 -7 1 -10q-1 13 3 -51q32 -11 69 -38l-16 -23h-2q-9 8 -18 13q-16 11 -33 20q-2 -13 -10 -22v-1q-14 -13 -27 -18q-9 -2 -19 -2h-4q-16 0 -33 11q-19 13 -19 30v4q1 15 18 28
q12 8 33 8h9q14 0 28 -3q0 8 -2 24q-1 16 -2 24q-2 21 -2 42v20q0 5 -1 15q-1 11 -1 17q15 -1 31 -3zM92 37h-4q-25 -2 -26 -18q2 -16 24 -19h6q16 0 24 7q9 9 10 20v4q-22 6 -34 6z" />
    <glyph glyph-name="uni3089" unicode="&#x3089;" 
d="M72 189l16 19q27 -11 52 -26v-2l-17 -18q-24 17 -51 27zM51 154l27 -5q-7 -37 -8 -75q36 29 71 29h8q26 0 44 -11q20 -16 21 -38v-5q0 -24 -21 -44q-13 -12 -45 -23q-12 -5 -25 -6l-13 22v2h4q16 3 36 10q33 12 34 35v4q-2 27 -36 30h-5q-21 0 -39 -10q-25 -13 -32 -32
l-29 10q1 12 4 37q4 40 4 59v11z" />
    <glyph glyph-name="uni308A" unicode="&#x308a;" 
d="M85 124v-5q0 -15 4 -24h2l10 16h3l11 -10q-1 -3 -4 -8q-12 -26 -12 -42v-4q-12 -2 -24 -2q-6 12 -10 26q-6 28 -6 45v8q0 12 4 37q4 22 4 33q15 -1 29 -3q-2 -11 -5 -20q0 -1 -1 -3q-5 -28 -5 -44zM155 194l33 3l2 -1q-1 -8 1 -25q1 -6 1 -9q0 -4 2 -11q3 -25 3 -38v-16
q1 -32 -11 -61q-16 -40 -42 -62h-3l-23 11l-1 2q25 24 36 45q16 29 16 68v19q0 46 -14 75z" />
    <glyph glyph-name="uni308B" unicode="&#x308b;" 
d="M52 178h14q45 0 74 10q2 0 4 2q4 1 6 1h1l26 -20v-2q-13 -9 -23 -22q-5 -6 -16 -19q-11 -12 -17 -19q4 0 12 1t11 1h5q26 -1 44 -16q19 -18 19 -42v-4q-1 -31 -30 -50q-23 -15 -50 -15h-4q-46 4 -49 35v4q3 26 34 30h5q24 0 49 -32q15 10 16 30v5q-3 28 -37 31h-5
q-40 -1 -67 -35q0 -1 -1 -2q-3 -4 -5 -5l-24 18v3q50 39 85 93q-36 -2 -55 -12q-1 0 -2 -2q-4 -3 -7 -2l-13 33v2zM119 7h5q7 0 13 2q1 6 -7 12q-13 10 -24 7q-8 -6 -5 -13q5 -8 18 -8z" />
    <glyph glyph-name="uni308C" unicode="&#x308c;" 
d="M71 181v4q0 6 -2 14h3q15 -2 31 -2v-3q-3 -3 -6 -11q-1 -2 -1 -3q-2 -7 -4 -20q-1 -7 -2 -10q1 0 1 1l18 -13q1 -3 -3 -6l-1 -1q-2 -2 -5 -8q-4 -5 -6 -8q5 4 14 13q33 32 57 31h4q9 0 17 -4q7 -4 11 -16v-1v-1v-4q0 -19 -5 -57q-3 -19 -4 -28q-2 -15 1 -21q5 -8 16 -5
q10 3 25 18l2 2l2 2q5 6 9 6l8 -27l-4 -4q-13 -14 -22 -19q-16 -10 -28 -10h-4q-14 1 -23 11q-7 11 -7 30v4q0 16 5 49q1 9 2 13q0 2 1 7q2 9 2 14v4q-2 12 -20 10q-13 -6 -25 -16q-18 -15 -35 -32q-2 -2 -5 -7l-6 -6v-7q0 -17 3 -50q2 -23 2 -35h-29v38q0 12 1 26
q-16 -21 -30 -43h-2l-22 13v2q52 56 61 99l-15 -6q-20 -8 -30 -15l-14 30l1 2q32 0 59 12q1 5 2 15q1 9 1 14q1 8 1 15z" />
    <glyph glyph-name="uni308D" unicode="&#x308d;" 
d="M62 178h6q18 1 35 4q31 3 45 11q1 0 4 2t5 2h3l22 -16v-4q-9 -4 -20 -20q-4 -5 -6 -8q-18 -24 -38 -46q26 8 40 8h4q25 0 45 -12q24 -17 25 -45v-4q-2 -38 -33 -58q-27 -16 -60 -18l-11 24h4q23 0 43 9q27 14 28 40v4q0 14 -12 26q-10 10 -29 10h-5q-34 0 -62 -20
q-15 -11 -41 -39q-4 -5 -6 -7l-24 21q31 26 58 55q36 36 52 68q-7 -2 -21 -5q-18 -5 -27 -8q-1 0 -3 -1q-3 -2 -5 -2l-17 27z" />
    <glyph glyph-name="uni308E" unicode="&#x308e;" 
d="M110 185l1 -2q-5 -11 -5 -23v-9l8 3h2l11 -8q0 -3 -6 -9q-2 -3 -3 -4q-7 -9 -12 -18q13 10 29 16q1 0 2 1q16 6 25 6h5q17 0 33 -14q18 -18 18 -35v-5q-1 -28 -31 -52q-15 -10 -30 -18q-2 -1 -2 0l-17 15q17 6 32 16q24 16 24 37v5q-3 29 -30 32h-4q-9 0 -27 -9
q-1 -1 -2 -1q-17 -8 -29 -20q0 -29 6 -84h-26v61q-4 -6 -12 -17l-12 -18l-19 14q22 24 45 61v2v14q-15 -6 -29 -13l-8 24q20 5 39 12v6q1 5 1 8v14q0 8 -3 16q4 0 11 -2q10 -1 15 -2z" />
    <glyph glyph-name="uni308F" unicode="&#x308f;" 
d="M112 162l16 -11v-2q-6 -6 -10 -12l-6 -9q-7 -13 -12 -18q37 28 68 28h5q26 0 43 -13q23 -18 24 -43v-4q-1 -34 -25 -58q-19 -20 -55 -30h-2l-22 20q24 4 44 17q31 21 31 45v4q0 11 -9 24q-6 9 -17 14q-17 6 -42 -3q-13 -6 -25 -13q-12 -8 -22 -17q2 -52 6 -102h-30v76
q-8 -9 -22 -30q-7 -10 -11 -15h-2l-21 19q33 32 50 61q3 3 6 11q1 2 1 3q1 9 1 18q-4 -2 -14 -5t-15 -5l-2 -1q-4 -3 -6 -2l-10 26v3q25 3 49 10v7q1 9 1 20v9q0 11 -2 21q18 -1 34 -3q0 -7 -4 -15l-3 -15q-2 -11 -3 -16q7 3 13 6z" />
    <glyph glyph-name="uni3090" unicode="&#x3090;" 
d="M152 5h4q6 0 12 1q-4 9 -12 15q-10 9 -21 2q-5 -6 -2 -11q5 -7 19 -7zM147 130h5q31 0 56 -17q25 -18 25 -55v-5q0 -33 -22 -52q-22 -18 -55 -19h-5q-14 0 -28 9q-15 12 -15 24v4q3 25 32 28h5q24 0 45 -31l3 3q13 13 14 33v4q-1 23 -15 37q-15 13 -39 13h-6q-8 0 -17 -2
q0 -1 -1 -2q0 -2 -1 -3q-1 -4 -4 -12q-18 -55 -36 -79q-10 -15 -22 -21q-23 -9 -37 12q-6 11 -6 24v8q0 29 25 58q24 25 62 35h1q8 21 13 43q-4 -1 -13 -2q-27 -5 -40 -14l-14 30v2h9q32 0 71 14h3l24 -13v-3q-2 -2 -6 -8q-2 -3 -3 -5q-9 -18 -16 -39q4 1 8 1zM91 92
q-25 -14 -40 -41q-12 -24 0 -33q10 -7 18 3q9 11 13 25q10 24 20 51q-2 -1 -5 -2z" />
    <glyph glyph-name="uni3091" unicode="&#x3091;" 
d="M130 79q0 8 -9 8q-9 -1 -6 -11q3 -5 8 -5q7 0 7 8zM154 199l22 -18v-3q-4 -3 -11 -9q-25 -20 -37 -31l6 3q12 5 19 5h4q18 0 32 -9q18 -12 19 -30v-4q-2 -25 -26 -39q-21 -11 -51 -11h-5h-5q-27 -9 -49 -27q4 2 7 2q17 0 35 -18q24 36 56 37h5q50 -4 65 -57l-28 -7l-2 1
q-5 21 -14 30q-16 19 -35 14q-10 -5 -18 -14q-9 -14 -10 -32l-30 -3q0 2 -1 6q-2 16 -9 22q-13 11 -29 0q-10 -7 -19 -28l-28 11l-1 2q20 45 85 74q-5 6 -5 14v4v1q3 11 9 15q8 6 18 6q26 -3 26 -29q26 -1 29 26q0 8 -11 16q-22 15 -60 -8q-11 -7 -28 -27l-7 -7h-3l-21 13v3
q45 35 83 78q-7 -2 -21 -5q-17 -3 -25 -6q-1 0 -2 -1q-3 -2 -5 -2l-12 32l11 -2h2h7q14 0 36 4q13 1 30 8h2z" />
    <glyph glyph-name="uni3092" unicode="&#x3092;" 
d="M98 207l32 -8v-2l-6 -8q-2 -4 -5 -13q-3 -5 -4 -8q21 3 41 10v-27q-24 -6 -50 -8q-6 -15 -14 -29q16 8 27 8h5q3 0 8 -2q3 -1 4 -1q8 -5 12 -11q6 -9 7 -20q9 4 17 7q1 0 3 1q11 3 25 10q1 0 3 2q4 4 7 3l21 -24v-2q-43 -10 -72 -20q2 -8 2 -17v-6q0 -4 -1 -13t-1 -14
h-26q0 4 1 11t1 10v10v9q-12 -4 -22 -12q-20 -15 -14 -29q5 -14 34 -14h5q16 0 47 6q-1 0 3 1l3 -30q-5 0 -14 -1q-18 -2 -27 -2h-14q-26 0 -41 9q-21 13 -21 30v4q1 27 29 47q14 9 30 16q-3 16 -11 20q-7 2 -18 -2q-26 -11 -52 -59l-26 11q35 47 54 91h-11h-17l-8 24v2
q11 -2 21 -2h13h12q1 1 1 3q1 1 1 2q6 20 6 31v6z" />
    <glyph glyph-name="uni3093" unicode="&#x3093;" 
d="M232 55l12 -25v-3l-7 -7q-37 -42 -67 -41h-5q-16 0 -27 16q-7 9 -9 34q-1 7 -2 20q-1 14 -2 21q-3 9 -7 9q-6 0 -16 -5q-2 -1 -3 -2q-11 -7 -19 -16q-18 -19 -33 -56q-4 -9 -7 -18l-27 8q12 35 50 100l18 33l6 12q3 5 13 23q14 25 17 41h3l34 -16v-2q-20 -20 -33 -40
q-4 -7 -12 -20l-9 -15q-6 -11 -12 -20q1 1 4 3q4 2 13 7q30 12 42 -7q4 -10 5 -21q0 -3 1 -10q0 -20 3 -30q2 -15 9 -20q9 -7 21 0q15 8 38 37q5 7 8 10z" />
    <glyph glyph-name="uni30A1" unicode="&#x30a1;" 
d="M65 167h115l8 6h3l26 -16v-3q-8 -3 -19 -18q-5 -7 -8 -10q-11 -15 -35 -33q0 -1 -2 0l-21 11v2q29 16 46 43h-113h-12q-9 -1 -14 -1v20q14 -1 26 -1zM111 127l26 -5q0 -4 -3 -9q-1 -2 -2 -3q-3 -12 -6 -23q-12 -43 -55 -77q-2 -2 -7 4l-1 1q-2 2 -7 5q-2 2 -4 3v2
q42 25 53 70q2 8 3 24q1 5 1 8h2z" />
    <glyph glyph-name="uni30A2" unicode="&#x30a2;" 
d="M109 122l35 -5q1 -2 -3 -6q-2 -2 -2 -3q-2 -5 -3 -14q-1 -6 -2 -9q-9 -36 -22 -58q-18 -30 -46 -51h-2q-15 10 -30 17v2q71 36 75 121v6zM16 145v30h3q18 -2 37 -2h142l8 5h5l29 -19q2 -8 -2 -7q-1 -1 -4 -2q-2 -1 -3 -1q-37 -47 -69 -72q0 -1 -2 0q-10 8 -24 15v2
q38 22 54 52h-145h-14q-10 -1 -15 -1z" />
    <glyph glyph-name="uni30A3" unicode="&#x30a3;" 
d="M180 189l21 -19v-3l-9 -2q-3 -3 -8 -10q-16 -19 -25 -28v-88q0 -7 1 -19v-18h-24q1 16 1 34v71q-13 -11 -28 -20q-25 -16 -40 -21h-2l-12 19v2q33 10 67 38q36 28 55 64h3z" />
    <glyph glyph-name="uni30A4" unicode="&#x30a4;" 
d="M191 202h3l29 -27v-2q-16 -6 -39 -30q-5 -6 -8 -9l-9 -9v-44q1 -54 4 -107h-34q0 14 1 43v43v42q-39 -28 -81 -51q-2 -1 -2 0l-21 20v3q39 17 80 48q56 40 77 80z" />
    <glyph glyph-name="uni30A5" unicode="&#x30a5;" 
d="M111 186h4l24 -5q0 -1 -1 -4q0 -3 -1 -4v-24h40q1 0 3 1q4 2 5 1l24 -17v-2l-6 -3q-17 -87 -85 -128q-2 -1 -2 0q-3 3 -9 7q-7 5 -10 7v1q71 34 82 111h-109v-30q0 -12 1 -23h-23v11q1 8 1 12v53q9 -1 18 -1h46v18q0 3 -1 9t-1 10z" />
    <glyph glyph-name="uni30A6" unicode="&#x30a6;" 
d="M141 173v-6q0 -4 1 -10h50q1 0 5 1q4 2 6 1q2 -2 7 -5q13 -8 19 -13q1 -4 -3 -9q-2 -1 -2 -2q-2 -5 -4 -14q-1 -5 -2 -7q-11 -38 -34 -71q-27 -39 -72 -64h-2q-1 1 -4 3q-13 11 -22 14v1q43 21 67 51q28 33 40 87h-135l1 -64h-30q1 18 1 37v28q0 12 -1 26h85v16
q0 14 -2 29q18 -1 35 -3q1 -3 -2 -9q-1 -3 -1 -4v-6q-1 -5 -1 -7z" />
    <glyph glyph-name="uni30A7" unicode="&#x30a7;" 
d="M100 154h55q12 0 37 2q-18 -2 3 0v-25q-6 0 -18 1q-11 1 -16 1h-22v-78h34q20 0 41 2v-25q-8 0 -22 1t-21 1h-87q-7 0 -21 -1t-20 -1v25q21 -2 42 -2h33v78h-21q-7 0 -20 -1q-12 -1 -18 -1v25q20 -2 41 -2z" />
    <glyph glyph-name="uni30A8" unicode="&#x30a8;" 
d="M91 162h76q11 0 33 2q11 1 17 1v-32q-7 0 -21 1q-13 1 -19 1h-32v-93h31q29 0 59 2v-31q-10 0 -30 1t-30 1h-97q-10 0 -29 -1q-18 -1 -27 -1v31q27 -2 54 -2h39v93h-20q-9 0 -27 -1q-17 -1 -25 -1v32q5 0 16 -1q21 -2 32 -2z" />
    <glyph glyph-name="uni30A9" unicode="&#x30a9;" 
d="M161 141h16q18 0 38 2v-26q-7 0 -20 1q-12 1 -18 1h-15v-8q2 -45 2 -67v-10q0 -15 -11 -23q-11 -7 -27 -7h-7q-2 0 -2 1l-7 21l1 2h11q18 2 19 16v36q0 11 -1 31l-3 -8q-4 -6 -14 -19l-1 -1q-13 -16 -29 -27q-15 -11 -32 -19q-2 -1 -3 0l-16 16v2q52 18 80 64h-31
q-7 0 -21 -1t-20 -1v26q20 -2 39 -2h50q-2 21 -2 45q14 -1 27 -3q1 -3 -2 -7q-1 -3 -1 -5v-30z" />
    <glyph glyph-name="uni30AA" unicode="&#x30aa;" 
d="M168 141h9q29 0 59 2v-30q-9 0 -28 1h-29h-11q0 3 0 -12q2 -56 3 -93v-5q-1 -17 -21 -25q-16 -4 -33 -5l-2 1q-2 9 -9 25l-2 4v1h5q15 -1 22 2q10 4 10 13v42q0 -9 -1 35q-12 -19 -37 -42q-31 -29 -60 -41q-4 3 -7 7q-2 3 -7 7q-5 5 -8 7v2q61 23 100 77h-36
q-10 0 -29 -1q-18 -1 -27 -1v31q27 -2 54 -2h56q0 4 -1 11q0 18 -2 45q17 -1 35 -3q0 -2 -1 -5q-2 -7 -2 -10q0 10 0 -38z" />
    <glyph glyph-name="uni30AB" unicode="&#x30ab;" 
d="M114 191h8q4 0 13 -1q10 -1 15 -1q0 -6 -2 -10q-1 -6 -2 -17q-1 -6 -1 -9q-1 -4 -1 -9q14 1 41 2q28 1 41 1q2 -1 3 -3q0 -10 -1 -29q-1 -56 -8 -86t-28 -37q-15 -4 -42 -6q-5 14 -8 29l1 1l26 -1q9 -1 17 11q4 9 7 20q2 11 3 32q1 7 1 11t1 11v10v9q-30 -1 -58 -1
q-4 -22 -12 -43q-14 -33 -42 -63q-11 -12 -32 -25h-2q-12 10 -24 17v2q19 9 40 30q18 18 27 36q11 22 16 46q-9 0 -26 -1q-34 -1 -52 -2v31q15 -2 31 -2h34h17q1 8 1 15v8q0 4 -1 12t-1 12z" />
    <glyph glyph-name="uni30AC" unicode="&#x30ac;" 
d="M219 167l-13 -11q-4 7 -18 19q-6 4 -8 6l13 11q15 -11 26 -25zM242 188l-13 -11q-4 7 -18 19q-6 4 -8 6l13 11q15 -11 26 -25zM101 194h4q8 0 23 -2q6 -1 9 -1q-2 -9 -5 -16q-4 -16 -6 -34h9q34 0 67 2q3 0 4 -3v-14q0 -25 -2 -51q-1 -44 -11 -63q-6 -15 -22 -22
q-14 -7 -47 -8l-3 1q-1 10 -4 20q0 1 -1 4q-1 4 0 6q2 0 6 -1q8 -2 12 -2h5q17 0 26 12q9 9 11 27q4 25 4 60v10h-49h-9q0 -3 -1 -4v-1q-16 -82 -77 -127h-2q-13 8 -27 13l-1 2q37 24 53 49q21 32 29 67q-17 0 -53 -2q-17 -1 -26 -1v28q39 -2 77 -2h6v3q2 15 2 31v7
q0 6 -1 12z" />
    <glyph glyph-name="uni30AD" unicode="&#x30ad;" 
d="M201 162h3l2 -31q-22 -1 -66 -5q31 3 -5 0q3 -16 5 -33q0 -1 1 -3v-2q45 4 90 13h2l3 -31q-16 -1 -47 -4q-21 -2 -31 -3q-2 0 -6 -1q-5 0 -7 -1q2 -20 5 -40q2 -12 6 -32q1 -7 2 -10l-18 -3q-10 -1 -16 -2q-2 42 -8 84q-47 -5 -94 -11l-2 31q47 2 94 7q-1 2 -1 5
q-1 3 -1 5q0 5 -1 14q-1 10 -2 14q-10 -1 -32 -3q-24 -3 -36 -4l-4 28l1 2q34 1 67 4q-3 25 -11 49l38 3q-4 -11 -2 -35q1 -5 1 -8q0 -1 1 -3v-4q35 3 69 10z" />
    <glyph glyph-name="uni30AE" unicode="&#x30ae;" 
d="M213 172l-13 -11q-17 17 -27 24l13 11q10 -7 27 -24zM234 196l-13 -11q-15 15 -24 21l11 11q3 -2 8 -6q13 -9 18 -15zM190 157l2 -30q-10 -2 -29 -4q-18 -3 -27 -4q1 -5 3 -14q3 -16 4 -25q42 6 84 15l5 -28l-84 -12q8 -37 17 -74v-1l-30 -8q-2 21 -11 62q-2 12 -3 17
q-15 -2 -47 -7q-31 -5 -47 -8l-5 30l1 1q48 3 94 9q-1 1 -1 4q-1 3 -1 4q-2 16 -5 31q-11 -1 -34 -5q-22 -3 -34 -5l-1 1l-3 26q34 3 67 9q-4 26 -11 48v2l36 3q1 -3 -1 -9q-2 -5 -2 -8q2 -18 5 -32q6 1 17 3q27 5 41 9z" />
    <glyph glyph-name="uni30AF" unicode="&#x30af;" 
d="M119 202h2l32 -11v-2q-6 -3 -11 -14q-2 -3 -3 -5q-2 -5 -5 -8h13h36q9 0 16 3h2q15 -10 27 -22v-2l-9 -10l-2 -1q-6 -12 -13 -23q-43 -77 -113 -120q-12 -7 -26 -13h-2q-17 13 -30 18q106 42 151 143h-70q-9 -13 -20 -24q-16 -16 -36 -30q-9 5 -20 9q-1 0 -2 1q-6 1 -8 4
q67 40 91 107z" />
    <glyph glyph-name="uni30B0" unicode="&#x30b0;" 
d="M217 170l-13 -11q-17 17 -27 24l13 11q10 -7 27 -24zM238 194l-13 -11q-15 15 -24 21l11 11q3 -2 8 -6q13 -9 18 -15zM130 186v-3q-6 -4 -13 -18q-3 -4 -4 -6q0 -1 -1 -2q0 -1 -1 -2q35 -3 54 2q3 0 6 2h2l26 -18v-3q-7 -3 -12 -16l-3 -6q-24 -60 -49 -87
q-27 -32 -64 -55q-1 -1 -4 -2q-5 -4 -9 -4q-6 10 -24 19v1q95 48 127 142h-66q-21 -30 -50 -53q-1 -1 -3 0q-10 6 -24 11v2q45 30 69 78q8 15 11 31q13 -1 32 -13z" />
    <glyph glyph-name="uni30B1" unicode="&#x30b1;" 
d="M93 199h3l31 -10q0 -3 -3 -7q-2 -3 -3 -4l-11 -22q-4 -11 -7 -16q0 -1 -1 -2q-1 -2 -2 -3h82q32 0 65 2v-29q-9 0 -27 1h-26h-15q-5 -41 -26 -74q-23 -35 -58 -59h-2q-13 8 -27 14v2q38 26 54 47q22 29 28 70h-64q-23 -29 -50 -53l-2 1l-5 5q-11 9 -17 13q67 53 83 124z
" />
    <glyph glyph-name="uni30B2" unicode="&#x30b2;" 
d="M223 172l-13 -11q-3 3 -9 8q-11 11 -18 16l13 11q7 -5 18 -16q6 -5 9 -8zM244 196l-13 -11q-3 2 -8 7q-10 10 -16 14l11 11q2 -2 7 -5q13 -10 19 -16zM120 183v-2q-6 -4 -11 -19q-2 -5 -3 -8q-4 -10 -9 -19h78q13 0 41 2q14 1 21 1v-29q-10 0 -30 1t-30 1h-8
q-3 -46 -17 -72q-16 -30 -53 -57h-2q-12 8 -25 14v2q9 4 26 19l5 5q14 14 21 27q15 27 16 62h-58q-3 -4 -6 -9q-18 -25 -41 -44q-2 -1 -2 0q-3 3 -10 8q-6 5 -10 7v2q44 37 64 89q0 1 2 5q5 15 6 25q8 -1 24 -7q7 -3 11 -4z" />
    <glyph glyph-name="uni30B3" unicode="&#x30b3;" 
d="M73 165h70q33 0 66 1v-98q0 -34 1 -68h-30v11q-67 0 -133 -2v31q20 -1 39 -1h33q30 0 61 1v95h-77q-10 0 -29 -1h-27v33q12 -2 26 -2z" />
    <glyph glyph-name="uni30B4" unicode="&#x30b4;" 
d="M210 170l-14 -13q-2 2 -6 7q-11 13 -18 19l14 11q17 -15 24 -24zM196 202l12 13q15 -9 25 -22l-12 -15q-14 17 -25 24zM189 -2h-30v6q-23 -1 -68 -1q-45 -1 -68 -1v30q30 -1 58 -1h23q28 0 55 2v95q-23 -1 -68 -1q-45 -1 -68 -1v29q27 -1 53 -1h52q30 0 59 2q1 -26 1 -79
q1 -53 1 -79z" />
    <glyph glyph-name="uni30B5" unicode="&#x30b5;" 
d="M187 179v-38q0 -6 0 -3q30 0 59 2v-31q-8 0 -22 1t-21 1h-17q-2 -41 -12 -68q-16 -40 -56 -70h-2q-11 8 -22 14v3q59 45 65 103q0 3 1 10v8h-58v-66h-31q0 8 1 24q1 17 1 26v16h-15q-8 0 -24 -1t-23 -1v32q5 0 16 -1q21 -2 32 -2h14v30q0 5 -2 17q-1 6 -1 9q16 -2 34 -2
q0 -2 -1 -7q-1 -4 -1 -7v-40h59v3q0 13 -3 41q-1 10 -2 15q16 -1 34 -3q0 -2 -1 -7q-2 -5 -2 -8z" />
    <glyph glyph-name="uni30B6" unicode="&#x30b6;" 
d="M232 165l-13 -11q-17 17 -27 24l13 11q10 -7 27 -24zM253 189l-13 -11q-15 15 -24 21l11 11q3 -2 8 -6q13 -9 18 -15zM67 197l31 -3q0 -3 -1 -9t-1 -9v-41h59q0 4 0 3v13q0 14 -4 43q4 -21 0 3h7q6 0 19 -2q5 -1 7 -1q1 -5 -3 -13v-46q30 0 59 2v-26q-10 1 -29 2
q-20 1 -30 1q-1 -2 -1 -9q-1 -6 -1 -9q-1 -26 -11 -50q-19 -41 -67 -73h-2l-19 21q25 10 45 35q21 24 26 57q-1 -7 4 28h-59v-69h-29q2 27 2 55v14h-7q-13 0 -39 -2q-13 -1 -20 -1v26q30 -2 60 -2h6v41q0 11 -2 21z" />
    <glyph glyph-name="uni30B7" unicode="&#x30b7;" 
d="M20 111l16 22q28 -14 52 -32q-3 -3 -8 -11q-6 -7 -9 -11h-2q-28 21 -49 30v2zM120 162l1 -2q-1 -2 -3 -5q-8 -13 -13 -19q-31 26 -50 36v1q9 9 16 20q27 -12 49 -31zM236 110l-1 -3q-27 -27 -58 -50q-46 -35 -82 -54q-3 -2 -9 -4q-14 -6 -20 -11l-3 -3q-3 -4 -6 -3
q-4 5 -12 16l-12 15v2q57 14 112 53q50 34 78 67h2q5 -13 11 -25z" />
    <glyph glyph-name="uni30B8" unicode="&#x30b8;" 
d="M54 170l16 19q20 -9 51 -35l-19 -19q-22 20 -48 35zM16 108l17 19h2q3 -2 8 -5q26 -15 38 -27l-21 -21q-20 19 -44 34zM230 119l11 -24v-2q-35 -33 -76 -57q-35 -22 -90 -42q-3 -2 -10 -4q-9 -2 -13 -5q-1 0 -4 -3q-2 -3 -4 -3l-16 34l2 2q13 2 26 6q19 5 54 21
q21 9 42 21q42 23 78 56zM160 145v2l13 13h2q12 -9 24 -19l2 -2q2 -2 2 -3q-1 -2 -2 -3q-6 -6 -12 -10q-2 -1 -2 0q-4 4 -13 11q-9 8 -14 11zM184 170l12 14q5 -1 13 -7q3 -3 5 -4q2 -2 6 -5l6 -6v-2l-13 -13q-2 -1 -2 0q-13 11 -27 21v2z" />
    <glyph glyph-name="uni30B9" unicode="&#x30b9;" 
d="M186 177l23 -15q2 -1 1 -4v-1q-4 -4 -9 -7q-2 -2 -5 -7q-1 -2 -2 -3q-12 -22 -27 -43q-3 -4 -6 -9q16 -13 31 -27q24 -22 44 -46v-2q-12 -10 -22 -21h-2q-32 39 -68 75l-5 -5q-2 -3 -9 -9q-34 -35 -85 -59h-2q-11 9 -23 18v1q101 45 135 120q4 6 4 13h-59q-7 0 -22 -1
t-23 -1v31q30 -2 58 -2h47q9 0 16 3q1 0 3 1q5 2 7 0z" />
    <glyph glyph-name="uni30BA" unicode="&#x30ba;" 
d="M230 170l-13 -11q-17 17 -27 24l13 11q10 -7 27 -24zM251 194l-13 -11q-15 15 -24 21l11 11q3 -2 8 -6q13 -9 18 -15zM170 170l24 -21v-2q-3 -2 -6 -8q-2 -3 -3 -4q-16 -32 -38 -59q43 -28 76 -66l-24 -23q-3 3 -8 9q-40 41 -64 60q-45 -42 -91 -63q-1 0 -3 -1
q-4 -2 -7 -2q-4 8 -17 18q-3 2 -4 3v2q20 7 36 16q80 43 112 109h-48q-11 0 -33 -1t-33 -1v28q35 -1 69 -1h17q14 0 26 2q6 0 12 3q1 1 3 1q1 1 2 1h2z" />
    <glyph glyph-name="uni30BB" unicode="&#x30bb;" 
d="M88 194h17h7q6 -1 9 -1q0 -4 -3 -10q-2 -5 -2 -8v-46q39 8 79 15q4 0 10 6q1 1 3 2q1 2 2 2h1l30 -19v-2q-8 -6 -20 -24q-3 -4 -4 -6q-20 -25 -41 -48q-5 1 -14 6q-3 2 -5 3q-1 0 -2 1q-7 0 -8 4q32 25 47 51l-1 1q-15 -3 -43 -9q-23 -5 -34 -7v-13q0 -28 2 -55
q2 -17 21 -19h38q8 0 24 1q17 1 26 1v-28h-90q-20 0 -32 11q-13 13 -14 31q-2 14 -2 29v36l-18 -3q-12 -3 -18 -4q-21 -4 -28 -10q-4 15 -9 31l1 2q28 2 55 7q8 2 17 3v34v17q-1 12 -1 18z" />
    <glyph glyph-name="uni30BC" unicode="&#x30bc;" 
d="M227 166l-10 -15q-4 3 -11 9q-13 11 -21 15l12 14q2 -1 5 -4q17 -11 25 -19zM209 197l10 13q17 -10 30 -24l-12 -13q-4 3 -12 11q-10 9 -16 13zM73 189l33 -3q0 -1 -1 -2q-2 -6 -3 -15v-47q11 2 31 5q21 3 31 4q16 2 26 7q3 2 6 3h2l27 -19v-3q-8 -5 -19 -22q-3 -6 -5 -8
q-18 -26 -40 -47q-2 -1 -3 0l-24 12v1q31 24 46 54q-39 -7 -78 -13v-64q1 -15 23 -17h34q11 0 23 2q10 1 32 4q-14 -2 5 1v-31q-6 0 -18 -1h-16h-60q-26 0 -37 9q-13 9 -13 35v58q-8 -1 -25 -3t-25 -4q-1 0 -4 -1q-4 -2 -7 -2l-6 30l1 2h13q18 0 36 3q8 0 17 2v54q0 4 -2 13
q2 -6 0 3z" />
    <glyph glyph-name="uni30BD" unicode="&#x30bd;" 
d="M27 159l24 15q27 -28 48 -63l-24 -16h-2q-20 34 -46 64zM193 181h2l35 -19v-3q-12 -8 -21 -31q-2 -5 -3 -7q-16 -38 -42 -70q-21 -25 -45 -45q-16 -12 -36 -22h-2l-4 4q-3 4 -10 9q-1 1 -3 2q-4 1 -5 3q20 8 36 22q36 28 53 51q16 19 30 52t15 54z" />
    <glyph glyph-name="uni30BE" unicode="&#x30be;" 
d="M15 150v2l22 14h2q24 -26 42 -55q-13 -7 -26 -16q-18 29 -40 55zM169 167h3l32 -16q0 -3 -4 -7l-3 -3q-1 -3 -4 -9q-2 -7 -4 -10q-32 -74 -85 -118q-18 -14 -39 -25h-2q-1 1 -4 3q-11 11 -19 14l1 2q31 15 47 29q20 16 35 37q38 47 46 103zM180 178l12 14q17 -9 31 -19
l-11 -16q-7 6 -23 15zM201 205l8 13q13 -5 32 -21l-10 -14q-13 12 -30 22z" />
    <glyph glyph-name="uni30BF" unicode="&#x30bf;" 
d="M117 205h2q15 -6 30 -11v-3q-9 -5 -16 -21h53l8 3h3q2 -1 6 -4q14 -8 20 -15v-2q-10 -11 -16 -23q-3 -6 -8 -18q-3 -6 -4 -9q-19 -42 -52 -76q-32 -31 -71 -52h-2q-3 2 -7 5l-9 6q-1 1 -3 2q-5 3 -6 5q60 30 94 72q-20 17 -44 29l19 18q30 -13 43 -24q15 24 24 54v2h-63
q-27 -41 -57 -64q-2 -1 -3 0l-24 16q67 49 83 110z" />
    <glyph glyph-name="uni30C0" unicode="&#x30c0;" 
d="M223 173l-13 -14q-18 20 -30 30l14 13q16 -14 29 -29zM204 205l13 12q15 -12 27 -26l-13 -13q-16 19 -27 27zM90 202h2q15 -7 30 -13v-3q-5 -4 -11 -15l-3 -6q-1 -3 -3 -6h27h22q9 0 14 4q1 0 3 1q3 2 4 1l27 -19v-3q-8 -6 -16 -23q-1 -1 -1 -2q-23 -54 -52 -84
q-33 -36 -88 -61q-2 1 -5 5l-3 3q-6 7 -14 13v1q34 10 68 37q15 11 27 25q-13 11 -45 27q-3 2 -5 3l16 19q20 -6 51 -26q3 5 6 9q18 27 20 46h-72q-23 -30 -50 -56q0 -1 -2 0l-24 12l-1 2q63 49 78 109z" />
    <glyph glyph-name="uni30C1" unicode="&#x30c1;" 
d="M191 199l21 -24v-2q-7 -1 -21 -6q-11 -4 -17 -5q-9 -3 -18 -4v-27v-15q42 1 86 5v-34q-10 0 -30 1q-19 1 -28 1h-31q-3 -27 -9 -40q-15 -37 -55 -68l-2 -2q-5 -3 -7 -3h-1q-1 1 -4 2q-14 11 -23 13v1q32 21 47 37q20 23 25 60h-43q-11 0 -33 -1t-33 -1v30h56q37 -1 55 -1
q1 13 1 25v12q-32 -4 -64 -6q-3 1 -5 6q-1 2 -2 3q-1 3 -5 8q-3 5 -5 7l1 2h14q33 0 68 5q35 4 54 17q1 0 2 2q3 3 6 2z" />
    <glyph glyph-name="uni30C2" unicode="&#x30c2;" 
d="M237 151l-14 -10q-10 14 -24 26l14 11q17 -15 24 -27zM255 173l-12 -13q-10 14 -22 26l11 12q14 -10 23 -25zM170 191l20 -20q1 -2 1 -6q-8 -1 -24 -4q-7 -1 -10 -2q-9 -1 -16 -3v-39h36q27 0 54 2v-29q-15 0 -45 1q-29 1 -43 1h-2q-4 -40 -22 -64q-21 -28 -61 -52h-3
l-21 19q51 27 70 61q8 13 9 34q0 4 0 2h-5q-24 0 -71 -2q-23 -1 -35 -1v30q29 -2 59 -2h53v6q0 7 -2 19q-1 6 -1 9q-32 -3 -64 -5l-13 27h32q27 0 56 5q23 4 45 13h3z" />
    <glyph glyph-name="uni30C3" unicode="&#x30c3;" 
d="M84 109l-24 -8q-6 23 -19 45l24 7q1 -2 3 -7q8 -15 16 -37zM101 162l24 5q11 -22 15 -45l-24 -5q-8 29 -15 45zM188 167l27 -10v-3q-6 -4 -11 -18q-2 -5 -3 -8q-6 -17 -16 -32q-13 -23 -32 -42q-19 -22 -55 -45q0 -1 -2 0l-17 17q48 25 73 59q28 37 33 82h3z" />
    <glyph glyph-name="uni30C4" unicode="&#x30c4;" 
d="M43 94l-1 1q-9 30 -22 59q6 1 16 4l12 3q12 -22 23 -60q-1 0 -4 -1q-10 -2 -24 -6zM95 170l27 5q14 -28 18 -58q-14 -4 -29 -6q-5 30 -16 59zM199 173h3q18 -9 34 -19v-3l-8 -5q-1 -2 -3 -7q-3 -11 -6 -16q-28 -61 -60 -89q-28 -27 -75 -52h-2l-22 18v2q120 56 139 171z
" />
    <glyph glyph-name="uni30C5" unicode="&#x30c5;" 
d="M54 103l-25 -11l-2 1q-3 11 -8 21q-1 3 -4 11q-7 17 -12 26q5 1 13 3q9 2 13 3q12 -20 25 -54zM122 118l-28 -8l-1 1q-1 4 -3 11q-9 30 -17 45l28 7l2 -1q1 -3 4 -10q12 -29 15 -45zM179 165h2l30 -19v-3q-9 -3 -14 -17q-7 -18 -16 -34q-10 -19 -24 -36q-23 -31 -55 -53
q-19 -13 -41 -22h-2q-9 12 -22 19v1q19 5 35 16q39 22 64 58q14 18 25 39q14 24 18 51zM192 175l13 13q18 -11 27 -21l-11 -13q-6 6 -20 15zM211 199l13 11h3q2 -1 5 -3q15 -10 21 -16l-13 -13q-17 16 -29 21z" />
    <glyph glyph-name="uni30C6" unicode="&#x30c6;" 
d="M106 185h43q23 0 44 2v-30h-18q-12 1 -19 1h-48h-24q-16 -1 -24 -1v29q24 -1 46 -1zM92 125h72q36 0 72 2v-34q-10 0 -30 1h-30h-25q-1 -19 -5 -34q-13 -51 -73 -87h-2q-2 1 -5 4q-12 9 -19 13v2q36 15 51 36q21 26 21 61v5h-30h-34q-23 -1 -35 -1v34q36 -2 72 -2z" />
    <glyph glyph-name="uni30C7" unicode="&#x30c7;" 
d="M82 181h42q27 0 52 2v-29q-6 0 -19 1q-14 1 -21 1h-51q-7 0 -21 -1t-21 -1v29q20 -2 39 -2zM227 164l-13 -11q-17 17 -27 24l13 11q10 -7 27 -24zM248 188l-13 -11q-15 15 -24 21l11 11q3 -2 8 -6q13 -9 18 -15zM67 125h94q30 0 58 2v-31q-10 0 -30 1t-31 1h-22
q0 -3 -1 -9q-3 -23 -7 -35q-15 -48 -64 -75h-2q-10 9 -23 16v2q28 11 46 33q22 26 22 65v3h-36q-14 0 -42 -2q-14 -1 -21 -1v32q30 -2 59 -2z" />
    <glyph glyph-name="uni30C8" unicode="&#x30c8;" 
d="M77 199l36 -2q0 -5 -4 -14q-1 -2 -1 -3v-2v-63l13 14q28 -13 57 -39l1 -2l-18 -25h-2q-26 27 -51 42v-23q0 -21 3 -62q2 -29 2 -44h-34q2 37 2 82q0 38 -1 113q0 14 -3 28z" />
    <glyph glyph-name="uni30C9" unicode="&#x30c9;" 
d="M178 158l-13 -11q-3 3 -9 8q-11 11 -18 16l13 11q7 -5 18 -16q6 -5 9 -8zM199 182l-13 -11q-3 2 -8 7q-10 10 -16 14l11 11q2 -2 7 -5q13 -10 19 -16zM58 202l35 -4q0 -3 -2 -7q-3 -7 -3 -10v-68q6 9 13 17q26 -12 58 -41q-4 -5 -10 -15q-5 -7 -8 -11h-2q-3 3 -10 9
q-25 25 -41 35v-52q0 -39 2 -76h-32q0 7 1 20q2 25 2 39v138q0 5 -2 17q-1 6 -1 9z" />
    <glyph glyph-name="uni30CA" unicode="&#x30ca;" 
d="M149 157v-24h9q19 0 55 2q18 1 27 1v-32q-10 0 -31 1q-22 1 -33 1h-27q-2 -27 -10 -49q-11 -31 -34 -55q-12 -14 -28 -26q-1 -1 -6 2q-1 2 -2 2q-9 6 -20 11l-1 2q39 22 57 59q11 23 15 54h-30q-16 0 -49 -2q-17 -1 -25 -1v32q37 -2 73 -2h31v5q0 19 -6 56q21 -1 40 -3
q0 -3 -2 -9q-2 -3 -2 -4q-1 -10 -1 -21z" />
    <glyph glyph-name="uni30CB" unicode="&#x30cb;" 
d="M109 163h60q14 0 29 2v-32q-7 0 -22 1t-23 1h-45q-8 0 -25 -1t-26 -1v31q25 -1 52 -1zM93 45h68q35 0 69 2v-34q-11 0 -33 1t-33 1h-71q-11 0 -33 -1t-33 -1v34q33 -2 66 -2z" />
    <glyph glyph-name="uni30CC" unicode="&#x30cc;" 
d="M196 178l29 -19v-2q-6 -6 -10 -14l-18 -30q-12 -20 -25 -38q22 -15 43 -33l-23 -22q-19 17 -39 33l-5 -5q-10 -10 -16 -15q-33 -29 -74 -46h-2q-12 11 -25 18v2q56 20 98 63q-26 19 -56 37l16 19q32 -16 60 -35q9 12 17 25q11 15 17 33h-70q-7 0 -22 -1t-23 -1v27
q59 -2 117 1l8 3h3z" />
    <glyph glyph-name="uni30CD" unicode="&#x30cd;" 
d="M170 74l16 19h2q18 -9 26 -15q3 -3 10 -7q4 -3 16 -13l-19 -21q-24 19 -51 37zM152 165v-14h11h2q9 2 17 6h2l24 -18v-3q-12 -9 -22 -20q-14 -17 -32 -29v-56q0 -12 2 -34q1 -12 1 -18h-32q2 22 2 44v37v8q-29 -20 -62 -35q-20 -10 -31 -11q-4 8 -12 15l-2 1q-4 4 -4 7
q43 12 82 35q39 21 60 45h-31h-39q-26 -1 -40 -1v27h77v14q0 14 -3 29q17 -1 33 -3q0 -5 -2 -14q-1 -8 -1 -12z" />
    <glyph glyph-name="uni30CE" unicode="&#x30ce;" 
d="M180 183h3l32 -16v-3q-9 -7 -18 -27q-3 -5 -4 -8q-23 -44 -55 -80q-34 -39 -67 -59h-3q-4 3 -12 8q-9 5 -13 8l-1 1q79 46 124 138q9 18 14 38z" />
    <glyph glyph-name="uni30CF" unicode="&#x30cf;" 
d="M31 25h-2q-12 8 -25 12v2q28 30 42 52q17 26 25 63q8 -2 25 -8l9 -3q-1 -3 -5 -10q-1 -3 -2 -4q-6 -13 -12 -25q-22 -44 -55 -79zM253 52v-2l-26 -17h-2q-3 6 -10 19q-34 62 -55 93l23 12h2q23 -28 59 -90z" />
    <glyph glyph-name="uni30D0" unicode="&#x30d0;" 
d="M76 146h3l29 -16v-3q-6 -5 -15 -20q-3 -5 -5 -8q-27 -45 -60 -69q-1 -1 -3 0l-21 18v2q53 40 72 96zM223 37h-2q-29 51 -68 96l22 16q43 -44 77 -94q-6 -3 -18 -11q-7 -5 -11 -7zM188 170l11 11q8 -6 21 -19l5 -5l-13 -11q-7 9 -24 24zM249 178l-13 -13q-17 17 -27 24
l13 13l2 -2q17 -13 25 -22z" />
    <glyph glyph-name="uni30D1" unicode="&#x30d1;" 
d="M75 149l32 -16v-3q-6 -5 -14 -18q-2 -3 -3 -5q-26 -44 -68 -73l-19 22q58 44 70 93h2zM152 135l24 15q44 -42 74 -94v-3l-25 -17l-2 1q-3 4 -8 13q-35 60 -63 85zM224 215q27 -2 29 -29q-1 -28 -29 -29q-27 2 -29 29q2 27 29 29zM240 186q-1 15 -16 16q-15 -1 -16 -16
q1 -15 16 -16q16 1 16 16z" />
    <glyph glyph-name="uni30D2" unicode="&#x30d2;" 
d="M45 189h4l30 -6q0 -2 -1 -4q-1 -1 -1 -2q-1 -4 -1 -9v-56q15 2 42 12q39 13 61 27h2q8 -9 15 -18l1 -1q4 -6 4 -10q-7 -1 -20 -6q-7 -2 -10 -3q-60 -21 -95 -29v-29q0 -17 4 -23q7 -12 22 -12h27q49 0 83 6v-32q-7 0 -19 -1t-18 -1h-69q-26 0 -43 14q-14 11 -14 37v112
q0 17 -4 34z" />
    <glyph glyph-name="uni30D3" unicode="&#x30d3;" 
d="M161 173l13 12q12 -8 27 -26q2 -2 0 -2l-12 -13q-13 15 -28 29zM182 194l14 11q17 -10 29 -24l-13 -14q-17 20 -30 27zM62 168v-59q20 4 39 10q1 0 3 1q25 7 36 14q8 3 18 12h2l20 -26q2 -2 0 -6h-4h-2q-12 -4 -25 -9q-42 -15 -87 -22v-20q0 -29 12 -37q4 -3 12 -3h43
q16 0 48 4q16 1 24 2l-3 -31q-8 0 -23 -1q-33 -2 -51 -2h-33q-16 0 -29 3q-18 5 -23 16q-3 8 -3 17v74q0 20 -3 61q-1 13 -2 20q18 -1 35 -3q0 -2 -2 -7t-2 -8z" />
    <glyph glyph-name="uni30D4" unicode="&#x30d4;" 
d="M195 191q-12 -1 -14 -14q1 -13 14 -14q13 2 14 14q-2 12 -14 14zM195 205q26 -2 28 -28q-2 -26 -28 -28q-27 2 -29 28q2 26 29 28zM34 183h4q4 0 14 -1t15 -1q0 -4 -2 -11q-1 -2 -1 -3v-60q23 5 46 13q26 9 50 23h1h2q3 -2 9 -9q4 -5 6 -7q1 -1 2 -3q4 -4 4 -7l-9 -1
q-18 -9 -37 -15q-36 -13 -74 -21v-35q0 -14 13 -19q6 -2 23 -2h6h21q17 0 53 3q12 1 18 2l-3 -29q-7 0 -21 -1q-13 -1 -19 -1h-73q-20 0 -31 6q-13 8 -15 31q-1 9 -1 19v98v15q-1 10 -1 16z" />
    <glyph glyph-name="uni30D5" unicode="&#x30d5;" 
d="M87 165h66q30 -1 43 5h1l26 -15q1 -1 1 -3q0 -5 -4 -8t-8 -12q-1 -4 -2 -6q-24 -53 -63 -89q-28 -27 -75 -50h-3l-24 18v2q104 44 138 134h-105h-22q-16 -1 -24 -1v26q28 -1 55 -1z" />
    <glyph glyph-name="uni30D6" unicode="&#x30d6;" 
d="M73 157h61q14 0 28 2q1 0 4 1q4 2 7 2h1l25 -21q0 -3 -4 -9q-1 -3 -2 -4q-4 -15 -11 -28q-9 -18 -17 -30q-14 -23 -34 -41q-33 -29 -73 -49h-2l-24 18v2q108 52 130 130h-94h-27q-18 -1 -28 -1v29q30 -1 60 -1zM195 194l26 -24l-13 -13l-27 26zM243 189l-14 -11l-26 24
l13 11z" />
    <glyph glyph-name="uni30D7" unicode="&#x30d7;" 
d="M65 157h88q4 0 11 3q3 1 5 2h2l25 -20q0 -3 -3 -7q-2 -2 -2 -4q-4 -12 -9 -24q-6 -14 -13 -26q-13 -22 -31 -42q-29 -31 -67 -50q-3 -1 -8 -4q-8 -4 -12 -5q-3 0 -8 5l-3 3q-9 6 -17 11v1q100 35 137 131h-94q-9 0 -27 -1h-25v29q26 -2 51 -2zM213 213q28 -2 30 -30
q-2 -27 -30 -29q-27 2 -29 29q2 28 29 30zM227 183q-1 13 -14 14q-12 -1 -13 -14q1 -12 13 -13q14 1 14 13z" />
    <glyph glyph-name="uni30D8" unicode="&#x30d8;" 
d="M32 63l-24 22v2q21 11 56 42q7 5 10 8q1 1 4 3q11 9 18 9q9 0 24 -10q3 -3 5 -4q8 -5 23 -16q63 -46 100 -64v-2l-17 -29h-2q-52 35 -101 76l-4 4q-12 11 -20 14q-10 4 -26 -12l-1 -1q-27 -29 -42 -42q-1 -1 -3 0z" />
    <glyph glyph-name="uni30D9" unicode="&#x30d9;" 
d="M31 63l-21 25v2q29 19 57 40q1 1 5 3q12 10 19 12q10 4 27 -7q11 -7 33 -22q9 -7 14 -10q49 -36 82 -53l-16 -30h-2q-40 28 -79 59q-6 5 -18 14q-7 6 -10 8q-2 1 -6 4q-8 7 -12 8q-12 3 -21 -5l-12 -12q-9 -7 -13 -11q-13 -13 -27 -25zM170 159l14 10q14 -11 26 -23
l-13 -13q-5 6 -17 16zM234 165l-13 -14l-9 9q-11 13 -18 18l12 12q15 -12 28 -25z" />
    <glyph glyph-name="uni30DA" unicode="&#x30da;" 
d="M251 54v-2l-20 -27h-3q-6 2 -18 10q-5 4 -7 5q-25 16 -71 55q-11 9 -17 14l-2 2q-8 6 -13 6q-4 0 -11 -6l-3 -3q-5 -5 -15 -13q-5 -5 -8 -7q-4 -4 -12 -11q-9 -8 -13 -12l-2 -2q-4 -6 -8 -5l-23 24v2q26 15 48 33q12 9 22 18q8 7 17 10q13 4 32 -10l9 -6q3 -2 14 -11
q61 -49 104 -64zM202 195q27 -2 29 -29q-1 -29 -29 -30q-28 2 -30 30q2 27 30 29zM217 166q-1 14 -15 15q-14 -1 -15 -15q0 -15 15 -15t15 15z" />
    <glyph glyph-name="uni30DB" unicode="&#x30db;" 
d="M60 90l27 -13v-3q-6 -5 -15 -18q-4 -5 -6 -8q-13 -19 -31 -36q0 -1 -2 0t-6 4q-5 4 -9 6h-1q-6 2 -8 6q34 27 51 62zM173 72l18 19h2q29 -25 54 -52v-2l-22 -19h-2q-2 3 -6 8q-27 32 -44 46zM110 191l38 -2q0 -3 -2 -8q-2 -6 -2 -9v-32h39q24 0 48 1v-28h-24q-17 1 -26 1
h-37v-17q0 -15 1 -45v-44v-5v-1q-3 -10 -9 -14q-4 -3 -10 -5q-12 -4 -30 -4h-4q-3 12 -8 23q-3 6 -1 8q16 -2 24 0t9 12v71q0 -5 0 21h-44h-24q-16 -1 -25 -1v28q23 -1 44 -1h48v6q-2 29 -5 45z" />
    <glyph glyph-name="uni30DC" unicode="&#x30dc;" 
d="M61 93h2l26 -14v-2q-4 -4 -10 -13q-5 -6 -7 -9q-15 -21 -34 -40q-3 -1 -8 3l-2 2q-3 2 -12 6q-2 1 -3 1v2q36 35 48 64zM169 77l19 15q28 -24 47 -55l-20 -17h-2q-3 5 -10 14q-20 29 -34 43zM179 173l12 11q14 -10 25 -22l-10 -13q-17 17 -27 24zM203 197l12 12
q16 -10 28 -23l-13 -13q-12 14 -27 24zM112 191h4q5 0 15 -1t15 -1q1 -2 -1 -6l-1 -1q-1 -5 -1 -10v-32h35q24 0 46 1v-30h-21q-14 1 -22 1h-38v-75q0 -3 1 -10q3 -21 -5 -28q-4 -5 -16 -9h-1q-5 -1 -17 -2q-6 -1 -9 -1l-8 26v2h16q13 1 14 18v79h-42h-25q-18 -1 -27 -1v30
q26 -1 50 -1h44q-3 40 -6 51z" />
    <glyph glyph-name="uni30DD" unicode="&#x30dd;" 
d="M59 90h3l24 -12q2 -2 0 -5q-6 -4 -13 -15q-3 -4 -4 -6q-10 -14 -33 -36q-2 -1 -2 0l-23 16v2q26 21 48 56zM169 77l18 17q25 -19 51 -55q-15 -15 -20 -23h-2q-22 32 -47 61zM187 189q2 27 30 29q27 -2 29 -29q-1 -28 -29 -30q-28 2 -30 30zM233 188q-1 15 -16 16
q-16 -1 -17 -16q0 -15 17 -16q15 1 16 16zM112 189h4q6 0 19 -2q7 -1 10 -1q0 -3 -1 -8q-2 -6 -2 -9v-31h46q18 1 34 2l3 -29q-8 0 -24 1t-24 1h-35v-96q0 -21 -15 -28q-8 -3 -26 -4q-5 -1 -7 -1q-4 10 -7 18q0 1 -1 2q-3 7 -1 9h16q13 1 14 18v82h-38q-9 0 -27 -1
q-17 -1 -25 -1v29q45 0 90 -2v13q0 8 -2 25q-1 9 -1 13z" />
    <glyph glyph-name="uni30DE" unicode="&#x30de;" 
d="M241 143v-2q-11 -5 -24 -21q-41 -46 -74 -72q14 -13 26 -27l-24 -19h-2q-39 45 -75 67l-1 1l21 19h2q15 -9 26 -19q4 -3 7 -5q29 23 63 66h-112q-9 0 -29 -1t-30 -1v30q23 -1 44 -1h76q33 0 66 1l6 6h2q17 -10 32 -22z" />
    <glyph glyph-name="uni30DF" unicode="&#x30df;" 
d="M102 194h3q36 -10 69 -27l-12 -26l-2 -1q-36 17 -73 30l-1 1zM86 128h2q24 -7 69 -30l6 -3l-15 -26q-36 19 -76 35l-1 1zM81 54h2q53 -17 99 -43q1 -1 3 -2q4 -2 5 -4q-3 -4 -10 -12q-7 -9 -10 -13l-3 1q-51 30 -100 47l-1 2z" />
    <glyph glyph-name="uni30E0" unicode="&#x30e0;" 
d="M107 183h3q20 -5 37 -14v-3l-6 -5q-6 -3 -10 -16q-2 -6 -3 -8q-22 -59 -45 -99q5 0 8 1q61 6 92 12q-13 20 -29 36v2l19 15h2q34 -30 68 -78q2 -2 0 -2l-18 -18q-5 -5 -9 -5q-3 5 -8 14q-6 9 -9 13q-41 -8 -124 -19q-18 -3 -27 -4q-4 -1 -10 -3q-1 -1 -4 -2l-4 -2
q-1 0 -2 -1q-2 -3 -4 -2l-11 37l1 2h5q16 0 32 1q47 89 56 148z" />
    <glyph glyph-name="uni30E1" unicode="&#x30e1;" 
d="M189 189h2l32 -16v-3q-6 -3 -9 -8q-4 -7 -9 -19q-1 -3 -2 -4q-12 -24 -25 -45l24 -18q9 -7 13 -10l-18 -26h-2q-17 15 -35 28q-6 -6 -11 -13q-41 -46 -88 -69h-2q-3 3 -11 9q-3 3 -5 4q-1 1 -3 1q-5 2 -6 5q58 25 102 78q0 1 1 1q-8 5 -23 15l-24 15l16 21q24 -12 48 -27
q27 42 35 81z" />
    <glyph glyph-name="uni30E2" unicode="&#x30e2;" 
d="M92 171h64q24 0 50 2v-30q-9 0 -26 1h-24h-25v-40h38q33 0 66 2v-29q-11 0 -33 1h-32h-39v-40q1 -14 19 -15h25q21 0 42 2v-29q-3 0 -10 -1h-11h-23q-20 0 -38 3q-20 3 -27 13q-6 7 -6 21v46h-28q-9 0 -27 -1h-25v29q28 -2 58 -2h22v40h-10q-8 0 -24 -1h-22v30
q22 -2 46 -2z" />
    <glyph glyph-name="uni30E3" unicode="&#x30e3;" 
d="M86 181h29q0 -5 -2 -8v-4q0 -12 4 -30q0 -2 1 -5q27 5 54 9q21 1 31 8h3q11 -7 21 -16v-2q-7 -4 -15 -16q-17 -27 -38 -50h-2l-16 12q21 20 35 46v2q-15 -4 -46 -10q-15 -3 -23 -5q3 -21 8 -43q5 -30 11 -59l-25 -5q-8 51 -17 102h-2l-15 -3q-21 -3 -32 -6q-1 0 -3 -1
q-4 -2 -6 -2l-11 24v3h6h2q24 3 56 8q-1 10 -3 19q-3 15 -5 32z" />
    <glyph glyph-name="uni30E4" unicode="&#x30e4;" 
d="M111 194l-2 -11v-1v-5v-1l3 -18q3 -16 5 -24q38 6 75 15q15 2 21 6q2 1 3 2h2q17 -7 31 -16v-3q-7 -5 -16 -20q-3 -3 -4 -5q-19 -30 -43 -57l-2 -1l-12 6q-8 3 -12 5v3q10 9 19 21q14 17 25 36q-13 -3 -41 -8q-27 -6 -41 -9q12 -62 26 -124l-28 -7l-2 1q-12 68 -24 125
l-12 -3q-27 -6 -67 -16l-8 32q29 1 82 11q0 6 -2 10l-3 12q-5 26 -10 41z" />
    <glyph glyph-name="uni30E5" unicode="&#x30e5;" 
d="M87 149h81q6 -1 5 -3l-7 -89h27q14 0 26 1v-25h-13q-10 1 -15 1h-126h-13q-10 -1 -15 -1v25q14 -1 26 -1h79l6 70h-61h-9q-7 -1 -11 -1v24q11 -1 20 -1z" />
    <glyph glyph-name="uni30E6" unicode="&#x30e6;" 
d="M97 165h93l-12 -121q31 0 64 1v-32q-13 0 -38 1q-24 1 -36 1h-81h-36q-24 -1 -36 -1v31q35 -1 69 -1h63l9 94h-67h-21q-14 -1 -21 -1v29q24 -1 50 -1z" />
    <glyph glyph-name="uni30E7" unicode="&#x30e7;" 
d="M89 159h102v-48q0 -63 3 -96h-24v14h-81q-4 0 -12 -1h-11v20q11 -1 23 -1h81v38h-81q-4 0 -12 -1h-11v20q11 -1 23 -1h81v35h-81q-5 0 -14 -1h-12v25q2 0 7 -1q12 -2 19 -2z" />
    <glyph glyph-name="uni30E8" unicode="&#x30e8;" 
d="M112 170h94v-145q0 -16 2 -30h-31v12h-66q-11 0 -32 -1q-20 -1 -30 -1v31q30 -2 61 -2h67v42h-78q-9 0 -26 -1q-16 -1 -24 -1v31q27 -2 54 -2h74v40h-84q-8 0 -23 -1h-21v29q32 -1 63 -1z" />
    <glyph glyph-name="uni30E9" unicode="&#x30e9;" 
d="M88 186h76q20 0 39 2v-31q-7 0 -21 1t-20 1h-64q-8 0 -23 -1q-14 -1 -21 -1v31q16 -2 34 -2zM80 127h115q1 0 3 1q3 3 5 2q17 -9 24 -18v-4l-5 -4q-6 -4 -11 -15q-2 -5 -3 -7q-9 -18 -20 -33q-7 -10 -24 -27q-29 -28 -66 -45h-2q-2 1 -6 4q-12 9 -18 15v2q85 35 114 102
h-103q-9 0 -27 -1t-26 -1v31q24 -2 50 -2z" />
    <glyph glyph-name="uni30EA" unicode="&#x30ea;" 
d="M94 172v-66q0 -25 2 -51h-30q0 7 1 21v21v55v18q-1 12 -1 19q15 -1 32 -1q0 -3 -2 -7q-2 -6 -2 -9zM187 177v-44q0 -36 -6 -73q-7 -35 -27 -61q-13 -16 -28 -31h-2q-9 6 -18 10q-1 1 -3 2q-5 2 -6 4q2 2 6 5q20 15 29 26q26 32 26 84v64q0 5 -1 16q-1 12 -1 18
q17 -1 35 -3q0 -2 -2 -7q-2 -6 -2 -10z" />
    <glyph glyph-name="uni30EB" unicode="&#x30eb;" 
d="M59 170h4q5 0 15 -1t15 -1q0 -3 -1 -8q-1 -6 -1 -9v-11q0 -9 -2 -26q-1 -9 -1 -13q-1 -3 -1 -9q-3 -19 -6 -27q-15 -40 -49 -65h-2q-11 8 -23 15l-1 2q32 18 44 45q14 30 14 65v9q0 17 -5 34zM152 157v-111q0 -2 1 -2q30 11 78 56q5 4 7 6l13 -24q-29 -32 -83 -64
q-3 -2 -8 -5q-14 -7 -18 -13q-4 -1 -8 4q-8 7 -14 16q-1 1 0 3q6 23 6 37v92v11q-1 8 -1 12q5 -1 16 -1q10 -1 15 -1q0 -3 -2 -7q-2 -6 -2 -9z" />
    <glyph glyph-name="uni30EC" unicode="&#x30ec;" 
d="M38 173l37 -6q0 -2 -2 -6q-3 -4 -3 -7v-115h2q29 7 69 31q39 23 73 55l8 -25v-2q-40 -41 -113 -74q-4 -2 -12 -5q-4 -2 -19 -9q-11 -4 -16 -12h-3l-24 26v1q1 2 2 5q2 3 2 4v3q1 3 1 5v111q0 3 -1 9q-1 7 -1 11z" />
    <glyph glyph-name="uni30ED" unicode="&#x30ed;" 
d="M207 159v-104q0 -13 2 -39q1 -11 1 -16h-31v15h-100v-15h-32q0 5 1 17q2 27 2 41v101h157zM79 42h100v91h-100v-91z" />
    <glyph glyph-name="uni30EE" unicode="&#x30ee;" 
d="M51 167h128q1 0 3 1q4 3 5 2q4 -3 12 -8q5 -4 7 -5v-3q-3 -4 -6 -13q0 -3 -1 -5q-2 -6 -4 -18q-3 -16 -6 -24q-3 -14 -15 -33q-20 -35 -53 -56l-19 15v2q32 17 52 47q19 29 24 77h-106v-33q0 -4 1 -12v-11h-23q1 11 1 23v54z" />
    <glyph glyph-name="uni30EF" unicode="&#x30ef;" 
d="M36 181h148l11 2h3l22 -14q1 -1 0 -5v-1q-1 -2 -2 -5l-3 -6q-3 -36 -9 -55q-6 -24 -18 -45q-24 -43 -64 -72h-2l-22 17v2q50 35 67 70q21 44 21 84v4h-125l1 -75h-28v99z" />
    <glyph glyph-name="uni30F0" unicode="&#x30f0;" 
d="M78 149h63q-1 22 -5 43q0 4 -3 10q20 -1 39 -1q1 -3 -2 -7q-3 -5 -3 -7v-38h1h20q17 0 32 2v-29h-52l-1 -1q1 -7 1 -22q1 -15 1 -22h39q18 0 36 2v-32h-74v-1q2 -37 2 -75h-32q0 36 2 75l-1 1q-21 0 -64 -2q-43 -1 -65 -2v33h43v1v44h-5q-14 -1 -19 -1v31q24 -2 47 -2z
M132 77h10q2 23 0 44v1h-60v-1v-44h1h49z" />
    <glyph glyph-name="uni30F1" unicode="&#x30f1;" 
d="M196 175l20 -16q2 -1 1 -4v-1q-7 -3 -15 -15q-3 -4 -5 -6q-16 -23 -36 -41l-20 10v-1q-1 -1 -1 -2v-64h43q29 0 56 2v-32q-8 0 -26 1t-27 1h-110q-9 0 -29 -1t-30 -1v32q31 -2 61 -2h35v58q0 11 -2 21q6 0 16 -1q9 -1 15 -2q15 12 31 34h-92q-5 0 -16 -1q-12 -1 -18 -1
v30q25 -1 49 -1h42q24 0 47 1q1 0 4 1q6 2 7 1z" />
    <glyph glyph-name="uni30F2" unicode="&#x30f2;" 
d="M219 158v-1l-5 -5q-2 -4 -4 -15q-1 -5 -2 -8q-17 -68 -53 -102q-35 -32 -92 -46h-2q-6 11 -15 19l-2 1q-4 4 -4 7q56 4 97 42q18 17 28 40h-75h-26q-18 -1 -27 -1v26q19 -1 37 -1h101q4 16 7 32h-100q-7 0 -21 -1t-21 -1v29q21 -1 40 -1h70q18 0 34 1q1 0 4 1q3 2 4 1
q14 -6 24 -13q3 -2 3 -4z" />
    <glyph glyph-name="uni30F3" unicode="&#x30f3;" 
d="M97 133l-18 -18h-2q-23 24 -47 44l19 16h3q17 -14 45 -40v-2zM217 143l12 -26v-2q-53 -54 -160 -111l-6 -3q-10 -3 -11 -9h-3q-12 16 -21 34v2q11 1 33 9q82 31 156 106z" />
    <glyph glyph-name="uni30F4" unicode="&#x30f4;" 
d="M224 170l-13 -11q-3 3 -9 8q-11 11 -18 16l13 11q7 -5 18 -16q6 -5 9 -8zM245 194l-13 -11q-3 2 -8 7q-10 10 -16 14l11 11q2 -2 7 -5q13 -10 19 -16zM128 185v-28h50q1 0 5 1q4 2 6 1l26 -18v-3q-5 -4 -7 -13q-1 -3 -1 -4q-12 -43 -28 -68q-21 -34 -52 -59
q-13 -11 -28 -20h-2q-13 9 -27 16v2q87 44 107 138h-135v-64h-30q0 12 1 35v34v22h85v16q0 6 -2 19q-1 7 -1 10q6 -1 19 -1q12 -1 18 -1q0 -2 -2 -6q-2 -6 -2 -9z" />
    <glyph glyph-name="uni30F5" unicode="&#x30f5;" 
d="M74 141h47v2q2 13 2 27v8q15 -1 29 -3q0 -2 -3 -6q-2 -3 -2 -5q-1 -11 -3 -20v-3h34q17 0 33 1v-12q0 -21 -3 -40q-1 -23 -8 -44q-4 -15 -14 -23q-12 -10 -36 -10h-6l-3 22q7 -1 13 -1h4q11 0 15 7q7 7 9 21q5 18 5 46v11h-46l-1 -1q-14 -65 -76 -105l-19 16q55 30 72 89
v1h-43h-10q-7 -1 -11 -1v24q11 -1 21 -1z" />
    <glyph glyph-name="uni30F6" unicode="&#x30f6;" 
d="M103 183l24 -10q0 -4 -3 -9q-1 -2 -2 -3q-4 -9 -7 -16l-6 -12h83q15 0 31 1v-24q-6 0 -16 1h-15h-23q-5 -35 -16 -54q-16 -30 -50 -56q-2 -1 -2 0l-19 13v2q56 34 63 95h-49q-20 -25 -46 -42l-16 15v2q52 32 67 97h2z" />
    <glyph glyph-name="uni3105" unicode="&#x3105;" 
d="M104 198q1 7 8 3q11 -9 17 -21q0 -4 -6 -6q-4 -1 -24 -27q-19 -25 -28 -34q55 10 107 23q3 2 7 2q25 -13 30 -26q0 -3 -4 -5q-6 -4 -9 -10q-46 -113 -82 -111q-3 0 -3 3q0 2 1 10q-2 9 -20 27q-3 2 -4 3q-1 7 7 8q20 -15 27 -17q31 9 52 84q3 13 -19 11q-62 -7 -95 -22
q-1 0 -5 -3t-6 -3q-23 19 -9 27q49 35 58 84z" />
    <glyph glyph-name="uni3106" unicode="&#x3106;" 
d="M49 -11q-6 2 -2 8q47 13 86 50q-24 21 -52 38q-3 3 -2 6q2 3 6 2q35 -15 61 -31q23 26 31 58q1 4 -2 5q-49 -5 -80 -17q-2 -2 -8 -5q-11 6 -13 22q33 20 46 64q-5 14 4 14q15 -9 21 -21q1 -5 -10 -9q-7 -7 -16 -21q-11 -18 -21 -27q69 12 80 20q1 1 3 1q17 -5 30 -24
q0 -4 -7 -8q-5 -2 -6 -4q-15 -35 -36 -58q23 -15 33 -26q15 -16 13 -29q-6 -15 -20 -3q-19 21 -42 42q-38 -34 -97 -47z" />
    <glyph glyph-name="uni3107" unicode="&#x3107;" 
d="M67 171h7q36 0 93 13q1 0 4 1q4 2 7 2q16 -5 33 -25q0 -2 -3 -6q-4 -5 -4 -9v-5q0 -9 1 -27q2 -34 2 -53v-40q-1 -22 -11 -26q-15 4 -17 16q0 3 2 11q5 23 5 54v37q0 41 -7 48q-5 9 -35 1q-5 -1 -17 -4q-34 -8 -40 -8h-2q-4 1 -7 4q0 -3 -1 -7q-1 -9 -1 -14v-41
q0 -33 -3 -65q0 -30 -10 -32q-16 8 -18 19q0 3 3 12q13 34 13 82v11q1 29 -11 55q-1 3 4 4q5 -1 13 -9v1z" />
    <glyph glyph-name="uni3108" unicode="&#x3108;" 
d="M73 160v-7q0 -6 -1 -18v-17q-1 -34 -1 -95v-6q-1 -4 4 -4q45 0 93 12q6 1 20 1q11 -2 18 -14q5 -11 -5 -12q-4 0 -12 1q-20 2 -29 2h-10q-20 0 -72 -7q-14 -2 -15 -2q-10 4 -15 15q0 1 1 6q8 30 8 51v42q-1 49 -9 70q1 2 4 2q6 -1 12 -6q45 3 90 17q8 4 14 4
q13 -3 17 -12q2 -9 -11 -10q-50 -3 -85 -13q-4 -1 -5 -1q-4 0 -12 5q1 -2 1 -4z" />
    <glyph glyph-name="uni3109" unicode="&#x3109;" 
d="M135 104q3 -4 1 -7q-1 -2 -4 -4q-3 -1 -3 -2q-1 -2 -3 -7q-30 -69 -84 -89q-7 -3 -6 2q0 3 -2 3q66 37 72 112q-17 -2 -23 -4q-4 -2 -10 -6q-6 -5 -9 -5q-4 2 -11 12q-5 8 -2 9q30 17 50 59q2 6 4 17q1 6 2 8q1 3 5 2q21 -16 20 -26q-2 -2 -5 -3q-4 -1 -7 -4
q-2 -3 -9 -11q-21 -28 -32 -38q12 2 34 6q41 6 63 11q1 0 3 1q8 2 12 2q13 -3 31 -21q0 -4 -6 -10q-4 -6 -15 -37q-31 -87 -56 -84q-2 0 -3 5q0 4 -1 5q-1 8 -23 22l-2 1q-3 5 3 8q2 -1 7 -3q14 -6 20 -6q26 5 43 88q2 12 -14 12q-19 -1 -53 -7q5 -3 13 -11z" />
    <glyph glyph-name="uni310A" unicode="&#x310a;" 
d="M41 114h2q19 -1 68 7q6 26 5 47q0 10 -4 19q-1 2 -1 3v1q-1 4 3 4q25 -4 33 -19q0 -2 -3 -5t-4 -6q-2 -17 -8 -41q15 2 39 7q6 2 8 2t6 1q5 2 7 2q16 -3 24 -19q-1 -7 -5 -8q-4 0 -13 1q-8 1 -13 1h-12q-12 0 -34 -2q-7 -1 -11 -1q-15 -55 -35 -92h3q26 3 74 13
q-4 6 -12 16q-5 6 -7 9q-2 5 4 6q51 -28 51 -51q-1 -10 -15 -13q-4 0 -8 9q0 3 -1 4l-3 6q-2 3 -3 5q-39 -8 -76 -21q-2 -1 -6 -5q-6 -6 -8 -6q-12 6 -20 21q23 13 42 95q-14 -2 -34 -7q-11 -3 -13 -3q-15 7 -20 20z" />
    <glyph glyph-name="uni310B" unicode="&#x310b;" 
d="M49 188q4 0 15 -1h5q37 0 91 12q17 -1 29 -16q0 -6 -3 -7q-8 -1 -17 -8q-12 -11 -42 -46l-6 -6q41 5 54 12q2 1 3 1q15 -6 29 -24q3 -3 0 -6q0 -3 -6 -5t-8 -6q-53 -100 -81 -98q-7 0 -7 3q3 10 -19 33q-5 5 -3 7q2 3 8 0q3 -2 8 -6q9 -7 17 -12q22 -5 61 82q5 15 -7 14
q-23 0 -44 -11q-6 -3 -8 -3q-15 3 -19 14q0 2 6 8l1 1q36 35 45 58v3q1 1 -1 0q-47 -6 -72 -14q-7 -2 -10 -2q-21 9 -19 23z" />
    <glyph glyph-name="uni310C" unicode="&#x310c;" 
d="M78 100l-1 -1q-5 -6 -9 -6q-13 6 -17 17q0 2 4 4q3 2 4 3q21 32 18 69q2 4 6 4q16 -9 23 -18q0 -3 -1 -5q-12 -2 -27 -50q7 1 29 5q15 2 22 3q8 28 7 55q0 1 -1 7q-2 7 -2 10q2 3 5 4q17 -7 28 -16q2 -1 0 -7q-1 -1 -3 -4l-3 -3q-3 -21 -10 -41q13 2 25 6q2 0 4 1
q4 2 6 2q23 -11 29 -24q0 -5 -7 -8q-4 -2 -5 -4q-1 -5 -4 -18q-20 -95 -56 -98q-11 -2 -10 9q-3 10 -14 20q-6 6 -6 8q-1 6 5 5q2 -1 7 -5q13 -9 18 -9q28 -2 42 97q0 7 -7 7q-16 -3 -33 -5q-34 -84 -95 -120q-3 -2 -6 0q-2 4 0 6q52 37 81 111q-39 -5 -46 -11z" />
    <glyph glyph-name="uni310D" unicode="&#x310d;" 
d="M113 189q17 -8 21 -19q0 -4 -4 -5q-4 -2 -24 -28q-31 -40 -48 -56q15 -15 38 -35q34 -27 31 -44q-1 -8 -12 -10q-6 0 -15 11q-1 1 -1 2q-17 31 -54 75v2q47 52 63 101q-1 6 5 6zM126 89v2q56 56 57 87q1 6 7 6q14 -9 21 -23q0 -4 -5 -5q-5 -2 -7 -5q-25 -34 -59 -62
q71 -57 71 -81q1 -11 -13 -14q-5 0 -12 9q-25 51 -60 86z" />
    <glyph glyph-name="uni310E" unicode="&#x310e;" 
d="M45 176h11q32 0 113 17q22 4 24 4q11 -1 19 -11q6 -7 -3 -10h-2q-8 2 -18 2q-19 -1 -67 -9q9 -7 12 -13v-3q0 -2 -7 -8l-2 -1q-2 -2 -22 -31q1 2 -3 -4q4 1 12 2q30 3 46 10q1 0 3 1q3 2 5 2q23 -8 31 -21q0 -3 -4 -5q-3 -2 -4 -4q-2 -3 -7 -16q-41 -94 -67 -92
q-2 0 -3 4t-2 6q0 1 -1 2q-3 7 -20 18q-3 8 4 8l1 -1q11 -8 22 -10q26 4 52 84q1 7 -5 6q-43 -3 -55 -10q-1 0 -7 -4q-9 -4 -10 -4q-9 3 -16 17q0 2 3 5l1 1q16 11 29 44q1 3 2 11q1 3 1 5q-17 -2 -42 -6l-11 -2q-21 9 -13 16z" />
    <glyph glyph-name="uni310F" unicode="&#x310f;" 
d="M86 178l5 1q50 1 97 14q8 2 10 2q10 -2 20 -12q5 -9 -3 -11q-5 -2 -22 1h-3q-28 -1 -74 -8q-1 0 -4 -1q-5 -2 -9 -2q-4 1 -9 4l-1 -2q1 -131 -49 -168q-3 -2 -6 0q-2 2 -1 4q37 32 36 131v4q1 29 -4 48q2 2 3 2q7 0 14 -7z" />
    <glyph glyph-name="uni3110" unicode="&#x3110;" 
d="M180 156v-151q-2 -10 -8 -11q-11 6 -15 17q0 1 1 5q6 18 6 42v16q-3 -1 -10 -4q-52 -23 -58 -28q-2 -1 -5 -5q-4 -5 -7 -5q-11 7 -16 18q0 3 4 7q4 5 5 9q4 20 5 67q0 14 -4 21q-1 3 -1 5q1 2 4 2q21 -6 22 -17q0 -1 -2 -4q-3 -5 -4 -11q-1 -11 -3 -36q-3 -28 -3 -33
q12 4 36 11q25 7 37 12v80q0 15 -5 27q-2 4 -2 6q1 4 4 4q26 -7 27 -16q0 -2 -2 -5q-7 -9 -6 -23z" />
    <glyph glyph-name="uni3111" unicode="&#x3111;" 
d="M59 77v3q76 70 79 113q1 0 2 1q2 2 4 1q14 -11 20 -24q1 -3 -2 -6l-4 -2q-3 -1 -5 -3q-44 -52 -79 -80q9 -5 32 -15q94 -40 91 -58q-1 -17 -18 -13q-3 3 -8 7q-28 29 -112 76z" />
    <glyph glyph-name="uni3112" unicode="&#x3112;" 
d="M137 119v-40q0 -18 3 -64l1 -8q-1 -8 -8 -10q-12 7 -18 26q0 2 1 5q7 19 7 64v69q-33 -4 -55 -9q-1 0 -3 -1q-5 -3 -8 -3q-10 4 -16 18q2 1 3 1q44 0 133 18q2 0 5 1q7 2 10 2q11 -1 20 -11q8 -10 -1 -12q-4 -1 -11 1q-10 1 -16 1q-9 0 -42 -3q2 0 -5 -1q-1 -10 0 -30
v-14z" />
    <glyph glyph-name="uni3113" unicode="&#x3113;" 
d="M126 58v5q-30 -3 -35 -10q-5 -5 -8 -5q-11 5 -16 19q0 1 2 3q6 5 6 13v41q0 12 -8 32q-2 6 -2 7q16 5 29 -10q0 -2 -2 -5q-4 -5 -3 -10v-65q19 0 37 3v74q0 20 -6 36q-2 3 -2 5q-1 4 0 5l1 1q18 0 31 -15q-5 -7 -6 -12q-2 -37 -3 -68v-23q9 1 29 4q-13 -2 5 1q3 0 6 -4
q1 5 1 8q2 15 2 48q0 9 -4 18q-1 2 -1 3q0 5 4 5q23 -8 24 -16v-1l-1 -2q-6 -6 -6 -11q-3 -70 -10 -81h-3q-1 1 -3 4q-6 9 -6 14q-8 -1 -29 -2q4 0 -8 -1v-10q0 -7 1 -20v-21q27 3 54 8h7q12 0 20 -11q6 -11 -5 -12q-3 0 -12 1q-13 2 -19 2q-35 0 -120 -11q-17 -2 -19 -2
q-18 7 -15 14q15 2 46 4q29 3 43 4q4 23 4 46z" />
    <glyph glyph-name="uni3114" unicode="&#x3114;" 
d="M151 198h2q19 -15 20 -23q0 -3 -7 -4q-5 -1 -6 -3q-40 -46 -93 -74q-5 -3 -8 0q-2 4 2 6q61 42 84 85q1 1 1 4q1 6 5 9zM160 69v-37q0 -39 -8 -44q-12 3 -17 19q0 1 2 4q5 11 5 21v35v11q-47 -38 -85 -51q-6 1 -3 7q80 39 125 118v2q2 7 6 7q12 -7 18 -18q2 -3 0 -5
q0 -2 -5 -3q-4 -2 -5 -3q-15 -21 -40 -44q7 -3 10 -7q3 -3 -2 -10q-1 -1 -1 -2z" />
    <glyph glyph-name="uni3115" unicode="&#x3115;" 
d="M184 175q2 10 -4 9q-32 -1 -90 -11q-12 -2 -13 -2q-14 6 -19 22q1 0 2 1h1q76 -4 128 12q23 -10 27 -22q-1 -2 -4 -4q-12 -8 -18 -39q-5 -17 -13 -21q-5 2 -6 6q-14 -1 -40 -8q-18 -5 -23 -5q-5 1 -11 4q-1 -84 -53 -129q-3 -2 -6 0q-3 3 -1 6q40 45 39 114q0 7 -3 20
q-1 5 -1 7q3 7 20 -8q16 1 50 10q12 3 14 3q4 0 14 -6q1 7 5 19q4 14 5 22z" />
    <glyph glyph-name="uni3116" unicode="&#x3116;" 
d="M189 161v-31q0 -14 1 -78q1 -21 1 -23q-1 -23 -13 -27q-5 1 -9 9h-8q-12 3 -49 -4q-15 -2 -19 -2q-2 0 -7 5q-3 2 -4 3q-1 2 -3 2v-1q-1 -13 -6 -16q-11 3 -14 19q0 2 1 5q9 20 9 79v37q0 10 -4 29q-2 9 -2 11q0 3 3 2t8 -6q79 9 96 21q22 -7 28 -18q0 -2 -4 -6
q-6 -5 -5 -10zM107 119q0 2 4 4h1q34 -23 35 -37q-5 -23 -18 -13q-6 19 -17 37q-5 7 -5 9zM79 24h10q21 -2 61 6l5 1q5 0 12 -5q0 3 2 10q5 27 4 40v45q1 26 -2 42q-3 9 -13 8q-17 0 -70 -12l-5 3v-19q1 -50 -4 -114v-5z" />
    <glyph glyph-name="uni3117" unicode="&#x3117;" 
d="M107 119v-103q-2 -18 -9 -23q-10 7 -12 19q0 3 1 14q4 29 4 56v42q0 26 -3 39h-2q-5 -1 -12 -3t-9 -2q-13 4 -17 19q0 1 2 1q68 2 116 16q2 0 4 1q5 2 7 2q23 -9 31 -24q0 -3 -4 -6q-5 -3 -5 -5q-25 -92 -50 -93q-3 0 -5 6q-1 3 -2 5v1q-3 5 -20 15q-6 3 -6 7q1 4 6 5
q3 -1 8 -4q13 -6 16 -6q21 -1 32 69q2 8 -11 9q-14 0 -69 -11q12 -11 13 -19q0 -2 -1 -4q-3 -8 -3 -23z" />
    <glyph glyph-name="uni3118" unicode="&#x3118;" 
d="M213 120h-19q-32 1 -58 -5q-6 -24 -12 -50v-3q8 2 23 5q13 4 19 5l2 1q7 4 9 4q12 -5 21 -17q1 -1 1 -3v-1q0 -3 -7 -6q-3 -1 -4 -2t-7 -11q-21 -34 -31 -43q-4 -4 -7 -3q-4 3 -2 7q12 15 24 47q3 11 -4 10q-30 -2 -40 -10q-2 -1 -5 -3q-7 -5 -9 -5q-9 3 -13 16q0 3 4 7
q8 6 11 15q3 7 10 37q-32 -8 -47 -14l-2 -1q-6 -2 -10 -2q-5 0 -18 17l-1 2q-1 1 -1 2t2 1q10 -1 63 7q11 2 17 3q6 34 6 46q0 9 -4 19q-1 2 -1 3q0 4 2 4h2q32 -7 32 -13q0 -3 -1 -4q-1 -2 -4 -4t-3 -3q-2 -7 -5 -22q-4 -15 -6 -23q11 2 29 6q10 2 14 3q1 0 4 1q5 2 8 2
q9 -1 18 -11q7 -9 0 -11z" />
    <glyph glyph-name="uni3119" unicode="&#x3119;" 
d="M115 191q5 4 17 -10q12 -12 8 -20q-1 -2 -5 -9l-3 -6l-35 -60q-28 -47 -36 -60q39 4 93 10q22 1 22 2q-2 8 -11 29q-4 10 -5 13t0 4q2 1 5 0q22 -16 41 -54q14 -33 -8 -36q-11 0 -14 19q-1 8 -3 10q-35 -5 -92 -13q3 0 -6 -1q-3 -1 -11 -4q-12 -5 -16 -3q-13 9 -17 24
q0 5 9 14l1 1q26 32 62 111q3 11 2 21q-2 13 2 18z" />
    <glyph glyph-name="uni311A" unicode="&#x311a;" 
d="M140 113l-2 -44v-57q-2 -17 -10 -20q-12 6 -15 17q0 2 3 13q6 21 6 32l1 55q-1 15 -7 20q-10 11 -58 43q-11 7 -3 19q7 6 19 -2q8 -5 39 -40q18 -19 19 -19q31 29 44 51q3 4 5 10q1 6 4 6q13 -3 23 -21q0 -4 -5 -5q-4 -1 -6 -3q-9 -8 -24 -20q-40 -33 -33 -35z" />
    <glyph glyph-name="uni311B" unicode="&#x311b;" 
d="M138 153v-17q0 -8 3 -19q2 -6 2 -8q-1 -5 -10 -9q-1 0 -3 1q-5 1 -13 1q-42 -2 -44 -46q3 -43 49 -47q32 -3 45 20q4 7 11 3q5 -4 1 -12q-16 -29 -57 -28q-61 5 -65 65q4 57 66 60v8q1 30 -4 45q-20 -1 -28 -3q-2 0 -10 -2q-17 -3 -21 -3q-9 3 -19 16q0 1 1 2v1
q77 2 131 12q2 0 7 2q9 2 14 2q10 -1 19 -13q5 -10 -5 -10q-1 0 -4 1q-9 1 -14 1q-14 0 -58 -4q10 -6 10 -9t-2 -7q-2 -2 -2 -3z" />
    <glyph glyph-name="uni311C" unicode="&#x311c;" 
d="M125 103v8v25q-20 -2 -50 -7q-15 -3 -18 -3q-10 3 -17 15q0 5 5 5q34 -3 79 5q0 15 -2 32q0 3 -4 13l-1 4q0 5 12 2q15 -4 16 -9q0 -2 -2 -6q-3 -3 -3 -6q0 -6 -1 -16v-12h3q11 1 26 4q4 0 12 2q7 1 10 1q21 -4 26 -19q-1 -5 -5 -5q-3 0 -8 1q-14 2 -27 2q-19 0 -36 -1
q1 -24 4 -38q1 -2 1 -3q-1 -9 -10 -11h-5q-8 1 -12 1q-37 -2 -39 -37q3 -39 47 -42q25 -1 36 11q6 9 9 4q3 -6 -2 -15q-17 -20 -46 -22q-55 7 -61 60q4 53 63 57z" />
    <glyph glyph-name="uni311D" unicode="&#x311d;" 
d="M107 103v-44q-2 -50 38 -47q10 0 22 2q3 1 5 1q13 -3 19 -15q3 -7 -27 -7q-47 -1 -61 17q-14 16 -12 73v18q-1 0 -4 -1q-3 0 -5 -1q-10 -1 -22 -5q-6 -2 -8 -2q-15 7 -17 17q14 1 39 4q11 1 17 2v54q1 5 -3 14q-1 3 -1 4q0 6 3 6q20 -4 26 -13v-2q0 1 -1 -2q0 -1 -2 -3
q-6 -7 -6 -23v-33q34 6 48 8q3 21 3 41q-1 9 -4 24q0 5 3 5q14 -2 27 -11q1 -1 1 -4q0 -1 -3 -4q-3 -4 -4 -6q-2 -23 -6 -42q17 4 29 4q11 -2 19 -13q4 -9 -7 -11q-4 0 -15 3q-7 1 -8 1h-10q-8 -1 -12 -1q-13 -49 -27 -74q-5 -4 -7 2q11 31 18 70q-32 -4 -45 -6z" />
    <glyph glyph-name="uni311E" unicode="&#x311e;" 
d="M79 160l3 2q13 -7 18 -17q2 -2 -1 -5q-1 -2 -5 -4q-3 -1 -3 -2q-2 -3 -5 -10q-7 -14 -13 -22l10 1q27 4 39 6q8 29 10 65q-22 -3 -52 -9q-8 -2 -9 -2q-17 5 -18 21h14q67 1 110 14q6 2 8 2q9 -3 18 -14q6 -9 -1 -11q-12 1 -29 2q-15 0 -30 -1q2 -1 5 -3q14 -10 13 -14
q0 -2 -2 -4q-6 -5 -8 -16q-1 -4 -4 -13q-2 -9 -4 -14q27 5 34 7q2 0 5 2q4 2 6 2q11 -4 24 -19q1 -1 1 -3v-1q0 -3 -4 -5q-4 -3 -6 -7q-13 -45 -50 -87q-13 -8 -16 -2q37 43 45 94q-1 11 -9 10q-6 0 -27 -3q-5 -1 -8 -1q-35 -85 -86 -106q-5 1 -3 6q44 29 69 96
q-40 -6 -46 -9q-3 -1 -9 -5q-5 -4 -7 -4q-9 5 -13 19q0 4 5 7q17 6 29 41q1 2 1 8q1 6 1 8z" />
    <glyph glyph-name="uni311F" unicode="&#x311f;" 
d="M38 177q0 4 8 3q63 5 74 13q1 0 2 2q3 2 5 2q20 -7 28 -17v-1q1 -2 -1 -4l-3 -3q-7 -4 -7 -8q-6 -89 65 -148q8 -7 9 -9q-3 -18 -27 -9q-63 52 -62 170q0 11 -8 10q-18 -3 -48 -12q-16 -4 -18 -4q-13 6 -17 15z" />
    <glyph glyph-name="uni3120" unicode="&#x3120;" 
d="M76 95l55 -2q37 48 35 60q2 4 5 3q18 -13 22 -23q0 -2 -3 -5q-1 -1 -6 -3q-6 -2 -7 -3q-58 -69 -97 -106q24 5 69 16q15 3 22 5l-3 6q-3 5 -7 11q-6 10 -6 13q2 4 9 -1q44 -38 46 -56q0 -11 -12 -14q-11 0 -14 12q-1 3 -4 11q-3 6 -4 9q-91 -27 -108 -40q-2 -1 -5 -1
t-16 23q-1 4 1 6q1 1 7 3q9 3 13 5q19 16 54 58q-7 -1 -17 -2q-23 -2 -43 -9q-9 3 -15 23q0 4 7 6q10 3 15 8q53 54 53 83q0 2 4 6q14 -6 23 -19q1 -3 -1 -5t-7 -4l-1 -1q-1 -2 -5 -6q-38 -47 -59 -66q-2 -1 0 -1z" />
    <glyph glyph-name="uni3121" unicode="&#x3121;" 
d="M56 181h12q64 1 89 16q4 2 5 2q26 -13 26 -22q0 -3 -4 -5l-2 -2q-1 0 -3 -3q-10 -41 -30 -76q59 -61 60 -81q-3 -10 -11 -11q-8 0 -18 14l-1 1q-18 31 -41 58q-27 -39 -66 -68l-1 -1q-16 -9 -22 -6q-2 2 0 3q43 28 77 87q-28 33 -49 54q-6 5 -5 9t6 2q26 -18 57 -47
q12 25 20 55q5 18 -13 13h-2q-56 -12 -70 -13q-11 4 -17 15q-3 6 3 6z" />
    <glyph glyph-name="uni3122" unicode="&#x3122;" 
d="M96 168h-1q-8 -2 -17 8q-11 12 -4 13h33q35 1 62 11l2 1q18 -5 30 -21q2 -3 -2 -7q-6 -3 -8 -5q-4 -5 -12 -19q-10 -18 -16 -25q-7 -5 -11 0q16 32 19 52v1q-2 6 -4 5q-18 0 -53 -10q-7 -2 -10 -3q14 -14 14 -22q0 -4 -5 -8q-4 -3 -6 -6l-15 -21q-11 -14 -14 -19l-3 -3
q-2 -3 -3 -5q58 5 92 13q3 1 8 4t7 3q21 -11 28 -22v-1q1 -1 -1 -3q-1 -2 -5 -4q-5 -2 -6 -5q-24 -53 -45 -74q-3 -4 -7 -3q-3 2 -2 7q21 37 28 66q0 1 1 3q4 14 -3 14q-63 -9 -82 -12q-5 -1 -13 -4q-4 -2 -5 -2q-9 2 -18 19q0 2 5 5q4 2 5 3q34 41 37 76z" />
    <glyph glyph-name="uni3123" unicode="&#x3123;" 
d="M58 198q-1 2 3 4q18 -5 30 -15q2 -2 2 -4v-1q0 -1 -4 -5q-3 -4 -4 -6q-2 -6 -8 -59q-1 -11 -1 -15q3 0 12 1q77 9 84 14q1 0 4 2q4 3 6 3q14 -7 26 -19q2 -3 0 -7q-1 -1 -4 -3t-5 -4q-23 -82 -37 -93q-7 -4 -7 2q18 51 20 87q1 12 -11 11q-61 -2 -89 -13q-1 0 -2 -2
q-2 -2 -4 -2q-11 3 -22 18q0 2 5 7t6 9q0 1 1 4q5 41 4 62q0 4 -4 20z" />
    <glyph glyph-name="uni3124" unicode="&#x3124;" 
d="M139 83v-51q-2 -22 23 -20q16 0 31 5q6 2 8 2q13 -3 17 -15q-2 -7 -36 -8h-34q-26 1 -26 22v63q1 10 -4 22q-1 1 -1 2q-16 -78 -72 -114q-4 -1 -6 0q-2 3 0 6q51 42 62 119q-18 -4 -37 -10l-4 -1q-20 8 -18 18q36 3 61 8q2 20 2 42q0 6 -3 19q-1 3 -1 4q1 5 3 5q1 0 3 -1
q27 -7 25 -13q0 -1 -3 -4q-2 -3 -3 -5q0 -23 -4 -44q23 4 46 10q8 2 9 2q14 -4 19 -15q1 -7 -14 -7q-24 1 -62 -5v-3q-1 -3 -1 -5q23 -4 28 -11q0 -4 -3 -7q-5 -4 -5 -10z" />
    <glyph glyph-name="uni3125" unicode="&#x3125;" 
d="M152 194q0 4 6 4q11 -6 25 -23q3 -3 -1 -7q-4 -1 -7 -4q-38 -62 -100 -146q52 2 102 8q5 1 6 1q10 -1 19 -12q8 -11 1 -15q-1 0 -3 1q-32 6 -62 5q-55 -2 -66 -9q-2 -2 -4 -3q-4 -3 -7 0q-9 12 -11 21q-1 4 1 5t4 3q4 2 6 4q57 63 91 150v17z" />
    <glyph glyph-name="uni3126" unicode="&#x3126;" 
d="M79 169q-1 5 2 6q26 -6 29 -15v-3q0 -1 -3 -4q-2 -3 -2 -4q4 -116 -60 -160q-3 -2 -6 0t0 5q51 46 48 139q-1 19 -7 32q-1 3 -1 4zM153 158v-92q1 -48 38 -51q3 0 7 1q2 1 3 1q11 -2 18 -13q0 -9 -18 -10q-62 3 -64 72v99q-1 10 -5 19q-2 4 -2 6q-1 4 4 5q18 -5 27 -17
q0 -3 -1 -5q-7 -7 -7 -15z" />
    <glyph glyph-name="uni3127" unicode="&#x3127;" 
d="M137 175v-127v-14q1 -12 0 -21q0 -24 -10 -24q-8 6 -14 30q0 2 2 5q4 6 4 11q0 9 1 23q1 34 1 61v49q0 13 -6 30q-2 5 -2 6q1 4 4 5q19 -5 26 -18v-2q1 -1 0 -2q-6 -7 -6 -12z" />
    <glyph glyph-name="uni3128" unicode="&#x3128;" 
d="M48 -7q-4 -1 -5 2q-2 2 1 4q46 36 80 87q-32 34 -71 66q-3 2 -2 4t5 2q32 -19 77 -57q33 55 33 97q-1 4 4 5q11 -4 25 -19q3 -2 0 -6v-1q0 -1 -2 -3q-4 -3 -6 -8q-12 -35 -39 -77q64 -56 66 -82q-1 -9 -10 -12q-8 -2 -13 6q-18 31 -55 72q-42 -54 -88 -80z" />
    <glyph glyph-name="uni3129" unicode="&#x3129;" 
d="M197 168v-24q0 -30 7 -95q2 -22 2 -26q-1 -18 -6 -25q-2 -3 -4 -2q-11 4 -15 20v2l-1 1q-3 0 -10 -1q-50 -7 -77 -13q-12 -2 -20 -8q-4 -3 -7 -3q-9 3 -16 19q-1 4 4 7l5 5q16 39 18 123q0 19 -6 31q-1 3 -1 4q-1 6 4 6q28 -10 30 -20q0 -2 -2 -4q-3 -3 -4 -7
q-7 -91 -24 -134q33 1 96 4q7 1 10 1v33q0 80 -7 106q-1 8 -11 19q0 5 3 7q26 -5 35 -13q1 -1 1 -3q0 -1 -2 -5q-2 -3 -2 -5z" />
    <glyph glyph-name="uni3220" unicode="&#x3220;" 
d="M36 206l6 -3q-33 -47 -34 -115q0 -63 32 -109l-6 -4q-34 51 -34 113q1 70 36 118zM222 -25l-6 4q32 46 32 109q-1 69 -33 115l5 3q35 -46 36 -118q0 -65 -34 -113zM53 101h150v-22h-150v22z" />
    <glyph glyph-name="uni3221" unicode="&#x3221;" 
d="M36 206l6 -3q-33 -47 -34 -115q0 -63 32 -109l-6 -4q-34 51 -34 113q1 70 36 118zM222 -25l-6 4q32 46 32 109q-1 69 -33 115l5 3q35 -46 36 -118q0 -65 -34 -113zM56 135v20h144v-20h-144zM53 47h150v-22h-150v22z" />
    <glyph glyph-name="uni3222" unicode="&#x3222;" 
d="M36 206l6 -3q-33 -47 -34 -115q0 -63 32 -109l-6 -4q-34 51 -34 113q1 70 36 118zM222 -25l-6 4q32 46 32 109q-1 69 -33 115l5 3q35 -46 36 -118q0 -65 -34 -113zM57 160h143v-21h-143v21zM57 82v21h142v-21h-142zM54 20v23h148v-23h-148z" />
    <glyph glyph-name="uni3223" unicode="&#x3223;" 
d="M36 206l6 -3q-33 -47 -34 -115q0 -63 32 -109l-6 -4q-34 51 -34 113q1 70 36 118zM222 -25l-6 4q32 46 32 109q-1 69 -33 115l5 3q35 -46 36 -118q0 -65 -34 -113zM56 17v146h144v-125q2 -23 -20 -21h-124zM97 79v63h-17v-69h12q6 -1 5 6zM134 70v72h-13v-70
q1 -21 -17 -19h-24v-14h89q6 0 5 5v9h-22q-20 -2 -18 17zM175 74v68h-18v-62q0 -6 6 -6h12z" />
    <glyph glyph-name="uni3224" unicode="&#x3224;" 
d="M36 206l6 -3q-33 -47 -34 -115q0 -63 32 -109l-6 -4q-34 51 -34 113q1 70 36 118zM222 -25l-6 4q32 46 32 109q-1 69 -33 115l5 3q35 -46 36 -118q0 -65 -34 -113zM100 142h-46v21h148v-21h-77l-2 -26h74v-77h7v-22h-152v22h38l5 56h-39v21h42zM115 39h57v56h-51z" />
    <glyph glyph-name="uni3225" unicode="&#x3225;" 
d="M36 206l6 -3q-33 -47 -34 -115q0 -63 32 -109l-6 -4q-34 51 -34 113q1 70 36 118zM222 -25l-6 4q32 46 32 109q-1 69 -33 115l5 3q35 -46 36 -118q0 -65 -34 -113zM115 153v13h26v-13h62v-20h-149v20h61zM76 122h24v-88q2 -22 -19 -20h-28v22h17q6 0 6 6v80zM156 32v90
h26v-81q-1 -6 6 -5h15v-22h-28q-21 -2 -19 18z" />
    <glyph glyph-name="uni3226" unicode="&#x3226;" 
d="M36 206l6 -3q-33 -47 -34 -115q0 -63 32 -109l-6 -4q-34 51 -34 113q1 70 36 118zM222 -25l-6 4q32 46 32 109q-1 69 -33 115l5 3q35 -46 36 -118q0 -65 -34 -113zM77 143v22h25v-22h100v-20h-99v-82q0 -5 6 -5h91v-21h-104q-17 1 -18 19v89h-24v20h23z" />
    <glyph glyph-name="uni3227" unicode="&#x3227;" 
d="M36 206l6 -3q-33 -47 -34 -115q0 -63 32 -109l-6 -4q-34 51 -34 113q1 70 36 118zM222 -25l-6 4q32 46 32 109q-1 69 -33 115l5 3q35 -46 36 -118q0 -65 -34 -113zM169 142h-107v22h133v-122q0 -4 3 -4h5v-22h-15q-21 -2 -19 23v103zM64 44v91h24v-96q-1 -22 -19 -23h-16
v22h5q6 0 6 6z" />
    <glyph glyph-name="uni3228" unicode="&#x3228;" 
d="M36 206l6 -3q-33 -47 -34 -115q0 -63 32 -109l-6 -4q-34 51 -34 113q1 70 36 118zM222 -25l-6 4q32 46 32 109q-1 69 -33 115l5 3q35 -46 36 -118q0 -65 -34 -113zM54 153h12v12h26v-12h101v-109q-1 -9 6 -8h3v-20h-12q-23 -1 -22 22v95h-76v-93q-1 -24 -24 -25h-14v20h5
q7 0 7 8v90h-12v20z" />
    <glyph glyph-name="uni3229" unicode="&#x3229;" 
d="M36 206l6 -3q-33 -47 -34 -115q0 -63 32 -109l-6 -4q-34 51 -34 113q1 70 36 118zM222 -25l-6 4q32 46 32 109q-1 69 -33 115l5 3q35 -46 36 -118q0 -65 -34 -113zM115 111v55h26v-55h62v-22h-62v-75h-26v75h-62v22h62z" />
    <glyph glyph-name="uni4E00" unicode="&#x4e00;" 
d="M243 115v-24h-233v24h233z" />
    <glyph glyph-name="uni4E01" unicode="&#x4e01;" 
d="M111 0v183h-101v21h233v-21h-83v-209h-62z" />
    <glyph glyph-name="uni4E03" unicode="&#x4e03;" 
d="M71 130l-59 -5v22l59 5v51l51 6v-53l122 10v-22l-122 -10v-136h122v-22h-173v154z" />
    <glyph glyph-name="uni4E07" unicode="&#x4e07;" 
d="M11 184v17h232v-17h-148l-6 -37h143v-171h-57l10 29v125h-99l-28 -154h-47l37 208h-37z" />
    <glyph glyph-name="uni4E08" unicode="&#x4e08;" 
d="M203 164l-59 -83l102 -106h-57l-69 72l-52 -72h-56l76 105l-63 68h57l31 -34l35 50h-136v18h149l17 24h55l-17 -24h29v-18h-42z" />
    <glyph glyph-name="uni4E09" unicode="&#x4e09;" 
d="M234 94h-209v25h209v-25zM241 198v-24h-223v24h223zM246 -1v-24h-233v24h233z" />
    <glyph glyph-name="uni4E0A" unicode="&#x4e0a;" 
d="M141 139v-144h105v-21h-233v21h81v207l47 8v-50h99v-21h-99z" />
    <glyph glyph-name="uni4E0B" unicode="&#x4e0b;" 
d="M185 155l55 -128h-44l-55 128h44zM244 202v-18h-113v-209h-44v209h-75v18h232z" />
    <glyph glyph-name="uni4E0C" unicode="&#x4e0c;" 
d="M21 -26l31 209h-42v19h233v-19h-29v-209h-48v209h-66l-31 -209h-48z" />
    <glyph glyph-name="uni4E0D" unicode="&#x4e0d;" 
d="M195 -25l-29 195h48l29 -195h-48zM88 170l-29 -195h-49l30 195h48zM104 -26v210h-94v20h233v-20h-94v-210h-45z" />
    <glyph glyph-name="uni4E0E" unicode="&#x4e0e;" 
d="M241 171h-164l-7 -49h167l-8 -147h-56l13 28l5 101h-168l14 102h44l-2 -17h162v-18zM170 50v-18h-160v18h160z" />
    <glyph glyph-name="uni4E10" unicode="&#x4e10;" 
d="M104 98v85h-94v19h233v-19h-94v-28h85v-19h-85v-38h90v-124h-56l11 29v76h-180l9 92h42l-7 -73h46z" />
    <glyph glyph-name="uni4E11" unicode="&#x4e11;" 
d="M233 205l-6 -210h17v-21h-233v21h39l10 99h-42v21h44l7 69h-45v21h209zM181 -5l3 99h-79l-10 -99h86zM185 115l2 69h-73l-6 -69h77z" />
    <glyph glyph-name="uni4E13" unicode="&#x4e13;" 
d="M95 55l48 -45l32 66h-138l15 47h-42v18h48l10 30h-53v18h59l5 17h47l-5 -17h117v-18h-124l-9 -30h138v-18h-144l-10 -29h142l-42 -88h-42l36 -31h-59l-87 80h58z" />
    <glyph glyph-name="uni4E14" unicode="&#x4e14;" 
d="M229 206v-212h15v-19h-233v19h13v212h205zM184 -6v62h-115v-62h115zM184 140v47h-115v-47h115zM184 75v46h-115v-46h115z" />
    <glyph glyph-name="uni4E15" unicode="&#x4e15;" 
d="M199 144l44 -116h-44l-43 116h43zM58 28h-48l72 155h-69v20h227v-19h-110l-11 -26h29v-149h-43v120zM243 -6v-20h-233v20h233z" />
    <glyph glyph-name="uni4E16" unicode="&#x4e16;" 
d="M34 -25v172h-21v18h21v29l44 7v-36h25v40l42 6v-46h39v40l42 6v-46h20v-18h-20v-123h-123v123h-25v-154h168v-18h-212zM145 147v-105h39v105h-39z" />
    <glyph glyph-name="uni4E18" unicode="&#x4e18;" 
d="M68 184v-47h176v-18h-38v-125h38v-19h-234v19h15v207l207 6v-18zM163 119h-95v-125h95v125z" />
    <glyph glyph-name="uni4E19" unicode="&#x4e19;" 
d="M12 187v17h233v-17h-95l-8 -31h99v-181h-52l10 27v137h-62l-4 -17h36l29 -115h-43l-26 101l-26 -101h-44l33 132h-34v-164h-43v181h81l8 31h-92z" />
    <glyph glyph-name="uni4E1A" unicode="&#x4e1a;" 
d="M201 186h38l-14 -170h-39zM15 186h38l15 -170h-38zM243 -8v-17h-232v17h65v211l42 8v-219h20v211l42 8v-219h63z" />
    <glyph glyph-name="uni4E1B" unicode="&#x4e1b;" 
d="M214 146l34 -140h-39l-17 70l-16 -70h-83l-17 70l-16 -70h-46l47 201h46l-15 -61h6l33 -137l46 198h46l-14 -61h5zM248 -5v-20h-234v20h234z" />
    <glyph glyph-name="uni4E1C" unicode="&#x4e1c;" 
d="M243 170h-156l-13 -53h34v36l47 9v-45h88v-19h-88v-123h-58l11 25v98h-81l16 72h-33v19h37l4 17h43l-3 -17h152v-19zM217 85l26 -110h-44l-26 110h44zM82 85l-26 -110h-43l26 110h43z" />
    <glyph glyph-name="uni4E1D" unicode="&#x4e1d;" 
d="M163 206h43l-38 -90h10l26 60h42l-60 -140h56v-19h-107l35 82h-51zM13 99l45 107h42l-37 -90h9l26 60h43l-61 -140h52v-19h-103l36 82h-52zM246 -5v-20h-233v20h233z" />
    <glyph glyph-name="uni4E1E" unicode="&#x4e1e;" 
d="M106 145l44 39h-127v19h198l-71 -58v-138h-57l13 32v106zM54 7h-45l33 118h-33v20h82zM242 146v-19l-30 -9l30 -111h-44l-37 138h44l2 -9zM242 -6v-20h-233v20h233z" />
    <glyph glyph-name="uni4E22" unicode="&#x4e22;" 
d="M17 -26l45 111h-53v19h93v31h-90v19h90v28l-90 -4v19l227 9v-19l-90 -3v-30h90v-19h-90v-31h93v-19h-128l-38 -92h104l-33 74h50l41 -93h-221z" />
    <glyph glyph-name="uni4E24" unicode="&#x4e24;" 
d="M77 161l3 28h-69v17h233v-17h-66l-3 -28h60v-186h-48l8 25v145h-21l-1 -10h11l10 -130h-23l-5 64l-7 -74h-34l1 10h-20l-5 64l-7 -74h-34l15 150h-16v-170h-39v186h57zM109 145l-1 -10h11l9 -116l12 126h-31zM113 189l-3 -28h32l3 28h-32z" />
    <glyph glyph-name="uni4E25" unicode="&#x4e25;" 
d="M53 -25h-42l15 147h55v64h-67v18h226v-18h-61v-64h61v-19h-174zM74 131h-37l-15 48h38zM223 131h-37l14 48h38zM122 186v-64h16v64h-16z" />
    <glyph glyph-name="uni4E27" unicode="&#x4e27;" 
d="M238 88l-33 -60l42 -54h-49l-93 124h-23v-102l40 4v-18l-83 -8v124h-26v18h95v57h-87v18h87v10l43 8v-18h87v-18h-87v-57h95v-18h-92l27 -37l15 27h42zM71 165l19 -41h-40l-18 41h39zM209 124h-40l18 41h40z" />
    <glyph glyph-name="uni4E28" unicode="&#x4e28;" 
d="M153 211v-236h-52v225z" />
    <glyph glyph-name="uni4E2A" unicode="&#x4e2a;" 
d="M154 159v-183h-48v175zM55 114h-50l69 92h114l65 -92h-49l-52 74h-42z" />
    <glyph glyph-name="uni4E2B" unicode="&#x4e2b;" 
d="M103 -25v135h48v-135h-48zM241 206l-63 -85h-49l63 85h49zM15 206h49l62 -85h-48z" />
    <glyph glyph-name="uni4E2C" unicode="&#x4e2c;" 
d="M90 96l-31 -108h-41l31 108h41zM42 107l-17 87h41l17 -87h-41zM138 209v-233h-42v228z" />
    <glyph glyph-name="uni4E2D" unicode="&#x4e2d;" 
d="M105 202l43 9v-33h90v-153h-90v-50h-43v50h-90v153h90v24zM198 162h-50v-120h50v120zM105 42v120h-50v-120h50z" />
    <glyph glyph-name="uni4E30" unicode="&#x4e30;" 
d="M151 -25h-48v43h-93v20h93v69h-87v19h87v47h-90v20h90v9l48 7v-16h89v-20h-89v-47h86v-19h-86v-69h92v-20h-92v-43z" />
    <glyph glyph-name="uni4E32" unicode="&#x4e32;" 
d="M20 103h89v12h-82v79h82v6l44 10v-16h82v-79h-82v-12h89v-109h-89v-19h-44v19h-89v109zM153 84v-74h46v74h-46zM109 84h-46v-74h46v74zM153 177v-45h42v45h-42zM67 132h42v45h-42v-45z" />
    <glyph glyph-name="uni4E34" unicode="&#x4e34;" 
d="M239 -25h-136v136h136v-136zM57 -25v229l37 4v-233h-37zM15 -25v219l34 3v-222h-34zM244 195v-17h-85l-17 -55h-42l25 83h42l-3 -11h80zM223 172l21 -49h-44l-20 49h43zM155 -7v100h-17v-100h17zM190 -7h13v100h-13v-100z" />
    <glyph glyph-name="uni4E36" unicode="&#x4e36;" 
d="M74 156h56l53 -131h-55z" />
    <glyph glyph-name="uni4E38" unicode="&#x4e38;" 
d="M232 -7h11v-18h-56v191h-85l-17 -72l66 -101h-47l-32 48l-16 -66h-45l29 117l-22 33h30l9 41h-46v17h50l6 23h45l-6 -23h126v-190z" />
    <glyph glyph-name="uni4E39" unicode="&#x4e39;" 
d="M42 206h192v-96h13v-19h-13v-116h-51l7 24v92h-111l-8 -116h-44l8 116h-21v19h22zM190 187h-105l-5 -77h45l-19 63h40l19 -63h25v77z" />
    <glyph glyph-name="uni4E3A" unicode="&#x4e3a;" 
d="M57 -26h-46l54 170h-49v18h55l14 43h45l-13 -43h117v-188h-53l10 27v143h-80zM161 35h-38l-23 72h37zM71 168h-35l-10 33h34z" />
    <glyph glyph-name="uni4E3B" unicode="&#x4e3b;" 
d="M242 -6v-18h-232v18h92v96h-83v18h83v61h-87v18h222v-18h-84v-61h81v-18h-81v-96h89zM102 193v1l49 22v-23h-49z" />
    <glyph glyph-name="uni4E3D" unicode="&#x4e3d;" 
d="M189 -24l10 25v53h-20l-7 72v-150h-38v198h101v-198h-46zM75 -24l10 25v53h-20l-7 72v-150h-38v198h101v-198h-46zM11 190v17h233v-17h-233zM78 131l7 -70v96h-27v-26h20zM191 131l8 -70v96h-27v-26h19z" />
    <glyph glyph-name="uni4E3E" unicode="&#x4e3e;" 
d="M148 70v-31h95v-19h-95v-44h-43v44h-95v19h95v31h-89v19h89v19l43 6v-25h89v-19h-89zM243 161v-18h-32l32 -44h-46l-32 44h-77l-32 -44h-46l32 44h-32v18h233zM36 168l-12 38h44l12 -38h-44zM84 206h44l12 -38h-44zM217 206l-14 -36h-45l14 36h45z" />
    <glyph glyph-name="uni4E3F" unicode="&#x4e3f;" 
d="M168 206l-42 -231h-52l42 231h52z" />
    <glyph glyph-name="uni4E43" unicode="&#x4e43;" 
d="M243 130l-6 -156h-56l14 26l5 113h-49l18 73h-74l-35 -212h-46l35 212h-37v17h207l-19 -73h43z" />
    <glyph glyph-name="uni4E45" unicode="&#x4e45;" 
d="M162 106l81 -131h-55l-55 90l-66 -90h-57l144 200h-77l-21 -45h-46l35 76h47l-6 -12h139z" />
    <glyph glyph-name="uni4E47" unicode="&#x4e47;" 
d="M81 -25v123l-71 -4v19l71 4v63l-64 -3v20l219 10v-19l-109 -5v-64l116 5v-19l-116 -5v-106h116v-19h-162z" />
    <glyph glyph-name="uni4E48" unicode="&#x4e48;" 
d="M202 73l42 -98h-233l140 200h53l-130 -183h118l-35 81h45zM64 78h-53l84 128h53z" />
    <glyph glyph-name="uni4E49" unicode="&#x4e49;" 
d="M114 170l-15 37h41l14 -37h-40zM164 91l78 -115h-54l-62 90l-61 -90h-55l79 115l-71 106h49l59 -88l59 88h50z" />
    <glyph glyph-name="uni4E4B" unicode="&#x4e4b;" 
d="M243 -7v-18h-231l146 197h-141v17h211l-146 -196h161zM145 216v-20h-40z" />
    <glyph glyph-name="uni4E4C" unicode="&#x4e4c;" 
d="M179 -27l16 30v84h-170v109h83l35 17v-17h85v-79h-52l10 24v37h-117v-73h172v-132h-62zM11 19v18h168v-18h-168z" />
    <glyph glyph-name="uni4E4D" unicode="&#x4e4d;" 
d="M244 177h-102v-48h96v-19h-96v-48h96v-18h-96v-69h-47v202h-23l-14 -48h-47l24 77h46l-3 -11h166v-18z" />
    <glyph glyph-name="uni4E4E" unicode="&#x4e4e;" 
d="M209 104h-43l28 72h43zM72 176l28 -72h-43l-28 72h43zM247 98v-21h-91v-101h-59l11 26v75h-94v21h94v88l-86 -3v20l217 7v-20l-83 -3v-89h91z" />
    <glyph glyph-name="uni4E4F" unicode="&#x4e4f;" 
d="M90 -3h152v-22h-233l142 160h-138v19h216zM9 178v21l230 8v-21zM95 159l47 20v-20h-47z" />
    <glyph glyph-name="uni4E50" unicode="&#x4e50;" 
d="M25 201l206 6v-20l-166 -5l-5 -66h47v56l41 5v-61h96v-17h-96v-124h-53l12 27v97h-90zM215 85l29 -110h-42l-29 110h42zM55 -25h-43l32 110h42z" />
    <glyph glyph-name="uni4E52" unicode="&#x4e52;" 
d="M244 83v-17h-233v17h15v120l204 6v-18l-159 -4v-29h168v-17h-35v-58h40zM164 83v58h-93v-58h93zM89 56l-30 -81h-45l30 81h45z" />
    <glyph glyph-name="uni4E53" unicode="&#x4e53;" 
d="M203 139v-57h41v-17h-233v17h15v120l204 6v-18l-160 -4v-29h169v-18h-36zM163 82v57h-93v-57h93zM211 55l30 -81h-45l-30 81h45z" />
    <glyph glyph-name="uni4E54" unicode="&#x4e54;" 
d="M224 89v-114h-46v114h46zM89 89l-17 -114h-47l18 114h46zM98 142l-35 -43h-54l36 43h-34v17h47l22 28l-60 -2v17l215 6v-17l-100 -3l-23 -29h132v-17h-35l35 -43h-53l-35 43h-58z" />
    <glyph glyph-name="uni4E56" unicode="&#x4e56;" 
d="M240 188h-86v-16h93v-18h-93v-179h-46v179h-94v18h94v16h-87v18h219v-18zM49 33v12l-35 -5v20l35 5v40h-35v18h35v15l42 3v-108h-42zM247 105h-36v-54h36v-18h-77v105l41 3v-18h36v-18z" />
    <glyph glyph-name="uni4E58" unicode="&#x4e58;" 
d="M243 171v-17h-94v-180h-44v180h-94v17h94v15l-91 -4v17l226 9v-17l-91 -3v-17h94zM59 -25h-47l44 96h47zM244 -25h-47l-44 96h47zM240 136v-17h-34v-20h34v-17h-76v59l42 8v-13h34zM14 82v17h34v20h-34v17h34v5l42 8v-67h-76z" />
    <glyph glyph-name="uni4E59" unicode="&#x4e59;" 
d="M9 -25l151 210h-144v19h216l-149 -208h159v-21h-233z" />
    <glyph glyph-name="uni4E5C" unicode="&#x4e5c;" 
d="M36 -25v163l-25 -3v19l25 3v46l48 9v-50l151 17v-127h-57l13 33v70l-107 -12v-149h159v-19h-207z" />
    <glyph glyph-name="uni4E5D" unicode="&#x4e5d;" 
d="M221 184v-190h22v-19h-70v190h-77l-33 -190h-49l32 190h-36v19h39l3 21h51l-4 -21h122z" />
    <glyph glyph-name="uni4E5E" unicode="&#x4e5e;" 
d="M245 -5v-19h-231l137 154h-131v19h211l-137 -154h151zM245 197v-19h-179l-9 -21h-45l22 51h45l-5 -11h171z" />
    <glyph glyph-name="uni4E5F" unicode="&#x4e5f;" 
d="M31 137l-21 -2v20l21 2v33l45 8v-36l37 3v40l43 7v-43l77 8v-138h-54l12 34v79l-35 -3v-136h-43v132l-37 -4v-146h167v-20h-212v162z" />
    <glyph glyph-name="uni4E60" unicode="&#x4e60;" 
d="M179 -25l13 34v176h-175v19h218v-229h-56zM62 -25h-48l60 114h48zM74 113l-38 59h47l39 -59h-48z" />
    <glyph glyph-name="uni4E61" unicode="&#x4e61;" 
d="M11 137l72 69h54l-53 -51h42l38 36h56l-115 -106h50l31 30h58l-145 -140h-59l96 92h-107l77 70h-95z" />
    <glyph glyph-name="uni4E66" unicode="&#x4e66;" 
d="M13 112h82v59h-75v18h75v15l43 8v-23h88l-13 -77h31v-136h-55l13 29v89h-64v-118h-43v118h-82v18zM138 171v-59h35l10 59h-45zM244 213v-20h-39z" />
    <glyph glyph-name="uni4E69" unicode="&#x4e69;" 
d="M137 155h-46v-46h36v-134h-113v134h32v91l45 12v-38h46v-19zM149 -25v225l44 12v-218h50v-19h-94zM85 -6v96h-29v-96h29z" />
    <glyph glyph-name="uni4E70" unicode="&#x4e70;" 
d="M245 98v-18h-120l-54 -104h-47l53 104h-64v18h73l41 80h48l-41 -80h111zM231 142h-42l7 45h-180v18h226zM147 71h48l51 -95h-48zM81 178l17 -32h-44l-17 32h44zM37 109l-17 31h44l17 -31h-44z" />
    <glyph glyph-name="uni4E71" unicode="&#x4e71;" 
d="M146 134h-47v-33h43v-126h-126v126h43v33h-48v17h48v34l-43 -2v17l124 7v-17l-41 -2v-37h47v-17zM166 204l42 6v-218h36v-17h-78v229zM103 84h-48v-92h48v92z" />
    <glyph glyph-name="uni4E73" unicode="&#x4e73;" 
d="M63 0v48l-50 -9v18l50 9v18l27 36h-73v17h80l16 41h33l-16 -41h16l-39 -53v-10l44 7v-18l-44 -8v-80h-55zM246 -8v-17h-82v228l45 7v-218h37zM149 208v-18l-136 -8v17zM14 178h33l9 -33h-32zM96 145h-33l-9 33h33z" />
    <glyph glyph-name="uni4E7E" unicode="&#x4e7e;" 
d="M12 157h39v20h-39v17h39v8l40 7v-15h35v-17h-35v-20h35v-95h-35v-23h35v-17h-35v-47h-40v47h-39v17h39v23h-39v95zM245 -8v-17h-116l59 154h-57v18h110l-60 -155h64zM245 194v-17h-69l-10 -22h-38l22 51h38l-5 -12h62zM92 140h-47v-21h47v21zM92 80v21h-47v-21h47z" />
    <glyph glyph-name="uni4E86" unicode="&#x4e86;" 
d="M240 204l-75 -81v-148h-61l12 28v120l58 63h-159v18h225z" />
    <glyph glyph-name="uni4E88" unicode="&#x4e88;" 
d="M235 69h-41l5 35h-46v-129h-59l11 28v101h-95v18h79l-37 53h51l28 -40l40 51h-150v18h215l-64 -82h71z" />
    <glyph glyph-name="uni4E89" unicode="&#x4e89;" 
d="M231 155v-44h13v-18h-13v-50h-80v-68h-58l11 29v39h-84v18h84v32h-93v18h93v26h-84v18h132l16 25h-89l-11 -16h-48l29 42h48l-5 -8h135l-28 -43h32zM189 61v32h-38v-32h38zM189 111v26h-38v-26h38z" />
    <glyph glyph-name="uni4E8B" unicode="&#x4e8b;" 
d="M109 26v17h-96v18h96v17h-91v18h91v14h-84v53h84v13h-96v18h96v9l45 7v-16h92v-18h-92v-13h80v-53h-80v-14h85v-35h7v-18h-7v-35h-85v-33h-58l13 29v4h-91v18h91zM63 128h46v17h-46v-17zM154 43v-17h45v17h-45zM154 78v-17h45v17h-45zM154 145v-17h42v17h-42z" />
    <glyph glyph-name="uni4E8C" unicode="&#x4e8c;" 
d="M243 19v-27h-234v27h234zM14 166v25h223v-25h-223z" />
    <glyph glyph-name="uni4E8D" unicode="&#x4e8d;" 
d="M125 8v116h-115v20h233v-20h-69v-150h-64zM235 202v-19h-216v19h216z" />
    <glyph glyph-name="uni4E8E" unicode="&#x4e8e;" 
d="M242 115v-18h-91v-122h-58l13 29v93h-96v18h96v69h-87v18h213v-18h-81v-69h91z" />
    <glyph glyph-name="uni4E8F" unicode="&#x4e8f;" 
d="M10 127v20h233v-20h-163l-7 -38h151l-13 -114h-164v21h121l8 73h-147l10 58h-29zM235 201v-19h-218v19h218z" />
    <glyph glyph-name="uni4E91" unicode="&#x4e91;" 
d="M14 -25l41 139h-44v18h233v-18h-142l-35 -121h121l-28 97h48l33 -115h-227zM24 185v18h207v-18h-207z" />
    <glyph glyph-name="uni4E92" unicode="&#x4e92;" 
d="M211 -6h36v-19h-233v19h146l6 49h-136l16 141h-27v19h223v-19h-147l-3 -25h138zM168 62l8 78h-86l-9 -78h87z" />
    <glyph glyph-name="uni4E93" unicode="&#x4e93;" 
d="M205 -25h-44v145h-62l-30 -145h-44l30 145h-44v19h232v-19h-38v-145zM20 183v19h214v-19h-214z" />
    <glyph glyph-name="uni4E94" unicode="&#x4e94;" 
d="M225 -5h19v-19h-233v19h31l16 114h-33v18h35l9 61h-50v17h218v-17h-122l-8 -61h118v-132zM181 -5v114h-77l-16 -114h93z" />
    <glyph glyph-name="uni4E95" unicode="&#x4e95;" 
d="M97 163l-7 -84h73v84h-66zM33 -25l7 84h-30v20h31l7 84h-34v21h36l2 22h48l-2 -22h65v18l48 5v-23h28v-21h-28v-84h32v-20h-32v-84h-48v84h-75l-7 -84h-48z" />
    <glyph glyph-name="uni4E98" unicode="&#x4e98;" 
d="M231 23h-209v141h209v-141zM67 42h119v43h-119v-43zM67 144v-40h119v40h-119zM243 -6v-20h-233v20h233zM240 203v-19h-228v19h228z" />
    <glyph glyph-name="uni4E9A" unicode="&#x4e9a;" 
d="M244 -7v-18h-233v18h67v192h-59v19h217v-19h-59v-192h67zM37 3l-22 164h37l22 -164h-37zM180 3l22 164h38l-22 -164h-38zM136 -7v192h-17v-192h17z" />
    <glyph glyph-name="uni4E9B" unicode="&#x4e9b;" 
d="M133 98v-18l-122 -15v17l10 2v107l37 5v-108l14 2v112l40 5v-41h21v-17h-21v-54zM244 89v-18h-103v131l41 5v-54l23 31h39l-35 -47h-27v-48h62zM241 -5v-21h-227v21h227zM26 49h203v-19h-203v19z" />
    <glyph glyph-name="uni4E9F" unicode="&#x4e9f;" 
d="M185 22h-32l20 69l-11 38h32l3 -13l6 20h-44v17l-9 -8v-138h-57l13 33v105l44 39h-127v19h198l-59 -47h78l-18 -65l20 -69h-32l-12 44zM93 22h-79v134h79v-134zM242 -6v-19h-233v19h233zM48 41h12v95h-12v-95z" />
    <glyph glyph-name="uni4EA0" unicode="&#x4ea0;" 
d="M9 148v22h233v-22h-233zM100 175l40 23v-23h-40z" />
    <glyph glyph-name="uni4EA1" unicode="&#x4ea1;" 
d="M10 167v21h233v-21h-163v-170h152v-21h-198v191h-24zM114 194l42 21v-21h-42z" />
    <glyph glyph-name="uni4EA2" unicode="&#x4ea2;" 
d="M243 -5v-20h-72v160h-85l-18 -160h-44l21 179h166v-159h32zM243 190v-19h-233v19h233zM101 194l40 19v-19h-40z" />
    <glyph glyph-name="uni4EA4" unicode="&#x4ea4;" 
d="M197 119l-41 49h48l41 -49h-48zM130 24l-58 -52h-59l88 80l-64 59h59l34 -31l34 31h59l-63 -59l88 -80h-60zM62 119h-47l40 49h47zM107 194l44 21v-21h-44zM247 191v-17h-233v17h233z" />
    <glyph glyph-name="uni4EA5" unicode="&#x4ea5;" 
d="M23 102l43 74h-52v17h233v-17h-129l-32 -55h19l15 25h53l-105 -171h-52l78 127h-71zM189 146h52l-50 -83l53 -88h-51l-28 45l-28 -45h-52zM149 214v-17h-41z" />
    <glyph glyph-name="uni4EA6" unicode="&#x4ea6;" 
d="M10 175v18h233v-18h-64v-204h-51l10 29v175h-13l-18 -204h-41l17 204h-73zM141 198h-37l37 17v-17zM243 -29h-36l-20 185h36zM30 156h37l-20 -185h-37z" />
    <glyph glyph-name="uni4EA7" unicode="&#x4ea7;" 
d="M212 165l-11 -40h42v-19h-176l-13 -133h-44l15 152h131l11 40h45zM243 192v-19h-233v19h233zM60 134l-8 31h45l8 -31h-45zM110 196l37 18v-18h-37z" />
    <glyph glyph-name="uni4EA8" unicode="&#x4ea8;" 
d="M233 108h-203v61h203v-61zM21 79v19h213l-75 -49v-75h-56l11 20v55l47 30h-140zM247 196v-17h-233v17h233zM69 151v-25h126v25h-126zM108 198l40 16v-16h-40z" />
    <glyph glyph-name="uni4EA9" unicode="&#x4ea9;" 
d="M19 -27v185h218v-185h-218zM12 175v17h233v-17h-233zM59 -9h47v81h-47v-81zM150 72v-81h47v81h-47zM59 140v-50h47v50h-47zM150 140v-50h47v50h-47zM104 197l39 17v-17h-39z" />
    <glyph glyph-name="uni4EAB" unicode="&#x4eab;" 
d="M231 98l-63 -47h76v-18h-87v-60h-58l13 27v33h-101v18h105l38 28h-130v19h207zM29 110v60h199v-60h-199zM145 214v-17h99v-19h-233v19h98zM70 151v-23h118v23h-118z" />
    <glyph glyph-name="uni4EAC" unicode="&#x4eac;" 
d="M105 1v79h-80v81h203v-81h-78v-106h-53zM66 98h121v45h-121v-45zM243 191v-18h-233v18h233zM12 -26l23 93h43l-23 -93h-43zM240 -26h-42l-23 93h42zM144 214v-20h-39v1z" />
    <glyph glyph-name="uni4EAD" unicode="&#x4ead;" 
d="M26 168h203v-57h-203v57zM97 -28l13 29v48h-89v18h213v-18h-79v-77h-58zM12 103h229v-31h-43v13h-143v-13h-43v31zM15 176v18h226v-18h-226zM190 150h-124v-20h124v20zM149 197h-38l38 18v-18z" />
    <glyph glyph-name="uni4EAE" unicode="&#x4eae;" 
d="M221 76v-84h24v-17h-65v83h-102l-20 -83h-43l24 101h182zM231 123h-206v50h206v-50zM245 114v-32h-43v15h-148v-15h-42v32h233zM245 198v-17h-233v17h100l34 17v-17h99zM192 140v16h-129v-16h129z" />
    <glyph glyph-name="uni4EB2" unicode="&#x4eb2;" 
d="M244 -27h-41l-35 96h42zM53 -27h-41l34 96h41zM55 135l-14 35h41l14 -35h-41zM106 198l41 18v-18h-41zM244 128v-18h-94v-14h90v-18h-90v-105h-56l13 27v78h-91v18h91v14h-95v18h145l17 42h41l-16 -42h45zM16 176v18h224v-18h-224z" />
    <glyph glyph-name="uni4EB3" unicode="&#x4eb3;" 
d="M147 14v-27h96v-17h-144v41l-89 -6v18l89 6v15l-75 -4v17l206 13v-18l-83 -5v-16l96 7v-18zM24 163h206v-45h-206v45zM14 108h226v-32h-45v14h-136v-14h-45v32zM10 172v18h233v-18h-233zM69 145v-9h116v9h-116zM101 193l40 20v-20h-40z" />
    <glyph glyph-name="uni4EB5" unicode="&#x4eb5;" 
d="M193 142h-20l-11 -31l21 -7v-20l-27 9l-8 -22h-39l12 33l-4 1v20l10 -3l7 20h-17v17h22l5 13h39l-5 -13h53v-71h12v-17h-50v71zM85 30l-31 -58h-44l48 88h43l-10 -19h33v-53h35v-17h-74v59zM105 142h-22v-18l22 3v-17l-22 -3v-36h-55l14 29v2l-30 -4v16l30 5v23h-30v17
h30v6l41 9v-15h22v-17zM240 60l-36 -44l39 -44h-48l-76 88h48l16 -19l16 19h41zM243 196v-17h-233v17h95l36 18v-18h102z" />
    <glyph glyph-name="uni4EBA" unicode="&#x4eba;" 
d="M130 151l-67 -177h-50l87 231h50l-18 -49h46l68 -182h-50z" />
    <glyph glyph-name="uni4EBB" unicode="&#x4ebb;" 
d="M85 -24h-41v122h-34l56 109h45l-26 -51v-180z" />
    <glyph glyph-name="uni4EBF" unicode="&#x4ebf;" 
d="M243 -4v-20h-165l100 209h-86v19h144l-100 -208h107zM30 98h-20l35 108h43l-18 -55v-176h-40v123z" />
    <glyph glyph-name="uni4EC0" unicode="&#x4ec0;" 
d="M33 -25v122h-21l35 109h43l-16 -51v-180h-41zM82 114v18h59v69l45 7v-76h59v-18h-59v-139h-45v139h-59z" />
    <glyph glyph-name="uni4EC1" unicode="&#x4ec1;" 
d="M75 -26h-41v122h-21l35 109h43l-16 -51v-180zM246 -6v-20h-159v20h159zM92 191h149v-20h-149v20z" />
    <glyph glyph-name="uni4EC2" unicode="&#x4ec2;" 
d="M237 -24h-54l12 26v158h-44l-17 -184h-41l17 184h-17v20h19l2 27h42l-3 -27h84v-204zM31 -24v122h-21l36 109h45l-19 -55v-176h-41z" />
    <glyph glyph-name="uni4EC3" unicode="&#x4ec3;" 
d="M73 -24h-42v122h-21l37 109h44l-18 -55v-176zM93 184v19h150v-19h-46v-208h-54l12 26v182h-62z" />
    <glyph glyph-name="uni4EC4" unicode="&#x4ec4;" 
d="M128 172h44l-16 -47h36l51 -150h-44l-47 138l-47 -138h-44zM243 204v-20h-177l-14 -209h-42l14 229h219z" />
    <glyph glyph-name="uni4EC5" unicode="&#x4ec5;" 
d="M242 197l-48 -108l53 -113h-46l-37 80l-38 -80h-45l52 113l-47 106l-12 -39v-181h-40v123h-20l34 108h42l-3 -9h155zM164 122l24 56h-49z" />
    <glyph glyph-name="uni4EC6" unicode="&#x4ec6;" 
d="M220 175l24 -142h-36l-25 140v-198h-42v229l42 7v-36h37zM32 98h-21l35 108h43l-16 -50v-181h-41v123z" />
    <glyph glyph-name="uni4EC7" unicode="&#x4ec7;" 
d="M231 185v-192h12v-18h-57v192h-35l-22 -192h-43l22 192h-22v18h24l2 21h43l-3 -21h79zM52 206h40l-20 -50v-181h-40v126h-22z" />
    <glyph glyph-name="uni4EC9" unicode="&#x4ec9;" 
d="M230 -5h13v-19h-55v208h-43l-12 -208h-42l14 227h125v-208zM10 98l37 109h44l-18 -55v-176h-42v122h-21z" />
    <glyph glyph-name="uni4ECA" unicode="&#x4eca;" 
d="M159 -26h-51l65 110h-157v19h220zM57 131h-47l49 75h136l48 -75h-46l-37 56h-66zM154 115h-39l-15 39h38z" />
    <glyph glyph-name="uni4ECB" unicode="&#x4ecb;" 
d="M59 145h-50l44 61h149l42 -61h-50l-28 42h-77zM227 -25h-47v150l47 4v-154zM63 -25h-45l22 154h44z" />
    <glyph glyph-name="uni4ECD" unicode="&#x4ecd;" 
d="M190 -26l11 31v113h-27l18 65h-31l-24 -209h-42l24 209h-24v19h143l-18 -65h23v-163h-53zM34 97h-21l35 108h43l-16 -50v-181h-41v123z" />
    <glyph glyph-name="uni4ECE" unicode="&#x4ece;" 
d="M59 -26h-46l48 233h45l-15 -76h7l32 -153l47 229h46l-16 -76h7l34 -157h-40l-17 78l-16 -78h-83l-17 78z" />
    </font>
</defs>
</svg>
