<svg xmlns="http://www.w3.org/2000/svg">
<defs>
<font id="HandelsonOneCYR-One" horiz-adv-x="0" >
  <font-face 
    font-family="Handelson OneCYR"
    font-weight="500"
    font-stretch="normal"
    units-per-em="1000"
    panose-1="0 0 1 0 0 0 0 0 0 0"
    ascent="800"
    descent="-200"
    x-height="333"
    cap-height="645"
    bbox="-240 -307 1068 713"
    underline-thickness="50"
    underline-position="-150"
    unicode-range="U+001D-2212"
  />
<missing-glyph horiz-adv-x="710" 
d="M338 -2l-21 5l-22 6q-47 12 -83 64q-19 26 -27 46q-4 10 -7 24l-2 12l-2 12q-4 23 -4 45q0 18 2 37q6 45 22 88q3 11 10 22l7 11l6 10q4 6 10 18l8 18q39 70 130 137q9 7 22 13l11 4l11 5q25 11 42 16q51 14 92 14q31 0 53 -2q29 -4 51 -13q8 -3 19 -11l9 -6l10 -6
q20 -12 34 -28q37 -40 48 -74q12 -38 12 -75q0 -13 -2 -25q-7 -51 -24 -94q-8 -18 -22 -42l-12 -20l-13 -20q-5 -9 -14 -20l-8 -10l-7 -10q-14 -19 -29 -32l-19 -17l-19 -16q-22 -18 -40 -29q-27 -17 -44 -26q-25 -13 -46 -20q-10 -3 -24 -6l-24 -3l-25 -5q-15 -2 -25 -2
q-20 0 -44 5zM435 63q9 2 21 8l11 5l10 6q24 12 42 22q81 49 127 123l12 18l11 17q13 21 20 36q8 16 12 38l5 18l6 18q5 20 5 47l-1 33q-1 8 -4 18l-6 18q-3 8 -20 25q-22 24 -61 31q-15 3 -35 3q-13 1 -34 0q-27 0 -43 -5l-17 -5l-18 -5q-19 -6 -32 -14l-18 -11l-19 -11
l-14 -7q-8 -4 -13 -9q-11 -10 -29 -31l-14 -16l-14 -15q-30 -31 -44 -62l-5 -9l-5 -8q-7 -11 -10 -18l-2 -8l-3 -9q-3 -12 -5 -18l-5 -9l-4 -9q-4 -11 -6 -20l-3 -20l-1 -21l-2 -22l-1 -23q0 -21 5 -35q15 -41 39 -57q31 -21 74 -21q34 0 88 14zM387 200q-2 5 -4 12
q-1 5 -1 8q0 15 10 29q11 17 39 34l26 16l6 3l6 4q9 6 12 7q2 1 6 4l9 6q12 8 13 9q2 1 10 7l7 6l8 6q3 3 11 9l12 8q6 4 14 12l6 6l6 6q8 6 12 12q6 8 6 16q0 16 -30 16q-17 0 -28 -4q-42 -16 -64 -35l-16 -12q-8 -7 -14 -13l-3 -5l-4 -4q-4 -6 -9 -6q-9 0 -14 12
q-4 9 -4 22q0 11 3 17q6 15 22 29q4 3 12 8l6 4l6 4l9 7l10 7q12 7 22 8q7 1 9 2q7 6 10 6l8 1h8l6 3l7 2q6 2 14 2q31 0 53 -21q23 -24 23 -56q0 -34 -21 -65q-17 -26 -54 -46l-10 -6q-7 -3 -10 -6l-5 -4l-6 -4q-5 -4 -16 -9l-16 -9l-66 -38l-4 -2l-3 -2l-9 -5

<glyph glyph-name=".notdef" horiz-adv-x="710" 
d="M338 -2l-21 5l-22 6q-47 12 -83 64q-19 26 -27 46q-4 10 -7 24l-2 12l-2 12q-4 23 -4 45q0 18 2 37q6 45 22 88q3 11 10 22l7 11l6 10q4 6 10 18l8 18q39 70 130 137q9 7 22 13l11 4l11 5q25 11 42 16q51 14 92 14q31 0 53 -2q29 -4 51 -13q8 -3 19 -11l9 -6l10 -6
q20 -12 34 -28q37 -40 48 -74q12 -38 12 -75q0 -13 -2 -25q-7 -51 -24 -94q-8 -18 -22 -42l-12 -20l-13 -20q-5 -9 -14 -20l-8 -10l-7 -10q-14 -19 -29 -32l-19 -17l-19 -16q-22 -18 -40 -29q-27 -17 -44 -26q-25 -13 -46 -20q-10 -3 -24 -6l-24 -3l-25 -5q-15 -2 -25 -2
q-20 0 -44 5zM435 63q9 2 21 8l11 5l10 6q24 12 42 22q81 49 127 123l12 18l11 17q13 21 20 36q8 16 12 38l5 18l6 18q5 20 5 47l-1 33q-1 8 -4 18l-6 18q-3 8 -20 25q-22 24 -61 31q-15 3 -35 3q-13 1 -34 0q-27 0 -43 -5l-17 -5l-18 -5q-19 -6 -32 -14l-18 -11l-19 -11
l-14 -7q-8 -4 -13 -9q-11 -10 -29 -31l-14 -16l-14 -15q-30 -31 -44 -62l-5 -9l-5 -8q-7 -11 -10 -18l-2 -8l-3 -9q-3 -12 -5 -18l-5 -9l-4 -9q-4 -11 -6 -20l-3 -20l-1 -21l-2 -22l-1 -23q0 -21 5 -35q15 -41 39 -57q31 -21 74 -21q34 0 88 14zM387 200q-2 5 -4 12
q-1 5 -1 8q0 15 10 29q11 17 39 34l26 16l6 3l6 4q9 6 12 7q2 1 6 4l9 6q12 8 13 9q2 1 10 7l7 6l8 6q3 3 11 9l12 8q6 4 14 12l6 6l6 6q8 6 12 12q6 8 6 16q0 16 -30 16q-17 0 -28 -4q-42 -16 -64 -35l-16 -12q-8 -7 -14 -13l-3 -5l-4 -4q-4 -6 -9 -6q-9 0 -14 12
q-4 9 -4 22q0 11 3 17q6 15 22 29q4 3 12 8l6 4l6 4l9 7l10 7q12 7 22 8q7 1 9 2q7 6 10 6l8 1h8l6 3l7 2q6 2 14 2q31 0 53 -21q23 -24 23 -56q0 -34 -21 -65q-17 -26 -54 -46l-10 -6q-7 -3 -10 -6l-5 -4l-6 -4q-5 -4 -16 -9l-16 -9l-66 -38l-4 -2l-3 -2l-9 -5
q-9 -6 -10 -12v-2l1 -4v-4q0 -3 -3 -7q-3 -5 -7 -5q-11 0 -17 16zM345 120q-10 13 -6 26q8 28 34 28q16 0 25 -11t7 -26q-1 -4 -5 -11q-3 -7 -6 -11q-4 -5 -12 -7q-6 -2 -14 -2q-14 0 -23 14z" />
    <glyph glyph-name="glyph1" horiz-adv-x="600" 
 />
    <glyph glyph-name="glyph2" horiz-adv-x="600" 
 />
    <glyph glyph-name="space" unicode=" " horiz-adv-x="234" 
 />
    <glyph glyph-name="exclam" unicode="!" horiz-adv-x="268" 
d="M189 155q-12 12 -17 21q-2 5 -3 12l-1 5v8q0 3 3 8l2 3l1 4v4q-1 3 0 5l2 2l3 1q2 2 3 5q2 3 2 7q0 5 4 7q5 2 9 8q2 3 5 10l4 14q3 8 6 13l12 23l14 24l9 16l10 16l7 13l7 13l1 3l3 4q3 5 3 7l1 4v4q0 7 6 14l4 5l5 6l7 12l7 12l4 5l4 5l3 6l3 7q9 15 15 24q4 6 8 10
l4 3l4 5q1 2 3 7l2 5l2 4l6 8l6 9l11 15l11 16q12 21 22 32q9 11 16 11q5 0 12 -3l11 -4l11 -5q13 -6 18 -12q12 -13 11 -27q-1 -6 -15 -22q-5 -5 -15 -22l-8 -12q-4 -6 -6 -10l-11 -15l-10 -15l-7 -8l-5 -7q-7 -9 -11 -16q-8 -14 -21 -33l-10 -16l-10 -16l-9 -16l-8 -15
q-10 -19 -18 -29q-6 -8 -14 -22l-3 -5l-3 -4q-4 -5 -5 -8l-2 -6q-2 -4 -2 -5q-2 -3 -6 -7q-3 -2 -6 -6l-4 -8l-10 -12l-8 -14l-3 -7l-3 -7q-5 -10 -6 -13l-4 -7l-5 -6q-5 -7 -7 -13q-3 -5 -7 -12l-4 -6l-3 -7q-8 -15 -16 -15q-11 0 -21 8zM120 -2q-3 2 -7 5l-6 6q-2 3 -5 7
q-2 5 -4 8l-1 4l-2 4q-2 5 -2 10q0 6 1 12q1 4 3 9q2 8 8 17q6 8 9 10q6 6 17 10q10 4 16 4q7 0 19 -7l9 -5l9 -5q8 -4 12 -12q0 -2 2 -12q1 -10 1 -13q0 -7 -2 -11q-1 -3 -3 -7q-3 -4 -4 -6l-5 -6l-3 -5q-4 -6 -9 -10q-7 -5 -19 -8q-8 -2 -19 -2q-9 0 -15 3z" />
    <glyph glyph-name="quotedbl" unicode="&#x22;" horiz-adv-x="303" 
d="M365 407q-12 11 -11 22q0 4 1 9t3 7q4 6 7 14q5 11 14 24q3 4 5 10l2 5l4 5l11 16l12 16q9 15 18 26l4 5l4 5q6 7 10 13l5 8l6 7q6 10 11 14l6 6l4 5q6 7 10 11q8 6 18 6q23 0 38 -19q4 -5 4 -10t-8 -12q-6 -4 -10 -11l-4 -7l-4 -7q-13 -19 -21 -28q-6 -6 -12 -16l-6 -9
l-5 -8q-6 -8 -13 -18l-11 -15q-10 -13 -17 -24l-7 -9l-7 -10q-8 -11 -11 -17l-4 -9l-4 -9q-5 -8 -16 -8q-13 0 -26 12zM249 401q-10 11 -9 28q0 6 3 14l2 5l2 4l3 7l3 7q2 6 7 12l3 4l4 6l4 8l4 6q3 7 7 12q3 5 8 11q4 4 8 12l3 7l4 6l11 12q7 8 10 14l6 11l7 10
q11 17 20 20q6 3 13 3q11 0 25 -9q8 -5 12 -9q6 -5 6 -10q0 -3 -3 -6l-7 -7q-4 -4 -9 -12l-9 -13l-9 -14l-9 -14l-7 -13l-8 -12l-4 -6l-6 -7q-7 -9 -12 -16l-4 -7l-4 -7q-6 -9 -11 -16l-11 -16q-6 -10 -9 -18l-1 -5l-2 -4q-1 -5 -3 -7q-3 -4 -13 -4q-15 0 -25 13z" />
    <glyph glyph-name="numbersign" unicode="#" horiz-adv-x="503" 
d="M160 104l-5 7l-5 6q-10 11 -10 23q0 10 14 32l7 14l8 14q1 1 2 3l3 5q4 6 4 8q0 3 -4 3l-4 -1h-4l-9 -1l-8 -1h-4l-5 -1q-6 -1 -8 -1h-8l-5 -1h-8l-2 1q-3 2 -3 7t4 12l3 6l3 5q9 16 21 21q6 2 14 4l14 2l8 1l8 2q8 1 15 2q8 0 17 2l6 1q3 1 4 3q2 2 6 10l3 5l4 6l5 8
l4 8q6 11 10 16l4 6q2 4 2 6q0 4 -7 4q-6 0 -15 -2l-7 -1l-7 -1l-7 -1l-7 -1q-9 -2 -15 -2q-9 0 -8 8q0 7 5 18l4 8q2 3 4 5l4 6l6 5q6 6 12 8q17 3 35 6q5 0 18 1l9 1l8 1q15 2 20 9l9 14l9 14q14 18 20 29l10 14l11 13l9 14l9 14l6 8l7 7q8 8 15 8q4 0 8 -3l9 -6
q10 -8 14 -19q2 -5 2 -15q0 -6 -3 -9q-3 -4 -9 -14l-4 -8l-5 -7q-10 -11 -21 -28l-1 -2l-1 -2l-4 -6q-5 -8 -5 -11t6 -3q3 0 7 1l9 1q13 2 17 2h33q8 0 13 7l9 14l10 14q11 17 20 27q12 13 20 25q4 7 10 14l11 13l6 7l7 8q8 9 16 9q12 0 20 -12q3 -4 10 -22q1 -4 1 -8
q0 -7 -12 -23l-10 -15l-11 -14q-4 -4 -11 -15l-5 -8l-6 -8q-3 -4 -3 -6q0 -3 7 -3t22 1h9l5 1q7 0 11 -4q6 -4 6 -11q0 -8 -2 -13q-2 -4 -4 -7q-6 -8 -11 -13q-7 -7 -13 -11q-5 -3 -15 -3h-10l-7 1h-7l-14 -1l-14 -1q-6 0 -9 -1q-3 -2 -6 -7l-2 -4l-2 -4q-3 -6 -8 -11
l-9 -10q-4 -5 -9 -13l-8 -14l-3 -5q-2 -4 -2 -6t2 -3h4l21 1l21 2h9q13 0 21 -3q6 -3 6 -10l-2 -8l-3 -8q-7 -16 -19 -26q-9 -9 -21 -9h-27l-5 -1l-5 1h-25l-11 -1q-9 0 -18 -12l-9 -15l-8 -15q-3 -6 -8 -13l-10 -14q-8 -11 -13 -29q-4 -11 -12 -11q-7 0 -16 7q-7 7 -11 14
t-6 13q-3 8 -2 14q0 8 4 18q4 7 10 16q0 1 2 5l5 6q5 8 5 11t-3 3l-3 -1h-2l-10 -1q-5 0 -19 1l-11 1h-10q-5 0 -15 -1l-8 -1l-7 -1q-5 0 -8 -4q-2 -5 -6 -12l-3 -5l-2 -5l-4 -5l-4 -5l-4 -6l-4 -6q-5 -5 -10 -14l-10 -15l-9 -15l-9 -16l-2 -6l-2 -6q-4 -6 -10 -6
q-7 0 -14 7zM310 286q10 1 25 2h24q16 1 20 1q11 0 16 10q5 8 14 19l7 10l5 11l4 5l4 5q6 7 6 11q0 3 -3 3l-6 -1l-7 -1l-7 1h-8q-9 0 -25 -3l-12 -1l-12 -1q-5 0 -7 -2l-2 -2l-2 -2l-4 -5l-4 -5q-5 -6 -7 -10q-6 -10 -26 -41v-2q0 -2 4 -2h3z" />
    <glyph glyph-name="dollar" unicode="$" horiz-adv-x="390" 
d="M142 1l-10 6q-7 7 -7 16q0 8 7 21l5 9l6 10l9 16l8 16l2 3l1 2q0 4 -7 7l-5 2l-5 2q-27 17 -38 58q-2 8 -2 16q0 29 22 46q3 2 7 5l10 6q14 7 23 7q12 0 12 -12q0 -6 -5 -13l-4 -6l-5 -5l-1 -2l-2 -2l-3 -5q-5 -8 -5 -14t6 -10q4 -4 9 -5l4 -1l4 -1q6 -2 9 -2l13 1l7 1h7
l10 -1l11 -1q20 0 42 13q6 3 15 10l14 9l7 3l7 3l6 4l7 6q7 7 7 14q0 3 -4 6l-4 2l-3 1q-6 3 -18 7q-49 13 -76 24q-15 6 -26 16q-12 12 -17 27l-2 9l-3 9l-3 9q-2 5 -2 9q0 6 5 16l3 8l3 8l2 9l2 8l5 7l5 6l5 7l4 6l6 6l6 5l11 11l12 11q4 6 12 9q4 2 7 5l6 6q4 4 12 9l7 4
l6 4l7 5l7 4q3 2 8 2l7 2q3 1 5 3l3 4q2 3 6 5l7 3q8 3 20 7l20 7l14 5l13 7q7 3 11 11l4 7l3 7l4 9l5 9q6 11 9 17l4 7l5 7q6 7 14 7q11 0 20 -8q7 -6 7 -13t-6 -18l-21 -35l-2 -4q-2 -3 -2 -5t4 -3h4l3 -1q8 -1 14 -6l6 -5l7 -5q15 -13 18 -28l2 -13l1 -13q0 -7 -2 -13
q-3 -13 -13 -33q-14 -25 -47 -50q-18 -14 -31 -19q-6 -3 -14 -5q-10 -2 -17 -2q-9 0 -18 3q-8 2 -14 5q-7 4 -7 9q0 7 9 13q34 19 54 44l11 13l11 15l4 5l4 6q6 7 6 12t-7 5l-6 -1l-20 -3q-11 -2 -19 -4q-23 -8 -34 -13l-9 -3l-8 -4l-9 -5l-9 -7q-41 -25 -62 -43
q-11 -9 -26 -25q-14 -16 -14 -26q0 -7 12 -10l6 -3l7 -3q7 -2 19 -6q6 -2 18 -5l17 -5l19 -5l17 -6q39 -16 44 -50l1 -16q0 -30 -14 -53q-16 -25 -53 -47q-32 -21 -69 -32q-18 -5 -34 -7h-8l-8 -1q-7 -1 -11 -12q-5 -11 -15 -28q-7 -12 -19 -38l-3 -7l-3 -6q-4 -6 -8 -9
q-4 -2 -7 -2q-5 0 -11 3z" />
    <glyph glyph-name="percent" unicode="%" horiz-adv-x="522" 
d="M245 350l-4 4l-5 4q-6 5 -8 9q-9 15 -11 33l1 6v5l-1 5l-2 3l-1 4q0 2 2 5l1 1l1 3l1 2v2q0 3 2 5l3 3q4 4 6 10q4 11 15 30l9 12l8 13l6 8l5 9l1 4l1 3l4 6l12 10l11 10l6 6l6 5l7 3q5 2 7 4l7 6q3 4 7 6q9 5 18 7l8 1q15 0 30 -9q3 -2 7 -8l3 -5l3 -3q11 -12 13 -20
l3 -14q2 -9 2 -16q0 -18 -8 -33l-5 -11l-5 -11q-6 -14 -10 -21l-6 -8l-6 -10q-7 -10 -12 -16l-11 -15q-7 -9 -13 -15q-17 -17 -40 -29l-7 -4l-7 -5q-8 -5 -14 -6q-6 -2 -12 -2q-16 0 -28 14zM95 29l-2 4l-2 4l-1 4l-1 3q-2 5 -2 7q1 3 4 8l3 4l2 3l5 9l5 9q6 11 11 17l3 3
l4 3q4 4 6 7l1 3l1 3l2 2l2 2l2 3l1 4q2 5 4 7l7 5l7 5l9 9l4 5l4 4q2 3 8 7l5 3l4 4q13 12 29 30q5 5 15 14l15 14q23 25 55 51q13 11 30 28l30 28l13 13q3 2 8 9l3 4l4 5q5 5 14 12l7 5l8 6l15 14l16 12q20 16 30 26l15 14l6 5l7 4l16 13l15 12l33 28l33 27l5 5l6 4
q6 5 11 7q4 2 5 2q2 0 7 -4l9 -9q6 -5 8 -9t3 -9t1 -9q0 -7 -26 -27l-19 -16l-19 -15l-34 -28l-35 -28q-27 -22 -65 -56q-41 -36 -66 -56q-12 -10 -32 -28l-15 -15l-16 -14q-18 -16 -32 -29q-6 -6 -18 -15l-10 -7l-9 -7q-5 -4 -11 -12l-5 -7l-5 -7l-17 -17l-17 -16l-13 -12
l-13 -11l-21 -23l-20 -22l-16 -15l-16 -16l-2 -3l-3 -3q-3 -3 -6 -3q-4 0 -7 5zM282 394l8 6l8 8q23 20 37 38q17 22 31 45l4 6l3 7l7 14q6 13 6 23q0 5 -3 5q-2 0 -5 -1l-5 -4l-11 -8l-12 -9q-9 -7 -19 -19l-9 -10l-8 -11l-7 -8l-6 -9q-8 -10 -14 -19l-7 -13l-6 -13
q-1 -2 -3 -8l-1 -5l-1 -3l-3 -6l-2 -3q-3 -4 -3 -7l1 -2q1 -1 3 -1q9 0 17 7zM325 23q-15 12 -20 26q-4 12 -4 26q0 8 4 24l4 14q2 8 5 13q2 3 6 7l5 7l3 6l4 5q2 3 3 6v3l1 4q1 3 4 6l3 2l3 3l2 2l3 2q2 2 2 4v3h-1q-1 0 -3 -2l-2 -2l-1 -1q-2 -1 -4 -1q-1 0 -1 2q0 1 1 4
t6 8l5 3l4 3l4 5l6 3q4 3 6 6q3 3 5 8q3 5 11 12l7 5l6 6l5 6q3 3 6 5l6 3l7 2l14 6q9 3 15 3q20 0 30 -15l6 -7l6 -7q7 -8 10 -15l4 -11q2 -7 2 -12q0 -10 -5 -29q-7 -24 -17 -43q-5 -9 -13 -20l-14 -19l-14 -20q-8 -11 -15 -18l-4 -4l-4 -5q-5 -6 -7 -8q-5 -5 -12 -9
l-5 -3l-6 -4q-21 -14 -38 -14t-34 16zM357 63l4 3l2 1h1q8 5 19 15l9 7l7 7l11 13l10 13q4 5 9 14l4 8l5 8l6 7l5 7q7 8 10 14q2 4 3 9l2 9q5 13 5 17q0 2 -3 2q-5 0 -18 -9q-5 -3 -9 -6t-6 -5q-25 -23 -39 -41q-21 -28 -31 -47q0 -1 -3 -10l-3 -7l-3 -7l-3 -6l-3 -5
q-3 -6 -3 -10t3 -4t9 3z" />
    <glyph glyph-name="ampersand" unicode="&#x26;" horiz-adv-x="556" 
d="M522 2l-5 2l-4 2l-12 3l-13 2l-11 4q-3 1 -8 2h-7q-9 3 -22 16l-7 8l-7 7q-7 6 -11 6q-2 0 -9 -3q-14 -8 -29 -14q-69 -29 -116 -35q-12 -2 -19 -2q-6 0 -14 2l-14 4l-11 1l-11 1q-17 2 -27 8l-7 4l-5 3q-7 4 -13 6t-12 6l-11 8q-10 8 -20 24l-9 13l-8 12q-7 9 -7 24
l1 15v15q0 4 1 7t1 5v3l-1 2q-2 3 -2 6q0 5 2 11l2 5l2 4q11 26 33 51l5 5l6 6l2 2l1 3q3 5 5 6l3 1l2 -1h2q2 0 7 4l4 2l2 1l1 1q4 3 8 8l3 3l4 3q7 6 18 10l7 3l9 6l8 6l5 2l6 2l6 1l5 2l4 3l3 4l5 4l5 5l2 3l1 2q2 3 5 3h4l4 -1q6 0 14 5q1 0 18 18q10 10 12 26v12
q0 10 2 21l2 20q2 13 2 19q0 2 -1 7v6q0 3 2 9l2 8q2 9 6 21l8 21q9 24 29 48q14 17 38 38q9 8 27 13l13 5l14 6q6 2 13 2l8 -1l8 -1l16 -1h16q13 -1 31 -9q15 -6 27 -15q29 -19 41 -40q2 -3 5 -10l6 -12l5 -10l5 -10q4 -10 4 -14q0 -3 -1 -8l-3 -9l-2 -13l-2 -14
q-4 -18 -9 -27q-6 -11 -18 -19q-12 -9 -17 -16q-4 -6 -10 -9l-6 -3l-6 -3l-11 -7l-11 -7q-5 -2 -10 -8l-5 -5l-5 -4q-11 -8 -27 -16l-15 -7l-14 -7l-27 -13l-27 -15l-13 -6l-12 -5q-11 -6 -11 -13q0 -3 2 -6l1 -3l2 -3l1 -6l1 -6l4 -10l5 -10l1 -7q2 -13 9 -26l5 -10l5 -10
l2 -5l2 -4q2 -5 4 -5q3 0 6 3l3 2l2 2l6 3l6 5q10 8 31 34q4 5 10 14q6 8 10 14q2 4 5 13l2 7l3 6q2 5 9 5q6 0 17 -9l8 -7l4 -3l2 -2q8 -8 16 -19q11 -16 11 -28q0 -6 -5 -13l-5 -6l-5 -5l-9 -13l-9 -14q-15 -23 -45 -44q-14 -10 -20 -17q-3 -5 -3 -7q0 -3 10 -9
q9 -5 17 -15l8 -8l8 -8q4 -4 14 -10q9 -5 13 -21l2 -7l1 -7q0 -5 -4 -9q-3 -3 -7 -3t-9 2zM383 397l3 4l2 4q4 5 12 9l7 3l7 3l18 6l17 8q20 9 48 28q12 8 28 13l6 1q3 1 5 3t3 5v3l1 3q2 3 5 5l6 4l6 4q8 4 11 7q4 5 6 12q2 5 2 10q0 11 -9 15l-7 5l-5 4q-7 6 -18 6t-29 -4
l-12 -2l-12 -1q-13 -1 -26 -9l-6 -4l-7 -3q-10 -3 -14 -6q-16 -13 -32 -49q-12 -30 -21 -64q0 -1 -1 -4l-2 -5q-2 -7 -2 -11q0 -3 1 -5q1 -3 4 -3q2 0 5 5zM228 97l16 1l17 1q15 0 29 4l13 4l15 5q15 4 29 13q9 6 9 10q0 2 -4 10l-6 14l-6 13q-10 20 -13 34q-1 4 -6 18
q-3 8 -5 14q-3 9 -5 19q-2 5 -5 5q-4 0 -10 -5l-5 -3q-2 -2 -4 -3l-7 -3l-7 -3q-9 -4 -16 -8l-5 -4l-5 -3l-13 -8l-12 -7q-6 -4 -11 -9q-3 -4 -11 -8l-5 -4l-6 -4l-10 -10l-12 -9q-8 -7 -14 -21q-4 -12 -4 -23q0 -5 2 -10q5 -11 22 -15l8 -2l7 -2q7 -2 15 -2q6 0 25 1z" />
    <glyph glyph-name="quotesingle" unicode="'" horiz-adv-x="217" 
d="M260 401q-11 12 -11 28q1 6 3 14l3 5l2 4l3 7l3 7q2 6 7 12l3 4l4 6l5 9l5 9q6 12 9 17q4 5 9 11q4 5 8 12l7 13q3 6 9 15l6 7l4 6l7 11l7 11q8 12 21 17q6 3 13 3q11 0 24 -9q8 -5 12 -9q6 -5 6 -10q0 -3 -3 -6l-6 -7q-5 -4 -10 -12l-8 -13l-10 -14l-8 -14l-4 -7l-4 -7
l-12 -20l-4 -6l-6 -7q-8 -9 -12 -16l-4 -7l-3 -7q-5 -10 -9 -16l-11 -16q-6 -10 -9 -18l-2 -5l-1 -4q-1 -5 -3 -7q-4 -4 -13 -4q-16 0 -27 13z" />
    <glyph glyph-name="parenleft" unicode="(" horiz-adv-x="299" 
d="M181 -7l-5 3l-5 1q-15 6 -23 23l-2 5l-1 4q0 6 -2 9l-3 6l-3 5q-2 6 -4 10q-2 10 -3 24v24l-1 9v10q0 6 2 14l3 7l2 7l2 23l2 22q1 8 5 19l6 19l5 18q4 11 7 18l5 9l6 9q6 11 9 19q2 9 8 17l4 6l4 6q1 3 2 8l2 7l1 3l1 4q2 7 7 15l3 4l2 3q3 4 4 9q7 25 13 33l6 8l6 7
l7 7l7 6l4 4l4 6q5 6 8 8l4 2l4 1q5 1 8 7l4 8l3 8q4 8 12 14l18 15l19 15q18 14 27 23l6 6l6 6q6 7 12 10l3 1l3 1q3 1 3 2v2l-1 1v2q0 2 3 4l2 1l2 1l18 10q11 6 18 12q13 10 35 18l5 1h20q3 0 9 -3q22 -9 33 -26l3 -5l3 -5q3 -6 3 -11q1 -7 -6 -11l-6 -3l-7 -3l-20 -11
q-12 -7 -20 -12l-16 -10l-17 -9q-8 -5 -18 -13l-17 -16q-9 -8 -26 -28q-4 -5 -13 -12l-7 -7l-7 -6l-13 -16l-13 -17l-5 -8l-7 -7l-9 -8q-6 -4 -9 -8q-4 -5 -10 -13l-4 -7l-5 -8q-1 -2 -3 -7l-2 -7l-6 -9l-4 -4l-3 -5l-11 -18l-9 -20q-11 -22 -21 -34t-15 -33l-7 -22l-7 -23
q-2 -8 -4 -19l-5 -19l-2 -9l-3 -8q-3 -10 -3 -17v-14q0 -6 -2 -16l-2 -8l-1 -9v-6l2 -6v-18q0 -11 1 -20l1 -5l1 -4q0 -4 -2 -6q-2 -3 -6 -3q-5 0 -12 3z" />
    <glyph glyph-name="parenright" unicode=")" horiz-adv-x="369" 
d="M113 -10q-3 0 -10 3q-22 10 -35 27l-3 5l-3 5q-4 7 -4 12q0 6 6 10l6 3l6 3l19 11q12 6 19 12q6 4 16 9l16 9q8 5 18 14l15 15q9 9 24 28q4 5 13 13l6 6l6 7l12 16l12 16l5 8l6 8l4 4l4 3q6 5 9 8q4 6 9 14l4 7l4 7q1 2 2 7l2 7l6 9l3 5l3 4l9 19l8 19q10 23 19 35t12 33
l6 22l5 22q2 8 3 20l3 19l2 8l2 7q3 10 3 16l-1 10l-1 9q0 5 2 14q1 9 1 14q0 4 -3 15l-1 8v9q-1 12 -3 20l-1 5l-1 5q0 3 2 6q2 2 6 2t11 -3l6 -2l5 -2q15 -6 25 -23l1 -4l2 -5q1 -6 3 -9l3 -6l3 -5q3 -5 5 -10q3 -9 5 -23l1 -12v-12l2 -10l1 -10v-2q0 -4 -2 -13l-2 -6
l-1 -7l-1 -22l-1 -23q0 -8 -3 -19l-5 -19l-3 -18q-3 -10 -6 -18l-5 -9l-4 -9q-6 -11 -8 -19q-2 -9 -7 -17l-4 -6l-3 -6q-1 -2 -2 -7l-1 -8l-1 -2v-4q-2 -8 -7 -15l-2 -4l-2 -4q-3 -4 -4 -8q-5 -25 -10 -33l-6 -8l-6 -8l-6 -6l-6 -6l-4 -5l-4 -5q-4 -7 -8 -9l-3 -1l-4 -1
q-5 -2 -8 -8l-3 -8l-2 -7q-4 -8 -11 -15l-18 -15l-17 -15q-17 -14 -26 -23l-5 -5l-5 -6q-7 -7 -12 -10l-3 -2h-3q-3 -1 -3 -3l1 -2l1 -2q0 -3 -3 -5l-2 -1l-2 -1l-17 -10q-11 -6 -17 -11q-13 -10 -34 -18q-3 -1 -9 -1q-3 0 -9 -1h-7z" />
    <glyph glyph-name="asterisk" unicode="*" horiz-adv-x="333" 
d="M314 399q-7 7 -12 18q-3 5 -3 11q0 8 8 24l3 8l4 8q1 3 1 5q0 4 -4 4t-11 -3l-7 -3l-8 -4l-5 -1l-5 -1q-6 -1 -9 -2l-7 -4q-4 -2 -7 -3h-3q-7 0 -7 13q0 7 1 10q2 7 15 19q5 4 7 6q3 1 10 3l5 2l4 2q13 7 25 10l6 2l6 1q6 2 6 5q0 2 -1 4l-3 3l-4 5l-4 6l-4 5l-5 5l-4 5
l-4 5l-5 8l-6 6q-7 5 -7 10t7 9q6 3 13 3q5 0 14 -3q5 -1 13 -8l6 -6l5 -5l5 -5l4 -4l8 -8q3 -3 5 -4q3 0 5 3q5 7 8 12l3 7l3 7l5 7l5 7l5 6l5 5l3 4l2 4q3 4 9 4q5 0 12 -6l4 -5l4 -5q8 -9 8 -19q0 -7 -7 -16l-7 -8l-6 -8q-3 -5 -3 -7q0 -4 6 -4q3 0 10 2l16 2l16 3l4 1
l5 1q7 1 12 1q12 0 12 -12q0 -4 -3 -11l-2 -5l-2 -4q-7 -12 -19 -15q-16 -5 -27 -6q-16 -1 -31 -4q-6 -1 -6 -5q0 -2 3 -6l3 -4l2 -3q2 -2 5 -7l2 -4l2 -3l4 -5l5 -6l3 -5l4 -5q3 -5 5 -10l4 -7q3 -4 3 -7q0 -4 -6 -8q-3 -3 -12 -4q-7 -1 -13 -1q-5 0 -11 3q-7 5 -13 14
q-2 3 -6 7l-2 4l-3 5l-4 6l-5 7q-8 11 -9 11q-4 0 -9 -12l-4 -10l-1 -4l-1 -2l-3 -9l-4 -8l-6 -15l-1 -6l-3 -6q-3 -6 -8 -6q-8 0 -16 9z" />
    <glyph glyph-name="plus" unicode="+" horiz-adv-x="405" 
d="M234 139l-6 2q-8 3 -10 5q-20 15 -20 24t8 22q2 4 4 7l3 6q4 6 7 12q1 1 2 4l4 5q4 8 5 11l3 4l2 4v2q0 2 -1 3q-2 2 -6 2h-6l-4 -1h-9l-11 -1l-9 1l-9 1q-6 0 -16 -2l-4 -1h-5q-4 0 -7 4q-2 3 -1 7q0 6 3 14l2 7l2 5q8 21 20 30l4 3l5 3q7 3 12 3l5 -1h7q2 0 8 2l5 1h9
l4 1h9q5 1 10 1l8 1q9 0 13 1q10 2 14 9l2 4l2 4q3 6 7 13q4 6 11 17l6 8l5 8l6 9l7 10q9 13 14 19q16 22 31 12q3 -2 7 -6l3 -4l3 -3l8 -6q4 -3 6 -7q5 -7 4 -16q0 -6 -4 -14l-4 -5l-3 -4q-2 -2 -10 -16l-6 -10q-3 -5 -4 -7l-1 -2l-1 -4q0 -4 7 -4h18q21 -1 36 -2
q27 -3 27 -21q0 -3 -2 -9l-3 -9v-5l-1 -5q-1 -5 -2 -9q-3 -7 -11 -13l-3 -3l-4 -3q-4 -4 -7 -4q-2 0 -7 2l-4 1l-4 1q-3 1 -11 0l-6 -1h-32l-7 -1h-23q-8 0 -12 -3l-3 -4l-2 -3q-1 -2 -6 -10l-5 -7l-5 -7q-1 -3 -4 -7l-4 -7q-7 -10 -9 -14t-4 -9l-7 -9l-5 -8l-6 -7
q-4 -5 -8 -14l-1 -4l-3 -5q-2 -3 -7 -3q-4 0 -7 2z" />
    <glyph glyph-name="comma" unicode="," horiz-adv-x="207" 
d="M69 -33q-6 8 -6 18t12 26l5 9l6 11l4 4l3 5q5 5 7 9q8 17 15 26l12 16q5 7 8 11q6 8 15 8q13 0 25 -11q15 -13 15 -22q0 -13 -10 -26l-5 -8q-3 -5 -6 -9t-7 -8l-3 -4l-3 -4l-8 -9l-7 -9q-2 -2 -6 -7l-9 -9q-11 -13 -15 -16q-12 -10 -28 -10q-8 0 -14 9z" />
    <glyph glyph-name="hyphen" unicode="-" horiz-adv-x="324" 
d="M92 201q-2 3 -2 7q0 5 3 13l2 7l2 4q8 20 19 29l4 2l4 3q7 3 12 3h5l6 -1q2 0 7 2l5 1h9l4 1h8q8 1 17 3l8 1l7 1q4 0 23 1q7 0 26 1h35q19 0 34 -2q25 -2 25 -19q0 -3 -2 -9l-2 -8l-1 -9q-1 -5 -3 -9q-3 -7 -10 -12l-3 -3l-3 -3q-4 -4 -7 -4q-2 0 -7 2l-4 2h-3
q-3 1 -10 0l-6 -1h-37q-8 -1 -13 -1h-21q-7 -1 -26 -1q-3 0 -8 -1h-11q-16 -1 -21 -1q-4 -1 -8 -1h-19l-9 1q-6 0 -14 -1l-4 -1l-5 -1q-4 0 -6 4z" />
    <glyph glyph-name="period" unicode="." horiz-adv-x="197" 
d="M96 4q-3 2 -7 4q-4 4 -5 6q-7 7 -8 14v7l1 7q1 2 0 8l-1 7q0 7 7 16l5 6l4 4q6 5 16 9q9 4 15 4q19 0 34 -7q8 -4 11 -12q1 -2 2 -12q1 -9 1 -12q0 -6 -2 -10q-1 -3 -3 -7l-4 -6l-4 -6l-3 -5q-4 -5 -8 -8q-7 -6 -18 -9q-9 -1 -18 -1q-10 0 -15 3z" />
    <glyph glyph-name="slash" unicode="/" horiz-adv-x="338" 
d="M43 8q-3 5 -3 21v21q2 27 20 55q22 33 35 49l18 23l19 22l9 11q5 7 9 12q7 15 14 23l20 23l20 23q23 28 39 47l16 22l16 22l8 11l10 11l10 10l9 11l20 25l20 25l19 25l18 24l10 12l10 11q13 15 19 24l13 16l12 16l7 11q5 6 8 9q4 4 9 4t10 -3q5 -2 8 -6q4 -3 5 -7l3 -9
l4 -8q2 -2 4 -17v-9q-1 -19 -17 -40l-6 -8l-6 -8q-7 -9 -10 -15q-4 -9 -14 -20l-8 -9l-8 -9q-9 -12 -15 -18l-7 -5l-6 -4q-4 -4 -6 -9l-2 -4l-2 -4q-3 -7 -9 -16l-7 -8l-7 -8l-1 -1l-2 -2l-6 -6l-3 -2l-2 -1q-3 -1 -5 -2q-2 -2 -4 -7l-2 -4l-2 -3l-7 -7l-7 -6q-9 -8 -12 -15
q-3 -10 -9 -15l-4 -2l-3 -1q-1 -2 -2 -5l-1 -2l-2 -2l-2 -1l-2 -1q-3 0 -4 -1t-4 -5l-2 -4l-1 -2l-5 -6l-5 -5l-8 -12l-8 -11l-5 -6l-4 -7q-6 -8 -10 -13q-1 0 -2 -2l-4 -4l-6 -6l-2 -3l-1 -3q-1 -3 -4 -7l-4 -4l-4 -6q-2 -5 -4 -9q-4 -5 -9 -10q-6 -6 -12 -10l-5 -4l-3 -2
q-4 -3 -6 -6l-4 -6l-2 -3l-2 -3l-3 -4l-4 -4q-3 -2 -5 -7l-2 -4l-3 -3q-2 -3 -6 -7l-7 -6l-2 -3l-1 -3q-3 -4 -4 -5q-2 -1 -5 -2l-2 -1l-4 -2q-11 -9 -27 -31l-8 -11l-7 -11q-2 -3 -4 -8l-1 -4l-2 -5q-5 -8 -11 -12q-5 -4 -10 -4q-7 0 -12 7z" />
    <glyph glyph-name="zero" unicode="0" horiz-adv-x="478" 
d="M171 4q-40 21 -55 51q-7 14 -13 41l-2 9l-2 8q-3 5 -2 13q0 14 3 31l6 31l4 17l4 18q5 20 11 33t16 26l5 7l4 7l4 8l4 9l4 6l6 7q4 5 5 10l3 8q1 6 3 9q2 4 5 7l5 4q6 5 6 9l-1 2v2q-1 2 -1 5q0 5 8 13l6 6q4 4 5 6q14 18 24 26q3 3 9 11l4 5l4 5q4 2 8 5q8 4 10 8l4 10
q1 6 4 10q6 8 18 19l10 8l10 9l12 11l13 12l12 13q7 8 13 13q10 8 24 16l9 4l8 4l4 3l5 4l10 5q8 4 19 8l9 3l9 3q17 6 31 6h9l9 -2l9 -2h10l9 -1q4 -1 7 -4l3 -3l3 -3l8 -6l8 -6q5 -4 10 -11l4 -6l5 -6q12 -16 16 -36q3 -15 2 -35q0 -18 -4 -43l-5 -18l-5 -18l-3 -20
l-4 -19q-7 -24 -13 -36l-7 -16l-7 -16l-9 -20l-10 -19l-4 -8l-4 -7l-3 -3l-3 -2q-4 -4 -6 -7q-4 -5 -8 -15l-7 -16l-2 -7l-4 -7l-6 -8l-6 -9l-8 -16q-4 -10 -9 -16q-14 -20 -31 -35l-15 -14l-14 -14q-6 -5 -12 -15l-6 -8l-6 -7q-2 -3 -7 -6l-7 -5q-3 -2 -6 -6l-6 -7l-6 -6
l-7 -5l-8 -6l-8 -7l-18 -12q-11 -7 -19 -11q-17 -8 -46 -10q-41 -3 -77 17zM216 66q7 0 15 3l8 3l6 3l8 4l7 4l6 1l5 2q5 2 6 9l-1 3v5q1 8 10 11l3 1l3 2q4 1 6 3l2 2v3q1 4 4 5q1 1 4 1h3q5 0 13 8l6 7l5 7l5 6l4 7q6 8 11 11l9 9l7 11l9 10q5 6 8 11q3 4 9 11l9 12
q4 5 8 13l7 15q11 23 16 27l2 1l3 2q2 2 2 4v6l-1 5q1 7 10 19l5 8l4 8l8 14q6 8 8 14l1 5l2 6l3 5q2 3 3 6v4l1 3l2 5l2 4v3l1 3q0 3 6 8l4 5l3 4l2 8l2 7l2 7l1 6l4 6q2 4 2 6q4 15 5 37q3 45 -12 45q-7 0 -19 -6l-9 -4q-4 -2 -7 -4q-12 -8 -27 -19q-5 -4 -12 -11l-5 -6
l-6 -6l-12 -11l-12 -10l-13 -12l-12 -12q-15 -15 -23 -26q-3 -4 -10 -10l-5 -5l-4 -6l-10 -15l-9 -15l-10 -16l-9 -16q-12 -19 -21 -30q-10 -14 -21 -33l-19 -35l-10 -16l-8 -16l-6 -16l-6 -16q-4 -7 -6 -16l-5 -16l-5 -18q-3 -10 -3 -19q-1 -13 7 -33q8 -21 21 -21v1z" />
    <glyph glyph-name="one" unicode="1" horiz-adv-x="270" 
d="M113 2q-3 1 -7 5l-4 4l-4 3l-4 1l-3 1q-3 2 -4 6v5l-1 5v3l-1 4q0 3 -2 3h-3q-3 0 -4 4l-2 4l-1 4l-1 4l-1 4q0 3 4 6l3 2l3 3q3 9 3 17v6l-1 5q-1 7 1 11l3 3l3 3q1 2 1 4l1 4q3 9 11 23l11 17l11 18l5 9l6 9l3 6l4 6l10 15l10 16q5 6 8 16l2 8l4 7l4 6l4 4q5 6 6 8
q5 11 9 16l5 8l5 8l5 8l6 8q1 1 6 9l5 8l5 9q15 25 17 27l3 4l3 5q4 6 4 9q0 4 -2 8q-2 5 -9 10q-11 8 -11 17q0 8 7 15l6 8l5 6q5 6 10 10l7 7l5 6l5 5q2 1 5 5l5 7q7 8 10 10l4 1q4 1 4 2l3 3l3 5q3 6 6 9l10 8l10 9l16 16l16 17l8 8l8 8q9 9 14 12q4 3 8 4h6q4 0 9 -3
q4 -3 7 -7l5 -5l6 -5q7 -6 9 -10l4 -5l5 -6q6 -6 6 -12q0 -4 -4 -10l-3 -4l-3 -3l-4 -8l-4 -9l-6 -6l-6 -7l-8 -11l-5 -12l-10 -19l-11 -18q-2 -4 -7 -10l-8 -10l-7 -9q-4 -5 -6 -9q-11 -21 -23 -40l-14 -22q-8 -13 -15 -22q-5 -5 -12 -17l-6 -10l-6 -8l-4 -9l-5 -9l-6 -11
q-5 -6 -7 -11q-16 -35 -42 -78l-11 -17l-10 -16q-13 -20 -20 -34q-5 -12 -11 -19l-4 -7l-4 -7l-3 -3l-2 -2q-3 -4 -4 -7l-5 -13l-6 -13l-8 -18l-8 -18q-4 -8 -10 -13q-7 -7 -15 -7q-4 0 -8 2z" />
    <glyph glyph-name="two" unicode="2" horiz-adv-x="469" 
d="M83 16q-8 17 -12 36l-2 11l-3 11q-4 13 -4 22q-1 13 10 25q5 6 12 10l5 4l5 4l11 11q8 11 20 18l6 4l5 3q6 4 10 10q1 0 2 3l1 2l2 2l3 1h3q3 0 3 2v3l1 2q3 2 4 2q19 5 33 18l10 8l11 7q12 9 18 19q5 8 19 13l8 3l7 4q4 2 10 7q7 5 11 6q9 4 15 13v2l2 3q2 3 3 3l2 -1
l3 -1q2 0 5 5l2 3l1 3l1 3l1 3q1 4 3 4l3 -1l3 -1q3 0 5 6q3 6 6 6l3 -1h3q2 0 7 5l3 4l3 3l4 2l4 2q5 2 7 4q5 4 15 13l7 7l8 6l3 2l5 3q7 4 7 7l-1 2v2q0 1 1 2l1 1h3l3 1q4 1 6 3l3 2l2 2q4 3 3 5v2l-2 -1h-2l-1 1q0 1 4 6q6 7 24 13l6 2l6 2q5 1 7 2l20 21l7 6q3 4 5 7
q1 4 3 15q2 14 13 19q20 11 20 20q0 8 -6 12t-13 4q-45 0 -117 -36l-12 -7l-11 -8q-14 -10 -23 -13q-12 -6 -18 -13q-5 -5 -14 -11l-7 -5l-8 -4l-6 -5l-7 -4l-15 -10q-19 -10 -32 -11q-12 0 -22 14q-11 13 -12 26q0 8 3 16q3 9 7 9h5q4 0 4 9v8q1 4 3 5q1 2 5 3l3 1l2 1l1 3
l1 2q2 3 4 4q1 1 3 1h4q4 0 7 3l2 2l3 3l5 5l4 6q6 8 10 11q8 7 20 14q13 8 24 12q11 5 25 12l25 14l16 10q6 3 22 7q6 2 15 3l15 3q7 2 12 4q8 2 14 2t14 -1l7 -1l7 -1q6 0 14 -2l7 -2l8 -2l7 -2l7 -1q8 -1 13 -5q4 -2 11 -11l6 -9l5 -8q22 -28 24 -69q1 -37 -20 -70
q-2 -5 -6 -11l-7 -10q-4 -7 -7 -11l-2 -4l-2 -3q-4 -6 -12 -12l-6 -6l-7 -5q-4 -5 -12 -12l-12 -10l-11 -11l-11 -10l-7 -7l-7 -8q-8 -9 -15 -13l-4 -4l-4 -4h-6l-5 -2q-4 -2 -10 -9l-4 -5l-5 -4q-2 -2 -7 -3l-6 -3l-5 -5l-6 -5q-16 -15 -32 -23q-5 -3 -13 -11l-6 -6l-6 -6
l-15 -10l-14 -10q-4 -4 -13 -9l-8 -4l-6 -4q-6 -5 -13 -8l-7 -3l-7 -3l-6 -4l-5 -5q-7 -6 -12 -8q-27 -14 -41 -26l-2 -3l-2 -3l-4 -4l-5 -2l-5 -2q-3 -2 -3 -6q0 -3 9 -3h14q13 2 54 2q23 0 35 -1l17 -1l18 -2q20 -3 34 -8q33 -14 35 -50q0 -16 -20 -19q-46 -6 -52 -6l-6 1
l-5 1q-8 2 -11 2q-5 0 -14 -1l-8 -2l-7 -1q-4 -2 -13 -2h-12l-5 -2q-8 -1 -15 -1q-14 0 -23 -2l-20 -5l-20 -3l-10 -1l-9 1q-3 -1 -7 -1l-5 1l-5 1l-8 -1l-9 -2l-7 -1h-14q-6 -1 -8 -1q-10 0 -17 13z" />
    <glyph glyph-name="three" unicode="3" horiz-adv-x="495" 
d="M216 2l-15 1q-15 0 -39 2q-8 1 -17 5l-8 4l-8 4l-9 4l-8 4q-4 3 -7 8l-3 5l-3 5l-6 8l-6 9q-8 10 -12 18q-4 10 -8 22q-4 14 -4 21q0 5 4 12l4 5l3 3q19 18 32 18q16 0 23 -14q2 -2 3 -7l1 -7l2 -3v-3l-1 -4q-2 -2 -2 -4q0 -4 9 -9l7 -5l7 -4q6 -5 9 -5h3l5 1q6 0 16 1
q7 1 13 1h9q3 0 6 -2l3 -1h3q5 0 12 2l5 1l6 1q3 1 7 3l7 4q10 5 16 5h12q3 0 10 5l5 3q3 1 4 1h5q3 0 5 5l2 3q1 2 3 2l5 -1q2 0 4 2l4 4l2 1l3 1l3 4l3 4q4 6 6 8q3 2 7 4l6 3q3 1 7 5l3 4l3 3l3 2l4 2q4 3 5 5q1 3 4 4l2 1l3 2q1 3 1 6l1 3l1 3q2 3 6 7l7 7q14 15 14 26
v8q0 6 2 8q1 2 3 3l2 1l2 1q3 2 4 7v9q0 12 -10 16q-4 2 -10 2q-4 0 -13 -2l-7 -2l-6 -2l-10 -1l-10 -1l-7 -1l-9 -2q-11 -2 -15 -2h-7l-7 1q-4 0 -7 -1l-5 -1q-3 0 -7 4q-5 5 -8 14q-1 5 -2 11v15l1 4v2q0 5 -3 9q-4 3 -4 6l1 4l2 3l1 6q1 4 3 6t10 3l7 1l5 2l14 5l13 4
q20 6 35 14l5 1h4l6 2l3 2h3q4 1 7 3l3 3l2 5q3 7 6 7l3 -1l1 -1h3q4 0 12 4q9 4 9 8q0 1 -1 2l-2 1q-2 0 -6 -3q-5 -3 -7 -3q-1 0 -1 2t4 6l4 3q2 2 3 2l8 4l8 3l2 1l2 2q3 1 5 1h6q4 0 4 4q0 7 3 10t9 7l12 6q17 7 20 11l4 6l4 6q5 8 10 10l2 1l2 1l3 1q3 2 5 6l4 8
q1 5 1 10q0 9 -10 13q-9 4 -20 4q-16 0 -42 -7l-21 -6q-14 -4 -20 -5l-8 -2l-7 -2q-7 -2 -13 -5q-5 -2 -10 -6l-10 -8q-11 -9 -18 -8q-3 0 -5 1l-1 2h-2q-2 0 -2 -2l1 -3l1 -3q0 -3 -5 -5l-4 -1l-3 -2l-6 -5q-3 -4 -6 -6q-12 -9 -25 -14q-16 -8 -25 -7q-10 0 -19 7l-7 6
l-7 8q-3 3 -6 9q-3 8 -3 13q0 13 14 26q17 17 56 45q34 23 92 46q40 18 91 18q37 0 73 -22q31 -19 46 -62l2 -6l2 -6q2 -7 2 -11q0 -16 -2 -26l-1 -8l-2 -9q-3 -11 -9 -21q-3 -4 -5 -11l-2 -6l-2 -5q-2 -7 -7 -12l-7 -5l-7 -7q-3 -4 -10 -8l-6 -3l-5 -4q-10 -9 -56 -39
q-1 -1 -4 -2l-7 -3l-12 -6q-8 -5 -8 -9q0 -2 4 -6q2 -2 5 -6l3 -3l2 -2q9 -10 15 -20q6 -11 10 -32q3 -17 3 -32q0 -24 -15 -51l-4 -9l-4 -8l-5 -9l-4 -9q-4 -8 -12 -16l-7 -6l-7 -7l-6 -8l-5 -9q-7 -12 -11 -16q-14 -14 -26 -22q-12 -9 -33 -22l-8 -5l-8 -6q-10 -6 -17 -10
l-11 -3l-11 -3q-13 -3 -20 -8q-6 -4 -15 -6l-8 -2q-6 -1 -10 -2q-20 -6 -47 -6z" />
    <glyph glyph-name="four" unicode="4" horiz-adv-x="500" 
d="M314 2l-12 4l-10 4q-6 3 -10 6q-9 10 -14 26q-3 12 -3 20q0 6 3 15l3 8l3 7q3 10 9 22l5 10l5 11q4 9 12 21q3 3 8 13l4 8l3 6l3 4l1 4q0 6 -6 6h-3l-3 -1q-7 -2 -15 -2q-6 -1 -18 -2l-10 -1l-8 -1h-19l-11 -1q-5 -1 -12 -1l-17 -2q-20 -3 -25 -3h-4l-5 1h-6q-6 0 -13 -2
t-9 -2q-4 0 -9 4q-6 6 -8 18q-1 5 -1 12l-1 5v7l-2 7l-1 8q-1 10 -1 18q0 10 4 18q9 17 33 39q17 15 24 24q8 11 16 16l6 4l7 5q6 4 16 18q2 3 6 6l8 5l3 4l4 4q5 5 8 5h1l2 -1l2 2l2 2q2 4 8 9l12 10q8 6 12 11l4 4l5 4l4 2l5 2l1 3l1 3l2 1l1 1q10 2 15 7l4 5l3 5q4 5 6 5
l1 -1v-1l3 2l1 1l-1 2l-2 2q0 1 4 2h3l2 1q4 2 8 7l4 4l3 4l5 3l5 2q6 3 9 6q3 2 8 4q3 0 3 1l-1 2l-1 3q0 1 3 2q5 2 9 5l3 5l4 5l4 3l5 4q6 5 12 9l9 6l7 7l4 2l4 2l4 4l4 4l4 3l5 2l6 4l5 5l5 2l6 4q7 5 10 7q17 7 24 12q3 2 10 5l11 6q10 7 18 7q13 0 22 -15l9 -13
l8 -13l5 -10q3 -5 6 -8l8 -10l9 -9q3 -5 3 -12q0 -8 -4 -19l-5 -9l-4 -8q-4 -8 -12 -19l-6 -12q-4 -7 -7 -11t-6 -9l-6 -10l-7 -10q-4 -7 -6 -11q-10 -22 -26 -48l-15 -23l-16 -22l-16 -25l-1 -2l-2 -3q-3 -4 -3 -6t2 -3l2 -1l3 -1q3 -2 6 -9l2 -4l3 -5l8 -10q5 -5 6 -10
q4 -9 4 -22t-12 -16h-4l-4 -1l-9 1l-9 1l-11 -2l-11 -2l-13 -2q-6 -1 -12 -4q-8 -4 -15 -17l-13 -21q-9 -13 -13 -21l-11 -22l-11 -21l-13 -24l-13 -24l-7 -12l-6 -12q-6 -14 -9 -26q-3 -14 -15 -14q-5 0 -11 2zM253 275l12 1l15 1l25 4l25 5l12 2l12 1h7l6 1q8 1 13 2
q7 3 12 14l3 9l3 8l6 9l7 8l2 3l2 3l5 4l5 4q4 4 8 12q2 6 4 6h2v-1q1 -1 3 -1q4 0 7 3q3 2 3 5l-1 3v3q-1 3 -1 5q0 8 7 18l7 8l7 7l17 19q9 11 14 21l6 11l6 12q6 8 11 12q3 2 5 4l2 5q1 3 3 5l3 5l4 5q3 6 3 9q0 1 -1 1q-2 0 -8 -3l-4 -3l-2 -2q-12 -6 -18 -12l-39 -35
q-15 -14 -37 -30l-19 -13l-19 -13l-9 -7l-9 -8q-11 -11 -18 -15q-8 -5 -13 -13q-4 -4 -10 -9l-10 -9l-9 -6l-9 -6q-10 -8 -16 -15q-7 -9 -14 -12q-9 -3 -15 -9l-4 -5l-3 -5q-6 -7 -13 -12q-1 0 -5 -2l-5 -3q-8 -5 -8 -8t5 -3q8 0 20 2z" />
    <glyph glyph-name="five" unicode="5" horiz-adv-x="459" 
d="M152 9l-8 3l-7 2q-8 2 -14 2q-5 0 -9 4l-4 3l-4 4l-5 3l-4 3q-5 4 -7 8q-1 5 -9 13l-5 6l-5 6q-13 25 -13 40q0 10 5 21l2 5l3 6q4 8 10 9q8 1 12 1l6 -1h3l2 -1q3 0 5 -2l2 -4l3 -3l4 -3l4 -2q5 -3 7 -7l3 -4l2 -5q2 -7 4 -9t5 -4l6 -3l2 -3l3 -3q3 -3 5 -3q1 0 1 1
l-1 2l-1 3q0 3 15 4q6 1 12 1h8q4 0 9 -2l4 -2q2 -1 5 -1q2 0 7 2l4 1l3 1l3 2l4 2q5 2 7 2l2 -1l1 -1q2 -2 3 -2l2 1l2 2h5q2 1 5 2l6 2q8 4 10 4q4 0 9 2l8 3q3 1 5 7l2 4q1 3 3 4l4 3l4 2q6 2 9 5l6 4l6 4l4 4l3 4l10 9l10 9q30 29 39 46q1 2 5 6l3 3l2 3l3 3l3 3
q3 4 3 6l-1 4q-1 3 -1 5l1 6l2 6l1 5l2 6q8 12 8 16q0 14 -13 21q-6 3 -16 5h-9l-8 1q-10 2 -21 2q-19 0 -40 -4q-24 -6 -41 -17l-4 -3l-4 -3q-4 -3 -8 -3t-8 3q-5 3 -13 10l-5 6l-6 6q-5 3 -10 8l-4 5l-5 5q-6 7 -7 11l-1 7l-1 7l-1 4l-1 4q0 3 6 13l4 7l4 7q4 9 7 13t7 7
l6 7l3 3l2 3q3 3 5 9q1 3 4 7l6 5l8 10l7 9l3 4l3 2l4 4q1 1 3 6q1 4 4 8l4 6l4 5l3 3l3 2q4 3 4 4t-1 2q-2 2 -2 3q0 2 2 3l2 3q5 11 16 25l9 11l9 10q3 4 3 8q0 2 -2 7l-2 4l-2 4q-3 5 -2 8q0 8 14 10l10 2h8l41 7q24 4 41 5q35 3 83 3h22q13 -1 24 -3q26 -4 38 -15
q3 -2 6 -7l6 -8l5 -6l4 -7q12 -21 12 -35t-15 -14q-4 0 -9 1q-8 3 -24 4q-12 1 -25 1q-17 0 -34 -3q-8 -2 -19 -2h-29l-12 -1q-15 -1 -20 -1l-12 1h-14q-16 0 -22 -9l-4 -8q-2 -6 -4 -8l-6 -7l-6 -7l-5 -8l-4 -8q-2 -4 -6 -8l-7 -7q-2 -2 -5 -7l-3 -8l-7 -9l-6 -10l-2 -1
l-2 -3l-4 -6q-6 -9 -6 -14q0 -6 6 -6l7 1h19l12 -1q32 -1 44 -6q24 -9 37 -18q8 -5 13 -11l4 -5l5 -5q5 -7 7 -11l2 -5v-4q1 -5 4 -9l4 -5l3 -4q4 -5 4 -12l-1 -7l-1 -8q-2 -10 -2 -14q0 -6 2 -14q3 -8 3 -15t-6 -16l-4 -7q-2 -3 -2 -5v-5q0 -4 -2 -7l-4 -6l-5 -5l-3 -3
l-3 -4q-4 -5 -4 -8v-5l1 -4q-1 -5 -6 -11l-4 -5l-4 -5q-22 -36 -51 -61l-15 -14l-15 -13q-7 -7 -19 -13l-20 -11q-19 -10 -42 -18l-9 -4l-10 -4q-11 -5 -18 -6l-5 -1h-6q-5 0 -11 2l-4 1h-5q-3 0 -8 -1l-10 -3q-13 -3 -19 -3q-21 0 -42 6z" />
    <glyph glyph-name="six" unicode="6" horiz-adv-x="455" 
d="M242 -2q-5 1 -8 1h-6l-7 -1h-1q-7 0 -14 2q-6 2 -15 7l-15 8l-15 9q-9 6 -15 11q-9 8 -19 24l-8 12q-6 8 -8 13q-4 11 -7 32l-1 6l-1 6q-2 7 -2 12q0 3 2 12l1 6v6q0 3 -1 8q-1 4 -1 6t4 7t4 8l-1 3l-1 4v4l1 2v3q0 2 -1 5q-2 4 -2 7t3 9l3 4l3 4l1 6l1 9q1 5 3 8l3 4
l4 4q6 5 8 9q4 8 10 26l5 13l5 13l5 8l6 8l8 13l8 13l7 9l7 9l7 11l7 11q21 26 39 43l19 17q10 10 17 18l3 5l2 5q4 6 7 9q3 4 9 8l11 7l20 14l20 15q25 19 41 29l5 2l6 2l3 3l4 3q2 1 8 2l4 1l5 2q4 1 10 6l10 6l14 6l15 6l12 6l13 4l12 3l13 1q5 1 9 1q3 0 8 -1q6 -1 9 -1
l9 1l9 1q11 0 21 -9l6 -6l7 -6l4 -3l4 -3q5 -3 7 -6l1 -5l1 -5l1 -4l2 -3q2 -5 2 -8q0 -7 -7 -10l-8 -1l-9 -2l-6 -1l-5 -1q-7 -1 -12 -1q-10 0 -27 -10q-8 -4 -22 -10l-11 -4l-11 -5l-12 -5l-11 -5l-4 -2l-5 -2l-5 1q-2 1 -5 1q-4 0 -9 -5l-4 -4l-4 -3q-10 -10 -19 -14
q-29 -17 -44 -32l-10 -8l-10 -9q-14 -11 -20 -17l-15 -15l-15 -15l-3 -2l-3 -3q-3 -4 -3 -6q-1 -4 5 -4q4 0 21 6l15 5q8 2 13 3q14 3 34 3q3 0 9 -1t13 -2q19 -4 29 -11q15 -9 31 -29q7 -9 13 -23l5 -13l5 -12q7 -17 7 -26q0 -5 -2 -14l-3 -15v-4l1 -4q0 -4 -3 -9l-2 -4
l-2 -3l-2 -7l-2 -7q-1 -9 -4 -13l-7 -12l-8 -11l-7 -13l-8 -14q-5 -10 -14 -22l-8 -10l-7 -11q-7 -10 -18 -22l-9 -11l-9 -10q-3 -4 -10 -8l-6 -2l-5 -4l-11 -8l-11 -8q-34 -21 -54 -29q-9 -3 -29 -7l-6 -1l-6 -2q-6 -3 -12 -3q-2 0 -6 2zM208 82l6 3q7 3 11 3h4l3 -1l6 -1
q5 0 11 4l5 4l5 3l3 2l3 1h3l2 -1q1 1 8 5l16 10q8 5 14 11l8 7l8 6q10 8 15 14q34 40 53 71l2 4l3 5q5 8 8 14q10 19 10 27q0 3 -2 8l-2 4v4q0 8 4 17t4 14q0 14 -23 14q-14 0 -29 -5l-12 -3l-11 -2q-15 -4 -22 -9l-7 -5l-7 -6l-8 -3l-7 -3q-3 -2 -7 -5l-6 -6l-5 -3l-4 -2
q-6 -3 -9 -7l-6 -10q-4 -5 -7 -9l-10 -8l-9 -8l-6 -9l-6 -9l-6 -8l-7 -7q-16 -22 -16 -41l-1 -13l-1 -12q-1 -2 -1 -5v-7q0 -9 1 -17q3 -18 9 -27q2 -4 7 -4z" />
    <glyph glyph-name="seven" unicode="7" horiz-adv-x="414" 
d="M138 5l-4 5l-3 5q-7 11 -9 25l-2 8l-3 7q-3 8 -3 14l2 10l2 10q2 8 11 18q5 4 6 8v3l2 4l2 5q1 3 1 4v5l-1 4q0 6 6 9l7 4q4 2 6 4q1 2 3 7l1 4l1 3q3 3 9 6l5 2l5 3q5 4 10 11l10 12l7 12l8 11q3 4 10 9l5 4l5 5q5 7 15 17l7 7l8 8q8 9 20 22l11 10l11 10l17 19l16 19
l3 3l3 4q5 4 6 7q2 2 3 5l2 4q2 5 5 9q4 4 11 9l6 4l5 5q8 8 18 17l9 7l8 7l7 7l6 7l8 8l7 8l3 2l3 2q1 2 2 5l1 2l1 3q2 2 8 9l7 6l7 7q15 16 15 21q0 7 -12 7q-7 0 -19 -2l-9 -1q-5 0 -6 -1l-30 -2l-30 -3q-25 -3 -52 -4h-3q-12 0 -23 2q-13 2 -26 11q-5 4 -7 9l-2 4l-2 5
l-4 4l-3 4q-4 4 -6 9q-2 6 -2 12q0 9 9 12l10 2l11 2l12 4l11 4q15 4 25 4h13q6 0 16 4q11 4 15 4l4 -1h4l8 -1h6q3 1 3 4q0 1 -5 1l-5 1q-2 0 -2 1q0 3 9 4l6 1h9l5 -1q5 -1 8 -1q6 0 12 3l5 2q4 1 8 1h9l9 -1l15 2l16 1q21 0 44 -5q11 -3 24 -17q6 -6 11 -13q4 -5 7 -11
q16 -26 16 -53q0 -20 -21 -45q-19 -23 -48 -55l-40 -43l-11 -10l-10 -10q-14 -12 -21 -20q-8 -9 -18 -23l-17 -23q-5 -8 -19 -20l-11 -9q-5 -5 -9 -10l-7 -11l-8 -11q-3 -5 -9 -10l-10 -9q-8 -7 -19 -21l-9 -12l-9 -11q-3 -3 -10 -9l-5 -4l-5 -4l-9 -12q-5 -7 -9 -11l-10 -9
l-9 -9q-12 -11 -18 -20l-17 -22l-18 -21q-11 -12 -15 -22q-2 -6 -8 -12l-5 -5l-4 -5l-4 -5l-5 -5q-6 -5 -11 -5q-7 0 -12 5z" />
    <glyph glyph-name="eight" unicode="8" horiz-adv-x="492" 
d="M231 -1q-7 2 -12 2h-9q-5 0 -9 1l-12 3l-12 4q-7 3 -11 6l-5 4l-4 5l-10 4q-5 3 -9 5q-8 7 -15 19q-3 4 -8 12l-10 13q-12 16 -14 27v3l-1 3q-2 5 -2 7q0 3 3 8q3 4 3 8q0 2 -3 5q-2 3 -2 5v4l1 4q0 3 -1 5l-2 4l-1 1l-1 3q-2 2 -2 5t3 7l3 3l2 4v8q1 1 3 2h2l1 1
q4 3 7 8q2 4 6 15l4 8l3 7q2 3 6 8l6 8l5 7l6 6l6 7q4 5 7 7l9 8l10 8l7 5l9 5q11 6 15 11q10 12 36 19q4 1 13 4l6 3l7 2l4 1l4 2q5 2 5 6q0 3 -2 6l-4 6q-6 10 -10 29l-3 10l-2 10q-2 12 -2 21q0 32 13 53l3 7l3 7q4 9 7 13q3 3 9 7l8 6l4 4l4 4q4 6 7 8q12 8 12 14
q0 1 -1 4l-1 3v1l1 1h3q10 0 24 9q2 1 4 3q1 3 2 5q0 2 -3 2t-8 -4q-5 -5 -7 -5q-1 0 -1 1q0 2 6 9l5 4q2 2 2 3q5 3 8 4q5 2 11 1q1 0 8 3l4 2l5 1h6q5 0 7 4l1 3l1 2q1 3 3 4q3 3 8 5l9 2l15 4l14 5l7 2l6 4q8 4 13 5t10 1q6 0 13 -3q7 -4 9 -4h4l5 1q6 2 10 2
q18 0 39 -17l10 -9l10 -8q12 -10 20 -18q22 -25 31 -54l2 -7l2 -8q3 -9 3 -17q0 -11 -4 -26l-2 -6l-2 -7q-2 -8 -5 -12l-3 -5l-3 -5q-3 -7 -5 -10q-3 -5 -9 -10l-5 -5l-6 -5l-11 -11l-11 -12q-7 -7 -20 -18l-10 -8l-10 -9q-15 -13 -26 -18q-4 -2 -12 -7l-5 -4l-6 -4
q-1 0 -6 -2l-8 -4q-4 -2 -4 -3t3 -4l3 -3q2 -1 2 -2q6 -6 11 -15l7 -14l7 -15q3 -7 4 -16l1 -17l1 -16q0 -8 -2 -15t-6 -15l-8 -13q-1 -3 -1 -6l-1 -5l-2 -4l-3 -4q-10 -16 -15 -20q-5 -3 -10 -10l-4 -7l-5 -6q-8 -10 -24 -25q-10 -9 -27 -19l-14 -8l-14 -9q-27 -20 -65 -27
l-9 -2h-9q-11 -1 -17 -3l-7 -4l-8 -4q-9 -5 -16 -5q-5 0 -13 3zM416 389q14 7 31 18l15 10l15 10q6 4 13 11l13 13q5 5 14 12l8 6l7 6q17 14 25 31q5 10 7 20q1 4 1 7v5q0 3 -1 6q-1 4 -3 7q-6 8 -17 8l-12 -1l-12 -2q-14 -1 -31 -9l-14 -8l-15 -6l-15 -6q-9 -3 -15 -7
l-14 -10l-14 -9q-11 -7 -23 -13q-6 -4 -12 -13l-5 -8l-6 -8q-30 -32 -35 -57q-1 -5 -1 -12v-3l1 -2q1 -4 4 -7q8 -8 25 -8q30 0 66 19zM213 88l16 3l20 5q12 2 19 5l7 3l7 4q8 5 13 7q13 3 37 16q42 22 62 47q34 39 44 69l3 8q1 5 1 8q0 9 -10 13h-4l-4 1q-6 0 -8 1l-5 2
l-5 3q-5 3 -7 3t-5 -2l-2 -1l-3 -1l-7 -1l-7 -1l-5 -3l-7 -2q-9 -3 -19 -3h-13q-9 0 -32 -11l-19 -8l-18 -9q-29 -17 -62 -50l-7 -6l-7 -7l-4 -7q-2 -4 -5 -7l-7 -5q-3 -4 -4 -7q-2 -4 -2 -12l-1 -6v-5l-3 -6l-3 -6q-4 -8 -4 -13q0 -9 17 -16q13 -6 27 -6q7 0 16 3z" />
    <glyph glyph-name="nine" unicode="9" horiz-adv-x="475" 
d="M156 0l-11 5l-10 6q-27 17 -35 37l-3 9q-2 5 -2 9t2 8q3 5 9 10q7 5 12 5q6 0 14 -4l7 -4l5 -3q12 -6 21 -6q6 0 15 3l8 4l8 3l6 3l7 3q9 4 12 7l4 4l3 3q3 4 6 5l2 1h2q3 0 6 1l5 4l4 4l10 6l10 5l5 4l5 4l4 1l3 1q4 0 6 2l7 7q4 4 8 6l2 1l2 1q2 2 5 4l2 2l1 2q2 3 3 3
l5 5q6 7 9 13l1 4l1 4q2 4 5 7l4 3l5 2q5 2 7 5l6 7l6 6l2 2v3q1 3 2 4l3 2l3 2q3 1 3 3v2l-1 2q1 5 6 11l4 6l5 5l3 3l3 3q5 6 5 8q0 3 -3 3q-4 0 -12 -4l-6 -3l-2 -1l-2 -1q-8 -6 -20 -10l-10 -4l-11 -5l-15 -5l-14 -6q-16 -5 -27 -4q-19 0 -39 7q-19 8 -31 24l-6 9l-6 8
q-6 9 -10 18q-3 10 -8 20q-1 3 -1 9l1 13v14l1 6l2 6q2 8 1 12q-2 7 2 18l4 10l5 9q3 9 7 14l4 3l4 3q4 4 4 9q-1 12 7 16q6 4 9 13l2 4l1 5q3 5 8 10l3 3l4 4q5 4 5 6q0 1 -2 2q-1 1 -3 1t-2 2q0 3 13 15q4 3 9 7l3 3l1 1q3 2 8 5l8 4q1 1 2 3l4 3q5 5 7 5l1 -1l1 -1h4l4 1
q4 1 4 3v3l-1 4q1 8 15 16l7 5l8 4q9 7 11 8l20 11l20 11q13 7 26 7q3 0 6 -1l4 -3q5 -4 8 -4q4 0 13 4l7 2l7 1q5 0 11 -1l9 -2q39 -4 50 -17l4 -5l5 -6q5 -7 10 -10q12 -7 18 -16q21 -28 24 -52q2 -12 1 -27q0 -14 -3 -32l-1 -16l-2 -15l-4 -14l-5 -14q-4 -14 -11 -25
l-3 -6l-4 -5q-5 -6 -7 -10l-6 -12l-4 -13q-5 -16 -11 -25l-18 -28q-10 -17 -18 -27l-19 -25l-20 -25l-9 -12l-9 -13l-10 -10l-10 -11l-8 -10l-9 -10l-16 -21q-8 -9 -23 -23l-11 -11l-12 -11q-9 -9 -28 -21l-16 -9q-8 -5 -13 -10q-6 -5 -12 -9q-7 -5 -12 -7l-13 -6
q-8 -3 -14 -4l-15 -5l-16 -5q-15 -2 -33 -2q-14 0 -28 6zM296 310l6 1l10 2h9q12 1 37 16l16 8l16 8q8 5 18 12l17 14l10 8l9 8q11 10 19 17l7 8l8 8q9 9 14 16l3 8l3 7l4 7l5 8q4 12 7 22q4 12 4 22l1 6v5l1 9q1 23 -26 23q-20 0 -32 -6l-9 -4l-9 -3q-11 -3 -16 -6
q-36 -23 -61 -47q-38 -35 -53 -59l-9 -14l-10 -13q-4 -8 -8 -19l-4 -9l-3 -10l-5 -15q-2 -9 -3 -17q0 -8 5 -15t12 -7z" />
    <glyph glyph-name="colon" unicode=":" horiz-adv-x="224" 
d="M206 233q-5 2 -8 4t-7 4l-6 6q-6 7 -7 14l-1 4l-1 5q-2 6 -2 9q0 5 2 12l2 6l2 3q3 6 9 12l4 4l3 3q6 4 17 7q9 3 16 3q9 0 24 -7q8 -4 11 -12l2 -5l3 -7q4 -10 4 -12q0 -6 -2 -10q-1 -4 -3 -7l-4 -6l-4 -6l-3 -5q-4 -5 -9 -8q-15 -13 -33 -13q-4 0 -9 2zM105 4
q-3 2 -7 4q-4 4 -5 6q-7 7 -8 14v7l1 7q1 2 0 7l-1 8q0 7 7 16l5 6l4 4q6 5 16 9q9 4 15 4q19 0 34 -8q8 -3 11 -11q1 -2 2 -12q1 -9 1 -12q0 -6 -2 -10q-1 -4 -3 -7l-4 -6l-4 -6l-3 -5q-4 -5 -8 -8q-7 -6 -18 -9q-9 -1 -18 -1q-10 0 -15 3z" />
    <glyph glyph-name="semicolon" unicode=";" horiz-adv-x="230" 
d="M211 232l-8 4q-3 2 -7 5t-5 5q-6 7 -8 15l-1 3l-1 5q-1 6 -1 9q0 5 2 12l2 6l1 3q3 6 9 12l5 4l3 3q5 4 16 7q10 3 16 3q10 0 24 -7q9 -4 12 -12l2 -4l3 -8q3 -9 3 -12q0 -6 -2 -10q-1 -3 -3 -7l-4 -6l-4 -6l-3 -4q-4 -6 -8 -9q-16 -13 -34 -13q-3 0 -9 2zM69 -33
q-6 8 -6 18t12 26l5 9l6 11l4 4l3 5q5 5 7 9q8 17 15 26l12 16q5 7 8 11q6 8 15 8q13 0 25 -11q15 -13 15 -22q0 -13 -10 -26l-5 -8q-3 -5 -6 -9t-7 -8l-3 -4l-3 -4l-8 -9l-7 -9q-2 -2 -6 -7l-9 -9q-11 -13 -15 -16q-12 -10 -28 -10q-8 0 -14 9z" />
    <glyph glyph-name="equal" unicode="=" horiz-adv-x="424" 
d="M201 330q-5 0 -7 3q-2 4 -2 7q0 5 3 13l3 6l2 5q8 19 21 28l4 2l5 2q7 3 13 3h12q2 0 8 1l5 1l4 1h19q9 2 20 3l8 1l8 1q4 0 25 1h6l6 1h94l19 -1q35 -2 35 -19q0 -4 -2 -9l-2 -8l-2 -9q0 -5 -2 -8q-4 -8 -19 -12l-4 -2l-3 -1q-5 -3 -8 -3q-5 0 -15 1q-3 0 -12 -1h-31
q-4 0 -12 -1h-14q-18 -1 -23 -1h-25q-7 0 -28 -1h-9l-12 -1q-17 0 -23 -1q-4 0 -9 -1h-12l-9 1h-10q-6 0 -16 -1l-4 -1h-5zM111 204q-2 3 -2 7q0 5 3 13l3 6l2 4q8 20 21 28l4 2l5 3q7 3 13 3l5 -1h7q2 0 8 2h5l4 1h10q5 0 9 1q9 1 20 2l8 1l8 1q3 1 25 2h12q8 0 17 1h58
l19 -1l19 -1q35 -2 35 -19q0 -3 -2 -8l-2 -9l-2 -8q0 -5 -2 -9q-4 -8 -19 -12l-4 -1l-3 -2q-5 -2 -8 -2q-5 -1 -16 0h-11l-6 -1h-37l-14 -1h-48q-7 -1 -28 -1q-4 0 -9 -1h-12q-17 -1 -23 -1q-4 -1 -9 -1h-21l-10 1q-6 0 -16 -1l-4 -1l-5 -1q-5 0 -7 4z" />
    <glyph glyph-name="question" unicode="?" horiz-adv-x="423" 
d="M205 171q-14 18 -14 45q1 40 47 77q44 35 78 48l5 2l5 1l6 4l6 5l3 1l5 1q5 2 7 4q2 1 4 4t3 4v6q0 2 3 3q16 1 26 6h1l1 1l4 2q6 4 6 6q0 3 -3 3q-2 0 -8 -3t-10 -3q-2 0 -2 1q0 5 13 12l10 5l3 2l3 1q8 3 15 7l3 1l3 1l4 -1h5q1 0 7 11q5 9 15 15q27 16 38 30
q6 9 12 13q9 6 14 11l5 10l2 5l3 4q4 5 4 15q0 11 -8 16q-11 6 -22 7l-16 2l-16 1q-9 0 -16 -2l-10 -4l-9 -4q-12 -5 -20 -7q-16 -5 -44 -21q-17 -11 -39 -30l-10 -8l-10 -8q-12 -9 -18 -17l-3 -3l-3 -4l-6 -8q-9 -10 -16 -10q-11 0 -18 14q-6 10 -8 23t-2 23q0 15 5 23l6 8
l7 8l5 8q3 6 6 8l8 8l8 8q3 3 9 5l5 2l5 3l7 5q3 3 6 5q2 1 9 7q4 3 9 6q5 4 12 9q4 2 14 6l8 3l6 2q5 2 7 2l4 -1l4 -1q2 0 6 6l3 4q2 3 4 3l6 2l5 1h13q8 0 13 2l9 4l9 3q10 2 20 2q21 0 43 -8q16 -7 24 -11q13 -7 20 -16l8 -9l8 -10q9 -11 11 -21l3 -12l3 -12
q3 -15 3 -24l-1 -14l-2 -13l-2 -13l-2 -13q-2 -10 -11 -25l-8 -12l-4 -5l-3 -6q-23 -34 -72 -65l-10 -6l-11 -6l-10 -5q-7 -3 -11 -5l-9 -8l-9 -8q-4 -3 -10 -6l-11 -4q-15 -8 -44 -25l-11 -6l-10 -5q-12 -7 -20 -12q-9 -7 -21 -14l-22 -12q-29 -16 -43 -28l-2 -2l-2 -3
q-3 -3 -3 -6v-4l1 -4q2 -4 2 -6t-2 -5l-1 -2l-2 -3q-5 -10 -13 -10q-10 0 -20 13zM140 2q-4 2 -7 4q-5 4 -6 6l-4 3l-4 5q-6 5 -7 7l-1 4l-2 6q-2 7 -2 12t1 10l2 4l1 4q2 7 9 16q5 8 8 11q6 5 17 9q10 4 16 4q21 0 37 -12q3 -2 7 -8q3 -4 5 -8q1 -3 2 -13q1 -9 1 -12
q0 -7 -2 -12q-1 -3 -3 -6q-3 -5 -4 -7l-4 -6l-1 -5q-2 -6 -6 -9q-8 -6 -19 -9q-9 -2 -19 -2t-15 4z" />
    <glyph glyph-name="at" unicode="@" horiz-adv-x="640" 
d="M235 -142q-31 5 -53 23q-4 3 -11 7l-12 6q-11 7 -25 22q-29 32 -39 56l-7 14l-7 14q-7 17 -9 29q-4 25 -5 62v34q1 20 7 34l5 15l5 15q7 17 15 28q6 8 15 24l7 13l8 12q3 4 5 11l4 12l7 11l6 11q3 5 4 14l2 6l2 8q7 18 27 33l9 6l7 7l3 3l2 4q4 4 6 4q3 0 5 -1h1l2 -1
q3 0 6 2q3 1 5 3t2 5l-1 4v4q0 7 8 14l5 5l6 4l26 16l27 15l13 10l14 10q17 12 29 17q6 2 14 3l14 2q6 1 15 3l16 5q36 11 58 11q39 0 76 -14l13 -6l12 -6q19 -7 28 -13q16 -11 41 -42l9 -10l8 -12q4 -5 7 -14l6 -14q5 -11 5 -30v-10l-1 -11q0 -6 2 -15v-7l1 -7
q0 -10 -5 -27l-4 -14l-3 -14l-1 -15l-3 -14q-1 -6 -6 -14l-4 -7l-3 -7q-15 -32 -33 -57l-9 -11l-9 -11l-9 -12q-5 -7 -9 -12q-4 -4 -10 -8l-11 -7q-15 -9 -21 -16q-18 -22 -47 -27l-19 -4q-11 -2 -18 -2q-12 0 -21 4q-19 9 -33 38q-3 7 -5 14q-3 9 -3 16v8l1 9q0 8 -3 8
q-4 0 -11 -10l-5 -7q-3 -5 -4 -5l-10 -14l-12 -13q-14 -16 -26 -27q-24 -21 -44 -21q-25 0 -43 22l-5 6l-4 7q-5 8 -5 15l1 12l1 11v2l-1 5q-1 6 -1 11q0 11 4 19l3 6l4 7l5 14q2 9 4 13q6 12 17 26l18 23q9 12 16 25q11 19 16 23q16 15 46 35q39 25 64 25q15 0 31 -9
q11 -6 26 -19q19 -16 35 -37q9 -11 9 -21q0 -11 -11 -28q-6 -10 -14 -28l-6 -14l-7 -14l-8 -14l-8 -14q-8 -17 -12 -30v-5q0 -6 5 -6q3 0 7 2q9 4 18 12l8 7l7 8l11 10l11 10q13 12 20 21l9 11l10 10q5 6 10 14l8 15q14 25 25 59l4 12q2 7 2 13v34q2 24 -8 50q-11 31 -37 43
q-24 11 -53 11q-15 0 -33 -5l-15 -4l-16 -4q-38 -9 -62 -22q-29 -15 -55 -32q-10 -6 -24 -19l-11 -10l-11 -10q-10 -9 -22 -23l-21 -24q-40 -45 -70 -109q-28 -62 -24 -125l1 -16l1 -16q2 -18 6 -31q8 -23 34 -46q24 -20 60 -20q8 0 16 1l5 2h5q7 0 15 2l16 5l16 4l15 5
q17 5 29 13l9 6l10 9q13 11 21 11t11 -9l2 -8v-8q0 -17 -20 -46q-23 -35 -46 -43l-14 -4l-14 -5q-6 -2 -16 -4l-16 -2q-18 -4 -37 -4q-14 0 -27 2zM314 116l4 3l3 3q5 4 5 5q10 7 23 22l10 12l12 12q11 11 24 26l10 14l11 14l10 10l5 6l5 6q5 6 10 14l4 6l4 6l2 4q1 2 1 3
q0 2 -4 2q-7 0 -23 -8q-6 -2 -11 -5l-4 -3q-1 0 -2 -1q-9 -6 -25 -22l-12 -12q-7 -6 -13 -10q-5 -4 -11 -12l-4 -6l-5 -7l-11 -11l-9 -13q-5 -6 -9 -15l-7 -16l-4 -7l-4 -8q-5 -9 -5 -15q0 -5 4 -5q5 0 16 8z" />
    <glyph glyph-name="A" unicode="A" horiz-adv-x="528" 
d="M420 -28l-5 4l-5 5l-8 9l-9 10l-5 6l-5 5q-5 7 -7 13q-2 9 -2 19q0 22 8 46q13 38 25 63l7 14l7 14q0 1 2 4l3 6q4 8 4 10q0 3 -3 3q-4 0 -10 -7l-5 -5q-2 -4 -3 -4l-12 -13l-11 -13q-18 -23 -43 -49l-23 -22l-24 -23l-13 -13l-14 -14q-16 -16 -29 -26q-23 -18 -46 -25
q-23 -6 -40 -6q-13 0 -24 4q-28 10 -47 37q-21 28 -21 59q0 3 1 9q1 5 1 6l-1 5v4l1 8l2 8l-1 6l-1 6q0 3 1 7l1 4l1 4q4 20 9 34l2 7l2 8q3 11 4 15q3 6 13 22q7 10 15 27l7 14l6 14q3 5 9 12l4 6l4 5l8 13q4 7 8 12q9 12 15 23q3 6 9 12l5 5l5 6q4 3 9 10l3 6l4 5l9 11
l9 11l9 11l8 11l4 5l5 5l6 3q3 2 4 5l3 6l3 7q2 4 7 9q4 4 13 9l7 3l6 5q3 2 7 9l4 4l4 5l11 8l11 9l7 7l7 7l6 3l6 3l5 6q3 4 6 6l5 1l5 2q3 1 4 4l2 2l2 3q3 2 9 4l5 1l4 3l4 3l6 4q7 5 11 5q1 0 3 -1l1 -1h3q5 0 11 3q5 3 5 5t-3 4t-3 4q0 3 6 5l4 1l4 1l17 6q20 8 44 8
q37 0 83 -22q29 -13 46 -37l12 -15l13 -16q14 -19 14 -34q0 -11 -7 -24l-6 -12l-6 -12q-3 -5 -8 -11l-9 -11q-3 -5 -7 -13l-6 -12l-4 -7l-5 -5q-6 -8 -8 -13l-7 -15l-7 -16l-8 -11l-7 -12q-11 -17 -21 -36q-7 -15 -25 -50l-7 -14l-8 -13q-9 -17 -13 -28q-2 -6 -7 -14l-7 -13
l-7 -14l-6 -15l-5 -13q-3 -9 -5 -14l-10 -15l-8 -15l-6 -15l-6 -16l-5 -13q-3 -8 -4 -13v-6l-1 -5q-1 -7 -1 -11t1 -8l4 -5q5 -6 5 -10q0 -8 -9 -14q-8 -5 -15 -5q-6 0 -11 4zM177 61q4 2 9 6l15 10l15 10q18 12 28 21l26 24l27 24q32 29 52 49q114 119 200 234l23 30l22 31
q13 17 13 31q0 7 -4 11l-5 6l-4 7q-4 5 -11 7q-6 2 -14 2q-18 0 -36 -5l-12 -4l-13 -4l-7 -2l-7 -1q-7 -2 -13 -5l-15 -9q-9 -7 -15 -9q-15 -8 -26 -20q-12 -12 -28 -25l-29 -25q-20 -16 -49 -53l-11 -14q-6 -9 -12 -14l-5 -5l-5 -5q-3 -4 -12 -11q-5 -3 -9 -11l-4 -7l-4 -7
l-9 -11q-6 -7 -9 -12q-4 -7 -11 -17l-12 -16q-9 -13 -21 -35l-10 -18l-10 -17q-10 -20 -15 -38l-4 -10l-3 -11q-5 -12 -5 -21l1 -6v-11l-1 -4q-2 -6 -2 -12q0 -20 13 -28q3 -2 8 -2t10 2z" />
    <glyph glyph-name="B" unicode="B" horiz-adv-x="509" 
d="M224 -35l-9 2l-8 2q-47 7 -75 36l-4 5l-5 6q-6 7 -11 7q-4 0 -6 -3q-4 -4 -10 -14l-9 -16q-5 -9 -15 -9q-14 0 -28 13q-13 12 -15 26l-1 10q0 18 11 42l10 20l10 19l6 10l5 11q6 14 10 21l5 7l6 6q7 8 10 13l4 8l3 8l5 9l5 9q5 10 10 16l6 11l7 12q8 13 13 17l4 2l3 3
q1 2 2 5l1 2l1 2q1 1 3 1l2 1l3 2l2 4l3 4l3 5l4 4l4 9l5 10q4 9 12 21l8 9l7 10l14 21l13 21l8 9q5 6 6 11l1 3l2 3l2 2l2 3l2 4l2 5l3 3l3 2q3 2 5 7l1 3l2 4l4 2l5 1l4 3l2 4l5 8l5 9q13 16 25 16q11 0 24 -16q7 -8 11 -16q5 -11 5 -19q0 -9 -6 -19q-7 -15 -27 -41
q-18 -23 -32 -43q0 -1 -4 -6l-4 -4l-3 -5q-9 -12 -9 -18q0 -7 13 -7q7 0 17 2l8 2q4 1 5 1q57 10 95 37q4 3 10 6l11 5l10 5l10 7l20 14l20 15q43 34 58 77q5 15 5 26q0 9 -5 18q-8 17 -33 29q-16 9 -47 10l-26 2l-26 2q-14 0 -35 -3l-34 -4q-23 -3 -52 -13l-25 -10l-25 -10
l-24 -9l-23 -10q-27 -12 -46 -24l-6 -4l-8 -5q-9 -7 -16 -13q-20 -17 -20 -31q0 -7 5 -13q8 -9 8 -15q0 -5 -2 -9q-3 -4 -8 -4q-7 0 -17 9l-8 7q-5 4 -6 6q-26 20 -26 45q0 19 11 38l6 10l7 10l6 9q3 5 6 8l6 3l6 4l8 6l8 6l3 3l2 4q4 5 6 6q3 3 7 3l4 1l4 1q8 2 20 9l9 6
l9 5l4 2l4 3q5 3 7 7l3 3l1 4q3 3 7 5q3 2 11 2l6 1l5 2q13 4 23 6q11 2 42 12q28 9 43 12q7 2 20 3h20q5 0 13 -1l7 -1h17l11 2q15 2 21 2q5 0 9 -2q8 -2 16 -1l4 1q6 0 13 -5l4 -2l4 -2h11q6 0 12 -4l5 -4l6 -4l10 -5l11 -5q18 -10 38 -31q39 -44 39 -102q0 -50 -19 -81
q-24 -38 -69 -73l-20 -15q-12 -8 -22 -12l-23 -11l-22 -10l-3 -1l-3 -1l-8 -4q-10 -4 -10 -9q0 -3 2 -6q2 -2 6 -5l4 -3l3 -2q2 -3 5 -8l5 -8l8 -8l8 -8q9 -10 13 -18q10 -22 10 -43q0 -14 -2 -26q-2 -15 -7 -26q-4 -9 -12 -21l-14 -20q-24 -33 -71 -59q-56 -32 -96 -40
q-22 -4 -40 -7q-21 -4 -26 -4q-6 0 -17 3zM267 40q3 1 3 2q0 2 -1 2q-2 0 -2 1l1 3l3 2l6 2l5 1l2 1h2q3 1 3 2q0 2 -3 2q-2 0 -6 -2l-2 -1l-3 -1l-2 1l-1 2q0 2 4 4q4 3 11 5l12 5l24 10l23 9q10 5 32 21q3 2 10 6l9 4l5 4l5 5l5 5l5 4q5 6 8 11l4 8l3 9q3 11 3 18
q0 11 -6 19q-11 16 -31 23q-14 5 -44 7h-27l-26 -1q-17 0 -35 9q-6 3 -10 3q-8 0 -15 -13q-5 -8 -12 -17l-14 -16q-20 -23 -45 -74l-6 -9l-5 -9q-7 -11 -9 -19l-1 -5q0 -7 6 -12l6 -4l6 -4q19 -12 40 -12q11 0 24 1t15 1q3 0 6 -3q2 -1 4 -5l1 -2l1 -2q1 -2 3 -2q3 0 6 1z
" />
    <glyph glyph-name="C" unicode="C" horiz-adv-x="460" 
d="M174 -28l-16 9l-16 10q-5 3 -11 10l-5 6l-5 6q-6 6 -11 16l-5 9l-4 9q-12 24 -16 42q-4 22 -4 44q0 20 3 43l3 22l4 21q2 13 5 23l1 5l2 4l2 3l3 3l1 5l1 5l2 3l2 2q3 3 4 6l2 10l2 11q1 4 3 8l4 7q5 8 7 14l1 3l1 3q0 3 1 4q2 6 5 6h3q4 0 6 7l2 6l2 5q3 7 11 17l6 9
l7 8l4 8q3 4 6 7q2 2 4 6l4 6l3 3l2 2q4 2 7 7q4 6 14 18l8 8l6 9l5 7l4 7q6 8 11 12l7 5l8 5q10 6 12 12v5q0 4 1 5q1 2 7 6l4 3l3 3q13 13 33 28l31 24l5 3l6 3l4 3l4 3q4 4 8 5l8 4l8 5l7 4q4 3 7 3q10 1 15 2q9 4 24 8l31 7q18 4 32 4q10 0 19 -2q22 -4 36 -11
q9 -5 16 -10q9 -7 13 -14l9 -14l8 -15q8 -13 8 -25l-1 -8v-9l-3 -19l-5 -19q-3 -16 -17 -34l-7 -8l-5 -8q-7 -12 -12 -17l-13 -15l-14 -15q-5 -6 -15 -13l-8 -5l-9 -6q-22 -16 -36 -20q-18 -6 -37 -6l-10 1l-10 2l-11 2l-11 3q-7 2 -7 5t7 8l5 4l5 3l34 29q36 32 58 62
q28 38 44 76q2 5 3 9q1 5 1 9q0 15 -15 15q-6 0 -15 -2l-6 -2l-6 -2q-8 -3 -18 -8l-16 -9l-21 -10l-21 -9q-16 -8 -34 -23l-16 -14l-15 -14l-15 -14q-9 -8 -15 -14q-5 -6 -14 -14l-14 -13q-26 -26 -57 -68q-10 -14 -19 -35l-4 -8l-5 -8q-7 -10 -9 -17l-3 -7l-4 -7l-2 -4
l-4 -3q-4 -4 -5 -6l-2 -7l-2 -6l-4 -9l-5 -10q-2 -7 -5 -20l-5 -19l-3 -13l-4 -12q-3 -15 -3 -25v-14l1 -15v-20q0 -15 3 -26q2 -6 8 -12l6 -5l6 -5q9 -8 22 -8q8 0 19 3l9 3l10 3q12 3 20 7l9 5l9 7q6 4 9 4l3 -1l3 -1q3 0 7 3l3 3l3 3l8 5l8 5q7 5 17 15l16 15l16 14
l16 14q18 16 31 30l3 4l4 4q4 5 8 5q7 0 12 -14q5 -12 5 -27q0 -37 -26 -73l-4 -7l-4 -8q-4 -10 -9 -14l-6 -6l-6 -5l-6 -8l-7 -7q-18 -15 -36 -23l-6 -3q-4 -2 -6 -4q-8 -8 -15 -12q-18 -9 -43 -16q-29 -8 -50 -8q-40 0 -65 13z" />
    <glyph glyph-name="D" unicode="D" horiz-adv-x="531" 
d="M239 -41l-6 2l-6 1l-5 -1l-5 -1q-3 0 -7 1t-7 1l-9 -1h-8q-10 0 -18 3l-8 3l-8 3q-10 4 -15 8t-9 11l-3 6l-4 6l-2 5l-3 5q-5 6 -10 6q-6 0 -11 -8l-4 -7l-3 -6l-2 -4l-3 -5q-3 -7 -5 -10q-6 -8 -17 -8q-6 0 -14 7l-7 6l-7 6q-15 15 -16 22q-2 7 -2 13q0 14 7 31l7 15
l7 14l8 18l9 18q11 21 20 34l10 12l8 10q11 13 17 24q3 6 3 10v3l-1 2l1 3l2 3l4 2l5 2q2 2 6 7l6 7l1 1l1 2l4 6q6 7 6 10q0 2 -2 2q-4 0 -7 -7l-4 -6l-3 -6q-3 -6 -5 -6t-2 2q0 3 4 10l3 5l1 2l1 1q11 19 29 31q3 2 4 5l4 6q1 3 4 5l3 2l3 2l2 2l2 2q2 3 2 8q0 7 7 15l6 7
l5 6l13 15l13 16q4 6 8 16l4 8l4 8q4 7 11 15l12 12q6 6 12 14l10 14q12 18 23 26q12 8 20 8q7 0 17 -7q11 -6 16 -14q4 -6 4 -20q0 -26 -10 -41l-10 -14l-11 -13q-14 -17 -20 -28q-7 -11 -21 -30l-21 -30l-11 -15l-11 -15q-11 -18 -20 -33q-20 -36 -39 -60q-16 -21 -35 -58
l-4 -7l-4 -5q-5 -8 -7 -13l-3 -6l-3 -6q-4 -8 -4 -13q0 -4 4 -8l4 -2l3 -2l6 -4l7 -3l5 -2l5 -2q6 -3 10 -3h4l4 -1q6 0 11 2l8 3l8 1l8 2l8 1l10 4l10 4q38 17 68 38q13 9 28 22l26 24l26 24q15 14 25 26l24 30l24 31q26 35 39 66l7 16l7 17q4 11 4 27q0 5 3 10l2 3l1 4
l2 12l3 8q3 10 4 16l1 14q0 27 -13 54q-16 35 -45 45q-42 14 -80 14q-29 0 -80 -10q-18 -4 -43 -14l-21 -9l-21 -9q-55 -22 -80 -38q-20 -13 -34 -26l-6 -6l-7 -8q-7 -9 -7 -17q0 -6 7 -15q6 -8 6 -13t-3 -9t-6 -4q-4 0 -10 5l-5 4l-5 3q-35 29 -35 57q0 6 1 13q4 17 15 33
l5 9l6 9q7 10 13 15l4 3l3 3q5 4 8 5q11 4 11 5l7 6l6 7q3 2 7 5l3 2l4 3l3 2q2 1 3 1l2 -1l2 -1l2 1l1 3q2 3 4 3l2 -1h2l4 1l4 2l7 6l7 5l5 3l5 4q6 5 11 7l7 3l7 2q16 7 21 7h6l7 -1q4 0 8 3l4 4l4 3l4 2l4 1q3 2 10 2l10 2q35 8 81 10l10 1l10 1l4 -1l5 -2q5 -3 10 -3
t10 3l4 1l3 1q2 0 8 -2l7 -1l7 -2q9 -2 14 -5l7 -4l7 -5l11 -7l10 -7q21 -13 28 -22q3 -4 7 -8l8 -6q11 -8 15 -13t9 -15l9 -16q6 -9 9 -16l4 -10l5 -9q4 -8 5 -24v-24l1 -6l2 -6q2 -7 2 -12v-10l-1 -10q0 -2 1 -8l1 -9q0 -4 -3 -8q-2 -4 -2 -6q0 -1 1 -5l1 -8q0 -8 -4 -20
l-3 -10q-1 -5 -2 -8q-2 -9 -9 -23l-6 -11l-5 -11q-4 -11 -9 -20l-1 -4l-2 -5q-3 -6 -6 -8q-10 -10 -12 -15l-4 -9l-3 -10l-5 -8l-6 -9l-2 -4l-3 -6q-4 -8 -6 -8h-2v1l-2 1l-2 -1q-1 -1 -2 -4l-4 -7l-4 -7l-12 -16l-14 -15l-5 -5l-6 -4q-1 -2 -2 -5l-1 -5l-2 -2h-5
q-4 0 -8 -4l-3 -4l-3 -3l-11 -10q-7 -6 -10 -11q-6 -7 -10 -12q-6 -6 -11 -10l-7 -4l-7 -3q-8 -4 -12 -8q-2 -2 -3 -4l-2 -5q-2 -5 -9 -8q-5 -1 -10 -6l-5 -4l-6 -4l-35 -16l-12 -7q-8 -4 -13 -6q-3 0 -6 -2l-6 -3q-3 -1 -8 -2h-8l-5 -1l-6 -2q-6 -2 -10 -2v-1z" />
    <glyph glyph-name="E" unicode="E" horiz-adv-x="438" 
d="M76 -41q-28 13 -40 39l-3 6l-4 6q-5 8 -6 13l-3 6q-1 4 -1 8l1 8l2 7l3 17l4 15q4 18 11 31q2 5 8 12l4 5l4 6l7 14q4 8 6 11l3 6l3 5q4 7 7 10q4 4 8 11l3 6l3 6q3 5 6 11l2 6l3 6l3 5l5 6q6 7 6 11q0 6 -5 17l-4 8l-1 9q0 12 11 19q6 4 16 7l16 5l3 1l4 1q4 1 6 4
q2 2 3 7l2 3l1 4l4 6l5 7q5 8 8 13l1 2l1 4l3 9q3 7 6 7q1 0 1 -1v-3q0 -3 2 -3t5 5l2 4l2 2l12 15l2 2l2 4l3 6q3 2 9 5l3 2l3 1q4 3 4 5q0 3 -4 4q-4 2 -4 4q0 1 2 4l2 1l1 3l1 5l1 5q2 6 8 13l6 6l4 6q17 23 17 28q0 4 -4 9l-4 5l-4 4q-21 22 -21 40q0 27 29 33l30 6l5 2
h6q2 0 4 -2l2 -1l2 -2h5l10 1h5l4 1l6 -1h5q5 0 7 4l2 4q1 2 3 2l2 -1l2 -2q2 -2 4 -2q3 0 8 2l4 1l4 1q7 1 8 3l4 3l4 4q5 3 11 3q5 0 16 -1h17l6 1q6 1 6 4q0 1 -3 1q-7 0 -7 2t7 3h5l3 1l8 1h8q19 4 32 4q9 0 26 -1l13 -1h47q16 -2 30 -7q18 -5 24 -13q4 -4 6 -11l2 -6
l3 -6q4 -7 6 -12q3 -8 3 -14q0 -11 -12 -17q-4 -2 -10 -3q-5 -1 -9 -1q-6 0 -20 1h-10l-9 1l-12 -1h-11q-14 -1 -23 -1q-8 0 -22 -3l-11 -1l-10 -1l-15 -1h-36q-15 0 -33 -6l-8 -4l-9 -3h-10q-6 0 -9 -2q-5 -2 -10 -10l-5 -9l-6 -9l-6 -9l-7 -8q-8 -10 -12 -18
q-8 -15 -24 -39l-13 -19l-12 -20l-9 -15l-9 -15q-1 -4 -1 -5q0 -4 5 -4l14 1l14 2q26 3 42 4l17 1l18 1q8 0 17 -2l16 -4l4 -1q3 0 4 -1t2 -3l1 -2l1 -1q1 -2 5 -4l3 -1l3 -2l2 -1h2q2 -1 4 -3l3 -4l3 -4q5 -6 5 -10q0 -8 2 -15l2 -4v-4q0 -7 -6 -11q-6 -3 -14 -3q-3 0 -8 1
q-4 1 -8 1q-6 0 -15 -2l-8 -1l-7 -1q-1 0 -3 -1l-6 -2q-9 -2 -14 -2h-8l-3 1h-3q-7 0 -19 -3l-9 -2l-9 -1l-10 1q-8 0 -17 -3l-6 -2l-7 -1l-4 1h-5q-4 0 -9 -2l-8 -2l-10 -2l-10 -1q-34 -6 -38 -11l-4 -7l-4 -7l-7 -10l-8 -10l-11 -20l-11 -20q-3 -7 -12 -21l-7 -11l-7 -12
l-4 -9l-3 -10q-5 -12 -9 -18l-7 -10l-6 -11v-3q0 -4 5 -4t8 3l2 3l1 3q1 4 4 4t6 -3t6 -3l11 2l11 3l5 1h4q2 0 4 -2l2 -1l1 -2q5 -3 12 -3q6 0 13 1l6 2l6 2q8 2 12 8q4 4 8 4h3l2 -1h3q2 0 7 1q7 0 13 1q17 3 17 5t-4 2t-4 2q0 3 10 3q3 0 9 -1h8l17 -2h16q36 -1 54 -17
q10 -8 17 -20q8 -14 8 -25q0 -12 -12 -16q-5 -2 -11 -2l-12 -1q-16 0 -39 -4l-14 -1l-14 -2l-17 -2l-15 -3l-16 -4q-10 -2 -17 -2q-13 -1 -29 -4l-17 -4l-17 -4l-14 -3l-15 -3q-18 -6 -32 -9l-4 -1h-7q-10 0 -15 -2l-5 -2l-5 -2q-5 -2 -9 -2t-9 2z" />
    <glyph glyph-name="F" unicode="F" horiz-adv-x="429" 
d="M53 -32q-4 3 -7 8l-3 4l-3 5q-4 5 -11 19l-3 5l-3 4q-4 5 -5 10t-1 11q0 8 3 15v2l2 3q1 4 3 4t2 -2v-3q0 -2 1 -2q2 0 6 4t4 7q0 2 -2 6q-2 5 -2 7q0 5 6 16l5 10l5 9l2 3l2 4q4 6 7 11l2 5l2 6q2 7 4 9l5 10l7 9q9 12 12 19l4 9l3 10q1 3 6 7l3 3l3 4q2 3 2 8
q0 7 -7 23t-7 24q0 10 6 16q8 10 24 10h14q7 0 11 2l2 2l1 2q1 2 2 2t2 -2l1 -1l2 -1q1 0 4 2t4 3l2 3l3 3q3 6 3 9t-2 3q-1 0 -3 -1l-2 -2h-1q-1 0 -1 1q0 2 3 4q3 3 4 3h2l3 -1q2 0 4 3l2 5l2 4l2 3l1 3q2 4 4 6q8 6 8 7q0 2 -2 2l-3 -1h-3q-2 0 -2 2q0 3 4 7l3 4l3 3l8 6
q4 4 6 7l4 9q2 4 5 7l9 9l8 9l5 4q2 3 2 5t-2 3q-2 2 -2 4t4 6l2 2l2 3l13 22l7 11l5 11q4 7 4 11q0 3 -2 8l-6 11l-8 12q-5 8 -8 15q-3 9 -3 16q0 12 11 19q8 6 20 5h4q3 0 5 1l4 3l4 1l4 1q6 2 8 3l5 1l5 1h4l3 -1l6 1l6 1l8 -1l8 -1q7 0 15 3l6 2l8 2q17 5 43 9l17 2
l17 3q20 2 31 2q5 0 12 -1l5 -1l5 -1q3 0 5 1l4 3q5 4 9 4h13l6 1l6 -1l3 -1l3 -1l4 -1q6 0 9 -2q7 -3 20 -6l10 -3l10 -3q22 -9 33 -28l4 -7l5 -7q6 -10 6 -17q0 -10 -9 -14q-6 -3 -18 -3q-8 1 -20 2l-17 1q-7 0 -13 -1t-11 -2t-14 -2h-42l-9 -2q-13 -2 -18 -2t-11 1l-4 1
l-3 1q-3 0 -7 -1l-3 -1l-3 -1l-7 -1q-6 1 -16 -1l-17 -4l-6 -1l-7 -1q-8 -1 -12 -3t-7 -9l-3 -5l-2 -5l-7 -12l-8 -12l-9 -13l-9 -14l-4 -5l-5 -6q-6 -6 -8 -10l-4 -9l-3 -8l-3 -5l-4 -5q-4 -6 -6 -10q-4 -7 -12 -19l-6 -10l-6 -10l-2 -5l-2 -5q-6 -11 -6 -12q0 -4 3 -5
l3 -1h4q6 0 27 3l17 1l17 1h8l8 -1q9 -1 16 0q1 0 6 1l8 1q11 2 18 2q14 0 26 -6q20 -10 33 -23q3 -4 5 -9l1 -4l2 -5q3 -8 3 -14q0 -11 -10 -17q-7 -4 -21 -4l-33 -3l-34 -2q-34 -2 -51 -6q-8 -2 -18 -2l-14 1h-14q-11 0 -27 -3l-14 -3l-13 -2q-17 -3 -30 -23l-14 -21
l-14 -21q-20 -31 -51 -87q-3 -4 -5 -12l-4 -13q-4 -12 -10 -22q-2 -4 -7 -12l-4 -5l-4 -5q-3 -5 -6 -12q-2 -6 -3 -12l-1 -10l-2 -10q0 -5 -5 -9q-4 -4 -10 -4q-8 0 -24 13z" />
    <glyph glyph-name="G" unicode="G" horiz-adv-x="494" 
d="M242 -45q-26 0 -41 2q-10 1 -16 4q-2 1 -6 4l-5 5q-2 2 -7 3l-4 1l-4 1l-7 5l-6 6l-6 5l-7 5q-8 7 -13 12l-5 6l-5 6q-7 7 -9 12q-12 25 -14 40l-3 19l-3 21q-1 3 -1 15q-1 11 -1 18q0 38 9 83q2 7 3 11q2 6 3 8l2 2l1 1q3 1 3 2l1 4l1 4l2 4l3 3q3 4 4 7l2 10l2 10
q1 4 5 10l6 10l4 9l4 9q2 4 7 6q2 0 3 2l1 3l5 12l6 11l7 9l6 10l2 5l2 5q2 6 4 9l3 3l3 3l1 4l1 4q1 2 5 3l3 1l4 2q3 1 5 6l2 3l2 4l13 17l13 17l7 10q4 5 9 8l8 5l8 4q4 4 8 13l4 7q2 4 4 6q19 19 39 33l18 14l19 14l16 11q9 6 17 10l9 6q6 4 9 5l9 2l9 2l23 6l22 7
q25 7 45 7q44 0 88 -39q27 -24 27 -63q0 -34 -3 -51q-1 -9 -6 -18l-5 -9l-5 -8l-10 -18l-11 -18q-13 -20 -28 -32q-26 -22 -45 -33q-27 -16 -50 -16q-7 0 -16 3l-8 2l-8 2q-12 2 -12 7q0 4 6 8l5 4l6 4l9 9l9 8q21 21 34 35q27 31 52 80q2 4 5 9l5 13q5 16 5 27q0 25 -22 25
q-18 0 -35 -8q-9 -3 -22 -11l-22 -11l-12 -5l-12 -6q-13 -6 -22 -13l-9 -6l-10 -7q-11 -9 -17 -15l-9 -9l-9 -8l-19 -19q-5 -6 -17 -14l-8 -7l-9 -7q-15 -15 -30 -38l-14 -20l-13 -20l-12 -19l-11 -19l-10 -22q-7 -12 -12 -21q-5 -6 -9 -16l-4 -9l-4 -9q-3 -8 -7 -23l-7 -23
l-2 -8l-2 -8q-3 -11 -3 -17l1 -9v-26l-1 -17q0 -9 1 -19q2 -11 4 -15q2 -3 6 -7l4 -3l3 -3l6 -7l6 -6q4 -4 12 -6q6 -2 13 -2q11 0 34 8q20 6 40 16l7 2l6 1q9 1 12 4l6 6l6 5l9 8l9 7q30 29 49 60l3 4l2 4q3 6 3 11q0 11 -16 11q-4 0 -11 -1l-5 -1l-4 -1q-18 -4 -48 -8
l-21 -3l-21 -4q-6 -1 -10 -1q-10 0 -19 17l-4 5l-3 5q-3 6 -3 11q0 8 4 15q7 12 30 21q11 4 26 7l13 2l12 2l21 4l21 3h16q10 1 16 2q21 4 42 5l6 1l7 1q9 2 13 2q11 0 19 -11q3 -5 7 -12l6 -12q8 -18 8 -32q0 -8 -2 -16l-4 -11l-3 -11q-4 -12 -9 -20q-12 -25 -24 -38
q-5 -5 -11 -16l-4 -8l-5 -8l-5 -4l-4 -5q-6 -5 -9 -9l-6 -9l-6 -9q-4 -5 -13 -11l-7 -5l-7 -6l-9 -6l-9 -5l-3 -3l-2 -2q-3 -4 -6 -5l-8 -3l-8 -2l-10 -5l-9 -6q-15 -8 -41 -14q-13 -3 -27 -5q-5 0 -9 -1h-6z" />
    <glyph glyph-name="H" unicode="H" horiz-adv-x="594" 
d="M115 -45q-17 9 -26 18q-7 7 -7 12l1 5v3q1 3 1 4l-1 7l-1 6q0 9 2 16q3 8 7 8h2l2 -1q3 0 3 3v5q0 2 2 5l2 4q3 4 4 7v5l1 5l1 3l1 4l-1 3v4q0 2 3 5l5 5q8 10 11 18q1 4 4 7l3 3l3 4q4 6 9 17l5 9l4 10l2 4l1 4q0 3 -3 3q-4 0 -12 -2l-8 -2l-7 -1l-10 -3l-10 -1
q-10 -3 -19 -4l-11 -1q-20 0 -20 19q0 8 4 19l4 10l5 8q4 8 13 16q5 6 16 14q16 12 26 12l3 -1l3 -1q4 -1 6 -1q3 0 12 4t15 4h4l4 -1q6 0 17 5l8 3q4 2 9 2l5 -1l4 -1q3 0 5 1l3 3q7 7 13 16q15 23 22 37q5 9 9 14l4 5l4 4q3 4 5 9q4 8 9 17q4 7 13 18l15 19l15 21l5 7l5 8
q7 9 7 15t6 14l7 8l7 8l11 11q6 6 10 12t7 12l2 3q1 1 3 1l2 -1l2 -1q3 0 6 5q2 5 2 9v4l-1 4q0 2 2 5l2 3l2 3q14 21 31 37q7 6 14 6q13 0 21 -6q9 -6 15 -15q8 -10 8 -19q0 -5 -4 -10l-3 -4l-4 -4l-6 -9l-5 -9l-12 -22l-11 -22q-8 -17 -24 -41l-14 -20l-13 -20l-24 -41
q-15 -25 -25 -40l-7 -10l-7 -9q0 -1 -2 -3l-3 -4q-5 -6 -5 -8q0 -3 4 -3l6 1l3 1h13q8 0 12 1l12 2l12 2l6 2l5 2q6 3 9 3l2 -1l2 -1q3 -1 6 -1t9 3l5 3l6 1q5 1 22 2q15 1 23 1q13 1 31 1q14 0 17 8q3 7 9 16l10 15l4 8l4 8l3 3l2 4l1 5l1 4q1 4 3 7q3 3 9 8l4 4l4 4
q2 2 4 7l3 7l5 7l6 7l11 14l11 15l1 1l1 2l3 5q4 6 4 8q0 1 -1 1t-3 -2l-3 -3l-6 -9l-5 -8l-2 -4l-3 -5q-3 -5 -6 -5q-1 0 -1 1q0 4 7 13l6 7q3 4 3 6l15 23l19 27q11 16 20 26l8 12l10 11l2 2l3 2q3 3 3 5v2l-1 3q0 2 2 6l2 3l2 3l3 6l4 6l2 2l2 3q2 4 4 4q1 0 2 -3
q0 -2 1 -2q2 0 14 12q3 5 7 10l3 3l1 1l1 1l3 4l4 4q4 4 8 4t9 -2l5 -3l4 -2l8 -4l8 -5q10 -7 10 -15q0 -5 -4 -11l-3 -4l-3 -5l-7 -12l-7 -13q-7 -16 -22 -40l-12 -20l-12 -19q-8 -14 -26 -41l-13 -20l-12 -20l-12 -20l-13 -21q-15 -24 -24 -41q-20 -40 -20 -43q0 -6 6 -16
l4 -8l4 -8q3 -8 3 -15q0 -5 -4 -10t-9 -5h-5l-5 2q-7 1 -12 1q-3 0 -10 -1h-4l-4 -1q-6 0 -9 -2t-6 -6l-2 -4l-1 -4q-4 -8 -13 -20l-7 -9l-6 -10q-10 -17 -24 -42l-23 -43l-11 -20l-10 -20l-13 -19q-8 -13 -11 -20l-4 -7l-3 -7q-4 -10 -7 -15q-9 -17 -20 -17q-7 0 -14 5
q-11 7 -17 12q-9 7 -13 14q-10 18 -10 34q0 10 6 25l7 12l6 12l1 2l1 2l3 6q4 7 7 7l3 -2l3 -1h2l1 2l-2 5v2l-1 2l1 5l2 4q3 8 8 16l7 9l7 9l1 2l1 2q1 3 1 4q0 2 -1 5l-2 1v2q0 1 2 3l2 2l7 3q0 1 -2 2l-1 1l1 2v2l1 2l1 2q1 4 3 4l2 -1l1 -1q3 0 10 10q8 11 8 16
q0 4 -5 4l-18 -2l-18 -2q-29 -3 -48 -3q-8 0 -21 -3l-10 -3l-11 -1q-8 0 -22 -3l-10 -2l-11 -1l-9 -1q-6 0 -9 -1q-5 -2 -9 -8l-3 -5l-3 -6q-11 -15 -24 -40l-10 -22l-11 -21q-1 -3 -6 -8l-3 -3l-3 -4l-4 -10l-4 -9q-4 -9 -12 -21l-12 -21l-11 -19q-6 -11 -11 -18
q-8 -9 -15 -15q-4 -4 -9 -4t-12 4z" />
    <glyph glyph-name="I" unicode="I" horiz-adv-x="431" 
d="M126 -63q-5 1 -10 3q-12 4 -21 16q-1 1 -5 6l-8 8q-11 11 -11 17q0 7 9 8h8q11 3 21 8q6 4 11 12l4 6q2 3 6 6q1 2 4 2l1 1h1q3 0 4 -3q2 -2 4 -2q5 0 7 4l1 4l1 3l2 4q2 2 4 2l5 1h5q5 1 7 3l8 7l9 6q12 8 16 14l1 2l1 4l3 6q2 2 6 4l2 1l2 2l13 12l7 8l6 8q8 11 13 15
l7 7l8 7q10 7 14 14l3 5l2 5q3 7 5 10l2 3q2 2 3 2t3 -2l1 -1h1q2 0 4 1l3 3l2 3l2 4q2 6 4 8l6 7l5 7q2 3 7 6l7 5q5 6 7 11q2 8 6 11l1 2l2 2l2 4l2 4q3 5 4 7l1 3v3l1 3q1 2 2 2l3 1q2 1 2 4l2 4l2 5l1 5q0 1 -1 3l-1 2q0 2 2 3l3 3l6 8l7 8q7 10 10 18q2 4 7 9l3 2l3 3
q5 4 5 7l-1 2l-1 1q-2 2 -2 4q0 1 4 7l4 3l2 3l3 3l3 2q3 2 5 4q1 2 1 7v3l1 3q4 9 10 17q3 3 7 17q3 8 9 20l5 10l5 9l20 44q6 12 6 21q0 4 -1 7l-2 4q-3 5 -3 6l1 6l1 5q0 6 -8 6q-4 0 -10 -2l-5 -2l-5 -1q-8 -2 -19 -7l-10 -4l-10 -3q-12 -4 -19 -9l-20 -11l-19 -12
q-21 -13 -35 -27l-14 -12q-7 -7 -15 -11t-17 -12l-7 -8l-7 -8l-27 -30q-7 -7 -14 -17l-11 -19l-11 -17l-11 -17q-11 -20 -17 -36q-3 -8 -3 -19v-9l-1 -9l-2 -6l-2 -7l1 -3l1 -4q2 -4 2 -6q0 -4 -3 -7q-3 -2 -8 -2q-6 0 -12 3q-6 2 -9 5q-10 9 -21 28q-5 7 -7 19l-1 10l-1 10
l-1 7v7q0 5 2 9q1 4 1 5l-1 4l-1 3q0 3 3 2l4 -1h4q3 0 3 3l-1 4l-1 3q-1 4 -2 9q-3 10 -3 11q0 3 4 8l3 4l2 3q2 2 3 10q1 4 4 7l3 2l2 3q3 4 6 10l4 11l4 9l5 8q5 10 12 16l5 6l6 7q7 9 12 13q11 9 26 25l13 12l13 13l8 6l8 6q10 7 15 12l3 4l2 3q3 5 6 7q3 3 9 5l5 1l5 2
l19 9l19 8l6 3l6 3l9 4q6 1 9 3q12 8 22 8h6l6 -1q5 0 13 4t13 4h13q4 0 10 3q5 3 8 3q8 0 22 -6q11 -4 18 -8l7 -5l5 -6l8 -5l7 -4q11 -7 19 -26q13 -27 13 -46l-1 -16v-16q0 -20 -9 -39l-8 -19l-6 -18q-6 -18 -17 -35q-4 -7 -8 -19l-3 -9l-4 -9l-21 -39l-22 -38l-22 -36
q-12 -21 -23 -36q-5 -7 -16 -19l-8 -9l-8 -10l-6 -8l-5 -9l-12 -18l-14 -15l-14 -16l-7 -8l-5 -9q-8 -12 -13 -18q-11 -13 -30 -29l-16 -14l-16 -14l-15 -14l-15 -14q-17 -17 -33 -25l-17 -9l-18 -9q-22 -9 -40 -9h-9z" />
    <glyph glyph-name="J" unicode="J" horiz-adv-x="442" 
d="M-5 -128q-6 8 -12 19q-7 14 -7 22q0 2 1 6l1 5l-1 5v14l1 4v7l1 8q0 4 2 8l3 7q3 9 6 12q2 1 10 15q12 23 19 28q3 2 6 6l5 8l8 9l9 10q11 13 33 29l18 13l18 14q14 12 38 24l20 11l21 10l19 10l19 10l10 4l9 5l4 3l5 3q6 4 11 6l21 6q13 3 21 7q9 4 17 5l5 2l6 1
q7 2 11 3q5 2 9 7l4 4l2 3l3 4l2 4q3 4 4 4l3 -1l2 -1q4 0 9 4q5 3 5 6q0 2 -1 4l-1 2q-3 2 -3 4t2 7l2 4l1 3q4 8 11 19l12 18q28 39 46 77l4 9l4 9q5 11 10 16q18 19 19 37q2 11 5 18l5 10l6 11q7 13 7 22q0 24 -22 24q-7 0 -16 -2l-8 -1l-6 -2l-17 -6l-16 -6
q-10 -3 -23 -10l-23 -12q-31 -17 -66 -42l-17 -11q-11 -7 -17 -12l-9 -8l-8 -8q-10 -11 -16 -16l-8 -5l-7 -6q-10 -7 -14 -13l-5 -8l-4 -10q-6 -11 -13 -15q-12 -8 -20 -26q-4 -7 -8 -21l-3 -10l-4 -11q-3 -9 -3 -12q0 -4 1 -7l1 -5q0 -4 -5 -6q-4 -2 -8 -2q-3 0 -9 1
q-8 2 -13 9q-9 12 -20 31q-6 11 -6 25q0 6 2 18l2 4v4q0 3 -3 5q-4 2 -4 5q0 2 4 2l5 -1h3q2 0 2 3q0 1 -3 7q-2 7 -2 11q0 3 4 7l3 3l3 3q3 3 4 7l1 3l1 2q1 1 13 7l5 5l3 6q6 10 12 19l6 8l6 8q8 9 15 14l7 5q4 3 5 6l3 7q2 5 3 7q6 8 18 16l10 7l10 7l17 13q11 8 18 13
l8 3q6 3 9 4l3 3l3 4q4 4 7 6q4 2 10 4l10 3l8 4l9 4l7 2l8 1q4 2 9 4l8 6q23 12 31 12l9 -1l9 -1q4 0 11 4l5 4q2 2 4 3q4 2 10 2q28 0 51 -4q14 -2 35 -16q5 -4 11 -10l5 -5l6 -5q1 0 6 -10l3 -9l3 -9l3 -11l4 -11q4 -14 4 -25q0 -24 -8 -45l-7 -21q-4 -13 -8 -21l-3 -10
l-3 -11q-3 -14 -6 -20q-4 -8 -13 -21l-6 -10l-6 -11l-4 -8l-3 -8q-4 -10 -8 -16q-5 -6 -11 -17l-4 -9l-6 -10q-4 -7 -12 -15l-13 -15q-6 -6 -12 -20l-5 -10l-6 -10q-25 -39 -59 -79l-15 -18l-14 -19q-17 -24 -29 -36l-7 -7l-7 -7l-5 -8l-4 -8q-5 -7 -16 -16l-9 -7l-8 -7
l-8 -8l-7 -9q-9 -11 -16 -16l-14 -13l-15 -14q-10 -11 -31 -26l-17 -12l-17 -13q-15 -12 -39 -23l-21 -8l-22 -7q-11 -4 -23 -4q-33 0 -53 26zM64 -78l6 3l2 2h1l14 10q7 6 12 11t15 12l7 5l8 6q4 3 11 11l6 6l5 5l12 11l11 11l12 11l13 12q4 3 9 12l4 6l5 5l6 5l6 5
q6 5 10 11q7 12 24 29l14 13l12 14q4 4 6 9q4 6 4 8q0 1 -1 2h-3q-4 0 -15 -6l-8 -6l-8 -5l-34 -19q-19 -11 -32 -21q-23 -16 -60 -49q-7 -6 -18 -18l-9 -11l-9 -10q-32 -36 -42 -56q-11 -20 -11 -35q0 -3 4 -3q3 0 11 4z" />
    <glyph glyph-name="K" unicode="K" horiz-adv-x="513" 
d="M48 -42q-7 3 -11 6q-19 15 -26 36q-3 10 -3 18q0 10 5 17l5 8q3 4 4 7l4 11l3 10q15 37 40 78l3 5l3 8q4 9 7 12l3 4l4 2l6 6l5 8l4 8q6 12 10 16l5 7l5 6q5 7 8 17q3 9 16 29l5 9l6 10l4 2l4 3q4 4 4 6v6q-1 4 1 5q2 2 5 2h5q3 2 7 8l3 6l2 4q5 7 8 17q7 21 21 37
q0 1 4 5l4 3l5 4q11 11 11 14q0 1 -3 4q-3 2 -3 3q0 2 2 4l3 4l4 7l3 8q4 7 10 14l11 11q13 13 16 18l1 4l2 4l4 8t4 5l5 4l5 4q3 2 4 5l1 3l1 3l1 5q1 2 4 5l6 5q8 8 9 13q3 13 14 27l8 10l8 10l4 6l5 6q6 8 11 11q2 1 7 2h7q11 0 25 -9q12 -7 19 -17q4 -6 6 -10
q2 -7 0 -12l-3 -5l-3 -4l-5 -7l-4 -8l-9 -13q-6 -7 -9 -13l-8 -15l-9 -16l-19 -28l-20 -29q-21 -29 -36 -51l-19 -29l-2 -3l-2 -5q-4 -6 -4 -9q0 -4 5 -4q4 0 11 6l7 5l5 4l14 12q9 7 15 10q12 7 29 20l13 11l14 10l30 19q18 11 29 19l12 11l12 10l13 8l13 9l12 10l12 11
q10 7 27 16q11 6 28 20l12 11q8 6 14 9l14 9l14 8l13 10l13 9l9 7l11 6q13 8 22 8q8 0 14 -8l5 -7l5 -7q5 -8 5 -14q0 -7 -10 -18q-8 -9 -22 -20l-12 -10l-11 -10l-12 -11l-12 -12q-4 -4 -12 -7l-7 -3l-7 -4l-11 -8l-11 -9q-6 -4 -12 -11l-6 -7l-5 -6q-10 -9 -23 -16
q-7 -3 -16 -9l-15 -12l-13 -8l-12 -9l-7 -5l-6 -5q-7 -6 -13 -9q-12 -5 -27 -16l-13 -11l-13 -9q-4 -3 -10 -10l-4 -6l-5 -5l-13 -9l-12 -8l-7 -4l-6 -5q-8 -6 -13 -9l-6 -2l-6 -3q-2 -1 -5 -5l-6 -6q-4 -4 -11 -8l-6 -2l-5 -4q-9 -8 -9 -16q0 -6 4 -15l4 -6l4 -7
q4 -7 6 -13q3 -7 8 -15l9 -14l4 -7l4 -7q5 -9 10 -13q12 -11 23 -27l8 -11l7 -10q4 -5 13 -11l7 -5l6 -5q5 -5 12 -9t13 -4q4 0 9 1l7 4q10 5 17 5q13 0 13 -15q0 -10 -8 -18l-11 -11l-11 -11q-13 -12 -24 -20q-21 -14 -42 -14q-10 0 -20 4q-31 10 -51 33l-10 10q-5 6 -9 11
l-2 5l-2 6q-2 6 -5 9l-5 4l-5 5l-3 6q-1 3 -3 5l-5 4l-5 3l-7 7l-7 8q-8 11 -8 12t2 2q1 1 1 3q0 5 -3 11q-3 7 -5 7q-1 0 -2 -3l-2 -4q-1 -7 -4 -7q-2 0 -3 10v16q0 6 -4 12q-3 5 -5 12q-1 4 -1 8v6q-1 7 -4 14q-6 10 -11 10t-8 -8l-4 -8l-3 -4l-3 -4l-6 -10l-7 -10
q-15 -25 -39 -73l-21 -43q-13 -24 -24 -41q-4 -7 -11 -24l-6 -13q-3 -7 -5 -10q-8 -18 -23 -18q-7 0 -15 4z" />
    <glyph glyph-name="L" unicode="L" horiz-adv-x="407" 
d="M79 -36q-11 8 -19 21l-4 5l-5 6q-6 7 -9 11l-3 8l-3 8q-4 8 -4 15q0 6 3 17l3 9l2 10q5 18 16 37l20 35q12 21 19 36q15 30 39 68l9 16l9 16l6 9l7 9q9 11 13 18l10 18l11 18q12 21 24 35q9 11 22 32l10 17l11 16l11 16l11 16q13 20 23 31l12 14q7 9 12 15l11 17l12 16
q12 15 26 28l6 6l5 5q7 5 14 5q16 0 31 -20l4 -6l4 -5q4 -6 4 -12q0 -3 -2 -7q-1 -3 -4 -6l-6 -5q-4 -5 -11 -16l-23 -37l-4 -8l-4 -8q-5 -9 -9 -15q-12 -13 -24 -30q-10 -14 -22 -34l-21 -34l-11 -17l-11 -16l-9 -13l-5 -8q-2 -5 -5 -7l-6 -6l-6 -7q-4 -5 -9 -15l-10 -18
l-9 -18l-10 -17l-11 -17q-12 -21 -17 -36q-4 -9 -10 -20l-11 -18l-5 -10l-5 -10q-6 -13 -10 -19q-11 -16 -17 -35l-1 -3v-3l1 -1l1 -1q4 0 7 -2q3 -3 5 -3q4 0 10 2l4 1l6 1l5 1l5 1q4 0 6 -3l1 -2l2 -2q1 -1 4 -1h13q2 0 5 1l4 2l8 3q4 1 6 3l1 2l1 2q2 3 3 4h11l9 1l6 1
l6 1l4 -1h3q4 0 4 3q0 1 -2 1h-4q-3 0 -3 2q0 4 14 4h15q6 -1 18 1l10 2l9 1q28 0 47 -30q7 -10 11 -26l2 -9l1 -10q0 -8 -4 -13q-3 -4 -12 -4q-5 0 -10 2q-5 1 -11 1q-3 0 -9 -1l-11 -2q-14 -3 -20 -3l-5 1h-6l-12 -1l-12 -2q-5 -1 -14 -4l-7 -2l-7 -1l-18 -2l-17 -3
l-14 -4l-14 -4l-16 -4l-15 -3l-8 -2l-8 -1l-7 -2l-8 -1h-8q-5 0 -13 -3l-6 -2l-7 -1q-13 0 -25 9z" />
    <glyph glyph-name="M" unicode="M" horiz-adv-x="637" 
d="M513 -44l-11 9l-11 10q-14 12 -21 20q-8 11 -8 29l2 15l2 15q2 13 8 30l9 29q6 17 13 27l3 4l4 2q4 3 6 8q2 3 1 8v4l1 4q0 2 3 6l4 6q1 1 2 5l2 7q2 9 4 9t3 -1l1 -2h1q3 0 7 9l3 7q1 4 1 5l4 7l3 8q5 10 10 14l4 3l4 2q5 5 8 9l3 7l3 7l4 6l4 6l2 7l3 7q3 7 8 13l5 6
l7 6q8 8 8 10q0 1 -1 1l-4 -1h-3q-2 0 -2 2q0 3 3 8l2 3l2 3l11 21l13 20l2 5l1 4l3 3l2 3l4 7l3 6q3 4 5 7q1 2 3 5l4 4q0 2 4 4l2 2l2 2q4 5 6 12q3 7 3 10q0 2 -2 2q-3 0 -9 -4q-5 -4 -10 -9l-9 -12l-11 -13q-14 -18 -21 -25q-5 -5 -12 -15l-6 -8l-5 -7l-6 -8
q-3 -5 -6 -7l-4 -1l-4 -2l-4 -4l-3 -4l-15 -15l-16 -15q-3 -4 -6 -9l-6 -9q-2 -4 -6 -8l-8 -8q-5 -6 -12 -16l-5 -8l-6 -9l-7 -9l-8 -8q-10 -11 -15 -18l-10 -16q-7 -10 -12 -16l-7 -9l-8 -8q-8 -11 -12 -19q-10 -20 -22 -35l-7 -8l-5 -9q-7 -10 -13 -15q-7 -6 -12 -16
l-4 -8l-5 -8l-7 -8l-6 -8l-6 -7q-3 -5 -7 -7q-2 -2 -5 -2l-7 1l-7 2h-4l-4 -1q-4 0 -7 2t-4 7l-1 4l-2 4l-3 3l-3 3q-2 4 -3 8q-2 6 -4 9q-3 4 -3 7v6q1 4 3 6q4 4 1 17q-3 5 -2 10l1 4l2 4l2 8l1 8l4 12l4 12l10 24l8 24q5 14 14 35l7 17l7 18q24 66 47 110q3 6 11 19l6 10
l5 10l6 13l7 14q8 17 14 27q1 1 2 6t1 7v3h-2q-2 0 -7 -4l-3 -4l-1 -1l-1 -1q-6 -6 -17 -21l-9 -11q-5 -6 -8 -10l-27 -31q-17 -18 -27 -37q-2 -4 -7 -10l-9 -9l-13 -17l-6 -10l-6 -10q-7 -13 -12 -20l-2 -3l-2 -4q-2 -4 -4 -6l-6 -5l-6 -5q-2 -2 -8 -5l-4 -3l-4 -2
q-2 -3 -5 -8l-2 -4l-3 -4q-4 -6 -10 -9l-4 -2l-3 -3q-4 -3 -2 -6q3 -4 -2 -7l-4 -2q-2 -1 -3 -2v-4l-1 -4l-3 -5l-4 -4q-38 -46 -59 -73l-13 -19l-14 -19l-6 -9l-6 -8q-8 -11 -11 -19t-11 -17l-6 -8l-5 -8l-14 -18l-13 -18q-11 -17 -21 -17q-6 0 -11 5l-7 6q-4 4 -6 5l-4 1
q-3 0 -3 1q-2 1 -3 4l-1 5l-2 3l-2 3q-2 4 -2 6q0 3 3 6l2 3l1 3l3 10l2 10q1 4 4 8l3 2l2 4q2 1 3 4q2 3 2 5q0 1 -1 3t-1 4q0 1 2 3q3 2 3 3l-1 5l-2 6q0 7 8 12q2 2 6 7l3 3l3 3q4 4 5 7q3 9 7 12l4 2l2 2l6 3q4 4 9 11l8 11l12 19l11 18q4 6 12 15l7 8l6 8l9 12
q6 7 11 11q5 5 12 16l6 8l6 8q36 36 57 65l8 11l8 10l5 6l5 5l5 9l4 9q3 4 8 9l9 7l16 16l15 17l14 14q9 8 14 14l11 12q7 7 11 13l5 6l6 5l2 3l2 3l5 4l4 4q22 23 67 65l17 16l17 16q20 18 37 30q10 7 21 7q7 0 16 -3q8 -3 15 -8q3 -3 7 -6l2 -3l4 -3q13 -9 13 -24
q0 -9 -5 -22l-6 -11l-5 -10q-7 -16 -20 -40l-10 -19l-10 -19l-11 -20l-11 -18q-15 -25 -22 -39l-9 -20l-10 -20q-5 -8 -10 -21l-9 -21l-6 -12l-6 -11l-6 -11q-17 -31 -17 -36q0 -2 1 -2q5 0 13 10l6 7q3 5 4 6l5 5l6 6l10 11l6 7l6 7l4 3l5 4q5 5 5 9l-1 3v4q0 3 3 4l4 1
l4 1q2 1 5 5q3 3 4 6l1 4v5q0 1 1 2l2 1h3q4 0 6 5l2 5l1 4q2 6 8 11l6 4l5 5q7 6 14 15l12 16q2 2 4 5l2 4l3 6l2 1l2 1q3 1 4 3l1 2l1 3q1 3 2 4l5 3l6 3q4 4 10 11l9 12l15 15l15 15l14 14l14 15l5 5l5 4q6 5 10 10l5 7l6 7l6 7l6 7l14 12l14 11q5 4 16 6q3 0 7 3l7 4
q9 6 19 6q6 0 15 -3q4 -1 7 -4l2 -3l4 -3l4 -1l3 -1q5 -1 7 -3q3 -3 7 -8q5 -6 6 -9q4 -8 4 -20q0 -10 -21 -55q-5 -9 -16 -27l-8 -14l-7 -13l-8 -15l-9 -14q-11 -18 -16 -29q-6 -13 -16 -30l-18 -29l-8 -14l-9 -15q-12 -18 -17 -29q-7 -12 -17 -30l-9 -14l-9 -15l-17 -30
l-6 -12l-6 -13l-8 -13l-7 -14q-9 -15 -13 -28q-4 -10 -13 -26l-8 -13l-6 -14q-12 -30 -23 -59q-2 -5 -3 -14l-1 -14l-1 -5q0 -4 3 -8l2 -3l2 -2q3 -4 3 -7q0 -6 -5 -11q-4 -4 -10 -7q-6 -2 -11 -2q-7 0 -14 7z" />
    <glyph glyph-name="N" unicode="N" horiz-adv-x="486" 
d="M29 -44l-8 9l-4 5l-2 3q-16 19 -16 31q0 15 8 35l8 18l9 18q4 7 11 14l7 7l6 6q1 2 4 6l6 10q8 13 8 17v1q-1 0 -2 -1l-3 -4q-3 -4 -4 -4h-2v1q0 3 4 10l4 5q1 3 2 3l13 24l13 24l9 17l10 17l5 7q3 4 4 8l5 10l5 10q3 7 9 16l12 15l8 12l7 11l6 10q3 5 6 9l7 6q4 3 7 6
l7 11l8 11q5 8 12 23l6 12l7 12l6 8l6 8q6 9 9 16q3 11 12 22l8 10l8 10l7 9q4 5 5 10q3 12 5 15l9 9l8 10l3 5l3 5q3 6 6 9l4 4q2 2 4 2h2l3 -1q5 0 9 5l3 4l4 5l7 10l7 12q9 14 15 21q10 11 24 11t31 -11q17 -10 25 -22t8 -30q0 -12 -6 -35l-5 -18q-3 -8 -6 -17
q-22 -62 -26 -99q-2 -10 -5 -26l-6 -26l-5 -26l-6 -26l-14 -58l-9 -43v-2l-1 -3q-1 -4 -1 -6l1 -3h1q2 0 6 6l3 5l1 2v1l6 12l6 12q7 15 14 22l5 6l6 5q8 6 11 11q8 13 13 19q4 5 5 7q1 3 1 5q0 4 10 15q3 2 4 7l1 5l1 3q1 2 3 3l3 2l2 5l1 5q3 14 9 23q2 3 7 7l6 7
q2 3 5 10l6 10l5 7l5 7q3 4 5 13l2 6l3 6q13 21 31 45l16 21l17 21l8 10l9 9q2 3 3 8v3l1 4q1 4 5 9l4 5l3 4l2 2l2 2q2 3 4 3l4 2l5 2l4 3l3 3q3 3 7 3q3 0 4 -2l3 -4q3 -6 6 -6q2 0 3 3l1 3v2q4 12 8 12q3 0 7 -3l8 -6l8 -6q9 -9 9 -17q0 -11 -9 -23l-8 -10q-4 -6 -6 -10
q-7 -15 -28 -41q-6 -7 -13 -21l-6 -11l-7 -11l-13 -20l-14 -19q-11 -14 -23 -41q-2 -4 -6 -9l-7 -9l-5 -10l-5 -9l-8 -10l-8 -11q-9 -12 -13 -21q-3 -8 -12 -20l-7 -9l-6 -10l-14 -24l-14 -23q-13 -22 -23 -43q-3 -9 -10 -20l-6 -10l-6 -9q-12 -23 -23 -46l-5 -12l-6 -11
q-6 -14 -13 -22q-5 -6 -11 -18l-5 -10l-4 -9q-12 -22 -30 -22q-6 0 -12 1q-13 4 -35 23l-7 6l-6 6q-3 5 -5 11q-4 7 -4 12q0 4 1 9l1 4l1 4l-1 6l-1 6q-1 10 -1 17q0 6 2 18l1 10l1 12q2 17 5 25l2 7l3 5q2 7 2 13q1 9 4 17v3l1 3q2 3 2 5l-1 7q-2 5 -2 7q0 8 7 26l4 14
q2 7 2 11q0 5 -3 5q-8 0 -8 -14v-13q0 -4 -3 -4q-2 0 -3 1v4q0 13 2 25q2 14 6 24l3 4l1 4q2 7 3 9l3 3l2 2l2 3q3 4 3 6q0 1 -4 7q-3 4 -3 9q0 4 2 11t8 23l5 11l4 12q2 5 3 18q2 12 2 17l-1 3q0 1 -1 1q-3 0 -9 -9l-4 -8l-3 -6l-6 -8l-6 -8l-12 -23l-13 -22l-14 -23
l-14 -23l-7 -13l-6 -13q-6 -10 -12 -16q-17 -14 -26 -34l-5 -10l-4 -10l-2 -6l-2 -6q-2 -6 -6 -10l-3 -5l-4 -3q-4 -5 -5 -10q-3 -7 -8 -15q-5 -7 -12 -20l-6 -11l-5 -11l-12 -21l-12 -21l-6 -11l-7 -10q-7 -12 -10 -22q-3 -9 -9 -21l-11 -20l-2 -5l-3 -5q-3 -8 -5 -12
q-8 -14 -18 -14q-8 0 -19 12z" />
    <glyph glyph-name="O" unicode="O" horiz-adv-x="522" 
d="M179 -38q-34 12 -46 29l-8 10l-7 10q-8 11 -13 21l-6 10l-6 9q-7 12 -8 23q-6 42 -6 63q0 12 3 21q4 10 4 26v6l-1 5q0 6 1 11l6 21l6 22l4 12l4 12q3 10 10 17q5 5 10 13l7 15l1 6l2 6q2 8 4 11l2 3l3 4q4 4 5 7q5 11 14 19q8 8 12 18l5 10l4 9q5 10 12 18l9 7l8 8l2 5
l2 4q3 6 6 10q4 6 14 13q9 6 17 16l14 17q17 22 32 30q10 5 21 15l9 9l9 9q7 8 23 17l12 7l13 6q60 36 102 43q8 1 16 1q17 0 40 -6l12 -3l11 -2q7 -1 9 -3q2 -1 7 -10q4 -6 14 -12l8 -4q5 -3 7 -7q8 -9 13 -24l3 -13l3 -14q2 -6 2 -15v-26q1 -5 0 -8l-2 -8l-2 -6
q-2 -8 -2 -13v-8l1 -5q1 -6 1 -11q0 -15 -4 -35l-3 -11l-4 -10q-4 -13 -6 -23q-1 -9 -9 -25l-6 -13l-4 -12q-3 -13 -11 -29l-8 -14l-8 -13l-10 -19l-10 -19q-11 -22 -22 -35l-12 -17q-7 -11 -12 -17q-6 -6 -13 -17l-6 -9l-7 -9q-33 -44 -72 -82q-21 -21 -52 -39l-12 -7
l-12 -9q-14 -10 -24 -14q-12 -6 -29 -9l-15 -3l-15 -3q-11 -1 -21 -1q-22 0 -45 8zM266 42q18 9 29 19q2 2 5 4q4 2 9 4q4 1 5 4v4l-1 3q0 3 8 7q10 4 13 8l2 2l1 2l1 3q2 1 6 2q15 6 24 17l5 7l5 8q7 10 12 15q11 9 25 27l11 15l12 14q34 41 44 74q4 13 16 32l10 15l9 15
q3 6 6 14l4 15q6 18 13 27q4 5 10 24l3 11l3 10q3 10 3 18v14q-1 10 -1 16q0 8 1 23v11l1 12q0 39 -31 39q-10 0 -23 -3q-22 -7 -56 -30l-8 -5l-8 -4q-10 -5 -15 -11l-7 -8l-6 -8q-8 -10 -13 -15q-19 -18 -44 -44q-5 -6 -13 -16q-6 -8 -12 -17l-4 -9l-4 -9q-1 -4 -4 -5
l-3 -2l-2 -2l-2 -3l-1 -4q-1 -1 -4 -2l-2 -1l-2 -2q-2 -3 -3 -9v-4l-1 -5l-5 -10l-4 -10l-3 -9l-3 -8q-3 -8 -10 -8q-6 0 -14 4t-13 4q-7 0 -12 -9q-28 -45 -42 -87q-12 -32 -15 -50l-2 -14l-1 -13l-3 -15q-2 -9 -2 -15q0 -61 25 -79q12 -9 31 -9q23 0 47 11z" />
    <glyph glyph-name="P" unicode="P" horiz-adv-x="478" 
d="M67 -32l-10 9q-3 4 -7 9q-12 15 -12 25t7 28q5 14 14 30l12 24l12 24l11 22q7 12 14 20l5 5l5 4q3 4 5 9l1 5l1 5q1 3 4 7l5 6q6 8 10 16l5 12l6 12l4 6l2 3l3 4l2 3l1 3q1 5 2 6q2 1 5 2h2l3 1q1 1 5 7l3 5q1 2 2 3l5 9l5 10q4 7 12 18l7 8l6 9q4 6 10 18l5 9l5 8l6 9
l7 8q9 10 11 14l2 6q0 3 1 4l2 2l2 2q1 1 1 4l1 3q2 3 7 7l3 4l4 4l1 4q0 2 1 4l3 2l3 1q4 2 6 4l6 8l5 8q7 9 14 15l6 4q5 2 9 2q3 0 26 -23q4 -4 8 -11q4 -8 4 -13q0 -10 -9 -23q-6 -8 -16 -25l-8 -12l-7 -12q-33 -51 -51 -84q-6 -11 -17 -28l-4 -5l-4 -6q-5 -7 -5 -11
q0 -5 9 -7l11 -1q20 0 44 10q19 8 38 21q12 8 21 11q11 4 17 9l19 13l19 14q38 27 68 69q4 5 9 14l7 15l8 13q5 7 7 13q7 19 7 37q0 25 -9 40q-5 9 -16 18q-9 9 -19 15q-7 4 -19 6l-10 1l-11 1l-9 2l-11 1q-12 2 -21 2q-15 0 -27 -3l-10 -4l-10 -2l-13 -2l-12 -2
q-14 -2 -24 -5q-49 -15 -107 -41q-6 -3 -13 -8l-6 -5l-7 -4l-12 -7l-12 -7q-13 -8 -21 -16l-6 -7l-7 -7q-6 -9 -6 -17q0 -4 2 -7l6 -7q7 -8 7 -13q0 -4 -2 -8q-3 -5 -8 -5q-4 0 -11 5l-6 5l-4 3l-10 8l-10 8q-10 9 -15 20q-4 10 -4 20q0 15 9 32l8 15l9 15q5 8 14 12
q3 2 6 5l5 6l7 4q4 3 6 5l1 3l2 3q2 5 4 6q3 2 8 3h4l4 1l8 4l9 4l7 4l6 5l10 5q5 3 9 6l4 6l1 3l1 3q3 4 9 5h4l5 1q7 0 21 5l10 3l10 3l23 5l22 7q25 7 40 9l7 1l6 1q8 2 12 2h5l3 -1q5 -2 10 -2q4 0 9 2q6 2 10 2q2 0 5 -2l2 -1l3 -1h6l3 1q5 2 7 2l6 -3l3 -2l2 -2
q9 -3 15 -3q9 0 20 -8l10 -6l10 -5q13 -6 20 -10q15 -11 34 -31q33 -35 40 -84q3 -15 3 -30q0 -42 -15 -80q-18 -47 -43 -76q-39 -47 -65 -65q-48 -34 -83 -53q-19 -10 -45 -18q-38 -11 -65 -11q-20 0 -36 6q-2 1 -7 3l-9 5q-12 6 -17 6t-18 -19l-13 -21q-6 -9 -11 -20
l-4 -10l-5 -10q-3 -7 -9 -13l-4 -5q-3 -3 -5 -7q-6 -10 -14 -29l-12 -30q-2 -5 -9 -13l-5 -7l-4 -7l-5 -8l-4 -8q-6 -8 -15 -8t-21 11z" />
    <glyph glyph-name="Q" unicode="Q" horiz-adv-x="526" 
d="M411 -52q-6 0 -11 2l-11 7l-5 3l-6 3q-13 6 -20 13q-14 13 -15 13q-4 0 -11 -6l-6 -5q-4 -3 -5 -4q-7 -4 -16 -7l-17 -4l-31 -7q-17 -4 -31 -4q-27 0 -69 21q-11 4 -21 20q-4 5 -11 12l-10 13l-4 6l-4 7q-5 9 -8 13q-12 12 -14 26q0 3 -1 11q-1 10 -1 20q-3 27 -3 36
q0 11 4 24l1 3v4q1 3 2 3h2l1 -1q2 0 3 6l1 5v5q0 2 -2 7l-1 3l-1 2q0 3 2 6l2 3l1 3q3 8 6 24l3 13l3 12l1 6l2 6q1 8 3 11l4 5l4 3q6 5 8 9l7 17l7 17q2 3 6 8l3 3l2 4l1 3l1 3q2 5 3 7q2 4 9 10l5 5l5 6q3 4 6 12l3 7l4 7q2 6 7 11l9 10q12 12 15 17l2 5q1 4 2 5l1 1l2 1
q2 1 3 1v4l1 3v2q1 1 5 3l4 3q8 6 21 22l10 13q5 7 10 10l22 17q4 3 10 6l10 6q10 6 24 20l11 10l12 10q9 7 22 15l13 7l12 7q21 12 61 22q22 6 38 6q11 0 21 -2l14 -4l14 -3l6 -1l6 -1q7 -1 11 -5q2 -2 3 -5l2 -5q2 -5 8 -8l5 -2l5 -2q4 -3 8 -7q7 -7 13 -24q7 -17 9 -33
l1 -6l2 -7q1 -8 1 -13q0 -15 -4 -33q-2 -13 -3 -24q-1 -7 -1 -18q0 -23 -11 -47q-9 -21 -18 -52l-2 -8l-2 -8q-3 -10 -4 -15q-3 -6 -7 -13l-9 -12q-23 -34 -30 -57q-6 -20 -28 -48q-17 -21 -29 -38l-7 -11l-7 -11q-8 -13 -14 -21q-9 -11 -22 -24l-22 -24l-3 -3l-3 -3
q-4 -4 -4 -7t3 -7q1 -3 7 -6l4 -3l4 -4q7 -9 17 -15q6 -4 15 -8l7 -2l8 -3q8 -3 8 -9q0 -3 -6 -11t-9 -10t-10 -4l-6 -1l-6 -2q-5 -2 -13 -3l-14 -2l-7 -2h-8zM245 32q8 2 15 5l4 2l5 3l9 3l7 2q8 4 8 7t-5 9l-3 4l-2 3q-4 5 -7 11l-11 18l-9 19q-4 8 -7 21q-3 12 -3 18
q0 11 3 15q2 2 6 4l3 2l3 1q22 15 31 17q4 1 11 2q9 1 16 1q12 0 15 -4q2 -3 2 -7v-8q0 -5 2 -9l3 -4l2 -5q1 -3 1 -9l1 -4v-5l6 -9l4 -5l2 -5q6 -12 10 -12t12 11l6 9l6 10l8 7l8 7l14 19l15 19l7 9l7 7q9 10 13 17q5 8 11 19l10 20q12 27 20 40q19 28 34 71q1 5 7 12l4 6
l3 6l3 8l2 9q3 11 6 17q2 5 4 14q3 8 3 13q2 7 2 16l1 14l1 10l1 9q1 11 1 19q0 46 -34 46q-12 0 -23 -4l-11 -4l-9 -3q-12 -4 -19 -9q-7 -4 -20 -14l-10 -8l-10 -7l-11 -5l-10 -6q-12 -6 -17 -13q-6 -7 -16 -15l-8 -6l-8 -7q-11 -10 -25 -24l-12 -12l-12 -12q-9 -9 -20 -25
l-10 -14l-11 -15l-9 -11l-10 -12q-12 -14 -17 -22q-5 -7 -13 -24l-6 -12q-4 -7 -6 -10q-6 -11 -11 -28l-5 -14l-5 -14l-5 -13l-5 -12q-6 -14 -9 -25l-2 -15l-1 -15l-3 -14q-1 -9 -1 -14q0 -26 7 -50q9 -27 24 -34q9 -5 22 -5q12 0 20 2z" />
    <glyph glyph-name="R" unicode="R" horiz-adv-x="480" 
d="M72 -36l-7 6l-8 7l-4 3l-3 3q-4 3 -7 8q-5 7 -5 18q0 17 12 42l5 11l5 9q5 12 7 19q4 11 12 25l7 12l7 12q2 3 6 8l7 8q3 3 5 9l1 5l2 7q1 3 5 7l5 6l15 21l6 12l4 6l3 6q1 3 4 7l3 4l2 3l2 3l2 4q2 6 3 7q2 3 5 4l3 1l3 2q2 2 6 9l3 6q2 3 3 4q10 14 14 23l5 7l6 8l7 11
l8 11q5 10 9 17l3 6q2 5 5 9l4 6l5 5l1 3l1 3l3 6l3 4l3 3q1 1 2 4l1 3l1 3q2 3 6 7l4 3l3 4l9 10l9 10q21 27 32 33q6 3 10 3q11 0 25 -20q11 -17 11 -26q0 -6 -13 -29l-5 -10l-5 -10q-7 -12 -11 -18q-7 -9 -15 -22l-7 -11l-7 -12l-16 -26l-5 -7l-4 -7q-5 -9 -5 -12
q0 -6 7 -6q5 0 13 3l5 3l5 2q32 9 57 20l11 5l11 6q15 8 23 11q16 7 45 27q39 26 77 81q17 24 17 55q0 28 -17 43q-20 15 -52 19l-26 4q-14 2 -24 2q-14 0 -56 -9l-28 -5q-18 -2 -27 -5q-14 -3 -29 -8l-13 -4l-13 -5q-21 -7 -60 -26q-5 -3 -17 -11l-9 -6l-10 -6l-6 -4l-7 -3
q-7 -4 -12 -8q-18 -15 -25 -30q-3 -6 -3 -11q0 -4 2 -7l3 -4l4 -4q5 -5 5 -11q0 -5 -2 -9q-3 -4 -8 -4t-12 5l-5 4l-4 4l-10 7l-9 8q-9 9 -14 18q-5 12 -5 22q0 13 8 32q4 8 12 20l4 5l3 5q4 7 8 10l7 4l7 5l8 7l8 6l2 3l2 4q3 5 5 6q2 2 9 3h5l5 2l17 9l17 10q11 6 16 14
q7 9 15 11l5 1l4 1q5 1 10 3l13 4l14 2l14 3l14 3l10 4l10 4q9 3 24 5l24 5q9 2 14 2l5 -1l5 -1q6 -1 9 -1l7 1l7 1l9 2h10q5 0 10 -2l4 -1l4 -1h7l3 1h3q3 0 7 -2l8 -4q4 -2 7 -2l6 -1h5q5 0 10 -4q12 -8 24 -13q53 -25 74 -75q14 -34 14 -66q0 -72 -54 -135
q-16 -19 -43 -39l-24 -17l-24 -17q-23 -16 -49 -24q-9 -3 -22 -10l-11 -5l-11 -5q-10 -4 -24 -8l-7 -2l-10 -2q-11 -2 -16 -4q-4 -2 -4 -4q0 -1 2 -7l7 -16l8 -16q5 -13 16 -29l10 -13l10 -13l6 -9l5 -8q7 -10 14 -16q14 -12 31 -12q7 0 16 2l5 2l5 1q5 0 7 -4q3 -4 3 -8
q0 -10 -8 -18l-8 -10l-7 -9q-9 -11 -16 -17q-21 -18 -43 -18q-9 0 -26 6q-20 8 -28 16l-6 9l-7 8l-4 4l-4 4q-6 4 -8 8t-4 10l-1 4l-1 5q-1 3 -5 8l-6 8q-3 4 -7 7l-5 3l-4 4q-3 3 -5 11l-2 6l-1 6l-3 4q-1 2 -1 3l1 5l1 4q0 4 -2 8q-2 5 -5 5q-1 0 -2 -2v-5q0 -7 -2 -7
q-4 0 -4 10q0 7 1 13v4l1 6q0 4 -2 5l-2 1l-2 2q-4 5 -4 14l1 6v7l-1 2q-1 2 -4 2q-4 0 -10 -8l-4 -7l-2 -3l-1 -2l-15 -23q-8 -13 -13 -23q-4 -10 -15 -25l-8 -11l-8 -13l-5 -12l-6 -12l-5 -10l-5 -10q-3 -4 -6 -12l-4 -13q-2 -4 -7 -10l-3 -5l-3 -5l-5 -10l-4 -9
q-5 -10 -16 -11q-7 0 -16 7z" />
    <glyph glyph-name="S" unicode="S" horiz-adv-x="484" 
d="M178 -41l-18 1q-42 1 -74 39q-6 7 -13 20l-5 11l-5 11l-2 4l-3 4l-5 10q-1 6 -1 16v17q0 16 6 28q10 20 34 34l3 2l5 2q5 3 10 5q15 6 23 6q6 0 8 -3l2 -4v-3q0 -6 -9 -18l-6 -8q-4 -5 -5 -7q-1 -1 -4 -6l-4 -5l-3 -5q-9 -14 -9 -20q0 -5 3 -5q2 0 5 2t4 2q3 0 3 -3
q0 -2 -3 -6t-3 -7t4 -7l4 -3l4 -3q5 -7 16 -9q7 -1 10 -1t6 1q3 2 4 2l3 -1l2 -1q3 -1 6 -1q6 0 14 1q7 1 9 1q9 4 20 4l3 -1l4 -1q5 -2 12 -2l9 1l8 1q7 1 15 4l14 5q9 3 10 4q9 6 12 6q16 2 24 11l1 2l2 2q1 3 3 3q1 0 2 -1q2 -1 4 -1t4 2q2 1 2 2q0 2 -2 2h-3q-3 0 -3 1
q0 2 3 4q4 4 14 8l8 3l6 3q9 5 12 11l3 7l1 7q2 7 6 7q1 0 4 -2q2 -2 4 -2q3 0 7 5t4 9q0 7 -10 14l-9 5q-3 2 -7 3q-18 7 -43 14l-21 5l-22 5l-19 7l-18 6l-13 4l-12 4q-13 5 -22 11q-16 10 -33 29q-6 7 -10 19l-2 10l-4 10l-3 7l-2 7l-3 5l-2 4q-2 6 -2 10t1 9l3 8l3 8
l3 9q3 10 3 16q0 10 2 18q3 8 10 17l3 3l3 4q4 4 5 7l2 4l1 4l4 7q2 4 7 6l4 2l4 3q2 2 3 5l1 3l2 2q1 2 6 5l3 1l3 2q2 2 5 7l5 7l6 7l6 6l4 3l5 1q6 3 9 5l4 6l3 4q4 5 8 9q3 1 9 5l5 2l6 4q4 4 10 8q6 5 8 7l6 5q4 3 8 4l8 3l9 1q4 0 7 -1h5q4 0 4 3v4l-1 4q0 4 4 6l4 1
l4 2q11 9 31 15q32 9 50 17q3 1 8 4l9 5q12 7 17 7l8 -1l9 -1h6q4 0 6 -1l3 -3l3 -3h13l8 1h12l4 1q5 1 8 0l3 -1l2 -2l1 -1l4 2l4 1q3 0 6 -4l2 -3l3 -3q3 -3 8 -5l8 -5q6 -3 13 -11l6 -7q3 -3 7 -5q4 -3 5 -10q0 -4 3 -12t5 -22q2 -13 2 -21t-4 -18l-4 -9l-3 -9
q-4 -16 -15 -37q-4 -7 -11 -15l-13 -15q-5 -7 -17 -16l-9 -8l-8 -8q-40 -36 -81 -36q-9 0 -21 3l-9 2l-7 2q-21 4 -21 11q0 5 5 8l5 2l5 2q7 4 18 12q9 7 19 16l18 17q14 14 30 37l13 20l13 20l2 3l2 3l5 8q6 11 6 18q0 14 -16 14q-4 0 -9 -1l-5 -1h-4l-11 -2l-11 -1
q-14 -1 -22 -5q-27 -11 -44 -16l-10 -3q-5 -2 -9 -4l-7 -5q-5 -3 -9 -5l-4 -1l-5 -1q-5 -1 -7 -3q-6 -7 -17 -14l-19 -11l-19 -12q-20 -14 -35 -27q-7 -6 -17 -16l-17 -17l-18 -18q-9 -9 -15 -17q-5 -8 -9 -18q-5 -10 -5 -18t6 -17q7 -8 12 -8l4 1h4q3 0 7 -2l3 -3l4 -2
q3 -2 9 -2l9 -1q2 0 5 -2l4 -3q4 -1 9 -3l10 -2l3 -1l4 -1q0 -1 3 0h6q5 0 18 -6l12 -5l10 -3l10 -2l10 -2q12 -2 19 -5q8 -2 19 -7l9 -5l8 -5q10 -5 20 -22l2 -3l3 -3q4 -4 5 -6q3 -5 5 -13l1 -7l1 -7q4 -17 4 -32q0 -27 -13 -56q-12 -25 -56 -62q-25 -20 -53 -34l-13 -7
l-12 -6q-14 -7 -27 -11l-15 -5l-15 -5q-17 -5 -30 -7q-7 -1 -20 -1h-10l-9 -1h-5l-5 -1q-5 -1 -8 -1z" />
    <glyph glyph-name="T" unicode="T" horiz-adv-x="352" 
d="M156 -44l-3 1l-3 1l-7 4l-8 3l-6 1q-4 1 -6 2q-3 2 -4 5l-1 2l-2 3l-3 6l-3 4q-3 6 -3 12q0 16 19 61q9 24 29 60l7 14l7 15q9 19 16 29l8 12l10 12q11 15 15 25q6 13 17 30l10 15l9 14l19 30q12 18 21 30l9 12q5 6 8 12l8 15l8 14l40 56q7 10 20 32l11 17q5 9 9 14t4 8
t-5 3q-8 0 -19 -2l-8 -1l-10 -2l-14 -3l-14 -4l-17 -1l-17 -1q-38 -5 -68 -18q-12 -5 -31 -5q-9 0 -12 9l-1 9l-1 9q0 4 4 14l2 7q2 4 2 5q2 9 5 16q5 9 10 14q11 10 21 15l5 2l5 3q6 3 10 3q3 0 6 -2l3 -2h3q1 0 8 2l5 2h11l4 -1h4q4 0 13 2l6 2l5 2q8 2 11 2h3l3 -1
q2 -1 3 -1l3 2l3 1q5 4 13 5l3 1l3 1l2 -1l2 -1q2 0 3 1l2 1h2q1 0 3 -1q1 -1 3 -1l3 1l3 1l9 1l9 1l7 3l7 2q9 3 14 3q2 0 8 -1l5 -1l4 -1q2 0 7 1l16 3l16 3q20 4 32 4h6l6 -2q7 -2 11 -2t12 3q7 2 12 2h3l3 -1h5q2 0 10 4q2 1 5 1l6 -1h22q17 0 31 -3q25 -5 37 -19l7 -10
q5 -7 8 -10q5 -5 5 -8l1 -6v-6q-1 -5 -5 -8q-2 -2 -5 -2h-2l-2 -1l-3 -2l-2 -2q-2 -2 -4 -2t-6 1q-5 2 -6 2l-5 -1q-3 -1 -6 -1l-5 1q-3 1 -5 1q-3 0 -9 -2q-5 -2 -8 -2l-7 1l-8 1q-5 0 -13 -2l-7 -2l-7 -2q-6 -1 -17 -2l-9 -1l-9 -1q-6 -1 -15 -1l-8 -1h-7q-16 -1 -23 -11
t-22 -37l-9 -13q-6 -8 -8 -13q-4 -9 -16 -23l-9 -12q-5 -6 -8 -12q-5 -10 -16 -27l-9 -13l-8 -14l-6 -12l-6 -13l-10 -15l-10 -14l-3 -6l-3 -6q-3 -9 -6 -13l-4 -5l-5 -5q-6 -6 -9 -10l-3 -5l-3 -4q-5 -5 -6 -9q-7 -18 -11 -24l-9 -14l-9 -13q-11 -16 -16 -27l-6 -14l-6 -13
q-3 -6 -9 -14l-10 -13l-7 -11l-5 -12q-7 -14 -15 -23q-3 -4 -6 -11l-2 -6l-1 -5q-5 -13 -14 -29l-7 -14l-7 -15q-8 -17 -15 -27l-3 -4l-4 -5q-6 -6 -11 -6q-3 0 -7 2z" />
    <glyph glyph-name="U" unicode="U" horiz-adv-x="512" 
d="M423 -40l-4 3l-5 2q-11 3 -19 14l-8 8l-8 10q-9 11 -10 21l-1 21q0 22 5 39q4 14 12 32l14 32q0 1 4 8l3 7l4 7q10 20 10 25q0 4 -3 4q-4 0 -17 -15q-5 -5 -10 -11l-3 -5l-2 -1v-1l-10 -13l-9 -12q-10 -15 -19 -24q-3 -4 -10 -8l-6 -4l-5 -4q-6 -4 -13 -12l-13 -14
q-46 -50 -85 -75l-12 -8l-12 -7q-15 -7 -27 -7q-6 0 -16 4t-16 4l-10 -1q-6 0 -9 2q-2 1 -5 3l-5 5l-6 2l-6 3q-6 4 -13 17q-8 18 -11 30l-1 6l-1 7q-1 9 -3 14l-2 4l-2 5q-3 8 -3 11l1 6l1 5l2 18l4 18q2 13 7 27l5 11q3 8 5 14q2 5 6 12l6 13l3 6l2 7q2 8 5 13q9 13 14 25
q2 5 9 12l5 5l4 7q3 4 5 13l2 7l3 7q4 9 19 21l11 11q7 6 11 11l3 5q2 3 2 6t-3 3t-8 -8l-5 -7l-5 -7l-1 -1l-1 -2l-5 -6q-8 -7 -11 -7q-2 0 -2 1q0 2 7 10l4 6q3 4 3 5l9 15q5 9 10 15l3 4l3 4q4 3 8 7t7 11v1l1 2l2 3q3 6 5 6l1 -1l1 -2q1 -2 2 -2q3 0 7 4q5 4 5 8
q0 2 -1 4l-2 2q-4 3 -4 5t2 6q1 3 2 5q5 9 16 20l10 9l9 9q15 19 29 41q11 18 22 28l6 7l5 6q6 9 11 13l8 6l8 6q3 3 7 10l2 5l4 5q2 3 8 7l9 5l2 1l3 2q5 2 9 2q19 0 30 -5q12 -4 17 -18q4 -9 4 -12q0 -5 -5 -12l-9 -13l-10 -14l-7 -12l-8 -12q-9 -14 -17 -22
q-24 -22 -35 -47q-4 -8 -16 -22l-9 -10q-4 -6 -7 -11l-8 -13l-8 -12l-8 -13l-8 -14q-9 -18 -31 -47l-10 -12q-5 -7 -8 -12l-3 -6l-3 -5q-3 -6 -6 -10q-4 -4 -8 -11l-6 -12l-8 -15l-9 -15l-14 -28l-15 -26q-2 -5 -4 -13l-1 -7l-2 -6l-5 -13l-6 -14q-5 -13 -5 -30q0 -12 5 -23
q5 -12 15 -12q5 0 13 4l7 4l7 5l24 19l24 18l12 11l13 11q16 16 24 22q5 3 10 9l8 11l5 5l6 5q7 6 10 10q6 8 21 22l11 11l11 12l10 11l10 11q14 13 21 24q5 6 14 16l7 7l7 8l5 7l5 7q6 8 11 12l6 3q3 2 5 3q2 2 4 7l1 3l1 4l1 1l2 3l4 7q5 9 7 9l2 -1l1 -2q1 -2 2 -2
q2 0 9 11l5 9q4 5 6 8l2 2l2 2q2 2 3 4q4 9 6 9l1 -1h1q2 0 3 2v2l1 2q8 10 13 23l2 5l2 6l4 3l4 3q4 3 4 5l-1 4l-1 2v3q0 6 6 14l6 7l5 6q12 12 21 29q5 9 6 10l4 2l3 2q6 4 12 13l6 8l4 7q6 9 17 17l5 6l5 5q5 7 10 7q4 0 9 -3q4 -2 7 -6l5 -5l5 -6q7 -7 10 -12
q4 -6 4 -13q0 -5 -3 -15l-2 -7l-2 -8q-2 -10 -5 -15q-1 -2 -5 -4l-4 -4l-3 -5l-2 -5l-4 -6l-4 -6q-5 -7 -6 -13q-2 -8 -5 -12l-4 -3l-4 -3q-5 -4 -9 -10q-3 -4 -6 -11l-2 -5l-3 -6l-8 -14l-8 -13q-44 -72 -67 -116l-15 -27l-14 -26q-8 -15 -12 -31q-2 -7 -6 -13l-4 -6l-4 -6
q-7 -11 -15 -31l-6 -16l-7 -15l-5 -14l-6 -14l-3 -6l-4 -5q-5 -6 -7 -10l-3 -8l-3 -7q-3 -9 -4 -16l-1 -6l-1 -6q-1 -9 -1 -13q0 -6 6 -14l4 -7q2 -4 2 -8q0 -3 -6 -12t-10 -9q-3 0 -8 3z" />
    <glyph glyph-name="V" unicode="V" horiz-adv-x="378" 
d="M115 -40l-9 5l-8 3l-8 2q-3 1 -4 3l-2 1l-2 2l-5 4l-6 4q-15 12 -15 30q0 9 6 51l4 26q3 14 7 25q3 7 6 20l2 10l3 11l7 22l7 21l3 11l5 10q5 13 6 22q1 14 14 41l1 2l2 3q3 5 4 9q6 12 6 17t-3 5q-5 0 -8 -11l-2 -9l-2 -8q-1 -6 -5 -6l-1 1l-1 2q0 5 3 13l2 7l2 5l2 8
l3 8q3 10 6 15l3 4l4 5l2 4l1 5l2 6l1 4l4 5l4 3q5 5 5 10v5l-1 5l1 7l3 7l7 14l8 15q9 18 13 30l4 15l5 15q2 6 7 14l4 7l4 7l14 29l15 29q18 34 32 34q6 0 14 -4t14 -9q18 -14 18 -22q0 -7 -3 -16l-3 -8l-1 -8q-1 -7 -4 -12l-4 -6l-3 -6q-2 -5 -4 -14l-1 -7l-2 -7l-7 -17
l-8 -17l-7 -17l-5 -18q-2 -5 -7 -15l-6 -14l-12 -31l-12 -31l-4 -15l-4 -15l-10 -32l-6 -17l-7 -16q-7 -21 -10 -34l-4 -12l-5 -12l-3 -8l-2 -7q-2 -10 -4 -16q-3 -5 -6 -14l-3 -7l-3 -7l-1 -3l-2 -4q-1 -5 -1 -8q0 -4 2 -4q6 0 14 11l6 9q3 6 5 7l23 33l23 32l23 32l2 3
l3 4l6 8q8 10 11 10l3 -1h2q3 0 6 4l3 3l2 3l12 13l13 14l3 2l3 4q3 4 3 7l-1 1l-1 1q-2 1 -2 2q0 2 2 3l2 2l2 -1h3q5 0 8 7l3 7l2 5l3 3l2 2q4 2 6 5q0 1 1 6v3l1 2q2 8 5 12q3 5 11 12l6 5l6 5l5 7l4 6q6 8 10 13l3 3l5 4q7 7 7 9t-1 2q-2 0 -6 -5q-5 -5 -6 -5h-1v1
q0 6 17 23l6 6l6 6q7 6 8 8q10 11 24 25l25 24l13 12l12 12l4 5l4 5v7q0 2 1 4q2 3 7 8l4 4l4 4l2 2l3 3q3 3 6 3l2 -1h3q3 0 11 5l5 4q2 1 3 2l4 5l4 6l4 4l5 4q23 21 45 25q4 1 8 1q14 0 24 -5q14 -6 14 -16q0 -7 -4 -10q-2 -2 -5 -2l-5 -1q-3 -1 -5 -4q-4 -4 -5 -9
q-5 -15 -14 -23l-12 -10l-11 -11q-7 -7 -17 -23l-8 -12l-9 -12l-41 -48l-7 -9l-8 -9q-8 -11 -13 -19q-5 -10 -15 -24l-9 -11l-9 -11l-10 -10l-10 -10l-10 -14q-6 -10 -10 -15l-17 -18l-17 -17q-9 -10 -20 -26l-10 -14l-9 -14q-15 -21 -39 -48l-20 -24l-20 -23l-9 -11l-7 -12
q-10 -15 -17 -22l-18 -22l-17 -21q-9 -10 -20 -27l-10 -14l-10 -14l-5 -7l-6 -7q-6 -8 -12 -13q-5 -3 -13 -7l-13 -5q-9 -5 -12 -5q-4 0 -11 4z" />
    <glyph glyph-name="W" unicode="W" horiz-adv-x="573" 
d="M101 -37l-5 1l-6 1q-10 1 -19 8l-8 6l-8 7l-3 2l-4 3q-5 5 -7 10l-1 3l-1 4q-2 5 -2 7q0 3 -1 8v8q0 6 4 15l4 7l3 8l2 11l1 10q1 12 4 19l7 17l7 17l3 9l1 8q1 11 4 18q8 15 13 28q2 7 8 18l5 8l4 10q8 21 16 30q5 6 5 9v3l-1 3q-1 4 -1 8q0 7 8 22l4 6l3 5q3 6 4 7
q2 5 7 11l3 5l3 6l1 3l1 4q1 5 3 7l5 4l5 3q7 5 7 9l-1 3l-1 2q-1 4 -1 7q0 6 5 16l5 8l3 7q18 39 35 82l8 15l7 15l10 19l11 18l11 18l12 18q1 2 2 6l2 7q2 8 8 8q7 0 18 -3q10 -3 16 -6q16 -11 16 -25q0 -4 -1 -9q-12 -47 -21 -71l-14 -35l-14 -35l-6 -13l-7 -13l-7 -16
l-7 -17q-17 -42 -29 -67q-14 -29 -28 -66q-2 -7 -6 -14l-8 -13q-4 -7 -13 -30q-3 -8 -7 -18l-3 -7l-2 -5l-3 -6l-4 -6q-5 -9 -5 -13q0 -3 2 -4q0 -2 2 -2q3 0 7 7l4 5l1 2l1 1l6 9l7 10l14 20q17 24 29 43q37 51 59 79q19 23 41 55l9 13l10 14q11 17 23 33q11 14 28 35
q16 19 30 35l11 13l10 13q12 14 19 20q5 4 12 6q6 1 13 1q6 0 17 -6l10 -5l10 -5q6 -3 11 -8q5 -6 5 -12q0 -7 -7 -24l-5 -13q-3 -7 -3 -11q-3 -10 -7 -20l-9 -17q-12 -22 -14 -36q-1 -9 -6 -22l-8 -20l-7 -20l-6 -18q-3 -8 -11 -33q-2 -8 -7 -23l-8 -25q-27 -83 -27 -89
t2 -6q5 0 16 20l4 8l4 7l4 8q3 5 11 17q7 10 13 17l6 8l6 8q6 9 9 17q2 7 15 22l3 5l3 5q4 6 7 9l3 3l6 3q6 4 6 8q0 2 -2 4q-3 2 -3 4t2 3q1 1 2 1h3l2 -1q5 0 7 9l2 6q0 4 1 5q1 2 4 4l2 1l1 2q1 2 2 5v5q3 14 11 25l4 4l3 3q5 4 7 7l3 6l4 7l4 6l4 5l1 4l1 5q1 6 3 6
q1 0 1 -1q0 -4 1 -4t3 4q2 3 2 5v1l-1 1q-1 1 -1 2q0 2 1 4l2 2l1 2q13 20 25 35q10 12 29 33l15 16l14 17q5 6 7 15q1 4 7 13q2 3 3 6l5 6q7 8 10 8l3 -1h2q2 0 5 1l6 3q6 3 15 11l7 6l8 5q9 6 18 6h8l3 1q4 0 8 -2q5 -1 9 -5q6 -6 11 -13q3 -4 3 -9q0 -7 -11 -20l-14 -15
q-7 -10 -14 -15l-5 -5q-4 -2 -5 -5l-3 -7q-1 -4 -3 -7l-6 -8l-7 -8q-10 -11 -14 -17l-21 -34l-22 -33l-25 -38l-27 -38q-10 -13 -20 -31l-9 -18q-6 -11 -10 -17q-28 -40 -39 -61l-21 -36q-3 -7 -11 -17l-6 -8l-5 -8l-9 -13l-9 -13q-2 -2 -3 -5l-1 -3v-3q-2 -4 -5 -8l-3 -3
l-4 -3q-10 -10 -22 -31l-11 -16l-11 -15q-10 -14 -18 -33t-20 -24l-8 -4l-9 -5q-10 -5 -18 -5q-7 0 -17 7l-8 5l-8 5q-3 2 -8 6q-7 4 -12 9q-6 5 -9 15l-3 9l-2 8q-5 14 -6 21q0 5 1 11l2 12l1 11q1 14 5 23l3 5l2 5q3 4 3 7l-1 5v4l1 8l1 7l1 2l1 5q2 5 2 7l-1 3l-1 3
q-2 3 -2 6q0 2 2 5l4 6l4 9q3 6 4 9l5 6q3 3 4 7l1 10l1 9q1 3 3 6l5 6l2 4t1 3q0 2 -1 4q-2 2 -2 5q0 6 8 23l3 7l3 6q3 7 4 10l2 7l3 8l1 3l1 3q2 3 2 5v2h-2q-2 0 -9 -7l-4 -5l-2 -2v-1q-5 -5 -19 -23l-10 -13q-5 -7 -8 -10q-8 -11 -18 -27l-4 -7l-5 -8q-6 -9 -13 -18
l-5 -8l-6 -8q-7 -9 -14 -17q-5 -5 -10 -16l-5 -8l-5 -8q-10 -12 -25 -35l-12 -18l-12 -18q-5 -7 -11 -17l-9 -18q-13 -23 -23 -34q-12 -15 -19 -29q-10 -18 -35 -19q-6 0 -12 1z" />
    <glyph glyph-name="X" unicode="X" horiz-adv-x="509" 
d="M30 -37q-11 9 -20 25t-9 28q0 17 17 41l6 9l6 8l14 17q17 19 66 63l8 8l9 8q4 3 7 8l7 9q6 8 17 15l9 7l9 6q7 5 18 16l8 9l9 8l9 6q6 3 9 6q3 2 7 8l6 9l8 8q5 4 11 6q9 4 21 13l2 1l5 3q5 5 5 7t-2 2t-8 -5q-7 -5 -8 -5t-1 1q0 4 6 9l5 5l4 5l2 4l1 4l2 2l2 1q2 1 3 4
l2 5l1 5q0 3 -4 9t-4 13l1 10l2 17l2 18q2 21 2 33l-1 15l-1 15q0 14 5 24l1 5l1 6q1 8 3 11l4 4l3 4q2 2 2 6l1 7v3l1 4q0 3 -3 6q-4 3 -4 7q0 7 3 18q3 10 6 18q10 20 30 20q4 0 12 -2l7 -2l8 -3q32 -9 29 -27l-3 -11l-3 -12q-4 -16 -5 -26l-3 -32l-4 -31q-1 -11 -1 -27
v-21l1 -11v-10q0 -8 4 -8q3 0 8 6q4 6 10 11l12 9q23 17 53 42q20 17 52 46l4 4l4 5q6 5 10 7l7 2l6 3l6 4l7 4q9 6 15 7q7 1 18 7l8 5l9 6q4 2 7 7l3 5l3 5q3 4 11 8l7 4l6 3l14 7l14 7q16 6 30 6q11 0 24 -5q9 -4 21 -13q5 -3 5 -9q0 -4 -6 -10q-2 -3 -10 -7l-5 -4l-6 -4
l-12 -5q-7 -3 -12 -6l-12 -8q-7 -5 -11 -8l-21 -18l-21 -17q-26 -22 -44 -34l-12 -8l-12 -9l-10 -9l-9 -9q-4 -3 -11 -6l-6 -3l-5 -3l-12 -10l-12 -11l-11 -8q-6 -5 -10 -10l-10 -11q-5 -7 -10 -10q-8 -6 -19 -16l-10 -8l-10 -8l-10 -8q-7 -5 -10 -9l-9 -11l-10 -10
q-8 -8 -8 -19q0 -14 3 -35l6 -31l6 -31l8 -32l7 -32q2 -13 9 -28l7 -13l7 -13l6 -12l7 -10q8 -12 20 -16l6 -2l7 -1q8 -2 12 -5q3 -3 4 -7l1 -8q0 -5 -3 -10q-6 -12 -18 -13q-4 0 -12 -2l-7 -2h-8l-5 -1l-5 -1q-5 -2 -9 -2q-5 0 -14 5l-7 4l-6 4l-6 3l-6 3l-4 5l-3 5l-11 11
l-10 11q-8 9 -16 22l-6 12l-6 12q-7 12 -11 30l-4 15l-4 16q-4 19 -9 28l-2 4l-2 5q-3 5 -4 11v7l-1 6l-1 11q-3 14 -7 14q-2 0 -4 -2l-4 -3l-8 -8q-6 -4 -8 -7q-3 -4 -8 -7l-8 -6q-3 -2 -7 -7l-3 -5l-4 -4l-9 -6l-9 -7l-9 -9l-8 -9l-16 -18l-16 -18l-7 -8l-7 -8
q-3 -3 -9 -7l-9 -7q-3 -3 -5 -7l-4 -8q-2 -3 -7 -7l-5 -3l-4 -3l-8 -8l-7 -9l-10 -9l-9 -9q-3 -4 -7 -8l-7 -6q-6 -7 -12 -15l-3 -6l-3 -5q-4 -6 -9 -8l-6 -1q-6 0 -13 6z" />
    <glyph glyph-name="Y" unicode="Y" horiz-adv-x="493" 
d="M237 -262l-9 7l-4 4l-3 3q-23 21 -23 48q0 25 12 50l7 13l7 12l1 2l1 2l2 4l1 4v4q0 4 5 11q4 7 4 11v2l-1 2q-2 2 -2 3q0 5 10 7q10 3 10 7q0 2 -1 5l-1 4q0 3 4 5q2 2 3 4l1 4l1 3l2 2h2q5 0 9 8l4 6l3 6q3 4 6 10l2 6l2 5l5 7l6 8l4 6l4 6q5 8 5 12q0 3 -1 3t-5 -4
q-4 -3 -5 -3q-3 0 -3 3q0 5 13 20l4 6l4 5q5 5 5 6l7 11l7 10l3 6l3 6q3 8 5 12l4 4l4 4q3 4 6 11l2 3l2 4q2 5 2 6q0 3 -2 3q-3 0 -7 -5q-4 -3 -8 -9l-9 -13q-6 -8 -11 -12q-2 -2 -5 -6l-7 -7q-8 -9 -12 -13l-12 -11l-11 -12q-10 -12 -31 -29l-17 -14l-18 -15l-8 -8l-8 -8
q-10 -9 -20 -14q-15 -9 -30 -9q-10 0 -19 3q-8 3 -22 3q-6 0 -13 5l-6 4l-6 4q-19 9 -28 34q-2 6 -3 16l-1 9v8l-2 7l-2 5q-2 7 -2 13q0 18 2 39q3 25 9 40l6 17l5 17q1 5 7 14l4 6l2 7q4 15 12 26q3 4 6 12l6 12l4 6l5 6q6 7 9 12q2 4 6 13l6 16q3 8 9 13l4 4q2 2 4 5l3 7
l3 8q3 9 7 14l4 5l5 5l2 4l2 5q2 3 7 7q2 2 5 11q3 8 7 15q6 9 17 21l10 10l9 10q9 10 21 30l10 15l11 15q3 3 9 7l4 3l4 4q2 2 5 7l2 5l2 3q3 4 11 10l6 5l6 5l5 6l4 6q5 8 10 12q6 5 14 8q9 4 13 4q17 0 31 -7q10 -4 14 -16l1 -4l2 -3q2 -4 2 -6q0 -8 -8 -17l-7 -8l-7 -8
l-15 -23q-9 -14 -15 -22l-10 -11l-11 -11q-14 -14 -18 -25q-5 -10 -14 -21l-8 -9l-8 -10l-9 -12l-9 -11q-9 -13 -15 -24q-5 -10 -13 -21l-15 -20q-11 -14 -19 -31l-3 -7l-5 -5q-5 -7 -7 -11q-4 -11 -12 -28l-7 -14l-6 -14l-8 -13l-8 -14q-11 -17 -13 -28q-3 -10 -6 -22
l-3 -11q-2 -6 -3 -12q-4 -16 -4 -27q0 -20 11 -29q4 -3 9 -3q8 0 19 7l9 7l3 3l4 3q13 9 26 21l12 11l13 13q9 9 17 19q3 3 10 9l5 4l5 5l7 10l9 9q5 4 15 14l9 7l4 4l3 3q17 16 33 35l7 8l8 10l20 22l7 7l8 8q10 11 14 17q16 23 24 26q6 2 8 3q2 3 4 7l2 8q2 5 6 11
q4 8 7 8l2 -1v-2q1 -3 2 -3q2 0 4 2l2 3l4 6l3 6q5 7 9 11l5 5q3 2 4 4q2 4 11 12q3 3 7 10l2 7l3 5l7 9l5 10q3 5 9 14q3 3 3 7v3l1 4q2 9 13 23l9 11l5 6l4 5l7 7l8 9q11 13 13 15l8 11l7 11q7 11 15 17l7 7l7 7q5 3 9 3q6 0 11 -5l3 -4l3 -4l7 -8l7 -7q6 -8 6 -17
q0 -5 -2 -11q-2 -4 -3 -9l-1 -4q-1 -3 -2 -7q-2 -5 -6 -10l-3 -5l-4 -4q-5 -7 -11 -22l-5 -12q-2 -7 -5 -11q-5 -8 -15 -19l-7 -9l-8 -10l-8 -10l-7 -11l-3 -7l-2 -7q-3 -8 -6 -13l-7 -11l-7 -10q-9 -13 -14 -23t-14 -23l-8 -11l-7 -12q-6 -8 -13 -22l-5 -12l-6 -11l-18 -28
l-17 -28l-13 -23l-14 -22q-16 -28 -26 -46l-5 -10l-6 -10q-7 -12 -10 -20q-5 -11 -13 -25l-7 -12l-7 -12q-5 -9 -11 -25l-6 -12l-6 -13q-17 -34 -27 -56l-21 -45l-7 -13l-8 -12q-10 -17 -14 -26q-13 -31 -18 -46l-2 -7l-1 -6q0 -3 2 -8l2 -3v-4q0 -8 -7 -13q-7 -4 -15 -4
t-20 8z" />
    <glyph glyph-name="Z" unicode="Z" horiz-adv-x="420" 
d="M96 -37l-5 2l-6 1q-12 1 -18 7l-4 3l-3 1q-5 3 -6 5q-6 5 -11 19l-4 12l-3 9l-2 5l-2 6q-4 7 -4 13q0 11 9 27l10 15l9 14q6 9 15 20l8 9l8 9l13 16l13 15q5 7 15 16l8 8l7 8q6 6 15 17l6 8l8 9l14 14l7 7l8 6q2 3 8 8l11 10q13 12 20 19q8 8 13 14l5 5l4 5q6 5 19 14
l9 7l9 8l3 3l3 3q4 5 6 7q7 6 11 8q9 5 16 12l6 5l5 6l11 8l5 4l5 3q8 6 17 15l7 7l8 8q18 15 29 26q4 3 7 7l6 6q6 8 12 12q1 1 4 3l6 5q8 5 14 8q4 1 7 6l1 4l2 4q2 3 7 6l4 3l3 2l2 1l1 1l4 2q5 4 5 6q0 4 -7 4q-20 0 -55 -7l-22 -3l-23 -3q-28 -3 -44 -8q-12 -3 -29 -6
l-30 -4q-17 -3 -30 -8q-20 -8 -40 -8q-26 0 -42 22q-3 5 -8 11l-4 4l-4 4q-8 9 -8 14q0 7 7 11l7 2l6 3q17 8 37 12q9 1 14 4q9 5 13 5q10 0 22 3l11 3l11 3q3 1 5 1l4 -1q2 0 4 3q2 2 4 2l3 -1h4q2 0 8 2l5 1l6 1q8 1 21 4l9 3q4 1 6 2q10 4 21 4h9l4 -1h4q5 0 10 3l4 2
l4 1l4 -1l4 -1q3 0 9 2q7 1 12 1h16q26 0 41 7q6 2 10 2q3 0 15 -5l10 -3l9 -2q11 -3 18 -9q3 -2 7 -7l5 -8q6 -11 12 -15l5 -5q2 -2 4 -5q1 -3 4 -9q2 -6 3 -10q0 -5 -1 -10q-6 -31 -25 -48l-7 -7l-7 -8q-9 -10 -15 -15l-9 -6l-8 -7q-9 -7 -15 -15q-4 -6 -15 -14l-8 -7
l-7 -7q-6 -6 -18 -14l-9 -6l-8 -8q-6 -4 -14 -15l-7 -8l-7 -8q-15 -14 -34 -29l-18 -14l-17 -14q-19 -15 -34 -29l-7 -6l-6 -6q-8 -7 -12 -13q-6 -8 -16 -18l-9 -9l-8 -9l-15 -16l-17 -15q-21 -19 -31 -31l-13 -15l-13 -14l-15 -17l-15 -16l-1 -2l-2 -2l-4 -5q-6 -6 -6 -10
l1 -3q1 -1 3 -1q4 0 9 2l4 1l3 2q3 1 10 3l7 1l5 1l20 2l21 2l10 1l9 3l6 2l7 2q8 3 12 3q5 0 13 -1t14 -1h20q4 0 10 -3l4 -2l5 -2l9 -1l10 -1q11 -1 18 -5l7 -5l7 -6q8 -7 10 -13q2 -5 2 -12q0 -8 3 -13l2 -5q1 -2 1 -7q0 -6 -7 -10q-6 -4 -14 -4q-4 0 -10 1l-10 3
q-7 1 -14 1q-6 0 -13 -2l-11 -2q-3 -1 -6 -1h-2q-5 0 -8 -1q-7 -4 -25 -5l-8 -1q-4 -1 -9 -1q-2 0 -6 1h-7q-2 0 -16 -5q-7 -3 -17 -4l-12 -1h-12l-25 -3l-24 -4q-16 -2 -31 -8q-7 -4 -16 -4q-5 0 -11 1z" />
    <glyph glyph-name="bracketleft" unicode="[" horiz-adv-x="297" 
d="M91 5q-6 2 -17 11l-8 5q-5 3 -7 6q-5 4 -8 13l-2 6l-3 7l-2 4l-2 2q-2 3 -2 6t2 7l3 7q10 18 20 31l5 7l5 8l3 5l2 7q4 10 6 13l5 6q3 3 4 5l3 7l2 6l3 8l4 7l4 6q3 4 4 6q2 8 5 13q1 2 8 8q4 3 7 9l5 10q3 6 9 15l5 8l5 7q12 19 18 34q3 6 9 16l5 7l4 8q12 22 20 32
q5 6 10 15l8 16l4 7l4 7l4 9l3 10q3 5 8 11l5 4l3 5q2 4 2 9l1 5l1 5l9 17l11 17q1 1 3 5l1 4l3 5q6 12 11 21q3 4 10 12l5 6l5 6l3 6l4 6q4 8 7 11q1 2 4 5l5 6q6 8 8 11q6 9 18 9l8 -1h7l26 -1q3 0 13 1l8 1h11q11 0 19 -2q13 -4 27 -22q6 -8 12 -20q3 -8 3 -16
q0 -10 -6 -13q-5 -2 -12 -2h-8l-14 1h-12q-6 -1 -8 -1h-8l-9 1q-11 0 -17 -7l-11 -16l-11 -17q-5 -8 -11 -20l-10 -21q-4 -7 -10 -15l-11 -12l-5 -7q-3 -4 -4 -8l-1 -5l-1 -5l-3 -4l-3 -4q-6 -7 -13 -15q-5 -7 -11 -18l-3 -4l-2 -4q-2 -4 -3 -5l-4 -9q-3 -6 -6 -9l-2 -2
l-3 -3q-3 -3 -11 -14l-3 -5l-3 -5l-2 -4l-3 -4q-3 -5 -4 -7l-2 -7l-2 -6q-2 -7 -3 -10q-2 -6 -7 -12l-4 -5q-3 -3 -5 -7v-7l1 -3q0 -2 -3 -4l-2 -2l-2 -4q-2 -8 -7 -18l-5 -9l-4 -8q-8 -14 -11 -20l-2 -6l-3 -6l-3 -4l-2 -3q-3 -4 -5 -8q-2 -6 -6 -11l-6 -8q-4 -5 -6 -7
q-4 -5 -8 -13l-3 -7l-4 -7l-1 -2l-1 -4q-2 -4 -2 -6q0 -3 5 -3l6 -1l5 -1q3 0 5 -3l5 -5q2 -2 7 -4l4 -1l3 -2q5 -4 10 -15l3 -8l4 -8q3 -7 3 -12q0 -8 -12 -10q-22 -3 -38 -3l-9 1l-8 1h-10l-9 -1h-9l-9 -1l-10 -1z" />
    <glyph glyph-name="backslash" unicode="\" horiz-adv-x="426" 
d="M392 -12q-5 0 -8 1l-8 3l-8 3q-10 2 -15 5q-17 13 -22 39l-2 18l-1 18l-2 20l-3 21q-2 12 -2 20l1 7l1 6q0 5 -2 9l-3 7q-2 6 -4 16l-1 8l-1 10v10q0 3 2 5l1 2v3l-1 6l-2 7l-1 8l1 9q0 10 -3 15q-4 8 -3 15l1 4l1 2l-1 4q-1 3 -1 5t1 3l1 2l1 1q0 2 -1 6l-1 3l-1 3v6
l-1 6l-2 12l-2 11l-2 14q-2 8 -3 14v14l-1 3l-1 2q-2 3 -2 7v5l-2 6l-2 8q-1 5 -1 11q0 7 1 14v5l1 3v8q0 3 -1 6l-1 2l-1 3v9q0 3 -1 8l-1 3l-1 4q-1 4 -1 8l1 8l-1 2l-1 3q-1 4 -1 6l2 4l1 2l1 3q0 6 -2 16l-2 8l-2 9v12q0 9 -1 13l-4 7l-3 7q-2 8 -1 14q2 14 16 12
q5 -1 15 -11l9 -8l9 -10q8 -10 14 -18q7 -12 9 -21q7 -34 10 -51l3 -25l2 -25l1 -12l3 -13q4 -13 5 -22l2 -26l3 -26q3 -31 5 -52l4 -23l4 -23l2 -12l1 -12v-12l1 -13l4 -26l4 -28l4 -26l4 -26l2 -26l3 -26l2 -17l3 -17l2 -11q2 -7 2 -11q-1 -7 -10 -10q-4 -2 -9 -3h-6z" />
    <glyph glyph-name="bracketright" unicode="]" horiz-adv-x="300" 
d="M75 5q-11 0 -19 2q-14 4 -28 22q-6 7 -11 19q-4 8 -4 16q0 10 6 13t13 3l7 -1l14 -1l7 1h5q6 1 8 1l8 -1h9q12 0 17 6l12 17l11 17q5 7 11 20l10 21q3 6 10 14l10 13l6 7q3 4 4 8v5l1 4l3 5l4 4q6 7 12 15q5 6 12 17l2 5l2 3q2 4 3 5l5 9q3 6 5 9l3 3l2 2q4 3 11 15l4 5
l2 5l3 3l2 4q3 5 4 8l2 6l2 6q2 8 3 11q3 6 8 11l4 5q2 3 4 7q1 2 0 5v5q0 2 2 4l2 3l2 4q2 7 7 18l5 9l5 8l5 12l6 12l3 6l2 6l3 4l3 3q3 4 4 8q2 6 6 11l6 5l5 6q9 10 18 26l1 3l1 3q2 4 2 7t-5 3h-7l-7 1q-2 1 -5 4l-4 4q-3 2 -8 4l-3 2l-4 2q-5 4 -9 14l-4 9l-3 7
q-3 7 -3 12q0 8 12 10q21 4 37 4l9 -2l9 -1l9 1l9 1l5 -1h5l8 1l11 1l8 -1q6 -1 16 -10l8 -6q5 -3 8 -5q4 -5 7 -13l2 -7l3 -7l2 -3l2 -3q2 -3 2 -6t-2 -7l-3 -7q-10 -18 -19 -31l-6 -7l-5 -7l-2 -6l-3 -7q-3 -10 -5 -13l-5 -5q-3 -3 -5 -6l-2 -6l-2 -7l-4 -7l-3 -8l-5 -6
q-3 -3 -3 -6q-3 -7 -6 -13q-1 -2 -8 -8q-3 -3 -6 -9l-6 -10q-3 -6 -9 -15l-5 -8l-5 -7q-11 -18 -18 -33q-2 -7 -8 -16l-5 -8l-5 -8q-11 -21 -20 -32q-4 -5 -9 -15l-9 -16l-4 -6l-4 -7l-3 -10l-4 -10q-2 -4 -8 -10l-4 -5l-4 -5q-2 -3 -2 -9v-4l-2 -5l-9 -18l-10 -16l-5 -9
l-6 -9q-6 -10 -8 -18v-8q0 -16 -8 -24l-4 -2l-1 -1l-3 -2l-2 -2l-3 -4q-2 -4 -5 -5l-4 -1l-4 -1q-4 -2 -7 -6q-4 -3 -10 -13q-6 -8 -18 -8h-7l-8 1h-25q-4 0 -14 -1t-15 -1h-3v1z" />
    <glyph glyph-name="underscore" unicode="_" horiz-adv-x="378" 
d="M32 -39q-2 3 -2 7q0 5 3 13l2 6l2 4q8 21 22 30l4 3l6 3q8 3 15 3h5q5 0 12 2l6 1l5 1h12l12 2q18 3 34 5q21 1 48 1q10 0 30 1t28 1q15 0 36 -1q24 -1 42 -3q30 -4 30 -20q0 -4 -3 -10l-2 -4l-1 -4l-2 -5v-4q-2 -5 -4 -9q-4 -7 -13 -11l-3 -3l-4 -3q-5 -3 -9 -3
q-2 0 -8 2l-4 2l-5 1l-8 1l-9 1l-22 1q-4 0 -12 -2l-6 -1h-8q-5 0 -13 1t-14 1h-3l-4 -1h-7l-10 1h-10q-9 0 -24 -3l-12 -2l-11 -1l-12 -1h-11q-11 0 -18 -1q-8 -1 -18 -1h-20q-11 0 -24 -3l-5 -1l-6 -1q-4 0 -7 4z" />
    <glyph glyph-name="a" unicode="a" horiz-adv-x="318" 
d="M49 38q-11 22 -11 53q0 9 3 19l2 9l3 9l1 10q1 5 3 9l4 8l4 8l10 20l2 5l3 5q2 7 5 10l2 2l3 1h1l1 -1q1 -1 2 -1q2 0 3 4v5l2 4q4 6 13 16l7 8l7 8l12 14l13 14q5 5 16 12l8 6l8 6q2 2 5 6l2 4l2 2l4 3l5 2l2 2l2 2q2 3 4 3h4l3 -1q5 -2 8 -2q6 0 6 5q0 1 -2 2
q-1 1 -1 2l1 2l3 2q4 2 11 5q7 2 11 2l12 1l6 1l5 1h4q3 0 7 -2l6 -6l7 -6l10 -7l11 -6q6 -4 15 -11l14 -12l7 -6l7 -7q6 -8 6 -17q0 -8 -5 -20l-5 -9l-5 -10q-8 -17 -24 -38l-12 -16l-12 -17q-13 -20 -19 -37v-5q0 -6 2 -11q3 -6 8 -6q7 0 19 10l9 8l8 8q24 20 63 64l15 16
l15 17l12 15q16 20 17 20q3 0 3 -6q0 -5 -2 -14l-1 -6q-1 -3 -1 -4l-1 -11v-10q-1 -12 -5 -21q-8 -17 -26 -37l-15 -18l-15 -16q-38 -41 -64 -62q-14 -11 -27 -17q-17 -9 -31 -9q-10 0 -19 4q-13 6 -24 32q-4 8 -5 19v6l-1 8q-2 9 -8 9q-5 0 -13 -10l-6 -8q-3 -4 -4 -5
l-17 -18l-16 -19l-5 -7l-5 -8q-4 -3 -10 -6l-5 -2l-5 -2q-15 -6 -28 -6q-29 0 -44 28zM121 91l6 3q22 14 45 38l7 10l8 9l5 5l5 3q7 5 10 8q7 8 19 25l9 12l10 12l4 5l5 4q4 4 6 10l3 5l3 5q4 5 9 7l5 1l5 2q6 3 6 7q0 5 -4 10q-5 5 -13 5q-9 0 -22 -7l-11 -7l-9 -6l-12 -9
l-11 -9q-13 -10 -21 -19q-20 -24 -37 -48l-11 -14l-10 -14q-7 -13 -10 -24q-2 -11 -7 -22q-2 -3 -2 -6t4 -3q2 0 6 2z" />
    <glyph glyph-name="b" unicode="b" horiz-adv-x="309" 
d="M101 8q-25 10 -36 38q-9 27 -9 52v11q2 11 5 29l2 11q0 7 2 11q3 8 8 19q5 9 10 16l2 2l2 1q2 2 2 4t-1 3q-1 2 -1 3t2 6l1 3l1 2q3 7 11 20l6 9l5 10q7 15 15 32l7 11l7 11l2 6l1 5q2 6 6 10l7 6l6 6l8 11l7 11l4 9l4 9l8 12l8 12q5 10 13 21l14 20l15 22q9 13 16 21
l18 20l17 20q5 5 6 9l1 4q0 3 1 5t7 6l5 4l5 6l2 5l2 5l4 2l3 3q3 3 7 10l4 5l3 5q6 7 20 15l6 4l6 4l12 9q6 3 11 3q19 0 28 -27q2 -7 2 -14q0 -9 -4 -21l-4 -11l-5 -10l-5 -11l-7 -12q-2 -3 -9 -8l-4 -4l-5 -5q-2 -3 -4 -9l-5 -10q-10 -15 -22 -32q-29 -38 -82 -79
q-13 -10 -36 -42q0 -1 -6 -8l-5 -6l-5 -7q-14 -19 -14 -23q0 -3 2 -3q4 0 21 13l6 5l6 4q7 5 8 6q34 24 60 24q27 0 34 -25l2 -13l2 -14q3 -10 3 -20q0 -38 -16 -70l-8 -15l-8 -16q-2 -6 -2 -9q0 -7 9 -7q14 0 31 14q6 4 14 12l6 6l6 6q18 19 42 50l4 6q3 3 6 3q8 0 8 -10
q0 -43 -31 -85q-49 -65 -112 -65q-3 0 -10 1l-6 1h-4q-4 0 -8 -2q-3 -3 -8 -9l-4 -5l-4 -4q-23 -26 -45 -42q-45 -32 -83 -32q-15 0 -29 5zM141 78q8 2 12 4l6 5l7 4l5 2l4 3l11 12l11 12q4 5 9 14l9 14q3 6 11 12l5 6l6 6q4 6 7 16l2 8l2 9q2 8 7 18l8 18l4 8l4 9
q4 10 4 17q0 5 -2 8q-1 2 -3 2q-4 0 -12 -10q-9 -10 -29 -26l-14 -13l-14 -14q-37 -38 -56 -67q-7 -11 -18 -35l-4 -9l-4 -8q-4 -10 -4 -19q0 -8 10 -8q8 0 16 2z" />
    <glyph glyph-name="c" unicode="c" horiz-adv-x="264" 
d="M115 3l-6 2l-7 3l-4 1l-5 1q-5 2 -7 4q-3 2 -5 9l-2 5l-1 4l-3 2l-5 3q-7 3 -9 7l-1 4l-1 5l-2 4l-1 4l1 3v2q0 2 -3 7l-3 3l-2 4q-2 5 -2 15v5l1 5q1 9 4 20l2 10l2 10q2 10 10 13q10 3 10 7l-1 3l-1 1q-1 2 -1 3q0 2 1 5l1 1l1 2l3 6l1 4l1 4l5 10l5 11q7 13 13 20
q10 9 25 27l12 14l14 15q3 3 9 6l9 6l9 8q6 5 10 8l10 4l10 5l7 3l7 3q8 4 14 4q3 0 8 -2l9 -2q19 -2 26 -6q19 -12 32 -35q4 -8 4 -16q0 -14 -6 -26q-12 -23 -27 -38l-11 -11q-6 -6 -12 -9q-8 -5 -24 -8q-3 -1 -7 -1q-10 0 -17 3q-8 4 -8 10q0 4 3 8q2 4 9 10l5 4l5 5
q9 10 15 20q1 1 2 4l3 6q3 8 3 13q0 6 -4 6q-3 0 -8 -3l-4 -2l-3 -2q-9 -4 -16 -13q-3 -5 -7 -10l-9 -9q-22 -23 -36 -43q-18 -24 -26 -39q-3 -4 -5 -12l-2 -7l-2 -6l-3 -9l-3 -8q-2 -9 -2 -17q0 -26 27 -26q10 0 23 4q10 2 21 6q7 3 19 10l19 11q11 5 23 15l10 9l11 9
q15 13 37 34l18 17l18 18q12 11 27 30l2 2l1 3q2 3 4 3q5 0 7 -9l1 -9q1 -4 1 -7q0 -5 -3 -11l-2 -4l-2 -5l-2 -9q-2 -6 -4 -9l-6 -9q-4 -5 -6 -9q-5 -10 -16 -21l-14 -15q-8 -9 -13 -16q-5 -6 -16 -14l-8 -6l-8 -6l-8 -8l-8 -8q-9 -9 -17 -13q-9 -4 -22 -13l-11 -7l-11 -7
q-7 -5 -19 -9l-10 -3l-11 -3q-18 -8 -41 -8q-10 0 -18 3z" />
    <glyph glyph-name="d" unicode="d" horiz-adv-x="343" 
d="M60 19q-19 18 -23 56l-1 10q0 9 6 14q4 5 6 10l1 7v8q1 6 4 14l3 6l3 7l6 16l6 17q2 5 6 10l5 4l4 5l10 13l10 15l8 11l8 12q3 5 11 12l11 12q4 5 11 9l6 4l6 3l4 3l4 4l2 5q1 3 2 5q2 2 9 6l5 2l4 2q6 4 10 4q1 0 5 -1l3 -2h4q3 0 4 3l1 3l2 3q2 2 7 2h15l15 1
q18 0 31 -8l6 -4l6 -4l4 -5q3 -2 5 -2q4 0 8 6l4 6l3 4l9 11q5 6 8 12l15 25l4 7l3 8q5 10 7 15l5 5l4 5q6 7 9 11l8 15l8 15q11 20 33 54l9 11l9 11l3 6l1 5q2 7 4 10l3 5l3 5q3 6 7 8l6 3l6 2q4 1 7 4l5 6q21 24 41 24q11 0 19 -16q8 -15 8 -35l-1 -3v-6q-1 -8 -4 -14
q-2 -6 -8 -12l-4 -6l-5 -5q-7 -8 -13 -25l-6 -13l-6 -12q-45 -69 -78 -113l-20 -25l-21 -25q-26 -31 -40 -51l-18 -25q-11 -15 -17 -26q-11 -20 -26 -58l-1 -2l-1 -4l-3 -9q-3 -11 -3 -19q0 -16 13 -16q9 0 24 14q5 4 12 11l5 6l5 4q55 55 89 97l2 2l2 3l6 7q7 8 12 8
q6 0 6 -9l-1 -6v-17l1 -9q0 -7 -4 -16q-3 -6 -9 -15q-16 -23 -40 -51l-21 -25l-22 -24q-11 -11 -18 -19q-11 -10 -21 -18q-25 -18 -49 -18q-22 0 -38 19q-13 14 -17 26l-2 6l-2 8q-3 10 -3 17l1 8l1 9l-1 3v3q-1 3 -4 3t-9 -7l-7 -7l-6 -8q-8 -9 -9 -10l-9 -11l-8 -11
q-2 -3 -9 -8l-5 -3l-4 -5l-5 -5l-3 -5q-5 -7 -10 -10q-12 -10 -27 -16q-12 -5 -23 -5q-19 0 -32 13zM131 85l5 4l4 4q2 3 6 10l3 5l4 4l21 19q13 11 20 18l20 21l19 21l21 24l20 24l5 5l5 6q6 8 5 13q0 6 -5 9l-5 1h-6q-22 0 -48 -20q-9 -8 -21 -20l-19 -21q-48 -54 -63 -92
l-1 -2l-1 -3l-2 -9q-4 -11 -4 -18t7 -7q4 0 10 4z" />
    <glyph glyph-name="e" unicode="e" horiz-adv-x="264" 
d="M111 5q-20 5 -30 17q-2 3 -4 7l-3 7q-1 3 -6 5l-3 2l-3 3q-2 2 -2 8l-1 8q-1 7 -3 9q-6 7 -6 10l1 7l1 7l-1 10v13q12 49 28 72l13 20l12 20q5 8 15 19l7 9l8 9q6 8 15 16l4 4l5 3q6 4 9 7l3 4l2 4q3 4 6 6l7 6l7 6q3 2 9 2l10 1q7 1 17 8q13 8 28 8l9 -1l9 -2
q23 -4 36 -24q1 -1 3 -5q2 -5 4 -11q6 -16 6 -25q0 -36 -32 -78q-12 -16 -32 -28l-18 -11l-19 -9l-10 -4l-9 -4q-11 -5 -21 -5q-8 0 -18 6l-4 2l-5 3q-5 3 -8 3q-6 0 -13 -10l-6 -9q-2 -4 -3 -8q-3 -6 -4 -13q-2 -8 -2 -15q0 -3 2 -9q2 -5 3 -8q6 -11 22 -11q14 0 28 5l11 6
l10 4q38 18 70 43l19 15l17 15l15 15l15 15l30 29q7 7 15 16l4 5l4 5q5 5 9 5q6 0 6 -12q0 -4 -1 -11l-1 -4l-1 -3q-2 -26 -10 -38q-30 -40 -53 -63q-28 -27 -65 -58q-32 -26 -74 -43q-25 -11 -51 -11q-16 0 -32 4zM212 198q16 10 24 24q10 15 18 31l1 2l1 2l3 5q3 7 3 11
q0 5 -5 5q-6 0 -15 -7l-8 -5q-3 -3 -5 -6l-6 -7l-6 -6q-7 -8 -13 -13q-12 -9 -20 -24l-1 -1l-1 -2l-3 -6q-4 -8 -4 -12t4 -4q12 0 33 13z" />
    <glyph glyph-name="f" unicode="f" horiz-adv-x="210" 
d="M-29 -296q-11 1 -24 14q-11 10 -18 21q-6 12 -9 34q-1 8 -1 17v11q0 26 14 69q13 40 25 66l3 7l4 7q6 9 6 11l1 5l1 4q0 2 2 4l2 1l1 3q3 4 6 13l2 7l2 6l8 15l8 14l7 15l8 14l9 17l10 16l4 6q3 4 3 7l1 3v3q1 4 2 7q5 12 14 24q3 5 4 19v9l-1 11q0 3 2 9q1 6 2 9
q3 7 7 11q6 6 14 9l5 2h5q5 1 7 2q4 2 5 5t5 8l3 4l2 3q5 6 6 12t5 12l4 7l4 8q4 11 8 15q2 3 4 4h3q2 0 2 -4v-13q1 -4 3 -4q6 0 6 9q0 4 -1 12l-1 5v4q0 3 2 7l3 3l2 4l3 6l3 6q3 6 9 10l9 7l8 7l2 4v2l1 2l2 2l2 2l1 3l1 3l3 5l3 5q5 5 6 9l2 5q1 3 1 5q0 1 -1 4l-1 2
l-1 3q0 4 6 9l5 5l4 4l3 7l2 8q4 8 8 13l5 6l6 7q7 7 12 8l2 -1h1l2 1v4l-1 3q0 2 5 8l3 5l2 6q3 8 6 11q3 4 10 11l5 5l5 6q9 12 18 12q8 0 15 -6q6 -4 12 -12q8 -10 8 -23q0 -15 -10 -35q-7 -13 -19 -31l-20 -30q-16 -26 -37 -60l-17 -29l-18 -28l-19 -29q-11 -17 -17 -28
q-3 -5 -9 -13l-4 -5l-5 -6l-7 -15l-8 -15l-6 -10l-6 -11l-5 -6l-5 -7q-4 -8 -5 -16v-24q1 -8 1 -13q2 -10 8 -10q3 0 9 2q20 9 54 35q8 6 19 15q9 8 17 16q6 6 12 14l5 7l6 7q21 24 36 45l2 3l3 4q4 4 7 4q4 1 7 -12l3 -9q2 -5 2 -8q0 -25 -25 -58q-24 -32 -47 -56
q-29 -30 -55 -46q-11 -6 -31 -16l-7 -4l-7 -3q-9 -5 -13 -9q-3 -3 -4 -8l-1 -9q-1 -10 -3 -23l-4 -22q-17 -91 -41 -140q-11 -23 -33 -57q-24 -36 -46 -49q-24 -15 -46 -15zM-12 -224q3 0 8 4l4 3l3 3q20 21 35 44q20 31 32 66q16 49 22 75q3 13 7 38l1 11l2 11q0 3 -1 8
l-1 5v13q0 9 -5 9q-3 0 -7 -9l-3 -6l-2 -7q-3 -9 -4 -11t-5 -9l-3 -7l-4 -7q-11 -21 -16 -34l-5 -16q-3 -10 -6 -16l-9 -14l-9 -15q-3 -5 -5 -13l-4 -14l-3 -7l-3 -7q-5 -8 -6 -14l-4 -14l-5 -15q-6 -18 -8 -29v-3l-1 -5q-1 -5 -1 -9q0 -5 2 -8l2 -1h2z" />
    <glyph glyph-name="g" unicode="g" horiz-adv-x="334" 
d="M-57 -291q-32 33 -32 58q0 30 14 62l3 7l4 6q5 8 7 13q2 9 14 17l9 5l8 5q9 6 9 10v2l-1 2q0 3 5 6l4 2l4 2l7 5l6 5q8 7 14 10l7 3l6 4q2 1 4 4l1 3l2 2q1 1 5 2l6 1q4 2 6 4l3 2l3 3q4 3 12 7l6 2l7 4q6 4 15 7l16 7q22 8 32 15q13 8 24 26l9 15l9 16l9 17l9 17l1 1
l1 3l4 7q5 10 5 15q0 3 -2 3q-3 0 -8 -7l-4 -6l-4 -7l-13 -15l-12 -15l-12 -15l-14 -14q-11 -13 -24 -19q-22 -9 -36 -9q-16 0 -27 10q-26 23 -26 63q0 29 20 60l3 4l3 5q4 7 4 11t-2 4h-2l-2 -1q-1 0 -1 2q0 5 2 9l2 3l1 2q2 5 7 7l4 2l4 3q4 4 10 15l5 7l5 8l8 9q6 6 8 10
q3 6 5 6l5 -1l4 -1q3 0 4 4l1 3l1 3q0 4 3 7q2 4 5 4l3 -1l2 -1l2 1l1 2v2l-1 2l7 2q3 1 4 3l2 2l2 2l5 2l4 1q5 2 5 4q0 1 -3 3q-3 1 -3 3q0 5 11 13l9 6l4 3l4 2l17 9l17 9q7 3 15 3l10 -1l12 -1q15 -2 30 -11l5 -4l4 -4q5 -6 9 -6q1 0 7 4q5 3 9 3t9 -3l5 -5l5 -4l8 -4
l8 -5q10 -7 10 -20q0 -15 -13 -38l-12 -18l-10 -20l-2 -7l-2 -7l-3 -7l-5 -5l-9 -15l-8 -14l-10 -16l-10 -17q-12 -20 -18 -33l-2 -3l-1 -4q-2 -4 -2 -7q0 -2 1 -2q3 0 11 7l6 5l3 2l1 1q48 40 111 108q16 18 25 29q14 18 25 30q4 3 5 3q4 0 4 -10l-1 -9l-1 -8l-2 -18
q-1 -10 -4 -18q-7 -14 -20 -32l-12 -15l-12 -14q-27 -31 -52 -54l-58 -51q-13 -11 -31 -21q-5 -3 -13 -10l-6 -5l-6 -5l-8 -4l-7 -4q-7 -5 -11 -12q-7 -12 -21 -32q-8 -11 -18 -31l-9 -16l-9 -15q-4 -7 -12 -16l-12 -15l-11 -16l-10 -17q-26 -38 -51 -59q-21 -19 -43 -31
q-30 -17 -54 -17q-17 0 -31 14zM126 83l5 5l5 4l11 8q6 4 10 9l11 13l12 13l21 22l22 21l23 25l24 25l6 6l7 6q8 7 11 13q2 3 2 6q0 11 -13 11q-23 0 -53 -20q-28 -18 -41 -41q-3 -5 -8 -10l-4 -4l-5 -4l-8 -12l-7 -11q-11 -14 -17 -22q-10 -13 -16 -24l-2 -4l-3 -5
q-4 -6 -4 -9l1 -2l1 -1q1 -1 1 -3q0 -1 -2 -3q-2 -3 -2 -6v-2l1 -2q0 -1 -3 -3q-2 -1 -2 -2q0 -3 3 -3q7 0 13 6zM-10 -238l6 6l6 5l6 4l8 5q9 5 13 10l3 4l1 5q2 6 5 9l21 22q10 10 20 23l9 12l9 12l21 29l2 3l3 4q2 4 2 6q0 3 -7 1q-13 -3 -28 -13l-13 -10l-12 -9
q-26 -19 -42 -41q-3 -4 -11 -10l-6 -4l-5 -6q-9 -11 -15 -24q-3 -4 -5 -13l-5 -13l-1 -3l-2 -5q-3 -6 -3 -9q0 -6 6 -6q7 0 14 6z" />
    <glyph glyph-name="h" unicode="h" horiz-adv-x="343" 
d="M33 12l-5 9l-4 10q-3 6 -3 13l1 10l1 10q4 23 13 38l8 15l9 16q2 4 8 11q2 2 7 14l3 5l2 5l2 9l2 8q3 12 13 24q3 5 8 14l3 7l4 7l4 8l4 8q4 9 8 15q13 17 18 29q3 6 9 15l6 7l5 8l22 33q14 20 21 33l10 16l10 16l5 7l5 8q6 10 10 15q5 5 10 13l8 14q4 8 13 16l14 15
q13 13 17 25q1 7 8 13l5 4q3 3 5 7l2 6l2 5q2 3 7 4l4 1l4 1q16 5 21 13q8 13 20 25t35 12t23 -25q0 -21 -19 -58q-7 -12 -16 -26q-3 -6 -6 -11q-3 -3 -5 -7q-18 -26 -51 -62l-28 -29q-16 -17 -26 -31q-10 -10 -23 -31l-11 -16l-11 -16l-14 -17l-14 -19q-16 -21 -25 -36
l-20 -34l-6 -10l-5 -9l-2 -3l-3 -5q-3 -6 -3 -9t2 -3q4 0 11 9l6 6q3 4 3 5l15 15l15 15q33 34 64 61l13 11q7 6 13 10l8 5l6 5l3 4l3 3q4 4 8 5l7 1l6 1l5 2l4 3q6 3 10 3q7 0 15 -7l7 -5l6 -5q15 -11 15 -23q0 -10 -5 -21q-3 -7 -10 -19q-8 -14 -22 -34l-24 -32
q-29 -40 -41 -70l-2 -6l-3 -7q-4 -10 -4 -15q0 -6 3 -9l3 -1h2q5 0 12 3l5 3l4 3q28 17 61 52q29 31 51 57q13 15 22 31q2 4 6 7q3 4 6 4q6 0 6 -13t-3 -31q-2 -20 -9 -31q-25 -36 -53 -66q-23 -26 -59 -56q-38 -31 -65 -39q-5 -1 -11 -1q-13 0 -28 9q-16 9 -22 23
q-3 5 -5 15l-1 9l-1 8v8q0 3 1 11v14q0 7 4 18l4 9l3 8q7 20 18 38l1 1l2 3l5 7q5 9 6 14q0 3 -3 3q-4 0 -14 -9l-7 -7l-2 -3l-2 -2l-14 -12l-13 -11q-7 -6 -16 -15l-14 -16q-35 -37 -54 -58l-13 -14l-13 -13q-15 -17 -24 -29q-9 -14 -18 -14q-10 0 -14 12z" />
    <glyph glyph-name="i" unicode="i" horiz-adv-x="172" 
d="M262 439q-9 15 -9 30q0 40 40 65q19 12 37 12q10 0 18 -14q7 -12 7 -25q0 -20 -14 -41q-8 -11 -14 -18q-8 -10 -15 -16q-13 -10 -26 -10q-14 0 -24 17zM73 7q-10 5 -21 25q-11 21 -11 42q0 7 2 18l2 9l1 7q1 7 6 14l5 5l4 7l2 3l2 4q3 5 3 8q0 2 -3 3q-2 1 -2 3t2 5l4 4
q5 6 10 16q8 16 16 24q4 5 7 12l3 7l3 6l7 11l7 12l8 14q5 9 9 13l6 6l5 4q8 7 11 11l2 4l1 4q1 3 4 6l6 5l4 5l5 6q7 7 13 7q3 0 7 -3l3 -3l2 -2l7 -6l6 -6q8 -8 8 -21q0 -10 -5 -22q-4 -9 -11 -21l-9 -14l-9 -15l-8 -15q-4 -9 -9 -15l-5 -5l-4 -6l-3 -8l-3 -7
q-3 -4 -10 -12l-5 -6l-4 -6l-9 -14l-8 -14q-4 -7 -9 -22q-4 -14 -4 -19q0 -8 6 -8t20 9l10 6l4 3l3 3q11 9 25 25l12 13l12 14q20 22 47 57l12 14l12 15l10 13l4 5l3 5q4 5 7 5q5 0 7 -10l2 -8v-7q1 -17 -7 -35q-6 -15 -19 -33l-12 -15l-11 -15l-12 -17l-12 -17l-14 -14
l-14 -13l-14 -15l-15 -15q-17 -17 -33 -26q-22 -13 -45 -13q-16 0 -29 6z" />
    <glyph glyph-name="j" unicode="j" horiz-adv-x="177" 
d="M257 430q-3 4 -6 10l-5 10q-3 7 -3 15q-1 13 10 31q7 11 12 18q8 10 16 16l7 4l8 5q8 6 19 6q9 0 20 -9q10 -9 13 -17q2 -6 2 -12q0 -12 -11 -32q-4 -7 -12 -17l-6 -7l-7 -8q-18 -23 -39 -23q-11 0 -18 10zM-190 -307q-12 0 -25 13q-11 11 -16 24q-6 14 -8 29
q-1 10 -1 16l1 7l2 7q0 4 1 12l3 13q0 5 10 18l9 13l8 14q4 6 6 8l3 3l3 2q5 3 6 5l2 5l2 4q2 4 4 4l3 -1l2 -1q2 0 3 3q2 2 2 4q0 1 -2 3v2l-1 2q0 2 4 4l3 2l2 1l2 4l2 4q6 10 20 19l2 1l2 2q2 2 4 2q1 0 2 -1l1 -2q0 -2 -3 -4l-2 -1l-1 -2l-3 -2l-3 -2q-3 -4 -3 -6
q0 -3 2 -3t6 3l5 5l5 6q6 8 10 11l5 4q2 2 4 2l2 -1h1l2 -1l2 1l3 4l8 8q4 4 8 7q4 2 13 5l7 3l6 3l13 7l14 8q16 8 26 15q14 9 19 16q5 6 13 22q8 17 18 31q5 10 13 25l6 12l7 12l7 14l7 14l3 7l4 6q4 8 4 14v10l-1 9q0 9 6 19l6 8l5 8l9 12l9 12q13 16 18 26l3 5l3 5
q4 8 8 14q12 16 23 16q9 0 17 -7q18 -15 17 -31q0 -6 -2 -14q-2 -5 -5 -12l-8 -15l-8 -15q-2 -6 -5 -13l-4 -11q-6 -12 -12 -22l-7 -12l-5 -13q-7 -16 -13 -25q-21 -30 -33 -55l-2 -3l-2 -4q-2 -4 -2 -7t3 -3q4 0 12 7l7 6l3 3l3 2l25 22l24 22q17 15 47 48q9 10 23 24
l25 23l10 12l10 12q4 4 7 4q1 0 3 -2v-6q0 -19 -5 -36q-4 -12 -11 -25q-7 -12 -20 -27q-8 -10 -23 -25q-9 -9 -20 -21l-9 -11l-10 -12q-25 -27 -54 -47q-12 -9 -27 -21l-26 -21l-11 -8l-12 -8q-16 -11 -22 -17l-4 -3l-4 -4q-5 -5 -8 -10l-7 -13l-6 -14q-8 -16 -14 -26
q-9 -14 -13 -18q-3 -2 -5 -6l-3 -9l-2 -6l-1 -7q-1 -3 -4 -5l-4 -4l-2 -1l-2 -1q-2 -2 -5 -6l-4 -7l-5 -6q-6 -8 -11 -12l-4 -2q-3 -1 -4 -3q-1 -1 -2 -4l-1 -5q-1 -2 -3 -4l-1 -2l-3 -1l-3 -5l-4 -5l-4 -3l-5 -4l-3 -5l-2 -6q-2 -5 -8 -10l-10 -9l-9 -8l-10 -8
q-11 -10 -20 -15q-23 -11 -29 -11l-6 1l-6 1q-2 0 -7 -1l-3 -1h-5zM-163 -232q4 2 8 6l3 2l2 2q16 13 37 40q19 24 36 42q18 20 31 41q2 5 5 9l5 6q5 7 10 16q3 5 3 8q0 2 -2 2q-2 1 -6 -2l-11 -8l-11 -9q-46 -33 -65 -53l-6 -6l-6 -6q-9 -9 -12 -13q-11 -12 -19 -23
q-8 -10 -13 -24l-4 -7l-4 -8q-4 -9 -4 -15q-1 -8 5 -8t18 8z" />
    <glyph glyph-name="k" unicode="k" horiz-adv-x="337" 
d="M50 6l-3 4l-4 3q-7 5 -10 12q-7 18 -7 35q0 20 9 38l8 18l8 18q10 21 21 33q5 7 6 10q3 10 6 14l4 7l4 6l5 4q3 3 4 7l1 6q0 6 1 9q1 1 2 3l2 5q4 6 6 7l2 1h3q3 0 5 2l2 1l1 2q0 3 -1 3l-1 -1h-1q-2 0 -3 2q-1 1 -1 3t4 6q1 1 3 2q2 2 3 2q2 0 3 -1l2 -1l1 -1l2 1l1 2
l-1 5v6q0 7 3 10l3 3q1 1 2 1q2 0 2 -2l-1 -5l-1 -4q0 -2 2 -2t3 3t1 6q0 2 2 4l2 1l1 1q3 3 3 9l-1 8q0 7 5 11q13 14 17 25q3 11 7 15l4 6q3 4 6 6l6 3l5 4q3 2 5 8l2 5l2 4l6 14q4 8 8 13l6 7l5 8q7 9 10 16l2 8l3 7q3 9 7 15l6 7l6 7q9 9 12 14q23 35 42 52l4 3l4 4
q8 5 10 9l5 6l5 8q6 8 11 12l9 10l10 11q13 13 24 13q6 0 13 -4q19 -10 19 -30q0 -5 -2 -13l-2 -7l-1 -7q0 -6 -4 -13l-4 -6l-3 -6q-3 -5 -7 -14q-2 -4 -5 -7l-6 -7q-4 -5 -9 -15l-5 -8l-4 -7l-11 -14q-6 -8 -10 -14l-7 -14l-9 -14q-2 -2 -6 -5l-4 -2l-3 -3l-5 -6l-5 -7
l-9 -13q-6 -7 -10 -12l-14 -13l-13 -13q-30 -36 -48 -63l-10 -15l-9 -16q-3 -5 -11 -14l-5 -8l-5 -7l-2 -3v-3q0 -1 2 -1t6 2q4 3 7 5q6 5 14 14l13 16l10 10l11 11q13 12 24 21q32 24 57 24q15 0 28 -9q17 -10 22 -25q1 -5 1 -11v-30q0 -15 -11 -31l-5 -5l-5 -6l-4 -8
l-2 -7q-7 -15 -23 -30l-15 -13l-14 -12l-14 -11l-14 -10l-8 -3l-8 -3q-11 -3 -16 -7q-9 -7 -9 -18l1 -5l1 -7q1 -9 7 -16q6 -8 15 -8q7 0 16 4l7 4l7 4q15 8 34 24q26 23 58 60l12 14l12 16q15 18 27 27l3 2l2 3q3 3 6 3t5 -2l3 -5q2 -5 2 -11q0 -17 -3 -25q-6 -15 -19 -31
l-11 -15l-12 -14l-13 -16l-13 -15q-15 -17 -28 -29l-13 -12l-14 -12q-16 -13 -30 -21q-32 -18 -67 -18q-12 0 -30 11q-18 12 -29 29q-8 13 -13 31q-3 9 -4 19l-1 6v7q0 8 -1 12q-2 4 -4 6q-3 1 -5 1q-3 0 -7 -2q-3 -3 -6 -7l-12 -15l-12 -15q-7 -9 -20 -32l-9 -16
q-6 -9 -11 -16q-1 -1 -3 -5l-4 -6q-5 -8 -10 -8q-2 0 -7 4zM220 165q29 15 47 29q9 7 20 20l10 11l9 11q8 9 15 23q8 14 8 21t-5 7q-6 0 -17 -9q-4 -2 -8 -6l-3 -3l-2 -2l-4 -4l-5 -3q-5 -5 -8 -9l-6 -8l-7 -7l-7 -9q-4 -4 -8 -7l-4 -2l-4 -1q-5 -2 -8 -5l-8 -8l-7 -9
q-10 -12 -16 -17l-4 -5q-2 -3 -2 -5q-1 -3 4 -5q3 -1 7 -1q6 0 13 3z" />
    <glyph glyph-name="l" unicode="l" horiz-adv-x="220" 
d="M89 26q-19 21 -25 50q-3 13 -3 28q0 12 2 27l2 13l2 14l4 15l3 5l3 5q2 4 4 12l1 6l2 5l11 27l6 13l7 14q8 17 12 27q3 10 11 22q6 9 10 23q2 6 8 15l4 7l5 7l2 6l3 8q3 9 6 13l6 10q4 5 7 8l3 3l4 3l2 5l2 6l1 2l2 1q1 2 2 2l3 -1h2l3 1l2 2q5 5 5 8q0 1 -1 3l-1 1v4
l2 4q2 5 6 10l7 10l10 12l11 11l10 11l9 11l9 13l9 12q4 4 10 7l5 3l5 3l4 3l5 4l6 6q2 3 4 5q4 4 8 7q2 2 8 7q7 5 9 6l12 8l12 7q13 8 27 8q26 0 41 -22q11 -17 11 -33t-6 -36q-4 -14 -12 -33q-11 -25 -28 -52q-5 -9 -16 -24l-17 -23q-22 -32 -71 -92l-19 -23
q-11 -13 -19 -21q-9 -9 -22 -21l-23 -20l-22 -20q-13 -11 -24 -18l-11 -7l-12 -7q-7 -6 -11 -20l-3 -11l-1 -12l-1 -9l-1 -9q0 -12 5 -20q6 -9 14 -9l8 1l8 3q11 4 25 14l11 8l11 9q18 13 43 40l36 38q20 23 35 41l7 11q5 6 9 10q3 2 5 2t4 -3q1 -3 1 -7q0 -6 -3 -15l-2 -7
l-2 -7l-3 -14l-3 -13q-3 -12 -13 -25l-9 -11l-9 -11q-20 -23 -41 -45q-44 -47 -86 -72q-26 -15 -51 -15q-24 0 -43 22zM197 255l4 5l4 4q5 5 5 6q21 19 51 57l23 29q14 17 22 30l24 35l25 35q13 17 24 37l6 8l5 9q6 11 6 19q0 7 -6 7q-7 0 -21 -14q-5 -4 -9 -10l-4 -4
q-1 -2 -2 -3l-10 -14q-6 -9 -12 -14l-6 -6l-7 -6q-9 -7 -13 -12l-11 -15l-10 -15q-7 -8 -10 -13q-2 -4 -6 -7l-7 -7q-4 -4 -7 -13l-3 -7l-4 -6q-4 -7 -11 -16l-12 -16q-8 -11 -19 -32l-8 -16l-9 -16l-1 -2l-2 -3l-3 -7q-5 -11 -5 -15t3 -4q4 0 16 12z" />
    <glyph glyph-name="m" unicode="m" horiz-adv-x="462" 
d="M355 7q-15 9 -18 23l-2 6q-2 4 -2 6l1 3l1 3q2 3 2 5l-1 4v4q0 4 2 10l2 5l1 4l-1 4q-1 2 -2 2q-2 0 -4 -4q-1 -3 -1 -6t-2 -3q-5 0 -5 6q0 2 1 7l1 3l1 2l1 3l1 4q1 5 3 7l2 1l4 1q4 1 4 3t-4 5q-3 3 -3 6q0 2 4 9q11 22 19 34l1 2l1 2l3 6q5 8 5 11q0 2 -2 2t-6 -2
q-6 -3 -16 -12l-7 -7l-7 -7q-5 -5 -12 -15l-6 -8l-7 -8l-27 -29q-15 -17 -26 -31l-12 -15q-7 -8 -13 -14l-5 -6l-4 -6q-6 -8 -12 -10l-3 -1l-4 -2q-4 -2 -8 -2q-3 0 -8 3q-4 2 -7 5q-16 16 -16 34q0 9 4 19l4 9l5 8l12 19l12 20l2 3l2 5l6 9q6 12 6 18q0 5 -4 5q-3 0 -11 -7
l-5 -5l-2 -2l-2 -2l-13 -14l-13 -15q-16 -15 -29 -32l-13 -15l-12 -16q-15 -21 -29 -37l-7 -8l-8 -7q-10 -8 -19 -8q-11 0 -16 11q-3 4 -6 14l-2 7l-3 7q-1 4 -1 6l1 4v2l1 3l1 6q0 3 1 6l2 3l2 3l1 4l1 4q1 2 4 4l4 4q2 4 4 9l2 8q3 10 9 20l7 15l7 16l10 18l10 17l6 16
q4 11 7 16q3 6 11 17l6 9l6 9q9 12 17 22q2 3 4 7l3 7q1 3 7 9l3 4l4 5l3 7l3 7q5 7 14 7q15 0 31 -17q8 -10 8 -19q0 -6 -3 -14l-11 -20l-11 -20l-11 -19l-10 -19l-5 -10q-2 -8 -2 -11t1 -3q3 0 8 6q5 5 13 15l13 15l16 17l16 16l29 32l6 7l7 9q8 9 15 13l6 3l6 4
q10 7 16 7q17 0 34 -10q11 -7 11 -18q0 -9 -8 -22l-7 -11q-5 -7 -6 -9l-9 -17l-9 -16l-7 -11l-8 -12q-9 -14 -9 -19q0 -2 2 -2t9 7l6 6l2 2l1 2q14 14 30 33l14 17l15 17l7 6l8 6q10 7 14 12l13 13q9 7 13 12q8 9 17 16q12 10 20 10q2 0 6 -2l6 -2l7 -2q5 -1 7 -2
q7 -4 10 -13q3 -7 3 -16l1 -12l1 -13q0 -13 -8 -24l-7 -10l-7 -9l-3 -7l-3 -8q-1 -3 -4 -6l-5 -5q-6 -6 -12 -17l-5 -9l-5 -9l-10 -14l-11 -14q-5 -7 -10 -19l-4 -10l-5 -10l-2 -3l-1 -5q-3 -6 -3 -10q0 -7 8 -7t19 7l9 7l7 7q28 25 62 61l29 33l29 33l1 2l2 2l6 7q8 8 12 8
q3 0 3 -4v-6l-1 -2v-2l-2 -13l-1 -12q-2 -23 -9 -34q-9 -13 -28 -36l-28 -34q-16 -19 -29 -33q-34 -35 -68 -55q-28 -16 -50 -16q-13 0 -24 7z" />
    <glyph glyph-name="n" unicode="n" horiz-adv-x="338" 
d="M50 6q-4 2 -10 6l-4 4l-4 4q-11 9 -12 25v8q0 13 3 19l2 4l3 3l1 3v4q0 4 2 8l3 7l2 2l1 3l-1 3v2q0 3 2 6l3 2l2 2l4 6l4 7q6 13 14 24q4 5 9 9l4 4l3 4l2 2l2 2l1 3v3q1 2 3 3l1 1l2 2l1 4v4l2 2l1 2l1 3l1 3l2 5l4 5q4 7 6 11l1 5l3 5l2 1l4 2q4 2 4 5l-1 2v3q0 2 2 5
l2 2l2 2q9 11 15 23l2 6l1 5q1 8 3 11q3 5 9 7q4 1 7 6l3 5l2 4q3 4 7 7q5 4 11 4t15 -6q23 -16 23 -32q0 -4 -1 -9q-4 -11 -13 -27l-8 -12l-8 -13l-15 -25q-1 -1 -3 -5l-5 -6q-4 -9 -4 -13t2 -4q3 0 8 4l3 4l1 1l1 1l11 12l10 12q20 23 43 43l22 20q13 12 23 19l10 8
q7 4 12 6l6 2l7 2l6 4l6 3q2 2 6 2q8 0 20 -9q10 -7 17 -15q6 -8 6 -19q0 -6 -3 -14l-4 -6l-4 -7l-16 -25l-15 -25q-3 -5 -11 -16l-12 -17l-7 -15q-4 -9 -7 -14l-6 -10l-6 -9q-7 -11 -10 -20l-1 -3l-2 -4q-1 -4 -1 -7q0 -8 8 -8q5 0 12 3l6 3l5 3q12 7 25 18l11 10l11 11
q34 33 83 92l9 11l2 3l2 3l3 3q2 1 4 1t3 -5v-35q-2 -19 -7 -27q-6 -11 -18 -26l-11 -13l-10 -13l-19 -23l-21 -23q-23 -24 -45 -40q-19 -13 -34 -20q-21 -10 -38 -10t-31 10q-13 10 -15 20q-2 6 -6 14l-3 6l-3 7q-4 9 -4 19q0 5 1 11t3 8l2 2l2 1q1 0 2 -3t3 -3q1 0 3 2
q2 3 2 6q0 1 -1 5v5q0 5 3 8l4 2l3 4q5 6 5 13q0 2 -2 6l-1 3l-1 3q0 6 5 14l3 6l4 6q2 4 2 7q0 4 -3 4q-2 0 -5 -2q-5 -4 -12 -11l-12 -12l-21 -23l-21 -22l-22 -23l-21 -23q-24 -26 -40 -48l-3 -4l-3 -5q-5 -7 -9 -11q-10 -11 -18 -11q-4 -1 -6 1z" />
    <glyph glyph-name="o" unicode="o" horiz-adv-x="290" 
d="M59 28q-9 12 -15 29l-2 4l-1 4l1 4l2 5q0 4 -2 11q-2 8 -2 12l1 5v6l-1 6l-1 6q0 3 3 10l2 7q2 5 4 7l3 3l4 4q2 3 4 9l4 10l2 7l2 7q1 3 5 6l2 2l3 3l2 6l1 5q1 6 5 10l6 3l5 4q2 3 5 8l4 7q2 4 6 7l3 2l4 4l4 5l4 5l1 3l1 2l2 2l3 1q2 2 2 3t-1 2q-2 2 -2 3q0 3 4 5
l3 2l3 2l5 5l5 5l6 3l6 3l2 2l2 2l5 1l4 1q2 1 5 9q2 7 12 13l10 5l5 3l5 2q17 9 32 9q14 0 22 -1q12 -1 21 -4q10 -5 24 -21q14 -19 16 -33l1 -14q0 -10 -1 -21q-1 -6 -5 -17l-3 -9l-2 -9l-4 -17l-4 -17l-4 -9l-5 -8q-5 -8 -5 -11q0 -4 6 -4q4 0 11 2l5 2l4 1q7 3 15 10
l14 11l14 12l13 12q14 15 24 27l2 2l2 3l6 8q5 8 8 8q4 0 5 -4q2 -4 2 -10q0 -20 -6 -36q-7 -24 -29 -48q-34 -36 -69 -48q-21 -7 -43 -7l-7 1l-7 1q-3 0 -6 -4l-3 -3l-3 -3l-13 -18l-12 -17q-16 -18 -31 -30q-37 -28 -77 -28q-41 0 -63 30zM240 190l3 5l2 5q14 28 23 60
l2 6q1 4 1 7q0 8 -9 8q-6 0 -12 -4q-5 -3 -10 -7q-9 -10 -14 -27q-5 -15 -5 -30q0 -12 2 -20q3 -10 10 -10q4 0 7 7zM126 61l4 1q6 1 9 4l6 6l7 5q15 10 30 27l5 6l6 6q6 8 6 14q0 4 -3 8q-2 3 -6 7l-8 7q-3 4 -5 9l-4 11l-1 3l-1 4q-3 4 -6 4q-4 0 -9 -5l-4 -5q-2 -2 -3 -4
l-12 -19l-12 -19q-5 -8 -9 -24t-4 -27q0 -19 10 -19h4z" />
    <glyph glyph-name="p" unicode="p" horiz-adv-x="327" 
d="M-90 -202q-13 13 -16 27q-1 6 -1 11q0 12 7 26l7 12l7 12l4 6l2 5v7l1 4l2 3l1 2q2 3 2 5l-1 2v2q0 1 2 2l4 3l2 1l3 2q3 3 3 5v6q0 2 1 6l3 5q2 1 3 2h2l2 1q2 2 3 5l3 5l4 6q3 3 4 6l3 6l1 5l6 14l2 3l2 3q3 5 4 7l2 7l1 7q2 4 7 11l5 5l3 4l4 5l4 5l1 5l2 5q1 3 4 6
l5 6q2 2 2 4l1 2v2q8 18 15 29l5 6l5 6q6 7 9 12q2 5 4 12l2 6l2 6q2 5 8 12l4 5l4 6l3 5l4 4q5 4 8 9l1 4l2 5l3 4q3 2 6 8l6 14q3 8 7 14l7 12l6 14q9 17 14 26l4 4l4 5q2 2 4 6l1 3l1 3l1 2l2 4q2 4 3 5l3 1h4q4 2 11 10q5 7 10 16l4 7l3 7q5 7 10 12l4 3l3 2q4 3 4 6
l-1 3l-1 3q0 6 7 11q7 6 13 6t12 -6l5 -5l4 -5q9 -9 9 -19v-6q0 -11 -8 -27l-9 -16l-9 -16l-17 -29v-1l-2 -2l-2 -5q-3 -6 -3 -9t2 -3q4 0 12 9l7 8l6 6q14 15 27 24q22 14 40 14q13 0 22 -7q4 -4 8 -10l3 -6l4 -6l4 -5l3 -4q3 -4 3 -8v-5l-1 -4q-1 -6 -1 -10v-7l1 -8
q0 -17 -8 -41q-11 -33 -30 -65l-18 -26l-10 -15l-3 -3l-3 -4q-5 -6 -5 -9q0 -4 4 -4q2 0 8 3l4 3l3 2l14 11l15 11q23 18 50 49q26 30 48 52q7 7 18 23l2 4l4 4q4 4 7 4q2 0 4 -4q2 -3 2 -7t-3 -12l-1 -6l-2 -6l-3 -19q-2 -10 -6 -17q-7 -12 -20 -28l-12 -13l-11 -13
q-39 -49 -109 -94q-36 -22 -65 -30q-13 -4 -31 -6l-14 -1l-11 -2q-6 -2 -10 -2q-5 0 -13 3l-6 3l-7 2q-21 6 -30 13q-12 10 -22 24l-2 4l-1 3q-1 3 -3 3t-4 -3l-1 -3l-1 -2l-3 -8l-2 -7q-3 -9 -7 -15l-9 -13q-5 -8 -7 -14q-7 -17 -15 -26q-10 -13 -15 -26l-6 -17l-7 -17
q-7 -14 -16 -24q-5 -6 -9 -14l-2 -7l-3 -8l-4 -7l-4 -7q-6 -9 -8 -14l-2 -6l-1 -6q-1 -1 -3 -4l-2 -2l-2 -4q-7 -14 -16 -14q-13 0 -27 13zM178 77q4 4 9 10l4 4l4 4q8 9 18 23l16 25q19 30 31 52l13 25l13 26l4 10q2 5 2 10q0 4 -2 8q-2 5 -6 5q-3 0 -9 -5l-19 -19l-9 -9
l-10 -10q-24 -19 -39 -38l-10 -12l-11 -11q-14 -14 -21 -23l-8 -11l-10 -11q-10 -14 -10 -23q0 -6 4 -12l3 -4l4 -4l3 -6l3 -7q5 -8 11 -8q9 0 22 11z" />
    <glyph glyph-name="q" unicode="q" horiz-adv-x="318" 
d="M94 -244l-4 1l-5 1h-3l-4 -1q-2 0 -3 1l-1 3q-2 6 -7 10l-4 2l-4 4q-7 7 -7 20l1 11l2 11q3 21 18 51l11 19l10 20l1 2l1 5q3 6 5 6q1 0 3 -2q1 -2 2 -2t2 2t1 4l-1 5v5q0 2 1 4q2 2 4 3l3 2l3 3l3 3l4 4l3 5q4 6 4 10v2l-1 1q-1 1 -1 3t2 6l3 8l6 9l7 9l5 12q3 7 6 12
l8 10l8 10l7 10l5 12l1 2l2 3q1 4 1 6q1 4 -3 4q-3 0 -9 -6l-4 -6q-2 -3 -3 -4l-9 -9l-9 -10q-12 -12 -22 -20q-26 -22 -49 -22q-25 0 -39 23q-12 21 -12 45q0 12 13 37q2 4 3 8q2 6 2 9t-3 5q-2 3 -2 5q0 3 5 9l3 4q2 3 3 4l7 10l6 12l5 9l5 8l5 5l4 4q6 5 8 10q4 11 9 15
l6 6q4 3 6 6l3 5l3 5q3 7 6 10t9 7l10 7l4 4l4 5q4 5 8 8q2 1 6 1h4q4 0 6 1q1 2 3 7l1 3l2 4q9 10 23 16l9 3l8 3l8 5q6 3 9 4q7 3 15 3q14 0 29 -7q5 -2 10 -6l8 -8l4 -2l4 -3q5 -3 6 -6l2 -4l1 -4q2 -5 5 -5t8 4q6 3 10 3q8 0 21 -7q12 -7 16 -13q3 -6 3 -13q0 -5 -3 -12
t-6 -12q-3 -3 -6 -9l-2 -5l-2 -5l-7 -8l-6 -9q-4 -6 -8 -15l-7 -16q-3 -5 -7 -9q-6 -8 -13 -19l-5 -10l-6 -11l-12 -22l-12 -22q-21 -32 -50 -91l-11 -22l-13 -23l-14 -22q-8 -13 -12 -23q-10 -22 -22 -42q-14 -25 -23 -49l-3 -12l-4 -13q-5 -15 -10 -23q-4 -6 -14 -13
q-6 -4 -8 -4t-6 3zM132 93l5 4l5 3l6 5l5 6q34 29 53 48q10 10 23 27l11 14l12 14l11 13l12 14l4 5l5 7q6 8 6 13q0 11 -12 11q-8 0 -22 -7q-5 -2 -11 -5l-4 -3l-3 -1q-6 -5 -14 -12l-13 -13l-6 -5l-7 -5q-8 -6 -11 -11q-16 -19 -39 -53l-12 -16q-7 -9 -10 -16
q-11 -21 -11 -35q0 -3 1 -4q2 -3 5 -3q4 0 11 5z" />
    <glyph glyph-name="r" unicode="r" horiz-adv-x="272" 
d="M128 21q-13 15 -13 43v22q0 11 2 17q2 4 6 10l8 9q2 3 6 8l4 3l3 4l5 6q3 4 3 7l-1 3v1q-2 2 -2 5q0 1 7 11l14 20q9 11 16 19l9 7l9 8l2 4l2 3q2 4 4 6l3 4q1 2 1 3t-5 3l-4 1h-14l-5 -1h-3q-10 -2 -15 -8q-3 -4 -8 -11l-4 -6l-4 -5q-17 -25 -30 -40l-16 -17l-16 -16
q-10 -10 -18 -10q-9 0 -16 12q-2 5 -2 10q0 7 5 14l6 7l6 6l15 20l15 19l5 10l5 10l4 5l3 4q4 5 4 10v3l-1 4q0 2 2 5l3 5q4 8 4 19l-1 7v8q0 5 1 8l3 4l3 3l3 4l3 4q3 2 5 2q1 0 2 -1h2l2 -1l3 -1h3l4 -3l2 -2l5 -5l6 -4q6 -5 12 -5q3 0 9 3l6 2l5 1l5 1h4q4 0 8 2l4 2l5 3
h9q5 0 11 4q7 3 12 3q8 0 14 -7l5 -8l5 -7l9 -11l9 -12q10 -14 10 -26q0 -14 -12 -33q-10 -15 -31 -37l-17 -18q-10 -10 -17 -18q-14 -19 -29 -42l-14 -22l-2 -5l-3 -5q-4 -8 -4 -12q0 -7 6 -7q11 0 38 18q9 6 19 14q4 3 7 5l2 2l2 1q28 22 74 72l19 22l18 22l8 9q4 5 6 8
q3 5 5 5q4 0 4 -7v-17l1 -12v-11q-1 -12 -6 -21q-6 -11 -19 -25l-10 -13l-10 -11q-23 -26 -41 -44q-25 -25 -47 -43l-8 -6l-8 -7q-11 -7 -18 -11q-28 -15 -61 -16q-26 0 -44 21z" />
    <glyph glyph-name="s" unicode="s" horiz-adv-x="247" 
d="M88 -1q-8 2 -17 10q-7 6 -14 14q-17 19 -25 46q-1 3 -2 9v10q-1 7 -4 10l-5 4l-5 4q-5 4 -5 9q0 6 6 14l6 7l6 6q17 16 25 26q11 12 25 29l23 31q20 26 46 56q20 23 38 42q3 2 10 7l5 3l4 3l5 5l5 4q7 5 12 5q4 0 8 -2l4 -3l3 -2q2 -1 6 -2l8 -1q20 -6 20 -36l-1 -10
q-5 -41 -11 -68q-3 -15 -10 -36l-12 -35q-4 -13 -13 -35l-1 -2l-1 -3q-2 -4 -2 -8t3 -4q2 0 5 2l2 1l2 1q15 9 30 24l13 13l14 14l7 8l7 8q9 11 14 16l13 13q7 8 12 13q5 4 12 12l3 4l3 4q4 6 7 7l3 1q3 0 5 -3q2 -2 2 -5q1 -9 1 -15q0 -22 -26 -57q-19 -27 -51 -58l-15 -15
l-17 -16q-19 -17 -35 -29q-10 -7 -26 -15l-13 -7l-13 -7q-8 -4 -17 -8q-10 -5 -18 -8q-23 -8 -41 -8q-14 0 -23 3zM111 70q10 7 19 19q4 5 8 12l3 6l3 5q2 4 7 5q2 1 5 3q2 2 2 5v4l-1 3q0 3 6 8t6 8q0 1 -1 3q-2 2 -2 3l1 4l1 4q0 2 -2 4q-2 3 -2 5q0 3 2 9l2 5l2 5l3 10
l3 10l1 5l1 4q1 5 4 9q2 4 3 7q0 4 -3 4q-4 0 -11 -5l-7 -5l-6 -5l-8 -9l-7 -9q-7 -8 -18 -23l-18 -23l-10 -10l-11 -11q-12 -13 -12 -23q0 -9 3 -23q3 -12 6 -17q2 -3 8 -6t10 -3q6 0 10 3z" />
    <glyph glyph-name="t" unicode="t" horiz-adv-x="194" 
d="M61 31q-11 15 -12 25l-1 10v9q0 3 1 9t1 8t-1 5v5q0 11 8 17l3 3l4 4q1 2 1 3t-1 1l-1 1l-1 2l-1 1l-1 2l1 3l2 2v6q0 3 1 5q1 1 4 3l3 2l2 2l2 4l1 4q2 6 5 8l1 2l2 1q2 1 3 4l4 6l5 6q6 12 12 20l2 2l2 4q3 4 3 6q0 3 -1 3l-2 -1h-2q-2 0 -2 1q0 5 14 22l5 6l5 6
q6 6 6 7l2 5l2 4l4 3l3 4l3 5l2 4q3 7 6 10l8 12l8 11l4 6l5 7q6 8 6 14q0 3 -2 5h-9q-3 -1 -6 -1l-4 1h-4q-6 1 -13 6q-4 2 -13 4l-7 1l-7 3q-5 3 -8 10l-3 7l-2 6l-2 6q-1 4 -1 6q0 4 5 5l17 3l18 2l14 2l13 3q15 2 27 4h7l10 1q13 0 18 1q6 2 10 7l4 5l3 5q6 8 17 22
l9 10l9 11l8 11l8 11l2 5l2 5q1 3 4 7l4 6l4 6l3 5q4 7 10 7q4 0 11 -3l5 -3l4 -3q25 -13 25 -34q0 -14 -15 -33l-9 -12l-8 -14l-5 -5q-2 -4 -2 -6q0 -3 4 -4q4 -2 8 -2q6 0 21 3q3 1 9 1h12q3 0 7 -1l10 -1q11 -2 16 -6q3 -3 6 -10l2 -6l2 -5q3 -7 3 -10q0 -8 -7 -11
l-13 -4l-13 -4q-7 -2 -16 -4l-16 -2h-7l-7 -1l-6 1h-16l-9 -1l-6 -1l-5 -1l-6 -2l-6 -1l-2 1h-3q-3 1 -5 1h-3q-2 -1 -2 -2l1 -2l1 -2q0 -2 -7 -4q-11 -4 -20 -19l-7 -13l-6 -13q-6 -9 -17 -25l-9 -13l-9 -12l-8 -14l-8 -15q-10 -18 -18 -28l-8 -11l-8 -11q-9 -13 -15 -23
l-5 -14q-4 -9 -7 -14l-9 -14l-8 -15l-2 -4l-2 -4q-2 -6 -2 -10q-1 -9 9 -9q3 0 7 1l4 2l3 1q24 12 50 37l22 19l22 20q9 9 22 24l10 13l10 12l20 23q13 14 21 22q4 3 6 3q3 0 3 -6t-2 -17l-2 -9l-1 -9v-7l-1 -7q-1 -8 -4 -15q-5 -10 -18 -26q-24 -30 -42 -49
q-56 -59 -97 -86q-29 -18 -56 -18q-28 0 -46 24z" />
    <glyph glyph-name="u" unicode="u" horiz-adv-x="338" 
d="M52 18q-7 8 -13 25q-5 15 -5 25q0 13 6 31q4 13 11 29l12 24q7 15 11 24l2 6l2 6q3 7 6 10q13 14 20 23q5 8 14 23l7 12l7 11l4 5l4 4q5 5 7 9l3 6l2 5q4 6 8 10l5 3l5 2l3 2l3 2q4 2 6 2l2 -1h2q3 0 6 4t7 4q3 0 9 -6l4 -5l4 -3q6 -6 9 -10q5 -7 5 -13t-4 -13l-2 -6
l-3 -6l-7 -12l-7 -12q-7 -11 -18 -27l-10 -13l-10 -13l-18 -26q-10 -14 -17 -26l-1 -3l-3 -4q-4 -7 -7 -12q-8 -16 -9 -24q0 -7 6 -7q4 0 9 5l4 3l4 3l12 9q8 6 12 10l4 5q2 2 4 3l2 1l3 1q3 0 4 2l2 4l2 4l4 4l5 4q0 1 3 4l3 4q6 6 8 6h3l2 -1h1l1 2q2 2 2 4l1 2l1 3l1 1
l2 1q3 1 4 2l1 2v2q0 2 1 4q3 4 8 10l10 10l7 8l7 9l5 10q4 6 7 10q8 9 19 23l19 25l4 4l5 4q5 5 6 9l1 5l2 5l3 5l4 6l3 4l4 4q5 5 10 5l4 -2l3 -3q5 -4 7 -4t6 2l4 1h4q4 0 7 -2t6 -5q8 -8 8 -21q0 -24 -23 -55l-9 -11l-8 -11l-7 -13l-7 -12l-8 -13l-9 -11
q-12 -15 -16 -24l-7 -13l-6 -13q-6 -14 -6 -26q0 -10 7 -10q5 0 12 4l6 4l6 4q22 17 46 42q42 44 79 89q1 1 3 5l3 7q5 9 8 9q2 0 2 -4v-5q0 -5 3 -14q1 -5 1 -11q0 -28 -8 -40q-26 -40 -81 -95l-23 -23q-13 -14 -24 -22q-23 -18 -46 -23q-8 -1 -14 -1q-7 0 -12 2l-12 7
l-12 7q-11 5 -17 19q-5 11 -6 26v8l-1 6q-1 6 -5 6t-8 -6l-5 -6l-5 -7q-17 -23 -40 -44q-33 -29 -61 -29q-21 0 -36 16z" />
    <glyph glyph-name="v" unicode="v" horiz-adv-x="305" 
d="M84 2q-10 4 -12 11q-2 5 -3 6t-4 1l-3 2q-3 2 -6 8l-2 4l-3 5q-7 10 -7 27v14q1 6 5 16l4 8l3 8q1 2 1 6q0 2 1 5q0 3 1 4l2 2q1 1 1 2v3q-1 1 -2 1t-4 -10q-3 -9 -5 -9t-2 2l2 6l2 6l3 8l3 8l2 3l2 4q2 4 5 5l2 1l3 -2l3 -1q1 0 1 1t-3 5q-2 3 -2 5q0 1 1 3q2 1 3 1
t2 -2v-4q0 -3 1 -3t3 2l1 3l1 3l1 3q0 1 -1 1h-3q-1 0 -2 3v2l-1 2q0 1 3 6q2 4 2 8v3l-1 1v2q0 1 2 4l4 3q1 1 3 1q5 0 6 4v5q0 3 1 5l4 5l4 5q5 6 5 10v6q0 7 6 14l6 6q4 3 6 7l2 3l3 4q3 4 5 6l4 1l4 2q2 2 3 6l1 4l1 2l3 4l3 1l3 5l3 4q14 18 30 18q10 0 20 -10
q19 -16 19 -22q0 -5 -2 -9l-3 -4l-3 -4l-2 -5l-2 -5l-2 -3l-3 -2q-3 -3 -5 -6l-6 -13l-8 -13q-12 -18 -26 -43l-13 -24l-7 -14q-4 -8 -7 -13q-5 -6 -10 -22l-3 -10q-2 -6 -4 -11q-2 -4 -3 -9q-2 -5 -2 -8q0 -4 2 -6t4 -2q3 0 9 2l4 2l3 2l6 3l5 4l2 2v2q0 1 -1 1l-2 -1
l-2 -2q-3 -2 -5 -2h-1v1q0 3 6 6l5 3l4 2l4 2l3 2l2 2l2 2q1 1 3 1q1 0 2 -2q1 -3 2 -3q3 0 3 2l-1 3v2q0 3 3 5l2 1l2 2l2 4l2 3h5q2 0 6 6l2 5l3 4q2 3 4 8l3 8q2 3 6 7l7 7l3 4l3 3l4 2l3 1q2 1 5 5t4 6q2 4 4 12l1 6l1 5q4 16 9 28q11 26 25 46q18 26 39 37q7 3 15 3
q16 0 21 -12q2 -4 2 -11v-21q0 -15 -9 -34l-8 -17l-9 -16q-9 -15 -16 -22t-8 -10l-2 -4l-3 -3q-3 -2 -3 -5q0 -6 7 -11q6 -4 12 -4q17 0 38 16q9 6 21 20l10 12l9 11l8 10l9 10q1 2 3 4l1 2l3 3q4 5 6 5q3 0 5 -4q1 -3 1 -5q0 -4 -1 -8l-2 -8l-1 -9l-1 -9q-4 -27 -27 -54
q-44 -52 -98 -52q-24 0 -42 12l-4 4q-3 2 -4 2q-2 0 -4 -2q-3 -3 -9 -10l-5 -6l-5 -6q-40 -52 -82 -82q-10 -7 -26 -12q-17 -6 -29 -6q-11 0 -18 2z" />
    <glyph glyph-name="w" unicode="w" horiz-adv-x="439" 
d="M64 26q-14 18 -16 33l-1 11q0 9 4 26l2 8l3 7l1 8l1 8l3 7l4 8l2 3l2 4q3 5 3 8t-1 3t-3 -4l-2 -4l-1 -4l-2 -3l-2 -2l-2 1v1q0 4 3 14l3 6q1 3 1 4l4 6l4 7l3 6q2 3 4 5l2 1l2 1q3 2 3 5l-1 2v2q0 5 3 10l3 4l3 4l21 28l11 15l6 6q3 4 5 7l1 2l1 2q1 3 3 5t7 11q1 3 4 6
l5 4l6 6l5 6l5 6l5 6q7 7 13 7q7 0 16 -5q7 -5 14 -11q12 -12 12 -19q0 -9 -8 -20l-7 -9l-6 -9q-17 -24 -42 -66l-19 -34q-12 -20 -19 -34q-4 -8 -7 -17q-4 -12 -4 -18q0 -8 5 -8q3 0 7 3q4 1 7 4q5 4 12 13l6 8l5 7l13 13l12 13l11 14l2 3l3 3l1 4l1 3q0 2 3 3l4 3q3 2 6 7
l3 3l3 4q5 7 9 9q6 3 10 9l1 4l1 3l2 2l1 2l2 7l2 7l4 6l4 6q5 7 6 12q2 7 7 16l5 7l5 7q5 10 17 23q13 14 19 14q4 0 8 -1l5 -2h8q9 0 13 -3q10 -6 10 -17q0 -5 -2 -12q-2 -8 -8 -18l-10 -17q-13 -23 -19 -37l-18 -38l-16 -38q-7 -19 -11 -36l-1 -7l-1 -7q0 -12 7 -12
q6 0 12 9l5 7l5 7l7 7l7 7q8 9 13 15l8 14l10 12l11 14l12 14l4 5l5 4q1 2 3 7l1 8l5 18l5 19q9 29 37 62q7 8 16 14q11 7 20 7q12 0 22 -14q4 -5 4 -15l-1 -8l-1 -8l-1 -9v-9q-1 -11 -3 -18q-5 -14 -15 -31q-4 -7 -12 -15l-7 -7l-7 -7l-1 -1l-2 -3l-5 -5q-5 -7 -5 -12
q0 -11 15 -11q5 0 11 1q4 1 9 3q29 9 55 44q8 12 24 30l1 1v1l3 4q5 4 8 4t4 -3l1 -3l1 -3q2 -8 2 -17q0 -30 -16 -51q-26 -33 -52 -51q-29 -19 -63 -19q-19 0 -31 7l-6 4l-5 5q-4 3 -6 3q-3 0 -6 -6q-11 -17 -21 -26q-2 -2 -4 -6l-4 -6l-6 -8l-7 -6q-10 -11 -18 -18
q-11 -11 -22 -18q-26 -19 -49 -19q-15 0 -29 9q-15 11 -21 30q-5 14 -5 32v3l1 5q0 4 -1 7t-3 3t-5 -3l-2 -4l-2 -3q-2 -5 -5 -7l-6 -5l-6 -5l-12 -13q-7 -7 -10 -14q-10 -16 -27 -29q-12 -9 -25 -9q-23 0 -36 19z" />
    <glyph glyph-name="x" unicode="x" horiz-adv-x="322" 
d="M22 -15q-10 4 -10 9q0 4 4 8l1 1l3 3q3 3 3 4l-1 2h-2q-3 1 -3 2q0 2 2 5t10 5q4 1 7 6l3 5l3 4l5 5l6 4q8 5 11 9l3 4l2 4q4 5 7 7l5 3l5 2l6 4l5 5l11 8l11 8l5 4l5 5q1 2 1 4v3l-1 3l1 3l1 3q2 3 2 5q0 1 -2 4q-1 2 -1 4l1 5l1 5v2l-2 3q-2 4 -2 6t2 9t2 11q0 3 -1 5
q-2 3 -5 3q-2 0 -6 -2q-5 -3 -7 -3q-6 0 -11 9q-4 7 -4 13q0 13 9 24q8 10 17 24l9 12l8 13l19 25l4 6l3 5q5 6 9 10q4 3 12 6t12 3q13 0 23 -10l3 -4l4 -5q5 -6 5 -11q0 -6 -5 -15l-4 -7l-4 -7q-10 -27 -14 -62l-2 -12v-12q0 -6 2 -6t6 3l3 3l2 2l11 9q5 5 9 10l4 5l5 7
q6 7 10 10l5 2q3 1 5 3q2 1 2 4l2 4q2 4 6 8l8 7l7 6l11 9l11 9q12 12 17 22q2 6 5 11q4 6 9 8l4 2l5 2l4 4q3 2 5 3q5 2 14 2h10l4 -1h4q6 0 10 -3q5 -4 5 -7v-14q0 -5 -2 -8l-4 -4l-4 -4l-3 -6l-2 -6q-3 -5 -9 -10l-9 -9l-21 -22q-8 -8 -23 -22l-12 -10l-12 -11l-10 -8
l-9 -9l-4 -4l-3 -5q-4 -6 -8 -8l-4 -3l-3 -3l-5 -4l-4 -4l-4 -3l-4 -3q-6 -4 -11 -7q-3 -4 -8 -9l-4 -4l-5 -4l-5 -5l-5 -4q-6 -5 -6 -9q0 -11 9 -23q10 -13 22 -13q25 0 52 20q8 7 22 19l10 10l10 9q32 26 46 41q9 10 16 20q3 5 9 11l10 9q2 2 5 7l6 9q9 12 15 12q4 0 8 -7
q5 -9 5 -20q0 -17 -11 -35q-14 -22 -36 -45l-21 -21l-20 -21q-57 -54 -93 -74q-15 -8 -26 -12q-6 -2 -27 -3l-8 -1h-7q-8 0 -18 6q-7 5 -15 12l-4 5l-5 5q-5 6 -6 11l-2 5l-3 6q-4 6 -9 6q-4 0 -10 -5l-5 -5l-4 -3l-26 -22l-12 -9l-11 -9q-14 -10 -27 -15q-10 -3 -15 -3
t-10 3z" />
    <glyph glyph-name="y" unicode="y" horiz-adv-x="344" 
d="M-20 -305q-11 2 -15 6l-6 5l-7 6l-6 5q-4 3 -6 6t-5 9q-2 5 -3 10q-1 1 -2 4l-1 2l-1 1l-2 4l-1 4q0 2 2 4l2 2l1 3q0 1 -3 5l-2 3l-1 4q1 4 2 12l2 6l1 7q2 19 8 28q11 19 17 27q8 11 14 18q8 9 14 14l6 5l5 5q2 1 6 4l3 1l2 2l4 4l5 3l6 6l6 5l6 5q7 6 14 9q6 3 17 10
l9 5l9 5l10 5l8 5q12 8 18 11l11 4l11 5q14 6 21 11q11 8 24 29l6 10l6 9q7 12 9 20l2 5l1 5q2 5 5 8l6 7q4 5 6 8l1 3l2 4q2 5 2 7t-1 2q-2 0 -6 -4l-3 -4l-1 -1l-1 -1l-15 -18l-15 -17q-18 -21 -33 -33q-15 -13 -29 -21q-18 -10 -34 -10q-28 0 -40 28q-10 22 -10 41
q0 10 2 21q2 13 4 19q1 4 5 8l6 9l5 9l5 10q2 4 6 8l7 8l5 8l5 9l6 8l6 8l1 3l1 3q0 2 -1 2q-2 0 -6 -5q-4 -6 -6 -6h-1q-1 1 -1 3q0 7 9 16l7 7l7 8l2 3l2 2l4 2l3 2q4 2 4 6v4l1 4q1 4 5 9l3 3l3 4l16 21l6 8l6 9q7 10 14 14q5 4 10 4q7 0 15 -4q6 -3 13 -9q14 -10 14 -24
q0 -10 -7 -22l-6 -11l-7 -11l-11 -16l-11 -18l-5 -9l-6 -9l-4 -4l-3 -3q-5 -5 -7 -8l-11 -19l-11 -19l-6 -10l-7 -10q-8 -12 -12 -21q-1 -5 -1 -9q0 -8 5 -8q4 0 10 5q19 14 34 29l32 34q7 7 15 19l15 20q5 7 13 15l14 15l15 17l14 18q19 24 32 44q10 13 25 29q8 9 17 9
q4 0 11 -4q4 -2 11 -4l5 -1l5 -2q8 -5 8 -22q0 -16 -12 -37l-10 -18l-6 -8l-5 -8q-3 -6 -8 -17l-3 -10l-4 -8l-10 -19l-10 -19l-4 -9l-3 -10q-1 -5 -9 -14q-6 -6 -13 -18l-5 -9l-5 -10l-11 -21q-2 -5 -2 -6q-1 -3 2 -3q7 0 20 11l11 10q6 6 9 8q25 20 63 62q19 20 32 34l8 8
l7 8q8 11 15 17q6 5 14 15l7 8l6 9q4 4 7 4q4 0 4 -7q0 -3 -3 -7l-1 -4l-1 -4l-1 -7v-15q-2 -9 -8 -21q-10 -19 -27 -41q-33 -39 -63 -67q-50 -48 -82 -71q-15 -10 -33 -24l-32 -25q-12 -9 -19 -28q-3 -8 -11 -19l-7 -8l-7 -9l-11 -20l-10 -20l-13 -21l-13 -21
q-17 -28 -38 -54q-6 -6 -14 -13l-7 -5q-4 -3 -8 -7q-12 -13 -31 -25q-13 -9 -23 -13q-14 -6 -27 -6q-7 0 -15 2zM1 -233l6 5l5 4l11 10l12 9q14 12 21 21q17 21 19 22q8 9 16 24q5 9 17 26l10 13l7 12q2 4 2 5q0 3 -2 3t-7 -3q-5 -2 -10 -6l-10 -8l-6 -3l-7 -4
q-11 -6 -14 -9l-8 -8l-5 -6l-5 -5q-5 -5 -10 -9t-7 -5l-5 -4l-5 -4q-5 -5 -8 -10q-8 -14 -16 -23q-18 -25 -19 -45q0 -7 6 -7q5 0 12 5z" />
    <glyph glyph-name="z" unicode="z" horiz-adv-x="329" 
d="M-108 -274q-14 15 -15 32q0 1 -1 6v9q-1 14 -1 22q0 9 1 22l3 15q4 12 10 17l3 2l3 3l3 5l1 5q4 8 11 13q3 2 7 8l7 9q15 21 25 28l16 11l16 10q6 3 14 11l7 7l7 6q6 5 16 11l18 9q20 11 37 19l20 9l19 8l7 4l8 4q9 5 17 7l8 2l8 2l8 4q5 2 7 5q14 17 14 33q0 15 -20 15
h-32q-8 2 -12 9q-2 5 -4 15l-1 4l-1 5q-2 6 -2 8q0 11 8 18q6 5 16 10l9 4l8 5l17 11l16 12q12 8 36 21l18 11l17 10l9 6l10 5l3 2l4 2q5 4 5 7q0 4 -8 4l-12 -1l-11 -2l-21 -1h-10q-5 0 -10 -1q-10 -4 -21 -5l-9 -1l-10 -2q-8 -1 -14 -9l-5 -7l-5 -8l-12 -17l-13 -16
q-28 -35 -53 -58q-6 -6 -16 -6q-7 0 -13 8t-6 14t8 15l14 17l14 16q17 20 27 33q12 16 21 34q5 9 5 16v7l-1 7q0 11 9 16q4 2 10 3l9 2q5 0 13 1l15 2q19 2 27 4l20 4l18 5q21 4 31 5q4 0 12 -1l6 -1l6 -1l11 -1l11 -2q8 -2 17 -9q6 -6 13 -14q19 -23 19 -47q0 -10 -4 -18
q-2 -5 -10 -12l-6 -5l-5 -6q-5 -6 -13 -13q-7 -5 -16 -10l-9 -4l-9 -5q-12 -5 -18 -9l-8 -5l-8 -4l-8 -3q-4 -2 -8 -5l-7 -6l-8 -6l-7 -4q-3 -3 -5 -6t-2 -5q0 -4 6 -10l5 -4l4 -5q5 -12 7 -19l1 -4v-5q1 -5 3 -8q1 -2 5 -2q5 0 14 5l6 3l3 2l2 1q23 13 67 51q41 35 64 60
l29 31l1 2l2 2q3 3 5 3q3 0 3 -5q0 -3 -2 -10l-2 -5l-1 -4l-2 -10l-1 -10q-1 -12 -4 -19q-4 -7 -11 -16l-7 -7l-6 -7q-36 -40 -58 -63q-25 -24 -66 -50q-16 -10 -38 -20q-7 -4 -13 -8t-11 -17q-3 -8 -11 -15l-6 -6l-7 -6q-8 -7 -12 -12l-2 -3l-3 -5q-3 -6 -3 -8t1 -2t5 5
q4 4 6 4q1 0 1 -1t-1 -4l-1 -2l-1 -2l-10 -17q-6 -9 -12 -15l-3 -3l-3 -3q-3 -3 -6 -5q-1 0 -6 -1h-2l-1 -1q-1 0 -2 1t-2 1q-2 0 -4 -3q-3 -3 -3 -5q0 -1 1 -2l1 -1l1 -1l-1 -2l-2 -2q-2 -3 -2 -5t3 -3q2 0 2 -1q0 -3 -4 -9l-4 -5l-1 -2l-1 -1l-12 -17l-13 -16l-12 -15
l-1 -1l-2 -1q-1 -2 -3 -2l-2 2q-2 1 -4 1q-4 0 -10 -4q-5 -4 -5 -8q0 -1 3 -3q4 -2 4 -4q0 -5 -10 -13l-8 -7l-3 -2l-2 -2q-17 -14 -33 -25l-20 -14q-11 -7 -20 -12q-24 -12 -44 -12q-27 0 -56 30zM-49 -224l5 4l6 4l5 2l6 1l6 5l6 4q22 17 47 41q48 44 88 91l2 3l4 4
q5 7 9 11q12 16 12 22q0 4 -5 4q-4 0 -10 -3l-5 -2l-4 -2l-15 -8l-15 -8q-46 -26 -96 -73q-29 -28 -42 -51q-6 -11 -15 -33l-2 -3l-1 -3q-2 -4 -2 -7t2 -5q2 -3 4 -3q3 0 10 5z" />
    <glyph glyph-name="braceleft" unicode="{" horiz-adv-x="297" 
d="M135 -11l-7 7l-9 6q-10 8 -14 14q-13 19 -13 44q0 8 2 22l3 10l1 5l1 3q2 10 7 17l6 7q3 4 5 8l2 8q1 4 4 7q2 4 7 8l8 6q6 5 11 14l4 8l5 8l12 18l13 18q10 14 17 26l5 10l4 10q5 9 5 17q0 4 -2 8l-4 8l-6 7l-6 8q-7 9 -7 17q0 12 14 18q4 1 11 3l6 1h5q10 2 19 9
q6 6 13 16q3 4 5 7l4 4q4 5 8 12l12 21q7 12 12 21l4 11l4 11q5 13 10 21q5 7 13 23l6 12q3 7 6 11l9 18l8 17q9 19 23 30q20 17 42 17q13 0 31 -12q6 -4 15 -12l8 -7l10 -8q4 -3 8 -7q5 -5 7 -9q4 -6 4 -14q0 -5 -6 -10q-5 -4 -9 -4t-9 2q-1 0 -5 1l-6 3q-10 3 -11 3
q-4 0 -10 -3q-3 -2 -8 -5q-7 -5 -13 -16l-4 -8l-5 -9q-5 -8 -13 -23q-5 -10 -11 -24l-10 -20l-9 -19q-3 -7 -5 -16l-2 -6q-2 -4 -3 -9q-10 -24 -20 -36q-17 -20 -24 -26l-8 -6l-9 -6q-5 -3 -18 -7q-5 -2 -7 -4l-1 -2v-1q0 -3 1 -7l1 -4l2 -3l2 -6l3 -9q4 -11 4 -18
q0 -9 -14 -33l-4 -10l-2 -10q-3 -14 -8 -20q-10 -13 -25 -36q-4 -7 -15 -20l-8 -10l-7 -9l-11 -18l-11 -17l-6 -8l-5 -8q-6 -9 -6 -18t8 -21l6 -9l6 -10q2 -5 2 -8q0 -16 -25 -16q-16 0 -33 16z" />
    <glyph glyph-name="bar" unicode="|" horiz-adv-x="297" 
d="M41 -75q-14 13 -14 29q0 8 4 15q3 6 6 10q5 5 9 7q12 6 17 14l1 4v8l-1 4q0 2 2 5l1 2l1 3q0 2 -2 6l-1 7q0 4 4 9l4 4l3 4q9 12 11 20q1 6 4 10l4 3l4 4q6 4 11 12l7 14l11 26q7 16 12 26l8 12l8 12l7 16l9 15l17 27l17 27q19 31 31 54q4 10 14 26l14 26q2 4 4 14l2 7
l2 7q3 6 9 13l4 6l5 6l17 26l18 25q3 4 7 11l5 12q2 4 6 10l4 4l4 5l2 6l3 6q3 7 4 8l3 2l2 3l1 2v3q0 3 4 8q2 4 7 9l3 3l3 3q3 4 7 11l6 10l4 6l5 5q5 6 6 10l2 6l2 7q2 10 4 14q5 9 10 15q3 5 8 15l4 7l5 7l3 5l4 5q4 5 10 5q10 0 29 -20q9 -10 13 -16q6 -10 6 -16
q0 -11 -9 -25l-10 -15l-10 -14l-9 -17l-9 -17q-2 -4 -5 -12l-1 -5l-3 -6q-2 -4 -6 -9l-7 -8q-9 -13 -21 -34l-9 -18l-10 -18l-10 -17l-10 -17l-11 -19q-6 -11 -9 -19q-4 -8 -11 -21l-6 -10l-5 -11q-16 -34 -26 -49l-47 -78q-4 -6 -10 -20l-5 -10l-6 -10l-13 -21l-13 -21
l-11 -19l-12 -18q-9 -14 -23 -46q-4 -8 -12 -21l-7 -10l-7 -11l-11 -22q-7 -13 -12 -21q-12 -18 -25 -45q-3 -7 -8 -12q-8 -6 -18 -6q-15 0 -33 16z" />
    <glyph glyph-name="braceright" unicode="}" horiz-adv-x="279" 
d="M59 -17l-10 6l-11 8q-12 9 -18 16q-7 8 -9 13q-4 8 -4 14q0 8 6 15t13 7q4 0 9 -2h1l3 -1l6 -3q8 -3 10 -3q6 0 11 3l5 2l3 3q8 5 13 16l5 8l4 9q14 22 22 39l10 20l9 19l9 20l9 20q10 24 20 36q17 20 24 26l8 6l9 6q3 2 8 3l5 2l5 2q5 2 7 5l1 2v2q0 2 -1 6l-2 3l-1 3
q-4 10 -6 18l-2 7l-1 8q0 6 2 12l2 6l1 6l3 11l2 10q4 11 10 19q9 13 25 36l11 19l12 19q5 7 14 19l15 17l5 8l6 9q5 10 5 18q0 11 -10 24q-11 13 -11 23q0 16 24 16q17 0 33 -16l8 -7l7 -7q9 -9 13 -16q13 -23 13 -41q0 -12 -7 -38q-2 -10 -7 -17l-6 -7q-3 -5 -5 -9l-2 -7
q-1 -4 -4 -7q-2 -4 -7 -8l-8 -6q-4 -3 -6 -7q-3 -4 -7 -11l-7 -12l-12 -18l-13 -18l-11 -18l-12 -19q-2 -3 -3 -8q-2 -6 -2 -9q0 -4 4 -9l3 -5l3 -4q6 -9 9 -16q4 -10 4 -19q0 -10 -8 -15q-4 -1 -9 -3l-9 -1q-10 -2 -17 -9l-7 -8l-6 -8l-6 -8l-7 -8q-8 -9 -12 -16t-10 -22
l-5 -12l-5 -11l-6 -10l-6 -10q-8 -12 -12 -20l-4 -10l-4 -11q-4 -14 -8 -20l-10 -19l-10 -19q-12 -21 -26 -32q-8 -7 -23 -11q-6 -2 -12 -3q-5 -1 -8 -1q-19 0 -34 10z" />
    <glyph glyph-name="exclamdown" unicode="&#xa1;" horiz-adv-x="248" 
d="M253 223q-6 1 -9 3q-19 9 -27 23q-6 10 -6 28q0 8 5 20q5 10 10 16l7 7q5 4 9 7q4 2 10 3l5 1l3 1h18q3 -1 8 -3q4 -1 8 -3q6 -3 11 -12q4 -7 7 -15q3 -9 3 -17q0 -14 -9 -30q-1 -2 -4 -7l-2 -3l-2 -3q-4 -6 -16 -12q-12 -5 -19 -5q-3 0 -10 1zM-89 -282q-10 8 -10 16
q0 5 3 13q5 13 18 34q3 7 8 17l8 18l4 9l5 10l2 4l3 4q4 5 5 8l2 6l2 7q2 8 5 14l7 11l7 12l4 6l5 6l2 6l2 5l7 13l7 13q6 11 14 25q11 17 18 27l17 24q5 6 9 16l3 7l3 6q4 9 11 18l5 7q3 5 6 9t12 13l7 7q4 3 6 6q5 6 6 9q3 6 3 10q0 6 4 9q6 3 8 11q1 4 3 6l3 1l3 2l2 3
l2 3q2 5 5 7q4 2 9 5l3 1l3 2q8 3 17 3q5 0 12 -3t13 -8q7 -7 7 -12q-1 -4 -8 -15l-4 -6l-3 -6l-8 -12q-4 -6 -8 -13l-3 -8l-4 -7q-1 -2 -8 -10l-5 -7l-4 -6q-4 -6 -8 -14l-6 -15l-4 -7q-3 -5 -4 -8q-1 -5 -2 -8q-1 -2 -4 -5l-2 -2l-2 -3q-2 -2 -5 -8l-2 -5l-2 -5
q-9 -14 -12 -22q-5 -11 -17 -30l-10 -15l-8 -16l-16 -33q-10 -20 -19 -34q-4 -7 -8 -18l-4 -8l-4 -9l-8 -17l-8 -17q-1 -4 -5 -11l-8 -12q-10 -17 -12 -24q-6 -19 -12 -24q-7 -5 -19 -5q-21 0 -44 19z" />
    <glyph glyph-name="cent" unicode="&#xa2;" horiz-adv-x="367" 
d="M155 7l-6 3l-3 3q-7 6 -6 13q0 6 4 14l14 28l15 29l7 14l2 2l2 3q2 3 2 5q0 3 -3 5l-2 1l-3 2q-7 4 -13 10q-18 17 -29 49q-5 17 -5 38q0 11 1 24q2 13 6 31l2 8l2 7l3 6l3 6l3 6l4 5l1 5l1 6q1 7 5 14l7 13l18 25q9 14 19 24l8 10l7 9q12 16 23 22l6 3q2 2 4 5l1 4l3 4
l12 10l12 9l12 9l11 8q12 10 23 15l6 4l7 3l6 2l7 1l7 3l8 4q11 4 16 6l8 1l8 1l6 1h6q7 2 11 10l5 8l6 7q2 4 5 9l3 5l3 6l7 13l7 14l4 5l4 5q5 5 10 5q6 0 13 -4q5 -4 9 -9q4 -6 4 -12t-4 -14q-7 -14 -16 -26q-5 -6 -8 -11l-9 -14q-2 -4 -2 -6t3 -5l5 -5l5 -5q3 -5 8 -15
l4 -8l3 -8q3 -6 3 -15v-17q-1 -18 -6 -27l-4 -6l-5 -6q-6 -8 -8 -12q-7 -12 -17 -22t-24 -18l-13 -8l-14 -8q-15 -8 -28 -9q-40 -1 -40 17v4q1 2 2 5q3 4 9 8l5 3l5 3q12 10 24 22q25 22 40 46l4 6l4 8q5 9 5 13q0 6 -6 5q-3 0 -8 -1l-4 -1l-3 -1q-32 -8 -58 -24
q-10 -7 -23 -19l-10 -11l-11 -10q-27 -22 -46 -43l-4 -5l-5 -5q-5 -6 -7 -11t-6 -13l-8 -12l-3 -5l-4 -5q-5 -7 -6 -11l-3 -6l-4 -6q-3 -7 -5 -13l-5 -15l-3 -15l-3 -15l-2 -16l-1 -12q0 -31 26 -31q5 -1 12 2l12 4l13 4l6 3l7 3q12 3 26 12l14 10l14 10l11 9l10 10
q9 8 16 8q6 0 11 -8q4 -8 4 -17q0 -17 -10 -34l-4 -6l-4 -5l-2 -3l-3 -4q-3 -6 -5 -9q-4 -5 -9 -9l-5 -3l-5 -4q-4 -3 -11 -8l-12 -7q-13 -8 -29 -13q-16 -4 -31 -5h-7q-8 1 -14 -9l-7 -12l-7 -14l-8 -14l-9 -14q-5 -10 -13 -27l-2 -6l-4 -6q-4 -6 -10 -6t-13 4z" />
    <glyph glyph-name="sterling" unicode="&#xa3;" horiz-adv-x="413" 
d="M120 83l-6 7l-6 8q-17 22 -17 34q0 10 9 12q11 2 15 6q19 14 27 29l3 7l5 7l7 14l5 9l5 9q1 0 2 2l3 5q4 6 4 9t-4 3q-3 0 -17 -3h-2l-2 -1l-6 -1q-8 -1 -12 -1q-11 0 -11 12q0 5 1 11q4 9 9 17q6 9 13 12q8 4 21 5l10 1l11 2l11 2q6 2 10 4q2 1 4 5l2 2l2 3q11 10 14 15
t5 9q3 6 4 10l1 6v5l1 6q2 3 6 8l4 4l3 4l2 4l3 5l5 4l4 5q1 1 4 12q2 6 7 14l9 10l8 10l8 10l8 10l6 7l6 6l14 15q8 9 13 17q5 9 14 16l7 7l8 5l9 6l11 5q14 6 20 11t17 7h9l8 1q20 0 36 -10q13 -8 22 -20q3 -4 5 -13l2 -8q2 -5 4 -9q3 -5 4 -13v-12q0 -9 -1 -15
q-1 -9 -5 -14l-5 -8l-4 -9q-6 -10 -11 -16l-16 -19q-9 -10 -18 -17q-17 -14 -33 -16l-12 -2l-12 -2l-9 -3q-6 -1 -10 -1q-10 0 -10 9t7 15l6 4l7 5l7 7l6 7q12 13 25 36l5 8l6 8q6 9 9 17l4 12q2 8 2 12q0 7 -7 7q-4 0 -11 -3l-5 -4l-5 -3q-8 -4 -15 -13l-6 -8l-7 -7l-7 -7
l-8 -7q-9 -8 -14 -14q-5 -8 -12 -20l-12 -19l-7 -10l-7 -11q-8 -12 -14 -20l-12 -17q-6 -10 -10 -18l-2 -2l-2 -3q-2 -4 -2 -6q0 -3 3 -4q2 -1 6 -1h10l11 2q15 1 22 1l12 1q11 0 18 -3q8 -3 8 -11l-2 -9l-2 -10q-3 -20 -23 -20h-23l-11 -1l-11 -1l-21 -1l-21 -1
q-11 -1 -20 -16l-3 -7l-4 -6q-4 -7 -9 -18l-4 -9l-5 -9l-1 -2l-2 -3l-4 -8q-5 -10 -5 -14q0 -5 7 -5t18 2l8 2l9 2l39 4l20 1h28l7 1q12 0 18 -4q7 -3 10 -10l3 -6l4 -5q14 -16 14 -29q0 -18 -15 -18l-9 1l-9 2q-5 0 -13 -1l-15 -1q-20 -2 -30 -2l-15 1q-12 0 -20 -3l-12 -2
l-11 -3h-12l-13 -1l-22 -2q-12 -2 -21 -2q-17 0 -27 -4q-18 -8 -23 -8q-9 0 -17 7z" />
    <glyph glyph-name="section" unicode="&#xa7;" horiz-adv-x="486" 
d="M133 -92q-38 11 -59 57q-11 25 -11 44q0 16 8 29q13 23 45 35q6 2 13 2q17 0 17 -12q0 -3 -2 -8q-1 -3 -5 -8l-8 -7q-13 -12 -13 -21q0 -2 2 -5l1 -3l2 -2v-5l-1 -4q0 -9 8 -13q5 -2 12 -2l6 -1h6l16 1l17 2h26q11 0 19 2t20 6l10 4l9 4q6 2 15 11l6 6q4 3 8 5
q17 10 21 16l2 3l1 4q2 4 4 5l4 2l4 1q4 1 4 5q0 5 -23 13q-7 2 -16 5l-7 2h-2l-2 1l-19 5l-19 6q-31 9 -46 17q-27 14 -46 66q-5 12 -5 22q0 8 3 17l3 10l3 10q3 13 6 20q8 17 25 34l16 15l16 14q8 6 8 12q0 3 -4 15q-3 8 -3 16t4 23l3 10l2 11q3 12 7 20l7 8l6 9q3 6 8 10
l5 4l5 5l13 13l13 14q4 5 14 12l8 5l7 6q6 6 16 13l17 11q5 4 14 7l7 2l8 4q3 1 8 6l9 6q7 5 21 9l23 7q14 4 23 8q19 10 32 10l10 -1l9 -2q12 -3 19 -3q27 0 39 -10l8 -6l8 -6q9 -7 14 -14q11 -16 11 -39q0 -24 -12 -52q-15 -34 -54 -65q-19 -16 -34 -23l-9 -3l-10 -3
q-7 -3 -17 -3q-17 1 -31 7q-15 6 -15 13q0 8 12 15q42 27 66 60q0 1 2 3l4 5q6 8 11 14q13 19 13 28q0 8 -12 8q-6 0 -15 -2l-7 -2l-6 -1q-9 -2 -22 -7l-23 -8q-33 -11 -59 -28q-9 -6 -19 -15l-9 -7l-9 -8l-13 -9l-12 -9q-13 -10 -22 -19l-4 -4l-5 -5l-9 -10
q-11 -13 -11 -23t10 -14q3 0 9 -1l5 -1l4 -1l11 -4l11 -5q13 -5 36 -12l19 -6l19 -5q40 -12 53 -28q16 -18 16 -56q0 -33 -26 -63q-25 -29 -51 -40q-12 -5 -12 -10q0 -2 3 -7q13 -26 13 -46q0 -40 -32 -74q-14 -15 -43 -36l-22 -14q-12 -8 -22 -13q-24 -11 -71 -17l-25 -3
q-15 -2 -26 -2q-21 0 -41 6zM333 160q17 7 24 14q10 12 22 17q11 4 19 19q2 3 5 5l5 3q6 1 6 6t-11 10q-7 4 -18 7l-7 1q-4 1 -5 2l-26 8q-25 7 -42 14q-11 5 -17 5q-4 0 -8 -3q-5 -2 -11 -9l-5 -5l-5 -5l-4 -4l-5 -5q-6 -7 -11 -12q-13 -15 -13 -27q0 -16 13 -21l15 -4
l15 -4l18 -7l18 -6q8 -3 12 -3q5 0 16 4z" />
    <glyph glyph-name="copyright" unicode="&#xa9;" horiz-adv-x="693" 
d="M353 -7q-7 0 -14 1q-18 2 -29 6l-13 4l-12 3q-16 3 -25 7q-25 10 -46 32q-18 17 -31 39l-7 12l-7 11q-7 14 -9 25l-3 13l-2 14l-2 11l-2 12q-2 14 -2 20q0 16 2 37q2 26 7 44l6 23l7 23q8 27 21 43q5 7 12 21l5 11l6 11q5 9 13 20l14 18q15 21 24 32q19 22 38 35
q7 5 18 14l19 15q18 14 33 19q7 3 19 8l19 8l23 7l24 6q9 2 23 4l22 2q9 1 20 1h17l18 -2l20 -2l21 -3q28 -6 45 -19l8 -5l9 -6q12 -7 17 -11q20 -15 36 -39l7 -8l6 -8q7 -10 11 -18q10 -21 14 -45q5 -33 5 -53t-5 -38l-3 -20l-5 -20q-6 -23 -19 -51q-10 -24 -23 -40
q-5 -6 -13 -20l-5 -10l-7 -10l-13 -17l-13 -17q-7 -10 -18 -20l-10 -9l-11 -10l-17 -14l-18 -15q-20 -16 -37 -25l-21 -12l-21 -12q-26 -13 -44 -18q-10 -3 -24 -5l-25 -4l-11 -2l-11 -2q-13 -2 -23 -2h-8zM387 71l11 2l10 2q13 2 20 5l35 17q40 20 68 42q11 9 26 23l12 12
l13 12q11 11 23 29l10 15l10 16l11 16l10 17q12 20 17 36l2 8l2 9q2 11 4 17q7 17 10 34q2 7 2 15l-1 14v14q0 26 -6 37l-2 8l-3 8q-3 10 -8 14l-5 4l-4 4q-7 8 -12 11q-39 21 -70 21q-52 0 -69 -2q-8 -1 -22 -6l-12 -4l-5 -1l-5 -2l-9 -3l-8 -3q-10 -3 -17 -8l-16 -10
l-17 -9q-20 -10 -28 -18l-24 -27q-15 -17 -24 -26l-14 -15l-13 -15q-10 -13 -15 -26q-3 -7 -8 -15l-9 -15q-4 -7 -7 -18l-2 -10l-3 -9l-7 -15q-5 -9 -7 -15q-2 -9 -3 -20l-2 -19l-1 -19l-1 -18v-13l-1 -12q0 -7 1 -14q2 -6 6 -15l6 -16q5 -13 18 -24q12 -10 25 -16
q18 -8 33 -10q11 -1 22 -1q23 0 53 7zM376 142l-8 3l-7 4l-7 2l-6 2q-7 2 -10 4q-17 11 -23 32q-9 28 -9 43q0 9 5 35q2 8 6 17l4 8l4 9l2 8l3 7q3 8 6 14q13 20 25 35l12 14q7 9 13 14l7 5l6 6l5 6l7 7l13 11l15 11q18 13 32 17l10 4l10 4q12 5 21 5q6 0 16 -3l8 -1l8 -2
q20 -2 32 -15q9 -10 13 -28q2 -7 2 -14q0 -26 -26 -59q-31 -37 -62 -38q-15 0 -28 5q-14 6 -14 12q0 5 5 11l5 4l5 4q14 11 31 27q23 23 23 36q0 3 -2 3t-5 -1l-7 -3q-24 -7 -39 -19q-26 -21 -57 -54q-19 -20 -37 -57q-9 -18 -11 -31l-2 -6l-1 -7q-1 -8 -1 -14q0 -19 17 -19
q10 0 25 3q12 4 20 8l15 10l14 11l6 5l6 6q6 5 13 5t14 -6q6 -7 6 -13t-8 -25q-8 -18 -14 -25q-12 -16 -37 -27q-8 -3 -18 -6l-18 -4l-4 -1l-5 -1l-11 -1q-5 0 -13 3z" />
    <glyph glyph-name="guillemotleft" unicode="&#xab;" horiz-adv-x="463" 
d="M209 111l-8 8l-10 9l-17 17l-8 10q-4 6 -8 10q-8 9 -18 23q-3 5 -7 11q-3 4 -5 7q-16 26 -16 35q0 15 21 32l11 9l12 9q13 10 28 19q3 3 18 11l10 6q5 2 7 4l10 5l10 4q22 13 41 22q44 21 63 21q5 0 18 -9q9 -7 9 -16q0 -10 -14 -19q-16 -9 -24 -15l-3 -2l-3 -3l-8 -6
q-10 -7 -17 -10q-9 -4 -19 -13l-8 -7l-10 -8q-5 -3 -13 -9l-7 -6l-7 -5q-20 -15 -20 -20q0 -6 6 -18l5 -10l4 -9l6 -10l6 -12q8 -15 14 -26l4 -5l4 -6q6 -8 6 -11q0 -9 -12 -21q-11 -12 -20 -12q-16 0 -31 16zM395 108l-9 8l-9 9q-12 11 -17 17l-8 10q-5 6 -8 10
q-8 10 -18 23q-4 5 -8 11q-3 4 -5 8q-18 28 -18 36q0 12 24 31l11 8l11 9q13 10 28 20q4 2 18 10l10 6l8 4l10 5l9 5q22 13 42 22q44 20 62 20q6 0 18 -9q10 -7 10 -16q0 -10 -15 -18l-24 -16l-3 -2l-3 -3l-8 -5q-10 -7 -17 -11q-8 -4 -19 -13l-8 -7l-10 -7q-13 -9 -26 -20
q-20 -17 -20 -26q0 -4 5 -15q4 -8 10 -17q5 -7 12 -21l6 -13l7 -14l4 -5l5 -6q5 -7 5 -11q0 -9 -11 -21q-12 -12 -20 -12q-16 0 -31 16z" />
    <glyph glyph-name="registered" unicode="&#xae;" horiz-adv-x="365" 
d="M330 375q-17 5 -36 27q-23 25 -26 67v8l-1 7q0 6 2 13l2 10l3 10q3 12 7 20l9 17l11 17q13 19 27 30l8 6l7 7q10 7 17 10q23 11 41 15q17 3 34 3q31 0 49 -12q19 -13 30 -25q15 -17 18 -37q1 -9 2 -17v-12q0 -14 -7 -38q-6 -17 -12 -30q-4 -9 -12 -20l-14 -18
q-13 -16 -34 -31q-7 -6 -18 -11l-10 -4l-10 -5l-8 -3l-8 -2q-6 -3 -13 -4q-8 -2 -19 -2q-24 0 -39 4zM382 412q13 3 20 6q8 4 15 8l13 8q32 22 47 50q14 24 18 39q2 8 3 17v13q0 14 -4 25q-4 13 -23 22q-16 7 -32 7q-13 0 -24 -3q-19 -4 -32 -12l-6 -4l-7 -3q-8 -5 -13 -10
l-11 -12l-11 -13q-7 -7 -17 -25q-12 -22 -12 -37q1 -33 8 -51q12 -28 45 -28q10 0 23 3zM345 442l-5 4q-4 5 -4 9q0 3 1 6l3 6l3 7l3 6l14 21l4 6l4 5l8 13l3 5l4 6l2 3l3 3l2 2l1 3q0 1 -2 1l-3 2q-3 3 -5 6q-2 4 -2 10q0 3 1 5l4 1l5 2q4 2 5 2l10 2q6 1 9 1h10q6 -1 9 -2
q14 -3 23 -12q9 -10 9 -24t-9 -26q-8 -10 -22 -17l-6 -3l-7 -2q-8 -3 -13 -4l-3 -1q-2 0 -2 -2v-2l4 -5l5 -5q3 -4 9 -9l3 -1h2l2 1q2 0 3 -2q1 -1 1 -3q0 -3 -4 -7l-5 -5q-2 -2 -3 -2q-3 -2 -7 -2q-10 0 -17 9q-2 2 -8 11l-4 8l-4 7q-1 2 -2 2t-2 -3l-1 -2l-1 -1l-4 -7
l-4 -7l-3 -6l-3 -5l-1 -3l-1 -3q-1 -1 -3 -2q-2 -2 -4 -2q-3 0 -5 2zM404 508l4 2h2q11 6 21 14q8 7 11 15q2 4 2 6q0 6 -10 9l-7 1h-10l-3 -1q-4 -1 -4 -2t1 -3l2 -1q2 -2 2 -4q0 -3 -3 -8l-2 -3l-2 -4l-2 -3l-2 -3q-4 -5 -5 -7l-5 -8q0 -2 2 -2q3 0 8 2z" />
    <glyph glyph-name="degree" unicode="&#xb0;" horiz-adv-x="285" 
d="M299 395q-8 2 -16 10l-7 7l-7 7q-21 23 -23 56v13q0 6 1 12l2 9l2 9q3 10 6 17l9 15l8 14q11 16 23 26l14 11q8 7 15 9q20 9 35 13q15 3 30 3q27 0 43 -11q17 -11 26 -22q13 -15 16 -33q2 -7 2 -14q1 -5 1 -11q0 -12 -7 -33q-5 -15 -10 -27q-4 -8 -11 -17l-13 -16
q-11 -14 -29 -27q-6 -5 -16 -10l-17 -8q-9 -4 -21 -5q-9 -2 -22 -2q-21 0 -34 5zM351 450q7 2 11 4q5 2 10 5l7 5q19 12 29 30q8 14 10 23q2 5 2 10v8q0 8 -2 15q-3 8 -14 13q-9 5 -20 5q-7 0 -14 -2l-6 -2t-8 -3q-10 -5 -20 -12q-4 -3 -7 -8l-7 -7q-6 -7 -12 -18
q-5 -13 -5 -20q0 -20 5 -31q7 -16 27 -16q5 0 14 1z" />
    <glyph glyph-name="periodcentered" unicode="&#xb7;" horiz-adv-x="197" 
d="M123 196q-3 2 -7 5t-6 5q-7 8 -8 16v7l1 7q1 3 0 8l-1 9q0 7 7 16q3 4 6 7l4 4q6 5 17 9q10 4 16 4q20 0 35 -7q9 -5 12 -13q1 -2 3 -12q1 -10 1 -13q0 -7 -2 -11t-4 -7q-2 -4 -4 -7l-4 -6l-3 -5q-4 -5 -9 -9q-8 -6 -19 -9q-9 -2 -19 -2t-16 4z" />
    <glyph glyph-name="guillemotright" unicode="&#xbb;" horiz-adv-x="527" 
d="M118 104q-9 7 -9 16q0 10 14 18q16 9 24 16l3 2l3 2l8 6q10 7 17 11q9 4 19 13l8 7l10 7q14 9 27 20q19 16 19 25q0 5 -5 15q-4 9 -9 17t-13 22l-6 13l-7 14l-4 5l-4 6q-6 7 -6 11q0 8 12 20q11 13 20 13q16 0 31 -16l8 -8l10 -9l17 -17l7 -10l9 -10q8 -10 18 -23
q3 -6 7 -11q3 -4 5 -8q18 -28 18 -36q0 -12 -23 -31l-11 -9l-12 -8q-13 -10 -28 -20q-3 -2 -18 -10l-10 -6q-5 -3 -7 -4l-10 -5l-10 -5q-22 -13 -41 -22q-44 -20 -63 -20q-5 0 -18 9zM304 101q-10 7 -10 16q0 10 15 18l24 16l2 2l4 3l7 5q10 7 18 11t18 13l9 7l9 7
q5 3 14 10l7 6l6 4q20 15 20 20q0 7 -5 19l-5 10l-5 9l-6 10l-6 12q-8 15 -13 26l-4 5l-5 6q-6 7 -6 11q0 9 12 21t20 12q16 0 31 -16l9 -8l9 -9q12 -11 17 -17l8 -10l8 -10q8 -10 18 -23q4 -5 7 -11l6 -8q16 -25 16 -34q0 -15 -22 -33l-11 -8l-11 -9q-13 -10 -29 -20
q-3 -2 -17 -10l-11 -6q-5 -3 -7 -4l-10 -5l-10 -4q-21 -14 -41 -23q-44 -20 -62 -20q-6 0 -18 9z" />
    <glyph glyph-name="questiondown" unicode="&#xbf;" horiz-adv-x="365" 
d="M329 257q-3 2 -7 7q-3 5 -5 9q-1 3 -2 13q-2 9 -2 12q0 7 3 12q1 3 3 6q2 4 4 7t3 6l2 5q2 6 6 9q7 6 19 9q9 2 19 2t15 -4q4 -2 7 -5q4 -3 6 -5l4 -4l4 -4q5 -5 7 -8l1 -4l2 -5q2 -7 2 -12t-2 -10l-1 -4l-1 -4q-2 -7 -9 -16q-5 -8 -9 -11q-5 -5 -16 -9q-10 -4 -16 -4
q-21 0 -37 12zM3 -282q-16 6 -24 11q-13 7 -21 16l-7 9l-8 10q-9 11 -11 21l-3 11l-3 12q-3 15 -3 24l1 14l2 14l1 13l2 13q3 9 12 24l8 13l4 5l3 5q22 35 72 66l10 6l11 6l10 5q7 2 11 5l9 8l9 8q4 3 10 6l11 4q15 8 44 25l10 6l11 5q12 6 20 12q9 7 21 14l22 12
q29 16 43 28l2 2l2 2q3 4 3 7v4l-1 4q-2 4 -2 5q0 3 1 6l2 2l2 3q5 10 13 10q10 0 20 -13q14 -18 14 -43q0 -42 -47 -79q-44 -35 -78 -48l-5 -2l-6 -1l-5 -5l-6 -4l-4 -1l-4 -2q-5 -1 -7 -3q-2 -1 -4 -4t-3 -4v-6q0 -3 -3 -3q-16 -1 -26 -6h-1l-1 -1l-5 -2q-5 -4 -5 -6
q0 -3 2 -3l4 1l5 2q6 3 9 3t3 -1q-1 -5 -13 -12q-4 -3 -10 -5l-4 -2l-2 -1q-8 -3 -15 -7l-3 -1l-3 -1l-5 1h-4q-2 0 -7 -11q-5 -9 -15 -15q-27 -16 -38 -30q-6 -9 -12 -13q-9 -6 -14 -11l-5 -10l-2 -5l-3 -5q-4 -4 -4 -14q0 -11 8 -16q11 -6 22 -7l16 -2l16 -1q9 0 16 2
l10 4l9 4q12 4 20 7q16 5 43 21q18 11 39 30l10 8l10 7q12 10 19 18l3 3l3 4l6 8q9 10 16 10q10 0 18 -14q6 -10 8 -23q2 -12 2 -22q0 -16 -5 -24l-6 -8l-7 -8l-5 -9q-3 -5 -6 -8l-8 -7l-8 -8q-3 -3 -10 -5l-5 -3l-5 -2l-6 -5q-3 -3 -7 -5q-1 -1 -9 -7l-8 -6q-6 -4 -12 -9
q-4 -2 -14 -6l-8 -3l-6 -2q-5 -3 -7 -2l-4 1l-4 1q-2 0 -6 -6l-3 -4q-2 -3 -4 -3l-6 -2l-6 -1h-12q-8 0 -13 -2l-9 -4l-10 -3q-9 -2 -19 -2q-21 0 -43 8z" />
    <glyph glyph-name="gravecomb" unicode="&#x300;" 
d="M46 373q-3 2 -4 5q-1 2 -10 18q-4 7 -6 10l-6 9q-4 5 -7 9q-3 3 -7 9l-3 6l-2 5l-6 7l-4 6q-6 6 -7 8q-3 5 -3 9q1 5 5 10q8 10 16 15q16 10 26 10q14 0 24 -17q3 -6 8 -14l5 -10l4 -11q8 -14 11 -24l4 -9l3 -9q3 -10 2 -23q-1 -8 -10 -14q-6 -4 -12 -6q-7 -2 -15 -1
q-3 0 -6 2z" />
    <glyph glyph-name="acutecomb" unicode="&#x301;" 
d="M20 390q-8 6 -13 13t-5 12t5 6q1 1 16 13l9 6l9 7l8 8l7 8q4 3 13 9l7 5q3 2 5 3l8 7l5 5q7 7 8 9q5 3 9 3t9 -2q2 -2 7 -6l3 -3l4 -4q3 -3 11 -13q6 -7 6 -14q0 -4 -6 -12q-5 -8 -12 -13l-3 -3l-4 -4q-5 -6 -8 -8q-3 -3 -10 -5l-5 -2l-5 -2l-8 -7l-9 -6q-4 -2 -12 -5
l-7 -3l-5 -2q-14 -7 -20 -7t-17 7z" />
    <glyph glyph-name="uni0302" unicode="&#x302;" 
d="M98 371l-5 2l-5 3q-14 8 -20 15l-7 9q-4 6 -6 10q-2 5 -4 7q-2 3 -5 3q-2 0 -4 -2l-2 -1l-2 -1l-12 -7l-12 -8l-12 -8l-11 -8l-11 -6l-4 -3l-3 -3q-3 -2 -8 -2t-11 3q-6 2 -8 6q-6 8 -6 20t13 24l11 9l11 9l11 7l12 8l10 8q6 5 11 7q10 5 25 14l7 5q5 3 8 3q4 0 8 -4
l13 -10l4 -5l3 -6l7 -14q2 -5 8 -12q9 -10 13 -25l2 -7l2 -7q3 -9 3 -16q0 -20 -13 -20q-5 0 -11 3z" />
    <glyph glyph-name="tildecomb" unicode="&#x303;" 
d="M56 375l-4 2l-3 2l-7 2l-6 4q-6 4 -16 9l-16 8l-6 4q-4 2 -7 2q-8 0 -17 -2q-7 -2 -13 -8l-6 -5l-5 -5q-4 -4 -8 -4q-5 0 -8 5l-2 5l-1 4l-3 8l-2 7q0 3 2 7l2 2l1 4v6q0 5 2 7q1 3 6 8l4 3l3 3q20 21 48 21q4 0 11 -3q6 -2 14 -7l6 -3l7 -4l6 -2q5 -2 7 -3q2 -2 7 -3
l4 -1l3 -1q13 -4 21 -4h5q4 0 9 2l2 2l3 3l4 1l3 2l11 11q4 5 6 5q6 0 9 -2q4 -2 5 -6v-30q0 -9 -6 -19q-8 -16 -19 -24l-5 -4l-6 -4l-7 -2l-8 -2q-3 -1 -7 -1l-7 -1l-5 -1l-4 -1q-3 0 -7 3z" />
    <glyph glyph-name="uni0304" unicode="&#x304;" 
d="M11 388q-2 0 -8 1h-8l-12 1l-12 1l-3 -1h-5l-6 1q-5 0 -9 1q-18 7 -18 22q0 7 3 18q4 14 17 24q10 9 17 9q4 0 7 -3l2 -2l2 -1l6 -2h5l6 -1l4 -1q6 -1 9 -1h3l4 1q5 1 6 1h23l20 1l19 2h8l6 1q8 0 14 3l5 2l4 1q4 0 7 -5l1 -3v-3q0 -4 -2 -9l-3 -9q-6 -14 -12 -20l-8 -6
l-8 -6q-7 -6 -21 -8l-12 -3l-11 -3q-5 -2 -12 -2h-5l-5 -1h-18z" />
    <glyph glyph-name="uni0306" unicode="&#x306;" 
d="M19 379l-8 1l-6 2q-11 3 -21 16l-4 5l-4 6q-4 7 -4 13v13l-1 5v5q-1 3 1 8l3 7l5 12l3 7l3 7l3 5q2 3 4 5l4 2l4 1q3 0 6 -1q4 -2 5 -6l1 -5v-6l2 -9l2 -8q1 -9 4 -15q3 -4 6 -5q7 -3 14 -2l8 1l7 2q9 2 20 11l7 5l7 4q7 5 12 10q3 4 10 8l11 7q4 4 7 4q5 0 10 -10
q3 -5 3 -10q1 -3 -1 -8l-4 -8l-4 -9l-3 -10q-1 -5 -8 -12l-4 -4l-4 -4l-6 -7l-6 -6l-5 -4l-7 -3l-7 -4l-6 -4q-8 -5 -14 -7q-18 -5 -31 -6q-5 -1 -14 1z" />
    <glyph glyph-name="uni0307" unicode="&#x307;" 
d="M58 382q-7 5 -12 14q-2 4 -3 11t-1 11q2 44 23 62q6 5 20 11q15 7 23 7q15 0 23 -16q3 -6 4 -14q1 -6 1 -10q-4 -26 -23 -52q-19 -28 -37 -28q-12 0 -18 4z" />
    <glyph glyph-name="uni0308" unicode="&#x308;" 
d="M-28 395q-9 3 -11 11l-3 7l-3 6l-1 9q0 5 2 13q1 7 3 11l4 6l4 6l3 7q2 4 5 6l3 2l2 1q3 2 5 4q7 7 16 6l7 1l8 1q9 0 16 -4q3 -2 5 -5l4 -4q7 -9 7 -15q0 -7 -2 -11l-4 -7l-3 -7q-1 -2 -4 -5l-5 -5l-3 -6l-3 -6q-4 -7 -9 -12q-3 -3 -12 -7l-3 -2l-4 -2q-5 -2 -7 -2
q-7 0 -17 3zM90 393l-3 2l-4 3q-5 3 -6 5l-2 6q-2 4 -2 7l1 6l3 7v4l-1 4q-1 6 0 8q2 6 7 13l4 6l3 6q3 5 12 12q10 7 16 7q20 0 35 -8q9 -4 12 -12q1 -2 2 -10q2 -8 2 -11q0 -7 -3 -11q-2 -4 -6 -10q-12 -16 -20 -22q-19 -15 -35 -15q-10 0 -15 3z" />
    <glyph glyph-name="uni030A" unicode="&#x30a;" 
d="M58 375h-12q-7 0 -12 2q-9 3 -21 14q-8 6 -16 21l-3 7l-4 8q-3 8 -3 14l1 9l2 10l1 7l2 7q2 8 6 14q2 4 9 11l9 10q10 11 21 16q18 7 30 7q10 0 21 -5l10 -6l9 -5l10 -6q6 -4 9 -7q6 -6 14 -20q10 -16 10 -31q0 -7 -2 -14q-3 -13 -9 -23q-3 -4 -8 -9l-4 -4l-4 -4
q-9 -12 -23 -18q-13 -6 -28 -6zM54 417q4 0 10 2l5 3l4 2l5 3l5 3q6 3 13 9q7 7 10 17q2 7 2 15q0 9 -12 9q-10 0 -16 4q-3 2 -5 2q-3 0 -8 -3q-5 -2 -12 -8q-5 -5 -10 -11q-10 -11 -15 -28l-1 -5l-1 -5q0 -5 3 -6q3 -2 7 -2l8 -1h8z" />
    <glyph glyph-name="uni030B" unicode="&#x30b;" 
d="M-33 377q-3 0 -12 4q-8 4 -14 11q-5 5 -6 10q0 5 3 8q2 0 13 14l6 8l7 9l6 9l5 9q2 4 10 11l5 6l4 4l5 8l4 7q5 8 6 9q4 4 7 5q4 1 8 -1q3 -1 7 -4l3 -3l4 -3q4 -2 12 -10q7 -8 7 -15q0 -5 -4 -13q-3 -7 -7 -13l-3 -4l-2 -5l-6 -9q-3 -3 -8 -6l-4 -3l-4 -3l-6 -8l-7 -8
q-3 -3 -10 -7l-5 -3l-4 -4q-11 -9 -17 -10h-3zM34 381q-5 5 -6 10t3 8q1 0 12 15l3 4l3 4q4 5 8 8q5 4 9 9l3 5l3 4q3 4 10 11l5 6q3 3 4 5q5 5 8 11l4 8q4 10 4 11q4 4 7 5q4 1 8 -1q3 -1 7 -5l3 -2l4 -3q4 -2 12 -11q7 -7 7 -14q0 -4 -5 -12l-4 -7l-5 -7l-3 -4l-2 -4
q-3 -7 -6 -10q-2 -3 -9 -9l-5 -6l-4 -4l-7 -8l-6 -7q-3 -3 -9 -6l-4 -2l-4 -3q-5 -4 -12 -7q-7 -4 -11 -4q-14 0 -25 12z" />
    <glyph glyph-name="uni030C" unicode="&#x30c;" 
d="M29 369l-12 10l-4 5l-3 6l-7 14q-2 5 -7 12q-9 10 -12 25l-2 7l-2 7q-2 9 -2 16t4 14q3 6 7 10q5 5 10 5q3 0 6 -3q4 -4 12 -14l6 -8l3 -4l2 -3l7 -9q4 -6 6 -10q1 -4 5 -7t6 -3t5 2l2 1l2 1l12 7l12 8l12 8l12 8l3 2l3 3q5 5 7 6l4 3l3 2q4 3 9 3q4 0 9 -5q4 -4 7 -9
q6 -8 6 -20q-1 -12 -15 -24l-10 -9l-12 -9l-12 -7l-11 -8l-11 -8q-6 -5 -11 -7q-11 -5 -26 -14l-7 -5q-5 -2 -8 -2q-4 0 -8 3z" />
    <glyph glyph-name="uni0326" unicode="&#x326;" 
d="M-185 -159q-8 3 -11 7q-3 5 1 8q1 1 8 19l4 10l4 12l3 10l2 11q2 4 7 13l4 8q2 3 3 5l4 9l2 7q3 8 4 10q3 6 6 7q4 3 9 2q4 0 10 -1l5 -2l5 -1q5 0 17 -5q10 -4 13 -10q6 -9 -1 -26l-2 -5l-3 -7q-3 -9 -5 -13q-1 -3 -6 -8l-4 -4l-3 -5l-4 -10l-5 -9q-3 -5 -7 -11
q-3 -4 -7 -9q-9 -12 -15 -15q-5 -3 -19 -2q-10 1 -19 5z" />
    <glyph glyph-name="uni0327" unicode="&#x327;" 
d="M-198 -166l-9 3q-4 3 -7 5q-12 10 -12 25q0 7 4 12q4 4 7 4q4 0 6 -1l4 -3l3 -3l4 -2h23q10 0 27 6q23 10 36 27l2 3l2 3q3 4 3 7t-3 5l-2 1h-18l-8 -2l-8 -2l-10 -2l-10 -2q-5 -2 -9 -2t-9 3t-8 10q-4 6 -5 12q0 5 4 13l3 6l3 7q4 6 9 14q3 3 6 10l5 10l10 19l3 5l4 6
q5 6 9 6q14 0 24 -14q3 -3 3 -9t-12 -27l-2 -3l-2 -4q-3 -5 -3 -8q-1 -5 8 -5h8q22 0 36 -17q10 -12 13 -33q1 -8 0 -10v-4l-1 -5l-4 -10l-5 -9l-5 -8l-6 -7q-9 -11 -15 -16l-8 -4l-8 -4q-13 -7 -20 -9l-10 -1l-10 -1l-19 -1q-7 0 -21 6z" />
    <glyph glyph-name="uni0328" unicode="&#x328;" 
d="M-135 -154l-7 2q-8 1 -16 7l-6 4l-6 4q-6 5 -10 11q-13 21 -13 35q0 6 1 13l1 6l2 6q1 7 5 15l8 15q4 5 11 12l6 6l6 5l5 4l5 4l6 6l7 7q5 4 12 8l5 3q4 2 7 4q13 9 16 9q5 0 10 -9q1 -2 3 -4l3 -2q5 -2 6 -5q3 -7 0 -11q-2 -3 -7 -6l-8 -5q-11 -8 -25 -24l-6 -6l-4 -5
q-6 -7 -9 -14l-8 -13q-5 -8 -7 -14q-2 -3 -2 -6q0 -7 10 -7l6 1l4 1l8 2l8 3l4 3l6 4q7 4 11 4q7 0 10 -5q2 -5 3 -12l1 -10l1 -9q0 -9 -5 -14l-6 -4l-6 -6q-1 -2 -5 -4q-3 -2 -5 -3q-5 -3 -12 -5q-8 -2 -16 -2z" />
    <glyph glyph-name="uni0410" unicode="&#x410;" horiz-adv-x="528" 
d="M420 -28l-5 4l-5 5l-8 9l-9 10l-5 6l-5 5q-5 7 -7 13q-2 9 -2 19q0 22 8 46q13 38 25 63l7 14l7 14q0 1 2 4l3 6q4 8 4 10q0 3 -3 3q-4 0 -10 -7l-5 -5q-2 -4 -3 -4l-12 -13l-11 -13q-18 -23 -43 -49l-23 -22l-24 -23l-13 -13l-14 -14q-16 -16 -29 -26q-23 -18 -46 -25
q-23 -6 -40 -6q-13 0 -24 4q-28 10 -47 37q-21 28 -21 59q0 3 1 9q1 5 1 6l-1 5v4l1 8l2 8l-1 6l-1 6q0 3 1 7l1 4l1 4q4 20 9 34l2 7l2 8q3 11 4 15q3 6 13 22q7 10 15 27l7 14l6 14q3 5 9 12l4 6l4 5l8 13q4 7 8 12q9 12 15 23q3 6 9 12l5 5l5 6q4 3 9 10l3 6l4 5l9 11
l9 11l9 11l8 11l4 5l5 5l6 3q3 2 4 5l3 6l3 7q2 4 7 9q4 4 13 9l7 3l6 5q3 2 7 9l4 4l4 5l11 8l11 9l7 7l7 7l6 3l6 3l5 6q3 4 6 6l5 1l5 2q3 1 4 4l2 2l2 3q3 2 9 4l5 1l4 3l4 3l6 4q7 5 11 5q1 0 3 -1l1 -1h3q5 0 11 3q5 3 5 5t-3 4t-3 4q0 3 6 5l4 1l4 1l17 6q20 8 44 8
q37 0 83 -22q29 -13 46 -37l12 -15l13 -16q14 -19 14 -34q0 -11 -7 -24l-6 -12l-6 -12q-3 -5 -8 -11l-9 -11q-3 -5 -7 -13l-6 -12l-4 -7l-5 -5q-6 -8 -8 -13l-7 -15l-7 -16l-8 -11l-7 -12q-11 -17 -21 -36q-7 -15 -25 -50l-7 -14l-8 -13q-9 -17 -13 -28q-2 -6 -7 -14l-7 -13
l-7 -14l-6 -15l-5 -13q-3 -9 -5 -14l-10 -15l-8 -15l-6 -15l-6 -16l-5 -13q-3 -8 -4 -13v-6l-1 -5q-1 -7 -1 -11t1 -8l4 -5q5 -6 5 -10q0 -8 -9 -14q-8 -5 -15 -5q-6 0 -11 4zM177 61q4 2 9 6l15 10l15 10q18 12 28 21l26 24l27 24q32 29 52 49q114 119 200 234l23 30l22 31
q13 17 13 31q0 7 -4 11l-5 6l-4 7q-4 5 -11 7q-6 2 -14 2q-18 0 -36 -5l-12 -4l-13 -4l-7 -2l-7 -1q-7 -2 -13 -5l-15 -9q-9 -7 -15 -9q-15 -8 -26 -20q-12 -12 -28 -25l-29 -25q-20 -16 -49 -53l-11 -14q-6 -9 -12 -14l-5 -5l-5 -5q-3 -4 -12 -11q-5 -3 -9 -11l-4 -7l-4 -7
l-9 -11q-6 -7 -9 -12q-4 -7 -11 -17l-12 -16q-9 -13 -21 -35l-10 -18l-10 -17q-10 -20 -15 -38l-4 -10l-3 -11q-5 -12 -5 -21l1 -6v-11l-1 -4q-2 -6 -2 -12q0 -20 13 -28q3 -2 8 -2t10 2z" />
    <glyph glyph-name="uni0411" unicode="&#x411;" horiz-adv-x="509" 
d="M267 40q3 1 3 2q0 2 -1 2q-2 0 -2 1l1 3l3 2l6 2l5 1l2 1h2q3 1 3 2q0 2 -3 2q-2 0 -6 -2l-2 -1l-3 -1l-2 1l-1 2q0 2 4 4q4 3 11 5l12 5l24 10l23 9q10 5 32 21q3 2 10 6l9 4l5 4l5 5l5 5l5 4q5 6 8 11l4 8l3 9q3 11 3 18q0 11 -6 19q-11 16 -31 23q-14 5 -44 7h-27
l-26 -1q-17 0 -35 9q-6 3 -10 3q-8 0 -15 -13q-5 -8 -12 -17l-14 -16q-20 -23 -45 -74l-6 -9l-5 -9q-7 -11 -9 -19l-1 -5q0 -7 6 -12l6 -4l6 -4q19 -12 40 -12q11 0 24 1t15 1q3 0 6 -3q2 -1 4 -5l1 -2l1 -2q1 -2 3 -2q3 0 6 1zM429 527q-6 -11 -20 -32q-32 -48 -38 -58
q-7 -15 -27 -41q-18 -23 -32 -43q0 -1 -4 -6l-4 -4l-3 -5q-9 -12 -9 -18q0 -7 13 -7q7 0 17 2l8 2q4 1 5 1l10 2l100 -46q0 -3 2 -6q2 -2 6 -5l4 -3l3 -2q2 -3 5 -8l5 -8l8 -8l8 -8q9 -10 13 -18q10 -22 10 -43q0 -14 -2 -26q-2 -15 -7 -26q-4 -9 -12 -21l-14 -20
q-24 -33 -71 -59q-56 -32 -96 -40q-22 -4 -40 -7q-21 -4 -26 -4q-6 0 -17 3l-9 2l-8 2q-47 7 -75 36l-4 5l-5 6q-6 7 -11 7q-4 0 -6 -3q-4 -4 -10 -14l-9 -16q-5 -9 -15 -9q-14 0 -28 13q-13 12 -15 26l-1 10q0 18 11 42l10 20l10 19l6 10l5 11q6 14 10 21l5 7l6 6
q7 8 10 13l4 8l3 8l5 9l5 9q5 10 10 16l6 11l7 12q8 13 13 17l4 2l3 3q1 2 2 5l1 2l1 2q1 1 3 1l2 1l3 2l2 4l3 4l3 5l4 4l4 9l5 10q4 9 12 21l8 9l7 10l14 21l13 21l8 9q5 6 6 11l1 3l2 3l2 2l2 3l2 4l2 5l3 3l3 2q3 2 5 7l1 3l2 4l4 2l5 1l4 3l2 4l5 8l5 9q7 17 15 27
l-43 -2l-6 11l-8 12q-5 8 -8 15q-3 9 -3 16q0 12 11 19q8 6 20 5h4q3 0 5 1l4 3l4 1l4 1q6 2 8 3l5 1l5 1h4l3 -1l6 1l6 1l8 -1l8 -1q7 0 15 3l6 2l8 2q17 5 43 9l17 2l17 3q20 2 31 2q5 0 12 -1l5 -1l5 -1q3 0 5 1l4 3q5 4 9 4h13l6 1l6 -1l3 -1l3 -1l4 -1q6 0 9 -2
q7 -3 20 -6l10 -3l10 -3q22 -9 33 -28l4 -7l5 -7q6 -10 6 -17q0 -10 -9 -14q-6 -3 -18 -3q-8 1 -20 2l-17 1q-7 0 -13 -1t-11 -2t-14 -2h-42l-9 -2q-13 -2 -18 -2t-11 1l-4 1l-3 1q-3 0 -7 -1l-3 -1l-3 -1l-7 -1q-6 1 -16 -1l-17 -4h-2z" />
    <glyph glyph-name="uni0412" unicode="&#x412;" horiz-adv-x="509" 
d="M224 -35l-9 2l-8 2q-47 7 -75 36l-4 5l-5 6q-6 7 -11 7q-4 0 -6 -3q-4 -4 -10 -14l-9 -16q-5 -9 -15 -9q-14 0 -28 13q-13 12 -15 26l-1 10q0 18 11 42l10 20l10 19l6 10l5 11q6 14 10 21l5 7l6 6q7 8 10 13l4 8l3 8l5 9l5 9q5 10 10 16l6 11l7 12q8 13 13 17l4 2l3 3
q1 2 2 5l1 2l1 2q1 1 3 1l2 1l3 2l2 4l3 4l3 5l4 4l4 9l5 10q4 9 12 21l8 9l7 10l14 21l13 21l8 9q5 6 6 11l1 3l2 3l2 2l2 3l2 4l2 5l3 3l3 2q3 2 5 7l1 3l2 4l4 2l5 1l4 3l2 4l5 8l5 9q13 16 25 16q11 0 24 -16q7 -8 11 -16q5 -11 5 -19q0 -9 -6 -19q-7 -15 -27 -41
q-18 -23 -32 -43q0 -1 -4 -6l-4 -4l-3 -5q-9 -12 -9 -18q0 -7 13 -7q7 0 17 2l8 2q4 1 5 1q57 10 95 37q4 3 10 6l11 5l10 5l10 7l20 14l20 15q43 34 58 77q5 15 5 26q0 9 -5 18q-8 17 -33 29q-16 9 -47 10l-26 2l-26 2q-14 0 -35 -3l-34 -4q-23 -3 -52 -13l-25 -10l-25 -10
l-24 -9l-23 -10q-27 -12 -46 -24l-6 -4l-8 -5q-9 -7 -16 -13q-20 -17 -20 -31q0 -7 5 -13q8 -9 8 -15q0 -5 -2 -9q-3 -4 -8 -4q-7 0 -17 9l-8 7q-5 4 -6 6q-26 20 -26 45q0 19 11 38l6 10l7 10l6 9q3 5 6 8l6 3l6 4l8 6l8 6l3 3l2 4q4 5 6 6q3 3 7 3l4 1l4 1q8 2 20 9l9 6
l9 5l4 2l4 3q5 3 7 7l3 3l1 4q3 3 7 5q3 2 11 2l6 1l5 2q13 4 23 6q11 2 42 12q28 9 43 12q7 2 20 3h20q5 0 13 -1l7 -1h17l11 2q15 2 21 2q5 0 9 -2q8 -2 16 -1l4 1q6 0 13 -5l4 -2l4 -2h11q6 0 12 -4l5 -4l6 -4l10 -5l11 -5q18 -10 38 -31q39 -44 39 -102q0 -50 -19 -81
q-24 -38 -69 -73l-20 -15q-12 -8 -22 -12l-23 -11l-22 -10l-3 -1l-3 -1l-8 -4q-10 -4 -10 -9q0 -3 2 -6q2 -2 6 -5l4 -3l3 -2q2 -3 5 -8l5 -8l8 -8l8 -8q9 -10 13 -18q10 -22 10 -43q0 -14 -2 -26q-2 -15 -7 -26q-4 -9 -12 -21l-14 -20q-24 -33 -71 -59q-56 -32 -96 -40
q-22 -4 -40 -7q-21 -4 -26 -4q-6 0 -17 3zM267 40q3 1 3 2q0 2 -1 2q-2 0 -2 1l1 3l3 2l6 2l5 1l2 1h2q3 1 3 2q0 2 -3 2q-2 0 -6 -2l-2 -1l-3 -1l-2 1l-1 2q0 2 4 4q4 3 11 5l12 5l24 10l23 9q10 5 32 21q3 2 10 6l9 4l5 4l5 5l5 5l5 4q5 6 8 11l4 8l3 9q3 11 3 18
q0 11 -6 19q-11 16 -31 23q-14 5 -44 7h-27l-26 -1q-17 0 -35 9q-6 3 -10 3q-8 0 -15 -13q-5 -8 -12 -17l-14 -16q-20 -23 -45 -74l-6 -9l-5 -9q-7 -11 -9 -19l-1 -5q0 -7 6 -12l6 -4l6 -4q19 -12 40 -12q11 0 24 1t15 1q3 0 6 -3q2 -1 4 -5l1 -2l1 -2q1 -2 3 -2q3 0 6 1z
" />
    <glyph glyph-name="uni0413" unicode="&#x413;" horiz-adv-x="429" 
d="M279 527l-8 12q-5 8 -8 15q-3 9 -3 16q0 12 11 19q8 6 20 5h4q3 0 5 1l4 3l4 1l4 1q6 2 8 3l5 1l5 1h4l3 -1l6 1l6 1l8 -1l8 -1q7 0 15 3l6 2l8 2q17 5 43 9l17 2l17 3q20 2 31 2q5 0 12 -1l5 -1l5 -1q3 0 5 1l4 3q5 4 9 4h13l6 1l6 -1l3 -1l3 -1l4 -1q6 0 9 -2
q7 -3 20 -6l10 -3l10 -3q22 -9 33 -28l4 -7l5 -7q6 -10 6 -17q0 -10 -9 -14q-6 -3 -18 -3q-8 1 -20 2l-17 1q-7 0 -13 -1t-11 -2t-14 -2h-42l-9 -2q-13 -2 -18 -2t-11 1l-4 1l-3 1q-3 0 -7 -1l-3 -1l-3 -1l-7 -1q-6 1 -16 -1l-17 -4l-6 -1l-7 -1q-8 -1 -12 -3l-122 -6z
M400 513l-3 -5l-2 -5l-7 -12l-8 -12l-9 -13l-9 -14l-4 -5l-5 -6q-6 -6 -8 -10l-4 -9l-3 -8l-3 -5l-4 -5q-4 -6 -6 -10q-4 -7 -12 -19l-6 -10l-6 -10l-2 -5l-52 -117q-17 -3 -30 -23l-14 -21l-14 -21q-20 -31 -51 -87q-3 -4 -5 -12l-4 -13q-4 -12 -10 -22q-2 -4 -7 -12l-4 -5
l-4 -5q-3 -5 -6 -12q-2 -6 -3 -12l-1 -10l-2 -10q0 -5 -5 -9q-4 -4 -10 -4q-8 0 -24 13q-4 3 -7 8l-3 4l-3 5q-4 5 -11 19l-3 5l-3 4q-4 5 -5 10t-1 11q0 8 3 15v2l2 3q1 4 3 4t2 -2v-3q0 -2 1 -2q2 0 6 4t4 7q0 2 -2 6q-2 5 -2 7q0 5 6 16l5 10l5 9l2 3l2 4q4 6 7 11l2 5
l2 6q2 7 4 9l5 10l7 9q9 12 12 19l4 9l3 10q1 3 6 7l3 3l3 4q2 3 2 8q37 73 41 75l2 2l1 2q1 2 2 2t2 -2l1 -1l2 -1q1 0 4 2t4 3l2 3l3 3q3 6 3 9t-2 3q-1 0 -3 -1l-2 -2h-1q-1 0 -1 1q0 2 3 4q3 3 4 3h2l3 -1q2 0 4 3l2 5l2 4l2 3l1 3q2 4 4 6q8 6 8 7q0 2 -2 2l-3 -1h-3
q-2 0 -2 2q0 3 4 7l3 4l3 3l8 6q4 4 6 7l4 9q2 4 5 7l9 9l8 9l5 4q2 3 2 5t-2 3q-2 2 -2 4t4 6l2 2l2 3l13 22l7 11l5 11q4 7 4 11q0 3 -2 8l122 6q-4 -2 -7 -9z" />
    <glyph glyph-name="uni0414" unicode="&#x414;" horiz-adv-x="531" 
d="M239 -41l-6 2l-6 1l-5 -1l-5 -1q-3 0 -7 1t-7 1l-9 -1h-8q-10 0 -18 3l-8 3l-8 3q-10 4 -15 8t-9 11l-3 6l-4 6l-2 5l-3 5q-5 6 -10 6q-6 0 -11 -8l-4 -7l-3 -6l-2 -4l-3 -5q-3 -7 -5 -10q-6 -8 -17 -8q-6 0 -14 7l-7 6l-7 6q-15 15 -16 22q-2 7 -2 13q0 14 7 31l7 15
l7 14l8 18l9 18q11 21 20 34l10 12l8 10q11 13 17 24q3 6 3 10v3l-1 2l1 3l2 3l4 2l5 2q2 2 6 7l6 7l1 1l1 2l4 6q6 7 6 10q0 2 -2 2q-4 0 -7 -7l-4 -6l-3 -6q-3 -6 -5 -6t-2 2q0 3 4 10l3 5l1 2l1 1q11 19 29 31q3 2 4 5l4 6q1 3 4 5l3 2l3 2l2 2l2 2q2 3 2 8q0 7 7 15l6 7
l5 6l13 15l13 16q4 6 8 16l4 8l4 8q4 7 11 15l12 12q6 6 12 14l10 14q12 18 23 26q12 8 20 8q7 0 17 -7q11 -6 16 -14q4 -6 4 -20q0 -26 -10 -41l-10 -14l-11 -13q-14 -17 -20 -28q-7 -11 -21 -30l-21 -30l-11 -15l-11 -15q-11 -18 -20 -33q-20 -36 -39 -60q-16 -21 -35 -58
l-4 -7l-4 -5q-5 -8 -7 -13l-3 -6l-3 -6q-4 -8 -4 -13q0 -4 4 -8l4 -2l3 -2l6 -4l7 -3l5 -2l5 -2q6 -3 10 -3h4l4 -1q6 0 11 2l8 3l8 1l8 2l8 1l10 4l10 4q38 17 68 38q13 9 28 22l26 24l26 24q15 14 25 26l24 30l24 31q26 35 39 66l7 16l7 17q4 11 4 27q0 5 3 10l2 3l1 4
l2 12l3 8q3 10 4 16l1 14q0 27 -13 54q-16 35 -45 45q-42 14 -80 14q-29 0 -80 -10q-18 -4 -43 -14l-21 -9l-21 -9q-55 -22 -80 -38q-20 -13 -34 -26l-6 -6l-7 -8q-7 -9 -7 -17q0 -6 7 -15q6 -8 6 -13t-3 -9t-6 -4q-4 0 -10 5l-5 4l-5 3q-35 29 -35 57q0 6 1 13q4 17 15 33
l5 9l6 9q7 10 13 15l4 3l3 3q5 4 8 5q11 4 11 5l7 6l6 7q3 2 7 5l3 2l4 3l3 2q2 1 3 1l2 -1l2 -1l2 1l1 3q2 3 4 3l2 -1h2l4 1l4 2l7 6l7 5l5 3l5 4q6 5 11 7l7 3l7 2q16 7 21 7h6l7 -1q4 0 8 3l4 4l4 3l4 2l4 1q3 2 10 2l10 2q35 8 81 10l10 1l10 1l4 -1l5 -2q5 -3 10 -3
t10 3l4 1l3 1q2 0 8 -2l7 -1l7 -2q9 -2 14 -5l7 -4l7 -5l11 -7l10 -7q21 -13 28 -22q3 -4 7 -8l8 -6q11 -8 15 -13t9 -15l9 -16q6 -9 9 -16l4 -10l5 -9q4 -8 5 -24v-24l1 -6l2 -6q2 -7 2 -12v-10l-1 -10q0 -2 1 -8l1 -9q0 -4 -3 -8q-2 -4 -2 -6q0 -1 1 -5l1 -8q0 -8 -4 -20
l-3 -10q-1 -5 -2 -8q-2 -9 -9 -23l-6 -11l-5 -11q-4 -11 -9 -20l-1 -4l-2 -5q-3 -6 -6 -8q-10 -10 -12 -15l-4 -9l-3 -10l-5 -8l-6 -9l-2 -4l-3 -6q-4 -8 -6 -8h-2v1l-2 1l-2 -1q-1 -1 -2 -4l-4 -7l-4 -7l-12 -16l-14 -15l-5 -5l-6 -4q-1 -2 -2 -5l-1 -5l-2 -2h-5
q-4 0 -8 -4l-3 -4l-3 -3l-11 -10q-7 -6 -10 -11q-6 -7 -10 -12q-6 -6 -11 -10l-7 -4l-7 -3q-8 -4 -12 -8q-2 -2 -3 -4l-2 -5q-2 -5 -9 -8q-5 -1 -10 -6l-5 -4l-6 -4l-35 -16l-12 -7q-8 -4 -13 -6q-3 0 -6 -2l-6 -3q-3 -1 -8 -2h-8l-5 -1l-6 -2q-6 -2 -10 -2v-1z" />
    <glyph glyph-name="uni0415" unicode="&#x415;" horiz-adv-x="438" 
d="M76 -41q-28 13 -40 39l-3 6l-4 6q-5 8 -6 13l-3 6q-1 4 -1 8l1 8l2 7l3 17l4 15q4 18 11 31q2 5 8 12l4 5l4 6l7 14q4 8 6 11l3 6l3 5q4 7 7 10q4 4 8 11l3 6l3 6q3 5 6 11l2 6l3 6l3 5l5 6q6 7 6 11q0 6 -5 17l-4 8l-1 9q0 12 11 19q6 4 16 7l16 5l3 1l4 1q4 1 6 4
q2 2 3 7l2 3l1 4l4 6l5 7q5 8 8 13l1 2l1 4l3 9q3 7 6 7q1 0 1 -1v-3q0 -3 2 -3t5 5l2 4l2 2l12 15l2 2l2 4l3 6q3 2 9 5l3 2l3 1q4 3 4 5q0 3 -4 4q-4 2 -4 4q0 1 2 4l2 1l1 3l1 5l1 5q2 6 8 13l6 6l4 6q17 23 17 28q0 4 -4 9l-4 5l-4 4q-21 22 -21 40q0 27 29 33l30 6l5 2
h6q2 0 4 -2l2 -1l2 -2h5l10 1h5l4 1l6 -1h5q5 0 7 4l2 4q1 2 3 2l2 -1l2 -2q2 -2 4 -2q3 0 8 2l4 1l4 1q7 1 8 3l4 3l4 4q5 3 11 3q5 0 16 -1h17l6 1q6 1 6 4q0 1 -3 1q-7 0 -7 2t7 3h5l3 1l8 1h8q19 4 32 4q9 0 26 -1l13 -1h47q16 -2 30 -7q18 -5 24 -13q4 -4 6 -11l2 -6
l3 -6q4 -7 6 -12q3 -8 3 -14q0 -11 -12 -17q-4 -2 -10 -3q-5 -1 -9 -1q-6 0 -20 1h-10l-9 1l-12 -1h-11q-14 -1 -23 -1q-8 0 -22 -3l-11 -1l-10 -1l-15 -1h-36q-15 0 -33 -6l-8 -4l-9 -3h-10q-6 0 -9 -2q-5 -2 -10 -10l-5 -9l-6 -9l-6 -9l-7 -8q-8 -10 -12 -18
q-8 -15 -24 -39l-13 -19l-12 -20l-9 -15l-9 -15q-1 -4 -1 -5q0 -4 5 -4l14 1l14 2q26 3 42 4l17 1l18 1q8 0 17 -2l16 -4l4 -1q3 0 4 -1t2 -3l1 -2l1 -1q1 -2 5 -4l3 -1l3 -2l2 -1h2q2 -1 4 -3l3 -4l3 -4q5 -6 5 -10q0 -8 2 -15l2 -4v-4q0 -7 -6 -11q-6 -3 -14 -3q-3 0 -8 1
q-4 1 -8 1q-6 0 -15 -2l-8 -1l-7 -1q-1 0 -3 -1l-6 -2q-9 -2 -14 -2h-8l-3 1h-3q-7 0 -19 -3l-9 -2l-9 -1l-10 1q-8 0 -17 -3l-6 -2l-7 -1l-4 1h-5q-4 0 -9 -2l-8 -2l-10 -2l-10 -1q-34 -6 -38 -11l-4 -7l-4 -7l-7 -10l-8 -10l-11 -20l-11 -20q-3 -7 -12 -21l-7 -11l-7 -12
l-4 -9l-3 -10q-5 -12 -9 -18l-7 -10l-6 -11v-3q0 -4 5 -4t8 3l2 3l1 3q1 4 4 4t6 -3t6 -3l11 2l11 3l5 1h4q2 0 4 -2l2 -1l1 -2q5 -3 12 -3q6 0 13 1l6 2l6 2q8 2 12 8q4 4 8 4h3l2 -1h3q2 0 7 1q7 0 13 1q17 3 17 5t-4 2t-4 2q0 3 10 3q3 0 9 -1h8l17 -2h16q36 -1 54 -17
q10 -8 17 -20q8 -14 8 -25q0 -12 -12 -16q-5 -2 -11 -2l-12 -1q-16 0 -39 -4l-14 -1l-14 -2l-17 -2l-15 -3l-16 -4q-10 -2 -17 -2q-13 -1 -29 -4l-17 -4l-17 -4l-14 -3l-15 -3q-18 -6 -32 -9l-4 -1h-7q-10 0 -15 -2l-5 -2l-5 -2q-5 -2 -9 -2t-9 2z" />
    <glyph glyph-name="uni0416" unicode="&#x416;" horiz-adv-x="832" 
d="M530 358q2 3 4 7l2 5l1 3zM422 199l-1 -1l-10 -8q-9 -7 -18 -12q-10 -6 -16 -12l-17 -16q-12 -10 -14 -10q-3 0 3 7l3 4q2 3 1 3q-3 0 -13 -7q-10 -6 -15 -11q-1 -2 -1 -3t-1 -2t-20 -12l-15 -8l-15 -7l-9 -3l-9 -4q-4 -2 -9 -5l-9 -6q-4 -2 -9 -5l-9 -4q-7 -3 -16 -9
l-7 -6l-9 -5q-8 -5 -20 -11l-20 -10q-46 -23 -87 -33q-14 -4 -24 -4q-20 0 -26 14q-4 8 -4 20l1 11v11q1 8 12 18q15 15 29 15q6 0 11 -5l4 -4q2 -1 6 -1q6 0 18 4q11 4 22 9l12 5l12 5q15 6 23 11l20 10l19 11q28 16 51 27q10 4 24 13l11 7l12 7l24 14q14 8 24 15
q7 6 21 13l10 7l10 6q14 9 21 15q8 8 7 16l-1 4l-2 2q-4 4 -4 8l1 6q1 4 0 5l-3 3l-3 2q-2 3 -4 9l-1 5l-2 4l-4 8l-3 9v5l2 6q2 7 1 10l-3 9l-2 11q-3 11 -9 16q-3 3 -4 9l-1 5l-1 5l-4 9l-3 8l-3 12q-2 6 -6 9q-6 7 -5 16l1 6l1 7q1 7 0 11l-2 9l-2 8l-3 4l-4 3q-4 3 -4 7
l1 12v11l-1 10l-1 10q-2 11 -1 20q1 11 8 18q7 6 21 14l12 7l12 7q16 8 23 8q10 0 14 -8l4 -6l2 -7l3 -9l3 -10l5 -8l5 -9q3 -3 4 -9l1 -11q1 -14 6 -20q7 -9 10 -16v-11l1 -10l4 -9l4 -8l2 -10l1 -11q2 -8 8 -19l9 -19l4 -10l2 -11q3 -13 7 -20q3 -3 4 -10l2 -12v-4l2 -5
q1 -6 5 -6h1q7 20 20 35q0 1 4 5l4 3l5 4q11 11 11 14q0 1 -3 4q-3 2 -3 3q0 2 2 4l3 4l4 7l3 8q4 7 10 14l11 11q13 13 16 18l1 4l2 4l4 8t4 5l5 4l5 4q3 2 4 5l1 3l1 3l1 5q1 2 4 5l6 5q8 8 9 13q3 13 14 27l8 10l8 10l4 6l5 6q6 8 11 11q2 1 7 2h7q11 0 25 -9
q12 -7 19 -17q4 -6 6 -10q2 -7 0 -12l-3 -5l-3 -4l-5 -7l-4 -8l-9 -13q-6 -7 -9 -13l-8 -15l-9 -16l-19 -28l-20 -29q-21 -29 -36 -51l-19 -29l-2 -3l-2 -5q-4 -6 -4 -9q0 -4 5 -4q4 0 11 6l7 5l5 4l14 12q9 7 15 10q12 7 29 20l13 11l14 10l30 19q18 11 29 19l12 11l12 10
l13 8l13 9l12 10l12 11q10 7 27 16q11 6 28 20l12 11q8 6 14 9l14 9l14 8l13 10l13 9l9 7l11 6q13 8 22 8q8 0 14 -8l5 -7l5 -7q5 -8 5 -14q0 -7 -10 -18q-8 -9 -22 -20l-12 -10l-11 -10l-12 -11l-12 -12q-4 -4 -12 -7l-7 -3l-7 -4l-11 -8l-11 -9q-6 -4 -12 -11l-6 -7l-5 -6
q-10 -9 -23 -16q-7 -3 -16 -9l-15 -12l-13 -8l-12 -9l-7 -5l-6 -5q-7 -6 -13 -9q-12 -5 -27 -16l-13 -11l-13 -9q-4 -3 -10 -10l-4 -6l-5 -5l-13 -9l-12 -8l-7 -4l-6 -5q-8 -6 -13 -9l-6 -2l-6 -3q-2 -1 -5 -5l-6 -6q-4 -4 -11 -8l-6 -2l-5 -4q-9 -8 -9 -16q0 -6 4 -15l4 -6
l4 -7q4 -7 6 -13q3 -7 8 -15l9 -14l4 -7l4 -7q5 -9 10 -13q12 -11 23 -27l8 -11l7 -10q4 -5 13 -11l7 -5l6 -5q5 -5 12 -9t13 -4q4 0 9 1l7 4q10 5 17 5q13 0 13 -15q0 -10 -8 -18l-11 -11l-11 -11q-13 -12 -24 -20q-21 -14 -42 -14q-10 0 -20 4q-31 10 -51 33l-10 10
q-5 6 -9 11l-2 5l-2 6q-2 6 -5 9l-5 4l-5 5l-3 6q-1 3 -3 5l-5 4l-5 3l-7 7l-7 8q-8 11 -8 12t2 2q1 1 1 3q0 5 -3 11q-3 7 -5 7q-1 0 -2 -3l-2 -4q-1 -7 -4 -7q-2 0 -3 10v16q0 6 -4 12q-3 5 -5 12q-1 4 -1 8v6q-1 7 -4 14q-6 10 -11 10t-8 -8l-4 -8l-3 -4l-3 -4l-6 -10
l-7 -10q-15 -25 -39 -73l-21 -43q-13 -24 -24 -41q-4 -7 -11 -24l-6 -13q-3 -7 -5 -10q-8 -18 -23 -18q-7 0 -15 4q-7 3 -11 6q-19 15 -26 36q-3 10 -3 18q0 10 5 17l5 8q3 4 4 7l4 11l3 10q15 37 40 78l3 5l3 8q4 9 7 12l3 4l4 2l6 6l5 8l4 8q0 1 1 2z" />
    <glyph glyph-name="uni0417" unicode="&#x417;" horiz-adv-x="495" 
d="M216 2l-15 1q-15 0 -39 2q-8 1 -17 5l-8 4l-8 4l-9 4l-8 4q-4 3 -7 8l-3 5l-3 5l-6 8l-6 9q-8 10 -12 18q-4 10 -8 22q-4 14 -4 21q0 5 4 12l4 5l3 3q19 18 32 18q16 0 23 -14q2 -2 3 -7l1 -7l2 -3v-3l-1 -4q-2 -2 -2 -4q0 -4 9 -9l7 -5l7 -4q6 -5 9 -5h3l5 1q6 0 16 1
q7 1 13 1h9q3 0 6 -2l3 -1h3q5 0 12 2l5 1l6 1q3 1 7 3l7 4q10 5 16 5h12q3 0 10 5l5 3q3 1 4 1h5q3 0 5 5l2 3q1 2 3 2l5 -1q2 0 4 2l4 4l2 1l3 1l3 4l3 4q4 6 6 8q3 2 7 4l6 3q3 1 7 5l3 4l3 3l3 2l4 2q4 3 5 5q1 3 4 4l2 1l3 2q1 3 1 6l1 3l1 3q2 3 6 7l7 7q14 15 14 26
v8q0 6 2 8q1 2 3 3l2 1l2 1q3 2 4 7v9q0 12 -10 16q-4 2 -10 2q-4 0 -13 -2l-7 -2l-6 -2l-10 -1l-10 -1l-7 -1l-9 -2q-11 -2 -15 -2h-7l-7 1q-4 0 -7 -1l-5 -1q-3 0 -7 4q-5 5 -8 14q-1 5 -2 11v15l1 4v2q0 5 -3 9q-4 3 -4 6l1 4l2 3l1 6q1 4 3 6t10 3l7 1l5 2l14 5l13 4
q20 6 35 14l5 1h4l6 2l3 2h3q4 1 7 3l3 3l2 5q3 7 6 7l3 -1l1 -1h3q4 0 12 4q9 4 9 8q0 1 -1 2l-2 1q-2 0 -6 -3q-5 -3 -7 -3q-1 0 -1 2t4 6l4 3q2 2 3 2l8 4l8 3l2 1l2 2q3 1 5 1h6q4 0 4 4q0 7 3 10t9 7l12 6q17 7 20 11l4 6l4 6q5 8 10 10l2 1l2 1l3 1q3 2 5 6l4 8
q1 5 1 10q0 9 -10 13q-9 4 -20 4q-16 0 -42 -7l-21 -6q-14 -4 -20 -5l-8 -2l-7 -2q-7 -2 -13 -5q-5 -2 -10 -6l-10 -8q-11 -9 -18 -8q-3 0 -5 1l-1 2h-2q-2 0 -2 -2l1 -3l1 -3q0 -3 -5 -5l-4 -1l-3 -2l-6 -5q-3 -4 -6 -6q-12 -9 -25 -14q-16 -8 -25 -7q-10 0 -19 7l-7 6
l-7 8q-3 3 -6 9q-3 8 -3 13q0 13 14 26q17 17 56 45q34 23 92 46q40 18 91 18q37 0 73 -22q31 -19 46 -62l2 -6l2 -6q2 -7 2 -11q0 -16 -2 -26l-1 -8l-2 -9q-3 -11 -9 -21q-3 -4 -5 -11l-2 -6l-2 -5q-2 -7 -7 -12l-7 -5l-7 -7q-3 -4 -10 -8l-6 -3l-5 -4q-10 -9 -56 -39
q-1 -1 -4 -2l-7 -3l-12 -6q-8 -5 -8 -9q0 -2 4 -6q2 -2 5 -6l3 -3l2 -2q9 -10 15 -20q6 -11 10 -32q3 -17 3 -32q0 -24 -15 -51l-4 -9l-4 -8l-5 -9l-4 -9q-4 -8 -12 -16l-7 -6l-7 -7l-6 -8l-5 -9q-7 -12 -11 -16q-14 -14 -26 -22q-12 -9 -33 -22l-8 -5l-8 -6q-10 -6 -17 -10
l-11 -3l-11 -3q-13 -3 -20 -8q-6 -4 -15 -6l-8 -2q-6 -1 -10 -2q-20 -6 -47 -6z" />
    <glyph glyph-name="uni0418" unicode="&#x418;" horiz-adv-x="512" 
d="M423 -40l-4 3l-5 2q-11 3 -19 14l-8 8l-8 10q-9 11 -10 21l-1 21q0 22 5 39q4 14 12 32l14 32q0 1 4 8l3 7l4 7q10 20 10 25q0 4 -3 4q-4 0 -17 -15q-5 -5 -10 -11l-3 -5l-2 -1v-1l-10 -13l-9 -12q-10 -15 -19 -24q-3 -4 -10 -8l-6 -4l-5 -4q-6 -4 -13 -12l-13 -14
q-46 -50 -85 -75l-12 -8l-12 -7q-15 -7 -27 -7q-6 0 -16 4t-16 4l-10 -1q-6 0 -9 2q-2 1 -5 3l-5 5l-6 2l-6 3q-6 4 -13 17q-8 18 -11 30l-1 6l-1 7q-1 9 -3 14l-2 4l-2 5q-3 8 -3 11l1 6l1 5l2 18l4 18q2 13 7 27l5 11q3 8 5 14q2 5 6 12l6 13l3 6l2 7q2 8 5 13q9 13 14 25
q2 5 9 12l5 5l4 7q3 4 5 13l2 7l3 7q4 9 19 21l11 11q7 6 11 11l3 5q2 3 2 6t-3 3t-8 -8l-5 -7l-5 -7l-1 -1l-1 -2l-5 -6q-8 -7 -11 -7q-2 0 -2 1q0 2 7 10l4 6q3 4 3 5l9 15q5 9 10 15l3 4l3 4q4 3 8 7t7 11v1l1 2l2 3q3 6 5 6l1 -1l1 -2q1 -2 2 -2q3 0 7 4q5 4 5 8
q0 2 -1 4l-2 2q-4 3 -4 5t2 6q1 3 2 5q5 9 16 20l10 9l9 9q15 19 29 41q11 18 22 28l6 7l5 6q6 9 11 13l8 6l8 6q3 3 7 10l2 5l4 5q2 3 8 7l9 5l2 1l3 2q5 2 9 2q19 0 30 -5q12 -4 17 -18q4 -9 4 -12q0 -5 -5 -12l-9 -13l-10 -14l-7 -12l-8 -12q-9 -14 -17 -22
q-24 -22 -35 -47q-4 -8 -16 -22l-9 -10q-4 -6 -7 -11l-8 -13l-8 -12l-8 -13l-8 -14q-9 -18 -31 -47l-10 -12q-5 -7 -8 -12l-3 -6l-3 -5q-3 -6 -6 -10q-4 -4 -8 -11l-6 -12l-8 -15l-9 -15l-14 -28l-15 -26q-2 -5 -4 -13l-1 -7l-2 -6l-5 -13l-6 -14q-5 -13 -5 -30q0 -12 5 -23
q5 -12 15 -12q5 0 13 4l7 4l7 5l24 19l24 18l12 11l13 11q16 16 24 22q5 3 10 9l8 11l5 5l6 5q7 6 10 10q6 8 21 22l11 11l11 12l10 11l10 11q14 13 21 24q5 6 14 16l7 7l7 8l5 7l5 7q6 8 11 12l6 3q3 2 5 3q2 2 4 7l1 3l1 4l1 1l2 3l4 7q5 9 7 9l2 -1l1 -2q1 -2 2 -2
q2 0 9 11l5 9q4 5 6 8l2 2l2 2q2 2 3 4q4 9 6 9l1 -1h1q2 0 3 2v2l1 2q8 10 13 23l2 5l2 6l4 3l4 3q4 3 4 5l-1 4l-1 2v3q0 6 6 14l6 7l5 6q12 12 21 29q5 9 6 10l4 2l3 2q6 4 12 13l6 8l4 7q6 9 17 17l5 6l5 5q5 7 10 7q4 0 9 -3q4 -2 7 -6l5 -5l5 -6q7 -7 10 -12
q4 -6 4 -13q0 -5 -3 -15l-2 -7l-2 -8q-2 -10 -5 -15q-1 -2 -5 -4l-4 -4l-3 -5l-2 -5l-4 -6l-4 -6q-5 -7 -6 -13q-2 -8 -5 -12l-4 -3l-4 -3q-5 -4 -9 -10q-3 -4 -6 -11l-2 -5l-3 -6l-8 -14l-8 -13q-44 -72 -67 -116l-15 -27l-14 -26q-8 -15 -12 -31q-2 -7 -6 -13l-4 -6l-4 -6
q-7 -11 -15 -31l-6 -16l-7 -15l-5 -14l-6 -14l-3 -6l-4 -5q-5 -6 -7 -10l-3 -8l-3 -7q-3 -9 -4 -16l-1 -6l-1 -6q-1 -9 -1 -13q0 -6 6 -14l4 -7q2 -4 2 -8q0 -3 -6 -12t-10 -9q-3 0 -8 3z" />
    <glyph glyph-name="uni0419" unicode="&#x419;" horiz-adv-x="512" 
d="M423 -40l-4 3l-5 2q-11 3 -19 14l-8 8l-8 10q-9 11 -10 21l-1 21q0 22 5 39q4 14 12 32l14 32q0 1 4 8l3 7l4 7q10 20 10 25q0 4 -3 4q-4 0 -17 -15q-5 -5 -10 -11l-3 -5l-2 -1v-1l-10 -13l-9 -12q-10 -15 -19 -24q-3 -4 -10 -8l-6 -4l-5 -4q-6 -4 -13 -12l-13 -14
q-46 -50 -85 -75l-12 -8l-12 -7q-15 -7 -27 -7q-6 0 -16 4t-16 4l-10 -1q-6 0 -9 2q-2 1 -5 3l-5 5l-6 2l-6 3q-6 4 -13 17q-8 18 -11 30l-1 6l-1 7q-1 9 -3 14l-2 4l-2 5q-3 8 -3 11l1 6l1 5l2 18l4 18q2 13 7 27l5 11q3 8 5 14q2 5 6 12l6 13l3 6l2 7q2 8 5 13q9 13 14 25
q2 5 9 12l5 5l4 7q3 4 5 13l2 7l3 7q4 9 19 21l11 11q7 6 11 11l3 5q2 3 2 6t-3 3t-8 -8l-5 -7l-5 -7l-1 -1l-1 -2l-5 -6q-8 -7 -11 -7q-2 0 -2 1q0 2 7 10l4 6q3 4 3 5l9 15q5 9 10 15l3 4l3 4q4 3 8 7t7 11v1l1 2l2 3q3 6 5 6l1 -1l1 -2q1 -2 2 -2q3 0 7 4q5 4 5 8
q0 2 -1 4l-2 2q-4 3 -4 5t2 6q1 3 2 5q5 9 16 20l10 9l9 9q15 19 29 41q11 18 22 28l6 7l5 6q6 9 11 13l8 6l8 6q3 3 7 10l2 5l4 5q2 3 8 7l9 5l2 1l3 2q5 2 9 2q19 0 30 -5q12 -4 17 -18q4 -9 4 -12q0 -5 -5 -12l-9 -13l-10 -14l-7 -12l-8 -12q-9 -14 -17 -22
q-24 -22 -35 -47q-4 -8 -16 -22l-9 -10q-4 -6 -7 -11l-8 -13l-8 -12l-8 -13l-8 -14q-9 -18 -31 -47l-10 -12q-5 -7 -8 -12l-3 -6l-3 -5q-3 -6 -6 -10q-4 -4 -8 -11l-6 -12l-8 -15l-9 -15l-14 -28l-15 -26q-2 -5 -4 -13l-1 -7l-2 -6l-5 -13l-6 -14q-5 -13 -5 -30q0 -12 5 -23
q5 -12 15 -12q5 0 13 4l7 4l7 5l24 19l24 18l12 11l13 11q16 16 24 22q5 3 10 9l8 11l5 5l6 5q7 6 10 10q6 8 21 22l11 11l11 12l10 11l10 11q14 13 21 24q5 6 14 16l7 7l7 8l5 7l5 7q6 8 11 12l6 3q3 2 5 3q2 2 4 7l1 3l1 4l1 1l2 3l4 7q5 9 7 9l2 -1l1 -2q1 -2 2 -2
q2 0 9 11l5 9q4 5 6 8l2 2l2 2q2 2 3 4q4 9 6 9l1 -1h1q2 0 3 2v2l1 2q8 10 13 23l2 5l2 6l4 3l4 3q4 3 4 5l-1 4l-1 2v3q0 6 6 14l6 7l5 6q12 12 21 29q5 9 6 10l4 2l3 2q6 4 12 13l6 8l4 7q6 9 17 17l5 6l5 5q5 7 10 7q4 0 9 -3q4 -2 7 -6l5 -5l5 -6q7 -7 10 -12
q4 -6 4 -13q0 -5 -3 -15l-2 -7l-2 -8q-2 -10 -5 -15q-1 -2 -5 -4l-4 -4l-3 -5l-2 -5l-4 -6l-4 -6q-5 -7 -6 -13q-2 -8 -5 -12l-4 -3l-4 -3q-5 -4 -9 -10q-3 -4 -6 -11l-2 -5l-3 -6l-8 -14l-8 -13q-44 -72 -67 -116l-15 -27l-14 -26q-8 -15 -12 -31q-2 -7 -6 -13l-4 -6l-4 -6
q-7 -11 -15 -31l-6 -16l-7 -15l-5 -14l-6 -14l-3 -6l-4 -5q-5 -6 -7 -10l-3 -8l-3 -7q-3 -9 -4 -16l-1 -6l-1 -6q-1 -9 -1 -13q0 -6 6 -14l4 -7q2 -4 2 -8q0 -3 -6 -12t-10 -9q-3 0 -8 3zM527 588l-8 1l-6 2q-11 3 -21 16l-4 5l-4 6q-4 7 -4 13v13l-1 5v5q-1 3 1 8l3 7l5 12
l3 7l3 7l3 5q2 3 4 5l4 2l4 1q3 0 6 -1q4 -2 5 -6l1 -5v-6l2 -9l2 -8q1 -9 4 -15q3 -4 6 -5q7 -3 14 -2l8 1l7 2q9 2 20 11l7 5l7 4q7 5 12 10q3 4 10 8l11 7q4 4 7 4q5 0 10 -10q3 -5 3 -10q1 -3 -1 -8l-4 -8l-4 -9l-3 -10q-1 -5 -8 -12l-4 -4l-4 -4l-6 -7l-6 -6l-5 -4
l-7 -3l-7 -4l-6 -4q-8 -5 -14 -7q-18 -5 -31 -6q-5 -1 -14 1z" />
    <glyph glyph-name="uni041A" unicode="&#x41a;" horiz-adv-x="513" 
d="M48 -42q-7 3 -11 6q-19 15 -26 36q-3 10 -3 18q0 10 5 17l5 8q3 4 4 7l4 11l3 10q15 37 40 78l3 5l3 8q4 9 7 12l3 4l4 2l6 6l5 8l4 8q6 12 10 16l5 7l5 6q5 7 8 17q3 9 16 29l5 9l6 10l4 2l4 3q4 4 4 6v6q-1 4 1 5q2 2 5 2h5q3 2 7 8l3 6l2 4q5 7 8 17q7 21 21 37
q0 1 4 5l4 3l5 4q11 11 11 14q0 1 -3 4q-3 2 -3 3q0 2 2 4l3 4l4 7l3 8q4 7 10 14l11 11q13 13 16 18l1 4l2 4l4 8t4 5l5 4l5 4q3 2 4 5l1 3l1 3l1 5q1 2 4 5l6 5q8 8 9 13q3 13 14 27l8 10l8 10l4 6l5 6q6 8 11 11q2 1 7 2h7q11 0 25 -9q12 -7 19 -17q4 -6 6 -10
q2 -7 0 -12l-3 -5l-3 -4l-5 -7l-4 -8l-9 -13q-6 -7 -9 -13l-8 -15l-9 -16l-19 -28l-20 -29q-21 -29 -36 -51l-19 -29l-2 -3l-2 -5q-4 -6 -4 -9q0 -4 5 -4q4 0 11 6l7 5l5 4l14 12q9 7 15 10q12 7 29 20l13 11l14 10l30 19q18 11 29 19l12 11l12 10l13 8l13 9l12 10l12 11
q10 7 27 16q11 6 28 20l12 11q8 6 14 9l14 9l14 8l13 10l13 9l9 7l11 6q13 8 22 8q8 0 14 -8l5 -7l5 -7q5 -8 5 -14q0 -7 -10 -18q-8 -9 -22 -20l-12 -10l-11 -10l-12 -11l-12 -12q-4 -4 -12 -7l-7 -3l-7 -4l-11 -8l-11 -9q-6 -4 -12 -11l-6 -7l-5 -6q-10 -9 -23 -16
q-7 -3 -16 -9l-15 -12l-13 -8l-12 -9l-7 -5l-6 -5q-7 -6 -13 -9q-12 -5 -27 -16l-13 -11l-13 -9q-4 -3 -10 -10l-4 -6l-5 -5l-13 -9l-12 -8l-7 -4l-6 -5q-8 -6 -13 -9l-6 -2l-6 -3q-2 -1 -5 -5l-6 -6q-4 -4 -11 -8l-6 -2l-5 -4q-9 -8 -9 -16q0 -6 4 -15l4 -6l4 -7
q4 -7 6 -13q3 -7 8 -15l9 -14l4 -7l4 -7q5 -9 10 -13q12 -11 23 -27l8 -11l7 -10q4 -5 13 -11l7 -5l6 -5q5 -5 12 -9t13 -4q4 0 9 1l7 4q10 5 17 5q13 0 13 -15q0 -10 -8 -18l-11 -11l-11 -11q-13 -12 -24 -20q-21 -14 -42 -14q-10 0 -20 4q-31 10 -51 33l-10 10q-5 6 -9 11
l-2 5l-2 6q-2 6 -5 9l-5 4l-5 5l-3 6q-1 3 -3 5l-5 4l-5 3l-7 7l-7 8q-8 11 -8 12t2 2q1 1 1 3q0 5 -3 11q-3 7 -5 7q-1 0 -2 -3l-2 -4q-1 -7 -4 -7q-2 0 -3 10v16q0 6 -4 12q-3 5 -5 12q-1 4 -1 8v6q-1 7 -4 14q-6 10 -11 10t-8 -8l-4 -8l-3 -4l-3 -4l-6 -10l-7 -10
q-15 -25 -39 -73l-21 -43q-13 -24 -24 -41q-4 -7 -11 -24l-6 -13q-3 -7 -5 -10q-8 -18 -23 -18q-7 0 -15 4z" />
    <glyph glyph-name="uni041B" unicode="&#x41b;" horiz-adv-x="476" 
d="M567 644l9 -5l9 -3l8 -2q2 -1 4 -3l1 -1l2 -2l5 -4l6 -5q16 -11 16 -29q0 -9 -7 -51l-4 -26q-2 -14 -7 -25q-3 -7 -5 -20l-3 -11l-3 -10l-7 -22l-6 -21l-4 -11l-4 -10q-6 -13 -6 -22q-1 -14 -15 -41l-1 -2l-2 -3q-2 -5 -4 -9q-6 -12 -6 -17t3 -5q5 0 8 11l3 9l1 8
q2 6 5 6l1 -1l1 -2q0 -5 -2 -13l-3 -7l-1 -5l-3 -8l-2 -9q-4 -9 -6 -14l-4 -4l-4 -5l-2 -4l-1 -5l-1 -6l-2 -5l-4 -4l-4 -3q-5 -5 -5 -10l1 -5v-5l-1 -7l-2 -7l-7 -15l-8 -14q-10 -18 -13 -30l-5 -15l-4 -15q-2 -6 -8 -14l-4 -7l-4 -7l-14 -29l-14 -29q-19 -34 -33 -34
q-6 0 -14 4q-7 4 -14 9q-17 13 -17 22q0 7 3 16l2 8l2 8q1 6 4 12l3 6l3 6q3 5 4 14l2 7l1 7l8 17l8 17l6 17l6 18l6 15l7 14l12 31l11 30l4 16l4 15l11 32l6 17l6 16q8 21 11 34l4 12l4 12l3 8l2 7q2 10 5 16q2 5 5 14l3 7l3 7l1 3l2 4q2 5 2 8q0 4 -3 4q-6 0 -13 -11
l-6 -9q-4 -6 -5 -7l-24 -33l-23 -32l-23 -32l-2 -3l-2 -4l-7 -8q-8 -10 -11 -10h-2l-3 1q-3 0 -6 -4l-3 -3l-2 -3l-12 -14l-13 -13l-2 -3l-3 -3q-4 -5 -3 -7v-1l1 -1q2 -1 2 -2q0 -2 -1 -3q-2 -2 -3 -2l-2 1h-2q-6 0 -9 -7l-2 -7l-3 -5l-2 -3l-3 -2q-4 -3 -5 -5t-2 -6v-3v-2
q-2 -8 -6 -12q-3 -6 -11 -12l-6 -5l-5 -5l-5 -7l-5 -6q-6 -8 -10 -13l-3 -3l-5 -4q-7 -7 -7 -9t2 -2q1 0 6 5q4 5 5 5h1v-1q0 -6 -16 -23l-7 -6l-6 -6q-6 -7 -7 -8q-10 -11 -25 -25l-25 -24l-12 -12l-12 -12l-5 -5l-3 -6l-1 -6q0 -2 -1 -4q-2 -3 -7 -8l-4 -4l-3 -4l-3 -3
l-2 -2q-4 -3 -6 -3h-2l-3 1q-4 0 -11 -5l-6 -4q-2 -2 -3 -2l-4 -6l-4 -5l-4 -4l-5 -4q-23 -21 -45 -25q-3 -1 -7 -1q-14 0 -25 5q-13 6 -13 16q0 7 3 10q2 2 5 2l5 1q3 1 6 4q3 4 4 8q5 16 15 24l11 10l11 11q7 7 18 23l8 12l9 12l40 48l8 9l7 9q9 11 13 19q5 10 16 23l9 12
l9 11l10 10l10 10l10 14q6 10 10 14l16 18l17 18q9 9 21 26l9 14l10 14q15 20 38 48l20 24l21 23l8 11l8 12q10 15 16 22l18 22l18 21q8 10 20 27l10 14l9 14l6 7l5 7q7 8 13 13q4 3 12 7l13 5q9 5 13 5t10 -4z" />
    <glyph glyph-name="uni041C" unicode="&#x41c;" horiz-adv-x="592" 
d="M747 631l6 -1l6 -1q9 -1 18 -8l8 -6l8 -7l3 -2l4 -4q5 -4 7 -10l1 -2l1 -4q2 -5 2 -7q0 -4 1 -8l1 -8q0 -6 -5 -15l-4 -7l-3 -9l-1 -10l-1 -10q-1 -12 -4 -19l-8 -17l-7 -17l-2 -9l-1 -8q-2 -11 -5 -18q-8 -15 -13 -28q-2 -7 -8 -18l-4 -9l-5 -9q-8 -21 -16 -30
q-5 -6 -5 -9l1 -3v-3q2 -4 2 -8q0 -7 -9 -22l-3 -6l-4 -5l-4 -8q-2 -4 -6 -10l-4 -5l-3 -6l-1 -4l-1 -3q-1 -5 -3 -7l-4 -4l-6 -3q-7 -5 -7 -9l1 -3l1 -2q2 -4 2 -7q0 -6 -6 -16l-4 -8l-4 -7q-17 -39 -35 -82l-8 -15l-7 -15l-10 -19l-10 -18l-12 -18l-11 -18q-2 -2 -3 -6
l-1 -7q-3 -8 -8 -9q-8 0 -19 4q-10 3 -15 6q-17 11 -17 24q0 5 1 10q12 47 21 71l14 35l14 35l7 13l7 13l7 16l6 17q17 42 29 67q14 29 28 66q2 7 6 14l8 13q5 7 14 30q3 8 6 18l3 7l2 5l3 6l4 6q5 9 5 13q0 3 -1 4q-1 2 -3 2t-7 -7l-3 -5l-2 -2l-1 -1l-6 -9l-6 -10l-14 -20
q-17 -24 -30 -43q-36 -51 -59 -79q-19 -24 -41 -55l-9 -13l-9 -14q-12 -17 -24 -33q-11 -14 -28 -36q-16 -18 -30 -34l-11 -13l-10 -13q-12 -14 -19 -20q-4 -4 -12 -6q-6 -1 -12 -1t-17 5l-10 6l-11 5q-6 3 -11 8q-5 6 -5 12q0 7 7 24l5 13q3 7 4 11q2 10 6 20l9 17
q12 21 14 36q1 9 6 21l8 21l7 20l6 18q3 8 11 33q3 8 7 23l9 25q27 83 27 89t-3 6q-4 0 -16 -20l-4 -8l-4 -7l-4 -9q-3 -4 -11 -16q-7 -10 -12 -17l-7 -8l-6 -8q-6 -9 -9 -17q-2 -7 -15 -22l-3 -5l-3 -5l-6 -9l-4 -3l-5 -3q-7 -4 -7 -8q0 -2 3 -4q2 -2 2 -4t-1 -3t-3 -1h-2
l-3 1q-5 0 -7 -9l-1 -6q-1 -4 -2 -5q-1 -2 -3 -4l-2 -1l-2 -2q-1 -2 -2 -5v-5q-3 -14 -11 -26l-4 -3l-3 -3q-5 -4 -7 -7l-3 -6l-3 -7l-5 -6l-3 -6l-1 -3l-2 -5q-1 -6 -3 -6q-1 0 -1 1q0 4 -1 4t-3 -4q-2 -3 -2 -5l1 -1v-1q2 -1 2 -2q0 -2 -2 -4l-2 -2l-1 -2q-13 -20 -25 -35
q-10 -12 -29 -33l-15 -17l-14 -16q-5 -6 -7 -15q-1 -4 -6 -13l-4 -6l-5 -6q-7 -8 -10 -8l-2 1h-3q-1 0 -5 -1l-6 -3q-5 -3 -15 -11l-7 -6l-7 -5q-9 -6 -19 -6h-8l-3 -1q-4 0 -8 2q-5 1 -8 5q-7 6 -11 13q-3 4 -3 9q0 7 11 20l13 15q8 10 14 15l6 5q3 2 4 5l3 7q1 4 3 7l7 8
l7 8q9 11 13 17l21 34l22 33l26 38l26 38q10 13 20 31l9 18q6 11 11 17q27 40 38 60l21 37q3 7 11 17l6 8l5 8l9 13l10 13q2 2 2 5l1 3l1 3q1 4 4 8l3 3l4 3q10 10 23 31l10 16l11 15q10 14 18 33t21 24l8 4l8 5q11 4 18 5q7 0 18 -7l8 -6l7 -4q3 -2 8 -6q7 -4 12 -9
q6 -5 9 -15l3 -9l3 -8q5 -14 5 -21q0 -5 -1 -11l-2 -12l-1 -11q-1 -14 -5 -23l-2 -5l-3 -5q-3 -5 -3 -7l1 -5v-4v-8l-2 -7l-1 -3l-1 -4q-1 -5 -1 -7v-3l1 -3q2 -3 2 -6q0 -2 -2 -6l-3 -5l-5 -9q-2 -6 -4 -9l-5 -6q-2 -4 -3 -7l-2 -10l-1 -9q-1 -3 -3 -6l-4 -6q-2 -2 -3 -4
v-3q0 -2 1 -4t1 -5q0 -6 -8 -23l-3 -7l-3 -6q-3 -7 -4 -10l-2 -8l-2 -7l-1 -3l-2 -3q-2 -3 -2 -5l1 -2h1q3 0 9 6l4 6l2 1l1 2q4 5 18 23l10 13q5 7 8 10q8 11 18 27l5 7l5 8l12 18l5 8l6 8q7 9 14 17q5 5 10 16l5 8l5 8q11 12 25 35l12 18l12 18q5 7 11 17l10 18
q12 23 22 34q12 14 19 29q10 18 35 18q6 1 12 0z" />
    <glyph glyph-name="uni041D" unicode="&#x41d;" horiz-adv-x="594" 
d="M115 -45q-17 9 -26 18q-7 7 -7 12l1 5v3q1 3 1 4l-1 7l-1 6q0 9 2 16q3 8 7 8h2l2 -1q3 0 3 3v5q0 2 2 5l2 4q3 4 4 7v5l1 5l1 3l1 4l-1 3v4q0 2 3 5l5 5q8 10 11 18q1 4 4 7l3 3l3 4q4 6 9 17l5 9l4 10l2 4l1 4q0 3 -3 3q-4 0 -12 -2l-8 -2l-7 -1l-10 -3l-10 -1
q-10 -3 -19 -4l-11 -1q-20 0 -20 19q0 8 4 19l4 10l5 8q4 8 13 16q5 6 16 14q16 12 26 12l3 -1l3 -1q4 -1 6 -1q3 0 12 4t15 4h4l4 -1q6 0 17 5l8 3q4 2 9 2l5 -1l4 -1q3 0 5 1l3 3q7 7 13 16q15 23 22 37q5 9 9 14l4 5l4 4q3 4 5 9q4 8 9 17q4 7 13 18l15 19l15 21l5 7l5 8
q7 9 7 15t6 14l7 8l7 8l11 11q6 6 10 12t7 12l2 3q1 1 3 1l2 -1l2 -1q3 0 6 5q2 5 2 9v4l-1 4q0 2 2 5l2 3l2 3q14 21 31 37q7 6 14 6q13 0 21 -6q9 -6 15 -15q8 -10 8 -19q0 -5 -4 -10l-3 -4l-4 -4l-6 -9l-5 -9l-12 -22l-11 -22q-8 -17 -24 -41l-14 -20l-13 -20l-24 -41
q-15 -25 -25 -40l-7 -10l-7 -9q0 -1 -2 -3l-3 -4q-5 -6 -5 -8q0 -3 4 -3l6 1l3 1h13q8 0 12 1l12 2l12 2l6 2l5 2q6 3 9 3l2 -1l2 -1q3 -1 6 -1t9 3l5 3l6 1q5 1 22 2q15 1 23 1q13 1 31 1q14 0 17 8q3 7 9 16l10 15l4 8l4 8l3 3l2 4l1 5l1 4q1 4 3 7q3 3 9 8l4 4l4 4
q2 2 4 7l3 7l5 7l6 7l11 14l11 15l1 1l1 2l3 5q4 6 4 8q0 1 -1 1t-3 -2l-3 -3l-6 -9l-5 -8l-2 -4l-3 -5q-3 -5 -6 -5q-1 0 -1 1q0 4 7 13l6 7q3 4 3 6l15 23l19 27q11 16 20 26l8 12l10 11l2 2l3 2q3 3 3 5v2l-1 3q0 2 2 6l2 3l2 3l3 6l4 6l2 2l2 3q2 4 4 4q1 0 2 -3
q0 -2 1 -2q2 0 14 12q3 5 7 10l3 3l1 1l1 1l3 4l4 4q4 4 8 4t9 -2l5 -3l4 -2l8 -4l8 -5q10 -7 10 -15q0 -5 -4 -11l-3 -4l-3 -5l-7 -12l-7 -13q-7 -16 -22 -40l-12 -20l-12 -19q-8 -14 -26 -41l-13 -20l-12 -20l-12 -20l-13 -21q-15 -24 -24 -41q-20 -40 -20 -43q0 -6 6 -16
l4 -8l4 -8q3 -8 3 -15q0 -5 -4 -10t-9 -5h-5l-5 2q-7 1 -12 1q-3 0 -10 -1h-4l-4 -1q-6 0 -9 -2t-6 -6l-2 -4l-1 -4q-4 -8 -13 -20l-7 -9l-6 -10q-10 -17 -24 -42l-23 -43l-11 -20l-10 -20l-13 -19q-8 -13 -11 -20l-4 -7l-3 -7q-4 -10 -7 -15q-9 -17 -20 -17q-7 0 -14 5
q-11 7 -17 12q-9 7 -13 14q-10 18 -10 34q0 10 6 25l7 12l6 12l1 2l1 2l3 6q4 7 7 7l3 -2l3 -1h2l1 2l-2 5v2l-1 2l1 5l2 4q3 8 8 16l7 9l7 9l1 2l1 2q1 3 1 4q0 2 -1 5l-2 1v2q0 1 2 3l2 2l7 3q0 1 -2 2l-1 1l1 2v2l1 2l1 2q1 4 3 4l2 -1l1 -1q3 0 10 10q8 11 8 16
q0 4 -5 4l-18 -2l-18 -2q-29 -3 -48 -3q-8 0 -21 -3l-10 -3l-11 -1q-8 0 -22 -3l-10 -2l-11 -1l-9 -1q-6 0 -9 -1q-5 -2 -9 -8l-3 -5l-3 -6q-11 -15 -24 -40l-10 -22l-11 -21q-1 -3 -6 -8l-3 -3l-3 -4l-4 -10l-4 -9q-4 -9 -12 -21l-12 -21l-11 -19q-6 -11 -11 -18
q-8 -9 -15 -15q-4 -4 -9 -4t-12 4z" />
    <glyph glyph-name="uni041E" unicode="&#x41e;" horiz-adv-x="522" 
d="M179 -38q-34 12 -46 29l-8 10l-7 10q-8 11 -13 21l-6 10l-6 9q-7 12 -8 23q-6 42 -6 63q0 12 3 21q4 10 4 26v6l-1 5q0 6 1 11l6 21l6 22l4 12l4 12q3 10 10 17q5 5 10 13l7 15l1 6l2 6q2 8 4 11l2 3l3 4q4 4 5 7q5 11 14 19q8 8 12 18l5 10l4 9q5 10 12 18l9 7l8 8l2 5
l2 4q3 6 6 10q4 6 14 13q9 6 17 16l14 17q17 22 32 30q10 5 21 15l9 9l9 9q7 8 23 17l12 7l13 6q60 36 102 43q8 1 16 1q17 0 40 -6l12 -3l11 -2q7 -1 9 -3q2 -1 7 -10q4 -6 14 -12l8 -4q5 -3 7 -7q8 -9 13 -24l3 -13l3 -14q2 -6 2 -15v-26q1 -5 0 -8l-2 -8l-2 -6
q-2 -8 -2 -13v-8l1 -5q1 -6 1 -11q0 -15 -4 -35l-3 -11l-4 -10q-4 -13 -6 -23q-1 -9 -9 -25l-6 -13l-4 -12q-3 -13 -11 -29l-8 -14l-8 -13l-10 -19l-10 -19q-11 -22 -22 -35l-12 -17q-7 -11 -12 -17q-6 -6 -13 -17l-6 -9l-7 -9q-33 -44 -72 -82q-21 -21 -52 -39l-12 -7
l-12 -9q-14 -10 -24 -14q-12 -6 -29 -9l-15 -3l-15 -3q-11 -1 -21 -1q-22 0 -45 8zM266 42q18 9 29 19q2 2 5 4q4 2 9 4q4 1 5 4v4l-1 3q0 3 8 7q10 4 13 8l2 2l1 2l1 3q2 1 6 2q15 6 24 17l5 7l5 8q7 10 12 15q11 9 25 27l11 15l12 14q34 41 44 74q4 13 16 32l10 15l9 15
q3 6 6 14l4 15q6 18 13 27q4 5 10 24l3 11l3 10q3 10 3 18v14q-1 10 -1 16q0 8 1 23v11l1 12q0 39 -31 39q-10 0 -23 -3q-22 -7 -56 -30l-8 -5l-8 -4q-10 -5 -15 -11l-7 -8l-6 -8q-8 -10 -13 -15q-19 -18 -44 -44q-5 -6 -13 -16q-6 -8 -12 -17l-4 -9l-4 -9q-1 -4 -4 -5
l-3 -2l-2 -2l-2 -3l-1 -4q-1 -1 -4 -2l-2 -1l-2 -2q-2 -3 -3 -9v-4l-1 -5l-5 -10l-4 -10l-3 -9l-3 -8q-3 -8 -10 -8q-6 0 -14 4t-13 4q-7 0 -12 -9q-28 -45 -42 -87q-12 -32 -15 -50l-2 -14l-1 -13l-3 -15q-2 -9 -2 -15q0 -61 25 -79q12 -9 31 -9q23 0 47 11z" />
    <glyph glyph-name="uni041F" unicode="&#x41f;" horiz-adv-x="594" 
d="M382 502h-1l-8 -2l-7 -1l-10 -3l-10 -1q-10 -3 -19 -4l-11 -1q-20 0 -20 19q0 8 4 19l4 10l5 8q4 8 13 16q5 6 16 14q16 12 26 12l3 -1l3 -1q4 -1 6 -1q3 0 12 4t15 4h4l4 -1q6 0 17 5l8 3q4 2 9 2l5 -1l4 -1h1q5 3 10 3h7v1h69l7 1l4 1h15q9 0 14 1l14 2l14 2l7 2l6 2
q7 3 11 3l2 -1l3 -1q3 -1 7 -1q3 0 10 3l6 3l7 1q6 1 26 2q18 1 27 1q30 6 41 7l1 1l3 4l4 4q4 4 8 4t9 -2l5 -3l4 -2l8 -4l8 -5q10 -7 10 -15q0 -5 -4 -11l-3 -4l-3 -5l-7 -12l-7 -13q-7 -16 -22 -40l-12 -20l-12 -19q-8 -14 -26 -41l-13 -20l-12 -20l-12 -20l-13 -21
q-15 -24 -24 -41q-78 -128 -87 -140l-7 -9l-6 -10q-10 -17 -24 -42l-23 -43l-11 -20l-10 -20l-13 -19q-8 -13 -11 -20l-4 -7l-3 -7q-4 -10 -7 -15q-9 -17 -20 -17q-7 0 -14 5q-11 7 -17 12q-9 7 -13 14q-10 18 -10 34q0 10 6 25l7 12l6 12l1 2l1 2l3 6q4 7 7 7l3 -2l3 -1h2
l1 2l-2 5v2l-1 2l1 5l2 4q3 8 8 16l7 9l7 9l1 2l1 2q1 3 1 4q0 2 -1 5l-2 1v2q0 1 2 3l2 2l7 3q0 1 -2 2l-1 1l1 2v2l1 2l1 2q1 4 3 4l2 -1l1 -1q3 0 10 10q8 11 8 16q69 103 74 107l2 4q3 7 9 16l10 15l4 8l4 8l3 3l2 4l1 5l1 4q1 4 3 7q3 3 9 8l4 4l4 4q2 2 4 7l3 7l5 7
l6 7l11 14l11 15l1 1l1 2l3 5q4 6 4 8q0 1 -1 1t-3 -2l-3 -3l-6 -9l-5 -8l-2 -4l-3 -5q-3 -5 -6 -5q-1 0 -1 1q0 4 7 13l6 7q3 4 3 6l15 23l19 27q4 6 8 11l-15 -1l-21 -2q-34 -3 -57 -3q-9 0 -24 -3l-12 -3l-13 -1q-9 0 -26 -3l-12 -2l-13 -1l-7 -1l-1 -1l-11 -22
q-8 -17 -24 -41l-14 -20l-13 -20l-24 -41q-15 -25 -25 -40l-7 -10l-7 -9q0 -1 -2 -3l-3 -4q-5 -6 -5 -8l-63 -102q-5 -2 -9 -8l-3 -5l-3 -6q-11 -15 -24 -40l-10 -22l-11 -21q-1 -3 -6 -8l-3 -3l-3 -4l-4 -10l-4 -9q-4 -9 -12 -21l-12 -21l-11 -19q-6 -11 -11 -18
q-8 -9 -15 -15q-4 -4 -9 -4t-12 4q-17 9 -26 18q-7 7 -7 12l1 5v3q1 3 1 4l-1 7l-1 6q0 9 2 16q3 8 7 8h2l2 -1q3 0 3 3v5q0 2 2 5l2 4q3 4 4 7v5l1 5l1 3l1 4l-1 3v4q0 2 3 5l5 5q8 10 11 18q1 4 4 7l3 3l3 4q4 6 9 17l5 9l4 10l66 108l3 3q7 7 13 16q15 23 22 37q5 9 9 14
l4 5l4 4q3 4 5 9q4 8 9 17q4 7 13 18l15 19l15 21l5 7l5 8q7 9 7 15t6 14l7 8l7 8l11 11z" />
    <glyph glyph-name="uni0420" unicode="&#x420;" horiz-adv-x="478" 
d="M67 -32l-10 9q-3 4 -7 9q-12 15 -12 25t7 28q5 14 14 30l12 24l12 24l11 22q7 12 14 20l5 5l5 4q3 4 5 9l1 5l1 5q1 3 4 7l5 6q6 8 10 16l5 12l6 12l4 6l2 3l3 4l2 3l1 3q1 5 2 6q2 1 5 2h2l3 1q1 1 5 7l3 5q1 2 2 3l5 9l5 10q4 7 12 18l7 8l6 9q4 6 10 18l5 9l5 8l6 9
l7 8q9 10 11 14l2 6q0 3 1 4l2 2l2 2q1 1 1 4l1 3q2 3 7 7l3 4l4 4l1 4q0 2 1 4l3 2l3 1q4 2 6 4l6 8l5 8q7 9 14 15l6 4q5 2 9 2q3 0 26 -23q4 -4 8 -11q4 -8 4 -13q0 -10 -9 -23q-6 -8 -16 -25l-8 -12l-7 -12q-33 -51 -51 -84q-6 -11 -17 -28l-4 -5l-4 -6q-5 -7 -5 -11
q0 -5 9 -7l11 -1q20 0 44 10q19 8 38 21q12 8 21 11q11 4 17 9l19 13l19 14q38 27 68 69q4 5 9 14l7 15l8 13q5 7 7 13q7 19 7 37q0 25 -9 40q-5 9 -16 18q-9 9 -19 15q-7 4 -19 6l-10 1l-11 1l-9 2l-11 1q-12 2 -21 2q-15 0 -27 -3l-10 -4l-10 -2l-13 -2l-12 -2
q-14 -2 -24 -5q-49 -15 -107 -41q-6 -3 -13 -8l-6 -5l-7 -4l-12 -7l-12 -7q-13 -8 -21 -16l-6 -7l-7 -7q-6 -9 -6 -17q0 -4 2 -7l6 -7q7 -8 7 -13q0 -4 -2 -8q-3 -5 -8 -5q-4 0 -11 5l-6 5l-4 3l-10 8l-10 8q-10 9 -15 20q-4 10 -4 20q0 15 9 32l8 15l9 15q5 8 14 12
q3 2 6 5l5 6l7 4q4 3 6 5l1 3l2 3q2 5 4 6q3 2 8 3h4l4 1l8 4l9 4l7 4l6 5l10 5q5 3 9 6l4 6l1 3l1 3q3 4 9 5h4l5 1q7 0 21 5l10 3l10 3l23 5l22 7q25 7 40 9l7 1l6 1q8 2 12 2h5l3 -1q5 -2 10 -2q4 0 9 2q6 2 10 2q2 0 5 -2l2 -1l3 -1h6l3 1q5 2 7 2l6 -3l3 -2l2 -2
q9 -3 15 -3q9 0 20 -8l10 -6l10 -5q13 -6 20 -10q15 -11 34 -31q33 -35 40 -84q3 -15 3 -30q0 -42 -15 -80q-18 -47 -43 -76q-39 -47 -65 -65q-48 -34 -83 -53q-19 -10 -45 -18q-38 -11 -65 -11q-20 0 -36 6q-2 1 -7 3l-9 5q-12 6 -17 6t-18 -19l-13 -21q-6 -9 -11 -20
l-4 -10l-5 -10q-3 -7 -9 -13l-4 -5q-3 -3 -5 -7q-6 -10 -14 -29l-12 -30q-2 -5 -9 -13l-5 -7l-4 -7l-5 -8l-4 -8q-6 -8 -15 -8t-21 11z" />
    <glyph glyph-name="uni0421" unicode="&#x421;" horiz-adv-x="460" 
d="M174 -28l-16 9l-16 10q-5 3 -11 10l-5 6l-5 6q-6 6 -11 16l-5 9l-4 9q-12 24 -16 42q-4 22 -4 44q0 20 3 43l3 22l4 21q2 13 5 23l1 5l2 4l2 3l3 3l1 5l1 5l2 3l2 2q3 3 4 6l2 10l2 11q1 4 3 8l4 7q5 8 7 14l1 3l1 3q0 3 1 4q2 6 5 6h3q4 0 6 7l2 6l2 5q3 7 11 17l6 9
l7 8l4 8q3 4 6 7q2 2 4 6l4 6l3 3l2 2q4 2 7 7q4 6 14 18l8 8l6 9l5 7l4 7q6 8 11 12l7 5l8 5q10 6 12 12v5q0 4 1 5q1 2 7 6l4 3l3 3q13 13 33 28l31 24l5 3l6 3l4 3l4 3q4 4 8 5l8 4l8 5l7 4q4 3 7 3q10 1 15 2q9 4 24 8l31 7q18 4 32 4q10 0 19 -2q22 -4 36 -11
q9 -5 16 -10q9 -7 13 -14l9 -14l8 -15q8 -13 8 -25l-1 -8v-9l-3 -19l-5 -19q-3 -16 -17 -34l-7 -8l-5 -8q-7 -12 -12 -17l-13 -15l-14 -15q-5 -6 -15 -13l-8 -5l-9 -6q-22 -16 -36 -20q-18 -6 -37 -6l-10 1l-10 2l-11 2l-11 3q-7 2 -7 5t7 8l5 4l5 3l34 29q36 32 58 62
q28 38 44 76q2 5 3 9q1 5 1 9q0 15 -15 15q-6 0 -15 -2l-6 -2l-6 -2q-8 -3 -18 -8l-16 -9l-21 -10l-21 -9q-16 -8 -34 -23l-16 -14l-15 -14l-15 -14q-9 -8 -15 -14q-5 -6 -14 -14l-14 -13q-26 -26 -57 -68q-10 -14 -19 -35l-4 -8l-5 -8q-7 -10 -9 -17l-3 -7l-4 -7l-2 -4
l-4 -3q-4 -4 -5 -6l-2 -7l-2 -6l-4 -9l-5 -10q-2 -7 -5 -20l-5 -19l-3 -13l-4 -12q-3 -15 -3 -25v-14l1 -15v-20q0 -15 3 -26q2 -6 8 -12l6 -5l6 -5q9 -8 22 -8q8 0 19 3l9 3l10 3q12 3 20 7l9 5l9 7q6 4 9 4l3 -1l3 -1q3 0 7 3l3 3l3 3l8 5l8 5q7 5 17 15l16 15l16 14
l16 14q18 16 31 30l3 4l4 4q4 5 8 5q7 0 12 -14q5 -12 5 -27q0 -37 -26 -73l-4 -7l-4 -8q-4 -10 -9 -14l-6 -6l-6 -5l-6 -8l-7 -7q-18 -15 -36 -23l-6 -3q-4 -2 -6 -4q-8 -8 -15 -12q-18 -9 -43 -16q-29 -8 -50 -8q-40 0 -65 13z" />
    <glyph glyph-name="uni0422" unicode="&#x422;" horiz-adv-x="352" 
d="M156 -44l-3 1l-3 1l-7 4l-8 3l-6 1q-4 1 -6 2q-3 2 -4 5l-1 2l-2 3l-3 6l-3 4q-3 6 -3 12q0 16 19 61q9 24 29 60l7 14l7 15q9 19 16 29l8 12l10 12q11 15 15 25q6 13 17 30l10 15l9 14l19 30q12 18 21 30l9 12q5 6 8 12l8 15l8 14l40 56q7 10 20 32l11 17q5 9 9 14t4 8
t-5 3q-8 0 -19 -2l-8 -1l-10 -2l-14 -3l-14 -4l-17 -1l-17 -1q-38 -5 -68 -18q-12 -5 -31 -5q-9 0 -12 9l-1 9l-1 9q0 4 4 14l2 7q2 4 2 5q2 9 5 16q5 9 10 14q11 10 21 15l5 2l5 3q6 3 10 3q3 0 6 -2l3 -2h3q1 0 8 2l5 2h11l4 -1h4q4 0 13 2l6 2l5 2q8 2 11 2h3l3 -1
q2 -1 3 -1l3 2l3 1q5 4 13 5l3 1l3 1l2 -1l2 -1q2 0 3 1l2 1h2q1 0 3 -1q1 -1 3 -1l3 1l3 1l9 1l9 1l7 3l7 2q9 3 14 3q2 0 8 -1l5 -1l4 -1q2 0 7 1l16 3l16 3q20 4 32 4h6l6 -2q7 -2 11 -2t12 3q7 2 12 2h3l3 -1h5q2 0 10 4q2 1 5 1l6 -1h22q17 0 31 -3q25 -5 37 -19l7 -10
q5 -7 8 -10q5 -5 5 -8l1 -6v-6q-1 -5 -5 -8q-2 -2 -5 -2h-2l-2 -1l-3 -2l-2 -2q-2 -2 -4 -2t-6 1q-5 2 -6 2l-5 -1q-3 -1 -6 -1l-5 1q-3 1 -5 1q-3 0 -9 -2q-5 -2 -8 -2l-7 1l-8 1q-5 0 -13 -2l-7 -2l-7 -2q-6 -1 -17 -2l-9 -1l-9 -1q-6 -1 -15 -1l-8 -1h-7q-16 -1 -23 -11
t-22 -37l-9 -13q-6 -8 -8 -13q-4 -9 -16 -23l-9 -12q-5 -6 -8 -12q-5 -10 -16 -27l-9 -13l-8 -14l-6 -12l-6 -13l-10 -15l-10 -14l-3 -6l-3 -6q-3 -9 -6 -13l-4 -5l-5 -5q-6 -6 -9 -10l-3 -5l-3 -4q-5 -5 -6 -9q-7 -18 -11 -24l-9 -14l-9 -13q-11 -16 -16 -27l-6 -14l-6 -13
q-3 -6 -9 -14l-10 -13l-7 -11l-5 -12q-7 -14 -15 -23q-3 -4 -6 -11l-2 -6l-1 -5q-5 -13 -14 -29l-7 -14l-7 -15q-8 -17 -15 -27l-3 -4l-4 -5q-6 -6 -11 -6q-3 0 -7 2z" />
    <glyph glyph-name="uni0423" unicode="&#x423;" horiz-adv-x="493" 
d="M238 -262l-9 7l-4 4l-3 3q-23 21 -23 48q0 25 12 50l7 13l7 12l1 2l1 2l2 4l1 4v4q0 4 5 11q4 7 4 11v2l-1 2q-2 2 -2 3q0 5 10 7q10 3 10 7q0 2 -1 5l-1 4q0 3 4 5q2 2 3 4l1 4l1 3l2 2h2q5 0 9 8l4 6l3 6q3 4 6 10l2 6l2 5l5 7l6 8l4 6l4 6q5 8 5 12q0 3 -1 3t-5 -4
q-4 -3 -5 -3q-3 0 -3 3q0 5 13 20l4 6l4 5q5 5 5 6l7 11l7 10l3 6l3 6q3 8 5 12l4 4l4 4q3 4 6 11l2 3l2 4q2 5 2 6q0 3 -2 3q-3 0 -7 -5q-4 -3 -8 -9l-9 -13q-6 -8 -11 -12q-2 -2 -5 -6l-7 -7q-8 -9 -12 -13l-12 -11l-11 -12q-10 -12 -31 -29l-17 -14l-18 -15l-8 -8l-8 -8
q-10 -9 -20 -14q-15 -9 -30 -9q-10 0 -19 3q-8 3 -22 3q-6 0 -13 5l-6 4l-6 4q-19 9 -28 34q-2 6 -3 16l-1 9v8l-2 7l-2 5q-2 7 -2 13q0 18 2 39q3 25 9 40l6 17l5 17q1 5 7 14l4 6l2 7q4 15 12 26q3 4 6 12l6 12l4 6l5 6q6 7 9 12q2 4 6 13l6 16q3 8 9 13l4 4q2 2 4 5l3 7
l3 8q3 9 7 14l4 5l5 5l2 4l2 5q2 3 7 7q2 2 5 11q3 8 7 15q6 9 17 21l10 10l9 10q9 10 21 30l10 15l11 15q3 3 9 7l4 3l4 4q2 2 5 7l2 5l2 3q3 4 11 10l6 5l6 5l5 6l4 6q5 8 10 12q6 5 14 8q9 4 13 4q17 0 31 -7q10 -4 14 -16l1 -4l2 -3q2 -4 2 -6q0 -8 -8 -17l-7 -8l-7 -8
l-15 -23q-9 -14 -15 -22l-10 -11l-11 -11q-14 -14 -18 -25q-5 -10 -14 -21l-8 -9l-8 -10l-9 -12l-9 -11q-9 -13 -15 -24q-5 -10 -13 -21l-15 -20q-11 -14 -19 -31l-3 -7l-5 -5q-5 -7 -7 -11q-4 -11 -12 -28l-7 -14l-6 -14l-8 -13l-8 -14q-11 -17 -13 -28q-3 -10 -6 -22
l-3 -11q-2 -6 -3 -12q-4 -16 -4 -27q0 -20 11 -29q4 -3 9 -3q8 0 19 7l9 7l3 3l4 3q13 9 26 21l12 11l13 13q9 9 17 19q3 3 10 9l5 4l5 5l7 10l9 9q5 4 15 14l9 7l4 4l3 3q17 16 33 35l7 8l8 10l20 22l7 7l8 8q10 11 14 17q16 23 24 26q6 2 8 3q2 3 4 7l2 8q2 5 6 11
q4 8 7 8l2 -1v-2q1 -3 2 -3q2 0 4 2l2 3l4 6l3 6q5 7 9 11l5 5q3 2 4 4q2 4 11 12q3 3 7 10l2 7l3 5l7 9l5 10q3 5 9 14q3 3 3 7v3l1 4q2 9 13 23l9 11l5 6l4 5l7 7l8 9q11 13 13 15l8 11l7 11q7 11 15 17l7 7l7 7q5 3 9 3q6 0 11 -5l3 -4l3 -4l7 -8l7 -7q6 -8 6 -17
q0 -5 -2 -11q-2 -4 -3 -9l-1 -4q-1 -3 -2 -7q-2 -5 -6 -10l-3 -5l-4 -4q-5 -7 -11 -22l-5 -12q-2 -7 -5 -11q-5 -8 -15 -19l-7 -9l-8 -10l-8 -10l-7 -11l-3 -7l-2 -7q-3 -8 -6 -13l-7 -11l-7 -10q-9 -13 -14 -23t-14 -23l-8 -11l-7 -12q-6 -8 -13 -22l-5 -12l-6 -11l-18 -28
l-17 -28l-13 -23l-14 -22q-16 -28 -26 -46l-5 -10l-6 -10q-7 -12 -10 -20q-5 -11 -13 -25l-7 -12l-7 -12q-5 -9 -11 -25l-6 -12l-6 -13q-17 -34 -27 -56l-21 -45l-7 -13l-8 -12q-10 -17 -14 -26q-13 -31 -18 -46l-2 -7l-1 -6q0 -3 2 -8l2 -3v-4q0 -8 -7 -13q-7 -4 -15 -4
t-20 8zM-28 -266q-2 3 -2 7q1 5 4 13l2 6l2 5q9 20 22 29l4 2l5 3q7 3 13 3h5l4 -1q4 0 11 2l5 1h10l5 1h9q9 1 19 3l9 1l8 1q10 1 28 1h26q11 1 24 1h39q22 0 38 -2q28 -2 28 -19q0 -3 -2 -9l-3 -8v-5l-1 -4q-1 -5 -2 -9q-4 -7 -12 -12l-3 -3l-4 -3q-4 -4 -7 -4t-8 2l-4 2
h-4q-5 1 -12 1q-7 1 -11 1h-19l-6 -1l-6 -1q-8 -2 -14 -2l-14 1l-15 1h-9l-7 -1h-20l-8 -1h-10q-2 0 -9 -1l-14 -1q-19 -1 -21 -1h-39q-7 0 -17 -1l-4 -1l-6 -1q-4 0 -7 4z" />
    <glyph glyph-name="uni0424" unicode="&#x424;" horiz-adv-x="478" 
d="M310 623l9 3q25 7 40 9l7 1l6 1q8 2 12 2h5l3 -1q5 -2 10 -2q4 0 9 2q6 2 10 2q2 0 5 -2l2 -1l3 -1h6l3 1q5 2 7 2l6 -3l3 -2l2 -2q9 -3 15 -3q9 0 20 -8l10 -6l10 -5q13 -6 20 -10q15 -11 34 -31q33 -35 40 -84q3 -15 3 -30q0 -42 -15 -80q-18 -47 -43 -76
q-39 -47 -65 -65q-48 -34 -83 -53q-19 -10 -45 -18q-38 -11 -65 -11q-20 0 -36 6q-2 1 -7 3l-9 5q-12 6 -17 6t-18 -19l-13 -21q-6 -9 -11 -20l-4 -10l-5 -10q-3 -7 -9 -13l-4 -5q-3 -3 -5 -7q-6 -10 -14 -29l-12 -30q-2 -5 -9 -13l-5 -7l-4 -7l-5 -8l-4 -8q-6 -8 -15 -8
t-21 11l-10 9q-3 4 -7 9q-12 15 -12 25t7 28q5 14 14 30l12 24l12 24l11 22q7 12 14 20l5 5l5 4q3 4 5 9l1 5l1 5q1 3 3 6l-4 3l-10 4q-13 6 -20 10q-15 10 -34 29q-33 32 -40 77q-2 14 -2 28q0 39 14 75q18 43 43 70q39 43 65 60q1 0 1 1l3 3q2 2 6 3q36 23 64 37v1l1 3
q3 4 9 5h4l5 1h2q15 6 34 11q23 7 41 9zM166 256l1 3q1 5 2 6q2 1 5 2h2l3 1q1 1 5 7l3 5q1 2 2 3l5 9l5 10q4 7 12 18l7 8l6 9q4 6 10 18l5 9l5 8l6 9l7 8q9 10 11 14l2 6q0 3 1 4l2 2l2 2q1 1 1 4l1 3q2 3 7 7l3 4l4 4l1 4q0 2 1 4l3 2l3 1q4 2 6 4l6 8l5 8q7 9 14 15l6 4
q5 2 9 2q3 0 26 -23q4 -4 8 -11q4 -8 4 -13q0 -10 -9 -23q-6 -8 -16 -25l-8 -12l-7 -12q-33 -51 -51 -84q-6 -11 -17 -28l-4 -5l-4 -6q-5 -7 -5 -11q0 -5 9 -7l11 -1q20 0 44 10q19 8 38 21q12 8 21 11q11 4 17 9l19 13l19 14q38 27 68 69q4 5 9 14l7 15l8 13q5 7 7 13
q7 19 7 37q0 25 -9 40q-5 9 -16 18q-9 9 -19 15q-7 4 -19 6l-10 1l-11 1l-9 2l-11 1q-12 2 -21 2q-15 0 -27 -3l-10 -4l-10 -2l-13 -2l-12 -2q-14 -2 -24 -5q-49 -15 -107 -41q-6 -3 -13 -8l-6 -5l-7 -4l-12 -7l-12 -7q-4 -3 -8 -5q-10 -9 -19 -18l-1 -1q-3 -4 -7 -7
q-5 -9 -5 -16q0 -4 2 -7l6 -7q7 -8 7 -13q0 -4 -2 -8q-3 -5 -8 -5q-4 0 -11 5l-6 5l-4 3l-6 5l-3 -6l-8 -12q-4 -7 -6 -12q-7 -18 -7 -34q0 -24 8 -38q5 -8 16 -17q9 -8 19 -13q7 -4 19 -6l10 -1l11 -1h1z" />
    <glyph glyph-name="uni0425" unicode="&#x425;" horiz-adv-x="509" 
d="M30 -37q-11 9 -20 25t-9 28q0 17 17 41l6 9l6 8l14 17q17 19 66 63l8 8l9 8q4 3 7 8l7 9q6 8 17 15l9 7l9 6q7 5 18 16l8 9l9 8l9 6q6 3 9 6q3 2 7 8l6 9l8 8q5 4 11 6q9 4 21 13l2 1l5 3q5 5 5 7t-2 2t-8 -5q-7 -5 -8 -5t-1 1q0 4 6 9l5 5l4 5l2 4l1 4l2 2l2 1q2 1 3 4
l2 5l1 5q0 3 -4 9t-4 13l1 10l2 17l2 18q2 21 2 33l-1 15l-1 15q0 14 5 24l1 5l1 6q1 8 3 11l4 4l3 4q2 2 2 6l1 7v3l1 4q0 3 -3 6q-4 3 -4 7q0 7 3 18q3 10 6 18q10 20 30 20q4 0 12 -2l7 -2l8 -3q32 -9 29 -27l-3 -11l-3 -12q-4 -16 -5 -26l-3 -32l-4 -31q-1 -11 -1 -27
v-21l1 -11v-10q0 -8 4 -8q3 0 8 6q4 6 10 11l12 9q23 17 53 42q20 17 52 46l4 4l4 5q6 5 10 7l7 2l6 3l6 4l7 4q9 6 15 7q7 1 18 7l8 5l9 6q4 2 7 7l3 5l3 5q3 4 11 8l7 4l6 3l14 7l14 7q16 6 30 6q11 0 24 -5q9 -4 21 -13q5 -3 5 -9q0 -4 -6 -10q-2 -3 -10 -7l-5 -4l-6 -4
l-12 -5q-7 -3 -12 -6l-12 -8q-7 -5 -11 -8l-21 -18l-21 -17q-26 -22 -44 -34l-12 -8l-12 -9l-10 -9l-9 -9q-4 -3 -11 -6l-6 -3l-5 -3l-12 -10l-12 -11l-11 -8q-6 -5 -10 -10l-10 -11q-5 -7 -10 -10q-8 -6 -19 -16l-10 -8l-10 -8l-10 -8q-7 -5 -10 -9l-9 -11l-10 -10
q-8 -8 -8 -19q0 -14 3 -35l6 -31l6 -31l8 -32l7 -32q2 -13 9 -28l7 -13l7 -13l6 -12l7 -10q8 -12 20 -16l6 -2l7 -1q8 -2 12 -5q3 -3 4 -7l1 -8q0 -5 -3 -10q-6 -12 -18 -13q-4 0 -12 -2l-7 -2h-8l-5 -1l-5 -1q-5 -2 -9 -2q-5 0 -14 5l-7 4l-6 4l-6 3l-6 3l-4 5l-3 5l-11 11
l-10 11q-8 9 -16 22l-6 12l-6 12q-7 12 -11 30l-4 15l-4 16q-4 19 -9 28l-2 4l-2 5q-3 5 -4 11v7l-1 6l-1 11q-3 14 -7 14q-2 0 -4 -2l-4 -3l-8 -8q-6 -4 -8 -7q-3 -4 -8 -7l-8 -6q-3 -2 -7 -7l-3 -5l-4 -4l-9 -6l-9 -7l-9 -9l-8 -9l-16 -18l-16 -18l-7 -8l-7 -8
q-3 -3 -9 -7l-9 -7q-3 -3 -5 -7l-4 -8q-2 -3 -7 -7l-5 -3l-4 -3l-8 -8l-7 -9l-10 -9l-9 -9q-3 -4 -7 -8l-7 -6q-6 -7 -12 -15l-3 -6l-3 -5q-4 -6 -9 -8l-6 -1q-6 0 -13 6z" />
    </font>
</defs>
</svg>
