<?xml version="1.0" standalone="no"?>
<!DOCTYPE svg PUBLIC "-//W3C//DTD SVG 1.1//EN" "http://www.w3.org/Graphics/SVG/1.1/DTD/svg11.dtd" >
<svg xmlns="http://www.w3.org/2000/svg">
<metadata></metadata>
<defs>
<font id="nipcens_handwriting_condbCnBd" horiz-adv-x="1020" >
<font-face units-per-em="2048" ascent="1638" descent="-410" />
<missing-glyph horiz-adv-x="508" />
<glyph horiz-adv-x="0" />
<glyph unicode="&#xd;" horiz-adv-x="508" />
<glyph unicode=" "  horiz-adv-x="508" />
<glyph unicode="&#x09;" horiz-adv-x="508" />
<glyph unicode="&#xa0;" horiz-adv-x="508" />
<glyph unicode="!" horiz-adv-x="413" d="M80 1269l33 40h77l68 -57l-16 -242v-391l-83 -103q-63 252 -79 753zM93 208l35 44h33q145 0 173 -104v-106l-48 -60h-112l-69 87l21 27v8z" />
<glyph unicode="&#x22;" horiz-adv-x="722" d="M80 972q34 318 144 318l54 -67q-33 -46 -53 -510h-111zM418 837q41 472 142 472h33l49 -61l-63 -391l15 -153v-28l-81 -102q-71 97 -95 263z" />
<glyph unicode="#" horiz-adv-x="1349" d="M80 374l63 224h228l53 184h-242l64 223h242l119 419h217l-118 -419h122l119 419h216l-117 -419h223l-62 -223h-225l-52 -184h236l-63 -224h-236l-119 -417h-218l120 417h-123l-121 -417h-216l120 417h-230zM588 596h126l53 186h-126z" />
<glyph unicode="$" horiz-adv-x="1227" d="M80 143v22q0 67 84 67l214 -38h168l10 49q-18 258 -73 258q-311 0 -311 345l14 18l-14 88q0 188 307 272v47h11l-11 65v29l63 79h48q66 0 66 -214q15 -19 185 -38q106 -140 106 -208l-32 -40h-36l-192 36q-31 -15 -31 -26q10 -230 30 -258l164 17h17q280 0 280 -433 q0 -165 -370 -289q-16 -220 -79 -220q-122 0 -152 157q-412 58 -466 215zM379 799q0 -105 132 -105l-1 -2v10l-28 242h16q-119 0 -119 -125v-20zM702 320l11 -68h10q217 65 217 160q-24 89 -88 89h-16q-134 0 -134 -28v-153z" />
<glyph unicode="%" horiz-adv-x="1642" d="M80 816v137q0 189 237 304q249 -162 292 -395l32 -119q-42 -261 -219 -261h-47q-202 0 -295 334zM256 855q0 -87 70 -142h72q38 20 50 86q-46 183 -150 183q-11 0 -42 -127zM464 -11v86q170 266 416 1233l58 97h52q49 0 81 -106l-402 -1376l-30 -37h-33q-108 0 -142 103z M925 184v116q0 196 238 355h44q86 -106 270 -221q85 -138 85 -211q0 -242 -324 -357q-313 58 -313 318zM1101 150q29 -71 89 -71h15q132 0 165 146q0 145 -152 161h-25q-92 -14 -92 -163v-73z" />
<glyph unicode="&#x26;" horiz-adv-x="1104" d="M80 1263q44 238 111 238h184q174 0 219 -393v-78q0 -72 -153 -408v-9q97 -154 205 -181q58 152 133 204h61v-89l-46 -192v-33q20 -51 230 -181v-118l-57 -72l-341 223h12q-179 -192 -288 -192q-208 131 -208 320l75 285q-137 329 -137 676zM256 1166q43 -357 58 -357 q120 119 120 278q-21 183 -43 183h-99q-36 -17 -36 -104zM318 317q5 -142 84 -142q108 30 108 67v29q-17 0 -165 153h-3z" />
<glyph unicode="'" horiz-adv-x="399" d="M80 1089q61 509 126 509h49l64 -81l-78 -449l16 -199l-33 -41h-48q-96 100 -96 261z" />
<glyph unicode="(" horiz-adv-x="635" d="M80 498q0 237 66.5 468t211.5 477h197q-125 -260 -176.5 -482.5t-51.5 -460.5q0 -239 52 -463t176 -484h-197q-145 248 -211.5 477t-66.5 468z" />
<glyph unicode=")" horiz-adv-x="633" d="M80 -447q124 260 176 485t52 462q0 234 -52 458t-176 485h197q144 -245 210 -475.5t66 -469.5t-66 -469t-210 -476h-197z" />
<glyph unicode="*" horiz-adv-x="881" d="M80 1032l60 229l197 -85v261h202v-262l197 84l64 -229l-212 -71l143 -222l-168 -151l-125 227l-124 -225l-168 147l144 225z" />
<glyph unicode="+" horiz-adv-x="1149" d="M80 471v217h394v507h200v-507h395v-217h-395v-508h-200v508h-394z" />
<glyph unicode="," horiz-adv-x="446" d="M80 -258q0 208 74 457l-12 16v27q0 120 87 164h41l96 -119q-115 -632 -205 -632h-34l-47 60v27z" />
<glyph unicode="-" horiz-adv-x="631" d="M80 384v261h471v-261h-471z" />
<glyph unicode="." horiz-adv-x="444" d="M80 146q0 91 86 144q149 0 198 -121v-47q-76 -159 -126 -159q-158 0 -158 183z" />
<glyph unicode="/" horiz-adv-x="726" d="M80 -220l396 1694h170l-397 -1694h-169z" />
<glyph unicode="0" horiz-adv-x="1120" d="M80 644q0 370 419 780h46q402 0 402 -373l93 -463q-94 -625 -511 -625h-51q-315 87 -398 681zM318 587q0 -265 182 -333q225 69 225 186q77 122 77 244v18q-76 395 -165 395h-15q-159 0 -289 -398z" />
<glyph unicode="1" horiz-adv-x="643" d="M80 1034q0 259 305 359h64l69 -258l-32 -290q0 -575 77 -713v-68l-73 -139h-38q-135 0 -180 1080l7 -12l-63 -48z" />
<glyph unicode="2" horiz-adv-x="1166" d="M80 1021q0 267 302 411h41q325 -23 325 -408q-31 -403 -90 -648l11 -16l218 19q171 -62 199 -152v-93l-44 -88l-280 22l-498 -110l-92 176v115q57 130 145 130l85 -14v-10q93 178 139 670q0 118 -73 118q-70 0 -226 -253h-72q-54 16 -90 131z" />
<glyph unicode="3" horiz-adv-x="1027" d="M80 256v52l64 81q216 -252 385 -252q120 0 211 337q-50 182 -94 182l-168 -96q-143 0 -199 200q11 91 176 212l55 103v44l-29 37h2q-85 0 -288 -85l-100 125v112l79 98h62l230 19q251 0 298 -299l-73 -219q256 -170 256 -395v-98q-90 -508 -418 -508q-239 0 -449 350z " />
<glyph unicode="4" horiz-adv-x="1012" d="M80 543v64q0 78 223 760h72q75 0 97 -228q-79 -104 -154 -398q6 -47 88 -47q88 0 88 85l-18 184q34 0 34 37l32 40h84l76 -119v-163l70 13h49l111 -116v-94l-78 -98h-144l-8 -29l76 -305v-22q0 -67 -124 -89q-112 122 -142 413l-44 12l-78 -20l-64 20l-168 -21z" />
<glyph unicode="5" horiz-adv-x="1150" d="M80 87v23q31 103 81 103h45q118 -115 200 -115h92q292 0 365 376q0 104 -177 104l-218 -39l-82 15q-16 -61 -92 -110h-35q-71 36 -118 181l61 329l-15 220q95 97 487 97q84 -35 120 -121q0 -107 -343 -200l-41 -172v-28l8 -11l243 89h129q112 0 280 -233v-163 q-106 -546 -337 -546q0 -29 -281 -60l-18 22h20l-15 -20q-317 0 -359 259z" />
<glyph unicode="6" horiz-adv-x="1027" d="M80 364v278q212 725 434 725h123q188 0 188 -232v-26q-41 -115 -126 -115q-94 89 -129 89q-283 -162 -283 -618l-22 32q33 171 456 171q226 -93 226 -300v-22q0 -417 -429 -525q-197 0 -438 543zM349 283q41 -94 130 -156h14q217 68 217 234l-29 43q-236 -34 -332 -115 v-6z" />
<glyph unicode="7" horiz-adv-x="950" d="M80 1229l77 121l218 -21l336 38h72q87 -44 87 -169l-155 -292q-182 -461 -182 -683v-113l31 -137q-32 -125 -136 -125q-133 71 -133 223l231 981v9l-16 19v-6l-336 -36q-94 125 -94 191z" />
<glyph unicode="8" horiz-adv-x="1058" d="M80 819v38q0 285 438 451l274 64l78 -124q0 -312 -223 -486l-7 -9v-68q302 -96 338 -482q-41 -432 -300 -432q-329 80 -459 230l-32 243l75 223q-182 193 -182 352zM302 822q22 -70 65 -70q66 151 167 278l-2 3q-230 -84 -230 -211zM426 181q0 -122 248 -122l67 168 q0 155 -200 197q-44 0 -115 -243z" />
<glyph unicode="9" horiz-adv-x="1089" d="M80 951q0 201 399 546l167 62q363 0 363 -400q-169 -302 -169 -917q0 -179 -60 -279q-115 0 -132 317l30 490h-18l-199 -96h-163q-160 0 -218 277zM349 961l15 -19v2q185 0 330 265v25l-29 36h-19q-297 -151 -297 -309z" />
<glyph unicode=":" horiz-adv-x="375" d="M80 146q0 91 86 144q149 0 198 -121v-47q-76 -159 -126 -159q-158 0 -158 183zM80 1066q0 91 86 144q149 0 198 -121v-47q-76 -159 -126 -159q-158 0 -158 183z" />
<glyph unicode=";" horiz-adv-x="375" d="M80 -258q0 208 74 457l-12 16v27q0 120 87 164h41l96 -119q-115 -632 -205 -632h-34l-47 60v27zM80 1066q0 91 86 144q149 0 198 -121v-47q-76 -159 -126 -159q-158 0 -158 183z" />
<glyph unicode="&#x3c;" horiz-adv-x="1134" d="M80 486v185l974 503v-245l-687 -351l687 -350v-242z" />
<glyph unicode="=" horiz-adv-x="1149" d="M80 273v216h989v-216h-989zM80 668v219h989v-219h-989z" />
<glyph unicode="&#x3e;" horiz-adv-x="1134" d="M80 -14v242l686 350l-686 351v245l974 -503v-185z" />
<glyph unicode="?" horiz-adv-x="858" d="M80 1073v16q0 149 313 320l164 36q221 -222 221 -403q0 -303 -277 -498l-54 -72h-49q-61 28 -61 123v23l268 339v115q-13 111 -71 111h-59q-90 0 -248 -247h-75q-72 38 -72 137zM243 100v16q0 98 72 137h51l109 -146v-38q0 -62 -140 -108q-92 33 -92 139z" />
<glyph unicode="@" horiz-adv-x="1651" d="M80 494q0 161 41 307t121 269q117 179 283.5 273t370.5 94q134 0 255.5 -46.5t207.5 -130.5q107 -103 159.5 -236t52.5 -298q0 -159 -51.5 -298.5t-149.5 -237.5q-57 -58 -126 -88t-143 -30q-97 0 -146 48.5t-49 139.5v-137q20 40 -44 -4.5t-155 -44.5 q-135 0 -204.5 93.5t-69.5 258.5q0 230 113.5 397t282.5 167q80 0 135 -39l54 -40l20 45h182l-120 -595q-1 -4 -2 -11q-4 -26 -4 -33q0 -28 11.5 -40t28.5 -12q28 0 64 24.5t70 71.5q52 69 80 163t28 201q0 233 -134 375t-350 142q-101 0 -185.5 -27.5t-153.5 -84.5 q-133 -103 -206 -268.5t-73 -369.5q0 -291 152 -461t404 -170q121 0 235.5 45t247.5 160l81 -150q-134 -127 -271 -184.5t-287 -57.5q-154 0 -282.5 48.5t-227.5 143.5q-124 119 -185 275.5t-61 352.5zM642 419q0 -88 28 -127.5t72 -39.5q52 0 100.5 54.5t67.5 149.5l41 216 q-9 71 -37.5 105.5t-68.5 34.5q-76 0 -139.5 -112t-63.5 -281z" />
<glyph unicode="A" horiz-adv-x="1089" d="M80 189q131 285 246 922q52 256 208 256l76 -119v-83q0 -368 336 -759l63 -374v-29l-63 -78h-55q-63 22 -144 219l-24 10q-451 -53 -451 -153h-74q-118 63 -118 188zM381 425l23 -19q181 0 226 68q-123 246 -160 393h-2q-31 0 -87 -442z" />
<glyph unicode="B" horiz-adv-x="1135" d="M80 236v72l62 76l-16 704v181l78 98q651 0 651 -415l-29 -165l162 -184l59 -83l8 -165q-94 -373 -297 -373l-392 38l-91 -38h-43zM302 782l2 -4q62 50 254 105q75 60 75 90q0 66 -215 105q-100 0 -100 -164zM318 511q0 -240 106 -240l154 -19q240 0 240 163v19 q0 96 -213 106q-68 0 -202 -86l-84 70l-1 -2v-11z" />
<glyph unicode="C" horiz-adv-x="1182" d="M80 470q0 520 169 649q0 131 335 248h77q363 -187 363 -502l-67 -56q-93 0 -250 215l-143 33q-231 -106 -231 -267q-35 0 -46 -88q0 -341 198 -530l186 -36q86 0 321 193h46l64 -81q-68 -362 -294 -362l-138 -19h-33q-335 0 -510 445z" />
<glyph unicode="D" horiz-adv-x="1120" d="M80 287l77 115v338l-62 290q50 337 188 337h50q0 -58 426 -137q281 -214 281 -469v-154q0 -330 -599 -464v-45h13l-13 17v-28q-31 -201 -158 -201q-97 0 -140 283q-63 41 -63 118zM349 473q0 -87 42 -87q199 0 383 212q36 0 58 199q-75 223 -430 223q-53 -190 -53 -432 v-115z" />
<glyph unicode="E" horiz-adv-x="1074" d="M80 1264q37 107 98 124l92 -38l369 116q231 -112 231 -167v-38q0 -48 -249 -104l-319 -217v-133l14 -17h7l347 119q99 -53 108 -108q0 -167 -201 -238q-121 -89 -244 -129v-134q0 -21 45 -29q124 0 316 78l100 -20h121l79 -98q0 -191 -261 -191l-446 -96q-145 0 -145 336 l-16 500v340q-46 70 -46 144z" />
<glyph unicode="F" horiz-adv-x="935" d="M80 1337q0 90 109 172q173 -105 574 -144l92 -115v-55l-62 -78h-402q-104 0 -104 -334q19 -70 56 -70l223 20q186 -77 233 -146l-83 -105h-121q-262 -71 -262 -160l61 -192q0 -122 -87 -167q-197 0 -197 628l16 57z" />
<glyph unicode="G" horiz-adv-x="1258" d="M80 549v79q152 720 442 720l46 19q262 0 364 -236v-123q-22 -84 -126 -84h-32q-134 154 -184 154q-249 0 -303 -549v-37q0 -192 233 -279h55q134 0 243 188v-18l-180 -16q-144 0 -144 176q325 228 557 228h39q88 -44 88 -164v-22q-117 -398 -435 -639l-134 -21h-95 q-198 0 -418 426z" />
<glyph unicode="H" horiz-adv-x="1197" d="M80 1237q0 207 173 207q113 0 126 -223l-30 -154v-210q0 -48 186 -48l110 59l171 -18l17 32v243l-31 173q0 141 154 165h34q111 -111 111 -221v-45q-78 -118 -91 -280l71 -223q-49 0 -56 -67l92 -460v-48l-62 -77q-121 114 -201 515q-490 -34 -490 -142q0 -259 22 -259 l96 23l36 -45v-48q-57 -277 -143 -277q-159 0 -188 354l-15 174v539q0 165 -92 361z" />
<glyph unicode="I" horiz-adv-x="1079" d="M80 1247l77 144l202 -42l427 114q98 0 177 -139q0 -124 -101 -188h-195q-33 0 -52 -394q29 -471 73 -471h186q125 -16 125 -87v-41q-57 -180 -403 -180h-287q-101 64 -101 183q0 120 87 163h45l58 -18q25 5 25 124l-5 634q0 24 -25 28l-231 -62q-82 107 -82 232z" />
<glyph unicode="J" horiz-adv-x="1043" d="M80 261v104l47 60h84q114 -173 272 -173q135 0 135 316q-28 510 -88 510l-332 -20q-118 62 -118 203q0 103 117 149q81 -62 128 -62l353 96h99q186 -18 186 -145q0 -70 -171 -152l-14 -98l47 -596q-61 -471 -232 -471l-138 -19h-86q-289 106 -289 298z" />
<glyph unicode="K" horiz-adv-x="997" d="M80 1338v27l53 66q154 -57 154 -151l-15 -379l32 -53h-9q200 276 263 541l80 74q124 0 172 -141v-85l-291 -593q87 -258 289 -397q109 -46 109 -101v-85l-79 -98h-80l-337 385h-15q-7 0 -14 -77h-6l40 -184q-47 -144 -106 -162q-178 0 -178 431q-62 631 -62 982z" />
<glyph unicode="L" horiz-adv-x="1027" d="M80 1182q22 168 92 185q163 0 208 -280l-31 -117v-478q0 -202 120 -202q38 36 292 78q187 -41 187 -107v-68q-234 -211 -695 -211q-101 0 -127 221l16 635q0 145 -62 344z" />
<glyph unicode="M" horiz-adv-x="1550" d="M80 227q46 111 77 1079l107 157h66q116 0 217 -579l145 -236h2q139 349 139 496l-16 80q46 143 106 162h23q232 -33 232 -505q76 -171 167 -551q125 -136 125 -223v-84l-63 -79h-49q-172 0 -203 372q-116 493 -149 493q-56 0 -120 -472v-194q-22 -84 -127 -84 q-172 0 -233 445l-186 305q-7 0 -7 -259v-192l16 -212q0 -145 -155 -145q-114 83 -114 226z" />
<glyph unicode="N" horiz-adv-x="1135" d="M80 1233q101 95 203 95h31q81 0 171 -345l259 -325l-2 -3h-4l-59 566q0 132 163 146q121 -51 121 -183v-21l-46 -250q0 -480 138 -723v-110l-71 -89q-243 134 -349 471q-209 287 -320 385h18v10q0 -388 93 -672q-48 -184 -112 -184q-129 0 -188 221l16 98 q-16 471 -48 620l16 21v8q-30 87 -30 264z" />
<glyph unicode="O" horiz-adv-x="1120" d="M80 644q0 370 419 780h46q402 0 402 -373l93 -463q-94 -625 -511 -625h-51q-315 87 -398 681zM318 587q0 -265 182 -333q225 69 225 186q77 122 77 244v18q-76 395 -165 395h-15q-159 0 -289 -398z" />
<glyph unicode="P" horiz-adv-x="998" d="M80 1329l68 57h34l69 -17l42 17q579 0 579 -234q46 -69 46 -199v-77q0 -355 -240 -412l-172 -59h-81l-12 -15l45 -187q-30 -103 -116 -163q-128 0 -215 218l15 330v134zM334 780q0 -105 73 -105h58q230 46 230 259q0 144 -134 144h-23q-204 -85 -204 -105v-193z" />
<glyph unicode="Q" horiz-adv-x="1350" d="M80 559h7l-7 26q0 473 384 854l75 24h36q160 0 337 -227q235 -369 235 -552v-115q0 -87 -92 -237q0 -38 215 -193v-73q-22 -84 -127 -84q-77 0 -205 142l-320 -219q-356 0 -460 272q-78 254 -78 382zM287 474q55 -261 196 -261q135 0 242 133v3q-154 190 -154 297v27 l63 79h88q60 -33 130 -190l2 -3h13q73 72 73 183q0 176 -230 291q0 119 -111 160q-139 0 -297 -513z" />
<glyph unicode="R" horiz-adv-x="1059" d="M80 1182q35 242 189 242h387q322 -59 322 -375q0 -113 -276 -525v-2l200 -173v-96l-48 -59h-102q-250 115 -358 115l1 2v-106l15 -119q-36 -108 -91 -123h-77q-116 76 -116 280l32 269q0 421 -78 670zM334 895q0 -220 57 -220q215 0 335 397v16q0 67 -243 67 q-131 0 -149 -260z" />
<glyph unicode="S" horiz-adv-x="1105" d="M80 377q32 105 82 105h51q130 -230 348 -230h13q183 26 183 201v77q0 40 -167 67l-228 -19q-192 0 -266 199v44q57 296 274 520l167 83q207 0 334 -215v-63q0 -173 -194 -185q-73 156 -109 156q-203 -90 -203 -229l24 -20l340 18q198 0 296 -488q0 -301 -305 -397h-86 q-492 90 -492 231q-24 0 -62 145z" />
<glyph unicode="T" horiz-adv-x="1197" d="M80 1299v47l80 100l218 -23h48q28 -7 65 -7q144 0 424 108q168 -90 202 -183v-61q0 -79 -365 -159q-50 -82 -50 -187q0 -283 92 -847q-48 -182 -112 -182h-33q-170 32 -170 241l16 214q14 68 14 201q0 191 -29 515l-21 18l-201 -54h-64q-114 86 -114 259z" />
<glyph unicode="U" horiz-adv-x="1105" d="M80 1320q47 145 118 181h72l110 -136v-86l-46 -289q0 -648 128 -719h76q264 99 264 279q0 221 -92 495l-16 102q48 145 119 181h81q100 -64 100 -182v-191l31 -212v-272q-107 -508 -557 -508q-357 0 -357 625l-15 483l15 56z" />
<glyph unicode="V" horiz-adv-x="1152" d="M80 1164q27 169 97 169h77q65 -72 278 -577l113 -230h-23q84 92 151 550q28 257 157 257q124 0 142 -186q-166 -421 -290 -876l13 -16v-30q-53 -200 -111 -200q-190 0 -249 467q-153 380 -355 672z" />
<glyph unicode="W" horiz-adv-x="1412" d="M80 1118v41q13 143 81 143h85q87 -43 87 -163v-19l15 -183q72 -358 74 -358h-7q126 231 126 509v120q45 99 134 140q165 0 165 -202v-229q88 -319 83 -319q64 106 157 790l80 75h76q52 0 97 -165q-232 -624 -232 -960v-192q0 -120 -75 -145h-34q-193 159 -251 509 q0 170 -59 219q-27 -63 -57 -277q0 -66 31 -66q0 -346 -213 -423h-37q-92 0 -141 314q-53 270 -103.5 475t-81.5 366z" />
<glyph unicode="X" horiz-adv-x="1044" d="M80 1243q38 109 91 124h21q162 0 202 -290l78 -114h-4q13 0 43 186q55 241 139 256h45q115 -83 115 -202v-65q-183 -229 -199 -389l336 -401l16 -105v-78q0 -45 -96 -91q-192 97 -263 295q-62 171 -86 171q-70 -109 -109 -427l-107 -80q-160 94 -160 228q0 51 215 448v27 l-259 421z" />
<glyph unicode="Y" horiz-adv-x="1198" d="M80 1291l82 78h95q219 -308 227 -308h118q185 279 220 470l155 73q141 -76 141 -237q-221 -190 -232 -284q-76 -127 -76 -320v-85q-108 -133 -108 -202l78 -405q-28 -125 -158 -125q-111 116 -111 182l-33 529h18q0 144 -398 458z" />
<glyph unicode="Z" horiz-adv-x="1015" d="M80 140q0 16 2 35q264 404 320 540.5t143 419.5h-1l-86 20l-257 -4q-95 65 -95 167q0 17 3 36l11 85l79 70l135 -53q156 -23 273 -23q85 0 148 12q119 -106 119 -223q0 -16 -2 -32q-182 -261 -380 -811l-10 -73q-2 -16 -2 -30q0 -62 45 -72l316 28l42 -10q52 -35 52 -108 q0 -20 -3 -45l-8 -57q-17 -121 -115 -147l-123 48l-544 19q-62 129 -62 208z" />
<glyph unicode="[" horiz-adv-x="570" d="M80 -441v1878h410v-224h-173v-1432h173v-222h-410z" />
<glyph unicode="\" horiz-adv-x="725" d="M80 1474h170l395 -1694h-167z" />
<glyph unicode="]" horiz-adv-x="570" d="M80 -219h173v1432h-173v224h410v-1878h-410v222z" />
<glyph unicode="^" horiz-adv-x="1210" d="M80 827l422 597h206l421 -597h-236l-287 360l-290 -360h-236z" />
<glyph unicode="_" horiz-adv-x="1015" d="M80 -278h855v-223h-855v223z" />
<glyph unicode="`" horiz-adv-x="558" d="M80 1499q0 42 28.5 80.5t73.5 38.5q68 0 186 -176q110 -164 110 -232q0 -43 -31 -79t-75 -36q-54 0 -87 59l-77 143q-38 66 -89 115q-39 38 -39 87z" />
<glyph unicode="a" horiz-adv-x="987" d="M80 275q0 31 5 63l5 38q34 238 565 238l17 14q4 27 4 51q0 84 -50 120l-8 1q-13 3 -27 3q-107 0 -222 -181l-68 15q-81 97 -81 199q0 18 3 37q30 215 402 215h21l19 -4q221 -49 221 -707v-24q21 -4 21 -128q0 -47 -5 -116q-15 -104 -294 -104q-38 0 -80 2 q-3 -21 -282 -45q-166 133 -166 313zM348 277l10 -16l220 30l4 29l-61 14q-20 4 -39 4q-70 0 -133 -58z" />
<glyph unicode="b" horiz-adv-x="940" d="M80 189v14l55 282q22 344 22 528q0 203 -27 209q20 145 127 145q19 0 40 -5l15 -3q60 -14 60 -162q0 -58 -9 -137l-16 -15l2 -88l-18 -127l15 -26q61 43 133 43q29 0 59 -7q322 -136 322 -425q0 -39 -6 -80l-3 -18q-36 -255 -372 -323l-153 33q-12 -87 -117 -87 q-19 0 -58 8q-71 143 -71 241zM307 438q-1 -8 -1 -16q0 -116 135 -145l16 -4l161 99l1 6q2 15 2 29q0 101 -121 128l-30 7l-163 -99v-5z" />
<glyph unicode="c" horiz-adv-x="1022" d="M80 357v96q0 207 342 549h153q146 0 204 -261q-37 -109 -91 -124h-66q-60 57 -124 57h-33q-163 -128 -163 -259q0 -95 114 -163h52q131 0 314 145q44 37 77 37q67 0 83 -155l-28 -108q-224 -208 -453 -208q-381 145 -381 394z" />
<glyph unicode="d" horiz-adv-x="1043" d="M80 359q0 110 30 222q365 409 459 409q4 0 8 -1q23 -1 42 -1q95 0 97 13l16 112l-2 228l114 76l46 -10q73 -16 73 -210q0 -21 -1 -46l-57 -183l-23 -268l-29 -109q13 -134 79 -423l2 -121l-118 -31l-84 36q-148 -83 -377 -89q-191 42 -271 313q-4 43 -4 83zM296 404 q21 -120 90 -135l60 -13q13 -3 27 -3q88 0 185 123q16 108 16 175q0 103 -37 111q-26 6 -52 6q-166 0 -287 -251z" />
<glyph unicode="e" horiz-adv-x="1027" d="M80 415q1 153 75 336q127 249 366 308h72q351 -125 351 -405l3 -5l-69 -214l-134 -71l-70 22q-284 -24 -284 -48v-19q0 -43 147 -66l282 104l48 -91q0 -303 -281 -303h-60q-236 0 -440 284zM437 661v6l47 -12q145 0 145 48v25l-38 23h-20q-97 0 -134 -90z" />
<glyph unicode="f" horiz-adv-x="960" d="M80 689q0 53 33 135l117 24l74 -13q0 570 339 570l132 21q95 -51 105 -106v-78q0 -84 -238 -105q-116 -74 -116 -224l17 -7l139 20q168 -70 168 -127v-57q0 -65 -216 -135v-16q77 -291 77 -426q0 -119 -101 -183h-52q-87 61 -116 162l16 270q-28 141 -66 170l-187 -44 h-48q-77 64 -77 149z" />
<glyph unicode="g" horiz-adv-x="966" d="M80 181v157q0 371 350 549l300 -20h44q112 -100 112 -183l-16 -327l16 -520q-88 -432 -360 -432v-45l36 45h-37q-399 91 -399 376v84l48 60h54q141 -250 240 -250q211 0 211 355q-4 67 -4 98q0 27 3 27l-179 -111l-163 -62h-68q-117 0 -188 199zM287 321q10 -50 43 -50 q107 0 210 168q-14 139 -26 139h-25q-202 -67 -202 -257z" />
<glyph unicode="h" horiz-adv-x="942" d="M80 1263q26 162 137 162q120 -70 132 -138v-70l-55 -288q12 -103 11 -103h-1l138 155q404 0 420 -799v-141l-62 -89h-50q-64 0 -156 619q-26 146 -94 146q-68 -53 -68 -212q0 -72 14 -165l16 -91q-39 -297 -111 -297h-61q-157 0 -157 207v24l30 177q-30 497 -83 903z" />
<glyph unicode="i" horiz-adv-x="400" d="M80 703q0 99 2 221l106 84q101 -50 101 -96l-15 -326l31 -458v-92l-81 -80q-144 0 -144 747zM82 1259v46l79 98h63q74 0 96 -220v-20q0 -53 -113 -89q-125 53 -125 185z" />
<glyph unicode="j" horiz-adv-x="754" d="M80 -399l60 100h66q60 -58 124 -58h15q135 0 137 176v211q0 281 -62 771q42 181 175 181q79 -102 79 -184l-32 -211q16 -363 16 -807l-2 -77q0 -298 -183 -329l-179 -20q-214 78 -214 247zM406 1222v43q36 87 128 125q124 -65 124 -206v-26l-91 -138h-73q-88 38 -88 202z " />
<glyph unicode="k" horiz-adv-x="935" d="M80 1249v131l62 83h74q86 -46 86 -172l-15 -265q11 -439 27 -439h-3q264 366 321 366l92 25l86 -84v-71q0 -148 -195 -226l-52 -86v-14q0 -95 259 -313l33 -133v-31l-47 -62h-109q-283 266 -303 266l-123 -204h-51q-104 0 -127 376l30 157l-15 19l16 110v18 q0 287 -46 549z" />
<glyph unicode="l" horiz-adv-x="521" d="M80 1271v21q0 120 87 163h71q59 0 96 -181l-16 -231l123 -616q-45 -433 -143 -433h-72q-100 66 -100 320l61 192v150z" />
<glyph unicode="m" horiz-adv-x="1028" d="M80 831q38 163 96 163h16q78 0 119 -40l1 1h34q132 -9 248 -171l88 94h93q173 0 173 -800q-31 -103 -81 -103h-30q-71 0 -126 462l1 -1h19q-28 -519 -171 -519h-58q-99 74 -99 165l46 288v18q0 183 -11 183h-19q-39 -154 -39 -298v-135q0 -119 -101 -183h-93 q-54 15 -91 124l31 157v362z" />
<glyph unicode="n" horiz-adv-x="1014" d="M80 855v41q0 163 180 163q45 -96 67 -96l176 20q383 -156 383 -490l48 -518l-121 -50q-118 0 -134 615q-106 115 -181 115q-39 0 -72 -277l60 -268q0 -141 -100 -205h-69q-130 103 -130 222v97l15 113z" />
<glyph unicode="o" horiz-adv-x="905" d="M80 513q129 565 294 565l30 39h110q72 0 169 -343q142 -127 142 -340q0 -421 -481 -530q-264 70 -264 609zM287 338q0 -119 79 -144q176 0 252 243v93q-4 48 -184 138q0 100 -6 107q-141 -99 -141 -302v-135z" />
<glyph unicode="p" horiz-adv-x="1012" d="M80 99v77l92 77v7l-46 539v20q0 104 99 183q577 -21 629 -252q78 -134 78 -398q-162 -331 -346 -331q-11 -37 -206 -74l-1 -1v-12q0 -127 62 -362v-107l-63 -79h-76q-130 93 -130 300l15 115v164zM349 300q7 -87 8 -87q353 65 353 279q-8 221 -135 221h-121 q-105 -127 -105 -221v-192z" />
<glyph unicode="q" horiz-adv-x="1074" d="M80 357q0 259 191 478q103 128 234 128q365 -126 365 -219l16 -79q-61 -269 -61 -462q0 -273 169 -551v-72l-64 -78h-97q-169 242 -169 484l-21 34q-133 -115 -237 -115h-20q-306 88 -306 452zM273 318q25 -98 47 -105h71q111 0 227 264v12q-58 166 -135 166 q-89 0 -210 -337z" />
<glyph unicode="r" horiz-adv-x="874" d="M80 205l46 231v55l-32 431l66 82l350 -40l66 20q218 -81 218 -169q-44 -121 -188 -121h-140q-117 -101 -117 -336l30 -252q-24 -93 -100 -143h-83q-116 76 -116 242z" />
<glyph unicode="s" horiz-adv-x="951" d="M80 277l64 79h33q51 0 91 -127q41 -26 139 -26h15q92 0 196 114v30q0 27 -340 129q-105 137 -105 198q0 293 512 513q125 -65 125 -206q0 -202 -290 -202q-33 -58 -63 -58v-28q0 -27 197 -48q147 0 217 -373q0 -231 -461 -320h-34q-266 0 -296 325z" />
<glyph unicode="t" horiz-adv-x="966" d="M80 1039v61q37 107 91 122h66q59 -58 123 -58h-2l14 17v50q0 157 -46 224v111l78 98h74q101 -64 101 -183l-14 -344l45 -11h27q34 0 88 76h61q100 -64 100 -182v-121l-46 -86l-222 43q-24 0 -24 -77h-13l28 -443l62 -78q0 -237 -100 -306q-145 0 -169 279l16 205l-16 18 v30l16 58q0 333 -73 333q-265 0 -265 164z" />
<glyph unicode="u" horiz-adv-x="966" d="M80 598l15 115v161l94 117h49q77 0 127 -224q-81 -157 -93 -363q0 -201 103 -201q110 0 166 299v56l-16 336l97 97h30q88 0 174 -135h22l24 -135h-22l-40 -203v-56q0 -237 76 -438v-50l-48 -60h-82l-108 154h-6q-108 -173 -205 -173h-31q-326 0 -326 703z" />
<glyph unicode="v" horiz-adv-x="927" d="M80 886h22q68 116 158 116q158 0 158 -389q70 -120 70 -130q0 -1 -1 -1v-7l126 473l64 54h57q113 -96 113 -226q-159 -343 -169 -438l18 -221q-37 0 -82 -155l-29 -37h-48q-104 0 -127 311q-251 491 -284 515h-23z" />
<glyph unicode="w" horiz-adv-x="1242" d="M80 841q37 107 91 122h67q67 0 111 -219v-231l10 -69h1q6 0 90 440l49 83l28 35h63q143 0 143 -258q61 -262 73 -262q25 0 73 377q28 239 172 239h33l78 -98v-131q-112 -156 -153 -474l16 -173q-57 -297 -143 -297h-40q-101 57 -101 293l-157 303q-35 0 -51 -336l16 -117 q-46 -201 -158 -201q-144 0 -203 582q-108 314 -108 392z" />
<glyph unicode="x" horiz-adv-x="950" d="M80 917q27 123 142 123q97 0 208 -269q-2 0 -2 3q0 32 184 375l81 26h53l94 -118v-52q-243 -389 -260 -506l290 -345v-131l-47 -60h-94q-135 141 -238 346h-8q-20 0 -90 -308l-50 -62q-217 57 -217 149v58q0 91 140 261l29 107v28q-215 274 -215 375z" />
<glyph unicode="y" horiz-adv-x="1043" d="M80 754v73l94 117h76q55 -44 188 -345q90 -136 137 -136h15q-1 0 138 523l64 54h84q87 -44 87 -164v-69q-152 -125 -246 -780l-191 -737h-76l-64 80q19 193 138 714z" />
<glyph unicode="z" horiz-adv-x="1046" d="M80 840q37 108 91 123h229l154 58h56l125 -179l-186 -546v-8l13 -17h37q148 58 286 58l81 -102q-93 -226 -283 -226h-213l-208 -21l-89 200q0 92 230 453v13q0 9 -7 9l-138 -38q-160 0 -178 223z" />
<glyph unicode="{" horiz-adv-x="776" d="M80 388v230q42 0 53.5 -1.5t13.5 -1.5q79 0 111 46t32 176v237q0 143 20 208t72 104q40 30 96 42.5t148 12.5h70v-230q-42 0 -54.5 1t-16.5 1q-65 0 -86.5 -29t-21.5 -149v-232q0 -154 -39 -226t-50 -75q10 -3 49.5 -75t39.5 -226v-231q0 -120 22.5 -150t86.5 -30 q4 0 16 1t54 1v-227h-83q-83 0 -137 13t-94 41q-52 40 -72 105.5t-20 204.5v238q0 131 -32 177t-111 46q-3 0 -14 -1t-53 -1z" />
<glyph unicode="|" horiz-adv-x="366" d="M80 -501v2026h206v-2026h-206z" />
<glyph unicode="}" horiz-adv-x="774" d="M80 -208q42 0 53.5 -1t15.5 -1q65 0 87 29.5t22 150.5v231q0 152 39 224.5t52 75.5q-13 4 -52 76t-39 226v232q0 120 -21.5 149t-86.5 29q-4 0 -16 -1t-54 -1v230h69q93 0 148 -12.5t95 -42.5q53 -39 72.5 -104.5t19.5 -207.5v-237q0 -131 32 -176.5t110 -45.5 q3 0 14.5 1.5t53.5 1.5v-230q-41 0 -52.5 1t-15.5 1q-77 0 -109.5 -46t-32.5 -177v-238q0 -141 -19.5 -205.5t-72.5 -104.5q-39 -29 -94.5 -41.5t-148.5 -12.5h-69v227z" />
<glyph unicode="~" horiz-adv-x="1267" d="M80 338v262q96 82 175.5 118.5t156.5 36.5q51 0 103.5 -12t135.5 -48q11 -4 34 -15q118 -52 177 -52q56 0 120.5 32.5t204.5 157.5v-260q-93 -81 -171.5 -117.5t-155.5 -36.5q-38 0 -79 9t-82 28q-19 7 -59 25q-155 68 -230 68q-54 0 -119 -33.5t-211 -162.5z" />
<glyph unicode="&#xa1;" horiz-adv-x="344" d="M80 1072v106l48 60h112l69 -87l-21 -27v-8l33 -104l-35 -44h-33q-145 0 -173 104zM156 -32l16 242v391l83 103q63 -252 79 -753l-33 -40h-77z" />
<glyph unicode="&#xa2;" horiz-adv-x="1022" d="M80 511v96q0 207 342 548h153q146 0 204 -261q-37 -109 -91 -124h-66q-60 58 -124 58h-33q-163 -128 -163 -259q0 -95 114 -163h52q131 0 314 145q135 111 160 -118l-28 -108q-224 -208 -453 -208q-381 145 -381 394zM157 47v86q170 266 416 1233l58 97h51q50 0 82 -106 l-402 -1376l-30 -37h-34q-108 0 -141 103z" />
<glyph unicode="&#xa3;" horiz-adv-x="1154" d="M80 651v74q33 95 150 95l44 -35h61q53 0 53 38q-58 220 -58 333v55q141 513 376 513q368 -81 368 -366l-59 -91q-88 0 -231 143l-31 13q-85 0 -179 -272l-14 -65q18 -204 63 -213l173 86h40q120 -14 120 -81v-71q-7 -53 -246 -235q59 -221 50 -221q38 0 133 86h58 q93 0 93 -250q-148 -111 -602 -218q0 -42 -107 -42h-74q-69 0 -93 167v71q0 114 323 132q30 43 30 93q-19 146 -54 146q-73 0 -291 -95q-96 130 -96 210z" />
<glyph unicode="&#xa4;" horiz-adv-x="1081" d="M80 407l158 199q-25 41 -41 104t-16 133q0 69 16 132t41 104l-158 198l111 141l160 -200q19 17 73 39t115 22q62 0 116.5 -22t72.5 -39l160 199l113 -140l-159 -198q24 -41 40 -104t16 -132q0 -70 -16 -133t-40 -104l159 -199l-114 -139l-159 202q-20 -18 -73 -40 t-114 -22q-63 0 -117.5 22.5t-72.5 38.5l-160 -201zM352 843q0 -108 56.5 -178.5t132.5 -70.5q75 0 131.5 70.5t56.5 178.5q0 106 -57.5 178t-130.5 72q-75 0 -132 -72t-57 -178z" />
<glyph unicode="&#xa5;" horiz-adv-x="1390" d="M80 1287v102l74 110h82q309 -436 451 -436h-4l200 290q43 16 95 163l29 34h47q143 0 167 -201q0 -74 -199 -211l-121 -191l13 -22q71 0 233 86h24q57 0 139 -202q-39 -134 -94 -134h-274q-206 -55 -206 -93v-61l21 -25q157 63 253 63h32l46 -55v-26q0 -180 -264 -264v-12 l30 -141q-27 -151 -151 -151q-117 98 -161 261h16l-176 -35q-119 0 -140 219v27l93 111l194 -38h-6l12 14v79q0 68 -37 74l-243 -54q-131 74 -131 209q35 100 90 112l237 -16l-4 -5v19z" />
<glyph unicode="&#xa6;" horiz-adv-x="366" d="M80 -373v786h206v-786h-206zM80 611v787h206v-787h-206z" />
<glyph unicode="&#xa7;" horiz-adv-x="1096" d="M80 527v22q0 118 132 313v29q-71 166 -132 270q102 442 222 442q0 48 280 102q154 0 232 -365l-68 -61h-76l-72 99q-256 -42 -256 -242q-30 0 -30 -44q39 -44 155 -44h122l-4 5l-5 -5q270 0 346 -228l45 -168l-29 -343l74 -102q-59 -584 -219 -703l-157 -88h-98 q-431 0 -431 315v29l127 178q0 -169 302 -238q129 44 129 196l12 214h9l-382 -43q-228 205 -228 460zM325 478q0 -105 184 -105q164 183 207 183l10 54q-16 113 -56 113q-82 -60 -210 -60q-120 -55 -120 -185h-15z" />
<glyph unicode="&#xa8;" horiz-adv-x="808" d="M80 1229q0 38 39 74.5t81 36.5q134 0 134 -130q0 -41 -45 -77q-41 -32 -80 -32q-129 0 -129 128zM466 1222q0 81 50 109q27 17 98 17q42 0 78 -40.5t36 -78.5q0 -117 -144 -117q-45 0 -80 28q-38 33 -38 82z" />
<glyph unicode="&#xa9;" horiz-adv-x="1366" d="M80 695q0 142 45 276.5t131 242.5q85 109 192.5 164.5t233.5 55.5q125 0 235.5 -56.5t196.5 -165.5q84 -105 128 -237.5t44 -279.5q0 -151 -43.5 -282.5t-127.5 -233.5q-87 -108 -199 -167t-234 -59q-121 0 -231.5 58.5t-196.5 165.5q-85 106 -129.5 239.5t-44.5 278.5z M234 695q0 -118 35 -223.5t101 -188.5q65 -81 146 -123.5t167 -42.5q87 0 168.5 43t148.5 126q65 80 99.5 184t34.5 225t-35 227t-99 187q-65 80 -145.5 121.5t-171.5 41.5q-90 0 -169.5 -40.5t-142.5 -120.5q-66 -84 -101.5 -191.5t-35.5 -224.5zM344 689q0 207 92 336.5 t250 129.5q128 0 211.5 -83t92.5 -241h-195q-9 89 -39 118.5t-75 29.5q-55 0 -91.5 -71t-36.5 -213q0 -141 37.5 -208.5t97.5 -67.5q46 0 74.5 32.5t39.5 128.5h193q-6 -168 -91.5 -256.5t-220.5 -88.5q-159 0 -249 125.5t-90 328.5z" />
<glyph unicode="&#xaa;" horiz-adv-x="729" d="M80 964q0 19 3 39l4 23q23 152 381 152l4 3q9 64 -25 86h-2q-71 15 -158 -108l-55 10q-70 77 -58 154q21 140 277 140h15l14 -3q158 -31 156 -441q13 -3 13 -88q0 -27 -3 -68q-14 -81 -248 -72q-2 -11 -199 -27q-119 86 -119 200zM280 961l1 6v1l129 16v-3l-29 7 q-56 11 -101 -27z" />
<glyph unicode="&#xab;" horiz-adv-x="802" d="M80 396v233l322 324v-283l-152 -156l152 -156v-283zM402 396v233l320 325v-284l-151 -156l151 -156v-283z" />
<glyph unicode="&#xac;" horiz-adv-x="1149" d="M80 632v218h989v-541h-196v323h-793z" />
<glyph unicode="&#xad;" horiz-adv-x="631" d="M80 384v261h471v-261h-471z" />
<glyph unicode="&#xae;" horiz-adv-x="1366" d="M80 695q0 144 45.5 280t136.5 249q80 101 188 155.5t232 54.5q126 0 237.5 -57.5t198.5 -168.5q82 -104 125 -235.5t43 -277.5q0 -151 -44 -283.5t-130 -236.5q-87 -106 -198 -164t-232 -58q-122 0 -233.5 59.5t-197.5 168.5q-84 106 -127.5 238t-43.5 276zM234 695 q0 -117 34.5 -222.5t95.5 -182.5q69 -87 149 -130t163 -43q91 0 173 41.5t149 123.5q64 78 100 182t36 221q0 125 -34 231t-98 189q-67 83 -147.5 125t-171.5 42q-89 0 -167 -40t-142 -119q-68 -86 -104 -193.5t-36 -224.5zM416 280v855h280q146 0 225 -63.5t79 -181.5 q0 -94 -43 -160t-91 -79l147 -371h-225l-126 333h-40v-333h-206zM622 777h56q63 0 87.5 20.5t24.5 72.5q0 55 -26 77t-93 22h-49v-192z" />
<glyph unicode="&#xaf;" horiz-adv-x="1272" d="M80 1600v236q111 0 264.5 1.5t230.5 1.5q55 0 163 -5.5t161 -5.5l293 9v-237h-303q-55 0 -164.5 5t-162.5 5h-342q-15 0 -50.5 -5t-89.5 -5z" />
<glyph unicode="&#xb0;" horiz-adv-x="682" d="M80 1110q0 128 74.5 221t186.5 93q110 0 185.5 -94t75.5 -220q0 -124 -75.5 -218.5t-187.5 -94.5t-185.5 93t-73.5 220zM233 1112q0 -65 33 -107.5t75 -42.5q41 0 74 42t33 108t-33 107.5t-74 41.5q-42 0 -75 -41.5t-33 -107.5z" />
<glyph unicode="&#xb1;" horiz-adv-x="1149" d="M80 -24v220h989v-220h-989zM80 643v216h394v321h200v-321h395v-216h-395v-321h-200v321h-394z" />
<glyph unicode="&#xb2;" horiz-adv-x="700" d="M80 1223q0 136 166 209h24q180 -12 180 -207q-16 -189 -44 -297l-4 5l104 9q96 -34 114 -85v-48l-29 -55l-149 11l-260 -53l-56 96v61q36 73 92 73l24 -4v-19q48 82 70 308q0 40 -19 40q-27 0 -105 -119h-49q-37 12 -59 75z" />
<glyph unicode="&#xb3;" horiz-adv-x="641" d="M80 894v34l50 51q117 -115 198 -115q50 0 91 130q-20 63 -28 63l-86 -41q-89 0 -123 102q7 50 96 105l24 37v10l-5 5h7q-41 0 -152 -39l-64 68v60l50 53h38l119 8q143 0 171 -148l-34 -87q129 -72 129 -179v-44q-51 -237 -233 -237q-131 0 -248 164z" />
<glyph unicode="&#xb4;" horiz-adv-x="576" d="M80 1222q0 40 30 78q32 38 98 149q54 87 124 149q26 24 61 24q45 0 74 -38.5t29 -80.5q0 -48 -38 -86q-51 -50 -98 -132q-54 -94 -104 -145q-31 -36 -72 -36q-45 0 -74.5 37.5t-29.5 80.5z" />
<glyph unicode="&#xb5;" horiz-adv-x="1168" d="M80 -450l238 1510h244l-100 -642q-5 -28 -7.5 -52t-2.5 -45q0 -85 28 -123t78 -38q74 0 122 75t78 266l88 559h242l-117 -742q-7 -47 -10.5 -77.5t-3.5 -47.5q0 -27 3 -31t14 -4q9 0 13 0.5t55 11.5l-34 -212q-48 -16 -79 -20.5t-68 -4.5q-72 0 -110.5 40t-38.5 109v-131 q31 64 -28.5 22t-132.5 -42q-72 0 -123.5 30t-37.5 5l-65 -416h-245z" />
<glyph unicode="&#xb6;" horiz-adv-x="930" d="M80 1078q0 161 91 263t243 102h436v-153h-89v-1327h-168v1327h-60v-1327h-170v755q-112 5 -197.5 106.5t-85.5 253.5z" />
<glyph unicode="&#xb7;" horiz-adv-x="440" d="M80 667q0 63 40 112t100 49q62 0 101 -49t39 -112q0 -62 -39 -111.5t-101 -49.5q-61 0 -100.5 49.5t-39.5 111.5z" />
<glyph unicode="&#xb8;" horiz-adv-x="612" d="M80 -294q0 80 86 80q40 0 74.5 -23.5t62.5 -23.5q20 1 30 13t10 47q0 47 -39 82q-42 37 -86 51q-74 21 -74 97q0 103 90 103q108 0 203 -103t95 -225q0 -127 -55 -198t-165 -71q-74 0 -141 35q-91 50 -91 136z" />
<glyph unicode="&#xb9;" horiz-adv-x="422" d="M80 1193q0 145 158 200h48l35 -143l-15 -146q0 -284 36 -352v-39l-40 -82h-30q-81 0 -102 551l16 -29l-23 -18z" />
<glyph unicode="&#xba;" horiz-adv-x="607" d="M71 798q85 339 194 339l20 23h72q48 0 112 -206q93 -76 93 -204q0 -252 -317 -318q-174 42 -174 366zM207 693q0 -72 53 -87q116 0 166 146v56q-3 29 -122 83q0 60 -4 64q-93 -59 -93 -181v-81z" />
<glyph unicode="&#xbb;" horiz-adv-x="802" d="M80 75v283l151 156l-151 156v284l320 -325v-233zM400 75v283l153 156l-153 156v283l322 -324v-233z" />
<glyph unicode="&#xbc;" horiz-adv-x="1358" d="M80 1196q0 148 190 202h50l44 -143l-18 -146q0 -283 44 -351v-42l-50 -80h-28q-93 0 -119 550l13 -22l-32 -21zM310 -11v86q171 266 416 1233l59 97h51q50 0 82 -106l-403 -1376l-29 -37h-34q-108 0 -142 103zM771 175v39q0 46 128 446h52q56 0 71 -145q-46 -61 -88 -225 q3 -14 35 -14q34 0 34 36l-11 118q19 0 19 10l25 34h65l48 -78v-80l23 4h36l70 -75v-61l-52 -64h-76v-5l42 -173v-13q0 -49 -91 -65q-71 79 -87 240l-11 3l-44 -11l-37 11l-100 -12z" />
<glyph unicode="&#xbd;" horiz-adv-x="1381" d="M80 1196q0 148 190 202h50l44 -143l-18 -146q0 -283 44 -351v-42l-50 -80h-28q-93 0 -119 550l13 -22l-32 -21zM310 -11v86q171 266 416 1233l59 97h51q50 0 82 -106l-403 -1376l-29 -37h-34q-108 0 -142 103zM761 389q0 135 165 209h24q181 -12 181 -207 q-17 -189 -45 -298l-4 6l104 9q97 -34 115 -86v-48l-29 -54l-150 11l-260 -53l-56 96v60q36 74 92 74l24 -5v-19q48 83 70 309q0 39 -19 39q-27 0 -105 -118h-48q-38 12 -59 75z" />
<glyph unicode="&#xbe;" horiz-adv-x="1462" d="M80 896v34l50 51q117 -115 198 -115q50 0 91 130q-20 63 -28 63l-86 -41q-89 0 -123 101q7 50 96 105l24 38v10l-5 5h7q-41 0 -152 -39l-64 68v59l50 54h38l119 8q143 0 171 -148l-34 -87q129 -72 129 -179v-44q-51 -237 -233 -237q-131 0 -248 164zM415 -11v86 q171 266 416 1233l59 97h51q49 0 81 -106l-403 -1376l-29 -37h-33q-108 0 -142 103zM876 175v39q0 46 128 446h52q55 0 70 -145q-46 -61 -87 -225q2 -14 34 -14q34 0 34 36l-11 118q20 0 20 10l25 34h65l47 -78v-80l23 4h36l70 -75v-61l-52 -64h-75l-1 -5l42 -173v-13 q0 -49 -90 -65q-72 79 -88 240l-11 3l-44 -11l-37 11l-100 -12z" />
<glyph unicode="&#xbf;" horiz-adv-x="789" d="M80 158q0 303 277 498l54 72h49q61 -28 61 -123v-23l-268 -339v-115q13 -111 71 -111h59q90 0 248 247h75q72 -38 72 -137v-16q0 -149 -313 -320l-164 -36q-221 222 -221 403zM383 1093v38q0 62 140 108q92 -33 92 -139v-16q0 -98 -72 -137h-51z" />
<glyph unicode="&#xc0;" d="M80 189q131 285 246 922q52 256 208 256l76 -119v-83q0 -368 336 -759l63 -374v-29l-63 -78h-55q-63 22 -144 219l-24 10q-451 -53 -451 -153h-74q-118 63 -118 188zM380 1838q0 42 28.5 80.5t73.5 38.5q68 0 186 -176q110 -164 110 -232q0 -43 -31 -79t-75 -36 q-54 0 -87 59l-77 143q-38 66 -89 115q-39 38 -39 87zM381 425l23 -19q181 0 226 68q-123 246 -160 393h-2q-31 0 -87 -442z" />
<glyph unicode="&#xc1;" d="M80 189q131 285 246 922q52 256 208 256l76 -119v-83q0 -368 336 -759l63 -374v-29l-63 -78h-55q-63 22 -144 219l-24 10q-451 -53 -451 -153h-74q-118 63 -118 188zM328 1557q0 40 30 78q32 38 98 149q54 87 124 149q26 24 61 24q45 0 74 -38.5t29 -80.5q0 -48 -38 -86 q-51 -50 -98 -132q-54 -94 -104 -145q-31 -36 -72 -36q-45 0 -74.5 37.5t-29.5 80.5zM381 425l23 -19q181 0 226 68q-123 246 -160 393h-2q-31 0 -87 -442z" />
<glyph unicode="&#xc2;" d="M80 189q131 285 246 922q52 256 208 256l76 -119v-83q0 -368 336 -759l63 -374v-29l-63 -78h-55q-63 22 -144 219l-24 10q-451 -53 -451 -153h-74q-118 63 -118 188zM229 1501q0 42 30 79q42 51 232 321q32 45 76 45q59 0 128 -77q20 -21 87 -110l122 -164q25 -36 25 -73 q0 -42 -29.5 -79t-75.5 -37q-42 0 -77 42q-62 87 -160 210q-179 -274 -254 -274q-45 0 -74.5 37.5t-29.5 79.5zM381 425l23 -19q181 0 226 68q-123 246 -160 393h-2q-31 0 -87 -442z" />
<glyph unicode="&#xc3;" d="M80 189q131 285 246 922q52 256 208 256l76 -119v-83q0 -368 336 -759l63 -374v-29l-63 -78h-55q-63 22 -144 219l-24 10q-451 -53 -451 -153h-74q-118 63 -118 188zM177 1542q0 12 2 26q24 105 86 172q70 75 165 75q93 0 153 -70l64 -104q26 -40 56 -40q24 0 33 17 l35 81l15 57q19 50 79 50q92 0 92 -100q0 -38 -34 -124q-33 -81 -58 -113q-54 -69 -138 -69q-116 0 -183 65q-25 24 -73 110q-22 38 -41 38q-15 0 -25.5 -6.5t-18.5 -19.5l-33 -80q-28 -64 -82 -64q-40 0 -67 30t-27 69zM381 425l23 -19q181 0 226 68q-123 246 -160 393h-2 q-31 0 -87 -442z" />
<glyph unicode="&#xc4;" d="M80 189q131 285 246 922q52 256 208 256l76 -119v-83q0 -368 336 -759l63 -374v-29l-63 -78h-55q-63 22 -144 219l-24 10q-451 -53 -451 -153h-74q-118 63 -118 188zM263 1529q0 38 39 74.5t81 36.5q134 0 134 -130q0 -41 -45 -77q-41 -32 -80 -32q-129 0 -129 128z M381 425l23 -19q181 0 226 68q-123 246 -160 393h-2q-31 0 -87 -442zM649 1522q0 81 50 109q27 17 98 17q42 0 78 -40.5t36 -78.5q0 -117 -144 -117q-45 0 -80 28q-38 33 -38 82z" />
<glyph unicode="&#xc5;" d="M80 189q131 285 246 922q52 256 208 256l76 -119v-83q0 -368 336 -759l63 -374v-29l-63 -78h-55q-63 22 -144 219l-24 10q-451 -53 -451 -153h-74q-118 63 -118 188zM303 1685q0 149 87 238q87 88 226 88q111 0 190 -78q83 -83 83 -210q0 -151 -78 -234t-230 -86h-6 q-117 0 -195 85q-77 82 -77 197zM381 425l23 -19q181 0 226 68q-123 246 -160 393h-2q-31 0 -87 -442zM487 1685q1 -32 30 -54q40 -30 73 -29q56 3 78 17q37 25 37 104q0 44 -29 67q-25 20 -60 20q-131 0 -129 -125z" />
<glyph unicode="&#xc6;" horiz-adv-x="1633" d="M80 -27v105q74 168 154 838v38q-69 81 -69 164q0 169 391 169l407 171h72q83 -37 83 -137v-63q0 -64 -223 -97v9q-311 -93 -311 -146q0 -151 143 -454q109 0 468 192q147 -77 147 -279l-77 -64h-69q-138 0 -317 -95v-26q75 -133 120 -133q235 0 440 110h43 q71 -18 71 -154v-47q0 -169 -374 -169l-13 16h4l-399 -66q-129 201 -129 372l-8 3l-316 -112l14 -140q-24 -79 -96 -120h-70zM359 472l11 -11q188 0 188 31q-112 331 -163 331q3 0 -36 -329v-22z" />
<glyph unicode="&#xc7;" horiz-adv-x="1112" d="M80 470q0 520 169 649q0 131 335 248h77q363 -187 363 -502l-67 -56q-93 0 -250 215l-143 33q-231 -106 -231 -267q-35 0 -46 -88q0 -341 198 -530l186 -36q86 0 321 193h46l64 -81q-68 -362 -294 -362l-138 -19h-33q-335 0 -510 445zM451 -294q0 80 86 80 q40 0 74.5 -23.5t62.5 -23.5q20 1 30 13t10 47q0 47 -39 82q-42 37 -86 51q-74 21 -74 97q0 103 90 103q108 0 203 -103t95 -225q0 -127 -55 -198t-165 -71q-74 0 -141 35q-91 50 -91 136z" />
<glyph unicode="&#xc8;" horiz-adv-x="1005" d="M80 1264q37 107 98 124l92 -38l369 116q231 -112 231 -167v-38q0 -48 -249 -104l-319 -217v-133l14 -17h7l347 119q99 -53 108 -108q0 -167 -201 -238q-121 -89 -244 -129v-134q0 -21 45 -29q124 0 316 78l100 -20h121l79 -98q0 -191 -261 -191l-446 -96q-145 0 -145 336 l-16 500v340q-46 70 -46 144zM280 1921q0 42 28.5 80.5t73.5 38.5q68 0 186 -176q110 -164 110 -232q0 -43 -31 -79t-75 -36q-54 0 -87 59l-77 143q-38 66 -89 115q-39 38 -39 87z" />
<glyph unicode="&#xc9;" horiz-adv-x="1005" d="M80 1264q37 107 98 124l92 -38l369 116q231 -112 231 -167v-38q0 -48 -249 -104l-319 -217v-133l14 -17h7l347 119q99 -53 108 -108q0 -167 -201 -238q-121 -89 -244 -129v-134q0 -21 45 -29q124 0 316 78l100 -20h121l79 -98q0 -191 -261 -191l-446 -96q-145 0 -145 336 l-16 500v340q-46 70 -46 144zM380 1635q0 40 30 78q32 38 98 149q54 87 124 149q26 24 61 24q45 0 74 -38.5t29 -80.5q0 -48 -38 -86q-51 -50 -98 -132q-54 -94 -104 -145q-31 -36 -72 -36q-45 0 -74.5 37.5t-29.5 80.5z" />
<glyph unicode="&#xca;" horiz-adv-x="1005" d="M80 1264q37 107 98 124l92 -38l369 116q231 -112 231 -167v-38q0 -48 -249 -104l-319 -217v-133l14 -17h7l347 119q99 -53 108 -108q0 -167 -201 -238q-121 -89 -244 -129v-134q0 -21 45 -29q124 0 316 78l100 -20h121l79 -98q0 -191 -261 -191l-446 -96q-145 0 -145 336 l-16 500v340q-46 70 -46 144zM158 1635q0 42 30 79q42 51 232 321q32 45 76 45q59 0 128 -77q20 -21 87 -110l122 -164q25 -36 25 -73q0 -42 -29.5 -79t-75.5 -37q-42 0 -77 42q-62 87 -160 210q-179 -274 -254 -274q-45 0 -74.5 37.5t-29.5 79.5z" />
<glyph unicode="&#xcb;" horiz-adv-x="1005" d="M80 1264q37 107 98 124l92 -38l369 116q231 -112 231 -167v-38q0 -48 -249 -104l-319 -217v-133l14 -17h7l347 119q99 -53 108 -108q0 -167 -201 -238q-121 -89 -244 -129v-134q0 -21 45 -29q124 0 316 78l100 -20h121l79 -98q0 -191 -261 -191l-446 -96q-145 0 -145 336 l-16 500v340q-46 70 -46 144zM180 1645q0 38 39 74.5t81 36.5q134 0 134 -130q0 -41 -45 -77q-41 -32 -80 -32q-129 0 -129 128zM566 1638q0 81 50 109q27 17 98 17q42 0 78 -40.5t36 -78.5q0 -117 -144 -117q-45 0 -80 28q-38 33 -38 82z" />
<glyph unicode="&#xcc;" horiz-adv-x="1010" d="M80 1247l77 144l202 -42l427 114q98 0 177 -139q0 -124 -101 -188h-195q-33 0 -52 -394q29 -471 73 -471h186q125 -16 125 -87v-41q-57 -180 -403 -180h-287q-101 64 -101 183q0 120 87 163h45l58 -18q25 5 25 124l-5 634q0 24 -25 28l-231 -62q-82 107 -82 232z M352 1921q0 42 28.5 80.5t73.5 38.5q68 0 186 -176q110 -164 110 -232q0 -43 -31 -79t-75 -36q-54 0 -87 59l-77 143q-38 66 -89 115q-39 38 -39 87z" />
<glyph unicode="&#xcd;" horiz-adv-x="1010" d="M80 1247l77 144l202 -42l427 114q98 0 177 -139q0 -124 -101 -188h-195q-33 0 -52 -394q29 -471 73 -471h186q125 -16 125 -87v-41q-57 -180 -403 -180h-287q-101 64 -101 183q0 120 87 163h45l58 -18q25 5 25 124l-5 634q0 24 -25 28l-231 -62q-82 107 -82 232z M380 1557q0 40 30 78q32 38 98 149q54 87 124 149q26 24 61 24q45 0 74 -38.5t29 -80.5q0 -48 -38 -86q-51 -50 -98 -132q-54 -94 -104 -145q-31 -36 -72 -36q-45 0 -74.5 37.5t-29.5 80.5z" />
<glyph unicode="&#xce;" horiz-adv-x="1010" d="M80 1247l77 144l202 -42l427 114q98 0 177 -139q0 -124 -101 -188h-195q-33 0 -52 -394q29 -471 73 -471h186q125 -16 125 -87v-41q-57 -180 -403 -180h-287q-101 64 -101 183q0 120 87 163h45l58 -18q25 5 25 124l-5 634q0 24 -25 28l-231 -62q-82 107 -82 232z M158 1595q0 42 30 79q42 51 232 321q32 45 76 45q59 0 128 -77q20 -21 87 -110l122 -164q25 -36 25 -73q0 -42 -29.5 -79t-75.5 -37q-42 0 -77 42q-62 87 -160 210q-179 -274 -254 -274q-45 0 -74.5 37.5t-29.5 79.5z" />
<glyph unicode="&#xcf;" horiz-adv-x="1010" d="M80 1247l77 144l202 -42l427 114q98 0 177 -139q0 -124 -101 -188h-195q-33 0 -52 -394q29 -471 73 -471h186q125 -16 125 -87v-41q-57 -180 -403 -180h-287q-101 64 -101 183q0 120 87 163h45l58 -18q25 5 25 124l-5 634q0 24 -25 28l-231 -62q-82 107 -82 232z M226 1645q0 38 39 74.5t81 36.5q134 0 134 -130q0 -41 -45 -77q-41 -32 -80 -32q-129 0 -129 128zM612 1638q0 81 50 109q27 17 98 17q42 0 78 -40.5t36 -78.5q0 -117 -144 -117q-45 0 -80 28q-38 33 -38 82z" />
<glyph unicode="&#xd0;" horiz-adv-x="1212" d="M80 717v25q0 72 169 100v13l-62 251q44 338 188 338h35q44 -62 474 -157q248 -213 248 -449v-192q0 -277 -613 -429l-1 -2v-4l15 -19v-29q-35 -200 -173 -200q-56 0 -134 288q-44 0 -55 112l78 116v128q0 29 -126 29zM441 492q0 -21 44 -29q198 16 351 173q48 0 89 223 q0 200 -430 236l-53 -237l7 -30h52q124 -15 124 -86v-19q0 -83 -184 -104v-127z" />
<glyph unicode="&#xd1;" horiz-adv-x="1066" d="M80 1233q101 95 203 95h31q81 0 171 -345l259 -325l-2 -3h-4l-59 566q0 132 163 146q121 -51 121 -183v-21l-46 -250q0 -480 138 -723v-110l-71 -89q-243 134 -349 471q-209 287 -320 385h18v10q0 -388 93 -672q-48 -184 -112 -184q-129 0 -188 221l16 98 q-16 471 -48 620l16 21v8q-30 87 -30 264zM207 1542q0 12 2 26q24 105 86 172q70 75 165 75q93 0 153 -70l64 -104q26 -40 56 -40q24 0 33 17l35 81l15 57q19 50 79 50q92 0 92 -100q0 -38 -34 -124q-33 -81 -58 -113q-54 -69 -138 -69q-116 0 -183 65q-25 24 -73 110 q-22 38 -41 38q-15 0 -25.5 -6.5t-18.5 -19.5l-33 -80q-28 -64 -82 -64q-40 0 -67 30t-27 69z" />
<glyph unicode="&#xd2;" horiz-adv-x="1051" d="M80 644q0 370 419 780h46q402 0 402 -373l93 -463q-94 -625 -511 -625h-51q-315 87 -398 681zM318 587q0 -265 182 -333q225 69 225 186q77 122 77 244v18q-76 395 -165 395h-15q-159 0 -289 -398zM380 1838q0 42 28.5 80.5t73.5 38.5q68 0 186 -176q110 -164 110 -232 q0 -43 -31 -79t-75 -36q-54 0 -87 59l-77 143q-38 66 -89 115q-39 38 -39 87z" />
<glyph unicode="&#xd3;" horiz-adv-x="1051" d="M80 644q0 370 419 780h46q402 0 402 -373l93 -463q-94 -625 -511 -625h-51q-315 87 -398 681zM318 587q0 -265 182 -333q225 69 225 186q77 122 77 244v18q-76 395 -165 395h-15q-159 0 -289 -398zM380 1557q0 40 30 78q32 38 98 149q54 87 124 149q26 24 61 24 q45 0 74 -38.5t29 -80.5q0 -48 -38 -86q-51 -50 -98 -132q-54 -94 -104 -145q-31 -36 -72 -36q-45 0 -74.5 37.5t-29.5 80.5z" />
<glyph unicode="&#xd4;" horiz-adv-x="1051" d="M80 644q0 370 419 780h46q402 0 402 -373l93 -463q-94 -625 -511 -625h-51q-315 87 -398 681zM249 1501q0 42 30 79q42 51 232 321q32 45 76 45q59 0 128 -77q20 -21 87 -110l122 -164q25 -36 25 -73q0 -42 -29.5 -79t-75.5 -37q-42 0 -77 42q-62 87 -160 210 q-179 -274 -254 -274q-45 0 -74.5 37.5t-29.5 79.5zM318 587q0 -265 182 -333q225 69 225 186q77 122 77 244v18q-76 395 -165 395h-15q-159 0 -289 -398z" />
<glyph unicode="&#xd5;" horiz-adv-x="1051" d="M80 644q0 370 419 780h46q402 0 402 -373l93 -463q-94 -625 -511 -625h-51q-315 87 -398 681zM180 1659q0 12 2 26q24 105 86 172q70 75 165 75q93 0 153 -70l64 -104q26 -40 56 -40q24 0 33 17l35 81l15 57q19 50 79 50q92 0 92 -100q0 -38 -34 -124q-33 -81 -58 -113 q-54 -69 -138 -69q-116 0 -183 65q-25 24 -73 110q-22 38 -41 38q-15 0 -25.5 -6.5t-18.5 -19.5l-33 -80q-28 -64 -82 -64q-40 0 -67 30t-27 69zM318 587q0 -265 182 -333q225 69 225 186q77 122 77 244v18q-76 395 -165 395h-15q-159 0 -289 -398z" />
<glyph unicode="&#xd6;" horiz-adv-x="1051" d="M80 644q0 370 419 780h46q402 0 402 -373l93 -463q-94 -625 -511 -625h-51q-315 87 -398 681zM280 1645q0 38 39 74.5t81 36.5q134 0 134 -130q0 -41 -45 -77q-41 -32 -80 -32q-129 0 -129 128zM318 587q0 -265 182 -333q225 69 225 186q77 122 77 244v18 q-76 395 -165 395h-15q-159 0 -289 -398zM666 1638q0 81 50 109q27 17 98 17q42 0 78 -40.5t36 -78.5q0 -117 -144 -117q-45 0 -80 28q-38 33 -38 82z" />
<glyph unicode="&#xd7;" horiz-adv-x="1127" d="M80 138l352 440l-352 444l130 163l352 -441l354 441l131 -163l-353 -444l352 -440l-129 -166l-355 444l-352 -444z" />
<glyph unicode="&#xd8;" horiz-adv-x="1120" d="M80 599v27q0 369 419 779h47l127 -15q87 284 148 284h64l64 -80l-62 -291q60 -96 75 -359q32 0 78 -376q-124 -567 -277 -567q0 -57 -303 -57l-16 7q-84 -276 -146 -276h-63l-65 81l92 364q-167 177 -167 460zM318 551l55 -222h-39l228 749h28q-92 0 -257 -361zM507 232 q234 82 234 229q61 77 61 204v17l-70 281q15 0 -190 -731h-35z" />
<glyph unicode="&#xd9;" horiz-adv-x="1035" d="M80 1320q47 145 118 181h72l110 -136v-86l-46 -289q0 -648 128 -719h76q264 99 264 279q0 221 -92 495l-16 102q48 145 119 181h81q100 -64 100 -182v-191l31 -212v-272q-107 -508 -557 -508q-357 0 -357 625l-15 483l15 56zM381 1921q0 42 28.5 80.5t73.5 38.5 q68 0 186 -176q110 -164 110 -232q0 -43 -31 -79t-75 -36q-54 0 -87 59l-77 143q-38 66 -89 115q-39 38 -39 87z" />
<glyph unicode="&#xda;" horiz-adv-x="1035" d="M80 1320q47 145 118 181h72l110 -136v-86l-46 -289q0 -648 128 -719h76q264 99 264 279q0 221 -92 495l-16 102q48 145 119 181h81q100 -64 100 -182v-191l31 -212v-272q-107 -508 -557 -508q-357 0 -357 625l-15 483l15 56zM529 1635q0 40 30 78q32 38 98 149 q54 87 124 149q26 24 61 24q45 0 74 -38.5t29 -80.5q0 -48 -38 -86q-51 -50 -98 -132q-54 -94 -104 -145q-31 -36 -72 -36q-45 0 -74.5 37.5t-29.5 80.5z" />
<glyph unicode="&#xdb;" horiz-adv-x="1035" d="M80 1320q47 145 118 181h72l110 -136v-86l-46 -289q0 -648 128 -719h76q264 99 264 279q0 221 -92 495l-16 102q48 145 119 181h81q100 -64 100 -182v-191l31 -212v-272q-107 -508 -557 -508q-357 0 -357 625l-15 483l15 56zM181 1635q0 42 30 79q42 51 232 321 q32 45 76 45q59 0 128 -77q20 -21 87 -110l122 -164q25 -36 25 -73q0 -42 -29.5 -79t-75.5 -37q-42 0 -77 42q-62 87 -160 210q-179 -274 -254 -274q-45 0 -74.5 37.5t-29.5 79.5z" />
<glyph unicode="&#xdc;" horiz-adv-x="1035" d="M80 1320q47 145 118 181h72l110 -136v-86l-46 -289q0 -648 128 -719h76q264 99 264 279q0 221 -92 495l-16 102q48 145 119 181h81q100 -64 100 -182v-191l31 -212v-272q-107 -508 -557 -508q-357 0 -357 625l-15 483l15 56zM281 1645q0 38 39 74.5t81 36.5 q134 0 134 -130q0 -41 -45 -77q-41 -32 -80 -32q-129 0 -129 128zM667 1638q0 81 50 109q27 17 98 17q42 0 78 -40.5t36 -78.5q0 -117 -144 -117q-45 0 -80 28q-38 33 -38 82z" />
<glyph unicode="&#xdd;" horiz-adv-x="1128" d="M80 1291l82 78h95q219 -308 227 -308h118q185 279 220 470l155 73q141 -76 141 -237q-221 -190 -232 -284q-76 -127 -76 -320v-85q-108 -133 -108 -202l78 -405q-28 -125 -158 -125q-111 116 -111 182l-33 529h18q0 144 -398 458zM560 1522q0 40 30 78q32 38 98 149 q54 87 124 149q26 24 61 24q45 0 74 -38.5t29 -80.5q0 -48 -38 -86q-51 -50 -98 -132q-54 -94 -104 -145q-31 -36 -72 -36q-45 0 -74.5 37.5t-29.5 80.5z" />
<glyph unicode="&#xde;" horiz-adv-x="1023" d="M80 339v36q35 92 109 92v-13q0 286 -79 286l17 361v30l-32 182v28l81 85q124 0 175 -107v-266l16 -6l196 32q380 0 380 -343q0 -325 -233 -415q0 -35 -162 -91q-133 -55 -134 -74v-63l31 -132v-36q0 -145 -183 -145q-120 53 -120 178v33q4 194 5 194q-67 92 -67 154z M383 727l28 -276h-22q345 112 345 306q-39 33 -140 33v16q-131 0 -211 -79z" />
<glyph unicode="&#xdf;" horiz-adv-x="1423" d="M80 1043q11 81 150 123l78 -34l28 17l-13 94l3 22q93 235 160 235q12 0 17 -3l13 -2l100 -56q155 46 253 23l19 -4q252 -144 224 -358l-48 -99q274 -65 274 -561v-44l5 -74q-154 -325 -393 -270q-290 69 -328 378l3 18q8 67 136 59q72 -176 170 -200q180 -9 200 142 q30 228 -81 254l-28 7q-97 23 -302 -84l-78 18q-84 76 -69 179l5 40q96 124 280 266l4 33l-12 20q-210 50 -280 -52l77 -151l-3 -26q-25 -70 -99 -96q-34 -259 47 -629l-7 -63l-13 -11l15 -80q-15 -111 -112 -111q-20 0 -43 6q-114 26 -89 435l15 12l-2 77l22 168 q1 184 -10 186l-150 -33q-136 33 -138 229z" />
<glyph unicode="&#xe0;" horiz-adv-x="918" d="M80 275q0 31 5 63l5 38q34 238 565 238l17 14q18 125 -46 171l-8 1q-119 26 -249 -178l-68 15q-95 114 -78 236q30 215 402 215h21l19 -4q225 -50 221 -731q21 -4 21 -128q0 -47 -5 -116q-17 -118 -374 -102q-3 -21 -282 -45q-166 133 -166 313zM288 1499q0 42 28.5 80.5 t73.5 38.5q68 0 186 -176q110 -164 110 -232q0 -43 -31 -79t-75 -36q-54 0 -87 59l-77 143q-38 66 -89 115q-39 38 -39 87zM348 277l10 -16l220 30l4 29l-61 14q-92 20 -172 -54z" />
<glyph unicode="&#xe1;" horiz-adv-x="918" d="M80 275q0 31 5 63l5 38q34 238 565 238l17 14q18 125 -46 171l-8 1q-119 26 -249 -178l-68 15q-95 114 -78 236q30 215 402 215h21l19 -4q225 -50 221 -731q21 -4 21 -128q0 -47 -5 -116q-17 -118 -374 -102q-3 -21 -282 -45q-166 133 -166 313zM348 277l10 -16l220 30 l4 29l-61 14q-92 20 -172 -54zM423 1222q0 40 30 78q32 38 98 149q54 87 124 149q26 24 61 24q45 0 74 -38.5t29 -80.5q0 -48 -38 -86q-51 -50 -98 -132q-54 -94 -104 -145q-31 -36 -72 -36q-45 0 -74.5 37.5t-29.5 80.5z" />
<glyph unicode="&#xe2;" horiz-adv-x="918" d="M80 275q0 31 5 63l5 38q34 238 565 238l17 14q18 125 -46 171l-8 1q-119 26 -249 -178l-68 15q-95 114 -78 236q30 215 402 215h21l19 -4q225 -50 221 -731q21 -4 21 -128q0 -47 -5 -116q-17 -118 -374 -102q-3 -21 -282 -45q-166 133 -166 313zM163 1201q0 42 30 79 q42 51 232 321q32 45 76 45q59 0 128 -77q20 -21 87 -110l122 -164q25 -36 25 -73q0 -42 -29.5 -79t-75.5 -37q-42 0 -77 42q-62 87 -160 210q-179 -274 -254 -274q-45 0 -74.5 37.5t-29.5 79.5zM348 277l10 -16l220 30l4 29l-61 14q-92 20 -172 -54z" />
<glyph unicode="&#xe3;" horiz-adv-x="918" d="M80 275q0 31 5 63l5 38q34 238 565 238l17 14q18 125 -46 171l-8 1q-119 26 -249 -178l-68 15q-95 114 -78 236q30 215 402 215h21l19 -4q225 -50 221 -731q21 -4 21 -128q0 -47 -5 -116q-17 -118 -374 -102q-3 -21 -282 -45q-166 133 -166 313zM111 1242q0 12 2 26 q24 105 86 172q70 75 165 75q93 0 153 -70l64 -104q26 -40 56 -40q24 0 33 17l35 81l15 57q19 50 79 50q92 0 92 -100q0 -38 -34 -124q-33 -81 -58 -113q-54 -69 -138 -69q-116 0 -183 65q-25 24 -73 110q-22 38 -41 38q-15 0 -25.5 -6.5t-18.5 -19.5l-33 -80 q-28 -64 -82 -64q-40 0 -67 30t-27 69zM348 277l10 -16l220 30l4 29l-61 14q-92 20 -172 -54z" />
<glyph unicode="&#xe4;" horiz-adv-x="918" d="M80 275q0 31 5 63l5 38q34 238 565 238l17 14q18 125 -46 171l-8 1q-119 26 -249 -178l-68 15q-95 114 -78 236q30 215 402 215h21l19 -4q225 -50 221 -731q21 -4 21 -128q0 -47 -5 -116q-17 -118 -374 -102q-3 -21 -282 -45q-166 133 -166 313zM197 1229q0 38 39 74.5 t81 36.5q134 0 134 -130q0 -41 -45 -77q-41 -32 -80 -32q-129 0 -129 128zM348 277l10 -16l220 30l4 29l-61 14q-92 20 -172 -54zM583 1222q0 81 50 109q27 17 98 17q42 0 78 -40.5t36 -78.5q0 -117 -144 -117q-45 0 -80 28q-38 33 -38 82z" />
<glyph unicode="&#xe5;" horiz-adv-x="918" d="M80 275q0 31 5 63l5 38q34 238 565 238l17 14q18 125 -46 171l-8 1q-119 26 -249 -178l-68 15q-95 114 -78 236q30 215 402 215h21l19 -4q225 -50 221 -731q21 -4 21 -128q0 -47 -5 -116q-17 -118 -374 -102q-3 -21 -282 -45q-166 133 -166 313zM237 1385q0 149 87 238 q87 88 226 88q111 0 190 -78q83 -83 83 -210q0 -151 -78 -234t-230 -86h-6q-117 0 -195 85q-77 82 -77 197zM348 277l10 -16l220 30l4 29l-61 14q-92 20 -172 -54zM421 1385q1 -32 30 -54q40 -30 73 -29q56 3 78 17q37 25 37 104q0 44 -29 67q-25 20 -60 20 q-131 0 -129 -125z" />
<glyph unicode="&#xe6;" horiz-adv-x="1579" d="M80 333v33q0 217 154 288q87 79 315 147l69 -15l9 3q0 171 -176 171h-5l-225 -110h-59q-82 38 -82 139q0 154 411 215h31q161 0 276 -264h-32q143 281 438 281q279 -133 279 -403v-32q0 -231 -323 -231q0 -17 -268 -90l1 1v-52q32 -190 162 -190q168 0 308 139h59l77 -84 q-53 -179 -170 -263q-79 -53 -203 -53h-18q-242 46 -321 125h-13q-130 0 -331 -63h-104q-209 0 -259 308zM303 323q24 -53 91 -53q220 28 220 174v25q-37 70 -99 70q-212 -91 -212 -205v-11zM949 755v14q165 0 269 105v18q-14 35 -80 65q-189 -65 -189 -202z" />
<glyph unicode="&#xe7;" horiz-adv-x="953" d="M80 357v96q0 207 342 549h153q146 0 204 -261q-37 -109 -91 -124h-66q-60 57 -124 57h-33q-163 -128 -163 -259q0 -95 114 -163h52q131 0 314 145q135 112 160 -118l-28 -108q-224 -208 -453 -208q-381 145 -381 394zM347 -294q0 80 86 80q40 0 74.5 -23.5t62.5 -23.5 q20 1 30 13t10 47q0 47 -39 82q-42 37 -86 51q-74 21 -74 97q0 103 90 103q108 0 203 -103t95 -225q0 -127 -55 -198t-165 -71q-74 0 -141 35q-91 50 -91 136z" />
<glyph unicode="&#xe8;" horiz-adv-x="956" d="M80 415q1 153 75 336q127 249 366 308h72q351 -125 351 -405l3 -5l-69 -214l-134 -71l-70 22q-284 -24 -284 -48v-19q0 -43 147 -66l282 104l48 -91q0 -303 -281 -303h-60q-236 0 -440 284zM313 1499q0 42 28.5 80.5t73.5 38.5q68 0 186 -176q110 -164 110 -232 q0 -43 -31 -79t-75 -36q-54 0 -87 59l-77 143q-38 66 -89 115q-39 38 -39 87zM437 661v6l47 -12q145 0 145 48v25l-38 23h-20q-97 0 -134 -90z" />
<glyph unicode="&#xe9;" horiz-adv-x="956" d="M80 415q1 153 75 336q127 249 366 308h72q351 -125 351 -405l3 -5l-69 -214l-134 -71l-70 22q-284 -24 -284 -48v-19q0 -43 147 -66l282 104l48 -91q0 -303 -281 -303h-60q-236 0 -440 284zM437 661v6l47 -12q145 0 145 48v25l-38 23h-20q-97 0 -134 -90zM447 1222 q0 40 30 78q32 38 98 149q54 87 124 149q26 24 61 24q45 0 74 -38.5t29 -80.5q0 -48 -38 -86q-51 -50 -98 -132q-54 -94 -104 -145q-31 -36 -72 -36q-45 0 -74.5 37.5t-29.5 80.5z" />
<glyph unicode="&#xea;" horiz-adv-x="956" d="M80 415q1 153 75 336q127 249 366 308h72q351 -125 351 -405l3 -5l-69 -214l-134 -71l-70 22q-284 -24 -284 -48v-19q0 -43 147 -66l282 104l48 -91q0 -303 -281 -303h-60q-236 0 -440 284zM187 1201q0 42 30 79q42 51 232 321q32 45 76 45q59 0 128 -77q20 -21 87 -110 l122 -164q25 -36 25 -73q0 -42 -29.5 -79t-75.5 -37q-42 0 -77 42q-62 87 -160 210q-179 -274 -254 -274q-45 0 -74.5 37.5t-29.5 79.5zM437 661v6l47 -12q145 0 145 48v25l-38 23h-20q-97 0 -134 -90z" />
<glyph unicode="&#xeb;" horiz-adv-x="956" d="M80 415q1 153 75 336q127 249 366 308h72q351 -125 351 -405l3 -5l-69 -214l-134 -71l-70 22q-284 -24 -284 -48v-19q0 -43 147 -66l282 104l48 -91q0 -303 -281 -303h-60q-236 0 -440 284zM221 1229q0 38 39 74.5t81 36.5q134 0 134 -130q0 -41 -45 -77q-41 -32 -80 -32 q-129 0 -129 128zM437 661v6l47 -12q145 0 145 48v25l-38 23h-20q-97 0 -134 -90zM607 1222q0 81 50 109q27 17 98 17q42 0 78 -40.5t36 -78.5q0 -117 -144 -117q-45 0 -80 28q-38 33 -38 82z" />
<glyph unicode="&#xec;" horiz-adv-x="500" d="M80 1499q0 42 28.5 80.5t73.5 38.5q68 0 186 -176q110 -164 110 -232q0 -43 -31 -79t-75 -36q-54 0 -87 59l-77 143q-38 66 -89 115q-39 38 -39 87zM264 703q0 99 2 221l106 84q101 -50 101 -96l-15 -326l31 -458v-92l-81 -80q-144 0 -144 747z" />
<glyph unicode="&#xed;" horiz-adv-x="507" d="M80 1222q0 40 30 78q32 38 98 149q54 87 124 149q26 24 61 24q45 0 74 -38.5t29 -80.5q0 -48 -38 -86q-51 -50 -98 -132q-54 -94 -104 -145q-31 -36 -72 -36q-45 0 -74.5 37.5t-29.5 80.5zM129 703q0 99 2 221l106 84q101 -50 101 -96l-15 -326l31 -458v-92l-81 -80 q-144 0 -144 747z" />
<glyph unicode="&#xee;" horiz-adv-x="791" d="M80 1201q0 42 30 79q42 51 232 321q32 45 76 45q59 0 128 -77q20 -21 87 -110l122 -164q25 -36 25 -73q0 -42 -29.5 -79t-75.5 -37q-42 0 -77 42q-62 87 -160 210q-179 -274 -254 -274q-45 0 -74.5 37.5t-29.5 79.5zM390 703q0 99 2 221l106 84q101 -50 101 -96l-15 -326 l31 -458v-92l-81 -80q-144 0 -144 747z" />
<glyph unicode="&#xef;" horiz-adv-x="739" d="M80 1229q0 38 39 74.5t81 36.5q134 0 134 -130q0 -41 -45 -77q-41 -32 -80 -32q-129 0 -129 128zM356 703q0 99 2 221l106 84q101 -50 101 -96l-15 -326l31 -458v-92l-81 -80q-144 0 -144 747zM466 1222q0 81 50 109q27 17 98 17q42 0 78 -40.5t36 -78.5 q0 -117 -144 -117q-45 0 -80 28q-38 33 -38 82z" />
<glyph unicode="&#xf0;" horiz-adv-x="1143" d="M80 385q0 102 54 197q348 470 583 419q8 -2 9 1l10 75q-134 49 -125 107l5 38q13 91 118 67q13 86 124 129l42 -9q44 -11 90 -178q73 -22 73 -86q0 -6 -1 -12l-6 -48l-18 -15q-8 -62 -108 -40l-10 -24l-27 -306l-28 -90q-7 -149 77 -440l2 -122l-118 -31l-86 37 q-213 -91 -338 -91q-32 0 -56 6q-168 36 -252 306q-14 57 -14 110zM305 406q22 -120 91 -135l61 -13q93 -21 212 121q38 271 -23 285q-202 44 -339 -247z" />
<glyph unicode="&#xf1;" horiz-adv-x="943" d="M80 855v41q0 163 180 163q45 -96 67 -96l176 20q383 -156 383 -490l48 -518l-121 -50q-118 0 -134 615q-106 115 -181 115q-39 0 -72 -277l60 -268q0 -141 -100 -205h-69q-130 103 -130 222v97l15 113zM127 1242q0 12 2 26q24 105 86 172q70 75 165 75q93 0 153 -70 l64 -104q26 -40 56 -40q24 0 33 17l35 81l15 57q19 50 79 50q92 0 92 -100q0 -38 -34 -124q-33 -81 -58 -113q-54 -69 -138 -69q-116 0 -183 65q-25 24 -73 110q-22 38 -41 38q-15 0 -25.5 -6.5t-18.5 -19.5l-33 -80q-28 -64 -82 -64q-40 0 -67 30t-27 69z" />
<glyph unicode="&#xf2;" horiz-adv-x="836" d="M80 513q129 565 294 565l30 39h110q72 0 169 -343q142 -127 142 -340q0 -421 -481 -530q-264 70 -264 609zM235 1499q0 42 28.5 80.5t73.5 38.5q68 0 186 -176q110 -164 110 -232q0 -43 -31 -79t-75 -36q-54 0 -87 59l-77 143q-38 66 -89 115q-39 38 -39 87zM287 338 q0 -119 79 -144q176 0 252 243v93q-4 48 -184 138q0 100 -6 107q-141 -99 -141 -302v-135z" />
<glyph unicode="&#xf3;" horiz-adv-x="836" d="M80 513q129 565 294 565l30 39h110q72 0 169 -343q142 -127 142 -340q0 -421 -481 -530q-264 70 -264 609zM287 338q0 -119 79 -144q176 0 252 243v93q-4 48 -184 138q0 100 -6 107q-141 -99 -141 -302v-135zM369 1222q0 40 30 78q32 38 98 149q54 87 124 149 q26 24 61 24q45 0 74 -38.5t29 -80.5q0 -48 -38 -86q-51 -50 -98 -132q-54 -94 -104 -145q-31 -36 -72 -36q-45 0 -74.5 37.5t-29.5 80.5z" />
<glyph unicode="&#xf4;" horiz-adv-x="836" d="M80 513q129 565 294 565l30 39h110q72 0 169 -343q142 -127 142 -340q0 -421 -481 -530q-264 70 -264 609zM109 1201q0 42 30 79q42 51 232 321q32 45 76 45q59 0 128 -77q20 -21 87 -110l122 -164q25 -36 25 -73q0 -42 -29.5 -79t-75.5 -37q-42 0 -77 42 q-62 87 -160 210q-179 -274 -254 -274q-45 0 -74.5 37.5t-29.5 79.5zM287 338q0 -119 79 -144q176 0 252 243v93q-4 48 -184 138q0 100 -6 107q-141 -99 -141 -302v-135z" />
<glyph unicode="&#xf5;" horiz-adv-x="871" d="M80 1242q0 12 2 26q24 105 86 172q70 75 165 75q93 0 153 -70l64 -104q26 -40 56 -40q24 0 33 17l35 81l15 57q19 50 79 50q92 0 92 -100q0 -38 -34 -124q-33 -81 -58 -113q-54 -69 -138 -69q-116 0 -183 65q-25 24 -73 110q-22 38 -41 38q-15 0 -25.5 -6.5t-18.5 -19.5 l-33 -80q-28 -64 -82 -64q-40 0 -67 30t-27 69zM103 513q129 565 294 565l30 39h110q72 0 169 -343q142 -127 142 -340q0 -421 -481 -530q-264 70 -264 609zM310 338q0 -119 79 -144q176 0 252 243v93q-4 48 -184 138q0 100 -6 107q-141 -99 -141 -302v-135z" />
<glyph unicode="&#xf6;" horiz-adv-x="836" d="M80 513q129 565 294 565l30 39h110q72 0 169 -343q142 -127 142 -340q0 -421 -481 -530q-264 70 -264 609zM143 1229q0 38 39 74.5t81 36.5q134 0 134 -130q0 -41 -45 -77q-41 -32 -80 -32q-129 0 -129 128zM287 338q0 -119 79 -144q176 0 252 243v93q-4 48 -184 138 q0 100 -6 107q-141 -99 -141 -302v-135zM529 1222q0 81 50 109q27 17 98 17q42 0 78 -40.5t36 -78.5q0 -117 -144 -117q-45 0 -80 28q-38 33 -38 82z" />
<glyph unicode="&#xf7;" horiz-adv-x="1149" d="M80 471v217h989v-217h-989zM435 212q0 63 39.5 112.5t100.5 49.5q62 0 101 -49.5t39 -112.5q0 -62 -38.5 -110.5t-101.5 -48.5q-61 0 -100.5 48t-39.5 111zM435 943q0 62 39.5 112t100.5 50q62 0 101 -50t39 -112t-38.5 -110.5t-101.5 -48.5q-61 0 -100.5 48t-39.5 111z " />
<glyph unicode="&#xf8;" horiz-adv-x="937" d="M80 -244l92 385q-62 85 -90 409q100 663 403 663h45l30 -28q106 336 170 336h64l64 -79v-30l-168 -513q136 -193 136 -388q0 -325 -349 -471q-128 0 -174 -269l-77 -96h-81zM274 367l159 505v-1q-144 -111 -144 -264v-133l12 -107h-27zM489 309q43 0 130 225v85l-17 21 q-113 -282 -113 -331z" />
<glyph unicode="&#xf9;" horiz-adv-x="898" d="M80 598l15 115v161l94 117h49q77 0 127 -224q-81 -157 -93 -363q0 -201 103 -201q110 0 166 299v56l-16 336l97 97h30q88 0 174 -135h22l24 -135h-22l-40 -203v-56q0 -237 76 -438v-50l-48 -60h-82l-108 154h-6q-108 -173 -205 -173h-31q-326 0 -326 703zM275 1499 q0 42 28.5 80.5t73.5 38.5q68 0 186 -176q110 -164 110 -232q0 -43 -31 -79t-75 -36q-54 0 -87 59l-77 143q-38 66 -89 115q-39 38 -39 87z" />
<glyph unicode="&#xfa;" horiz-adv-x="898" d="M80 598l15 115v161l94 117h49q77 0 127 -224q-81 -157 -93 -363q0 -201 103 -201q110 0 166 299v56l-16 336l97 97h30q88 0 174 -135h22l24 -135h-22l-40 -203v-56q0 -237 76 -438v-50l-48 -60h-82l-108 154h-6q-108 -173 -205 -173h-31q-326 0 -326 703zM409 1222 q0 40 30 78q32 38 98 149q54 87 124 149q26 24 61 24q45 0 74 -38.5t29 -80.5q0 -48 -38 -86q-51 -50 -98 -132q-54 -94 -104 -145q-31 -36 -72 -36q-45 0 -74.5 37.5t-29.5 80.5z" />
<glyph unicode="&#xfb;" horiz-adv-x="898" d="M80 598l15 115v161l94 117h49q77 0 127 -224q-81 -157 -93 -363q0 -201 103 -201q110 0 166 299v56l-16 336l97 97h30q88 0 174 -135h22l24 -135h-22l-40 -203v-56q0 -237 76 -438v-50l-48 -60h-82l-108 154h-6q-108 -173 -205 -173h-31q-326 0 -326 703zM149 1201 q0 42 30 79q42 51 232 321q32 45 76 45q59 0 128 -77q20 -21 87 -110l122 -164q25 -36 25 -73q0 -42 -29.5 -79t-75.5 -37q-42 0 -77 42q-62 87 -160 210q-179 -274 -254 -274q-45 0 -74.5 37.5t-29.5 79.5z" />
<glyph unicode="&#xfc;" horiz-adv-x="898" d="M80 598l15 115v161l94 117h49q77 0 127 -224q-81 -157 -93 -363q0 -201 103 -201q110 0 166 299v56l-16 336l97 97h30q88 0 174 -135h22l24 -135h-22l-40 -203v-56q0 -237 76 -438v-50l-48 -60h-82l-108 154h-6q-108 -173 -205 -173h-31q-326 0 -326 703zM183 1229 q0 38 39 74.5t81 36.5q134 0 134 -130q0 -41 -45 -77q-41 -32 -80 -32q-129 0 -129 128zM569 1222q0 81 50 109q27 17 98 17q42 0 78 -40.5t36 -78.5q0 -117 -144 -117q-45 0 -80 28q-38 33 -38 82z" />
<glyph unicode="&#xfd;" horiz-adv-x="974" d="M80 754v73l94 117h76q55 -44 188 -345q90 -136 137 -136h15q-1 0 138 523l64 54h84q87 -44 87 -164v-69q-152 -125 -246 -780l-191 -737h-76l-64 80q19 193 138 714zM459 1222q0 40 30 78q32 38 98 149q54 87 124 149q26 24 61 24q45 0 74 -38.5t29 -80.5q0 -48 -38 -86 q-51 -50 -98 -132q-54 -94 -104 -145q-31 -36 -72 -36q-45 0 -74.5 37.5t-29.5 80.5z" />
<glyph unicode="&#xfe;" horiz-adv-x="954" d="M80 -391q0 78 16 191q-13 411 20 752l17 12v2l-26 745q78 55 134 55q14 0 28 -3q73 -16 45 -396l20 -10q104 37 172 22q236 -125 331 -341q37 -98 37 -155q0 -11 -2 -21q-50 -351 -471 -404q-84 4 -87 -9l12 -528q-46 -95 -132 -95q-16 0 -34 3q-80 19 -80 180zM313 340 l22 -35l13 -3q185 -40 326 153l5 40q13 93 -187 222l-22 4q-84 19 -138 -140l-1 -109z" />
<glyph unicode="&#xff;" horiz-adv-x="974" d="M80 754v73l94 117h76q55 -44 188 -345q90 -136 137 -136h15q-1 0 138 523l64 54h84q87 -44 87 -164v-69q-152 -125 -246 -780l-191 -737h-76l-64 80q19 193 138 714zM233 1229q0 38 39 74.5t81 36.5q134 0 134 -130q0 -41 -45 -77q-41 -32 -80 -32q-129 0 -129 128z M619 1222q0 81 50 109q27 17 98 17q42 0 78 -40.5t36 -78.5q0 -117 -144 -117q-45 0 -80 28q-38 33 -38 82z" />
<glyph unicode="&#x152;" horiz-adv-x="1792" d="M80 687q0 450 335 741l159 35h76q68 0 186 -71l34 25l158 -17h50l116 31h24q262 -56 262 -171v-41l-64 -69l-118 18h-9q-315 -40 -315 -82v-32q0 -120 97 -254l308 30q91 -42 101 -91v-34q0 -100 -98 -155h-136q-148 -33 -185 -75q0 -216 81 -216h100q148 0 253 65 q217 -32 217 -191q-38 -121 -154 -121l-84 15l-495 -82l-117 178h20q-94 -96 -175 -96q-217 0 -537 350zM279 658q0 -244 390 -351h12q195 158 195 336v62q0 75 -158 374q-21 120 -97 120h-53q-234 -65 -260 -321l-29 -205v-15z" />
<glyph unicode="&#x153;" horiz-adv-x="1444" d="M80 518q121 470 310 470h15q189 -14 275 -110h-20q160 205 283 205l55 -15l67 15q209 0 255 -296v-129q0 -203 -294 -203h-31l-142 13l-23 -154q68 -117 175 -117l261 94h36l62 -67v-59q-79 -248 -375 -248q-184 81 -283 190h17q-129 -143 -233 -143h-48 q-276 82 -276 179q-86 101 -86 375zM264 421q0 -144 188 -193h37l97 106l-15 245v32q0 28 -159 82h-23q-125 -117 -125 -272zM886 730l1 -1l58 -20v-5q96 0 145 70q-6 29 -50 29h-114l-40 -43v-30z" />
<glyph unicode="&#x178;" horiz-adv-x="1128" d="M80 1291l82 78h95q219 -308 227 -308h118q185 279 220 470l155 73q141 -76 141 -237q-221 -190 -232 -284q-76 -127 -76 -320v-85q-108 -133 -108 -202l78 -405q-28 -125 -158 -125q-111 116 -111 182l-33 529h18q0 144 -398 458zM227 1645q0 38 39 74.5t81 36.5 q134 0 134 -130q0 -41 -45 -77q-41 -32 -80 -32q-129 0 -129 128zM613 1638q0 81 50 109q27 17 98 17q42 0 78 -40.5t36 -78.5q0 -117 -144 -117q-45 0 -80 28q-38 33 -38 82z" />
<glyph unicode="&#x2c6;" horiz-adv-x="860" d="M80 1201q0 42 30 79q42 51 232 321q32 45 76 45q59 0 128 -77q20 -21 87 -110l122 -164q25 -36 25 -73q0 -42 -29.5 -79t-75.5 -37q-42 0 -77 42q-62 87 -160 210q-179 -274 -254 -274q-45 0 -74.5 37.5t-29.5 79.5z" />
<glyph unicode="&#x2dc;" horiz-adv-x="940" d="M80 1242q0 12 2 26q24 105 86 172q70 75 165 75q93 0 153 -70l64 -104q26 -40 56 -40q24 0 33 17l35 81l15 57q19 50 79 50q92 0 92 -100q0 -38 -34 -124q-33 -81 -58 -113q-54 -69 -138 -69q-116 0 -183 65q-25 24 -73 110q-22 38 -41 38q-15 0 -25.5 -6.5t-18.5 -19.5 l-33 -80q-28 -64 -82 -64q-40 0 -67 30t-27 69z" />
<glyph unicode="&#x2000;" horiz-adv-x="1040" />
<glyph unicode="&#x2001;" horiz-adv-x="2080" />
<glyph unicode="&#x2002;" horiz-adv-x="1040" />
<glyph unicode="&#x2003;" horiz-adv-x="2080" />
<glyph unicode="&#x2004;" horiz-adv-x="693" />
<glyph unicode="&#x2005;" horiz-adv-x="520" />
<glyph unicode="&#x2006;" horiz-adv-x="346" />
<glyph unicode="&#x2007;" horiz-adv-x="346" />
<glyph unicode="&#x2008;" horiz-adv-x="260" />
<glyph unicode="&#x2009;" horiz-adv-x="416" />
<glyph unicode="&#x200a;" horiz-adv-x="115" />
<glyph unicode="&#x2010;" horiz-adv-x="631" d="M80 384v261h471v-261h-471z" />
<glyph unicode="&#x2011;" horiz-adv-x="631" d="M80 384v261h471v-261h-471z" />
<glyph unicode="&#x2012;" horiz-adv-x="631" d="M80 384v261h471v-261h-471z" />
<glyph unicode="&#x2013;" horiz-adv-x="1015" d="M80 410v210h855v-210h-855z" />
<glyph unicode="&#x2014;" horiz-adv-x="1802" d="M80 410v210h1642v-210h-1642z" />
<glyph unicode="&#x2018;" horiz-adv-x="399" d="M80 1089q61 509 126 509h49l64 -81l-78 -449l16 -199l-33 -41h-48q-96 100 -96 261z" />
<glyph unicode="&#x2019;" horiz-adv-x="399" d="M80 909l78 449l-16 198l33 42h48q96 -100 96 -261q-61 -509 -126 -509h-49z" />
<glyph unicode="&#x201a;" horiz-adv-x="329" d="M80 -531l78 449l-16 198l33 42h48q96 -100 96 -261q-61 -509 -126 -509h-49z" />
<glyph unicode="&#x201c;" horiz-adv-x="722" d="M80 972q34 318 144 318l54 -67q-33 -46 -53 -510h-111zM418 837q41 472 142 472h33l49 -61l-63 -391l15 -153v-28l-81 -102q-71 97 -95 263z" />
<glyph unicode="&#x201d;" horiz-adv-x="722" d="M80 659l62 391l-15 152v28l82 103q70 -97 95 -264q-41 -472 -142 -472h-33zM444 683q33 46 54 511h109l35 -260q-34 -317 -144 -317z" />
<glyph unicode="&#x201e;" horiz-adv-x="651" d="M80 -342l62 391l-15 152v28l82 103q70 -97 95 -264q-41 -472 -142 -472h-33zM444 -318q33 46 54 511h109l35 -260q-34 -317 -144 -317z" />
<glyph unicode="&#x2022;" horiz-adv-x="683" d="M80 725q0 126 75 219t187 93t186.5 -93.5t74.5 -218.5q0 -126 -75.5 -220.5t-186.5 -94.5q-112 0 -186.5 94t-74.5 221z" />
<glyph unicode="&#x2026;" horiz-adv-x="1741" d="M80 146q0 91 86 144q149 0 198 -121v-47q-76 -159 -126 -159q-158 0 -158 183zM763 146q0 91 86 144q149 0 198 -121v-47q-76 -159 -126 -159q-158 0 -158 183zM1446 146q0 91 86 144q149 0 198 -121v-47q-76 -159 -126 -159q-158 0 -158 183z" />
<glyph unicode="&#x202f;" horiz-adv-x="416" />
<glyph unicode="&#x2039;" horiz-adv-x="482" d="M80 396v233l322 324v-283l-152 -156l152 -156v-283z" />
<glyph unicode="&#x203a;" horiz-adv-x="481" d="M80 75v283l151 156l-151 156v284l321 -325v-231z" />
<glyph unicode="&#x205f;" horiz-adv-x="520" />
<glyph unicode="&#x20ac;" horiz-adv-x="1314" d="M80 440v41l75 89l159 -16l16 36l-16 58l-53 -22h-44q-123 63 -123 228q0 65 115 133l93 -37q77 0 199 315q174 199 309 199h43q200 0 244 -387l-78 -69q-135 0 -170 176l-42 20q-77 -24 -129 -122v-12q0 -11 139 -45q0 -25 25 -25l31 -37v-92q0 -62 -187 -113l-88 17 q-74 0 -74 -86v-73l36 -31q158 0 242 128l73 21h19q68 0 104 -210v-51q0 -58 -390 -141v-8q0 -75 179 -120h23q155 0 217 224q36 206 103 206h36q68 -27 68 -128v-66q0 -426 -421 -477h-17q-245 0 -412 348h14l-190 -51q-128 63 -128 180z" />
<glyph unicode="&#x2122;" horiz-adv-x="1149" d="M80 1276v148h427v-148h-129v-431h-168v431h-130zM529 845v579h191l81 -258l77 258h191v-579h-156v208l-63 -208h-98l-66 216v-216h-157z" />
<glyph unicode="&#x25fc;" horiz-adv-x="1175" d="M0 0v1175h1175v-1175h-1175z" />
<glyph unicode="&#xfb03;" horiz-adv-x="2508" d="M80 689q0 53 33 135l117 24l74 -13q0 570 339 570l132 21q95 -51 105 -106v-78q0 -84 -238 -105q-116 -74 -116 -224l17 -7l139 20q168 -70 168 -127v-57q0 -65 -216 -135v-16q77 -291 77 -426q0 -119 -101 -183h-52q-87 61 -116 162l16 270q-28 141 -66 170l-187 -44 h-48q-77 64 -77 149zM1088 696q0 53 33 135l117 24l74 -13q0 570 339 570l132 21q95 -51 105 -106v-78q0 -84 -238 -105q-116 -74 -116 -224l17 -7l139 20q168 -70 168 -127v-57q0 -65 -216 -135v-16q77 -291 77 -426q0 -119 -101 -183h-52q-87 61 -116 162l16 270 q-28 141 -66 170l-187 -44h-48q-77 64 -77 149zM2257 710q0 99 2 221l106 84q101 -50 101 -96l-15 -326l31 -458v-92l-81 -80q-144 0 -144 747zM2259 1266v46l79 98h63q74 0 96 -220v-20q0 -53 -113 -89q-125 53 -125 185z" />
<glyph unicode="&#xfb04;" horiz-adv-x="2604" d="M80 689q0 53 33 135l117 24l74 -13q0 570 339 570l132 21q95 -51 105 -106v-78q0 -84 -238 -105q-116 -74 -116 -224l17 -7l139 20q168 -70 168 -127v-57q0 -65 -216 -135v-16q77 -291 77 -426q0 -119 -101 -183h-52q-87 61 -116 162l16 270q-28 141 -66 170l-187 -44 h-48q-77 64 -77 149zM1080 697q0 53 33 135l117 24l74 -13q0 570 339 570l132 21q95 -51 105 -106v-78q0 -84 -238 -105q-116 -74 -116 -224l17 -7l139 20q168 -70 168 -127v-57q0 -65 -216 -135v-16q77 -291 77 -426q0 -119 -101 -183h-52q-87 61 -116 162l16 270 q-28 141 -66 170l-187 -44h-48q-77 64 -77 149zM2232 1279v21q0 120 87 163h71q59 0 96 -181l-16 -231l123 -616q-45 -433 -143 -433h-72q-100 66 -100 320l61 192v150z" />
</font>
</defs>
</svg>
