<?xml version="1.0" standalone="no"?>
<!DOCTYPE svg PUBLIC "-//W3C//DTD SVG 1.1//EN" "http://www.w3.org/Graphics/SVG/1.1/DTD/svg11.dtd" >
<svg xmlns="http://www.w3.org/2000/svg" xmlns:xlink="http://www.w3.org/1999/xlink" version="1.1">
<metadata>
Created by FontForge 20150318 at Mon Oct 19 15:18:49 2015
 By uniteet7
(c) 1990, 1992, 1996, 2000, 2001 Adobe Systems Incorporated. All rights reserved.
</metadata>
<defs>
<font id="ACaslonProRegular" horiz-adv-x="500" >
  <font-face 
    font-family="ACaslonProRegular"
    font-weight="400"
    font-stretch="normal"
    units-per-em="1000"
    panose-1="2 5 5 2 5 5 10 2 4 3"
    ascent="735"
    descent="-265"
    x-height="421"
    cap-height="711"
    bbox="-190 -700 1501 1002"
    underline-thickness="50"
    underline-position="-50"
    unicode-range="U+0020-FB04"
  />
<missing-glyph 
d="M0 0v700h500v-700h-500zM250 395l170 255h-340zM280 350l170 -255v510zM80 50h340l-170 255zM50 605v-510l170 255z" />
    <glyph glyph-name="f_f" unicode="ff" horiz-adv-x="588" 
d="M107 256v114h-67q-9 0 -7 11l4 30q1 7 12 7h58v18q0 112 67 188q72 79 162 79q38 0 70.5 -14.5t49.5 -40.5q68 75 160 75q38 0 64.5 -14.5t26.5 -41.5q0 -17 -14.5 -30t-27.5 -13q-16 0 -28 6q-10 6 -24 23q-19 23 -46 23q-47 0 -75 -35q-17 -22 -25.5 -62.5t-9 -64
t-0.5 -77.5v-19h121q10 0 7 -10l-5 -33q-1 -5 -13 -5h-110v-90q0 -210 1 -221q2 -14 6.5 -20t19.5 -6h57q11 0 11 -8v-16q0 -12 -7 -12l-15 1q-15 0 -44.5 1t-65.5 1q-21 0 -57 -1.5t-37 -1.5q-8 0 -8 7v22q0 7 10 7h33q13 0 18 8t6 27v188v114h-206v-90q0 -210 1 -221
q2 -14 6.5 -20t19.5 -6h27q11 0 11 -8v-16q0 -12 -7 -12q-1 0 -14 0.5t-34 1.5t-42 1q-24 0 -50.5 -0.5t-44 -1.5t-19.5 -1q-8 0 -8 7v22q0 7 10 7h48q13 0 18 8t6 27v188zM179 447v-29h206v18q0 112 41 168l-1 2q-22 -3 -43.5 7t-33.5 25q-14 18 -52 18q-53 0 -82 -35
q-35 -44 -35 -174z" />
    <glyph glyph-name="f_f_i" unicode="ffi" horiz-adv-x="825" 
d="M107 256v114h-67q-9 0 -7 11l4 30q1 7 12 7h58v18q0 112 67 188q72 79 162 79q88 0 128 -59q33 40 83 59.5t94 19.5q41 0 70.5 -20.5t29.5 -47.5q1 -23 -13.5 -36t-33.5 -13q-31 0 -61 39q-22 30 -51 30q-45 0 -76 -35q-22 -24 -33.5 -62t-13.5 -67t-2 -74v-19h145
q44 0 110 15q18 4 20 4q8 0 6 -12q-3 -17 -3 -170v-110q0 -75 1 -86q0 -26 19 -26h43q9 0 9 -9v-17q0 -10 -8 -10q-2 0 -13 0.5l-33 1.5t-50 1q-26 0 -48 -0.5t-34.5 -1.5t-15.5 -1q-8 0 -8 8v20q0 8 10 8h40q15 0 16 23v88v145q0 49 -15.5 65t-68.5 16h-122v-90
q0 -210 2 -221q0 -26 18 -26h45q10 0 10 -8v-16q0 -12 -6 -12q-1 0 -13.5 0.5l-37.5 1.5t-57 1q-20 0 -55.5 -1.5t-36.5 -1.5q-8 0 -8 7v22q0 7 10 7h33q13 0 18 8t6 27v188v114h-206v-90q0 -210 1 -221q2 -14 6.5 -20t19.5 -6h27q11 0 11 -8v-16q0 -12 -7 -12q-1 0 -14 0.5
t-34 1.5t-42 1q-24 0 -50.5 -0.5t-44 -1.5t-19.5 -1q-8 0 -8 7v22q0 7 10 7h48q13 0 18 8t6 27v188zM179 447v-29h206v18q0 109 44 165l-1 2q-53 -3 -80 35q-14 18 -52 18q-53 0 -82 -35q-35 -44 -35 -174z" />
    <glyph glyph-name="f_f_l" unicode="ffl" horiz-adv-x="823" 
d="M107 256v114h-65q-9 0 -8 13l3 28q1 7 12 7h58v18q0 112 67 188q72 79 162 79q38 0 71 -14.5t50 -41.5q62 76 161 76q70 0 110 -22q9 -5 9 -21q-2 -30 -2 -293v-89q0 -203 1 -230q1 -21 6.5 -28t16.5 -7h47q12 0 12 -9v-17q0 -10 -7 -10q-1 0 -15.5 0.5t-40.5 1.5t-56 1
q-29 0 -52.5 -0.5t-36 -1.5t-14.5 -1q-7 0 -7 10v17q0 9 13 9h39q19 0 21 22q1 34 1 264v51h-206v-90q0 -210 1 -221q2 -14 6.5 -20t19.5 -6h42q11 0 11 -8v-16q0 -12 -7 -12q-1 0 -14.5 0.5t-38.5 1.5t-52 1q-24 0 -61 -2l-38 -1q-8 0 -8 7v22q0 7 10 7h33q13 0 18 8t6 27
v188v114h-206v-90q0 -210 1 -221q2 -14 6.5 -20t19.5 -6h27q11 0 11 -8v-16q0 -12 -7 -12q-1 0 -14 0.5t-34 1.5t-42 1q-24 0 -50.5 -0.5t-44 -1.5t-19.5 -1q-8 0 -8 7v22q0 7 10 7h48q13 0 18 8t6 27v188zM179 447v-29h206v18q0 111 41 169l-1 2q-22 -3 -44 6.5t-33 24.5
q-14 18 -52 18q-53 0 -82 -35q-35 -44 -35 -174zM457 418h206q0 91 -3 162q-2 44 -22 69.5t-54 25.5q-54 0 -88 -35q-6 -7 -11.5 -15.5t-9 -16t-6.5 -19.5t-5 -19.5t-3.5 -22t-2 -21.5t-1 -23t-0.5 -22v-23v-21v-19z" />
    <glyph glyph-name="T_h" unicode="Th" horiz-adv-x="1083" 
d="M642 243v302q0 84 -52 110q-34 17 -173 17h-28v-285q0 -294 1 -311q3 -40 34 -40h63q10 0 10 -10v-21q0 -8 -10 -8q-2 0 -17 0.5t-47.5 1.5t-75.5 1q-42 0 -76.5 -0.5t-53 -1.5t-22.5 -1q-9 0 -9 10v19q0 10 7 10h68q14 0 23 7t10 17q3 29 3 355v257h-25q-119 0 -158 -12
q-44 -14 -89 -116q-3 -6 -10 -5l-18 5q-6 2 -4 8q43 156 47 176q2 16 10 16q7 0 12 -4l13 -9q22 -16 57 -17q159 -6 189 -6h103q54 0 201 6q36 1 61 22q10 8 21 8q14 0 10 -25q-3 -17 -3 -291v-64h5q25 30 63.5 47.5t73.5 17.5q58 0 99 -40q21 -20 31 -47.5t11 -44.5t1 -55
v-57q0 -33 1 -82.5t1 -54.5q0 -15 37 -15h17q11 0 11 -9v-15q0 -12 -8 -12q-2 0 -14 0.5t-34.5 1.5t-47.5 1q-22 0 -43 -0.5t-34.5 -1.5t-16.5 -1q-9 0 -9 11v17q0 8 7 8h23q37 0 38 19v23v41v35v81q0 48 -6.5 76t-26.5 47q-29 28 -66 28q-56 0 -93 -42q-20 -24 -20 -49
v-218q0 -25 4 -33t18 -8h30q11 0 11 -8v-17q0 -11 -8 -11q-2 0 -16.5 0.5t-36.5 1.5t-42 1q-22 0 -44 -0.5t-36 -1.5t-17 -1q-7 0 -7 10v18q0 8 15 8h21q30 0 33 16q3 19 3 194z" />
    <glyph glyph-name="uni021A_h" unicode="&#x21a;h" horiz-adv-x="1083" 
d="M642 243v302q0 84 -52 110q-34 17 -173 17h-28v-285q0 -294 1 -311q3 -40 34 -40h63q10 0 10 -10v-21q0 -8 -10 -8q-2 0 -17 0.5t-47.5 1.5t-75.5 1q-42 0 -76.5 -0.5t-53 -1.5t-22.5 -1q-9 0 -9 10v19q0 10 7 10h68q14 0 23 7t10 17q3 29 3 355v257h-25q-119 0 -158 -12
q-44 -14 -89 -116q-3 -6 -10 -5l-18 5q-6 2 -4 8q43 156 47 176q2 16 10 16q7 0 12 -4l13 -9q22 -16 57 -17q159 -6 189 -6h103q54 0 201 6q36 1 61 22q10 8 21 8q14 0 10 -25q-3 -17 -3 -291v-64h5q25 30 63.5 47.5t73.5 17.5q58 0 99 -40q21 -20 31 -47.5t11 -44.5t1 -55
v-57q0 -33 1 -82.5t1 -54.5q0 -15 37 -15h17q11 0 11 -9v-15q0 -12 -8 -12q-2 0 -14 0.5t-34.5 1.5t-47.5 1q-22 0 -43 -0.5t-34.5 -1.5t-16.5 -1q-9 0 -9 11v17q0 8 7 8h23q37 0 38 19v23v41v35v81q0 48 -6.5 76t-26.5 47q-29 28 -66 28q-56 0 -93 -42q-20 -24 -20 -49
v-218q0 -25 4 -33t18 -8h30q11 0 11 -8v-17q0 -11 -8 -11q-2 0 -16.5 0.5t-36.5 1.5t-42 1q-22 0 -44 -0.5t-36 -1.5t-17 -1q-7 0 -7 10v18q0 8 15 8h21q30 0 33 16q3 19 3 194zM340 -60q23 0 43.5 -19.5t20.5 -51.5q0 -49 -31 -87t-56 -52q-7 -7 -14 -7q-9 0 -9 7q0 5 7 11
q53 50 53 93q0 15 -13 23l-5 1l-7 3.5t-8 4.5t-8.5 6.5t-7 8t-5.5 11t-2 14.5q0 14 11.5 24t30.5 10z" />
    <glyph glyph-name="Tcaron_h" unicode="&#x164;h" horiz-adv-x="1083" 
d="M642 243v302q0 84 -52 110q-34 17 -173 17h-28v-285q0 -294 1 -311q3 -40 34 -40h63q10 0 10 -10v-21q0 -8 -10 -8q-2 0 -17 0.5t-47.5 1.5t-75.5 1q-42 0 -76.5 -0.5t-53 -1.5t-22.5 -1q-9 0 -9 10v19q0 10 7 10h68q14 0 23 7t10 17q3 29 3 355v257h-25q-119 0 -158 -12
q-44 -14 -89 -116q-3 -6 -10 -5l-18 5q-6 2 -4 8q43 156 47 176q2 16 10 16q7 0 12 -4l13 -9q22 -16 57 -17q159 -6 189 -6h103q54 0 201 6q36 1 61 22q10 8 21 8q14 0 10 -25q-3 -17 -3 -291v-64h5q25 30 63.5 47.5t73.5 17.5q58 0 99 -40q21 -20 31 -47.5t11 -44.5t1 -55
v-57q0 -33 1 -82.5t1 -54.5q0 -15 37 -15h17q11 0 11 -9v-15q0 -12 -8 -12q-2 0 -14 0.5t-34.5 1.5t-47.5 1q-22 0 -43 -0.5t-34.5 -1.5t-16.5 -1q-9 0 -9 11v17q0 8 7 8h23q37 0 38 19v23v41v35v81q0 48 -6.5 76t-26.5 47q-29 28 -66 28q-56 0 -93 -42q-20 -24 -20 -49
v-218q0 -25 4 -33t18 -8h30q11 0 11 -8v-17q0 -11 -8 -11q-2 0 -16.5 0.5t-36.5 1.5t-42 1q-22 0 -44 -0.5t-36 -1.5t-17 -1q-7 0 -7 10v18q0 8 15 8h21q30 0 33 16q3 19 3 194zM227 909l131 -56l117 55q8 5 10 1l8 -10q3 -3 -2 -9l-126 -111q-11 -9 -13 -9q-3 0 -14 9
l-126 112q-4 4 -1 8l7 9q3 4 9 1z" />
    <glyph glyph-name="f_i" unicode="fi" horiz-adv-x="547" 
d="M107 256v114h-67q-9 0 -7 10l4 31q1 7 12 7h58v16q0 124 75 206q37 42 87.5 62.5t93.5 20.5q41 0 70.5 -21.5t29.5 -48.5q1 -23 -13.5 -36t-33.5 -13q-31 0 -61 39q-22 30 -51 30q-45 0 -76 -35q-22 -24 -33.5 -61.5t-13.5 -66.5t-2 -73v-19h145q44 0 110 15q18 4 20 4
q8 0 6 -12q-3 -17 -3 -170v-110q0 -75 1 -86q0 -26 19 -26h43q9 0 9 -9v-18q0 -9 -8 -9q-2 0 -13 0.5l-33 1.5t-50 1q-26 0 -48 -0.5t-34.5 -1.5t-15.5 -1q-8 0 -8 8v20q0 8 10 8h40q15 0 16 23v88v151q0 45 -16 60t-68 15h-122v-90q0 -210 2 -221q0 -26 18 -26h45
q10 0 10 -8v-18q0 -10 -6 -10q-1 0 -13 0.5t-35.5 1.5t-52.5 1q-30 0 -56 -0.5t-41 -1.5t-17 -1q-8 0 -8 7v22q0 7 10 7h52q19 0 20 35v188z" />
    <glyph glyph-name="f_j" unicode="fj" horiz-adv-x="547" 
d="M107 418v16q0 124 75 206q37 42 87.5 62.5t93.5 20.5q40 0 69.5 -21t30.5 -49q0 -23 -14.5 -36t-32.5 -13q-31 0 -61 39q-22 30 -51 30q-45 0 -76 -35q-22 -24 -33.5 -61.5t-13.5 -66.5t-2 -73v-19h145q44 0 110 15q18 4 20 4q8 0 6 -12q-4 -22 -4.5 -53t0.5 -74.5
t1 -54.5v-126q0 -151 -14 -221q-16 -82 -63 -125t-108 -43q-24 0 -41 13t-17 34q0 13 10.5 27.5t25.5 14.5q29 0 57 -31q14 -15 23 -15q43 0 50 88q5 73 5 214v222q0 45 -16 60t-68 15h-122v-90q0 -210 2 -221q0 -26 18 -26h45q10 0 10 -8v-18q0 -10 -6 -10q-1 0 -13 0.5
t-35.5 1.5t-52.5 1q-30 0 -56 -0.5t-41 -1.5t-17 -1q-8 0 -8 7v22q0 7 10 7h52q20 0 20 35v302h-67q-9 0 -7 10l4 31q1 7 12 7h58z" />
    <glyph glyph-name="f_l" unicode="fl" horiz-adv-x="545" 
d="M107 256v114h-67q-9 0 -7 10l4 31q1 7 12 7h58v16q0 129 64 209q63 80 169 80q67 0 110 -24q9 -5 9 -21q-2 -30 -2 -291v-89q0 -203 1 -230q1 -21 6.5 -28t16.5 -7h47q12 0 12 -9v-17q0 -10 -7 -10q-1 0 -15.5 0.5t-40.5 1.5t-56 1q-29 0 -52.5 -0.5t-36 -1.5t-14.5 -1
q-7 0 -7 10v17q0 9 13 9h39q19 0 21 22q1 34 1 264v51h-206v-90q0 -210 1 -225q2 -22 20 -22h49q10 0 10 -8v-16q0 -12 -7 -12l-14 1q-13 0 -37.5 1t-53.5 1q-31 0 -57.5 -0.5t-40.5 -1.5t-16 -1q-8 0 -8 7v22q0 7 10 7h50q21 0 22 31v192zM179 437v-19h206q0 89 -3 165
q-3 90 -76 90q-54 0 -88 -35q-7 -7 -12.5 -15.5t-9.5 -20.5t-7 -20.5t-5 -24t-3 -22.5t-1.5 -26t-0.5 -23.5v-25.5v-23z" />
    <glyph glyph-name="f_f_j" unicode="ffj" horiz-adv-x="825" 
d="M107 418v18q0 112 67 188q72 79 162 79q88 0 128 -59q33 40 83 59.5t94 19.5q41 0 70 -20.5t30 -47.5q0 -23 -14.5 -36t-32.5 -13q-31 0 -61 39q-22 30 -51 30q-45 0 -76 -35q-22 -24 -33.5 -62t-13.5 -67t-2 -74v-19h145q44 0 110 15q18 4 20 4q6 0 6 -12v-308
q0 -151 -14 -221q-16 -82 -63 -125t-108 -43q-24 0 -41 13t-17 34q0 13 10.5 27.5t25.5 14.5q29 0 57 -31q14 -15 23 -15q43 0 50 88q5 72 5 214v48.5t-0.5 23t-1 44.5t-1.5 100q-1 50 -16.5 65.5t-67.5 15.5h-122v-90q0 -210 2 -221q0 -26 18 -26h45q10 0 10 -8v-16
q0 -12 -6 -12q-1 0 -13.5 0.5l-37.5 1.5t-57 1q-20 0 -55.5 -1.5t-36.5 -1.5q-8 0 -8 7v22q0 7 10 7h33q24 0 24 35v302h-206v-90q0 -210 1 -221q2 -14 6.5 -20t19.5 -6h27q11 0 11 -8v-16q0 -12 -7 -12q-1 0 -14 0.5t-34 1.5t-42 1q-24 0 -50.5 -0.5t-44 -1.5t-19.5 -1
q-8 0 -8 7v22q0 7 10 7h48q24 0 24 35v302h-67q-9 0 -7 11l4 30q1 7 12 7h58zM429 601l-1 2q-53 -3 -80 35q-14 18 -52 18q-53 0 -82 -35q-35 -44 -35 -174v-29h206v18q0 109 44 165z" />
    <glyph glyph-name="longs_h" unicode="&#x17f;h" horiz-adv-x="818" 
d="M107 370h-67q-8 0 -7 11l4 30q1 7 12 7h58v18q0 135 76 220q60 67 147 67q31 0 64 -7.5t46 -14.5q13 -9 11 -25q-2 -20 -2 -248v-64h5q25 30 63.5 47.5t73.5 17.5q58 0 99 -40q21 -20 31 -47.5t11 -44.5t1 -55v-57q0 -33 1 -82.5t1 -54.5q0 -15 37 -15h17q11 0 11 -9v-15
q0 -12 -8 -12q-2 0 -14 0.5t-34.5 1.5t-47.5 1q-22 0 -43 -0.5t-34.5 -1.5t-16.5 -1q-9 0 -9 11v17q0 8 7 8h23q37 0 38 19v23v41v35v81q0 48 -6.5 76t-26.5 47q-29 28 -66 28q-56 0 -93 -42q-20 -24 -20 -49v-218q0 -25 4 -33t18 -8h30q11 0 11 -8v-17q0 -11 -8 -11
q-2 0 -16.5 0.5t-35.5 1.5t-40 1q-23 0 -46.5 -0.5t-38 -1.5t-17.5 -1q-7 0 -7 10v17q0 9 13 9h38q21 0 22 25q1 31 1 261v63q0 150 -4 197q-7 95 -72 95q-50 0 -83 -35q-19 -21 -28 -60.5t-10 -64t-1 -77.5v-157q0 -210 1 -221q2 -14 6.5 -20t19.5 -6h37q11 0 11 -8v-16
q0 -12 -7 -12q-1 0 -14.5 0.5t-37 1.5t-48.5 1q-24 0 -50.5 -0.5t-44 -1.5t-19.5 -1q-8 0 -8 7v22q0 7 10 7h48q13 0 18 8t6 27v188v114z" />
    <glyph glyph-name="longs_i" unicode="&#x17f;i" horiz-adv-x="540" 
d="M375 144v147q0 28 -10.5 41t-45.5 19q-9 1 -9 7v9q0 4 7 7q60 23 108 49q12 6 19 6t5 -12q-2 -17 -2 -163v-109q0 -75 1 -86q3 -26 16 -26h46q10 0 10 -9v-17q0 -10 -9 -10l-35 1q-34 2 -56 2q-32 0 -68 -2l-35 -1q-8 0 -8 8v20q0 8 10 8h39q15 0 16 20q1 30 1 91z
M107 256v114h-67q-8 0 -6 11l3 30q1 7 12 7h58v16q0 124 75 206q37 42 84.5 62.5t86.5 20.5q41 0 70.5 -21.5t29.5 -48.5q1 -23 -13.5 -36t-33.5 -13q-31 0 -61 39q-22 30 -46 30q-40 0 -71 -35q-22 -24 -33.5 -61.5t-13.5 -66.5t-2 -73v-157q0 -210 1 -221q2 -14 6.5 -20
t19.5 -6h37q11 0 11 -8v-16q0 -12 -7 -12q-1 0 -14.5 0.5t-37 1.5t-48.5 1q-24 0 -50.5 -0.5t-44 -1.5t-19.5 -1q-8 0 -8 7v22q0 7 10 7h48q13 0 18 8t6 27v188z" />
    <glyph glyph-name="longs_l" unicode="&#x17f;l" horiz-adv-x="537" 
d="M107 370h-67q-8 0 -6 11l3 30q1 7 12 7h58v18q0 135 76 220q60 67 147 67q31 0 64 -7.5t46 -14.5q13 -9 11 -25q-2 -20 -2 -289v-89q0 -203 1 -234q2 -31 26 -31h45q11 0 11 -9v-17q0 -10 -6 -10q-2 0 -17 0.5t-40.5 1.5t-50.5 1q-26 0 -51 -0.5t-40 -1.5t-17 -1
q-7 0 -7 10v17q0 9 13 9h38q21 0 22 25q1 31 1 261v63q0 150 -4 197q-7 95 -73 95q-49 0 -82 -35q-19 -21 -28 -60.5t-10 -64t-1 -77.5v-157q0 -210 1 -221q2 -14 6.5 -20t19.5 -6h37q11 0 11 -8v-16q0 -12 -7 -12q-1 0 -14.5 0.5t-37 1.5t-48.5 1q-24 0 -50.5 -0.5
t-44 -1.5t-19.5 -1q-8 0 -8 7v22q0 7 10 7h48q13 0 18 8t6 27v188v114z" />
    <glyph glyph-name="longs_longs" unicode="&#x17f;&#x17f;" horiz-adv-x="560" 
d="M107 370h-67q-8 0 -6 11l3 30q1 7 12 7h58v18q0 112 67 188q72 79 159 79q37 0 70.5 -14.5t49.5 -40.5q71 75 160 75q38 0 64.5 -14.5t26.5 -41.5q0 -17 -14.5 -30t-27.5 -13q-16 0 -28 6q-10 6 -24 23q-19 23 -46 23q-48 0 -75 -35q-17 -22 -25.5 -62.5t-9 -64
t-0.5 -77.5v-157q0 -210 1 -221q2 -14 6.5 -20t19.5 -6h57q11 0 11 -8v-16q0 -12 -7 -12q-1 0 -15 0.5t-39.5 1.5t-55.5 1q-22 0 -47.5 -0.5t-42.5 -1.5t-19 -1q-8 0 -8 7v22q0 7 10 7h33q13 0 18 8t6 27v188v114h-67q-8 0 -6 11l3 30q1 7 12 7h58v18q0 111 42 171l-2 1
q-46 -8 -72 25q-19 23 -58 23q-50 0 -78 -35q-17 -21 -25.5 -60.5t-9 -60.5t-0.5 -63v-157q0 -210 1 -221q2 -14 6 -20t17 -6h30q11 0 11 -8v-16q0 -12 -7 -12q-1 0 -14 0.5t-34 1.5t-42 1q-24 0 -50.5 -0.5t-44 -1.5t-19.5 -1q-8 0 -8 7v22q0 7 10 7h48q13 0 18 8t6 27v188
v114z" />
    <glyph glyph-name="longs_t" unicode="&#x17f;t" horiz-adv-x="595" 
d="M107 370h-67q-8 0 -6 11l3 30q1 7 12 7h58v18q0 131 66 209t160 78q60 0 106 -20q13 -5 13 -26q0 -4 -2.5 -121.5t0.5 -137.5h139q10 0 8 -9l-11 -35q-2 -8 -9 -8h-129q-3 -69 -3 -141v-100q0 -50 16.5 -69t35.5 -19q46 0 66 13q7 4 12 -2l5 -9q4 -5 -2 -11
q-13 -13 -42.5 -26.5t-68.5 -13.5q-36 0 -66.5 28t-30.5 57q0 24 1.5 81.5t1.5 61.5v22q0 44 2 128h-61q-15 0 -15 12q0 8 18 18q38 23 62 51q0 7 0.5 42t0 54t-1.5 46t-3.5 42t-7.5 19q-30 25 -58 25q-57 0 -92 -37q-14 -16 -22.5 -37.5t-11.5 -56t-3.5 -50.5t-0.5 -57
v-157q0 -210 1 -221q2 -14 6.5 -20t19.5 -6h57q11 0 11 -8v-16q0 -12 -7 -12q-1 0 -15 0.5t-42.5 1.5t-62.5 1q-24 0 -50.5 -0.5t-44 -1.5t-19.5 -1q-8 0 -8 7v22q0 7 10 7h48q13 0 18 8t6 27v188v114z" />
    <glyph glyph-name=".notdef" 
d="M0 0v700h500v-700h-500zM250 395l170 255h-340zM280 350l170 -255v510zM80 50h340l-170 255zM50 605v-510l170 255z" />
    <glyph glyph-name=".null" horiz-adv-x="0" 
 />
    <glyph glyph-name="nonmarkingreturn" horiz-adv-x="333" 
 />
    <glyph glyph-name="space" unicode=" " horiz-adv-x="254" 
 />
    <glyph glyph-name="exclam" unicode="!" horiz-adv-x="254" 
d="M131 -12q-22 0 -42.5 14t-20.5 45q0 18 15 37t48 19q22 0 39 -16.5t17 -43.5q0 -24 -16.5 -39.5t-39.5 -15.5zM129 683q23 0 37.5 -14.5t12.5 -44.5q0 -4 -17.5 -179.5t-18.5 -231.5q0 -7 -7 -7h-18q-7 0 -7 10q-1 53 -15.5 222t-14.5 186q0 24 14 41.5t34 17.5z" />
    <glyph glyph-name="quotedbl" unicode="&#x22;" horiz-adv-x="370" 
d="M123 461h-34q-1 27 -15.5 117t-14.5 103q0 42 47 42q46 0 46 -41q0 -14 -14 -104t-15 -117zM282 461h-33q-1 27 -15.5 117t-14.5 103q0 42 46 42q47 0 47 -41q0 -14 -14.5 -104t-15.5 -117z" />
    <glyph glyph-name="numbersign" unicode="#" 
d="M289 263l32 155h-108l-33 -155h109zM233 -4l45 214h-109l-45 -209q-3 -16 -10 -16h-45q-7 0 -4 14l46 211h-113q-9 0 -6 9l10 37q1 7 11 7h109l32 155h-104q-9 0 -12 1.5t-2 5.5l8 39q2 7 13 7h108l45 203q2 9 8 9h44q7 0 4 -10l-42 -202h108l42 203q4 9 10 9h44
q7 0 5 -11l-42 -201h109q5 0 7.5 -1.5t1.5 -5.5l-9 -39q-1 -7 -15 -7h-105l-33 -155h111q6 0 9 -2t2 -6l-10 -40q-1 -5 -12 -5h-111l-44 -213q-3 -12 -10 -12h-45q-7 0 -4 11z" />
    <glyph glyph-name="dollar" unicode="$" 
d="M290 -43h-19q-7 0 -7 10l1 49q-28 -3 -54 4l-2 -54q0 -9 -7 -9h-20q-7 0 -7 10l2 61q-22 7 -50 29q-15 11 -21 11q-7 0 -15 -14q-6 -10 -17 -10q-10 0 -9 13q2 13 8.5 79.5t7.5 74.5q0 7 7 7l15 -1q6 0 6 -7q2 -58 27 -98q19 -30 42 -42l7 255q-39 12 -66 39
q-47 45 -47 122q0 65 62 119q26 24 59 34l2 57q0 10 7 10h20q7 0 7 -10l-1 -52q26 3 53 -2l1 54q0 10 7 10h20q7 0 7 -12l-2 -58q18 -4 36 -12q10 -5 18 1l10 10q7 6 14 6q8 0 8 -15q0 -77 3 -137q0 -5 -5 -7l-14 -3q-5 0 -6 3q-11 62 -42 91l-21 18l-8 -223
q128 -38 128 -171q0 -61 -38 -112.5t-99 -64.5l-1 -53q0 -10 -7 -10zM274 375l6 230q-25 13 -53 7l-6 -224q12 -6 53 -13zM188 400l4 203q-26 -13 -40.5 -41.5t-14.5 -56.5q0 -52 20 -80q5 -7 10.5 -12t12.5 -8.5t8 -4.5zM219 314l-7 -257q9 -9 54 -7l6 251q-20 5 -53 13z
M305 290l-6 -233q30 12 50.5 39.5t20.5 70.5q0 91 -65 123z" />
    <glyph glyph-name="percent" unicode="%" horiz-adv-x="750" 
d="M170 294q44 0 58 41q14 44 14 134q0 184 -80 184q-34 0 -51 -35q-21 -44 -21 -154q0 -75 18 -121q10 -23 28.5 -36t33.5 -13zM165 683q41 0 71 -19.5t46 -53t23.5 -66.5t9.5 -70q-1 -99 -40.5 -154.5t-104.5 -55.5q-46 0 -78 22.5t-46.5 57.5t-20 64.5t-5.5 56.5
q0 91 37 154.5t108 63.5zM598 654l-406 -656q-7 -13 -10 -13q-4 0 -18 8t-14 12t5 12l406 658q4 8 8 8t16 -6q17 -10 17 -14q0 -1 -4 -9zM585 21q44 0 58 41q14 44 14 134q0 184 -80 184q-34 0 -51 -35q-21 -44 -21 -154q0 -75 18 -121q10 -23 28.5 -36t33.5 -13zM580 410
q41 0 71 -19.5t46 -53t23.5 -66.5t9.5 -70q-1 -99 -40.5 -154.5t-104.5 -55.5q-46 0 -78 22.5t-46.5 57.5t-20 64.5t-5.5 56.5q0 91 37 154.5t108 63.5z" />
    <glyph glyph-name="ampersand" unicode="&#x26;" horiz-adv-x="825" 
d="M710 -15q-26 0 -51.5 9t-42 18.5t-39 32.5t-30.5 32t-29.5 37t-22.5 30q-58 -72 -90 -98q-74 -61 -159 -61q-80 0 -145 47.5t-65 128.5q0 92 81 169q41 40 116 82q-50 29 -77 63t-27 62q0 57 57.5 114t104.5 57q55 0 98.5 -44t41.5 -95q-1 -36 -37 -77.5t-73 -60.5
q52 -27 112 -83t99 -112q29 37 63 90t36 73q2 12 -7 21.5t-24 9.5h-17q-7 0 -7 7v22q0 5 7 5q1 0 39 -1.5t58 -1.5q16 0 40.5 0.5t42.5 1.5t20 1q7 0 7 -7v-21q0 -7 -7 -7h-17q-37 0 -50.5 -5t-25.5 -24q-13 -20 -67 -96.5t-71 -94.5q66 -74 76 -84q72 -75 135 -75
q39 0 70 29.5t40 48.5q3 5 8 1l15 -9q3 -2 0 -9q-8 -17 -20 -34.5t-34 -40t-56.5 -37t-75.5 -14.5zM284 45q20 0 39.5 5t36.5 14.5t30.5 18.5t28.5 24t22 22.5t19 21.5t13 16q-118 166 -220 224q-59 -32 -97.5 -85t-37.5 -111q1 -60 53.5 -105t112.5 -45zM291 672
q-36 0 -64.5 -36t-28.5 -80q0 -47 102 -110q39 30 53 52q19 32 19 74q0 31 -23.5 65.5t-57.5 34.5z" />
    <glyph glyph-name="quotesingle" unicode="'" horiz-adv-x="206" 
d="M121 461h-34q-1 27 -15.5 117t-14.5 103q0 42 47 42q46 0 46 -41q0 -14 -14 -104t-15 -117z" />
    <glyph glyph-name="parenleft" unicode="(" horiz-adv-x="330" 
d="M60 287q0 131 67 273q43 95 132 180q10 7 19 7q6 0 13 -5t7 -9q0 -9 -9 -18q-161 -168 -161 -428q0 -262 162 -427q8 -10 8 -18q0 -4 -7 -9.5t-13 -5.5q-10 0 -19 8q-98 91 -141 180q-58 118 -58 272z" />
    <glyph glyph-name="parenright" unicode=")" horiz-adv-x="330" 
d="M270 287q0 -131 -67 -273q-45 -98 -132 -179q-9 -8 -19 -8q-6 0 -13 5.5t-7 9.5q0 8 9 17q161 168 161 428q0 262 -162 427q-8 10 -8 19q0 4 7 9t13 5q9 0 19 -7q99 -94 141 -181q58 -118 58 -272z" />
    <glyph glyph-name="asterisk" unicode="*" horiz-adv-x="328" 
d="M164 399q-32 0 -32 35q0 4 29 120h-2q-4 -3 -24.5 -23.5t-39.5 -38.5t-23 -21q-32 -19 -48 8t15 46q8 5 61 20.5t58 15.5v2q-7 1 -61 15.5t-61 17.5q-12 5 -17 15.5t2 27.5q15 28 48 10q8 -4 48 -40.5t42 -40.5l2 2q-2 6 -15.5 59.5t-13.5 60.5q0 33 32 33t32 -33
q0 -9 -13.5 -63t-15.5 -58l2 -2q3 5 43 43t47 42q28 15 44 -11q17 -28 -13 -45q-8 -5 -61 -19t-58 -14v-2q104 -26 122 -35q31 -15 12 -47q-16 -26 -49 -7q-8 4 -46.5 42t-40.5 42l-2 -2q2 -4 15.5 -57.5t13.5 -62.5q0 -35 -32 -35z" />
    <glyph glyph-name="plus" unicode="+" 
d="M281 40h-60v172h-165v56h165v172h60v-172h163v-56h-163v-172z" />
    <glyph glyph-name="comma" unicode="," horiz-adv-x="254" 
d="M115 115q30 0 58.5 -26.5t28.5 -69.5q0 -36 -15 -71t-37 -59t-38 -37.5t-27 -20.5q-18 -9 -20 -9q-12 0 -12 9q0 7 9 15q71 65 71 126q0 9 -5.5 18.5t-11.5 11.5l-5 2q-5 2 -8 3t-9 4.5t-10 6.5t-9.5 8t-8.5 11t-5 14t-2 17q0 20 15 33.5t41 13.5z" />
    <glyph glyph-name="hyphen" unicode="-" horiz-adv-x="404" 
d="M52 243v44q0 7 9 7h280q11 0 11 -11v-38q0 -7 -12 -7h-279q-9 -1 -9 5z" />
    <glyph glyph-name="period" unicode="." horiz-adv-x="254" 
d="M130 -12q-22 0 -42 14t-20 45q0 19 14.5 37.5t47.5 18.5q23 0 39.5 -16.5t16.5 -43.5q0 -24 -16 -39.5t-40 -15.5z" />
    <glyph glyph-name="slash" unicode="/" horiz-adv-x="350" 
d="M2 16l298 703q4 9 13 6l32 -13q8 -3 4 -14l-299 -704q-5 -12 -13 -8l-34 17q-6 3 -1 13z" />
    <glyph glyph-name="zero" unicode="0" 
d="M255 -15q-57 0 -102.5 31.5t-70.5 81t-38 101.5t-13 101q0 170 63 276.5t160 106.5q53 0 95.5 -32t67.5 -83t38.5 -110t13.5 -118q0 -169 -58 -262t-156 -93zM256 21q64 0 96 71q31 68 31 270q0 116 -37 200.5t-98 84.5q-59 0 -90 -60q-40 -78 -40 -270q0 -140 34 -211
q40 -85 104 -85z" />
    <glyph glyph-name="one" unicode="1" 
d="M226 325v36v139q-2 56 -24 56q-14 0 -40 -8l-70 -23q-8 -2 -10 3l-8 18q-3 7 6 12l207 119q10 6 14 6q7 0 7 -14l-1 -48q-1 -48 -1.5 -119t-0.5 -128v-42q0 -6 0.5 -118t0.5 -119q1 -40 11.5 -49.5t58.5 -9.5h36q10 0 10 -8v-23q0 -8 -9 -8q-5 0 -77 1.5t-77 1.5
t-79 -1.5t-76 -1.5q-8 0 -8 8v25q0 6 14 6h46q48 0 57.5 8t11.5 48q1 13 1 233z" />
    <glyph glyph-name="two" unicode="2" 
d="M315 0h-217q-20 0 -50 -2t-31 -2q-8 0 -11 6q-4 8 3 15l51 47q52 48 90 84.5t74 75.5q127 136 123 250q-2 66 -38 104t-91 37q-30 0 -53 -9.5t-40.5 -30t-23 -28t-17.5 -29.5q-5 -9 -12 -5l-14 6q-5 3 0 14q62 150 200 150q67 0 121 -50.5t54 -131.5q0 -64 -28.5 -123.5
t-95.5 -134.5q-30 -35 -65.5 -67.5t-76 -66t-49.5 -41.5h203q24 0 43 7t33.5 22.5t21 25t18.5 29.5q6 11 18 5q13 -7 8 -14l-65 -156q-2 -3 -2 -7q0 -3 -2 -3.5t-11 -0.5t-13 10q-6 14 -55 14z" />
    <glyph glyph-name="three" unicode="3" 
d="M185 -15q-79 0 -114.5 25t-35.5 54q0 19 10 31t23 12q8 0 14.5 -3t10.5 -7t7 -10t4.5 -10.5t3.5 -8.5l1 -5q19 -41 93 -41q66 0 106.5 41t40.5 96q0 72 -40 118t-104 61q-3 1 -8 2q-9 9 -10 13q0 11 12 14q52 10 91 48.5t39 93.5q0 49 -28 80.5t-74 31.5q-93 0 -133 -109
q-2 -6 -4.5 -8.5t-5.5 -1.5l-18 4q-4 2 -1 15q12 61 61.5 111.5t126.5 50.5q74 0 111 -42t37 -89q0 -103 -112 -172q56 -14 101 -63.5t45 -111.5q0 -95 -73.5 -157.5t-176.5 -62.5z" />
    <glyph glyph-name="four" unicode="4" 
d="M375 0h-50q-12 0 -12 11v176h-279q-15 0 -15 12q0 6 10 20l325 448q12 16 22 16q13 0 13 -30v-400h81q12 0 12 -8v-48q0 -10 -16 -10h-77v-173q0 -8 -2.5 -11t-11.5 -3zM314 248v275q0 12 -6 14t-13 -8l-184 -254q-19 -27 7 -27h196z" />
    <glyph glyph-name="five" unicode="5" 
d="M159 591l-18 -161q18 1 57.5 -2.5t56.5 -8.5q73 -19 113.5 -68.5t40.5 -117.5q1 -106 -73.5 -177t-178.5 -71q-54 0 -92 17t-38 39q0 11 6 18.5t16 7.5q17 0 50 -20q32 -19 79 -19q60 0 108 45t48 109q0 115 -88 153q-61 27 -130 22q-11 -2 -18 2q-6 3 -5 11l36 282
q1 9 4 12.5t12 3.5h214q17 0 28 6.5t17 15t16 28.5q4 8 12 5q14 -7 14 -10v-2l-36 -100q-5 -12 -12.5 -16t-30.5 -4h-208z" />
    <glyph glyph-name="six" unicode="6" 
d="M252 -15q-98 0 -144 55q-64 69 -64 184q0 203 152 351q68 66 147 97q25 11 37 11t12 -10q0 -11 -9 -16q-75 -34 -147.5 -116.5t-89.5 -193.5q53 46 133 46q58 0 100.5 -31.5t59.5 -70t17 -74.5q0 -64 -16 -102.5t-46 -69.5q-56 -60 -142 -60zM258 17q10 0 20.5 2t28.5 12
t31 27t23 50t10 78q0 70 -32.5 117t-88.5 47q-75 0 -99 -49q-22 -41 -22 -109q0 -27 3.5 -50.5t15 -55t40 -50.5t70.5 -19z" />
    <glyph glyph-name="seven" unicode="7" 
d="M195 668h281q10 0 10 -9q0 -6 -7 -18q-5 -9 -26 -48.5t-52 -103t-49 -107.5q-102 -234 -135 -346q-15 -51 -50 -51q-18 0 -28.5 10t-10.5 27q0 20 35 93q5 10 110 212t138 267h-237q-9 0 -17 -1t-14 -2t-12.5 -4.5t-10 -4.5t-9 -7t-8 -7.5t-8 -9.5t-7 -10t-8 -12
t-8.5 -12q-7 -9 -19 -2q-7 4 -7.5 6t1.5 9l62 161q3 7 16 7q9 0 11.5 -3.5t1.5 -14.5q-2 -11 9 -15t48 -4z" />
    <glyph glyph-name="eight" unicode="8" 
d="M249 -15q-94 0 -138.5 43t-44.5 100q0 62 31 105t99 87q-137 77 -137 171q0 73 57.5 132.5t156.5 59.5q68 0 119 -39.5t51 -89.5q0 -70 -28.5 -113.5t-109.5 -99.5q67 -32 104 -74t37 -106t-56 -120t-141 -56zM255 19q56 0 87.5 30.5t31.5 91.5q0 29 -10.5 52.5t-34 43
t-43.5 32t-57 32.5q-48 -27 -74 -68t-26 -89q0 -60 38.5 -92.5t87.5 -32.5zM257 642q-52 0 -86 -37t-34 -90q0 -35 17.5 -61.5t41 -43.5t76.5 -48q41 26 71.5 68t33.5 89q2 54 -32.5 88.5t-87.5 34.5z" />
    <glyph glyph-name="nine" unicode="9" 
d="M246 683q52 0 86 -16t69 -54q30 -34 42 -80.5t12 -80.5q0 -232 -163 -376q-67 -59 -144 -84q-23 -7 -31 -7q-15 0 -15 14q0 10 9 14q79 32 153 114.5t89 196.5l-1 2q-53 -49 -122 -49q-95 0 -140 59t-45 141q0 30 23.5 80t50.5 74q60 52 127 52zM249 651q-49 0 -86.5 -45
t-37.5 -124q0 -70 36 -116t88 -46q73 0 101 57q15 31 15 99q0 175 -116 175z" />
    <glyph glyph-name="colon" unicode=":" horiz-adv-x="254" 
d="M130 -12q-22 0 -42 14t-20 45q0 19 14.5 37.5t47.5 18.5q23 0 39.5 -16.5t16.5 -43.5q0 -24 -16 -39.5t-40 -15.5zM130 314q-22 0 -42 14t-20 45q0 19 14.5 37.5t47.5 18.5q23 0 39.5 -16.5t16.5 -43.5q0 -24 -16 -39.5t-40 -15.5z" />
    <glyph glyph-name="semicolon" unicode=";" horiz-adv-x="254" 
d="M115 115q30 0 58.5 -26.5t28.5 -69.5q0 -36 -15 -71t-37 -59t-38 -37.5t-27 -20.5q-18 -9 -20 -9q-12 0 -12 9q0 7 9 15q71 65 71 126q0 9 -5.5 18.5t-11.5 11.5l-5 2q-5 2 -8 3t-9 4.5t-10 6.5t-9.5 8t-8.5 11t-5 14t-2 17q0 20 15 33.5t41 13.5zM115 314q-22 0 -42 14
t-20 45q0 18 15 37t47 19q23 0 39.5 -16.5t16.5 -43.5q0 -24 -16 -39.5t-40 -15.5z" />
    <glyph glyph-name="less" unicode="&#x3c;" 
d="M395 40l-311 185v32l311 183v-66l-221 -128v-5l221 -133v-68z" />
    <glyph glyph-name="equal" unicode="=" 
d="M56 347h388v-56h-388v56zM56 196h388v-56h-388v56z" />
    <glyph glyph-name="greater" unicode="&#x3e;" 
d="M105 440l311 -185v-32l-311 -183v66l221 128v5l-221 133v68z" />
    <glyph glyph-name="question" unicode="?" horiz-adv-x="370" 
d="M144 290v-107q0 -7 -7 -7h-19q-7 0 -7 7v189q0 12 11 9q17 -3 66 -3q20 0 42 6t42.5 25t20.5 48q0 48 -54 90q-36 30 -59.5 39t-56.5 9q-30 0 -50.5 14.5t-20.5 34.5q0 6 3 13.5t15 16.5t30 9q66 0 150.5 -87t84.5 -174q0 -18 -4 -34t-9.5 -27t-16 -20.5t-18.5 -15.5
t-22.5 -11t-23 -7.5t-25 -4.5t-23 -2.5t-23 -1t-18.5 -0.5q-8 0 -8 -8zM136 -12q-22 0 -38 15t-16 37q0 24 15 39.5t41 15.5q21 0 38 -16.5t17 -37.5t-16 -37t-41 -16z" />
    <glyph glyph-name="at" unicode="@" horiz-adv-x="786" 
d="M266 253q0 -32 24 -32q40 0 107 71.5t85 108.5q27 53 27 78q0 22 -11.5 37.5t-30.5 15.5q-39 0 -87.5 -52t-81 -118t-32.5 -109zM547 65l13 -25q-24 -22 -87 -38.5t-131 -16.5q-144 0 -227.5 77.5t-83.5 202.5q0 115 65 222t169.5 171.5t214.5 64.5q128 0 197 -71.5
t69 -195.5q0 -106 -79.5 -193t-204.5 -87q-14 0 -25.5 10t-11.5 23q0 31 35 119l-4 2q-39 -55 -98.5 -104.5t-110.5 -49.5q-21 0 -36 15t-15 43q0 64 46.5 142t114 131.5t123.5 53.5q44 0 61 -35l13 19q5 7 10 7h38q10 0 5 -10q-2 -4 -73 -169q-42 -94 -42 -138
q0 -20 29 -20q51 0 107.5 68.5t56.5 183.5q0 109 -56.5 164.5t-159.5 55.5q-98 0 -183.5 -61.5t-133 -155.5t-47.5 -191q0 -119 71 -187.5t181 -67.5q125 0 190 41z" />
    <glyph glyph-name="A" unicode="A" horiz-adv-x="743" 
d="M465 278h-246q-9 -23 -38 -103.5t-32 -94.5q-3 -21 -3 -22q0 -22 34 -22h47q10 0 10 -7v-23q0 -9 -8 -9q-1 0 -40 1.5t-74 1.5q-32 0 -56 -0.5t-36.5 -1.5t-16.5 -1q-7 0 -7 8v24q0 7 8 7h35q22 0 34.5 10.5t23.5 35.5q8 17 49 123t60 160q2 7 47 127t50 135q7 24 1 34
q-7 9 -7 13q0 6 9 9q20 4 47 21t36 29q9 9 13 9q6 0 11 -17q9 -30 57.5 -174t58.5 -177q17 -58 54 -164.5t48 -128.5q23 -45 68 -45h33q8 0 8 -7v-25q0 -7 -10 -7q-1 0 -36.5 1.5t-83.5 1.5q-49 0 -93 -1.5t-48 -1.5q-8 0 -8 9v23q0 7 9 7h25q21 0 28 8.5t2 29.5
q-15 66 -63 204zM232 314h221q-30 100 -95 295q-6 14 -8 14q-5 0 -11 -15q-9 -24 -56 -151t-51 -143z" />
    <glyph glyph-name="B" unicode="B" horiz-adv-x="660" 
d="M138 317v118q0 123 -3 177q-2 41 -14.5 50.5t-50.5 9.5h-31q-8 0 -8 7v25q0 7 8 7q1 0 45.5 -1.5t87.5 -1.5q16 0 62.5 1.5t64.5 1.5q130 0 177 -27q77 -42 77 -136q0 -68 -26.5 -98.5t-95.5 -66.5l3 -2q162 -53 162 -198q0 -40 -22 -84.5t-55 -65.5q-58 -36 -191 -36
q-38 0 -85 1.5t-65 1.5q-29 0 -75.5 -1.5t-52.5 -1.5q-14 0 -14 6v26q0 7 9 7h48q22 0 29.5 9t10.5 35q5 38 5 237zM226 362v-62v-138q0 -72 22.5 -102.5t82.5 -30.5q70 0 115.5 38t45.5 121q0 59 -27 99t-73 58q-44 17 -134 17h-32zM226 470v-74q19 -2 53 -2q89 0 126 26
q56 42 56 120q0 69 -49 105q-49 34 -137 34q-29 0 -33 -1q-14 -4 -14 -18q-2 -40 -2 -190z" />
    <glyph glyph-name="C" unicode="C" horiz-adv-x="746" 
d="M408 -15q-153 0 -253 92q-52 49 -79.5 126t-27.5 154q0 157 102 265q41 44 107 72.5t143 28.5q108 0 202 -55q17 -10 20 0l8 29q2 6 13 6q7 0 9 -3t2 -13q0 -13 10.5 -91.5t14.5 -102.5q2 -9 -4 -10l-15 -4q-7 -1 -10 8q-33 78 -78 124q-75 77 -174 77q-64 0 -114 -26.5
t-79 -71.5t-43 -97.5t-14 -109.5t22 -128.5t74 -128.5q47 -52 90 -68t102 -16q79 0 144 36.5t103 90.5q4 7 8 3l13 -10q5 -4 2 -9q-116 -168 -298 -168z" />
    <glyph glyph-name="D" unicode="D" horiz-adv-x="813" 
d="M143 384v75q0 143 -5 185q-2 17 -11.5 22.5t-31.5 5.5h-55q-8 0 -8 7v27q0 5 7 5q3 0 21.5 -0.5t52 -1.5t73.5 -1q13 0 75.5 1.5t73.5 1.5q108 0 186 -19t139 -71q111 -96 111 -255q0 -84 -24 -145.5t-75 -117.5q-34 -37 -76 -60.5t-89.5 -32.5t-75.5 -11t-70 -2
q-34 0 -99 1.5t-85 1.5q-38 0 -70 -0.5t-49.5 -1.5t-21.5 -1q-7 0 -7 7v26q0 6 8 6h67q29 0 32 24q7 49 7 324zM235 433v-71q0 -121 2 -245q0 -30 17 -56q24 -32 106 -32q74 0 135 29t100 79q73 90 73 225q0 58 -23 119.5t-59 101.5q-88 96 -251 96q-63 0 -80 -10
q-17 -11 -19 -47q-1 -42 -1 -189z" />
    <glyph glyph-name="E" unicode="E" horiz-adv-x="690" 
d="M238 676v-293q91 0 127 6q22 4 30.5 12.5t15.5 31.5q7 22 8 49q0 7 7 7l25 -1q8 0 6 -8q-3 -17 -3 -114q0 -41 6 -104q0 -6 -6 -8l-22 -3q-4 -1 -5.5 1.5t-2.5 7.5q-2 15 -11 47q-10 35 -43 39q-47 5 -132 5v-62q0 -31 1 -98t1 -73q1 -67 57 -78q35 -7 74 -7q57 0 88 3
q53 6 87 35q9 7 40 47.5t42 57.5q6 9 12 6l16 -9q6 -4 2 -14l-53 -147q-5 -15 -22 -15q-1 0 -10 0.5t-30 1t-47 0.5q-18 0 -120.5 0.5t-192.5 0.5q-21 0 -49 -0.5t-36 -0.5q-42 -2 -43 -2q-9 0 -9 7v27q0 5 10 5h40q34 0 42 7.5t8 36.5v237v98q0 188 -3 218q-3 24 -13 31.5
t-38 7.5h-36q-8 0 -8 7v27q0 5 7 5q6 0 45.5 -1.5t77.5 -1.5h44q50 0 148.5 0.5t148.5 0.5q9 0 24 1t16 1q6 0 8 -5q2 -8 26 -83t25 -78q2 -7 -3 -9l-15 -8q-5 -3 -8 3q-3 7 -44 55.5t-56 58.5q-38 26 -76 27z" />
    <glyph glyph-name="F" unicode="F" horiz-adv-x="598" 
d="M140 376v70q0 26 -1 110.5t-1 86.5q0 29 -41 29h-58q-7 0 -7 6v27q0 6 7 6q1 0 14 -0.5t27 -0.5q46 -2 105 -2q371 0 384 4q15 -85 40 -178q1 -5 -2 -7l-18 -7q-4 -1 -8 7q-14 24 -64 92q-27 37 -70 47q-38 9 -214 9q0 -1 -0.5 -120t-0.5 -155v-50q101 0 131 5
q18 3 28 12.5t16 31.5q4 14 10 49q2 7 7 7l20 -1q6 0 6 -7q-2 -17 -2 -114q0 -54 5 -104q0 -7 -7 -8l-19 -4q-5 -1 -7 5v2q-2 16 -11 49q-10 35 -41 39q-47 6 -136 6v-37q0 -17 0.5 -112t0.5 -101q0 -20 7 -26t32 -6h49q9 0 9 -6v-25q0 -8 -8 -8q-2 0 -18.5 0.5t-48 1.5
t-69.5 1q-34 0 -63.5 -0.5t-46.5 -1.5t-21 -1q-6 0 -6 7v27q0 5 7 5h45q20 0 27 4.5t8 17.5q4 40 4 318z" />
    <glyph glyph-name="G" unicode="G" horiz-adv-x="818" 
d="M613 147v74q0 27 -9 36.5t-32 9.5h-42q-7 0 -7 6v25q0 8 6 8l43 -2q43 -1 84 -1q32 0 58 0.5t41 1.5t19 1q8 0 8 -7v-24q0 -8 -7 -8h-39q-31 0 -31 -38v-132q0 -8 2 -18.5t2 -13.5q0 -10 -16 -16q-126 -64 -273 -64q-75 0 -153.5 28.5t-126.5 85.5q-92 104 -92 275
q0 70 29.5 138t83.5 116q111 95 281 95q59 0 113.5 -18t83.5 -40q14 -11 23 1l15 18q9 9 14 9q9 0 9 -12l3 -191q0 -9 -5 -9l-18 -2q-6 0 -8 8q-19 68 -60 118q-27 33 -74 57.5t-108 24.5q-115 0 -191 -81q-88 -93 -88 -230q0 -190 95 -280q74 -71 176 -71q104 0 164 34
q17 10 22 28.5t5 59.5z" />
    <glyph glyph-name="H" unicode="H" horiz-adv-x="853" 
d="M134 351v43q0 37 -1 124t-1 89q0 39 -8.5 52t-35.5 13h-47q-6 0 -6 8v24q0 7 8 7q1 0 44.5 -1.5t95.5 -1.5q46 0 88.5 1.5t44.5 1.5q10 0 10 -5v-26q0 -8 -8 -8h-51q-24 0 -31.5 -12.5t-7.5 -44.5q0 -2 -1 -85.5t-1 -116.5v-17q0 -8 12 -8h370q12 0 16 3t4 12v10
q0 34 -2 121l-1 87q0 27 -6.5 39t-26.5 12h-52q-7 0 -7 7v26q0 6 6 6q5 0 48.5 -1.5t83.5 -1.5t82.5 1.5t45.5 1.5q8 0 8 -8v-24q0 -7 -8 -7h-45q-20 0 -26 -11.5t-6 -41.5q0 -4 -1 -101.5t-1 -118.5v-34q0 -108 3 -279q0 -27 9 -38.5t31 -11.5h44q9 0 9 -7v-24q0 -8 -8 -8
q-3 0 -43 1.5t-83 1.5q-51 0 -96 -1.5t-53 -1.5q-6 0 -6 7v25q0 7 8 7h63q17 0 22 11.5t5 34.5q3 141 3 244v14q0 8 -4.5 10t-17.5 2h-366q-14 0 -14 -10v-21q0 -111 2 -251q1 -34 32 -34h49q8 0 8 -7v-25q0 -7 -8 -7q-3 0 -43 1.5t-83 1.5q-51 0 -93 -1.5t-46 -1.5
q-7 0 -7 7v26q0 6 7 6h59q28 0 28 48q3 141 3 267z" />
    <glyph glyph-name="I" unicode="I" horiz-adv-x="371" 
d="M140 349v70q0 159 -4 219q-2 19 -12 26.5t-38 7.5h-58q-8 0 -8 6v27q0 6 7 6q3 0 23 -0.5t56 -1.5t77 -1q39 0 69.5 1t46 1.5t19.5 0.5q7 0 7 -7v-25q0 -7 -8 -7h-47q-35 0 -35 -28q0 -5 -1.5 -121t-1.5 -122v-77q0 -5 1.5 -125.5t1.5 -126.5q0 -22 10.5 -29t36.5 -7h41
q8 0 8 -7v-26q0 -6 -9 -6q-3 0 -20 0.5t-49 1.5t-70 1q-42 0 -76.5 -0.5t-52.5 -1.5t-20 -1q-8 0 -8 6v27q0 6 8 6h56q41 0 45 29q5 38 5 284z" />
    <glyph glyph-name="J" unicode="J" horiz-adv-x="332" 
d="M126 332v70q0 193 -3 236q-1 18 -11 26t-38 8h-44q-7 0 -7 5v27q0 7 7 7q2 0 18.5 -0.5l49.5 -1.5t75 -1q37 0 67.5 1t47 1.5t20.5 0.5q8 0 8 -6v-25q0 -8 -8 -8h-50q-20 0 -28 -6.5t-9 -22.5q-3 -48 -3 -265v-46q0 -56 -1 -112.5t-2 -92.5t-1 -43q0 -104 -37 -167
q-34 -58 -83 -97t-103 -39q-20 0 -44 14.5t-24 43.5q0 22 15.5 35t40.5 13q26 0 48 -15t30 -38q38 12 55 63q9 25 13 91t3.5 123.5t-1.5 134.5t-1 86z" />
    <glyph glyph-name="K" unicode="K" horiz-adv-x="712" 
d="M134 369v58q0 10 -1.5 114t-1.5 107q0 24 -30 24h-35q-8 0 -8 7v26q0 6 8 6q3 0 17 -0.5t40.5 -1.5t59.5 -1q29 0 54.5 1t40 1.5t18.5 0.5q8 0 8 -6v-26q0 -7 -7 -7h-42q-15 0 -21.5 -6.5t-6.5 -24.5q0 -3 -1.5 -97t-1.5 -123v-50h18q21 0 41 14q14 10 108.5 128
t107.5 137q7 10 4 17t-13 7h-14q-5 0 -5 7v23q0 7 6 7q2 0 37 -1.5t62 -1.5q17 0 44.5 1.5t31.5 1.5q7 0 7 -5v-27q0 -7 -8 -7h-21q-29 0 -55 -19q-25 -19 -110 -115t-123 -145q5 -6 134 -166.5t134 -165.5q20 -25 70 -25h35q7 0 7 -7v-25q0 -7 -8 -7q-2 0 -18 0.5t-44 1.5
t-61 1q-37 0 -67.5 -0.5t-47.5 -1.5t-21 -1q-6 0 -6 6v26q0 6 6 6h15q13 0 17 9.5t-1 17.5q-7 15 -98 135.5t-101 128.5q-18 15 -44 15h-19v-72q0 -169 3 -211q2 -22 23 -22h44q8 0 8 -6v-26q0 -7 -6 -7q-3 0 -17 0.5t-39.5 1.5t-56.5 1q-35 0 -62.5 -0.5t-41.5 -1.5t-16 -1
q-7 0 -7 7v26q0 6 7 6h41q23 0 27 18q3 27 3 315z" />
    <glyph glyph-name="L" unicode="L" horiz-adv-x="662" 
d="M140 392v56q0 134 -3 188q-2 21 -9 28.5t-28 7.5h-47q-7 0 -7 10v22q0 7 7 7q3 0 18.5 -0.5t45 -1.5t66.5 -1q43 0 77.5 1t52 1.5t18.5 0.5q9 0 9 -8v-23q0 -8 -10 -8h-60q-22 0 -28.5 -8t-6.5 -31q0 -4 -0.5 -48t-1.5 -99.5t-1 -86.5v-86q0 -233 3 -274
q20 -2 122.5 -2.5t128.5 2.5q27 4 57.5 39.5t48.5 69.5t27 59q3 6 8 4l16 -6q3 -2 2 -9q-10 -23 -49 -199q-26 2 -180 2q-89 1 -241 1q-22 0 -51.5 -0.5t-37.5 -0.5t-17 -0.5t-14 -1t-8 -0.5q-8 0 -8 7v25q0 7 7 7h48q43 0 43 27q0 4 1.5 148.5t1.5 180.5z" />
    <glyph glyph-name="M" unicode="M" horiz-adv-x="981" 
d="M265 694l222 -534q8 9 64 136.5t58 130.5q12 25 64.5 140.5t54.5 128.5q2 12 23 12q59 0 100.5 1t59 1.5t18.5 0.5q6 0 6 -7v-23q0 -9 -8 -9h-44q-21 0 -27 -10t-6 -31q0 -10 -1.5 -105.5t-1.5 -133.5v-70q0 -29 1.5 -127.5t1.5 -104.5q0 -29 7.5 -41.5t26.5 -12.5h59
q7 0 7 -7v-23q0 -9 -9 -9q-2 0 -15 0.5t-44.5 1.5t-80.5 1q-41 0 -73.5 -0.5t-50 -1.5t-20.5 -1q-8 0 -8 9v23q0 7 8 7h68q14 0 20.5 7.5t7.5 28.5q2 24 2 260v64q0 244 -3 253h-2q-4 -6 -42 -87.5t-76 -165t-39 -85.5q-3 -5 -32 -71.5t-58.5 -135t-30.5 -69.5
q-11 -24 -20 -24q-8 0 -15 18q-2 4 -68 166.5t-68 168.5q-112 272 -124 282q-6 -21 -6 -279q0 -235 2 -258q4 -43 13 -58t33 -15h50q7 0 7 -7v-25q0 -7 -9 -7q-3 0 -16 0.5t-40.5 1.5t-64.5 1q-38 0 -67.5 -0.5t-44.5 -1.5t-17 -1q-6 0 -7.5 1.5t-1.5 7.5v24q0 6 6 6h53
q26 0 37 15t16 45q15 89 15 345q0 165 -1 194q-1 12 -1.5 16t-4 10.5t-12 8.5t-23.5 2h-61q-7 0 -7 7v26q0 6 7 6q2 0 15.5 -0.5t41.5 -1.5t65 -1q28 0 55.5 1.5t29.5 1.5q19 0 26 -17z" />
    <glyph glyph-name="N" unicode="N" horiz-adv-x="795" 
d="M135 408v170q0 43 -19 67.5t-47 25.5l-41 1q-6 0 -6 7v26q0 6 6 6q1 0 10 -0.5t18 -0.5q30 -2 71 -2q20 0 42 1t25 1q17 0 29 -13q2 -3 52 -67.5t102 -131.5t56 -73q3 -4 50 -61.5t95 -117.5t59 -74h4v119q0 113 -3 188q-3 129 -12 154q-12 39 -55 39h-32q-6 0 -6 7v26
q0 6 6 6q1 0 36.5 -1.5t73.5 -1.5q36 0 66 1.5t31 1.5q8 0 8 -7v-25q0 -7 -6 -7h-27q-20 0 -28.5 -13t-10.5 -42q-4 -67 -4 -231v-374q0 -24 -5 -24q-12 0 -24 16q-1 1 -122 154q-148 184 -149 185q-7 6 -99.5 121.5t-101.5 127.5h-6v-222q0 -176 10 -276q3 -32 10.5 -45
t26.5 -13h30q8 0 8 -9v-22q0 -8 -8 -8q-3 0 -42 1.5t-55 1.5q-12 0 -54 -1.5t-46 -1.5q-5 0 -5 7v26q0 6 6 6h34q22 0 31.5 12.5t13.5 48.5q4 38 4 311z" />
    <glyph glyph-name="O" unicode="O" horiz-adv-x="821" 
d="M410 -15q-110 0 -215 65q-59 36 -103 115.5t-44 181.5q0 137 93 249q104 127 271 127q129 0 224 -79q137 -118 137 -299q0 -118 -75 -219q-106 -141 -288 -141zM418 23q62 0 110.5 24.5t75.5 60t44 81t22 81t5 67.5q0 78 -26 146t-66 111t-86 67t-89 24q-1 0 -9.5 0.5
t-15.5 0t-19.5 -1.5t-25 -5t-27 -10t-30.5 -17t-31 -26q-48 -46 -74 -114t-26 -133q0 -75 20 -137.5t50 -102t67 -66.5t70.5 -38.5t60.5 -11.5z" />
    <glyph glyph-name="P" unicode="P" horiz-adv-x="607" 
d="M225 317v-52q0 -169 2 -197q3 -32 33 -32h64q8 0 8 -7v-24q0 -8 -9 -8q-4 0 -19.5 0.5t-47 1.5t-72.5 1q-39 0 -70.5 -0.5t-48.5 -1.5t-19 -1q-8 0 -8 7v25q0 7 6 7h43q26 0 34 6t10 26q4 40 4 282v115q0 165 -2 185q-1 14 -9 18t-30 4h-57q-6 0 -6 8v24q0 7 6 7
q2 0 18.5 -0.5t49 -1.5t74.5 -1q7 0 49.5 1.5t60.5 1.5q86 0 133.5 -10.5t89.5 -39.5q35 -24 55.5 -63t20.5 -82q0 -95 -67.5 -149.5t-186.5 -54.5q-69 0 -109 5zM225 672v-319q30 -9 92 -9q43 0 81.5 20t59.5 48q26 34 26 101q0 46 -19.5 80.5t-49.5 52t-58.5 25.5t-53.5 8
q-58 0 -78 -7z" />
    <glyph glyph-name="Q" unicode="Q" horiz-adv-x="815" 
d="M402 723q164 3 269 -107q99 -104 96 -252q1 -77 -27.5 -147t-75.5 -116q-75 -75 -174 -108v-4q114 -42 256 -73q60 -14 109.5 -23.5t79 -14t55 -7t35 -2.5t21.5 1h11q33 0 62 22q6 6 9 1l7 -10q3 -5 -3 -10q-81 -81 -134 -81q-84 0 -267 47q-168 42 -384 143
q-2 1 -15.5 4.5t-25.5 7.5t-32.5 13.5t-39.5 21t-43 31t-46 42.5q-97 99 -97 264q0 72 30.5 141.5t84.5 119.5q53 48 122.5 73t116.5 23zM411 17q57 0 103.5 25t74 61.5t46 81.5t25.5 82t7 66q0 89 -23 160t-63 109q-47 45 -89.5 65t-95.5 20q-95 0 -160 -65
q-87 -87 -87 -248q0 -92 32 -164t75 -114q83 -79 155 -79z" />
    <glyph glyph-name="R" unicode="R" horiz-adv-x="697" 
d="M139 358v97q0 138 -1 167q-2 50 -38 50h-40q-6 0 -6 7v25q0 7 6 7q2 0 16 -0.5t42.5 -1.5t65.5 -1q33 0 98 1.5t69 1.5q123 0 187 -61q52 -50 52 -114q0 -91 -43 -134.5t-142 -65.5v-2q25 -9 46 -38q8 -9 46 -62.5t45 -65.5q5 -11 40 -58.5t48 -56.5q24 -17 72 -17
q8 0 8 -8v-22q0 -9 -8 -9q-2 0 -13 0.5t-28.5 1.5t-36.5 1q-36 0 -81 -3q-7 6 -42 57q-5 7 -35.5 60t-31.5 55q-4 7 -30 45.5t-34 47.5q-16 20 -27 30t-32.5 19t-48.5 9q-19 0 -33 -3v-56q0 -156 2 -186q4 -39 25 -39h63q8 0 8 -8v-22q0 -6 -2 -7.5t-9 -1.5q-2 0 -15.5 0.5
t-43.5 1.5t-72 1q-40 0 -68.5 -0.5t-41.5 -1.5t-15 -1q-8 0 -8 8v23q0 8 5 8h41q39 0 39 34q2 99 2 288zM229 639v-283q20 -4 45 -4q64 0 110 19.5t67.5 49t30.5 54t9 44.5q0 34 -14 65t-36 49q-58 46 -166 46q-22 0 -34 -8q-12 -9 -12 -32z" />
    <glyph glyph-name="S" unicode="S" horiz-adv-x="548" 
d="M292 -15q-92 0 -159 52q-16 12 -23 12q-6 0 -16 -17q-7 -12 -18 -12q-12 0 -9 16q2 15 9.5 96t7.5 85q1 6 7 6l15 -1q6 0 6 -8q2 -63 36 -116q22 -35 60 -54.5t80 -19.5q52 0 94 32.5t42 94.5q0 70 -40.5 106.5t-113.5 62.5q-104 37 -146 81q-50 50 -50 146q0 70 62 128
q51 48 140 48q65 0 118 -25q12 -6 19 1l13 12q8 6 13 6q8 0 8 -17q0 -20 7 -86.5t7 -72.5q0 -7 -5 -8l-12 -3q-4 -2 -6 3q-18 65 -62 111q-40 43 -109 43q-61 0 -91 -36t-30 -81q0 -55 31 -87q36 -36 114 -60q46 -15 67 -22.5t49 -23.5t45 -37q44 -52 44 -136
q0 -93 -54.5 -156t-149.5 -63z" />
    <glyph glyph-name="T" unicode="T" horiz-adv-x="702" 
d="M297 415v257h-25q-119 0 -158 -12q-44 -14 -89 -116q-3 -6 -10 -5l-18 5q-6 2 -4 8q43 156 47 176q2 16 10 16q7 0 12 -4l13 -9q22 -16 57 -17q159 -6 189 -6h48q54 0 201 6q31 1 52 14l19 12q7 4 12 4q7 0 9 -16q0 -2 6 -39.5t12.5 -79.5t10.5 -61q1 -7 -6 -8l-16 -4
q-5 -1 -8 7q-41 97 -71 112q-34 17 -173 17h-28v-285q0 -294 1 -311q3 -40 34 -40h63q10 0 10 -10v-21q0 -8 -10 -8q-2 0 -17 0.5t-47.5 1.5t-75.5 1q-42 0 -76.5 -0.5t-53 -1.5t-22.5 -1q-9 0 -9 10v19q0 10 7 10h68q14 0 23 7t10 17q3 29 3 355z" />
    <glyph glyph-name="U" unicode="U" horiz-adv-x="746" 
d="M370 -15q-86 0 -135 21q-94 38 -119 134q-16 60 -16 243v238q0 28 -8 39.5t-30 11.5h-47q-7 0 -7 9v22q0 8 9 8q2 0 20.5 -0.5t50.5 -1.5t66 -1t65.5 1t50 1.5t21.5 0.5q9 0 9 -6v-26q0 -7 -8 -7h-50q-21 0 -33.5 -12t-14.5 -29q-2 -18 -2 -130v-66q0 -52 5 -212
q2 -82 32 -127q49 -72 159 -72q97 0 150 55q52 56 52 176v214q0 117 -5 159q-2 20 -14 32t-31 12h-44q-7 0 -7 8v24q0 7 7 7q3 0 20 -0.5t45.5 -1.5t57.5 -1q30 0 55.5 1t39 1.5t15.5 0.5q10 0 10 -7v-22q0 -10 -6 -10h-41q-6 0 -11 -1t-9 -3t-7 -4t-5 -5t-3.5 -5t-3 -6
t-2 -6t-1.5 -5.5t-1 -4.5q-2 -10 -2 -166q0 -163 -5 -228q-9 -129 -84 -193q-65 -60 -188 -60z" />
    <glyph glyph-name="V" unicode="V" horiz-adv-x="706" 
d="M28 679v25q0 7 7 7q2 0 16.5 -0.5t42.5 -1.5t62 -1q37 0 69 1t49.5 1.5t19.5 0.5q10 0 10 -7v-23q0 -9 -8 -9h-48q-42 0 -42 -26q0 -15 4 -34q7 -44 61 -211q47 -150 93 -271h2q14 31 56 141t51 135q4 12 16.5 47.5t27 79.5t19.5 59q14 44 14 57q0 23 -32 23h-26
q-5 0 -5 9v23q0 7 6 7q2 0 19 -0.5t44 -1.5t55 -1q32 0 56.5 1t36.5 1.5t14 0.5q7 0 7 -7v-25q0 -7 -7 -7h-27q-39 0 -71 -39q-20 -25 -123 -279q-9 -23 -75.5 -188t-70.5 -173q-7 -13 -14 -13q-8 0 -17 23q-67 192 -126 356l-10 34q-80 237 -84 246q-14 33 -41 33h-26
q-5 0 -5 7z" />
    <glyph glyph-name="W" unicode="W" horiz-adv-x="1045" 
d="M175 636l161 -506h2q1 5 40 119t77 231.5t40 135.5q2 15 -15 37q-14 19 -40 19h-25q-6 0 -6 8v24q0 7 7 7q2 0 16.5 -0.5t43 -1.5t62.5 -1q37 0 67.5 1t46.5 1.5t18 0.5q7 0 7 -7v-25q0 -7 -7 -7h-40q-18 0 -25.5 -12.5t-2.5 -27.5l156 -502h2q156 454 156 511
q0 31 -35 31h-27q-7 0 -7 9v23q0 7 8 7q3 0 17 -0.5t38.5 -1.5t51.5 -1q25 0 46 1t33 1.5t14 0.5q7 0 7 -7v-25q0 -7 -7 -7h-24q-25 0 -40 -27q-3 -6 -58 -155t-113 -306.5t-66 -177.5q-12 -26 -21 -26q-14 0 -22 22l-185 549h-2q-10 -29 -101.5 -287t-95.5 -265
q-9 -19 -20 -19q-13 0 -18 16l-223 640q-13 36 -43 36h-34q-6 0 -6 8v24q0 7 8 7q2 0 15 -0.5t37.5 -1.5t54.5 -1q32 0 60 1t44.5 1.5t18.5 0.5q8 0 8 -6v-25q0 -8 -8 -8h-17q-39 0 -29 -36z" />
    <glyph glyph-name="X" unicode="X" horiz-adv-x="697" 
d="M229 30v-24q0 -9 -8 -9q-2 0 -18 0.5t-46 1.5t-66 1q-26 0 -51 -0.5t-40 -1.5t-17 -1q-6 0 -6 9v23q0 7 6 7h39q23 0 57 29q36 32 127.5 157t99.5 134q-189 281 -209 301q-15 15 -45 15h-44q-5 0 -5 8v23q0 8 5 8q2 0 20 -0.5t51 -1.5t71 -1q44 0 79.5 1t53 1.5t18.5 0.5
q8 0 8 -7v-23q0 -9 -9 -9h-35q-31 0 -36.5 -15.5t7.5 -31.5q107 -178 125 -203q23 28 83.5 111.5t67.5 97.5q9 15 4 28t-24 13h-21q-6 0 -6 9v23q0 7 7 7q3 0 19 -0.5t40.5 -1.5t49.5 -1q24 0 47 1t37 1.5t17 0.5q8 0 8 -7v-23q0 -9 -6 -9h-42q-22 0 -42 -13
q-13 -9 -96.5 -114t-119.5 -154q4 -5 57 -87.5t104 -159.5t55 -81q30 -27 66 -27h33q8 0 8 -7v-24q0 -8 -8 -8q-1 0 -16 0.5t-44.5 1.5t-66.5 1q-35 0 -68.5 -0.5t-52.5 -1.5t-20 -1q-8 0 -8 7v25q0 7 6 7h39q15 0 21.5 5t2.5 14q-5 11 -77 129t-88 140q-154 -217 -164 -243
q-18 -45 19 -45h39q8 0 8 -6z" />
    <glyph glyph-name="Y" unicode="Y" horiz-adv-x="665" 
d="M369 317v-131q0 -71 4 -115q2 -22 12 -28.5t32 -6.5h39q7 0 7 -7v-23q0 -9 -7 -9q-3 0 -19.5 0.5t-47.5 1.5t-68 1q-40 0 -70 -0.5t-45 -1.5t-17 -1q-6 0 -6 8v24q0 7 7 7h49q33 0 35 25q3 42 3 186v58q-13 26 -101 173t-107 170q-21 24 -52 24h-25q-7 0 -7 7v26q0 6 7 6
q2 0 19 -0.5t44 -1.5t54 -1q45 0 80 1t51 1.5t18 0.5q7 0 7 -5v-25q0 -9 -7 -9h-33q-22 0 -27.5 -7t-2.5 -26q1 -7 32.5 -65.5t72.5 -132t51 -92.5q10 15 59.5 90t84.5 130.5t37 63.5q7 13 1 26t-34 13h-27q-7 0 -7 9v24q0 6 7 6q3 0 18.5 -0.5t43 -1.5t56.5 -1q26 0 46.5 1
t31 1.5t12.5 0.5q8 0 8 -6v-24q0 -9 -8 -9h-25q-26 0 -49 -22q-20 -19 -237 -333z" />
    <glyph glyph-name="Z" unicode="Z" horiz-adv-x="702" 
d="M273 0h-211q-19 0 -19 8q0 13 6 19q34 40 249.5 337.5t223.5 311.5h-271q-20 0 -40 -16q-15 -13 -61 -69t-61 -80q-3 -5 -9 -1l-13 6q-4 3 -2 9l63 180q4 11 12 11q4 0 20 -2q47 -6 271 -6q16 0 34 0.5t40 1.5t34 1q54 3 106 3q12 0 13.5 -7t-6.5 -17
q-15 -17 -239.5 -324.5t-238.5 -329.5h352q24 15 72 68.5t68 79.5q4 4 9 2l14 -8q5 -3 2 -9q-10 -19 -37.5 -86t-33.5 -87q-3 -11 -13 -11q-2 0 -5 0.5l-9 1.5t-11 2q-86 11 -309 11z" />
    <glyph glyph-name="bracketleft" unicode="[" horiz-adv-x="354" 
d="M101 747h205q6 0 6 -6v-24q0 -8 -8 -8h-135q-10 0 -10 -11v-819q0 -14 7 -14h148q8 0 8 -9v-21q0 -8 -9 -8h-211q-11 0 -11 11v900q0 9 10 9z" />
    <glyph glyph-name="backslash" unicode="\" horiz-adv-x="350" 
d="M346 0l-37 -15q-3 -1 -6 1.5t-6 10.5l-295 702q-3 8 2 10l38 16q6 3 10 -5l296 -708q4 -10 -2 -12z" />
    <glyph glyph-name="bracketright" unicode="]" horiz-adv-x="354" 
d="M252 -173h-211q-9 0 -9 8v21q0 9 8 9h149q6 0 6 12v821q0 11 -9 11h-136q-8 0 -8 8v24q0 6 6 6h205q10 0 10 -9v-900q0 -11 -11 -11z" />
    <glyph glyph-name="asciicircum" unicode="^" 
d="M23 260l211 423h32l212 -423h-65l-164 328h-5l-159 -328h-62z" />
    <glyph glyph-name="underscore" unicode="_" 
d="M0 -125v50h500v-50h-500z" />
    <glyph glyph-name="grave" unicode="`" horiz-adv-x="334" 
d="M200 497l-12 -11q-3 -3 -6 0l-132 94q-26 20 -18 43t32 23q21 0 41 -25l96 -119q2 -4 -1 -5z" />
    <glyph glyph-name="a" unicode="a" horiz-adv-x="427" 
d="M336 178v-59q0 -75 30 -75q24 0 35 15q6 7 10 4l10 -8q6 -6 -1 -18q-26 -49 -78 -49q-27 0 -45.5 18t-25.5 49h-2q-33 -39 -99 -61q-19 -6 -59 -6q-22 0 -41 20t-19 63q0 77 100 121q95 42 113 58v64q-5 46 -14 56q-19 22 -60 22q-42 0 -65 -21q-6 -6 -7.5 -12.5
t0.5 -17.5t2 -16q0 -57 -53 -57q-24 0 -24 32q0 24 19 50t50 44q59 35 122 35q51 0 80 -27q22 -22 22 -71v-153zM263 97v123q-7 -5 -47.5 -24.5t-63.5 -44t-23 -61.5q0 -27 14.5 -41t37.5 -14t52.5 21.5t29.5 40.5z" />
    <glyph glyph-name="b" unicode="b" horiz-adv-x="504" 
d="M72 170v369q0 49 -9.5 66.5t-37.5 26.5l-10 3q-13 4 -13 8v8q0 4 8 8q67 30 106 55q13 9 21 9q9 0 8 -17q-1 -8 -1 -211v-116q24 23 62 36.5t76 13.5q72 0 127.5 -56.5t55.5 -157.5q0 -89 -62 -158t-146 -69q-75 0 -118 26l-40 -22q-6 -4 -13 -3l-12 3q-5 1 -4 8
q2 14 2 170zM144 345v-130q0 -105 15 -145q8 -19 36 -34.5t59 -15.5q53 0 93.5 41t40.5 131q0 78 -39.5 133.5t-109.5 55.5q-61 0 -95 -36z" />
    <glyph glyph-name="c" unicode="c" horiz-adv-x="411" 
d="M228 397q-47 0 -82.5 -41t-35.5 -114q0 -82 51 -152q39 -51 109 -51q37 0 60.5 9.5t49.5 33.5q4 4 8 0l10 -10q6 -6 0 -13q-24 -28 -69 -49.5t-92 -21.5q-99 0 -155 70q-45 60 -45 136q0 93 59.5 164t154.5 71q36 0 64.5 -9.5t43 -23.5t21.5 -26.5t7 -21.5
q-2 -35 -37 -35q-33 0 -55 40q-15 28 -30 36t-37 8z" />
    <glyph glyph-name="d" unicode="d" horiz-adv-x="521" 
d="M363 414v195q0 30 -11 41t-52 18q-7 1 -7 7v17q0 6 8 7q21 4 61.5 11.5t48.5 9.5q3 0 11 1.5t12 1.5q7 0 5 -18q-4 -67 -4 -322v-221q0 -78 10 -91q13 -15 44 -17q18 -1 20 -7l2 -8q1 -8 -7 -11l-113 -38q-10 -3 -13 8l-13 44q-24 -24 -66 -39t-81 -15q-24 0 -36 1
t-36 12t-46 33q-37 36 -50 72.5t-13 89.5q0 100 70 170q59 63 149 63q57 0 107 -15zM363 120v172q0 33 -9 49q-28 54 -105 54q-56 0 -91 -36q-46 -50 -46 -133q0 -80 44.5 -137.5t91.5 -57.5q40 0 70.5 17t38.5 38q6 18 6 34z" />
    <glyph glyph-name="e" unicode="e" horiz-adv-x="426" 
d="M362 266h-247q-3 -14 -3 -48q0 -73 41 -122.5t101 -49.5q43 0 75 20t46 48q3 7 9 5l13 -7q6 -2 0 -15q-18 -40 -59 -74.5t-100 -34.5q-108 0 -157 71q-26 38 -35 71.5t-9 86.5q0 96 63 159q52 53 143 53q40 0 71 -17t46 -42.5t22.5 -48t7.5 -39.5q0 -16 -28 -16zM119 296
h155q27 0 27 14q0 16 -5 34t-23.5 36.5t-48.5 18.5q-35 0 -63 -25t-42 -78z" />
    <glyph glyph-name="f" unicode="f" horiz-adv-x="310" 
d="M107 256v114h-69q-7 0 -5 11l4 30q1 7 12 7h58v18q0 132 67 208q72 79 164 79q38 0 64.5 -14.5t26.5 -41.5q0 -17 -14.5 -30t-27.5 -13q-16 0 -28 6q-10 6 -24 23q-19 23 -46 23q-47 0 -75 -35q-17 -22 -25.5 -62.5t-9 -64t-0.5 -77.5v-19h121q10 0 7 -10l-5 -33
q-1 -5 -13 -5h-110v-90q0 -210 1 -221q2 -14 6.5 -20t19.5 -6h57q11 0 11 -8v-16q0 -12 -7 -12q-1 0 -15 0.5t-42.5 1.5t-62.5 1q-24 0 -50.5 -0.5t-44 -1.5t-19.5 -1q-8 0 -8 7v22q0 7 10 7h48q13 0 18 8t6 27v188z" />
    <glyph glyph-name="g" unicode="g" horiz-adv-x="485" 
d="M218 -272q-96 0 -153 32q-51 31 -51 81q0 38 31.5 69.5t73.5 50.5v4q-30 7 -48.5 27t-18.5 43q0 32 28.5 57.5t61.5 37.5v2q-37 16 -65 54t-28 98q0 55 46 100t125 45q78 0 126 -58q55 39 94 39q23 0 36 -13t11 -29q0 -15 -11 -26t-28 -11q-18 0 -35 15q-14 9 -21 9
q-19 0 -32 -6q15 -37 15 -76q0 -64 -37 -108q-19 -21 -54.5 -35.5t-61.5 -14.5q-32 0 -51 5q-20 -8 -36.5 -22.5t-16.5 -33.5q0 -10 3.5 -17t12.5 -11t17 -6t24.5 -2t27 0.5t32.5 1.5q118 6 172 -36q46 -35 49 -96q0 -73 -67 -123q-64 -47 -171 -47zM212 143q46 0 68 44.5
t22 101.5q0 60 -27 90q-22 22 -48 22q-43 0 -71 -28q-36 -38 -36 -118q0 -53 32 -87q26 -25 60 -25zM253 -240q43 0 94 26.5t48 76.5q0 47 -36.5 74.5t-108.5 22.5l-96 -7q-28 -7 -54 -33t-26 -63q0 -18 11.5 -38t27.5 -31q24 -17 54 -22.5t86 -5.5z" />
    <glyph glyph-name="h" unicode="h" horiz-adv-x="539" 
d="M98 243v302q0 44 -9.5 59t-38.5 25l-17 6q-7 2 -7 6v9q0 3 12 10l104 55q16 8 23 8q11 0 8 -25q-3 -26 -3 -270v-64h5q25 30 63.5 47.5t73.5 17.5q58 0 99 -40q21 -20 31 -47.5t11 -44.5t1 -55v-57q0 -33 1 -82.5t1 -54.5q0 -15 37 -15h17q11 0 11 -9v-15q0 -12 -8 -12
q-2 0 -14 0.5t-34.5 1.5t-47.5 1q-22 0 -43 -0.5t-34.5 -1.5t-16.5 -1q-9 0 -9 11v17q0 8 7 8h23q37 0 38 19v99v81q0 48 -6.5 76t-26.5 47q-29 28 -66 28q-56 0 -93 -42q-20 -24 -20 -49v-218q0 -25 4 -33t18 -8h30q11 0 11 -8v-17q0 -11 -8 -11q-2 0 -16.5 0.5t-36.5 1.5
t-42 1q-22 0 -44 -0.5t-36 -1.5t-17 -1q-7 0 -7 10v18q0 8 15 8h21q30 0 33 16q3 19 3 194z" />
    <glyph glyph-name="i" unicode="i" horiz-adv-x="267" 
d="M102 144v147q0 28 -10.5 41t-45.5 19q-9 1 -9 7v9q0 4 7 7q60 23 108 49q12 6 19 6t5 -12q-2 -17 -2 -163v-109q0 -75 1 -86q3 -26 16 -26h46q10 0 10 -9v-17q0 -10 -9 -10q-2 0 -17.5 0.5t-38 1.5t-40.5 1q-25 0 -49.5 -0.5t-40 -1.5t-18.5 -1q-8 0 -8 8v20q0 8 10 8h49
q15 0 16 20q1 30 1 91zM112 542q-19 0 -38 16.5t-19 39.5q0 21 17 38.5t46 17.5q26 0 40 -16.5t14 -36.5q0 -23 -15.5 -41t-44.5 -18z" />
    <glyph glyph-name="j" unicode="j" horiz-adv-x="246" 
d="M97 73v198q0 33 -9 45.5t-40 24.5l-10 4q-6 2 -6 7v9q0 3 8 8q52 16 108 53q9 7 19 7q9 0 6 -17q-4 -18 -4 -170v-125q0 -151 -14 -221q-16 -82 -63 -125t-108 -43q-24 0 -41 13t-17 34q0 13 10.5 27.5t25.5 14.5q29 0 57 -31q14 -15 23 -15q43 0 50 88q5 73 5 214z
M112 542q-19 0 -38 16.5t-19 39.5q0 21 17 38.5t46 17.5q26 0 40 -16.5t14 -36.5q0 -23 -15.5 -41t-44.5 -18z" />
    <glyph glyph-name="k" unicode="k" horiz-adv-x="496" 
d="M95 243v331q0 34 -9 48t-43 23q-14 4 -14 7v9q0 5 13 10l102 44q18 8 22 8q7 0 6 -17q-5 -48 -5 -315v-158q34 0 48 11q13 9 56 55t50 57q9 17 0 23q-8 6 -26 6q-8 0 -8 9v19q0 8 7 8q1 0 14 -0.5t34.5 -1.5t44.5 -1q22 0 40.5 1t28.5 1.5t12 0.5q6 0 6 -10v-18
q0 -8 -8 -8h-7q-34 0 -69 -23q-23 -13 -132 -119q188 -188 205 -196q28 -14 52 -14q8 0 8 -9v-18q0 -9 -9 -9q-2 0 -13.5 0.5t-30 1.5t-39.5 1q-26 0 -51 -0.5t-40.5 -1.5t-17.5 -1q-7 0 -7 10v16q0 8 10 8h7q6 0 9.5 4.5t1.5 11.5q-2 5 -60.5 67.5t-72.5 76.5
q-13 11 -43 11v-44q0 -69 1 -104q2 -21 20 -21h29q9 0 9 -8v-17q0 -11 -8 -11q-1 0 -13.5 0.5t-33 1.5t-42.5 1q-24 0 -46 -0.5t-35 -1.5t-15 -1q-5 0 -5 10v17q0 9 10 9h37q18 0 18 24q2 88 2 186z" />
    <glyph glyph-name="l" unicode="l" horiz-adv-x="256" 
d="M168 387v-89q0 -203 1 -234q2 -31 26 -31h45q11 0 11 -9v-17q0 -10 -6 -10q-1 0 -17 0.5t-42.5 1.5t-53.5 1q-28 0 -54 -0.5t-41.5 -1.5t-17.5 -1q-7 0 -7 10v17q0 9 13 9h48q21 0 22 25q1 31 1 261v63q0 149 -3 188q-1 25 -13 38.5t-37 21.5l-20 7q-6 2 -6 5v8q0 4 9 7
q93 43 117 58q12 8 21 8t8 -18q-4 -220 -4 -318z" />
    <glyph glyph-name="m" unicode="m" horiz-adv-x="806" 
d="M374 50v206q0 80 -30 108q-20 18 -64 18q-60 0 -96 -58q-14 -23 -14 -67v-198q0 -26 20 -26h36q6 0 8 -1.5t2 -7.5v-16q0 -11 -8 -11q-2 0 -14 0.5t-32.5 1.5t-44.5 1q-23 0 -44.5 -0.5t-34 -1.5t-14.5 -1q-8 0 -8 9v18q0 6 2 7.5t10 1.5h34q14 0 15 25q1 17 1 52v178
q0 36 -28 51l-21 11q-7 4 -7 8v8q0 5 6 8l88 45q12 6 19 6q9 0 9 -14l4 -58h3q23 32 64 54t83 22q79 0 113 -77h5q24 32 64.5 54.5t82.5 22.5q60 0 90 -30q17 -18 24 -26.5t15.5 -34.5t8.5 -62v-223q0 -20 21 -20h27q11 0 11 -9v-17q0 -10 -7 -10q-2 0 -13 0.5t-30 1.5
t-40 1q-22 0 -43.5 -0.5t-34.5 -1.5t-15 -1q-8 0 -8 10v17q0 9 13 9h25q19 0 20 19q2 23 2 81v148q0 57 -29 80q-27 21 -74 21q-23 0 -49 -15.5t-38 -36.5q-14 -27 -14 -101v-173q0 -23 20 -23h34q11 0 11 -9v-16q0 -11 -7 -11q-2 0 -12.5 0.5t-31 1.5t-45.5 1
q-24 0 -46 -0.5t-34.5 -1.5t-13.5 -1q-7 0 -7 10v16q0 6 1.5 8t8.5 2h29q22 0 22 17z" />
    <glyph glyph-name="n" unicode="n" horiz-adv-x="532" 
d="M448 312v-258q0 -21 22 -21h32q11 0 11 -9v-16q0 -11 -8 -11q-2 0 -14 0.5t-34 1.5t-47 1q-22 0 -43 -0.5t-33 -1.5t-14 -1q-8 0 -8 11v16q0 9 13 9h29q19 0 20 23q2 52 2 84v132q0 25 -1 37.5t-7.5 27.5t-20.5 25q-24 18 -73 18q-44 0 -81 -39q-23 -25 -23 -68v-207
q0 -21 4.5 -27t19.5 -6h25q10 0 10 -10v-17q0 -9 -7 -9q-2 0 -13 0.5t-31 1.5t-43 1t-43.5 -0.5t-32.5 -1.5t-13 -1q-7 0 -7 9v18q0 9 10 9h29q11 0 15.5 4t4.5 16v234q0 39 -41 59l-8 4q-8 3 -8 9v5q0 6 9 10l86 48q14 7 18 7q6 0 8 -12l7 -61h2q23 29 62 51t75 22
q52 0 85 -22q21 -14 38 -44.5t17 -50.5z" />
    <glyph glyph-name="o" unicode="o" horiz-adv-x="498" 
d="M242 -12q-94 0 -152 69q-33 40 -44 74t-11 89q0 41 22 84.5t64 76.5q62 48 134 48q39 0 77.5 -17t62.5 -41q68 -70 68 -163q0 -84 -65.5 -152t-155.5 -68zM254 18q55 0 90 58.5t35 141.5q0 77 -44 129t-88 52q-47 0 -77 -32q-29 -30 -41 -65t-12 -92q0 -45 7.5 -76
t30.5 -64q36 -52 99 -52z" />
    <glyph glyph-name="p" unicode="p" horiz-adv-x="514" 
d="M89 -40v323q0 19 -7.5 30.5t-28.5 23.5l-23 13q-7 3 -7 9v8q0 4 7 7l96 48q16 8 23 8t7 -20l4 -48h3q52 67 146 67q61 0 114 -49q29 -29 41.5 -64t12.5 -92q0 -99 -61.5 -167.5t-154.5 -68.5q-59 0 -100 17v-211q0 -20 5 -26.5t17 -6.5h44q9 0 9 -10v-17q0 -9 -9 -9
l-13 1q-13 0 -37.5 1t-52.5 1q-26 0 -49 -1t-36.5 -1.5t-15.5 -0.5q-9 0 -9 9v18q0 9 12 9h39q12 0 15.5 6t5.5 19q3 22 3 174zM161 319v-219q0 -39 21 -53q38 -27 100 -27q49 0 82.5 40.5t33.5 126.5q0 98 -37.5 147t-92.5 49q-32 0 -60.5 -17t-46.5 -47z" />
    <glyph glyph-name="q" unicode="q" horiz-adv-x="508" 
d="M433 192v-228q0 -106 5 -174q2 -29 21 -29h31q10 0 10 -6v-22q0 -8 -7 -8q-3 0 -16.5 0.5t-36 1.5t-44.5 1q-28 0 -52 -1t-37.5 -1.5t-15.5 -0.5q-8 0 -8 9v20q0 7 11 7h41q21 0 24 21q2 15 2 229v25h-2q-65 -48 -143 -48q-30 0 -58.5 9t-57 30.5t-46 65.5t-17.5 105
q0 45 23 98t62 85q55 48 132 48q51 0 119 -22l53 22q6 2 9 -1l9 -7q3 -3 0 -15q-3 -13 -8 -66q-3 -33 -3 -148zM361 74v231q-5 47 -41.5 69.5t-73.5 22.5q-60 0 -96 -55.5t-36 -109.5q0 -44 10 -78.5t18.5 -48.5t24.5 -34q36 -42 88 -42q33 0 62 13t44 32z" />
    <glyph glyph-name="r" unicode="r" horiz-adv-x="341" 
d="M97 172v94q0 37 -7 50.5t-29 25.5l-19 10q-8 3 -8 7v6q0 5 8 9l99 51q8 4 14 4q7 0 7 -12l5 -71h4q24 37 56.5 62t63.5 25q24 0 37.5 -13t13.5 -31q0 -20 -13.5 -34.5t-28.5 -14.5q-13 0 -29 8q-13 8 -33 8q-37 0 -59 -42q-10 -18 -10 -32v-208q0 -23 6 -32t22 -9h47
q7 0 7 -9v-18q0 -9 -5 -9q-1 0 -16.5 0.5t-40.5 1.5t-49 1q-27 0 -53 -0.5t-41 -1.5t-16 -1q-6 0 -6 10v17q0 9 11 9h39q22 0 22 19q1 33 1 120z" />
    <glyph glyph-name="s" unicode="s" horiz-adv-x="356" 
d="M166 -12q-62 0 -101 29q-4 2 -6 14l-17 95q-1 6 6 8l13 3q6 1 9 -6l25 -49q12 -23 20 -33.5t25 -19.5t42 -9q30 0 54.5 17.5t24.5 50.5q0 35 -21 56t-76 36q-118 34 -118 127q0 51 41.5 86.5t98.5 35.5q50 0 92 -21q16 -8 18 -18l15 -70q0 -6 -7 -9l-12 -4q-5 -1 -9 5
l-34 46q-25 39 -70 39q-31 0 -54 -17.5t-23 -48.5q0 -17 6 -30t12.5 -20t23.5 -14.5t24.5 -10t29.5 -8.5q60 -17 89.5 -45.5t30.5 -82.5q-1 -60 -44 -96t-108 -36z" />
    <glyph glyph-name="t" unicode="t" horiz-adv-x="319" 
d="M169 225v-100q0 -50 16.5 -69t35.5 -19q46 0 66 13q7 4 12 -2l5 -9q4 -5 -2 -11q-13 -13 -42.5 -26.5t-68.5 -13.5q-36 0 -66.5 28t-30.5 57q0 24 1.5 81.5t1.5 61.5v22q0 44 2 128h-61q-15 0 -15 12q0 8 18 18q20 12 62.5 56.5t51.5 68.5q4 10 14 10t10 -15l-5 -98h139
q11 0 7 -9l-10 -35q-2 -8 -9 -8h-129q-3 -69 -3 -141z" />
    <glyph glyph-name="u" unicode="u" horiz-adv-x="506" 
d="M417 278v-75q0 -97 2 -118q3 -35 26 -35q21 0 33 3q10 3 12 -4l3 -13q1 -7 -5 -9l-105 -35q-12 -4 -20 -4t-9 12l-8 58h-2q-21 -30 -60 -50t-76 -20q-59 0 -94 46q-28 37 -33.5 69.5t-5.5 126.5v117q-1 20 -10 28t-28 10q-22 1 -22 7v18q0 8 11 8h89q6 0 14 2q2 0 6 0.5
t5 0.5q13 0 11 -12q-4 -36 -4 -115v-72q0 -4 -1 -32.5t0 -42t6.5 -36.5t16.5 -39q26 -38 80 -38q19 0 45 15.5t41 34.5q10 12 10 27v239q-1 19 -11.5 26t-31.5 9q-22 0 -22 7v17q0 6 2 7.5t10 1.5h93q7 0 17 2q3 0 7 0.5t5 0.5q11 0 9 -10q-6 -54 -6 -133z" />
    <glyph glyph-name="v" unicode="v" horiz-adv-x="433" 
d="M171 247q6 -18 29.5 -79.5t30.5 -75.5h3q85 207 96 250t-18 43h-20q-4 0 -4 10v18q0 8 6 8q3 0 28.5 -1.5t51.5 -1.5q23 0 47 1.5t25 1.5q6 0 7.5 -1.5t1.5 -7.5v-17q0 -10 -5 -10h-19q-20 0 -31 -11q-10 -9 -37.5 -66.5t-42.5 -94.5q-9 -22 -48 -110.5t-42 -94.5
q-13 -23 -24 -23q-12 0 -21 21q-30 75 -78 203q0 1 -12 34t-24 65.5t-15 39.5q-10 21 -18.5 29t-22.5 8h-20q-6 0 -6 10v18q0 8 11 8q3 0 13 -0.5t28 -1.5t43 -1q32 0 61 2l29 1q10 0 10 -8v-18q0 -10 -7 -10h-20q-18 0 -18 -19q0 -28 32 -119z" />
    <glyph glyph-name="w" unicode="w" horiz-adv-x="686" 
d="M415 353l76 -244h4l81 221q9 26 4.5 40.5t-19.5 14.5h-14q-6 0 -6 8v21q0 7 7 7q2 0 12.5 -0.5t28.5 -1.5t36 -1q25 0 48 1.5t25 1.5q7 0 7 -7v-21q0 -8 -7 -8h-25q-21 0 -32 -17q-5 -7 -152 -370q-5 -13 -19 -13q-12 0 -18 19l-98 286h-5l-123 -289q-7 -16 -21 -16
q-10 0 -17 20l-131 353q-10 27 -42 27h-22q-7 0 -7 9v19q0 8 6 8q2 0 29.5 -1.5t61.5 -1.5q26 0 53 1.5t31 1.5q8 0 8 -8v-20q0 -8 -8 -8h-9q-21 0 -12 -27l79 -266h4l102 245q-3 24 -9 32q-7 10 -27 10h-15q-7 0 -7 7v21q0 8 9 8q2 0 14.5 -0.5t33 -1.5t42.5 -1q20 0 37 1
t27 1.5t12 0.5q9 0 9 -7v-21q0 -8 -7 -8h-21q-8 0 -12.5 -7.5t-1.5 -18.5z" />
    <glyph glyph-name="x" unicode="x" horiz-adv-x="438" 
d="M152 25v-20q0 -8 -7 -8l-26 1q-26 2 -52 2q-22 0 -39 -0.5t-26 -1.5t-12 -1q-9 0 -9 9v18q0 9 8 9h26q29 0 41 12q11 10 67.5 82t61.5 78q-81 126 -118 166q-11 14 -36 14h-28q-7 0 -7 7v20q0 9 8 9q2 0 13 -0.5t29.5 -1.5t39.5 -1t42 1t34.5 1.5t16.5 0.5q6 0 6 -9v-19
q0 -8 -6 -8h-9q-12 0 -12.5 -10.5t8.5 -23.5l62 -98l76 100q7 9 4 20.5t-15 11.5h-12q-6 0 -6 7v21q0 8 5 8l26 -1q26 -2 60 -2q18 0 30.5 1t18.5 1.5t8 0.5q9 0 9 -10v-18q0 -8 -8 -8h-16q-24 0 -39 -12q-18 -14 -123 -145q91 -134 124 -174q18 -21 44 -21h16q5 0 5 -8v-20
q0 -8 -7 -8q-3 0 -12 0.5t-26 1.5t-39 1q-25 0 -47 -0.5t-35 -1.5t-16 -1q-8 0 -8 9v17q0 10 8 10h15q9 0 11.5 9.5t-5.5 22.5l-72 115q-2 -3 -25.5 -35t-41 -57.5t-20.5 -32.5q-4 -8 -1 -15t12 -7h21q5 0 5 -8z" />
    <glyph glyph-name="y" unicode="y" horiz-adv-x="436" 
d="M56 -272q-28 0 -42.5 14t-14.5 37q0 16 14 27.5t32 11.5q8 0 17.5 -2t17.5 -5t11 -4q13 -2 21 6q10 13 39 75.5t41 95.5q-3 17 -57 177t-62 182q-7 15 -12 22.5t-14 13.5t-21 6h-26q-8 0 -8 9v20q0 7 8 7q2 0 13 -0.5t32 -1.5t47 -1q30 0 61 1.5t32 1.5q9 0 9 -7v-21
q0 -8 -6 -8h-19q-16 0 -13 -22q2 -17 38 -133t44 -132h4q8 13 53.5 122t49.5 127q9 38 -17 38h-16q-7 0 -7 8v20q0 8 6 8q2 0 28 -1.5t54 -1.5q15 0 36.5 1.5t24.5 1.5q6 0 6 -8v-19q0 -9 -5 -9h-16q-21 0 -35 -18q-19 -24 -157 -337q-99 -224 -106 -237q-9 -16 -12.5 -22
t-14.5 -19t-25 -18.5t-33 -5.5z" />
    <glyph glyph-name="z" unicode="z" horiz-adv-x="434" 
d="M189 0h-138q-18 0 -6 17l257 371h-106q-48 0 -72.5 -17t-84.5 -92q-6 -8 -11 -4l-13 6q-5 3 -2 10l66 140q16 -5 48 -9q49 -4 131 -4h138q7 0 10 -4.5t-1 -9.5l-265 -373h142q58 0 137 107q5 8 13 3l10 -7q6 -4 2 -10l-77 -136q-21 8 -90 10q-40 2 -88 2z" />
    <glyph glyph-name="braceleft" unicode="{" horiz-adv-x="354" 
d="M42 297q0 19 13 19q17 0 35 6q15 5 24 24t9 43q0 27 -17 99q-18 68 -18 104q0 68 53.5 108t122.5 45q21 2 47 2q17 0 17 -14q0 -18 -12 -18q-21 0 -32 -1q-53 -7 -85.5 -37t-32.5 -79q0 -50 8 -100q8 -60 8 -85q0 -49 -28 -77q-6 -7 -13 -14t-11 -10.5t-6.5 -7t-2.5 -7.5
q0 -5 4 -9.5t13.5 -14t17.5 -19.5q26 -28 26 -76q0 -20 -8 -84q-8 -51 -8 -98q0 -104 119 -133q17 -4 36 -4q7 0 7 -18q0 -14 -7 -14q-20 0 -33 1q-24 1 -48 5.5t-52.5 16.5t-49.5 29t-35.5 45.5t-14.5 64.5t18 102q17 72 17 95q0 63 -32 83q-14 9 -36 11q-13 2 -13 17z" />
    <glyph glyph-name="bar" unicode="|" horiz-adv-x="350" 
d="M197 -260h-42q-6 0 -6 10v1003q0 9 6 9h40q7 0 7 -12v-1000q0 -10 -5 -10z" />
    <glyph glyph-name="braceright" unicode="}" horiz-adv-x="354" 
d="M312 297q0 -19 -14 -19q-16 0 -34 -6q-15 -5 -24 -24t-9 -43t18 -92q17 -70 17 -111q0 -75 -54 -121t-123 -52q-20 -2 -46 -2q-17 0 -17 15q0 17 12 17q21 0 32 1q52 6 85 42.5t33 93.5q0 47 -8 107q-8 62 -8 78q0 48 27 77q6 7 13.5 14t11.5 10.5t6.5 7t2.5 7.5
q0 5 -4 9.5t-14 14t-18 19.5q-25 30 -25 76q0 14 8 74t8 94q0 55 -38.5 88t-80.5 40q-21 3 -34 3q-9 0 -9 16t8 16q19 0 32 -1q42 -2 84 -15.5t79 -50t37 -89.5q0 -32 -17 -98q-18 -64 -18 -85q0 -63 32 -83q14 -9 35 -11q14 -2 14 -17z" />
    <glyph glyph-name="asciitilde" unicode="~" 
d="M390 309h53q0 -64 -29 -102t-70 -38q-32 0 -83 33l-39 27q-34 22 -66 22q-17 0 -31.5 -19.5t-14.5 -60.5h-53q0 64 29 102t70 38t80 -24l42 -28q4 -2 14 -9t16 -10.5t15.5 -7t17.5 -3.5q21 0 35 19.5t14 60.5z" />
    <glyph glyph-name="uni00A0" unicode="&#xa0;" horiz-adv-x="254" 
 />
    <glyph glyph-name="exclamdown" unicode="&#xa1;" horiz-adv-x="254" 
d="M131 314q-22 0 -42.5 14t-20.5 45q0 18 15 37t48 19q22 0 39 -16.5t17 -43.5q0 -24 -16.5 -39.5t-39.5 -15.5zM131 -272q-23 0 -37.5 14.5t-12.5 44.5q0 4 17.5 179.5t18.5 231.5q0 7 7 7h18q7 0 7 -10q1 -53 15.5 -222t14.5 -186q0 -24 -14 -41.5t-34 -17.5z" />
    <glyph glyph-name="cent" unicode="&#xa2;" 
d="M233 166l15 345q-52 -3 -88.5 -45.5t-36.5 -105.5q0 -59 13 -92.5t39 -63.5q22 -27 58 -38zM257 -15h-26q-7 0 -6 16l5 108q-85 10 -134 72q-47 60 -47 132q0 88 52.5 154t147.5 77l5 99q0 10 7 10h26q6 0 6 -14l-4 -92q39 -1 68.5 -10.5t44 -23t21.5 -25.5t7 -21
q-2 -32 -37 -32q-32 0 -53 40q-18 33 -53 36l-16 -354q13 -2 30 -2q41 0 65.5 10t51.5 36q4 4 8 0l10 -10q6 -6 0 -13q-25 -28 -70.5 -49.5t-96.5 -21.5l-5 -108q-1 -14 -7 -14z" />
    <glyph glyph-name="sterling" unicode="&#xa3;" 
d="M28 262h88q7 13 23 60.5t35 106t28 83.5q26 72 84 121.5t122 49.5q50 0 80.5 -23.5t30.5 -44.5q0 -16 -11.5 -26.5t-26.5 -11.5q-42 0 -60 37q0 1 -3 9t-6 12.5t-11 9.5t-20 5q-36 0 -61.5 -35.5t-47.5 -123.5q-12 -47 -48.5 -129.5t-48.5 -99.5h140q9 0 9 -6v-23
q0 -7 -10 -7h-156q-23 -44 -69 -97l1 -2q73 7 115 -8t87 -66q30 -33 71 -33q15 0 27.5 10t17.5 20q5 12 2.5 15.5t-17.5 3.5q-24 0 -38.5 10t-14.5 22q0 14 11.5 27t36.5 13q28 0 49 -18t21 -46q0 -31 -32.5 -61.5t-98.5 -30.5q-82 0 -139 68q-43 52 -113 49q-1 -2 -7.5 -14
t-10.5 -18.5t-11.5 -18.5t-14 -19.5t-15 -15.5t-17.5 -12t-18 -4q-18 0 -18 16q0 24 29 57.5t58 48.5q9 9 27 45t26 59h-73q-9 0 -9 7v23q0 6 7 6z" />
    <glyph glyph-name="currency" unicode="&#xa4;" 
d="M460 567l19 -20q5 -5 0 -11l-94 -89q17 -16 28.5 -46t12.5 -58q-3 -67 -40 -113l93 -87q6 -6 2 -11l-21 -24q-4 -4 -9 0l-99 90q-45 -32 -105 -32q-63 0 -104 36l-91 -91q-6 -7 -11 -2l-22 23q-4 6 2 12l92 90q-34 42 -34 97q0 71 41 112l-98 93q-4 4 1 10l19 20
q5 6 10 1l100 -94q38 34 108 34q58 0 94 -31l97 90q4 6 9 1zM252 207q50 0 83 35.5t33 94.5q0 57 -32 93t-84 36q-57 0 -86.5 -38.5t-29.5 -90.5q0 -54 30 -92t86 -38z" />
    <glyph glyph-name="yen" unicode="&#xa5;" 
d="M208 61v123h-150q-10 0 -10 6v23q0 7 10 7h151v71h-152q-9 0 -9 8v21q0 7 10 7h150q-25 46 -87.5 153.5t-78.5 129.5q-17 22 -38 22h-21q-7 0 -7 7v25q0 7 7 7q3 0 16.5 -0.5t36 -1.5t44.5 -1q32 0 60.5 1t45 1.5t18.5 0.5q7 0 7 -5v-25q0 -9 -7 -9h-21q-59 0 -40 -42
q10 -23 59.5 -118t61.5 -114q120 206 129 233q14 41 -30 41h-26q-7 0 -7 9v23q0 7 8 7q1 0 15 -0.5t37.5 -1.5t49.5 -1q25 0 50 2l25 1q8 0 8 -6v-24q0 -9 -8 -9h-21q-20 0 -35 -19q-6 -9 -37.5 -61t-73 -122t-62.5 -103h139q11 0 11 -7v-23q0 -6 -12 -6h-143v-71h144
q11 0 11 -7v-23q0 -6 -10 -6h-144v-119q0 -18 6.5 -23.5t24.5 -5.5h39q8 0 8 -7v-23q0 -9 -8 -9q-3 0 -14.5 0.5l-34.5 1.5t-55 1t-56.5 -0.5t-36.5 -1.5t-15 -1q-8 0 -8 8v24q0 7 7 7h47q22 0 22 25z" />
    <glyph glyph-name="brokenbar" unicode="&#xa6;" horiz-adv-x="350" 
d="M158 175h38q6 0 6 -10v-330q0 -10 -9 -10h-38q-6 0 -6 10v330q0 10 9 10zM193 325h-38q-6 0 -6 10v331q0 9 6 9h40q7 0 7 -12v-328q0 -10 -9 -10z" />
    <glyph glyph-name="section" unicode="&#xa7;" horiz-adv-x="540" 
d="M321 723q43 0 72.5 -18.5t29.5 -44.5q0 -17 -11.5 -26.5t-25.5 -9.5q-20 0 -30.5 8.5t-26.5 31.5q-18 27 -46 27q-37 1 -64.5 -25.5t-27.5 -64.5q0 -16 3.5 -30.5t7.5 -25t14.5 -22.5t17 -19t24 -19.5t25.5 -17.5t31.5 -19.5t33.5 -20.5q116 -74 114 -166q1 -96 -85 -138
q31 -37 31 -98q0 -66 -47 -115q-46 -45 -126 -45q-50 0 -85 15.5t-35 41.5q0 17 11 28.5t27 11.5q30 0 52 -31q21 -30 52 -30q34 0 61 19.5t27 72.5q0 36 -17.5 66t-37.5 46t-61 44.5t-62 45.5q-88 70 -88 159t75 136q-17 32 -17 88q0 49 38 92q28 31 61.5 42t84.5 11z
M334 343q-28 20 -64 43.5t-50 33t-28 21.5t-22 22q-36 -23 -36 -82t59 -108q35 -29 74 -57t60.5 -43.5t28.5 -24.5q18 8 33 31.5t15 45.5q0 69 -70 118z" />
    <glyph glyph-name="dieresis" unicode="&#xa8;" horiz-adv-x="325" 
d="M81 637q18 0 31.5 -13.5t13.5 -35.5q0 -19 -13.5 -31.5t-31.5 -12.5t-34.5 11.5t-16.5 36.5q0 14 12.5 29.5t38.5 15.5zM251 637q18 0 31 -13.5t13 -35.5q0 -19 -13 -31.5t-31 -12.5t-35 11.5t-17 36.5q0 14 12.5 29.5t39.5 15.5z" />
    <glyph glyph-name="copyright" unicode="&#xa9;" horiz-adv-x="825" 
d="M420 134q-101 0 -159 55q-67 67 -67 168q0 92 64 159q60 60 157 60q52 0 116 -32q10 -6 13 0l4 16q1 4 15 4q7 0 8.5 -1.5t1.5 -8.5q0 -30 16 -115q0 -6 -3 -6l-12 -3q-5 -2 -8 2q-23 46 -46 68q-46 46 -107 46q-71 0 -109 -54t-38 -120q3 -90 55 -144q50 -53 116 -53
q95 0 154 79q2 2 8 -3l8 -6q4 -4 -1 -10q-72 -101 -186 -101zM413 723q160 0 263 -103t103 -266q0 -158 -101 -263.5t-265 -105.5q-165 0 -265.5 105.5t-100.5 263.5q0 157 106.5 263t259.5 106zM413 21q81 0 144 31t98.5 82t53 107t17.5 113q0 68 -20.5 124.5t-53.5 94.5
t-74.5 64.5t-83.5 38t-81 11.5q-132 0 -222.5 -94t-90.5 -239q0 -70 20 -127.5t52.5 -95t74.5 -63t83.5 -36.5t82.5 -11z" />
    <glyph glyph-name="ordfeminine" unicode="&#xaa;" horiz-adv-x="330" 
d="M259 474v-79v-24q0 -73 21 -73q14 0 23 17q1 5 7 4l13 -5q4 -1 2 -6q-4 -14 -21.5 -29t-45.5 -15q-44 0 -60 41h-1q-44 -36 -74 -39q-12 -2 -37 -2q-20 0 -39 20t-19 42q0 52 79 86q41 18 88 34v37q0 21 -14 41q-13 13 -41 13q-26 0 -44 -16q-5 -5 -6 -10t0.5 -12
t1.5 -10q0 -28 -42 -28q-13 0 -20.5 8t-7.5 20q0 30 52 58q49 22 91 22q49 0 72 -20q22 -18 22 -75zM195 333v86q-20 -7 -29 -11t-28.5 -15t-29 -25t-9.5 -31q0 -16 9 -26t19 -10q16 0 38.5 10.5t29.5 21.5z" />
    <glyph glyph-name="guillemotleft" unicode="&#xab;" horiz-adv-x="412" 
d="M31 219l155 155q4 4 6 4t5 -3l14 -14q3 -3 3 -5q0 -3 -4 -7l-91 -137l92 -138q3 -5 3 -7t-3 -5l-15 -14q-2 -2 -4 -2q-1 0 -7 4l-155 156q-4 4 -4 6t5 7zM189 219l156 155q4 4 6 4q1 0 4 -3l14 -14q3 -3 3 -5q0 -3 -4 -7l-91 -137l92 -138q3 -5 3 -7t-3 -5l-15 -14l-3 -2
q-1 0 -7 4l-156 156q-4 4 -4 6t5 7z" />
    <glyph glyph-name="logicalnot" unicode="&#xac;" 
d="M56 291v56h388v-225h-60v169h-328z" />
    <glyph glyph-name="uni00AD" unicode="&#xad;" horiz-adv-x="404" 
d="M52 243v44q0 7 9 7h280q11 0 11 -11v-38q0 -7 -12 -7h-279q-9 -1 -9 5z" />
    <glyph glyph-name="registered" unicode="&#xae;" horiz-adv-x="566" 
d="M198 402v133v60q-2 18 -22 18h-6q-3 0 -3 3v12q0 3 3 3q1 0 23 -1t26 -1q3 0 34 1t34 1q53 0 78 -23q20 -16 20 -43q0 -33 -21 -51.5t-48 -23.5v-2q9 -2 16 -12q22 -27 33 -48q17 -30 34 -40q11 -7 30 -7q4 0 4 -3v-11q0 -3 -4 -3h-12q-12 1 -19 1q-6 0 -20 -0.5
t-21 -0.5q-8 6 -17 21q-19 26 -28 43q-12 24 -26 38q-11 15 -26 15h-16v-19q0 -60 1 -66q2 -15 13 -15h16q3 0 3 -3v-11q0 -3 -3 -3q-1 0 -23 0.5t-31 0.5q-10 0 -30 -1h-20q-5 0 -5 4v9q0 4 3 4h9q11 0 16 4t5 17zM244 611v-112q4 -1 26 -1q25 0 41.5 13t20.5 25t4 22
q0 26 -20 39q-23 15 -52 15q-14 0 -20 -1zM283 723q106 0 172 -64t66 -166q0 -99 -65 -164t-173 -65q-109 -1 -173.5 64.5t-64.5 164.5q0 98 68 164t170 66zM283 296q98 0 146.5 60t48.5 137q0 52 -19 92t-49.5 62t-62.5 33t-64 11q-83 0 -139 -54.5t-56 -143.5
q0 -53 18.5 -93.5t49 -61.5t62.5 -31.5t65 -10.5z" />
    <glyph glyph-name="macron" unicode="&#xaf;" horiz-adv-x="297" 
d="M30 519v32q0 7 8 7h220q9 0 9 -7v-32q0 -7 -11 -7h-218q-8 0 -8 7z" />
    <glyph glyph-name="degree" unicode="&#xb0;" horiz-adv-x="300" 
d="M150 723q53 0 82.5 -28t29.5 -73q0 -43 -31 -73t-81 -30q-52 0 -81.5 28.5t-29.5 74.5q0 42 31 71.5t80 29.5zM150 691q-26 0 -46.5 -19.5t-20.5 -49.5t20.5 -51t46.5 -21t47 21t21 51t-20.5 49.5t-47.5 19.5z" />
    <glyph glyph-name="plusminus" unicode="&#xb1;" 
d="M281 147h-60v142h-165v56h165v137h60v-137h163v-56h-163v-142zM56 65h388v-56h-388v56z" />
    <glyph glyph-name="twosuperior" unicode="&#xb2;" horiz-adv-x="335" 
d="M203 402h-141q-12 0 -34 -1t-23 -1q-4 0 -5.5 6.5t2.5 9.5q84 69 137 127q73 79 73 144q0 37 -20.5 55.5t-44.5 18.5q-52 0 -89 -48q-5 -8 -11 -5l-13 7q-3 1 -2 7q12 30 46 60t91 30q46 0 79 -27t33 -78q0 -70 -79 -153q-59 -63 -106 -98v-2h111q27 0 42.5 10t28.5 29
q5 7 17 3t8 -13l-41 -89q-2 -6 -13 -6q-10 0 -14 6q-5 8 -32 8z" />
    <glyph glyph-name="threesuperior" unicode="&#xb3;" horiz-adv-x="335" 
d="M23 440q0 17 7.5 27t18.5 10q10 0 16 -5.5t11 -16.5l4 -11q16 -20 54 -20t63 25t25 54q0 38 -24 65.5t-60 33.5q-14 3 -14 14q2 10 11 11q28 2 51 24.5t23 55.5q0 23 -17 41.5t-42 18.5q-58 0 -79 -58q-3 -9 -10 -7l-13 3q-6 1 -4 10q8 39 37.5 68t88.5 29
q50 0 74.5 -25.5t24.5 -53.5q0 -64 -71 -105q35 -7 64 -36.5t29 -66.5q0 -59 -46.5 -95.5t-116.5 -36.5q-39 0 -64 8.5t-33 18.5t-8 20z" />
    <glyph glyph-name="acute" unicode="&#xb4;" horiz-adv-x="330" 
d="M142 486l-12 10q-3 3 0 6l96 119q21 25 42 25q23 0 30.5 -22.5t-19.5 -43.5l-131 -94q-3 -3 -6 0z" />
    <glyph glyph-name="mu" unicode="&#xb5;" horiz-adv-x="520" 
d="M351 114v215q0 15 -2 40t-2 30q0 18 11 18h50q19 0 19 -13q0 -2 -1 -20t-2 -47.5t-1 -59.5v-74q0 -97 1 -118q1 -46 27 -46q20 0 34 12q7 7 11 -2l6 -11q3 -6 -5 -12q-38 -38 -83 -38q-47 0 -62 75h-2q-21 -32 -59.5 -53.5t-73.5 -21.5q-46 0 -73 41h-2q0 -63 3 -128.5
t5.5 -106t2.5 -43.5q0 -7 -10 -10l-53 -13q-9 0 -9 6l-1 546q0 34 -2 76l-1 42q0 19 13 19h51q14 0 14 -19q0 -2 -0.5 -16.5t-1 -40t-0.5 -53.5v-62q0 -112 13 -141q24 -51 79 -51q26 0 53 16t43 38q10 12 10 26z" />
    <glyph glyph-name="paragraph" unicode="&#xb6;" horiz-adv-x="575" 
d="M358 669v-790q0 -14 -7 -14h-25q-7 0 -7 16v355q-269 17 -269 232q0 72 26 120t79 74t119.5 36t161.5 10h95q11 0 11 -7v-17q0 -8 -12 -8h-59v-803q0 -8 -7 -8h-25q-7 0 -7 15v794q-36 0 -74 -5z" />
    <glyph glyph-name="periodcentered" unicode="&#xb7;" horiz-adv-x="254" 
d="M130 297q-22 0 -42 14t-20 45q0 19 14.5 37.5t47.5 18.5q23 0 39.5 -16.5t16.5 -43.5q0 -24 -16 -39.5t-40 -15.5z" />
    <glyph glyph-name="cedilla" unicode="&#xb8;" horiz-adv-x="326" 
d="M155 0h44l-58 -68q25 -7 43.5 -26.5t18.5 -41.5q0 -44 -49.5 -72t-103.5 -28q-20 0 -20 20q0 14 32 14q28 0 54.5 15t26.5 41q0 39 -66 51z" />
    <glyph glyph-name="onesuperior" unicode="&#xb9;" horiz-adv-x="335" 
d="M209 627v-158q0 -23 7.5 -29t38.5 -6h23q6 0 6 -6v-24q0 -5 -7 -5q-1 0 -21 0.5t-45 1.5t-38 1q-11 0 -36.5 -1t-46.5 -1.5t-22 -0.5q-7 0 -7 5v26q0 4 9 4h29q31 0 38 5.5t8 27.5q0 1 0.5 51.5t0.5 70.5v30q0 38 -2 84q-2 24 -15 24q-9 0 -26 -6l-39 -16q-8 -4 -10 -1
l-11 20q-2 3 4 6l138 75q13 7 18 7q8 0 8 -9q0 -2 -0.5 -30.5t-1 -70t-0.5 -75.5z" />
    <glyph glyph-name="ordmasculine" unicode="&#xba;" horiz-adv-x="370" 
d="M178 264q-71 0 -120 49q-37 39 -37 105q0 69 51 112q48 39 116 39q71 0 115 -38q46 -42 46 -110q0 -70 -48 -113.5t-123 -43.5zM183 294q44 0 67.5 31t23.5 79q0 64 -26.5 99.5t-61.5 35.5q-32 0 -55 -18q-38 -30 -38 -82q0 -72 24 -107q26 -38 66 -38z" />
    <glyph glyph-name="guillemotright" unicode="&#xbb;" horiz-adv-x="412" 
d="M223 205l-156 -155q-4 -4 -6 -4t-5 3l-13 13q-3 3 -3 5q0 3 4 7l91 138l-92 137q-3 4 -3 7q0 2 3 5l14 15q2 2 4 2t7 -5l156 -155q4 -4 4 -6t-5 -7zM381 205l-155 -155q-4 -4 -6 -4t-5 3l-14 13q-3 3 -3 5q0 3 4 7l91 138l-92 137q-3 4 -3 7q0 2 3 5l15 15q2 2 4 2t7 -5
l155 -155q4 -4 4 -6t-5 -7z" />
    <glyph glyph-name="onequarter" unicode="&#xbc;" horiz-adv-x="742" 
d="M630 0h-43q-8 0 -8 10v95h-193q-9 0 -9 11q0 8 7 15l223 267q12 12 18 12q15 0 15 -23v-235h65q7 0 7 -9v-30q0 -8 -10 -8h-62v-94q0 -11 -10 -11zM579 152v142q0 8 -4.5 10t-9.5 -4l-113 -132q-13 -16 4 -16h123zM603 654l-406 -656q-7 -13 -10 -13q-4 0 -18 8t-14 12
t5 12l406 658q4 8 8 8t16 -6q17 -10 17 -14q0 -1 -4 -9zM190 498v-158q0 -23 7.5 -29t38.5 -6h23q6 0 6 -6v-24q0 -5 -7 -5q-1 0 -21 1t-45 1.5t-38 0.5q-11 0 -36.5 -0.5t-46.5 -1.5t-22 -1q-7 0 -7 5v26q0 4 9 4h29q31 0 38 5.5t8 27.5q0 1 0.5 51.5t0.5 70.5v30
q0 38 -2 84q-2 24 -15 24q-10 0 -26 -6l-39 -16q-8 -4 -10 -1l-11 20q-2 3 4 6l138 75q13 7 18 7q8 0 8 -9q0 -2 -0.5 -30.5t-1 -70t-0.5 -75.5z" />
    <glyph glyph-name="onehalf" unicode="&#xbd;" horiz-adv-x="742" 
d="M581 654l-406 -656q-7 -13 -10 -13q-4 0 -18 8t-14 12t5 12l406 658q4 8 8 8t16 -6q17 -10 17 -14q0 -1 -4 -9zM602 0h-141q-12 0 -34 -1t-23 -1q-7 0 -7 6q0 5 4 8q104 93 137 129q73 79 73 144q0 37 -20.5 55.5t-44.5 18.5q-52 0 -89 -48q-5 -8 -11 -5l-13 7q-3 1 -2 7
q12 30 46 60t91 30q46 0 79 -27t33 -78q0 -70 -79 -153q-59 -63 -106 -98v-2h111q27 0 42.5 10t28.5 29q5 7 17 3t8 -13l-41 -89q-2 -6 -13 -6q-10 0 -14 6q-5 8 -32 8zM183 498v-158q0 -23 7.5 -29t38.5 -6h23q6 0 6 -6v-24q0 -5 -7 -5q-1 0 -21 1t-45 1.5t-38 0.5
q-11 0 -36.5 -0.5t-46.5 -1.5t-22 -1q-7 0 -7 5v26q0 4 9 4h29q31 0 38 5.5t8 27.5q0 1 0.5 51.5t0.5 70.5v30q0 38 -2 84q-2 24 -15 24q-9 0 -26 -6l-39 -16q-8 -4 -10 -1l-11 20q-2 3 4 6l138 75q13 7 18 7q8 0 8 -9q0 -2 -0.5 -30.5t-1 -70t-0.5 -75.5z" />
    <glyph glyph-name="threequarters" unicode="&#xbe;" horiz-adv-x="742" 
d="M601 654l-406 -656q-7 -13 -10 -13q-4 0 -18 8t-14 12t5 12l406 658q4 8 8 8t16 -6q17 -10 17 -14q0 -1 -4 -9zM26 311q0 17 7.5 27t18.5 10q10 0 16 -5.5t10 -16.5l5 -11q16 -20 54 -20t63 25t25 54q0 38 -24 65.5t-60 33.5q-14 3 -14 14q2 10 11 11q28 2 51 24.5
t23 55.5q0 23 -17 41.5t-42 18.5q-58 0 -79 -58q-3 -9 -10 -7l-13 3q-6 1 -4 10q8 39 37.5 68t88.5 29q50 0 74.5 -25.5t24.5 -53.5q0 -64 -71 -105q35 -7 64 -36.5t29 -66.5q0 -59 -46.5 -95.5t-116.5 -36.5q-39 0 -64 8.5t-33 18.5t-8 20zM620 0h-43q-8 0 -8 10v95h-193
q-9 0 -9 11q0 8 7 15l223 267q12 12 18 12q15 0 15 -23v-235h65q7 0 7 -9v-30q0 -8 -10 -8h-62v-94q0 -11 -10 -11zM569 152v142q0 8 -4.5 10t-9.5 -4l-113 -132q-13 -16 4 -16h123z" />
    <glyph glyph-name="questiondown" unicode="&#xbf;" horiz-adv-x="370" 
d="M264 -272q-66 0 -150.5 87t-84.5 174q0 18 4 34t9.5 27t16 20.5t18.5 15.5t22.5 11t23 7.5t25 4.5t23 2.5t23 1t18.5 0.5q8 0 8 8v107q0 7 7 7h19q7 0 7 -7v-189q0 -12 -11 -9q-16 3 -66 3q-20 0 -42 -6t-42.5 -25t-20.5 -48q0 -48 54 -90q36 -30 59.5 -39t56.5 -9
q30 0 50.5 -14.5t20.5 -34.5q0 -6 -3 -13.5t-15 -16.5t-30 -9zM233 322q-22 0 -38 15t-16 37q0 24 15 39.5t41 15.5q21 0 38 -16.5t17 -37.5t-16 -37t-41 -16z" />
    <glyph glyph-name="Agrave" unicode="&#xc0;" horiz-adv-x="743" 
d="M465 278h-246q-9 -23 -38 -103.5t-32 -94.5q-3 -21 -3 -22q0 -22 34 -22h47q10 0 10 -7v-23q0 -9 -8 -9q-1 0 -40 1.5t-74 1.5q-32 0 -56 -0.5t-36.5 -1.5t-16.5 -1q-7 0 -7 8v24q0 7 8 7h35q22 0 34.5 10.5t23.5 35.5q8 17 49 123t60 160q2 7 47 127t50 135q7 24 1 34
q-7 9 -7 13q0 6 9 9q20 4 47 21t36 29q9 9 13 9q6 0 11 -17q9 -30 57.5 -174t58.5 -177q17 -58 54 -164.5t48 -128.5q23 -45 68 -45h33q8 0 8 -7v-25q0 -7 -10 -7q-1 0 -36.5 1.5t-83.5 1.5q-49 0 -93 -1.5t-48 -1.5q-8 0 -8 9v23q0 7 9 7h25q21 0 28 8.5t2 29.5
q-15 66 -63 204zM232 314h221q-30 100 -95 295q-6 14 -8 14q-5 0 -11 -15q-9 -24 -56 -151t-51 -143zM409 783l-12 -14q-3 -3 -8 0l-167 82q-29 15 -29 40q0 14 10.5 24.5t25.5 10.5q16 0 41 -20l139 -114q4 -4 0 -9z" />
    <glyph glyph-name="Aacute" unicode="&#xc1;" horiz-adv-x="743" 
d="M465 278h-246q-9 -23 -38 -103.5t-32 -94.5q-3 -21 -3 -22q0 -22 34 -22h47q10 0 10 -7v-23q0 -9 -8 -9q-1 0 -40 1.5t-74 1.5q-32 0 -56 -0.5t-36.5 -1.5t-16.5 -1q-7 0 -7 8v24q0 7 8 7h35q22 0 34.5 10.5t23.5 35.5q8 17 49 123t60 160q2 7 47 127t50 135q7 24 1 34
q-7 9 -7 13q0 6 9 9q20 4 47 21t36 29q9 9 13 9q6 0 11 -17q9 -30 57.5 -174t58.5 -177q17 -58 54 -164.5t48 -128.5q23 -45 68 -45h33q8 0 8 -7v-25q0 -7 -10 -7q-1 0 -36.5 1.5t-83.5 1.5q-49 0 -93 -1.5t-48 -1.5q-8 0 -8 9v23q0 7 9 7h25q21 0 28 8.5t2 29.5
q-15 66 -63 204zM232 314h221q-30 100 -95 295q-6 14 -8 14q-5 0 -11 -15q-9 -24 -56 -151t-51 -143zM331 769l-12 16q-4 4 2 8l137 113q25 20 41 20q15 0 25.5 -10.5t10.5 -24.5q0 -25 -29 -40l-168 -82q-4 -3 -7 0z" />
    <glyph glyph-name="Acircumflex" unicode="&#xc2;" horiz-adv-x="743" 
d="M465 278h-246q-9 -23 -38 -103.5t-32 -94.5q-3 -21 -3 -22q0 -22 34 -22h47q10 0 10 -7v-23q0 -9 -8 -9q-1 0 -40 1.5t-74 1.5q-32 0 -56 -0.5t-36.5 -1.5t-16.5 -1q-7 0 -7 8v24q0 7 8 7h35q22 0 34.5 10.5t23.5 35.5q8 17 49 123t60 160q2 7 47 127t50 135q7 24 1 34
q-7 9 -7 13q0 6 9 9q20 4 47 21t36 29q9 9 13 9q6 0 11 -17q9 -30 57.5 -174t58.5 -177q17 -58 54 -164.5t48 -128.5q23 -45 68 -45h33q8 0 8 -7v-25q0 -7 -10 -7q-1 0 -36.5 1.5t-83.5 1.5q-49 0 -93 -1.5t-48 -1.5q-8 0 -8 9v23q0 7 9 7h25q21 0 28 8.5t2 29.5
q-15 66 -63 204zM232 314h221q-30 100 -95 295q-6 14 -8 14q-5 0 -11 -15q-9 -24 -56 -151t-51 -143zM506 770l-128 57l-119 -57q-7 -3 -10 0l-8 10q-2 4 3 9l123 111q11 9 13 9q3 0 14 -9l127 -112q4 -4 1 -8l-7 -9q-3 -4 -9 -1z" />
    <glyph glyph-name="Atilde" unicode="&#xc3;" horiz-adv-x="743" 
d="M465 278h-246q-9 -23 -38 -103.5t-32 -94.5q-3 -21 -3 -22q0 -22 34 -22h47q10 0 10 -7v-23q0 -9 -8 -9q-1 0 -40 1.5t-74 1.5q-32 0 -56 -0.5t-36.5 -1.5t-16.5 -1q-7 0 -7 8v24q0 7 8 7h35q22 0 34.5 10.5t23.5 35.5q8 17 49 123t60 160q2 7 47 127t50 135q7 24 1 34
q-7 9 -7 13q0 6 9 9q20 4 47 21t36 29q9 9 13 9q6 0 11 -17q9 -30 57.5 -174t58.5 -177q17 -58 54 -164.5t48 -128.5q23 -45 68 -45h33q8 0 8 -7v-25q0 -7 -10 -7q-1 0 -36.5 1.5t-83.5 1.5q-49 0 -93 -1.5t-48 -1.5q-8 0 -8 9v23q0 7 9 7h25q21 0 28 8.5t2 29.5
q-15 66 -63 204zM232 314h221q-30 100 -95 295q-6 14 -8 14q-5 0 -11 -15q-9 -24 -56 -151t-51 -143zM258 782h-18q-7 0 -3 17q7 39 29 62t52 23q14 0 80 -16q46 -13 68 -13q24 0 33 34q1 6 7 6h17q7 0 3 -18q-7 -33 -26.5 -55.5t-50.5 -22.5q-13 0 -25 2.5t-31.5 8
t-26.5 7.5q-33 10 -62 10q-12 0 -23.5 -11t-15.5 -29q-1 -5 -7 -5z" />
    <glyph glyph-name="Adieresis" unicode="&#xc4;" horiz-adv-x="743" 
d="M465 278h-246q-9 -23 -38 -103.5t-32 -94.5q-3 -21 -3 -22q0 -22 34 -22h47q10 0 10 -7v-23q0 -9 -8 -9q-1 0 -40 1.5t-74 1.5q-32 0 -56 -0.5t-36.5 -1.5t-16.5 -1q-7 0 -7 8v24q0 7 8 7h35q22 0 34.5 10.5t23.5 35.5q8 17 49 123t60 160q2 7 47 127t50 135q7 24 1 34
q-7 9 -7 13q0 6 9 9q20 4 47 21t36 29q9 9 13 9q6 0 11 -17q9 -30 57.5 -174t58.5 -177q17 -58 54 -164.5t48 -128.5q23 -45 68 -45h33q8 0 8 -7v-25q0 -7 -10 -7q-1 0 -36.5 1.5t-83.5 1.5q-49 0 -93 -1.5t-48 -1.5q-8 0 -8 9v23q0 7 9 7h25q21 0 28 8.5t2 29.5
q-15 66 -63 204zM232 314h221q-30 100 -95 295q-6 14 -8 14q-5 0 -11 -15q-9 -24 -56 -151t-51 -143zM281 880q17 0 30.5 -13t13.5 -35q0 -20 -13 -32.5t-31 -12.5t-35 11.5t-17 37.5q0 14 12.5 29t39.5 15zM480 880q18 0 31.5 -13t13.5 -35q0 -20 -13 -32.5t-32 -12.5
q-18 0 -35 11.5t-17 37.5q0 14 12.5 29t39.5 15z" />
    <glyph glyph-name="Aring" unicode="&#xc5;" horiz-adv-x="743" 
d="M465 278h-246q-9 -23 -38 -103.5t-32 -94.5q-3 -21 -3 -22q0 -22 34 -22h47q10 0 10 -7v-23q0 -9 -8 -9q-1 0 -40 1.5t-74 1.5q-32 0 -56 -0.5t-36.5 -1.5t-16.5 -1q-7 0 -7 8v24q0 7 8 7h35q22 0 34.5 10.5t23.5 35.5q8 17 49 123t60 160q2 7 47 127t50 135q7 24 1 34
q-7 9 -7 13q0 7 9 8q52 8 75 15q6 2 13 5t11.5 4.5t7.5 1.5q6 0 13 -22q1 -4 46.5 -139t56.5 -173q17 -58 54 -164.5t48 -128.5q23 -45 68 -45h33q8 0 8 -7v-25q0 -7 -10 -7q-1 0 -36.5 1.5t-83.5 1.5q-49 0 -93 -1.5t-48 -1.5q-8 0 -8 9v23q0 7 9 7h25q21 0 28 8.5t2 29.5
q-15 66 -63 204zM232 314h221q-30 100 -95 295q-4 14 -8 14q-5 0 -11 -15q-9 -24 -56 -151t-51 -143zM369 755q-39 0 -66.5 19.5t-27.5 51.5q0 34 30.5 56.5t72.5 22.5q46 0 70.5 -19.5t24.5 -49.5q0 -43 -32.5 -62t-71.5 -19zM374 780q22 0 34.5 13.5t12.5 37.5
q0 22 -13.5 35.5t-31.5 13.5q-23 -1 -36 -16t-13 -33q0 -23 12 -37t35 -14z" />
    <glyph glyph-name="AE" unicode="&#xc6;" horiz-adv-x="924" 
d="M490 676v-322q97 0 133 6q22 3 31 11.5t13 31.5l9 49q0 8 9 7l22 -2q4 0 6.5 -1.5t1.5 -5.5q-3 -16 -3 -113q0 -44 6 -104q1 -8 -8 -8l-20 -3q-7 -1 -8 6l-13 49q-8 35 -41 38q-48 3 -138 3v-29q0 -31 1 -98t1 -73q0 -41 11.5 -57t37.5 -22q27 -6 83 -6q42 0 77 3
q56 2 81 35l78 105q6 10 15 4l12 -7q8 -5 6 -10l-55 -151q-4 -15 -16 -15q-2 0 -10.5 0.5t-27 1t-41.5 0.5q-15 0 -113.5 0.5t-188.5 0.5q-19 0 -46 -0.5t-35 -0.5q-38 -2 -42 -2q-10 0 -10 9v21q0 9 9 9h57q18 0 23.5 8.5t5.5 35.5v238h-199q-84 -160 -109 -216
q-11 -25 -11 -43q0 -11 9 -17t19 -6h48q10 0 10 -8v-18q0 -13 -9 -13q-3 0 -16 0.5t-38 1.5t-58 1q-38 0 -73 -2l-36 -1q-7 0 -7 13v17q0 9 7 9h34q20 0 54 46q13 17 156 282q14 26 50 87.5t65.5 112.5t34.5 62q21 47 -14 47h-18q-9 0 -9 9v21q0 9 11 9q12 0 53.5 -2
t76.5 -2h68q42 0 125 0.5t124 0.5q9 0 25 1l16 2q6 0 8 -5q2 -7 13.5 -44.5t23.5 -76t13 -41.5q3 -7 -3 -9l-12 -7q-5 -3 -10 2l-95 113q-23 29 -67 29zM225 354h178v272q0 16 -9 16t-16 -12z" />
    <glyph glyph-name="Ccedilla" unicode="&#xc7;" horiz-adv-x="746" 
d="M303 -95l64 82q-124 10 -212 90q-52 49 -79.5 126t-27.5 154q0 157 102 265q41 44 107 72.5t143 28.5q108 0 202 -55q17 -10 20 0l8 29q2 6 13 6q7 0 9 -3t2 -13q0 -13 10.5 -91.5t14.5 -102.5q2 -9 -4 -10l-15 -4q-6 -2 -10 9q-26 70 -78 123q-75 77 -174 77
q-64 0 -114 -26.5t-79 -71.5t-43 -97.5t-14 -109.5t22 -128.5t74 -128.5q47 -52 90 -68t102 -16q79 0 144 36.5t103 90.5q4 7 8 3l13 -10q5 -4 2 -9q-116 -168 -297 -168l-42 -53q28 -8 47.5 -27t19.5 -41q0 -44 -51.5 -72t-106.5 -28q-20 0 -20 20q0 14 32 14q28 0 53.5 15
t25.5 41q0 36 -64 51z" />
    <glyph glyph-name="Egrave" unicode="&#xc8;" horiz-adv-x="690" 
d="M238 676v-293q91 0 127 6q22 4 30.5 12.5t15.5 31.5q7 22 8 49q0 7 7 7l25 -1q8 0 6 -8q-3 -17 -3 -114q0 -41 6 -104q0 -6 -6 -8l-22 -3q-4 -1 -5.5 1.5t-2.5 7.5q-2 15 -11 47q-10 35 -43 39q-47 5 -132 5v-62q0 -31 1 -98t1 -73q1 -67 57 -78q35 -7 74 -7q57 0 88 3
q53 6 87 35q9 7 40 47.5t42 57.5q6 9 12 6l16 -9q6 -4 2 -14l-53 -147q-5 -15 -22 -15q-1 0 -10 0.5t-30 1t-47 0.5q-18 0 -120.5 0.5t-192.5 0.5q-21 0 -49 -0.5t-36 -0.5q-42 -2 -43 -2q-9 0 -9 7v27q0 5 10 5h40q34 0 42 7.5t8 36.5v237v98q0 188 -3 218q-3 24 -13 31.5
t-38 7.5h-36q-8 0 -8 7v27q0 5 7 5q6 0 45.5 -1.5t77.5 -1.5h44q50 0 148.5 0.5t148.5 0.5q9 0 24 1t16 1q6 0 8 -5q2 -8 26 -83t25 -78q2 -7 -3 -9l-15 -8q-5 -3 -8 3q-3 7 -44 55.5t-56 58.5q-38 26 -76 27zM412 783l-12 -14q-3 -3 -8 0l-167 82q-29 15 -29 40
q0 14 10.5 24.5t25.5 10.5q16 0 41 -20l139 -114q4 -4 0 -9z" />
    <glyph glyph-name="Eacute" unicode="&#xc9;" horiz-adv-x="690" 
d="M238 676v-293q91 0 127 6q22 4 30.5 12.5t15.5 31.5q7 22 8 49q0 7 7 7l25 -1q8 0 6 -8q-3 -17 -3 -114q0 -41 6 -104q0 -6 -6 -8l-22 -3q-4 -1 -5.5 1.5t-2.5 7.5q-2 15 -11 47q-10 35 -43 39q-47 5 -132 5v-62q0 -31 1 -98t1 -73q1 -67 57 -78q35 -7 74 -7q57 0 88 3
q53 6 87 35q9 7 40 47.5t42 57.5q6 9 12 6l16 -9q6 -4 2 -14l-53 -147q-5 -15 -22 -15q-1 0 -10 0.5t-30 1t-47 0.5q-18 0 -120.5 0.5t-192.5 0.5q-21 0 -49 -0.5t-36 -0.5q-42 -2 -43 -2q-9 0 -9 7v27q0 5 10 5h40q34 0 42 7.5t8 36.5v237v98q0 188 -3 218q-3 24 -13 31.5
t-38 7.5h-36q-8 0 -8 7v27q0 5 7 5q6 0 45.5 -1.5t77.5 -1.5h44q50 0 148.5 0.5t148.5 0.5q9 0 24 1t16 1q6 0 8 -5q2 -8 26 -83t25 -78q2 -7 -3 -9l-15 -8q-5 -3 -8 3q-3 7 -44 55.5t-56 58.5q-38 26 -76 27zM300 769l-12 16q-4 4 2 8l137 113q25 20 41 20q15 0 25.5 -10.5
t10.5 -24.5q0 -25 -29 -40l-168 -82q-4 -3 -7 0z" />
    <glyph glyph-name="Ecircumflex" unicode="&#xca;" horiz-adv-x="690" 
d="M238 676v-293q91 0 127 6q22 4 30.5 12.5t15.5 31.5q7 22 8 49q0 7 7 7l25 -1q8 0 6 -8q-3 -17 -3 -114q0 -41 6 -104q0 -6 -6 -8l-22 -3q-4 -1 -5.5 1.5t-2.5 7.5q-2 15 -11 47q-10 35 -43 39q-47 5 -132 5v-62q0 -31 1 -98t1 -73q1 -67 57 -78q35 -7 74 -7q57 0 88 3
q53 6 87 35q9 7 40 47.5t42 57.5q6 9 12 6l16 -9q6 -4 2 -14l-53 -147q-5 -15 -22 -15q-1 0 -10 0.5t-30 1t-47 0.5q-18 0 -120.5 0.5t-192.5 0.5q-21 0 -49 -0.5t-36 -0.5q-42 -2 -43 -2q-9 0 -9 7v27q0 5 10 5h40q34 0 42 7.5t8 36.5v237v98q0 188 -3 218q-3 24 -13 31.5
t-38 7.5h-36q-8 0 -8 7v27q0 5 7 5q6 0 45.5 -1.5t77.5 -1.5h44q50 0 148.5 0.5t148.5 0.5q9 0 24 1t16 1q6 0 8 -5q2 -8 26 -83t25 -78q2 -7 -3 -9l-15 -8q-5 -3 -8 3q-3 7 -44 55.5t-56 58.5q-38 26 -76 27zM485 770l-128 57l-119 -57q-7 -3 -10 0l-8 10q-2 4 3 9l123 111
q11 9 13 9q3 0 14 -9l127 -112q4 -4 1 -8l-7 -9q-3 -4 -9 -1z" />
    <glyph glyph-name="Edieresis" unicode="&#xcb;" horiz-adv-x="690" 
d="M238 676v-293q91 0 127 6q22 4 30.5 12.5t15.5 31.5q7 22 8 49q0 7 7 7l25 -1q8 0 6 -8q-3 -17 -3 -114q0 -41 6 -104q0 -6 -6 -8l-22 -3q-4 -1 -5.5 1.5t-2.5 7.5q-2 15 -11 47q-10 35 -43 39q-47 5 -132 5v-62q0 -31 1 -98t1 -73q1 -67 57 -78q35 -7 74 -7q57 0 88 3
q53 6 87 35q9 7 40 47.5t42 57.5q6 9 12 6l16 -9q6 -4 2 -14l-53 -147q-5 -15 -22 -15q-1 0 -10 0.5t-30 1t-47 0.5q-18 0 -120.5 0.5t-192.5 0.5q-21 0 -49 -0.5t-36 -0.5q-42 -2 -43 -2q-9 0 -9 7v27q0 5 10 5h40q34 0 42 7.5t8 36.5v237v98q0 188 -3 218q-3 24 -13 31.5
t-38 7.5h-36q-8 0 -8 7v27q0 5 7 5q6 0 45.5 -1.5t77.5 -1.5h44q50 0 148.5 0.5t148.5 0.5q9 0 24 1t16 1q6 0 8 -5q2 -8 26 -83t25 -78q2 -7 -3 -9l-15 -8q-5 -3 -8 3q-3 7 -44 55.5t-56 58.5q-38 26 -76 27zM259 880q17 0 30.5 -13t13.5 -35q0 -20 -13 -32.5t-31 -12.5
t-35 11.5t-17 37.5q0 14 12.5 29t39.5 15zM458 880q18 0 31.5 -13t13.5 -35q0 -20 -13 -32.5t-32 -12.5q-18 0 -35 11.5t-17 37.5q0 14 12.5 29t39.5 15z" />
    <glyph glyph-name="Igrave" unicode="&#xcc;" horiz-adv-x="371" 
d="M140 349v70q0 159 -4 219q-2 19 -12 26.5t-38 7.5h-58q-8 0 -8 6v27q0 6 7 6q3 0 23 -0.5t56 -1.5t77 -1q39 0 69.5 1t46 1.5t19.5 0.5q7 0 7 -7v-25q0 -7 -8 -7h-47q-35 0 -35 -28q0 -5 -1.5 -121t-1.5 -122v-77q0 -5 1.5 -125.5t1.5 -126.5q0 -22 10.5 -29t36.5 -7h41
q8 0 8 -7v-26q0 -6 -9 -6q-3 0 -20 0.5t-49 1.5t-70 1q-42 0 -76.5 -0.5t-52.5 -1.5t-20 -1q-8 0 -8 6v27q0 6 8 6h56q41 0 45 29q5 38 5 284zM233 783l-12 -14q-3 -3 -8 0l-167 82q-29 15 -29 40q0 14 10.5 24.5t25.5 10.5q16 0 41 -20l139 -114q4 -4 0 -9z" />
    <glyph glyph-name="Iacute" unicode="&#xcd;" horiz-adv-x="371" 
d="M140 349v70q0 159 -4 219q-2 19 -12 26.5t-38 7.5h-58q-8 0 -8 6v27q0 6 7 6q3 0 23 -0.5t56 -1.5t77 -1q39 0 69.5 1t46 1.5t19.5 0.5q7 0 7 -7v-25q0 -7 -8 -7h-47q-35 0 -35 -28q0 -5 -1.5 -121t-1.5 -122v-77q0 -5 1.5 -125.5t1.5 -126.5q0 -22 10.5 -29t36.5 -7h41
q8 0 8 -7v-26q0 -6 -9 -6q-3 0 -20 0.5t-49 1.5t-70 1q-42 0 -76.5 -0.5t-52.5 -1.5t-20 -1q-8 0 -8 6v27q0 6 8 6h56q41 0 45 29q5 38 5 284zM150 769l-12 16q-4 4 2 8l137 113q25 20 41 20q15 0 25.5 -10.5t10.5 -24.5q0 -25 -29 -40l-168 -82q-4 -3 -7 0z" />
    <glyph glyph-name="Icircumflex" unicode="&#xce;" horiz-adv-x="371" 
d="M140 349v70q0 159 -4 219q-2 19 -12 26.5t-38 7.5h-58q-8 0 -8 6v27q0 6 7 6q3 0 23 -0.5t56 -1.5t77 -1q39 0 69.5 1t46 1.5t19.5 0.5q7 0 7 -7v-25q0 -7 -8 -7h-47q-35 0 -35 -28q0 -5 -1.5 -121t-1.5 -122v-77q0 -5 1.5 -125.5t1.5 -126.5q0 -22 10.5 -29t36.5 -7h41
q8 0 8 -7v-26q0 -6 -9 -6q-3 0 -20 0.5t-49 1.5t-70 1q-42 0 -76.5 -0.5t-52.5 -1.5t-20 -1q-8 0 -8 6v27q0 6 8 6h56q41 0 45 29q5 38 5 284zM310 770l-128 57l-119 -57q-7 -3 -10 0l-8 10q-2 4 3 9l123 111q11 9 13 9q3 0 14 -9l127 -112q4 -4 1 -8l-7 -9q-3 -4 -9 -1z
" />
    <glyph glyph-name="Idieresis" unicode="&#xcf;" horiz-adv-x="371" 
d="M140 349v70q0 159 -4 219q-2 19 -12 26.5t-38 7.5h-58q-8 0 -8 6v27q0 6 7 6q3 0 23 -0.5t56 -1.5t77 -1q39 0 69.5 1t46 1.5t19.5 0.5q7 0 7 -7v-25q0 -7 -8 -7h-47q-35 0 -35 -28q0 -5 -1.5 -121t-1.5 -122v-77q0 -5 1.5 -125.5t1.5 -126.5q0 -22 10.5 -29t36.5 -7h41
q8 0 8 -7v-26q0 -6 -9 -6q-3 0 -20 0.5t-49 1.5t-70 1q-42 0 -76.5 -0.5t-52.5 -1.5t-20 -1q-8 0 -8 6v27q0 6 8 6h56q41 0 45 29q5 38 5 284zM90 880q18 0 31 -13t13 -35q0 -20 -13 -32.5t-31 -12.5t-35 11.5t-17 37.5q0 14 12.5 29t39.5 15zM289 880q18 0 31.5 -13
t13.5 -35q0 -20 -13 -32.5t-32 -12.5q-18 0 -35 11.5t-17 37.5q0 14 12.5 29t39.5 15z" />
    <glyph glyph-name="Eth" unicode="&#xd0;" horiz-adv-x="813" 
d="M235 433v-57h170q9 0 9 -9v-20q0 -9 -9 -9h-170q0 -109 2 -221q0 -30 17 -56q24 -32 107 -32q74 0 134.5 29t99.5 79q73 90 73 225q0 58 -23 119.5t-59 101.5q-88 96 -251 96q-63 0 -80 -10t-19 -47q-1 -42 -1 -189zM29 5v24q0 7 7 7h68q28 0 33 30q6 36 6 245v27h-97
q-9 0 -9 9v20q0 9 9 9h97v83q0 143 -5 185q-3 28 -43 28h-57q-6 0 -6 9v22q0 8 8 8q3 0 19 -0.5t49.5 -1.5t77.5 -1q23 0 81.5 1.5t67.5 1.5q108 0 186 -19t139 -71q111 -96 111 -255q0 -84 -24 -145.5t-75 -117.5q-34 -37 -76 -60.5t-89.5 -32.5t-75.5 -11t-70 -2
q-5 0 -82 1.5t-102 1.5q-37 0 -69.5 -0.5t-51 -1.5t-19.5 -1q-5 0 -6.5 1.5t-1.5 6.5z" />
    <glyph glyph-name="Ntilde" unicode="&#xd1;" horiz-adv-x="795" 
d="M135 408v170q0 43 -19 67.5t-47 25.5l-41 1q-6 0 -6 7v26q0 6 6 6q1 0 10 -0.5t18 -0.5q30 -2 71 -2q20 0 42 1t25 1q17 0 29 -13q2 -3 52 -67.5t102 -131.5t56 -73q3 -4 50 -61.5t95 -117.5t59 -74h4v119q0 113 -3 188q-3 129 -12 154q-12 39 -55 39h-32q-6 0 -6 7v26
q0 6 6 6q1 0 36.5 -1.5t73.5 -1.5q36 0 66 1.5t31 1.5q8 0 8 -7v-25q0 -7 -6 -7h-27q-20 0 -28.5 -13t-10.5 -42q-4 -67 -4 -231v-374q0 -24 -5 -24q-12 0 -24 16q-1 1 -122 154q-148 184 -149 185q-7 6 -99.5 121.5t-101.5 127.5h-6v-222q0 -176 10 -276q3 -32 10.5 -45
t26.5 -13h30q8 0 8 -9v-22q0 -8 -8 -8q-3 0 -42 1.5t-55 1.5q-12 0 -54 -1.5t-46 -1.5q-5 0 -5 7v26q0 6 6 6h34q22 0 31.5 12.5t13.5 48.5q4 38 4 311zM294 782h-18q-7 0 -3 17q7 39 29 62t52 23q14 0 80 -16q46 -13 68 -13q24 0 33 34q1 6 7 6h17q7 0 3 -18
q-7 -33 -26.5 -55.5t-50.5 -22.5q-13 0 -25 2.5t-31.5 8t-26.5 7.5q-33 10 -62 10q-12 0 -23.5 -11t-15.5 -29q-1 -5 -7 -5z" />
    <glyph glyph-name="Ograve" unicode="&#xd2;" horiz-adv-x="821" 
d="M410 -15q-110 0 -215 65q-59 36 -103 115.5t-44 181.5q0 137 93 249q104 127 271 127q129 0 224 -79q137 -118 137 -299q0 -118 -75 -219q-106 -141 -288 -141zM418 23q62 0 110.5 24.5t75.5 60t44 81t22 81t5 67.5q0 78 -26 146t-66 111t-86 67t-89 24q-1 0 -9.5 0.5
t-15.5 0t-19.5 -1.5t-25 -5t-27 -10t-30.5 -17t-31 -26q-48 -46 -74 -114t-26 -133q0 -75 20 -137.5t50 -102t67 -66.5t70.5 -38.5t60.5 -11.5zM468 783l-12 -14q-3 -3 -8 0l-167 82q-29 15 -29 40q0 14 10.5 24.5t25.5 10.5q16 0 41 -20l139 -114q4 -4 0 -9z" />
    <glyph glyph-name="Oacute" unicode="&#xd3;" horiz-adv-x="821" 
d="M410 -15q-110 0 -215 65q-59 36 -103 115.5t-44 181.5q0 137 93 249q104 127 271 127q129 0 224 -79q137 -118 137 -299q0 -118 -75 -219q-106 -141 -288 -141zM418 23q62 0 110.5 24.5t75.5 60t44 81t22 81t5 67.5q0 78 -26 146t-66 111t-86 67t-89 24q-1 0 -9.5 0.5
t-15.5 0t-19.5 -1.5t-25 -5t-27 -10t-30.5 -17t-31 -26q-48 -46 -74 -114t-26 -133q0 -75 20 -137.5t50 -102t67 -66.5t70.5 -38.5t60.5 -11.5zM355 769l-12 16q-4 4 2 8l137 113q25 20 41 20q15 0 25.5 -10.5t10.5 -24.5q0 -25 -29 -40l-168 -82q-4 -3 -7 0z" />
    <glyph glyph-name="Ocircumflex" unicode="&#xd4;" horiz-adv-x="821" 
d="M410 -15q-110 0 -215 65q-59 36 -103 115.5t-44 181.5q0 137 93 249q104 127 271 127q129 0 224 -79q137 -118 137 -299q0 -118 -75 -219q-106 -141 -288 -141zM418 23q62 0 110.5 24.5t75.5 60t44 81t22 81t5 67.5q0 78 -26 146t-66 111t-86 67t-89 24q-1 0 -9.5 0.5
t-15.5 0t-19.5 -1.5t-25 -5t-27 -10t-30.5 -17t-31 -26q-48 -46 -74 -114t-26 -133q0 -75 20 -137.5t50 -102t67 -66.5t70.5 -38.5t60.5 -11.5zM535 770l-128 57l-119 -57q-7 -3 -10 0l-8 10q-2 4 3 9l123 111q11 9 13 9q3 0 14 -9l127 -112q4 -4 1 -8l-7 -9q-3 -4 -9 -1z
" />
    <glyph glyph-name="Otilde" unicode="&#xd5;" horiz-adv-x="821" 
d="M410 -15q-110 0 -215 65q-59 36 -103 115.5t-44 181.5q0 137 93 249q104 127 271 127q129 0 224 -79q137 -118 137 -299q0 -118 -75 -219q-106 -141 -288 -141zM418 23q62 0 110.5 24.5t75.5 60t44 81t22 81t5 67.5q0 78 -26 146t-66 111t-86 67t-89 24q-1 0 -9.5 0.5
t-15.5 0t-19.5 -1.5t-25 -5t-27 -10t-30.5 -17t-31 -26q-48 -46 -74 -114t-26 -133q0 -75 20 -137.5t50 -102t67 -66.5t70.5 -38.5t60.5 -11.5zM287 782h-18q-7 0 -3 17q7 39 29 62t52 23q14 0 80 -16q46 -13 68 -13q24 0 33 34q2 6 7 6h17q7 0 3 -18q-7 -33 -26.5 -55.5
t-50.5 -22.5q-13 0 -25 2.5t-31.5 8t-26.5 7.5q-33 10 -62 10q-12 0 -23.5 -11t-15.5 -29q-1 -5 -7 -5z" />
    <glyph glyph-name="Odieresis" unicode="&#xd6;" horiz-adv-x="821" 
d="M410 -15q-110 0 -215 65q-59 36 -103 115.5t-44 181.5q0 137 93 249q104 127 271 127q129 0 224 -79q137 -118 137 -299q0 -118 -75 -219q-106 -141 -288 -141zM418 23q62 0 110.5 24.5t75.5 60t44 81t22 81t5 67.5q0 78 -26 146t-66 111t-86 67t-89 24q-1 0 -9.5 0.5
t-15.5 0t-19.5 -1.5t-25 -5t-27 -10t-30.5 -17t-31 -26q-48 -46 -74 -114t-26 -133q0 -75 20 -137.5t50 -102t67 -66.5t70.5 -38.5t60.5 -11.5zM315 880q17 0 30.5 -13t13.5 -35q0 -20 -13 -32.5t-31 -12.5t-35 11.5t-17 37.5q0 14 12.5 29t39.5 15zM514 880q18 0 31.5 -13
t13.5 -35q0 -20 -13 -32.5t-32 -12.5q-18 0 -35 11.5t-17 37.5q0 14 12.5 29t39.5 15z" />
    <glyph glyph-name="multiply" unicode="&#xd7;" 
d="M433 101l-41 -42l-145 146l-145 -146l-35 42l143 141l-142 140l40 41l143 -144l143 144l38 -37l-144 -142z" />
    <glyph glyph-name="Oslash" unicode="&#xd8;" horiz-adv-x="821" 
d="M72 -10l-20 19q-4 6 -4 7t4 9l80 81q-84 100 -84 241q0 137 93 249q104 127 271 127q129 0 224 -79q5 -4 14 -13l87 88q4 4 6 4q1 0 5 -4l25 -20q5 -5 5 -6t-1.5 -2.5t-1.5 -2.5l-91 -93q89 -105 89 -250q0 -118 -75 -219q-106 -141 -288 -141q-110 0 -215 65
q-12 7 -28 21l-79 -80q-6 -6 -8 -6q-3 0 -8 5zM625 535l-399 -404q42 -53 96 -80.5t96 -27.5q62 0 110.5 24.5t75.5 60t44 81t22 81t5 67.5q0 110 -50 198zM199 174l398 403q-41 52 -91.5 80t-97.5 28q-1 0 -8 0.5t-12.5 0t-16 -1.5t-20 -3t-22.5 -6.5t-24.5 -10.5t-26 -16
t-27.5 -23q-49 -45 -75 -113t-26 -133q0 -118 49 -205z" />
    <glyph glyph-name="Ugrave" unicode="&#xd9;" horiz-adv-x="746" 
d="M370 -15q-86 0 -135 21q-94 38 -119 134q-16 60 -16 243v238q0 28 -8 39.5t-30 11.5h-47q-7 0 -7 9v22q0 8 9 8q2 0 20.5 -0.5t50.5 -1.5t66 -1t65.5 1t50 1.5t21.5 0.5q9 0 9 -6v-26q0 -7 -8 -7h-50q-21 0 -33.5 -12t-14.5 -29q-2 -18 -2 -130v-66q0 -52 5 -212
q2 -82 32 -127q49 -72 159 -72q97 0 150 55q52 56 52 176v214q0 117 -5 159q-2 20 -14 32t-31 12h-44q-7 0 -7 8v24q0 7 7 7q3 0 20 -0.5t45.5 -1.5t57.5 -1q30 0 55.5 1t39 1.5t15.5 0.5q10 0 10 -7v-22q0 -10 -6 -10h-41q-6 0 -11 -1t-9 -3t-7 -4t-5 -5t-3.5 -5t-3 -6
t-2 -6t-1.5 -5.5t-1 -4.5q-2 -10 -2 -166q0 -163 -5 -228q-9 -129 -84 -193q-65 -60 -188 -60zM440 783l-12 -14q-3 -3 -8 0l-167 82q-29 15 -29 40q0 14 10.5 24.5t25.5 10.5q16 0 41 -20l139 -114q4 -4 0 -9z" />
    <glyph glyph-name="Uacute" unicode="&#xda;" horiz-adv-x="746" 
d="M370 -15q-86 0 -135 21q-94 38 -119 134q-16 60 -16 243v238q0 28 -8 39.5t-30 11.5h-47q-7 0 -7 9v22q0 8 9 8q2 0 20.5 -0.5t50.5 -1.5t66 -1t65.5 1t50 1.5t21.5 0.5q9 0 9 -6v-26q0 -7 -8 -7h-50q-21 0 -33.5 -12t-14.5 -29q-2 -18 -2 -130v-66q0 -52 5 -212
q2 -82 32 -127q49 -72 159 -72q97 0 150 55q52 56 52 176v214q0 117 -5 159q-2 20 -14 32t-31 12h-44q-7 0 -7 8v24q0 7 7 7q3 0 20 -0.5t45.5 -1.5t57.5 -1q30 0 55.5 1t39 1.5t15.5 0.5q10 0 10 -7v-22q0 -10 -6 -10h-41q-6 0 -11 -1t-9 -3t-7 -4t-5 -5t-3.5 -5t-3 -6
t-2 -6t-1.5 -5.5t-1 -4.5q-2 -10 -2 -166q0 -163 -5 -228q-9 -129 -84 -193q-65 -60 -188 -60zM368 769l-12 16q-4 4 2 8l137 113q25 20 41 20q15 0 25.5 -10.5t10.5 -24.5q0 -25 -29 -40l-168 -82q-4 -3 -7 0z" />
    <glyph glyph-name="Ucircumflex" unicode="&#xdb;" horiz-adv-x="746" 
d="M370 -15q-86 0 -135 21q-94 38 -119 134q-16 60 -16 243v238q0 28 -8 39.5t-30 11.5h-47q-7 0 -7 9v22q0 8 9 8q2 0 20.5 -0.5t50.5 -1.5t66 -1t65.5 1t50 1.5t21.5 0.5q9 0 9 -6v-26q0 -7 -8 -7h-50q-21 0 -33.5 -12t-14.5 -29q-2 -18 -2 -130v-66q0 -52 5 -212
q2 -82 32 -127q49 -72 159 -72q97 0 150 55q52 56 52 176v214q0 117 -5 159q-2 20 -14 32t-31 12h-44q-7 0 -7 8v24q0 7 7 7q3 0 20 -0.5t45.5 -1.5t57.5 -1q30 0 55.5 1t39 1.5t15.5 0.5q10 0 10 -7v-22q0 -10 -6 -10h-41q-6 0 -11 -1t-9 -3t-7 -4t-5 -5t-3.5 -5t-3 -6
t-2 -6t-1.5 -5.5t-1 -4.5q-2 -10 -2 -166q0 -163 -5 -228q-9 -129 -84 -193q-65 -60 -188 -60zM518 770l-128 57l-119 -57q-7 -3 -10 0l-8 10q-2 4 3 9l123 111q11 9 13 9q3 0 14 -9l127 -112q4 -4 1 -8l-7 -9q-3 -4 -9 -1z" />
    <glyph glyph-name="Udieresis" unicode="&#xdc;" horiz-adv-x="746" 
d="M370 -15q-86 0 -135 21q-94 38 -119 134q-16 60 -16 243v238q0 28 -8 39.5t-30 11.5h-47q-7 0 -7 9v22q0 8 9 8q2 0 20.5 -0.5t50.5 -1.5t66 -1t65.5 1t50 1.5t21.5 0.5q9 0 9 -6v-26q0 -7 -8 -7h-50q-21 0 -33.5 -12t-14.5 -29q-2 -18 -2 -130v-66q0 -52 5 -212
q2 -82 32 -127q49 -72 159 -72q97 0 150 55q52 56 52 176v214q0 117 -5 159q-2 20 -14 32t-31 12h-44q-7 0 -7 8v24q0 7 7 7q3 0 20 -0.5t45.5 -1.5t57.5 -1q30 0 55.5 1t39 1.5t15.5 0.5q10 0 10 -7v-22q0 -10 -6 -10h-41q-6 0 -11 -1t-9 -3t-7 -4t-5 -5t-3.5 -5t-3 -6
t-2 -6t-1.5 -5.5t-1 -4.5q-2 -10 -2 -166q0 -163 -5 -228q-9 -129 -84 -193q-65 -60 -188 -60zM287 880q17 0 30.5 -13t13.5 -35q0 -20 -13 -32.5t-31 -12.5t-35 11.5t-17 37.5q0 14 12.5 29t39.5 15zM486 880q18 0 31.5 -13t13.5 -35q0 -20 -13 -32.5t-32 -12.5
q-18 0 -35 11.5t-17 37.5q0 14 12.5 29t39.5 15z" />
    <glyph glyph-name="Yacute" unicode="&#xdd;" horiz-adv-x="665" 
d="M369 317v-131q0 -71 4 -115q2 -22 12 -28.5t32 -6.5h39q7 0 7 -7v-23q0 -9 -7 -9q-3 0 -19.5 0.5t-47.5 1.5t-68 1q-40 0 -70 -0.5t-45 -1.5t-17 -1q-6 0 -6 8v24q0 7 7 7h49q33 0 35 25q3 42 3 186v58q-13 26 -101 173t-107 170q-21 24 -52 24h-25q-7 0 -7 7v26q0 6 7 6
q2 0 19 -0.5t44 -1.5t54 -1q45 0 80 1t51 1.5t18 0.5q7 0 7 -5v-25q0 -9 -7 -9h-33q-22 0 -27.5 -7t-2.5 -26q1 -7 32.5 -65.5t72.5 -132t51 -92.5q10 15 59.5 90t84.5 130.5t37 63.5q7 13 1 26t-34 13h-27q-7 0 -7 9v24q0 6 7 6q3 0 18.5 -0.5t43 -1.5t56.5 -1q26 0 46.5 1
t31 1.5t12.5 0.5q8 0 8 -6v-24q0 -9 -8 -9h-25q-26 0 -49 -22q-20 -19 -237 -333zM352 769l-12 16q-4 4 2 8l137 113q25 20 41 20q15 0 25.5 -10.5t10.5 -24.5q0 -25 -29 -40l-168 -82q-4 -3 -7 0z" />
    <glyph glyph-name="Thorn" unicode="&#xde;" horiz-adv-x="607" 
d="M225 184v-33q0 -55 2 -83q3 -32 35 -32h62q8 0 8 -7v-24q0 -8 -9 -8q-4 0 -19.5 0.5t-47 1.5t-72.5 1q-42 0 -74 -0.5t-47 -1.5t-17 -1q-8 0 -8 7v25q0 7 6 7h46q23 0 31 6t10 26q4 40 4 282v115q0 165 -2 185q-1 22 -43 22h-52q-7 0 -7 8v24q0 7 6 7q2 0 17.5 -0.5
t49.5 -1.5t79 -1q38 0 70 1t49.5 1.5t21.5 0.5q8 0 8 -8v-20q0 -11 -10 -11h-60q-33 0 -34 -15q-3 -27 -3 -92q52 2 64 2q83 0 130 -10t88 -39q71 -51 71 -141q0 -91 -66 -144.5t-178 -53.5q-69 0 -109 5zM225 529v-308q29 -10 92 -10q67 0 112 45.5t45 115.5q0 45 -19.5 79
t-48.5 51t-55.5 25t-47.5 8q-54 0 -78 -6z" />
    <glyph glyph-name="germandbls" unicode="&#xdf;" horiz-adv-x="553" 
d="M179 437v-157q0 -210 1 -223t5.5 -18.5t16.5 -5.5h32q11 0 11 -8v-16q0 -12 -7 -12q-2 0 -17 0.5t-36.5 1.5t-37.5 1q-22 0 -68 -2l-46 -1q-8 0 -8 7v22q0 7 10 7h47q14 0 19 8t6 28v187v99l-59 3q-6 1 -6 8v19q0 6 8 7l57 5v37q0 133 69 209q35 38 76 59t75 21
q45 0 81.5 -30.5t36.5 -80.5q0 -76 -59 -143q-53 -60 -53 -106q0 -13 4 -23.5t17 -21t20 -15t30 -16.5t30 -16q49 -28 72.5 -59.5t22.5 -88.5q-1 -56 -42.5 -95.5t-108.5 -39.5q-20 0 -45 10t-37 19q-4 3 -6 14l-8 63q-1 10 4 11l18 4q4 1 8 -7l12 -28q28 -54 74 -54
q27 0 50.5 18.5t23.5 52.5q0 77 -73 113q-31 16 -47 25.5t-37 26t-30 36.5t-9 45q0 28 12.5 54.5t36 57t25.5 34.5q28 44 28 107q0 33 -24.5 58t-59.5 25q-44 0 -77 -34q-7 -7 -12.5 -16t-9.5 -21t-6.5 -20.5t-4.5 -24t-3 -23t-1.5 -26t-0.5 -23.5v-25.5v-22.5z" />
    <glyph glyph-name="agrave" unicode="&#xe0;" horiz-adv-x="427" 
d="M336 178v-59q0 -75 30 -75q24 0 35 15q6 7 10 4l10 -8q6 -6 -1 -18q-26 -49 -78 -49q-27 0 -45.5 18t-25.5 49h-2q-33 -39 -99 -61q-19 -6 -59 -6q-22 0 -41 20t-19 63q0 77 100 121q95 42 113 58v64q-5 46 -14 56q-19 22 -60 22q-42 0 -65 -21q-6 -6 -7.5 -12.5
t0.5 -17.5t2 -16q0 -57 -53 -57q-24 0 -24 32q0 24 19 50t50 44q59 35 122 35q51 0 80 -27q22 -22 22 -71v-153zM263 97v123q-7 -5 -47.5 -24.5t-63.5 -44t-23 -61.5q0 -27 14.5 -41t37.5 -14t52.5 21.5t29.5 40.5zM271 497l-12 -11q-3 -3 -6 0l-132 94q-26 20 -18 43t32 23
q21 0 41 -25l96 -119q2 -4 -1 -5z" />
    <glyph glyph-name="aacute" unicode="&#xe1;" horiz-adv-x="427" 
d="M336 178v-59q0 -75 30 -75q24 0 35 15q6 7 10 4l10 -8q6 -6 -1 -18q-26 -49 -78 -49q-27 0 -45.5 18t-25.5 49h-2q-33 -39 -99 -61q-19 -6 -59 -6q-22 0 -41 20t-19 63q0 77 100 121q95 42 113 58v64q-5 46 -14 56q-19 22 -60 22q-42 0 -65 -21q-6 -6 -7.5 -12.5
t0.5 -17.5t2 -16q0 -57 -53 -57q-24 0 -24 32q0 24 19 50t50 44q59 35 122 35q51 0 80 -27q22 -22 22 -71v-153zM263 97v123q-7 -5 -47.5 -24.5t-63.5 -44t-23 -61.5q0 -27 14.5 -41t37.5 -14t52.5 21.5t29.5 40.5zM171 486l-12 10q-3 3 0 6l96 119q21 25 42 25
q23 0 30.5 -22.5t-19.5 -43.5l-131 -94q-3 -3 -6 0z" />
    <glyph glyph-name="acircumflex" unicode="&#xe2;" horiz-adv-x="427" 
d="M336 178v-59q0 -75 30 -75q24 0 35 15q6 7 10 4l10 -8q6 -6 -1 -18q-26 -49 -78 -49q-27 0 -45.5 18t-25.5 49h-2q-33 -39 -99 -61q-19 -6 -59 -6q-22 0 -41 20t-19 63q0 77 100 121q95 42 113 58v64q-5 46 -14 56q-19 22 -60 22q-42 0 -65 -21q-6 -6 -7.5 -12.5
t0.5 -17.5t2 -16q0 -57 -53 -57q-24 0 -24 32q0 24 19 50t50 44q59 35 122 35q51 0 80 -27q22 -22 22 -71v-153zM263 97v123q-7 -5 -47.5 -24.5t-63.5 -44t-23 -61.5q0 -27 14.5 -41t37.5 -14t52.5 21.5t29.5 40.5zM315 488l-109 77l-101 -76q-6 -4 -9 -1l-9 9q-3 3 3 10
l105 131q9 9 12 9q5 0 13 -10l110 -131q5 -5 2 -8l-8 -9q-3 -5 -9 -1z" />
    <glyph glyph-name="atilde" unicode="&#xe3;" horiz-adv-x="427" 
d="M336 178v-59q0 -75 30 -75q24 0 35 15q6 7 10 4l10 -8q6 -6 -1 -18q-26 -49 -78 -49q-27 0 -45.5 18t-25.5 49h-2q-33 -39 -99 -61q-19 -6 -59 -6q-22 0 -41 20t-19 63q0 77 100 121q95 42 113 58v64q-5 46 -14 56q-19 22 -60 22q-42 0 -65 -21q-6 -6 -7.5 -12.5
t0.5 -17.5t2 -16q0 -57 -53 -57q-24 0 -24 32q0 24 19 50t50 44q59 35 122 35q51 0 80 -27q22 -22 22 -71v-153zM263 97v123q-7 -5 -47.5 -24.5t-63.5 -44t-23 -61.5q0 -27 14.5 -41t37.5 -14t52.5 21.5t29.5 40.5zM328 607h17q7 0 3 -18q-7 -32 -26.5 -54t-50.5 -22
q-22 0 -73 17q-32 11 -62 11q-13 0 -24 -11t-15 -31q-1 -5 -7 -5h-18q-7 0 -3 17q7 39 28 61t49 22q26 0 74 -15q44 -14 68 -14q25 0 33 36q1 6 7 6z" />
    <glyph glyph-name="adieresis" unicode="&#xe4;" horiz-adv-x="427" 
d="M336 331v-212q0 -75 30 -75q24 0 35 15q6 7 10 4l10 -8q6 -6 -1 -18q-26 -49 -78 -49q-27 0 -45.5 18t-25.5 49h-2q-33 -39 -99 -61q-19 -6 -59 -6q-22 0 -41 20t-19 63q0 77 100 121q95 42 113 58v64q-5 46 -14 56q-19 22 -60 22q-42 0 -65 -21q-6 -6 -7.5 -12.5
t0.5 -17.5t2 -16q0 -57 -53 -57q-24 0 -24 32q0 24 19 50t50 44q59 35 122 35q51 0 80 -27q22 -22 22 -71zM263 97v123q-7 -5 -47.5 -24.5t-63.5 -44t-23 -61.5q0 -27 14.5 -41t37.5 -14t52.5 21.5t29.5 40.5zM132 637q18 0 31.5 -13.5t13.5 -35.5q0 -19 -13.5 -31.5
t-31.5 -12.5t-34.5 11.5t-16.5 36.5q0 14 12.5 29.5t38.5 15.5zM302 637q18 0 31 -13.5t13 -35.5q0 -19 -13 -31.5t-31 -12.5t-35 11.5t-17 36.5q0 14 12.5 29.5t39.5 15.5z" />
    <glyph glyph-name="aring" unicode="&#xe5;" horiz-adv-x="427" 
d="M336 178v-59q0 -75 30 -75q24 0 35 15q6 7 10 4l10 -8q6 -6 -1 -18q-26 -49 -78 -49q-27 0 -45.5 18t-25.5 49h-2q-33 -39 -99 -61q-19 -6 -59 -6q-22 0 -41 20t-19 63q0 77 100 121q95 42 113 58v64q-5 46 -14 56q-19 22 -60 22q-42 0 -65 -21q-6 -6 -7.5 -12.5
t0.5 -17.5t2 -16q0 -57 -53 -57q-24 0 -24 32q0 24 19 50t50 44q59 35 122 35q51 0 80 -27q22 -22 22 -71v-153zM263 97v123q-7 -5 -47.5 -24.5t-63.5 -44t-23 -61.5q0 -27 14.5 -41t37.5 -14t52.5 21.5t29.5 40.5zM201 495q-41 0 -65 19t-24 47q0 33 27 54t71 21
q41 0 65 -19t24 -46q0 -35 -26.5 -55.5t-71.5 -20.5zM205 519q45 0 45 48q0 19 -12 31.5t-29 12.5q-21 0 -34.5 -13.5t-13.5 -33.5t12 -32.5t32 -12.5z" />
    <glyph glyph-name="ae" unicode="&#xe6;" horiz-adv-x="635" 
d="M576 263l-239 -21q-2 -11 -2 -34q0 -61 34 -111t95 -50q77 0 116 60q10 14 15 11l11 -6q5 -3 0 -15q-20 -47 -63.5 -78t-93.5 -31q-90 0 -156 81h-4q-48 -59 -107 -75q-24 -6 -66 -6q-27 0 -46 24t-19 64q0 70 102 118q107 49 112 52v65q0 40 -17 60q-16 21 -58 21
q-40 0 -65 -20q-8 -7 -9 -15t1.5 -20t2.5 -17q0 -52 -49 -52q-28 0 -28 27q0 56 70 100q53 34 114 34q51 0 78 -25q13 -13 18 -37q32 36 63 49t70 13q40 0 70.5 -16.5t45.5 -41t22 -46.5t7 -40q0 -21 -25 -22zM129 94q0 -59 50 -59q23 0 52 18.5t48 49.5q-15 43 -15 111
q-6 -3 -29 -13t-37 -18t-32 -21t-27.5 -30.5t-9.5 -37.5zM341 271l142 17q34 5 34 30q0 28 -19.5 54.5t-56.5 26.5q-75 0 -100 -128z" />
    <glyph glyph-name="ccedilla" unicode="&#xe7;" horiz-adv-x="417" 
d="M161 -95l65 84q-91 0 -146 69q-45 60 -45 136q0 93 59.5 164t154.5 71q36 0 64.5 -9.5t43 -23.5t21.5 -26.5t7 -21.5q-2 -35 -37 -35q-33 0 -55 40q-15 28 -30 36t-37 8q-47 0 -82.5 -41t-35.5 -114q0 -82 51 -152q39 -51 109 -51q37 0 60.5 9.5t49.5 33.5q4 4 8 0
l10 -10q6 -6 0 -13q-47 -53 -123 -67l-48 -60q25 -7 43.5 -26.5t18.5 -41.5q0 -44 -49.5 -72t-103.5 -28q-20 0 -20 20q0 14 32 14q28 0 54.5 15t26.5 41q0 39 -66 51z" />
    <glyph glyph-name="egrave" unicode="&#xe8;" horiz-adv-x="426" 
d="M362 266h-247q-3 -14 -3 -48q0 -73 41 -122.5t101 -49.5q43 0 75 20t46 48q3 7 9 5l13 -7q6 -2 0 -15q-18 -40 -59 -74.5t-100 -34.5q-108 0 -157 71q-26 38 -35 71.5t-9 86.5q0 96 63 159q52 53 143 53q40 0 71 -17t46 -42.5t22.5 -48t7.5 -39.5q0 -16 -28 -16zM119 296
h155q27 0 27 14q0 16 -5 34t-23.5 36.5t-48.5 18.5q-35 0 -63 -25t-42 -78zM290 497l-12 -11q-3 -3 -6 0l-132 94q-26 20 -18 43t32 23q21 0 41 -25l96 -119q2 -4 -1 -5z" />
    <glyph glyph-name="eacute" unicode="&#xe9;" horiz-adv-x="426" 
d="M362 266h-247q-3 -14 -3 -48q0 -73 41 -122.5t101 -49.5q43 0 75 20t46 48q3 7 9 5l13 -7q6 -2 0 -15q-18 -40 -59 -74.5t-100 -34.5q-108 0 -157 71q-26 38 -35 71.5t-9 86.5q0 96 63 159q52 53 143 53q40 0 71 -17t46 -42.5t22.5 -48t7.5 -39.5q0 -16 -28 -16zM119 296
h155q27 0 27 14q0 16 -5 34t-23.5 36.5t-48.5 18.5q-35 0 -63 -25t-42 -78zM190 486l-12 10q-3 3 0 6l96 119q21 25 42 25q23 0 30.5 -22.5t-19.5 -43.5l-131 -94q-3 -3 -6 0z" />
    <glyph glyph-name="ecircumflex" unicode="&#xea;" horiz-adv-x="426" 
d="M362 266h-247q-3 -14 -3 -48q0 -73 41 -122.5t101 -49.5q43 0 75 20t46 48q3 7 9 5l13 -7q6 -2 0 -15q-18 -40 -59 -74.5t-100 -34.5q-108 0 -157 71q-26 38 -35 71.5t-9 86.5q0 96 63 159q52 53 143 53q40 0 71 -17t46 -42.5t22.5 -48t7.5 -39.5q0 -16 -28 -16zM119 296
h155q27 0 27 14q0 16 -5 34t-23.5 36.5t-48.5 18.5q-35 0 -63 -25t-42 -78zM339 488l-109 77l-101 -76q-6 -4 -9 -1l-9 9q-3 3 3 10l105 131q9 9 12 9q5 0 13 -10l110 -131q5 -5 2 -8l-8 -9q-3 -5 -9 -1z" />
    <glyph glyph-name="edieresis" unicode="&#xeb;" horiz-adv-x="426" 
d="M362 266h-247q-3 -14 -3 -48q0 -73 41 -122.5t101 -49.5q43 0 75 20t46 48q3 7 9 5l13 -7q6 -2 0 -15q-18 -40 -59 -74.5t-100 -34.5q-108 0 -157 71q-26 38 -35 71.5t-9 86.5q0 96 63 159q52 53 143 53q40 0 71 -17t46 -42.5t22.5 -48t7.5 -39.5q0 -16 -28 -16zM119 296
h155q27 0 27 14q0 16 -5 34t-23.5 36.5t-48.5 18.5q-35 0 -63 -25t-42 -78zM152 637q18 0 31.5 -13.5t13.5 -35.5q0 -19 -13.5 -31.5t-31.5 -12.5t-34.5 11.5t-16.5 36.5q0 14 12.5 29.5t38.5 15.5zM322 637q18 0 31 -13.5t13 -35.5q0 -19 -13 -31.5t-31 -12.5t-35 11.5
t-17 36.5q0 14 12.5 29.5t39.5 15.5z" />
    <glyph glyph-name="igrave" unicode="&#xec;" horiz-adv-x="267" 
d="M102 144v147q0 28 -10.5 41t-45.5 19q-9 1 -9 7v9q0 4 7 7q60 23 108 49q12 6 19 6t5 -12q-2 -17 -2 -163v-109q0 -75 1 -86q3 -26 16 -26h46q10 0 10 -9v-17q0 -10 -9 -10q-2 0 -17.5 0.5t-38 1.5t-40.5 1q-25 0 -49.5 -0.5t-40 -1.5t-18.5 -1q-8 0 -8 8v20q0 8 10 8h49
q15 0 16 20q1 30 1 91zM196 497l-12 -11q-3 -3 -6 0l-132 94q-26 20 -18 43t32 23q21 0 41 -25l96 -119q2 -4 -1 -5z" />
    <glyph glyph-name="iacute" unicode="&#xed;" horiz-adv-x="267" 
d="M102 144v147q0 28 -10.5 41t-45.5 19q-9 1 -9 7v9q0 4 7 7q60 23 108 49q12 6 19 6t5 -12q-2 -17 -2 -163v-109q0 -75 1 -86q3 -26 16 -26h46q10 0 10 -9v-17q0 -10 -9 -10q-2 0 -17.5 0.5t-38 1.5t-40.5 1q-25 0 -49.5 -0.5t-40 -1.5t-18.5 -1q-8 0 -8 8v20q0 8 10 8h49
q15 0 16 20q1 30 1 91zM101 486l-12 10q-3 3 0 6l96 119q21 25 42 25q23 0 30.5 -22.5t-19.5 -43.5l-131 -94q-3 -3 -6 0z" />
    <glyph glyph-name="icircumflex" unicode="&#xee;" horiz-adv-x="267" 
d="M102 144v147q0 28 -10.5 41t-45.5 19q-9 1 -9 7v9q0 4 7 7q60 23 108 49q12 6 19 6t5 -12q-2 -17 -2 -163v-109q0 -75 1 -86q3 -26 16 -26h46q10 0 10 -9v-17q0 -10 -9 -10q-2 0 -17.5 0.5t-38 1.5t-40.5 1q-25 0 -49.5 -0.5t-40 -1.5t-18.5 -1q-8 0 -8 8v20q0 8 10 8h49
q15 0 16 20q1 30 1 91zM244 488l-109 77l-101 -76q-6 -4 -9 -1l-9 9q-4 3 3 10l105 131q9 9 12 9q5 0 13 -10l110 -131q5 -5 2 -8l-8 -9q-3 -5 -9 -1z" />
    <glyph glyph-name="idieresis" unicode="&#xef;" horiz-adv-x="267" 
d="M102 144v147q0 28 -10.5 41t-45.5 19q-9 1 -9 7v9q0 4 7 7q60 23 108 49q12 6 19 6t5 -12q-2 -17 -2 -163v-109q0 -75 1 -86q3 -26 16 -26h46q10 0 10 -9v-17q0 -10 -9 -10q-2 0 -17.5 0.5t-38 1.5t-40.5 1q-25 0 -49.5 -0.5t-40 -1.5t-18.5 -1q-8 0 -8 8v20q0 8 10 8h49
q15 0 16 20q1 30 1 91zM52 637q18 0 31.5 -13.5t13.5 -35.5q0 -19 -13.5 -31.5t-31.5 -12.5t-34.5 11.5t-16.5 36.5q0 14 12.5 29.5t38.5 15.5zM222 637q18 0 31 -13.5t13 -35.5q0 -19 -13 -31.5t-31 -12.5t-35 11.5t-17 36.5q0 14 12.5 29.5t39.5 15.5z" />
    <glyph glyph-name="eth" unicode="&#xf0;" horiz-adv-x="488" 
d="M232 18q48 0 78 35t40.5 82t10.5 106q0 93 -29.5 125.5t-76.5 32.5q-51 0 -92 -37q-24 -22 -37.5 -65t-13.5 -91q0 -71 34 -132q16 -26 40 -41t46 -15zM103 555l109 60q-49 46 -99 66q-16 6 -16 11q0 4 3 9l9 18q1 4 5 4q5 0 8 -1q62 -23 140 -77l107 61q9 4 12 -1
l13 -23q4 -8 -3 -12l-97 -53q25 -21 59 -67q79 -103 85 -273q2 -55 -9.5 -105t-36 -92t-68.5 -67t-101 -25q-70 0 -112 33q-74 56 -74 177q0 46 21.5 96.5t64.5 84.5q63 50 134 50q48 0 88 -31l2 2q-25 90 -71 147q-11 18 -33 41l-118 -69q-6 -3 -11 3l-14 23q-3 6 3 10z
" />
    <glyph glyph-name="ntilde" unicode="&#xf1;" horiz-adv-x="532" 
d="M448 312v-258q0 -21 22 -21h32q11 0 11 -9v-16q0 -11 -8 -11q-2 0 -14 0.5t-34 1.5t-47 1q-22 0 -43 -0.5t-33 -1.5t-14 -1q-8 0 -8 11v16q0 9 13 9h29q19 0 20 23q2 52 2 84v132q0 25 -1 37.5t-7.5 27.5t-20.5 25q-24 18 -73 18q-44 0 -81 -39q-23 -25 -23 -68v-207
q0 -21 4.5 -27t19.5 -6h25q10 0 10 -10v-17q0 -9 -7 -9q-2 0 -13 0.5t-31 1.5t-43 1t-43.5 -0.5t-32.5 -1.5t-13 -1q-7 0 -7 9v18q0 9 10 9h29q11 0 15.5 4t4.5 16v234q0 39 -41 59l-8 4q-8 3 -8 9v5q0 6 9 10l86 48q14 7 18 7q6 0 8 -12l7 -61h2q23 29 62 51t75 22
q52 0 85 -22q21 -14 38 -44.5t17 -50.5zM386 607h17q7 0 3 -18q-7 -32 -26.5 -54t-50.5 -22q-22 0 -73 17q-32 11 -62 11q-13 0 -24 -11t-15 -31q-1 -5 -7 -5h-18q-7 0 -3 17q7 39 28 61t49 22q26 0 74 -15q44 -14 68 -14q25 0 33 36q1 6 7 6z" />
    <glyph glyph-name="ograve" unicode="&#xf2;" horiz-adv-x="498" 
d="M242 -12q-94 0 -152 69q-33 40 -44 74t-11 89q0 41 22 84.5t64 76.5q62 48 134 48q39 0 77.5 -17t62.5 -41q68 -70 68 -163q0 -84 -65.5 -152t-155.5 -68zM254 18q55 0 90 58.5t35 141.5q0 77 -44 129t-88 52q-47 0 -77 -32q-29 -30 -41 -65t-12 -92q0 -45 7.5 -76
t30.5 -64q36 -52 99 -52zM306 497l-12 -11q-3 -3 -6 0l-132 94q-26 20 -18 43t32 23q21 0 41 -25l96 -119q2 -4 -1 -5z" />
    <glyph glyph-name="oacute" unicode="&#xf3;" horiz-adv-x="498" 
d="M242 -12q-94 0 -152 69q-33 40 -44 74t-11 89q0 41 22 84.5t64 76.5q62 48 134 48q39 0 77.5 -17t62.5 -41q68 -70 68 -163q0 -84 -65.5 -152t-155.5 -68zM254 18q55 0 90 58.5t35 141.5q0 77 -44 129t-88 52q-47 0 -77 -32q-29 -30 -41 -65t-12 -92q0 -45 7.5 -76
t30.5 -64q36 -52 99 -52zM226 486l-12 10q-3 3 0 6l96 119q21 25 42 25q23 0 30.5 -22.5t-19.5 -43.5l-131 -94q-3 -3 -6 0z" />
    <glyph glyph-name="ocircumflex" unicode="&#xf4;" horiz-adv-x="498" 
d="M242 -12q-94 0 -152 69q-33 40 -44 74t-11 89q0 41 22 84.5t64 76.5q62 48 134 48q39 0 77.5 -17t62.5 -41q68 -70 68 -163q0 -84 -65.5 -152t-155.5 -68zM254 18q55 0 90 58.5t35 141.5q0 77 -44 129t-88 52q-47 0 -77 -32q-29 -30 -41 -65t-12 -92q0 -45 7.5 -76
t30.5 -64q36 -52 99 -52zM355 488l-109 77l-101 -76q-6 -4 -9 -1l-9 9q-3 3 3 10l105 131q9 9 12 9q5 0 13 -10l110 -131q5 -5 2 -8l-8 -9q-3 -5 -9 -1z" />
    <glyph glyph-name="otilde" unicode="&#xf5;" horiz-adv-x="498" 
d="M242 -12q-94 0 -152 69q-33 40 -44 74t-11 89q0 41 22 84.5t64 76.5q62 48 134 48q39 0 77.5 -17t62.5 -41q68 -70 68 -163q0 -84 -65.5 -152t-155.5 -68zM254 18q55 0 90 58.5t35 141.5q0 77 -44 129t-88 52q-47 0 -77 -32q-29 -30 -41 -65t-12 -92q0 -45 7.5 -76
t30.5 -64q36 -52 99 -52zM369 607h17q7 0 3 -18q-7 -32 -26.5 -54t-50.5 -22q-22 0 -73 17q-32 11 -62 11q-13 0 -24 -11t-15 -31q-1 -5 -7 -5h-18q-7 0 -3 17q7 39 28 61t49 22q27 0 74 -15q44 -14 68 -14q25 0 33 36q2 6 7 6z" />
    <glyph glyph-name="odieresis" unicode="&#xf6;" horiz-adv-x="498" 
d="M242 -12q-94 0 -152 69q-33 40 -44 74t-11 89q0 41 22 84.5t64 76.5q62 48 134 48q39 0 77.5 -17t62.5 -41q68 -70 68 -163q0 -84 -65.5 -152t-155.5 -68zM254 18q55 0 90 58.5t35 141.5q0 77 -44 129t-88 52q-47 0 -77 -32q-29 -30 -41 -65t-12 -92q0 -45 7.5 -76
t30.5 -64q36 -52 99 -52zM168 637q18 0 31.5 -13.5t13.5 -35.5q0 -19 -13.5 -31.5t-31.5 -12.5t-34.5 11.5t-16.5 36.5q0 14 12.5 29.5t38.5 15.5zM338 637q18 0 31 -13.5t13 -35.5q0 -19 -13 -31.5t-31 -12.5t-35 11.5t-17 36.5q0 14 12.5 29.5t39.5 15.5z" />
    <glyph glyph-name="divide" unicode="&#xf7;" 
d="M56 268h388v-56h-388v56zM251 344q-24 0 -40 15t-16 37t16 36.5t40 14.5q23 0 39 -14.5t16 -36.5t-16 -37t-39 -15zM251 33q-24 0 -40 15t-16 37t16 36.5t40 14.5q23 0 39 -14.5t16 -36.5t-16 -37t-39 -15z" />
    <glyph glyph-name="oslash" unicode="&#xf8;" horiz-adv-x="498" 
d="M241 -12q-77 0 -133 49l-41 -44q-5 -5 -7 -5q-3 0 -6 3l-13 14q-5 5 -5 8t9 12l38 40q-29 38 -38.5 70.5t-9.5 84.5q0 41 22 84.5t65 74.5q63 50 133 50q35 0 69 -14t54 -34l47 44q4 4 6 4t4 -2l19 -17q3 -3 3 -5t-2 -4l-48 -48q56 -60 56 -145q0 -84 -65.5 -152
t-156.5 -68zM361 303l-213 -225l5 -9q37 -51 101 -51q57 0 91 58.5t34 141.5q0 46 -18 85zM131 114l210 224q-20 28 -46 44.5t-48 16.5q-45 0 -77 -32q-29 -30 -41 -65t-12 -92q0 -59 14 -96z" />
    <glyph glyph-name="ugrave" unicode="&#xf9;" horiz-adv-x="506" 
d="M417 278v-75q0 -97 2 -118q3 -35 26 -35q21 0 33 3q10 3 12 -4l3 -13q1 -7 -5 -9l-105 -35q-12 -4 -20 -4t-9 12l-8 58h-2q-21 -30 -60 -50t-76 -20q-59 0 -94 46q-28 37 -33.5 69.5t-5.5 126.5v117q-1 20 -10 28t-28 10q-22 1 -22 7v18q0 8 11 8h89q6 0 14 2q2 0 6 0.5
t5 0.5q13 0 11 -12q-4 -36 -4 -115v-72q0 -4 -1 -32.5t0 -42t6.5 -36.5t16.5 -39q26 -38 80 -38q19 0 45 15.5t41 34.5q10 12 10 27v239q-1 19 -11.5 26t-31.5 9q-22 0 -22 7v17q0 6 2 7.5t10 1.5h93q7 0 17 2q3 0 7 0.5t5 0.5q11 0 9 -10q-6 -54 -6 -133zM281 497l-12 -11
q-3 -3 -6 0l-132 94q-26 20 -18 43t32 23q21 0 41 -25l96 -119q2 -4 -1 -5z" />
    <glyph glyph-name="uacute" unicode="&#xfa;" horiz-adv-x="506" 
d="M417 278v-75q0 -97 2 -118q3 -35 26 -35q21 0 33 3q10 3 12 -4l3 -13q1 -7 -5 -9l-105 -35q-12 -4 -20 -4t-9 12l-8 58h-2q-21 -30 -60 -50t-76 -20q-59 0 -94 46q-28 37 -33.5 69.5t-5.5 126.5v117q-1 20 -10 28t-28 10q-22 1 -22 7v18q0 8 11 8h89q6 0 14 2q2 0 6 0.5
t5 0.5q13 0 11 -12q-4 -36 -4 -115v-72q0 -4 -1 -32.5t0 -42t6.5 -36.5t16.5 -39q26 -38 80 -38q19 0 45 15.5t41 34.5q10 12 10 27v239q-1 19 -11.5 26t-31.5 9q-22 0 -22 7v17q0 6 2 7.5t10 1.5h93q7 0 17 2q3 0 7 0.5t5 0.5q11 0 9 -10q-6 -54 -6 -133zM210 486l-12 10
q-3 3 0 6l96 119q21 25 42 25q23 0 30.5 -22.5t-19.5 -43.5l-131 -94q-3 -3 -6 0z" />
    <glyph glyph-name="ucircumflex" unicode="&#xfb;" horiz-adv-x="506" 
d="M417 278v-75q0 -97 2 -118q3 -35 26 -35q21 0 33 3q10 3 12 -4l3 -13q1 -7 -5 -9l-105 -35q-12 -4 -20 -4t-9 12l-8 58h-2q-21 -30 -60 -50t-76 -20q-59 0 -94 46q-28 37 -33.5 69.5t-5.5 126.5v117q-1 20 -10 28t-28 10q-22 1 -22 7v18q0 8 11 8h89q6 0 14 2q2 0 6 0.5
t5 0.5q13 0 11 -12q-4 -36 -4 -115v-72q0 -4 -1 -32.5t0 -42t6.5 -36.5t16.5 -39q26 -38 80 -38q19 0 45 15.5t41 34.5q10 12 10 27v239q-1 19 -11.5 26t-31.5 9q-22 0 -22 7v17q0 6 2 7.5t10 1.5h93q7 0 17 2q3 0 7 0.5t5 0.5q11 0 9 -10q-6 -54 -6 -133zM359 488l-109 77
l-101 -76q-6 -4 -9 -1l-9 9q-3 3 3 10l105 131q9 9 12 9q5 0 13 -10l110 -131q5 -5 2 -8l-8 -9q-3 -5 -9 -1z" />
    <glyph glyph-name="udieresis" unicode="&#xfc;" horiz-adv-x="506" 
d="M417 278v-75q0 -97 2 -118q3 -35 26 -35q21 0 33 3q10 3 12 -4l3 -13q1 -7 -5 -9l-105 -35q-12 -4 -20 -4t-9 12l-8 58h-2q-21 -30 -60 -50t-76 -20q-59 0 -94 46q-28 37 -33.5 69.5t-5.5 126.5v117q0 35 -38 38q-22 3 -22 7v18q0 8 11 8h89q6 0 14 2q2 0 6 0.5t5 0.5
q13 0 11 -12q-4 -36 -4 -115v-72q0 -4 -1 -32.5t0 -42t6.5 -36.5t16.5 -39q26 -38 80 -38q19 0 45 15.5t41 34.5q10 12 10 27v239q0 19 -11 26.5t-32 8.5q-22 1 -22 7v17q0 6 2 7.5t10 1.5h93q7 0 17 2q3 0 7 0.5t5 0.5q11 0 9 -10q-6 -54 -6 -133zM172 637q18 0 31.5 -13.5
t13.5 -35.5q0 -19 -13.5 -31.5t-31.5 -12.5t-34.5 11.5t-16.5 36.5q0 14 12.5 29.5t38.5 15.5zM342 637q18 0 31 -13.5t13 -35.5q0 -19 -13 -31.5t-31 -12.5t-35 11.5t-17 36.5q0 14 12.5 29.5t39.5 15.5z" />
    <glyph glyph-name="yacute" unicode="&#xfd;" horiz-adv-x="436" 
d="M56 -272q-28 0 -42.5 14t-14.5 37q0 16 14 27.5t32 11.5q8 0 17.5 -2t17.5 -5t11 -4q13 -2 21 6q10 13 39 75.5t41 95.5q-3 17 -57 177t-62 182q-7 15 -12 22.5t-14 13.5t-21 6h-26q-8 0 -8 9v20q0 7 8 7q2 0 13 -0.5t32 -1.5t47 -1q30 0 61 1.5t32 1.5q9 0 9 -7v-21
q0 -8 -6 -8h-19q-16 0 -13 -22q2 -17 38 -133t44 -132h4q8 13 53.5 122t49.5 127q9 38 -17 38h-16q-7 0 -7 8v20q0 8 6 8q2 0 28 -1.5t54 -1.5q15 0 36.5 1.5t24.5 1.5q6 0 6 -8v-19q0 -9 -5 -9h-16q-21 0 -35 -18q-19 -24 -157 -337q-99 -224 -106 -237q-9 -16 -12.5 -22
t-14.5 -19t-25 -18.5t-33 -5.5zM235 486l-12 10q-3 3 0 6l96 119q21 25 42 25q23 0 30.5 -22.5t-19.5 -43.5l-131 -94q-3 -3 -6 0z" />
    <glyph glyph-name="thorn" unicode="&#xfe;" horiz-adv-x="513" 
d="M89 -40v190q0 99 -1 209t-1 132q1 97 -41 109l-17 5q-6 2 -6 8v7q0 4 7 7l100 48q19 8 23 8q9 0 9 -20l-1 -303h2q22 29 59.5 49t81.5 20q38 0 66 -10.5t55 -41.5q2 -2 8.5 -9t8.5 -9.5t7.5 -10t7.5 -12l6 -13.5t5.5 -18t4 -21t3 -26.5t0.5 -31.5q0 -105 -60.5 -171.5
t-151.5 -66.5q-64 0 -103 19v-218q0 -29 25 -29h41q9 0 9 -10v-16q0 -9 -9 -9q-1 0 -15 0.5t-38 1.5t-50 1q-28 0 -51.5 -1t-35.5 -1.5t-14 -0.5q-9 0 -9 9v18q0 8 12 8h34q14 0 20 5.5t7 20.5q2 22 2 174zM161 317v-215q0 -43 21 -55q46 -27 100 -27q47 0 82 41t35 126
q0 87 -33 141.5t-98 54.5q-68 0 -107 -66z" />
    <glyph glyph-name="ydieresis" unicode="&#xff;" horiz-adv-x="436" 
d="M56 -272q-28 0 -42.5 14t-14.5 37q0 16 14 27.5t32 11.5q8 0 17.5 -2t17.5 -5t11 -4q13 -2 21 6q10 13 39 75.5t41 95.5q-4 17 -58 179.5t-61 179.5q-10 22 -19.5 32t-27.5 10h-26q-8 0 -8 9v20q0 7 8 7q2 0 13 -0.5t32 -1.5t47 -1q30 0 61 1.5t32 1.5q9 0 9 -7v-21
q0 -8 -6 -8h-19q-16 0 -13 -22q2 -17 38 -133t44 -132h4q8 13 53.5 122t49.5 127q9 38 -17 38h-16q-7 0 -7 8v20q0 8 6 8q2 0 28 -1.5t54 -1.5q15 0 36.5 1.5t24.5 1.5q6 0 6 -8v-19q0 -9 -5 -9h-16q-21 0 -35 -18q-19 -24 -157 -337q-99 -224 -106 -237q-9 -16 -12.5 -22
t-14.5 -19t-25 -18.5t-33 -5.5zM157 637q18 0 31.5 -13.5t13.5 -35.5q0 -19 -13.5 -31.5t-31.5 -12.5t-34.5 11.5t-16.5 36.5q0 14 12.5 29.5t38.5 15.5zM327 637q18 0 31 -13.5t13 -35.5q0 -19 -13 -31.5t-31 -12.5t-35 11.5t-17 36.5q0 14 12.5 29.5t39.5 15.5z" />
    <glyph glyph-name="Amacron" unicode="&#x100;" horiz-adv-x="743" 
d="M465 278h-246q-9 -23 -38 -103.5t-32 -94.5q-3 -21 -3 -22q0 -22 34 -22h47q10 0 10 -7v-23q0 -9 -8 -9q-1 0 -40 1.5t-74 1.5q-32 0 -56 -0.5t-36.5 -1.5t-16.5 -1q-7 0 -7 8v24q0 7 8 7h35q22 0 34.5 10.5t23.5 35.5q8 17 49 123t60 160q2 7 47 127t50 135q7 24 1 34
q-7 9 -7 13q0 6 9 9q20 4 47 21t36 29q9 9 13 9q6 0 11 -17q9 -30 57.5 -174t58.5 -177q17 -58 54 -164.5t48 -128.5q23 -45 68 -45h33q8 0 8 -7v-25q0 -7 -10 -7q-1 0 -36.5 1.5t-83.5 1.5q-49 0 -93 -1.5t-48 -1.5q-8 0 -8 9v23q0 7 9 7h25q21 0 28 8.5t2 29.5
q-15 66 -63 204zM232 314h221q-30 100 -95 295q-6 14 -8 14q-5 0 -11 -15q-9 -24 -56 -151t-51 -143zM501 834v-33q0 -7 -11 -7h-239q-8 0 -8 7v33q0 7 8 7h241q9 0 9 -7z" />
    <glyph glyph-name="amacron" unicode="&#x101;" horiz-adv-x="427" 
d="M336 178v-59q0 -75 30 -75q24 0 35 15q6 7 10 4l10 -8q6 -6 -1 -18q-26 -49 -78 -49q-27 0 -45.5 18t-25.5 49h-2q-33 -39 -99 -61q-19 -6 -59 -6q-22 0 -41 20t-19 63q0 77 100 121q95 42 113 58v64q-5 46 -14 56q-19 22 -60 22q-42 0 -65 -21q-6 -6 -7.5 -12.5
t0.5 -17.5t2 -16q0 -57 -53 -57q-24 0 -24 32q0 24 19 50t50 44q59 35 122 35q51 0 80 -27q22 -22 22 -71v-153zM263 97v123q-7 -5 -47.5 -24.5t-63.5 -44t-23 -61.5q0 -27 14.5 -41t37.5 -14t52.5 21.5t29.5 40.5zM95 519v32q0 7 8 7h220q9 0 9 -7v-32q0 -7 -11 -7h-218
q-8 0 -8 7z" />
    <glyph glyph-name="Abreve" unicode="&#x102;" horiz-adv-x="743" 
d="M465 278h-246q-9 -23 -38 -103.5t-32 -94.5q-3 -21 -3 -22q0 -22 34 -22h47q10 0 10 -7v-23q0 -9 -8 -9q-1 0 -40 1.5t-74 1.5q-32 0 -56 -0.5t-36.5 -1.5t-16.5 -1q-7 0 -7 8v24q0 7 8 7h35q22 0 34.5 10.5t23.5 35.5q8 17 49 123t60 160q2 7 47 127t50 135q7 24 1 34
q-7 9 -7 13q0 6 9 9q20 4 47 21t36 29q9 9 13 9q6 0 11 -17q9 -30 57.5 -174t58.5 -177q17 -58 54 -164.5t48 -128.5q23 -45 68 -45h33q8 0 8 -7v-25q0 -7 -10 -7q-1 0 -36.5 1.5t-83.5 1.5q-49 0 -93 -1.5t-48 -1.5q-8 0 -8 9v23q0 7 9 7h25q21 0 28 8.5t2 29.5
q-15 66 -63 204zM232 314h221q-30 100 -95 295q-6 14 -8 14q-5 0 -11 -15q-9 -24 -56 -151t-51 -143zM370 767q-45 0 -82 35.5t-49 83.5q-3 11 2 13l11 5q3 2 8 -6q19 -32 49 -50.5t61 -18.5q35 0 68 22.5t45 46.5q4 7 8 5l12 -5q4 -3 2 -10q-10 -40 -51 -80.5t-84 -40.5z
" />
    <glyph glyph-name="abreve" unicode="&#x103;" horiz-adv-x="427" 
d="M336 178v-59q0 -75 30 -75q24 0 35 15q6 7 10 4l10 -8q6 -6 -1 -18q-26 -49 -78 -49q-27 0 -45.5 18t-25.5 49h-2q-33 -39 -99 -61q-19 -6 -59 -6q-22 0 -41 20t-19 63q0 77 100 121q95 42 113 58v64q-5 46 -14 56q-19 22 -60 22q-42 0 -65 -21q-6 -6 -7.5 -12.5
t0.5 -17.5t2 -16q0 -57 -53 -57q-24 0 -24 32q0 24 19 50t50 44q59 35 122 35q51 0 80 -27q22 -22 22 -71v-153zM263 97v123q-7 -5 -47.5 -24.5t-63.5 -44t-23 -61.5q0 -27 14.5 -41t37.5 -14t52.5 21.5t29.5 40.5zM212 485q-47 0 -86 35.5t-45 83.5q-1 12 3 13l11 5
q4 2 8 -6q16 -32 47 -51t62 -19q35 0 68 22.5t45 47.5q4 7 8 5l12 -6q4 -1 2 -9q-8 -41 -49.5 -81t-85.5 -40z" />
    <glyph glyph-name="Aogonek" unicode="&#x104;" horiz-adv-x="743" 
d="M232 314h221q-30 100 -95 295q-6 14 -8 14q-5 0 -11 -15q-9 -24 -56 -151t-51 -143zM735 36q8 0 8 -7v-25q0 -7 -10 -7q-30 3 -46 3h-59q-59 0 -102 -47.5t-43 -106.5q0 -29 13 -45.5t36 -16.5q27 0 55 23q9 11 15 11q9 0 9 -16q0 -21 -31 -43.5t-78 -22.5
q-37 0 -68 24.5t-31 69.5q0 19 5.5 37t19.5 36t22 27.5t28.5 29t23.5 22.5q19 19 25 30t6 28q0 11 -5 34q-15 66 -63 204h-246q-9 -23 -38 -103.5t-32 -94.5q-3 -21 -3 -22q0 -22 34 -22h47q10 0 10 -7v-23q0 -9 -8 -9q-1 0 -40 1.5t-74 1.5q-32 0 -56 -0.5t-36.5 -1.5
t-16.5 -1q-7 0 -7 8v24q0 7 8 7h35q22 0 34.5 10.5t23.5 35.5q8 17 49 123t60 160q2 7 47 127t50 135q7 24 1 34q-7 9 -7 13q0 6 9 9q20 4 47 21t36 29q9 9 13 9q6 0 11 -17q9 -30 57.5 -174t58.5 -177q17 -58 54 -164.5t48 -128.5q23 -45 68 -45h33z" />
    <glyph glyph-name="aogonek" unicode="&#x105;" horiz-adv-x="427" 
d="M354 -14q-78 -54 -78 -127q0 -23 12 -36.5t31 -13.5q23 0 55 28q10 10 14 10q9 0 9 -15q0 -18 -30 -43t-67 -25q-36 0 -65 22t-29 64q0 23 9.5 44t30 41t33 30t37.5 29q-35 14 -45 61h-2q-33 -39 -99 -61q-19 -6 -59 -6q-22 0 -41 20t-19 63q0 77 100 121q95 42 113 58
v64q-5 46 -14 56q-19 22 -60 22q-42 0 -65 -21q-6 -6 -7.5 -12.5t0.5 -17.5t2 -16q0 -57 -53 -57q-24 0 -24 32q0 24 19 50t50 44q59 35 122 35q51 0 80 -27q22 -22 22 -71v-212q0 -75 30 -75q24 0 35 15q6 7 10 4l10 -8q5 -5 -2 -18q-22 -41 -65 -51zM263 97v123
q-7 -5 -47.5 -24.5t-63.5 -44t-23 -61.5q0 -27 14.5 -41t37.5 -14t52.5 21.5t29.5 40.5z" />
    <glyph glyph-name="Cacute" unicode="&#x106;" horiz-adv-x="746" 
d="M408 -15q-153 0 -253 92q-52 49 -79.5 126t-27.5 154q0 157 102 265q41 44 107 72.5t143 28.5q108 0 202 -55q17 -10 20 0l8 29q2 6 13 6q7 0 9 -3t2 -13q0 -13 10.5 -91.5t14.5 -102.5q2 -9 -4 -10l-15 -4q-7 -1 -10 8q-33 78 -78 124q-75 77 -174 77q-64 0 -114 -26.5
t-79 -71.5t-43 -97.5t-14 -109.5t22 -128.5t74 -128.5q47 -52 90 -68t102 -16q79 0 144 36.5t103 90.5q4 7 8 3l13 -10q5 -4 2 -9q-116 -168 -298 -168zM328 769l-12 16q-4 4 2 8l137 113q25 20 41 20q15 0 25.5 -10.5t10.5 -24.5q0 -25 -29 -40l-168 -82q-4 -3 -7 0z" />
    <glyph glyph-name="cacute" unicode="&#x107;" horiz-adv-x="411" 
d="M228 397q-47 0 -82.5 -41t-35.5 -114q0 -82 51 -152q39 -51 109 -51q37 0 60.5 9.5t49.5 33.5q4 4 8 0l10 -10q6 -6 0 -13q-24 -28 -69 -49.5t-92 -21.5q-99 0 -155 70q-45 60 -45 136q0 93 59.5 164t154.5 71q36 0 64.5 -9.5t43 -23.5t21.5 -26.5t7 -21.5
q-2 -35 -37 -35q-33 0 -55 40q-15 28 -30 36t-37 8zM185 486l-12 10q-3 3 0 6l96 119q21 25 42 25q23 0 30.5 -22.5t-19.5 -43.5l-131 -94q-3 -3 -6 0z" />
    <glyph glyph-name="Ccaron" unicode="&#x10c;" horiz-adv-x="746" 
d="M408 -15q-153 0 -253 92q-52 49 -79.5 126t-27.5 154q0 157 102 265q41 44 107 72.5t143 28.5q108 0 202 -55q17 -10 20 0l8 29q2 6 13 6q7 0 9 -3t2 -13q0 -13 10.5 -91.5t14.5 -102.5q2 -9 -4 -10l-15 -4q-7 -1 -10 8q-33 78 -78 124q-75 77 -174 77q-64 0 -114 -26.5
t-79 -71.5t-43 -97.5t-14 -109.5t22 -128.5t74 -128.5q47 -52 90 -68t102 -16q79 0 144 36.5t103 90.5q4 7 8 3l13 -10q5 -4 2 -9q-116 -168 -298 -168zM288 909l131 -56l117 55q8 5 10 1l8 -10q4 -3 -2 -9l-126 -111q-11 -9 -13 -9q-3 0 -14 9l-126 112q-4 4 -1 8l7 9
q3 4 9 1z" />
    <glyph glyph-name="ccaron" unicode="&#x10d;" horiz-adv-x="411" 
d="M228 397q-47 0 -82.5 -41t-35.5 -114q0 -82 51 -152q39 -51 109 -51q37 0 60.5 9.5t49.5 33.5q4 4 8 0l10 -10q6 -6 0 -13q-24 -28 -69 -49.5t-92 -21.5q-99 0 -155 70q-45 60 -45 136q0 93 59.5 164t154.5 71q36 0 64.5 -9.5t43 -23.5t21.5 -26.5t7 -21.5
q-2 -35 -37 -35q-33 0 -55 40q-15 28 -30 36t-37 8zM130 646l110 -76l100 75q6 4 9 1l9 -9q4 -3 -3 -10l-105 -131q-9 -9 -12 -9q-5 0 -13 10l-110 131q-5 5 -2 8l8 9q3 5 9 1z" />
    <glyph glyph-name="Dcaron" unicode="&#x10e;" horiz-adv-x="813" 
d="M143 384v75q0 143 -5 185q-2 17 -11.5 22.5t-31.5 5.5h-55q-8 0 -8 7v27q0 5 7 5q3 0 21.5 -0.5t52 -1.5t73.5 -1q13 0 75.5 1.5t73.5 1.5q108 0 186 -19t139 -71q111 -96 111 -255q0 -84 -24 -145.5t-75 -117.5q-34 -37 -76 -60.5t-89.5 -32.5t-75.5 -11t-70 -2
q-34 0 -99 1.5t-85 1.5q-38 0 -70 -0.5t-49.5 -1.5t-21.5 -1q-7 0 -7 7v26q0 6 8 6h67q29 0 32 24q7 49 7 324zM235 433v-71q0 -121 2 -245q0 -30 17 -56q24 -32 106 -32q74 0 135 29t100 79q73 90 73 225q0 58 -23 119.5t-59 101.5q-88 96 -251 96q-63 0 -80 -10
q-17 -11 -19 -47q-1 -42 -1 -189zM281 909l131 -56l117 55q8 5 10 1l8 -10q3 -3 -2 -9l-126 -111q-11 -9 -13 -9q-3 0 -14 9l-126 112q-4 4 -1 8l7 9q3 4 9 1z" />
    <glyph glyph-name="dcaron" unicode="&#x10f;" horiz-adv-x="521" 
d="M363 414v195q0 30 -11 41t-52 18q-7 1 -7 7v17q0 6 8 7q21 4 61.5 11.5t48.5 9.5q3 0 11 1.5t12 1.5q7 0 5 -18q-4 -67 -4 -322v-221q0 -78 10 -91q13 -15 44 -17q18 -1 20 -7l2 -8q1 -8 -7 -11l-113 -38q-10 -3 -13 8l-13 44q-24 -24 -66 -39t-81 -15q-24 0 -36 1
t-36 12t-46 33q-37 36 -50 72.5t-13 89.5q0 100 70 170q59 63 149 63q57 0 107 -15zM363 120v172q0 33 -9 49q-28 54 -105 54q-56 0 -91 -36q-46 -50 -46 -133q0 -80 44.5 -137.5t91.5 -57.5q40 0 70.5 17t38.5 38q6 18 6 34zM535 727q21 0 35 -18.5t14 -52.5
q0 -46 -25.5 -82.5t-55.5 -54.5q-9 -6 -14 -6q-9 0 -9 7q0 5 7 11q17 13 29 34.5t12 39.5q0 21 -10 34q-27 17 -27 48q0 18 12 29t32 11z" />
    <glyph glyph-name="Dcroat" unicode="&#x110;" horiz-adv-x="813" 
d="M235 433v-57h170q9 0 9 -9v-20q0 -9 -9 -9h-170q0 -109 2 -221q0 -30 17 -56q24 -32 107 -32q74 0 134.5 29t99.5 79q73 90 73 225q0 58 -23 119.5t-59 101.5q-88 96 -251 96q-63 0 -80 -10t-19 -47q-1 -42 -1 -189zM29 5v24q0 7 7 7h68q28 0 33 30q6 36 6 245v27h-97
q-9 0 -9 9v20q0 9 9 9h97v83q0 143 -5 185q-3 28 -43 28h-57q-6 0 -6 9v22q0 8 8 8q3 0 19 -0.5t49.5 -1.5t77.5 -1q23 0 81.5 1.5t67.5 1.5q108 0 186 -19t139 -71q111 -96 111 -255q0 -84 -24 -145.5t-75 -117.5q-34 -37 -76 -60.5t-89.5 -32.5t-75.5 -11t-70 -2
q-5 0 -82 1.5t-102 1.5q-37 0 -69.5 -0.5t-51 -1.5t-19.5 -1q-5 0 -6.5 1.5t-1.5 6.5z" />
    <glyph glyph-name="dcroat" unicode="&#x111;" horiz-adv-x="521" 
d="M363 546h-145q-9 0 -9 7v23q0 6 7 6h147v27q0 30 -11 41t-52 18q-7 1 -7 7v17q0 6 8 7q77 16 110 21q3 0 11 1.5t12 1.5q7 0 5 -18q-3 -36 -3 -123h67q9 0 9 -6v-23q0 -7 -10 -7h-67v-384q0 -78 10 -91q13 -15 44 -17q18 -1 20 -7l2 -8q1 -8 -7 -11l-113 -38
q-10 -3 -13 8l-13 44q-24 -24 -66 -39t-81 -15q-24 0 -36 1t-36 12t-46 33q-37 37 -50 73t-13 89q0 97 70 170q61 63 149 63q57 0 107 -15v132zM363 120v172q0 33 -9 49q-28 54 -105 54q-56 0 -91 -36q-46 -50 -46 -133q0 -80 44.5 -137.5t91.5 -57.5q40 0 70.5 17t38.5 38
q6 18 6 34z" />
    <glyph glyph-name="Emacron" unicode="&#x112;" horiz-adv-x="690" 
d="M238 676v-293q91 0 127 6q22 4 30.5 12.5t15.5 31.5q7 22 8 49q0 7 7 7l25 -1q8 0 6 -8q-3 -17 -3 -114q0 -41 6 -104q0 -6 -6 -8l-22 -3q-4 -1 -5.5 1.5t-2.5 7.5q-2 15 -11 47q-10 35 -43 39q-47 5 -132 5v-62q0 -31 1 -98t1 -73q1 -67 57 -78q35 -7 74 -7q57 0 88 3
q53 6 87 35q9 7 40 47.5t42 57.5q6 9 12 6l16 -9q6 -4 2 -14l-53 -147q-5 -15 -22 -15q-1 0 -10 0.5t-30 1t-47 0.5q-18 0 -120.5 0.5t-192.5 0.5q-21 0 -49 -0.5t-36 -0.5q-42 -2 -43 -2q-9 0 -9 7v27q0 5 10 5h40q34 0 42 7.5t8 36.5v237v98q0 188 -3 218q-3 24 -13 31.5
t-38 7.5h-36q-8 0 -8 7v27q0 5 7 5q6 0 45.5 -1.5t77.5 -1.5h44q50 0 148.5 0.5t148.5 0.5q9 0 24 1t16 1q6 0 8 -5q2 -8 26 -83t25 -78q2 -7 -3 -9l-15 -8q-5 -3 -8 3q-3 7 -44 55.5t-56 58.5q-38 26 -76 27zM474 834v-33q0 -7 -11 -7h-239q-8 0 -8 7v33q0 7 8 7h241
q9 0 9 -7z" />
    <glyph glyph-name="emacron" unicode="&#x113;" horiz-adv-x="426" 
d="M362 266h-247q-3 -14 -3 -48q0 -73 41 -122.5t101 -49.5q43 0 75 20t46 48q3 7 9 5l13 -7q6 -2 0 -15q-18 -40 -59 -74.5t-100 -34.5q-108 0 -157 71q-26 38 -35 71.5t-9 86.5q0 96 63 159q52 53 143 53q40 0 71 -17t46 -42.5t22.5 -48t7.5 -39.5q0 -16 -28 -16zM119 296
h155q27 0 27 14q0 16 -5 34t-23.5 36.5t-48.5 18.5q-35 0 -63 -25t-42 -78zM115 519v32q0 7 8 7h220q9 0 9 -7v-32q0 -7 -11 -7h-218q-8 0 -8 7z" />
    <glyph glyph-name="Edotaccent" unicode="&#x116;" horiz-adv-x="690" 
d="M238 676v-293q91 0 127 6q22 4 30.5 12.5t15.5 31.5q7 22 8 49q0 7 7 7l25 -1q8 0 6 -8q-3 -17 -3 -114q0 -41 6 -104q0 -6 -6 -8l-22 -3q-4 -1 -5.5 1.5t-2.5 7.5q-2 15 -11 47q-10 35 -43 39q-47 5 -132 5v-62q0 -31 1 -98t1 -73q1 -67 57 -78q35 -7 74 -7q57 0 88 3
q53 6 87 35q9 7 40 47.5t42 57.5q6 9 12 6l16 -9q6 -4 2 -14l-53 -147q-5 -15 -22 -15q-1 0 -10 0.5t-30 1t-47 0.5q-18 0 -120.5 0.5t-192.5 0.5q-21 0 -49 -0.5t-36 -0.5q-42 -2 -43 -2q-9 0 -9 7v27q0 5 10 5h40q34 0 42 7.5t8 36.5v237v98q0 188 -3 218q-3 24 -13 31.5
t-38 7.5h-36q-8 0 -8 7v27q0 5 7 5q6 0 45.5 -1.5t77.5 -1.5h44q50 0 148.5 0.5t148.5 0.5q9 0 24 1t16 1q6 0 8 -5q2 -8 26 -83t25 -78q2 -7 -3 -9l-15 -8q-5 -3 -8 3q-3 7 -44 55.5t-56 58.5q-38 26 -76 27zM349 890q20 0 35 -14.5t15 -38.5q0 -22 -14.5 -36t-35.5 -14
q-20 0 -38.5 12.5t-18.5 41.5q0 16 13.5 32.5t43.5 16.5z" />
    <glyph glyph-name="edotaccent" unicode="&#x117;" horiz-adv-x="426" 
d="M362 266h-247q-3 -14 -3 -48q0 -73 41 -122.5t101 -49.5q43 0 75 20t46 48q3 7 9 5l13 -7q6 -2 0 -15q-18 -40 -59 -74.5t-100 -34.5q-108 0 -157 71q-26 38 -35 71.5t-9 86.5q0 96 63 159q52 53 143 53q40 0 71 -17t46 -42.5t22.5 -48t7.5 -39.5q0 -16 -28 -16zM119 296
h155q27 0 27 14q0 16 -5 34t-23.5 36.5t-48.5 18.5q-35 0 -63 -25t-42 -78zM231 544q-19 0 -37 15t-18 37q0 20 16.5 36t44.5 16q24 0 38 -15t14 -34q0 -22 -15 -38.5t-43 -16.5z" />
    <glyph glyph-name="Eogonek" unicode="&#x118;" horiz-adv-x="690" 
d="M656 173q6 -4 2 -14l-53 -147q-1 -4 -4.5 -7t-14 -8t-15.5 -8q-100 -58 -100 -143q0 -29 13 -45.5t36 -16.5q27 0 55 23q9 11 15 11q9 0 9 -16q0 -21 -31 -43.5t-78 -22.5q-37 0 -68 24.5t-31 69.5t37 88.5t100 76.5q-10 3 -32 3q-18 0 -120.5 1t-192.5 1q-21 0 -49 -0.5
t-36 -0.5q-42 -2 -43 -2q-9 0 -9 7v27q0 5 10 5h40q34 0 42 7.5t8 36.5v335q0 188 -3 218q-3 24 -13 31.5t-38 7.5h-36q-8 0 -8 7v27q0 5 7 5q6 0 45.5 -1.5t77.5 -1.5h44q50 0 148.5 0.5t148.5 0.5q9 0 24 1t16 1q6 0 8 -5q2 -8 26 -83t25 -78q2 -7 -3 -9l-15 -8
q-5 -3 -8 3q-3 7 -44 55t-56 58q-43 27 -76 28l-178 4v-293q91 0 127 6q22 4 30.5 12.5t15.5 31.5q7 22 8 49q0 7 7 7l25 -1q8 0 6 -8q-3 -17 -3 -114q0 -41 6 -104q0 -6 -6 -8l-22 -3q-4 -1 -5.5 1.5t-2.5 7.5q-2 15 -11 47q-10 35 -43 39q-47 5 -132 5v-62q0 -31 1 -98
t1 -73q1 -67 57 -78q35 -7 74 -7q57 0 88 3q53 6 87 35q9 7 40 47.5t42 57.5q6 9 12 6z" />
    <glyph glyph-name="eogonek" unicode="&#x119;" horiz-adv-x="426" 
d="M254 46q43 0 75 20t46 48q3 7 9 5l13 -7q6 -2 0 -15q-28 -54 -92 -100q-31 -22 -50 -56t-19 -72q0 -27 12 -43t34 -16q27 0 51 22q10 10 14 10q9 0 9 -15q0 -20 -29.5 -41.5t-72.5 -21.5q-35 0 -63.5 23t-28.5 68q0 13 2 24t8 22t10.5 18.5t15 18.5t15.5 16t19 17.5
t18 16.5h-12q-108 0 -157 71q-26 38 -35 71.5t-9 86.5q0 96 63 159q52 53 143 53q40 0 71 -17t46 -42.5t22.5 -48t7.5 -39.5q0 -16 -28 -16h-247q-3 -14 -3 -48q0 -73 41 -122.5t101 -49.5zM301 311q0 16 -5 34t-23.5 36.5t-48.5 18.5q-35 0 -63 -25t-42 -78h155q27 0 27 14
z" />
    <glyph glyph-name="Ecaron" unicode="&#x11a;" horiz-adv-x="690" 
d="M238 676v-293q91 0 127 6q22 4 30.5 12.5t15.5 31.5q7 22 8 49q0 7 7 7l25 -1q8 0 6 -8q-3 -17 -3 -114q0 -41 6 -104q0 -6 -6 -8l-22 -3q-4 -1 -5.5 1.5t-2.5 7.5q-2 15 -11 47q-10 35 -43 39q-47 5 -132 5v-62q0 -31 1 -98t1 -73q1 -67 57 -78q35 -7 74 -7q57 0 88 3
q53 6 87 35q9 7 40 47.5t42 57.5q6 9 12 6l16 -9q6 -4 2 -14l-53 -147q-5 -15 -22 -15q-1 0 -10 0.5t-30 1t-47 0.5q-18 0 -120.5 0.5t-192.5 0.5q-21 0 -49 -0.5t-36 -0.5q-42 -2 -43 -2q-9 0 -9 7v27q0 5 10 5h40q34 0 42 7.5t8 36.5v237v98q0 188 -3 218q-3 24 -13 31.5
t-38 7.5h-36q-8 0 -8 7v27q0 5 7 5q6 0 45.5 -1.5t77.5 -1.5h44q50 0 148.5 0.5t148.5 0.5q9 0 24 1t16 1q6 0 8 -5q2 -8 26 -83t25 -78q2 -7 -3 -9l-15 -8q-5 -3 -8 3q-3 7 -44 55.5t-56 58.5q-38 26 -76 27zM230 909l131 -56l117 55q8 5 10 1l8 -10q4 -3 -2 -9l-126 -111
q-11 -9 -13 -9q-3 0 -14 9l-126 112q-4 4 -1 8l7 9q3 4 9 1z" />
    <glyph glyph-name="ecaron" unicode="&#x11b;" horiz-adv-x="426" 
d="M362 266h-247q-3 -14 -3 -48q0 -73 41 -122.5t101 -49.5q43 0 75 20t46 48q3 7 9 5l13 -7q6 -2 0 -15q-18 -40 -59 -74.5t-100 -34.5q-108 0 -157 71q-26 38 -35 71.5t-9 86.5q0 96 63 159q52 53 143 53q40 0 71 -17t46 -42.5t22.5 -48t7.5 -39.5q0 -16 -28 -16zM119 296
h155q27 0 27 14q0 16 -5 34t-23.5 36.5t-48.5 18.5q-35 0 -63 -25t-42 -78zM128 646l110 -76l100 75q6 4 9 1l9 -9q4 -3 -3 -10l-105 -131q-9 -9 -12 -9q-5 0 -13 10l-110 131q-5 5 -2 8l8 9q3 5 9 1z" />
    <glyph glyph-name="Gbreve" unicode="&#x11e;" horiz-adv-x="818" 
d="M613 147v74q0 27 -9 36.5t-32 9.5h-42q-7 0 -7 6v25q0 8 6 8l43 -2q43 -1 84 -1q32 0 58 0.5t41 1.5t19 1q8 0 8 -7v-24q0 -8 -7 -8h-39q-31 0 -31 -38v-132q0 -8 2 -18.5t2 -13.5q0 -10 -16 -16q-126 -64 -273 -64q-75 0 -153.5 28.5t-126.5 85.5q-92 104 -92 275
q0 70 29.5 138t83.5 116q111 95 281 95q59 0 113.5 -18t83.5 -40q14 -11 23 1l15 18q9 9 14 9q9 0 9 -12l3 -191q0 -9 -5 -9l-18 -2q-6 0 -8 8q-19 68 -60 118q-27 33 -74 57.5t-108 24.5q-115 0 -191 -81q-88 -93 -88 -230q0 -190 95 -280q74 -71 176 -71q104 0 164 34
q17 10 22 28.5t5 59.5zM428 767q-45 0 -82 35.5t-49 83.5q-3 11 2 13l11 5q3 2 8 -6q19 -32 49 -50.5t61 -18.5q35 0 68 22.5t45 46.5q4 7 8 5l12 -5q4 -3 2 -10q-10 -40 -51 -80.5t-84 -40.5z" />
    <glyph glyph-name="gbreve" unicode="&#x11f;" horiz-adv-x="485" 
d="M218 -272q-96 0 -153 32q-51 31 -51 81q0 38 31.5 69.5t73.5 50.5v4q-30 7 -48.5 27t-18.5 43q0 32 28.5 57.5t61.5 37.5v2q-37 16 -65 54t-28 98q0 55 46 100t125 45q78 0 126 -58q55 39 94 39q23 0 36 -13t11 -29q0 -15 -11 -26t-28 -11q-18 0 -35 15q-14 9 -21 9
q-19 0 -32 -6q15 -37 15 -76q0 -64 -37 -108q-19 -21 -54.5 -35.5t-61.5 -14.5q-32 0 -51 5q-20 -8 -36.5 -22.5t-16.5 -33.5q0 -10 3.5 -17t12.5 -11t17 -6t24.5 -2t27 0.5t32.5 1.5q118 6 172 -36q46 -35 49 -96q0 -73 -67 -123q-64 -47 -171 -47zM212 143q46 0 68 44.5
t22 101.5q0 60 -27 90q-22 22 -48 22q-43 0 -71 -28q-36 -38 -36 -118q0 -53 32 -87q26 -25 60 -25zM253 -240q43 0 94 26.5t48 76.5q0 47 -36.5 74.5t-108.5 22.5l-96 -7q-28 -7 -54 -33t-26 -63q0 -18 11.5 -38t27.5 -31q24 -17 54 -22.5t86 -5.5zM226 485q-47 0 -86 35.5
t-45 83.5q-1 12 3 13l11 5q4 2 8 -6q16 -32 47 -51t62 -19q35 0 68 22.5t45 47.5q4 7 8 5l12 -6q4 -1 2 -9q-8 -41 -49.5 -81t-85.5 -40z" />
    <glyph glyph-name="Gcommaaccent" unicode="&#x122;" horiz-adv-x="818" 
d="M613 147v74q0 27 -9 36.5t-32 9.5h-42q-7 0 -7 6v25q0 8 6 8l43 -2q43 -1 84 -1q32 0 58 0.5t41 1.5t19 1q8 0 8 -7v-24q0 -8 -7 -8h-39q-31 0 -31 -38v-132q0 -8 2 -18.5t2 -13.5q0 -10 -16 -16q-126 -64 -273 -64q-75 0 -153.5 28.5t-126.5 85.5q-92 104 -92 275
q0 70 29.5 138t83.5 116q111 95 281 95q59 0 113.5 -18t83.5 -40q14 -11 23 1l15 18q9 9 14 9q9 0 9 -12l3 -191q0 -9 -5 -9l-18 -2q-6 0 -8 8q-19 68 -60 118q-27 33 -74 57.5t-108 24.5q-115 0 -191 -81q-88 -93 -88 -230q0 -190 95 -280q74 -71 176 -71q104 0 164 34
q17 10 22 28.5t5 59.5zM396 -60q23 0 43.5 -19.5t20.5 -51.5q0 -49 -31 -87t-56 -52q-7 -7 -14 -7q-9 0 -9 7q0 5 7 11q53 50 53 93q0 15 -13 23l-5 1l-7 3.5t-8 4.5t-8.5 6.5t-7 8t-5.5 11t-2 14.5q0 14 11.5 24t30.5 10z" />
    <glyph glyph-name="gcommaaccent" unicode="&#x123;" horiz-adv-x="485" 
d="M218 -272q-96 0 -153 32q-51 31 -51 81q0 38 31.5 69.5t73.5 50.5v4q-30 7 -48.5 27t-18.5 43q0 32 28.5 57.5t61.5 37.5v2q-37 16 -65 54t-28 98q0 55 46 100t125 45q78 0 126 -58q55 39 94 39q23 0 36 -13t11 -29q0 -15 -11 -26t-28 -11q-18 0 -35 15q-14 9 -21 9
q-19 0 -32 -6q15 -37 15 -76q0 -64 -37 -108q-19 -21 -54.5 -35.5t-61.5 -14.5q-32 0 -51 5q-20 -8 -36.5 -22.5t-16.5 -33.5q0 -10 3.5 -17t12.5 -11t17 -6t24.5 -2t27 0.5t32.5 1.5q118 6 172 -36q46 -35 49 -96q0 -73 -67 -123q-64 -47 -171 -47zM212 143q46 0 68 44.5
t22 101.5q0 60 -27 90q-22 22 -48 22q-43 0 -71 -28q-36 -38 -36 -118q0 -53 32 -87q26 -25 60 -25zM253 -240q43 0 94 26.5t48 76.5q0 47 -36.5 74.5t-108.5 22.5l-96 -7q-28 -7 -54 -33t-26 -63q0 -18 11.5 -38t27.5 -31q24 -17 54 -22.5t86 -5.5zM219 505q-23 0 -44 19.5
t-21 51.5q-1 49 30.5 87t56.5 52q7 7 15 7q4 0 6.5 -2t1.5 -5q0 -5 -6 -11q-53 -50 -54 -93q0 -15 13 -23l5 -2q4 -1 7 -2.5t8 -4.5t8.5 -6.5t7.5 -8t6 -11t2 -14.5q0 -14 -11.5 -24t-30.5 -10z" />
    <glyph glyph-name="Imacron" unicode="&#x12a;" horiz-adv-x="371" 
d="M140 349v70q0 159 -4 219q-2 19 -12 26.5t-38 7.5h-58q-8 0 -8 6v27q0 6 7 6q3 0 23 -0.5t56 -1.5t77 -1q39 0 69.5 1t46 1.5t19.5 0.5q7 0 7 -7v-25q0 -7 -8 -7h-47q-35 0 -35 -28q0 -5 -1.5 -121t-1.5 -122v-77q0 -5 1.5 -125.5t1.5 -126.5q0 -22 10.5 -29t36.5 -7h41
q8 0 8 -7v-26q0 -6 -9 -6q-3 0 -20 0.5t-49 1.5t-70 1q-42 0 -76.5 -0.5t-52.5 -1.5t-20 -1q-8 0 -8 6v27q0 6 8 6h56q41 0 45 29q5 38 5 284zM305 834v-33q0 -7 -11 -7h-239q-8 0 -8 7v33q0 7 8 7h241q9 0 9 -7z" />
    <glyph glyph-name="imacron" unicode="&#x12b;" horiz-adv-x="267" 
d="M102 144v147q0 28 -10.5 41t-45.5 19q-9 1 -9 7v9q0 4 7 7q60 23 108 49q12 6 19 6t5 -12q-2 -17 -2 -163v-109q0 -75 1 -86q3 -26 16 -26h46q10 0 10 -9v-17q0 -10 -9 -10q-2 0 -17.5 0.5t-38 1.5t-40.5 1q-25 0 -49.5 -0.5t-40 -1.5t-18.5 -1q-8 0 -8 8v20q0 8 10 8h49
q15 0 16 20q1 30 1 91zM15 519v32q0 7 8 7h220q9 0 9 -7v-32q0 -7 -11 -7h-218q-8 0 -8 7z" />
    <glyph glyph-name="Iogonek" unicode="&#x12e;" horiz-adv-x="371" 
d="M323 36q8 0 8 -7v-26q0 -6 -9 -6q-1 0 -19.5 1.5t-38.5 1.5q-50 0 -91 -48t-41 -106q0 -29 13 -45.5t36 -16.5q27 0 55 23q9 11 15 11q9 0 9 -16q0 -21 -31 -43.5t-78 -22.5q-37 0 -68 24.5t-31 69.5q0 89 126 170q-41 0 -74 -0.5t-50.5 -1.5t-19.5 -1q-8 0 -8 6v27
q0 6 8 6h56q41 0 45 29q5 38 5 284v70q0 159 -4 219q-2 19 -12 26.5t-38 7.5h-58q-8 0 -8 6v27q0 6 7 6q3 0 23 -0.5t56 -1.5t77 -1q39 0 69.5 1t46 1.5t19.5 0.5q7 0 7 -7v-25q0 -7 -8 -7h-47q-35 0 -35 -28q0 -5 -1.5 -121t-1.5 -122v-77q0 -5 1.5 -125.5t1.5 -126.5
q0 -22 10.5 -29t36.5 -7h41z" />
    <glyph glyph-name="iogonek" unicode="&#x12f;" horiz-adv-x="267" 
d="M170 639q0 -22 -15 -38.5t-43 -16.5q-19 0 -37 15t-18 37q0 20 16.5 36t44.5 16q24 0 38 -15t14 -34zM237 33q10 0 10 -9v-17q0 -10 -9 -10q-1 0 -14.5 1.5t-24.5 1.5q-38 0 -69 -40t-31 -91q0 -27 12 -43t34 -16q27 0 51 22q10 10 14 10q9 0 9 -15q0 -20 -29.5 -41.5
t-72.5 -21.5q-35 0 -63.5 23t-28.5 68q0 42 33 83t72 62q-52 0 -67 -1q-8 0 -18 -1t-11 -1q-8 0 -8 8v20q0 8 10 8h49q15 0 16 20q1 30 1 91v147q0 28 -10.5 41t-45.5 19q-9 1 -9 7v9q0 4 7 7q60 23 108 49q12 6 19 6t5 -12q-2 -17 -2 -163v-109q0 -75 1 -86q3 -26 16 -26
h46z" />
    <glyph glyph-name="Idotaccent" unicode="&#x130;" horiz-adv-x="371" 
d="M140 349v70q0 159 -4 219q-2 19 -12 26.5t-38 7.5h-58q-8 0 -8 6v27q0 6 7 6q3 0 23 -0.5t56 -1.5t77 -1q39 0 69.5 1t46 1.5t19.5 0.5q7 0 7 -7v-25q0 -7 -8 -7h-47q-35 0 -35 -28q0 -5 -1.5 -121t-1.5 -122v-77q0 -5 1.5 -125.5t1.5 -126.5q0 -22 10.5 -29t36.5 -7h41
q8 0 8 -7v-26q0 -6 -9 -6q-3 0 -20 0.5t-49 1.5t-70 1q-42 0 -76.5 -0.5t-52.5 -1.5t-20 -1q-8 0 -8 6v27q0 6 8 6h56q41 0 45 29q5 38 5 284zM189 890q20 0 35 -14.5t15 -38.5q0 -22 -14.5 -36t-35.5 -14q-20 0 -38.5 12.5t-18.5 41.5q0 16 13.5 32.5t43.5 16.5z" />
    <glyph glyph-name="dotlessi" unicode="&#x131;" horiz-adv-x="267" 
d="M102 144v147q0 28 -10.5 41t-45.5 19q-9 1 -9 7v9q0 4 7 7q60 23 108 49q12 6 19 6t5 -12q-2 -17 -2 -163v-109q0 -75 1 -86q3 -26 16 -26h46q10 0 10 -9v-17q0 -10 -9 -10q-2 0 -17.5 0.5t-38 1.5t-40.5 1q-25 0 -49.5 -0.5t-40 -1.5t-18.5 -1q-8 0 -8 8v20q0 8 10 8h49
q15 0 16 20q1 30 1 91z" />
    <glyph glyph-name="Kcommaaccent" unicode="&#x136;" horiz-adv-x="712" 
d="M134 369v58q0 10 -1.5 114t-1.5 107q0 24 -30 24h-35q-8 0 -8 7v26q0 6 8 6q3 0 17 -0.5t40.5 -1.5t59.5 -1q29 0 54.5 1t40 1.5t18.5 0.5q8 0 8 -6v-26q0 -7 -7 -7h-42q-15 0 -21.5 -6.5t-6.5 -24.5q0 -3 -1.5 -97t-1.5 -123v-50h18q21 0 41 14q14 10 108.5 128
t107.5 137q7 10 4 17t-13 7h-14q-5 0 -5 7v23q0 7 6 7q2 0 37 -1.5t62 -1.5q17 0 44.5 1.5t31.5 1.5q7 0 7 -5v-27q0 -7 -8 -7h-21q-29 0 -55 -19q-25 -19 -110 -115t-123 -145q5 -6 134 -166.5t134 -165.5q20 -25 70 -25h35q7 0 7 -7v-25q0 -7 -8 -7q-2 0 -18 0.5t-44 1.5
t-61 1q-37 0 -67.5 -0.5t-47.5 -1.5t-21 -1q-6 0 -6 6v26q0 6 6 6h15q13 0 17 9.5t-1 17.5q-7 15 -98 135.5t-101 128.5q-18 15 -44 15h-19v-72q0 -169 3 -211q2 -22 23 -22h44q8 0 8 -6v-26q0 -7 -6 -7q-3 0 -17 0.5t-39.5 1.5t-56.5 1q-35 0 -62.5 -0.5t-41.5 -1.5t-16 -1
q-7 0 -7 7v26q0 6 7 6h41q23 0 27 18q3 27 3 315zM343 -60q23 0 43.5 -19.5t20.5 -51.5q0 -49 -31 -87t-56 -52q-7 -7 -14 -7q-9 0 -9 7q0 5 7 11q53 50 53 93q0 15 -13 23l-4 1q-5 2 -8 3.5t-8 4.5t-8.5 6.5t-7 8t-5.5 11t-2 14.5q0 14 11.5 24t30.5 10z" />
    <glyph glyph-name="kcommaaccent" unicode="&#x137;" horiz-adv-x="496" 
d="M95 243v331q0 34 -9 48t-43 23q-14 4 -14 7v9q0 5 13 10l102 44q18 8 22 8q7 0 6 -17q-5 -48 -5 -315v-158q34 0 48 11q13 9 56 55t50 57q9 17 0 23q-8 6 -26 6q-8 0 -8 9v19q0 8 7 8q1 0 14 -0.5t34.5 -1.5t44.5 -1q22 0 40.5 1t28.5 1.5t12 0.5q6 0 6 -10v-18
q0 -8 -8 -8h-7q-34 0 -69 -23q-23 -13 -132 -119q188 -188 205 -196q28 -14 52 -14q8 0 8 -9v-18q0 -9 -9 -9q-2 0 -13.5 0.5t-30 1.5t-39.5 1q-26 0 -51 -0.5t-40.5 -1.5t-17.5 -1q-7 0 -7 10v16q0 8 10 8h7q6 0 9.5 4.5t1.5 11.5q-2 5 -60.5 67.5t-72.5 76.5
q-13 11 -43 11v-44q0 -69 1 -104q2 -21 20 -21h29q9 0 9 -8v-17q0 -11 -8 -11q-1 0 -13.5 0.5t-33 1.5t-42.5 1q-24 0 -46 -0.5t-35 -1.5t-15 -1q-5 0 -5 10v17q0 9 10 9h37q18 0 18 24q2 88 2 186zM275 -60q23 0 43.5 -19.5t20.5 -51.5q0 -49 -31 -87t-56 -52q-7 -7 -14 -7
q-9 0 -9 7q0 5 7 11q53 50 53 93q0 15 -13 23l-4 1q-5 2 -8 3.5t-8 4.5t-8.5 6.5t-7 8t-5.5 11t-2 14.5q0 14 11.5 24t30.5 10z" />
    <glyph glyph-name="Lacute" unicode="&#x139;" horiz-adv-x="662" 
d="M140 392v56q0 134 -3 188q-2 21 -9 28.5t-28 7.5h-47q-7 0 -7 10v22q0 7 7 7q3 0 18.5 -0.5t45 -1.5t66.5 -1q43 0 77.5 1t52 1.5t18.5 0.5q9 0 9 -8v-23q0 -8 -10 -8h-60q-22 0 -28.5 -8t-6.5 -31q0 -4 -0.5 -48t-1.5 -99.5t-1 -86.5v-86q0 -233 3 -274
q20 -2 122.5 -2.5t128.5 2.5q27 4 57.5 39.5t48.5 69.5t27 59q3 6 8 4l16 -6q3 -2 2 -9q-10 -23 -49 -199q-26 2 -180 2q-89 1 -241 1q-22 0 -51.5 -0.5t-37.5 -0.5t-17 -0.5t-14 -1t-8 -0.5q-8 0 -8 7v25q0 7 7 7h48q43 0 43 27q0 4 1.5 148.5t1.5 180.5zM151 769l-12 16
q-4 4 2 8l137 113q25 20 41 20q15 0 25.5 -10.5t10.5 -24.5q0 -25 -29 -40l-168 -82q-4 -3 -7 0z" />
    <glyph glyph-name="lacute" unicode="&#x13a;" horiz-adv-x="256" 
d="M168 387v-89q0 -203 1 -234q2 -31 26 -31h45q11 0 11 -9v-17q0 -10 -6 -10q-1 0 -17 0.5t-42.5 1.5t-53.5 1q-28 0 -54 -0.5t-41.5 -1.5t-17.5 -1q-7 0 -7 10v17q0 9 13 9h48q21 0 22 25q1 31 1 261v63q0 149 -3 188q-1 25 -13 38.5t-37 21.5l-20 7q-6 2 -6 5v8q0 4 9 7
q93 43 117 58q12 8 21 8t8 -18q-4 -220 -4 -318zM92 769l-12 16q-4 4 2 8l137 113q25 20 41 20q15 0 25.5 -10.5t10.5 -24.5q0 -25 -29 -40l-168 -82q-4 -3 -7 0z" />
    <glyph glyph-name="Lcommaaccent" unicode="&#x13b;" horiz-adv-x="662" 
d="M140 392v56q0 134 -3 188q-2 21 -9 28.5t-28 7.5h-47q-7 0 -7 10v22q0 7 7 7q3 0 18.5 -0.5t45 -1.5t66.5 -1q43 0 77.5 1t52 1.5t18.5 0.5q9 0 9 -8v-23q0 -8 -10 -8h-60q-22 0 -28.5 -8t-6.5 -31q0 -4 -0.5 -48t-1.5 -99.5t-1 -86.5v-86q0 -233 3 -274
q20 -2 122.5 -2.5t128.5 2.5q27 4 57.5 39.5t48.5 69.5t27 59q3 6 8 4l16 -6q3 -2 2 -9q-10 -23 -49 -199q-26 2 -180 2q-89 1 -241 1q-22 0 -51.5 -0.5t-37.5 -0.5t-17 -0.5t-14 -1t-8 -0.5q-8 0 -8 7v25q0 7 7 7h48q43 0 43 27q0 4 1.5 148.5t1.5 180.5zM318 -60
q23 0 43.5 -19.5t20.5 -51.5q0 -49 -31 -87t-56 -52q-7 -7 -14 -7q-9 0 -9 7q0 5 7 11q53 50 53 93q0 15 -13 23l-5 1l-7 3.5t-8 4.5t-8.5 6.5t-7 8t-5.5 11t-2 14.5q0 14 11.5 24t30.5 10z" />
    <glyph glyph-name="lcommaaccent" unicode="&#x13c;" horiz-adv-x="256" 
d="M168 387v-89q0 -203 1 -234q2 -31 26 -31h45q11 0 11 -9v-17q0 -10 -6 -10q-1 0 -17 0.5t-42.5 1.5t-53.5 1q-28 0 -54 -0.5t-41.5 -1.5t-17.5 -1q-7 0 -7 10v17q0 9 13 9h48q21 0 22 25q1 31 1 261v63q0 149 -3 188q-1 25 -13 38.5t-37 21.5l-20 7q-6 2 -6 5v8q0 4 9 7
q93 43 117 58q12 8 21 8t8 -18q-4 -220 -4 -318zM115 -60q23 0 43.5 -19.5t20.5 -51.5q0 -49 -31 -87t-56 -52q-7 -7 -14 -7q-9 0 -9 7q0 5 7 11q53 50 53 93q0 15 -13 23l-4 1q-5 2 -8 3.5t-8 4.5t-8.5 6.5t-7 8t-5.5 11t-2 14.5q0 14 11.5 24t30.5 10z" />
    <glyph glyph-name="Lcaron" unicode="&#x13d;" horiz-adv-x="662" 
d="M140 392v56q0 134 -3 188q-2 21 -9 28.5t-28 7.5h-47q-7 0 -7 10v22q0 7 7 7q3 0 18.5 -0.5t45 -1.5t66.5 -1q43 0 77.5 1t52 1.5t18.5 0.5q9 0 9 -8v-23q0 -8 -10 -8h-60q-22 0 -28.5 -8t-6.5 -31q0 -4 -0.5 -48t-1.5 -99.5t-1 -86.5v-86q0 -233 3 -274
q20 -2 122.5 -2.5t128.5 2.5q27 4 57.5 39.5t48.5 69.5t27 59q3 6 8 4l16 -6q3 -2 2 -9q-10 -23 -49 -199q-26 2 -180 2q-89 1 -241 1q-22 0 -51.5 -0.5t-37.5 -0.5t-17 -0.5t-14 -1t-8 -0.5q-8 0 -8 7v25q0 7 7 7h48q43 0 43 27q0 4 1.5 148.5t1.5 180.5zM518 715
q23 0 43.5 -19.5t20.5 -51.5q0 -49 -31 -87t-56 -52q-7 -7 -14 -7q-9 0 -9 7q0 5 7 11q53 50 53 93q0 15 -13 23l-5 2q-4 1 -7 2.5t-8 4.5t-8.5 6.5t-7 8t-5.5 11t-2 14.5q0 14 11.5 24t30.5 10z" />
    <glyph glyph-name="lcaron" unicode="&#x13e;" horiz-adv-x="256" 
d="M168 387v-89q0 -203 1 -234q2 -31 26 -31h45q11 0 11 -9v-17q0 -10 -6 -10q-1 0 -17 0.5t-42.5 1.5t-53.5 1q-28 0 -54 -0.5t-41.5 -1.5t-17.5 -1q-7 0 -7 10v17q0 9 13 9h48q21 0 22 25q1 31 1 261v63q0 149 -3 188q-1 25 -13 38.5t-37 21.5l-20 7q-6 2 -6 5v8q0 4 9 7
q93 43 117 58q12 8 21 8t8 -18q-4 -220 -4 -318zM275 727q21 0 35 -18.5t14 -52.5q0 -46 -25.5 -82.5t-55.5 -54.5q-9 -6 -14 -6q-9 0 -9 7q0 5 7 11q17 13 29 34.5t12 39.5q0 21 -10 34q-27 17 -27 48q0 18 12 29t32 11z" />
    <glyph glyph-name="Lslash" unicode="&#x141;" horiz-adv-x="662" 
d="M627 211l16 -6q3 -2 2 -9q-10 -23 -49 -199q-6 0 -30 0.5t-71.5 1t-80.5 0.5q-49 0 -133.5 0.5t-105.5 0.5q-23 0 -53 -0.5t-37 -0.5q-8 0 -16.5 -0.5t-13.5 -1t-8 -0.5q-8 0 -8 7v25q0 7 7 7h58q33 0 33 27q0 121 3 248l-93 -36q-6 -3 -9 4l-10 26q-3 7 6 11l106 40v92
q0 134 -3 188q-2 21 -9 28.5t-28 7.5h-47q-7 0 -7 10v22q0 7 7 7q3 0 18.5 -0.5t45 -1.5t66.5 -1q47 0 81.5 1t50 1.5t16.5 0.5q9 0 9 -8v-23q0 -8 -10 -8h-58q-24 0 -30.5 -8t-6.5 -31q0 -4 -0.5 -48t-1.5 -99.5t-1 -86.5v-12l215 80q9 3 12 -4l9 -25q4 -9 -4 -11l-232 -85
v-29q0 -233 3 -274q20 -2 122.5 -2.5t128.5 2.5q27 4 57.5 39.5t48.5 69.5t27 59q3 6 8 4z" />
    <glyph glyph-name="lslash" unicode="&#x142;" horiz-adv-x="291" 
d="M180 415v-70q0 -250 1 -276q1 -22 6 -29t15 -7h49q12 0 12 -9v-17q0 -10 -7 -10q-2 0 -23 0.5t-47.5 1.5t-41.5 1q-21 0 -66.5 -1.5t-46.5 -1.5q-7 0 -7 10v17q0 9 13 9h46q23 0 24 28t1 284v23l-52 -34q-5 -3 -11 5l-12 19q-3 6 5 11l70 44v26q0 92 -3 131q-1 25 -13 38
t-37 22l-20 7q-6 2 -6 5v8q0 4 9 7q93 43 117 58q12 8 21 8q8 0 8 -18q-4 -110 -4 -231v-13l55 37q6 4 11 -2l12 -19q2 -3 1.5 -5.5t-1.5 -4.5l-2 -2z" />
    <glyph glyph-name="Nacute" unicode="&#x143;" horiz-adv-x="795" 
d="M135 408v170q0 43 -19 67.5t-47 25.5l-41 1q-6 0 -6 7v26q0 6 6 6q1 0 10 -0.5t18 -0.5q30 -2 71 -2q20 0 42 1t25 1q17 0 29 -13q2 -3 52 -67.5t102 -131.5t56 -73q3 -4 50 -61.5t95 -117.5t59 -74h4v119q0 113 -3 188q-3 129 -12 154q-12 39 -55 39h-32q-6 0 -6 7v26
q0 6 6 6q1 0 36.5 -1.5t73.5 -1.5q36 0 66 1.5t31 1.5q8 0 8 -7v-25q0 -7 -6 -7h-27q-20 0 -28.5 -13t-10.5 -42q-4 -67 -4 -231v-374q0 -24 -5 -24q-12 0 -24 16q-1 1 -122 154q-148 184 -149 185q-7 6 -99.5 121.5t-101.5 127.5h-6v-222q0 -176 10 -276q3 -32 10.5 -45
t26.5 -13h30q8 0 8 -9v-22q0 -8 -8 -8q-3 0 -42 1.5t-55 1.5q-12 0 -54 -1.5t-46 -1.5q-5 0 -5 7v26q0 6 6 6h34q22 0 31.5 12.5t13.5 48.5q4 38 4 311zM362 769l-12 16q-4 4 2 8l137 113q25 20 41 20q15 0 25.5 -10.5t10.5 -24.5q0 -25 -29 -40l-168 -82q-4 -3 -7 0z" />
    <glyph glyph-name="nacute" unicode="&#x144;" horiz-adv-x="532" 
d="M448 312v-258q0 -21 22 -21h32q11 0 11 -9v-16q0 -11 -8 -11q-2 0 -14 0.5t-34 1.5t-47 1q-22 0 -43 -0.5t-33 -1.5t-14 -1q-8 0 -8 11v16q0 9 13 9h29q19 0 20 23q2 52 2 84v132q0 25 -1 37.5t-7.5 27.5t-20.5 25q-24 18 -73 18q-44 0 -81 -39q-23 -25 -23 -68v-207
q0 -21 4.5 -27t19.5 -6h25q10 0 10 -10v-17q0 -9 -7 -9q-2 0 -13 0.5t-31 1.5t-43 1t-43.5 -0.5t-32.5 -1.5t-13 -1q-7 0 -7 9v18q0 9 10 9h29q11 0 15.5 4t4.5 16v234q0 39 -41 59l-8 4q-8 3 -8 9v5q0 6 9 10l86 48q14 7 18 7q6 0 8 -12l7 -61h2q23 29 62 51t75 22
q52 0 85 -22q21 -14 38 -44.5t17 -50.5zM243 486l-12 10q-3 3 0 6l96 119q21 25 42 25q23 0 30.5 -22.5t-19.5 -43.5l-131 -94q-3 -3 -6 0z" />
    <glyph glyph-name="Ncommaaccent" unicode="&#x145;" horiz-adv-x="795" 
d="M135 408v170q0 43 -19 67.5t-47 25.5l-41 1q-6 0 -6 7v26q0 6 6 6q1 0 10 -0.5t18 -0.5q30 -2 71 -2q20 0 42 1t25 1q17 0 29 -13q2 -3 52 -67.5t102 -131.5t56 -73q3 -4 50 -61.5t95 -117.5t59 -74h4v119q0 113 -3 188q-3 129 -12 154q-12 39 -55 39h-32q-6 0 -6 7v26
q0 6 6 6q1 0 36.5 -1.5t73.5 -1.5q36 0 66 1.5t31 1.5q8 0 8 -7v-25q0 -7 -6 -7h-27q-20 0 -28.5 -13t-10.5 -42q-4 -67 -4 -231v-374q0 -24 -5 -24q-12 0 -24 16q-1 1 -122 154q-148 184 -149 185q-7 6 -99.5 121.5t-101.5 127.5h-6v-222q0 -176 10 -276q3 -32 10.5 -45
t26.5 -13h30q8 0 8 -9v-22q0 -8 -8 -8q-3 0 -42 1.5t-55 1.5q-12 0 -54 -1.5t-46 -1.5q-5 0 -5 7v26q0 6 6 6h34q22 0 31.5 12.5t13.5 48.5q4 38 4 311zM385 -20q23 0 43.5 -19.5t20.5 -51.5q0 -49 -31 -87t-56 -52q-7 -7 -14 -7q-9 0 -9 7q0 5 7 11q53 50 53 93
q0 15 -13 23l-4 1q-5 2 -8 3.5t-8 4.5t-8.5 6.5t-7 8t-5.5 11t-2 14.5q0 14 11.5 24t30.5 10z" />
    <glyph glyph-name="ncommaaccent" unicode="&#x146;" horiz-adv-x="532" 
d="M448 312v-258q0 -21 22 -21h32q11 0 11 -9v-16q0 -11 -8 -11q-2 0 -14 0.5t-34 1.5t-47 1q-22 0 -43 -0.5t-33 -1.5t-14 -1q-8 0 -8 11v16q0 9 13 9h29q19 0 20 23q2 52 2 84v132q0 25 -1 37.5t-7.5 27.5t-20.5 25q-24 18 -73 18q-44 0 -81 -39q-23 -25 -23 -68v-207
q0 -21 4.5 -27t19.5 -6h25q10 0 10 -10v-17q0 -9 -7 -9q-2 0 -13 0.5t-31 1.5t-43 1t-43.5 -0.5t-32.5 -1.5t-13 -1q-7 0 -7 9v18q0 9 10 9h29q11 0 15.5 4t4.5 16v234q0 39 -41 59l-8 4q-8 3 -8 9v5q0 6 9 10l86 48q14 7 18 7q6 0 8 -12l7 -61h2q23 29 62 51t75 22
q52 0 85 -22q21 -14 38 -44.5t17 -50.5zM253 -60q23 0 43.5 -19.5t20.5 -51.5q0 -49 -31 -87t-56 -52q-7 -7 -14 -7q-9 0 -9 7q0 5 7 11q53 50 53 93q0 15 -13 23l-4 1q-5 2 -8 3.5t-8 4.5t-8.5 6.5t-7 8t-5.5 11t-2 14.5q0 14 11.5 24t30.5 10z" />
    <glyph glyph-name="Ncaron" unicode="&#x147;" horiz-adv-x="795" 
d="M135 408v170q0 43 -19 67.5t-47 25.5l-41 1q-6 0 -6 7v26q0 6 6 6q1 0 10 -0.5t18 -0.5q30 -2 71 -2q20 0 42 1t25 1q17 0 29 -13q2 -3 52 -67.5t102 -131.5t56 -73q3 -4 50 -61.5t95 -117.5t59 -74h4v119q0 113 -3 188q-3 129 -12 154q-12 39 -55 39h-32q-6 0 -6 7v26
q0 6 6 6q1 0 36.5 -1.5t73.5 -1.5q36 0 66 1.5t31 1.5q8 0 8 -7v-25q0 -7 -6 -7h-27q-20 0 -28.5 -13t-10.5 -42q-4 -67 -4 -231v-374q0 -24 -5 -24q-12 0 -24 16q-1 1 -122 154q-148 184 -149 185q-7 6 -99.5 121.5t-101.5 127.5h-6v-222q0 -176 10 -276q3 -32 10.5 -45
t26.5 -13h30q8 0 8 -9v-22q0 -8 -8 -8q-3 0 -42 1.5t-55 1.5q-12 0 -54 -1.5t-46 -1.5q-5 0 -5 7v26q0 6 6 6h34q22 0 31.5 12.5t13.5 48.5q4 38 4 311zM272 909l131 -56l117 55q8 5 10 1l8 -10q4 -3 -2 -9l-126 -111q-11 -9 -13 -9q-3 0 -14 9l-126 112q-4 4 -1 8l7 9
q3 4 9 1z" />
    <glyph glyph-name="ncaron" unicode="&#x148;" horiz-adv-x="532" 
d="M448 312v-258q0 -21 22 -21h32q11 0 11 -9v-16q0 -11 -8 -11q-2 0 -14 0.5t-34 1.5t-47 1q-22 0 -43 -0.5t-33 -1.5t-14 -1q-8 0 -8 11v16q0 9 13 9h29q19 0 20 23q2 52 2 84v132q0 25 -1 37.5t-7.5 27.5t-20.5 25q-24 18 -73 18q-44 0 -81 -39q-23 -25 -23 -68v-207
q0 -21 4.5 -27t19.5 -6h25q10 0 10 -10v-17q0 -9 -7 -9q-2 0 -13 0.5t-31 1.5t-43 1t-43.5 -0.5t-32.5 -1.5t-13 -1q-7 0 -7 9v18q0 9 10 9h29q11 0 15.5 4t4.5 16v234q0 39 -41 59l-8 4q-8 3 -8 9v5q0 6 9 10l86 48q14 7 18 7q6 0 8 -12l7 -61h2q23 29 62 51t75 22
q52 0 85 -22q21 -14 38 -44.5t17 -50.5zM171 646l110 -76l100 75q6 4 9 1l9 -9q3 -3 -3 -10l-105 -131q-9 -9 -12 -9q-5 0 -13 10l-110 131q-5 5 -2 8l8 9q3 5 9 1z" />
    <glyph glyph-name="Omacron" unicode="&#x14c;" horiz-adv-x="821" 
d="M410 -15q-110 0 -215 65q-59 36 -103 115.5t-44 181.5q0 137 93 249q104 127 271 127q129 0 224 -79q137 -118 137 -299q0 -118 -75 -219q-106 -141 -288 -141zM418 23q62 0 110.5 24.5t75.5 60t44 81t22 81t5 67.5q0 78 -26 146t-66 111t-86 67t-89 24q-1 0 -9.5 0.5
t-15.5 0t-19.5 -1.5t-25 -5t-27 -10t-30.5 -17t-31 -26q-48 -46 -74 -114t-26 -133q0 -75 20 -137.5t50 -102t67 -66.5t70.5 -38.5t60.5 -11.5zM540 834v-33q0 -7 -11 -7h-239q-8 0 -8 7v33q0 7 8 7h241q9 0 9 -7z" />
    <glyph glyph-name="omacron" unicode="&#x14d;" horiz-adv-x="498" 
d="M242 -12q-94 0 -152 69q-33 40 -44 74t-11 89q0 41 22 84.5t64 76.5q62 48 134 48q39 0 77.5 -17t62.5 -41q68 -70 68 -163q0 -84 -65.5 -152t-155.5 -68zM254 18q55 0 90 58.5t35 141.5q0 77 -44 129t-88 52q-47 0 -77 -32q-29 -30 -41 -65t-12 -92q0 -45 7.5 -76
t30.5 -64q36 -52 99 -52zM131 519v32q0 7 8 7h220q9 0 9 -7v-32q0 -7 -11 -7h-218q-8 0 -8 7z" />
    <glyph glyph-name="Ohungarumlaut" unicode="&#x150;" horiz-adv-x="821" 
d="M410 -15q-110 0 -215 65q-59 36 -103 115.5t-44 181.5q0 137 93 249q104 127 271 127q129 0 224 -79q137 -118 137 -299q0 -118 -75 -219q-106 -141 -288 -141zM418 23q62 0 110.5 24.5t75.5 60t44 81t22 81t5 67.5q0 78 -26 146t-66 111t-86 67t-89 24q-1 0 -9.5 0.5
t-15.5 0t-19.5 -1.5t-25 -5t-27 -10t-30.5 -17t-31 -26q-48 -46 -74 -114t-26 -133q0 -75 20 -137.5t50 -102t67 -66.5t70.5 -38.5t60.5 -11.5zM275 769l-12 16q-4 4 2 8l137 111q27 22 42 22t25 -10.5t10 -24.5q0 -23 -29 -38l-168 -84q-4 -3 -7 0zM435 769l-12 16
q-4 4 2 8l137 111q27 22 42 22t25 -10.5t10 -24.5q0 -23 -29 -38l-168 -84q-4 -3 -7 0z" />
    <glyph glyph-name="ohungarumlaut" unicode="&#x151;" horiz-adv-x="498" 
d="M242 -12q-94 0 -152 69q-33 40 -44 74t-11 89q0 41 22 84.5t64 76.5q62 48 134 48q39 0 77.5 -17t62.5 -41q68 -70 68 -163q0 -84 -65.5 -152t-155.5 -68zM254 18q55 0 90 58.5t35 141.5q0 77 -44 129t-88 52q-47 0 -77 -32q-29 -30 -41 -65t-12 -92q0 -45 7.5 -76
t30.5 -64q36 -52 99 -52zM150 486l-12 10q-3 3 0 6l98 119q21 25 41 25q22 0 28.5 -22t-20.5 -44l-129 -94q-3 -3 -6 0zM285 486l-12 10q-3 3 0 6l98 119q21 25 41 25q22 0 28.5 -22t-20.5 -44l-129 -94q-3 -3 -6 0z" />
    <glyph glyph-name="OE" unicode="&#x152;" horiz-adv-x="1119" 
d="M665 675v-292q97 0 133 6q22 4 30.5 12.5t14.5 31.5q7 22 8 49q0 8 9 7l22 -2q4 0 6.5 -1.5t1.5 -5.5q-3 -17 -3 -114q0 -41 6 -104q1 -8 -8 -8l-20 -3q-7 -1 -8 6q-4 19 -12 50q-8 35 -42 39q-48 5 -138 5v-62q0 -31 1 -98t1 -73q0 -41 11.5 -57t37.5 -22q28 -6 83 -6
q63 0 97 3q44 2 78 34q10 10 41 50t40 56q6 10 15 4l12 -7q8 -5 6 -10l-55 -151q-5 -15 -17 -15q-1 0 -10 0.5t-30 1t-47 0.5q-18 0 -120.5 0.5t-192.5 0.5q-22 0 -94 -7q-62 -8 -102 -8q-138 0 -226 65q-146 116 -146 313q0 126 79 225q48 62 126.5 98.5t158.5 36.5
q44 0 121 -7q66 -8 81 -8h324q17 0 33 2q3 0 7 0.5t6 1t3 0.5q6 0 8 -5q2 -7 13.5 -44.5t23.5 -76t13 -41.5q3 -7 -3 -9l-12 -7q-8 -3 -10 2q-3 5 -43.5 55t-54.5 61q-33 25 -64 25zM578 99v500q-24 43 -69 64t-85 21q-119 0 -177 -51q-97 -88 -97 -254q0 -77 19 -140
t48.5 -102.5t67.5 -66t73.5 -37.5t69.5 -11q119 0 150 77z" />
    <glyph glyph-name="oe" unicode="&#x153;" horiz-adv-x="760" 
d="M238 -12q-91 0 -149 70q-54 64 -54 153q0 99 76 161q68 57 149 57q98 0 160 -80q57 80 156 80q36 0 64 -13t43.5 -30.5t25 -40t12.5 -38t3 -26.5q0 -15 -20 -15h-255q-3 -24 -3 -45q0 -74 40.5 -125t101.5 -51q80 0 121 67q5 9 12 6l10 -6q4 -2 0 -14q-17 -41 -58 -75.5
t-98 -34.5q-103 0 -157 79q-72 -79 -180 -79zM253 18q50 0 87 46.5t37 139.5q0 103 -37 149t-83 46q-45 0 -85 -34q-55 -46 -55 -143q1 -94 35 -145q44 -59 101 -59zM455 296h156q25 0 25 15q0 12 -3 24.5t-10 28t-24 25.5t-41 10q-33 0 -61 -25.5t-42 -77.5z" />
    <glyph glyph-name="Racute" unicode="&#x154;" horiz-adv-x="697" 
d="M139 358v97q0 138 -1 167q-2 50 -38 50h-40q-6 0 -6 7v25q0 7 6 7q2 0 16 -0.5t42.5 -1.5t65.5 -1q33 0 98 1.5t69 1.5q123 0 187 -61q52 -50 52 -114q0 -91 -43 -134.5t-142 -65.5v-2q25 -9 46 -38q8 -9 46 -62.5t45 -65.5q5 -11 40 -58.5t48 -56.5q24 -17 72 -17
q8 0 8 -8v-22q0 -9 -8 -9q-2 0 -13 0.5t-28.5 1.5t-36.5 1q-36 0 -81 -3q-7 6 -42 57q-5 7 -35.5 60t-31.5 55q-4 7 -30 45.5t-34 47.5q-16 20 -27 30t-32.5 19t-48.5 9q-19 0 -33 -3v-56q0 -156 2 -186q4 -39 25 -39h63q8 0 8 -8v-22q0 -6 -2 -7.5t-9 -1.5q-2 0 -15.5 0.5
t-43.5 1.5t-72 1q-40 0 -68.5 -0.5t-41.5 -1.5t-15 -1q-8 0 -8 8v23q0 8 5 8h41q39 0 39 34q2 99 2 288zM229 639v-283q20 -4 45 -4q64 0 110 19.5t67.5 49t30.5 54t9 44.5q0 34 -14 65t-36 49q-58 46 -166 46q-22 0 -34 -8q-12 -9 -12 -32zM313 769l-12 16q-4 4 2 8
l137 113q25 20 41 20q15 0 25.5 -10.5t10.5 -24.5q0 -25 -29 -40l-168 -82q-4 -3 -7 0z" />
    <glyph glyph-name="racute" unicode="&#x155;" horiz-adv-x="341" 
d="M97 172v94q0 37 -7 50.5t-29 25.5l-19 10q-8 3 -8 7v6q0 5 8 9l99 51q8 4 14 4q7 0 7 -12l5 -71h4q24 37 56.5 62t63.5 25q24 0 37.5 -13t13.5 -31q0 -20 -13.5 -34.5t-28.5 -14.5q-13 0 -29 8q-13 8 -33 8q-37 0 -59 -42q-10 -18 -10 -32v-208q0 -23 6 -32t22 -9h47
q7 0 7 -9v-18q0 -9 -5 -9q-1 0 -16.5 0.5t-40.5 1.5t-49 1q-27 0 -53 -0.5t-41 -1.5t-16 -1q-6 0 -6 10v17q0 9 11 9h39q22 0 22 19q1 33 1 120zM178 486l-12 10q-3 3 0 6l96 119q21 25 42 25q23 0 30.5 -22.5t-19.5 -43.5l-131 -94q-3 -3 -6 0z" />
    <glyph glyph-name="Rcommaaccent" unicode="&#x156;" horiz-adv-x="697" 
d="M139 358v97q0 138 -1 167q-2 50 -38 50h-40q-6 0 -6 7v25q0 7 6 7q2 0 16 -0.5t42.5 -1.5t65.5 -1q33 0 98 1.5t69 1.5q123 0 187 -61q52 -50 52 -114q0 -91 -43 -134.5t-142 -65.5v-2q25 -9 46 -38q8 -9 46 -62.5t45 -65.5q5 -11 40 -58.5t48 -56.5q24 -17 72 -17
q8 0 8 -8v-22q0 -9 -8 -9q-2 0 -13 0.5t-28.5 1.5t-36.5 1q-36 0 -81 -3q-7 6 -42 57q-5 7 -35.5 60t-31.5 55q-4 7 -30 45.5t-34 47.5q-16 20 -27 30t-32.5 19t-48.5 9q-19 0 -33 -3v-56q0 -156 2 -186q4 -39 25 -39h63q8 0 8 -8v-22q0 -6 -2 -7.5t-9 -1.5q-2 0 -15.5 0.5
t-43.5 1.5t-72 1q-40 0 -68.5 -0.5t-41.5 -1.5t-15 -1q-8 0 -8 8v23q0 8 5 8h41q39 0 39 34q2 99 2 288zM229 639v-283q20 -4 45 -4q64 0 110 19.5t67.5 49t30.5 54t9 44.5q0 34 -14 65t-36 49q-58 46 -166 46q-22 0 -34 -8q-12 -9 -12 -32zM356 -40q23 0 43.5 -19.5
t20.5 -51.5q0 -49 -31 -87t-56 -52q-7 -7 -14 -7q-9 0 -9 7q0 5 7 11q53 50 53 93q0 15 -13 23l-5 1l-7 3.5t-8 4.5t-8.5 6.5t-7 8t-5.5 11t-2 14.5q0 14 11.5 24t30.5 10z" />
    <glyph glyph-name="rcommaaccent" unicode="&#x157;" horiz-adv-x="341" 
d="M97 172v94q0 37 -7 50.5t-29 25.5l-19 10q-8 3 -8 7v6q0 5 8 9l99 51q8 4 14 4q7 0 7 -12l5 -71h4q24 37 56.5 62t63.5 25q24 0 37.5 -13t13.5 -31q0 -20 -13.5 -34.5t-28.5 -14.5q-13 0 -29 8q-13 8 -33 8q-37 0 -59 -42q-10 -18 -10 -32v-208q0 -23 6 -32t22 -9h47
q7 0 7 -9v-18q0 -9 -5 -9q-1 0 -16.5 0.5t-40.5 1.5t-49 1q-27 0 -53 -0.5t-41 -1.5t-16 -1q-6 0 -6 10v17q0 9 11 9h39q22 0 22 19q1 33 1 120zM138 -60q23 0 43.5 -19.5t20.5 -51.5q0 -49 -31 -87t-56 -52q-7 -7 -14 -7q-9 0 -9 7q0 5 7 11q53 50 53 93q0 15 -13 23l-5 1
l-7 3.5t-8 4.5t-8.5 6.5t-7 8t-5.5 11t-2 14.5q0 14 11.5 24t30.5 10z" />
    <glyph glyph-name="Rcaron" unicode="&#x158;" horiz-adv-x="697" 
d="M139 358v97q0 138 -1 167q-2 50 -38 50h-40q-6 0 -6 7v25q0 7 6 7q2 0 16 -0.5t42.5 -1.5t65.5 -1q33 0 98 1.5t69 1.5q123 0 187 -61q52 -50 52 -114q0 -91 -43 -134.5t-142 -65.5v-2q25 -9 46 -38q8 -9 46 -62.5t45 -65.5q5 -11 40 -58.5t48 -56.5q24 -17 72 -17
q8 0 8 -8v-22q0 -9 -8 -9q-2 0 -13 0.5t-28.5 1.5t-36.5 1q-36 0 -81 -3q-7 6 -42 57q-5 7 -35.5 60t-31.5 55q-4 7 -30 45.5t-34 47.5q-16 20 -27 30t-32.5 19t-48.5 9q-19 0 -33 -3v-56q0 -156 2 -186q4 -39 25 -39h63q8 0 8 -8v-22q0 -6 -2 -7.5t-9 -1.5q-2 0 -15.5 0.5
t-43.5 1.5t-72 1q-40 0 -68.5 -0.5t-41.5 -1.5t-15 -1q-8 0 -8 8v23q0 8 5 8h41q39 0 39 34q2 99 2 288zM229 639v-283q20 -4 45 -4q64 0 110 19.5t67.5 49t30.5 54t9 44.5q0 34 -14 65t-36 49q-58 46 -166 46q-22 0 -34 -8q-12 -9 -12 -32zM223 909l131 -56l117 55
q8 5 10 1l8 -10q3 -3 -2 -9l-126 -111q-11 -9 -13 -9q-3 0 -14 9l-126 112q-4 4 -1 8l7 9q3 4 9 1z" />
    <glyph glyph-name="rcaron" unicode="&#x159;" horiz-adv-x="341" 
d="M97 172v94q0 37 -7 50.5t-29 25.5l-19 10q-8 3 -8 7v6q0 5 8 9l99 51q8 4 14 4q7 0 7 -12l5 -71h4q24 37 56.5 62t63.5 25q24 0 37.5 -13t13.5 -31q0 -20 -13.5 -34.5t-28.5 -14.5q-13 0 -29 8q-13 8 -33 8q-37 0 -59 -42q-10 -18 -10 -32v-208q0 -23 6 -32t22 -9h47
q7 0 7 -9v-18q0 -9 -5 -9q-1 0 -16.5 0.5t-40.5 1.5t-49 1q-27 0 -53 -0.5t-41 -1.5t-16 -1q-6 0 -6 10v17q0 9 11 9h39q22 0 22 19q1 33 1 120zM85 646l110 -76l100 75q6 4 9 1l9 -9q3 -3 -3 -10l-105 -131q-9 -9 -12 -9q-5 0 -13 10l-110 131q-5 5 -2 8l8 9q3 5 9 1z" />
    <glyph glyph-name="Sacute" unicode="&#x15a;" horiz-adv-x="548" 
d="M292 -15q-92 0 -159 52q-16 12 -23 12q-6 0 -16 -17q-7 -12 -18 -12q-12 0 -9 16q2 15 9.5 96t7.5 85q1 6 7 6l15 -1q6 0 6 -8q2 -63 36 -116q22 -35 60 -54.5t80 -19.5q52 0 94 32.5t42 94.5q0 70 -40.5 106.5t-113.5 62.5q-104 37 -146 81q-50 50 -50 146q0 70 62 128
q51 48 140 48q65 0 118 -25q12 -6 19 1l13 12q8 6 13 6q8 0 8 -17q0 -20 7 -86.5t7 -72.5q0 -7 -5 -8l-12 -3q-4 -2 -6 3q-18 65 -62 111q-40 43 -109 43q-61 0 -91 -36t-30 -81q0 -55 31 -87q36 -36 114 -60q46 -15 67 -22.5t49 -23.5t45 -37q44 -52 44 -136
q0 -93 -54.5 -156t-149.5 -63zM229 769l-12 16q-4 4 2 8l137 113q25 20 41 20q15 0 25.5 -10.5t10.5 -24.5q0 -25 -29 -40l-168 -82q-4 -3 -7 0z" />
    <glyph glyph-name="sacute" unicode="&#x15b;" horiz-adv-x="356" 
d="M166 -12q-62 0 -101 29q-4 2 -6 14l-17 95q-1 6 6 8l13 3q6 1 9 -6l25 -49q12 -23 20 -33.5t25 -19.5t42 -9q30 0 54.5 17.5t24.5 50.5q0 35 -21 56t-76 36q-118 34 -118 127q0 51 41.5 86.5t98.5 35.5q50 0 92 -21q16 -8 18 -18l15 -70q0 -6 -7 -9l-12 -4q-5 -1 -9 5
l-34 46q-25 39 -70 39q-31 0 -54 -17.5t-23 -48.5q0 -17 6 -30t12.5 -20t23.5 -14.5t24.5 -10t29.5 -8.5q60 -17 89.5 -45.5t30.5 -82.5q-1 -60 -44 -96t-108 -36zM155 486l-12 10q-3 3 0 6l96 119q21 25 42 25q23 0 30.5 -22.5t-19.5 -43.5l-131 -94q-3 -3 -6 0z" />
    <glyph glyph-name="Scedilla" unicode="&#x15e;" horiz-adv-x="548" 
d="M313 -14l-46 -54q28 -8 47.5 -27t19.5 -41q0 -44 -51.5 -72t-106.5 -28q-20 0 -20 20q0 14 32 14q28 0 53.5 15t25.5 41q0 36 -64 51l67 81q-76 5 -137 51q-16 12 -23 12q-6 0 -16 -17q-7 -12 -18 -12q-12 0 -9 16q2 15 9.5 96t7.5 85q1 6 7 6l15 -1q6 0 6 -8
q2 -63 36 -116q22 -35 60 -54.5t80 -19.5q52 0 94 32.5t42 94.5q0 70 -41 106.5t-115 60.5q-94 30 -144 83q-50 50 -50 146q0 70 62 128q51 48 140 48q65 0 118 -25q12 -6 19 1l13 12q8 6 13 6q8 0 8 -17q0 -20 7 -86.5t7 -72.5q0 -7 -5 -8l-12 -3q-4 -2 -6 3
q-18 65 -62 111q-40 43 -109 43q-61 0 -91 -36t-30 -81q0 -55 31 -87q36 -36 114 -60q46 -15 67 -22.5t49 -23.5t45 -37q44 -52 44 -136q0 -88 -48.5 -149.5t-134.5 -68.5z" />
    <glyph glyph-name="scedilla" unicode="&#x15f;" horiz-adv-x="356" 
d="M222 -4l-55 -64q25 -7 43.5 -26.5t18.5 -41.5q0 -44 -49.5 -72t-103.5 -28q-20 0 -20 20q0 14 32 14q28 0 54.5 15t26.5 41q0 39 -66 51l68 83h-5q-62 0 -101 29q-4 2 -6 14l-17 95q-1 6 6 8l13 3q6 1 9 -6l25 -49q11 -22 19.5 -33t25.5 -20t42 -9q30 0 54.5 17.5
t24.5 50.5q0 35 -21 56t-76 36q-118 34 -118 127q0 51 41.5 86.5t98.5 35.5q50 0 92 -21q16 -8 18 -18l15 -70q0 -6 -7 -9l-12 -4q-5 -1 -9 5l-34 46q-28 39 -70 39q-31 0 -54 -17.5t-23 -48.5q0 -17 6 -30t12.5 -20t23.5 -14.5t24.5 -10t29.5 -8.5q60 -17 90 -45.5
t30 -82.5q0 -45 -26.5 -78t-69.5 -46z" />
    <glyph glyph-name="Scaron" unicode="&#x160;" horiz-adv-x="548" 
d="M292 -15q-92 0 -159 52q-16 12 -23 12q-6 0 -16 -17q-7 -12 -18 -12q-12 0 -9 16q2 15 9.5 96t7.5 85q1 6 7 6l15 -1q6 0 6 -8q2 -63 36 -116q22 -35 60 -54.5t80 -19.5q52 0 94 32.5t42 94.5q0 70 -40.5 106.5t-113.5 62.5q-104 37 -146 81q-50 50 -50 146q0 70 62 128
q51 48 140 48q65 0 118 -25q12 -6 19 1l13 12q8 6 13 6q8 0 8 -17q0 -20 7 -86.5t7 -72.5q0 -7 -5 -8l-12 -3q-4 -2 -6 3q-18 65 -62 111q-40 43 -109 43q-61 0 -91 -36t-30 -81q0 -55 31 -87q36 -36 114 -60q46 -15 67 -22.5t49 -23.5t45 -37q44 -52 44 -136
q0 -93 -54.5 -156t-149.5 -63zM169 909l131 -56l117 55q8 5 10 1l8 -10q3 -3 -2 -9l-126 -111q-11 -9 -13 -9q-3 0 -14 9l-126 112q-4 4 -1 8l7 9q3 4 9 1z" />
    <glyph glyph-name="scaron" unicode="&#x161;" horiz-adv-x="356" 
d="M166 -12q-62 0 -101 29q-4 2 -6 14l-17 95q-1 6 6 8l13 3q6 1 9 -6l25 -49q12 -23 20 -33.5t25 -19.5t42 -9q30 0 54.5 17.5t24.5 50.5q0 35 -21 56t-76 36q-118 34 -118 127q0 51 41.5 86.5t98.5 35.5q50 0 92 -21q16 -8 18 -18l15 -70q0 -6 -7 -9l-12 -4q-5 -1 -9 5
l-34 46q-25 39 -70 39q-31 0 -54 -17.5t-23 -48.5q0 -17 6 -30t12.5 -20t23.5 -14.5t24.5 -10t29.5 -8.5q60 -17 89.5 -45.5t30.5 -82.5q-1 -60 -44 -96t-108 -36zM85 646l110 -76l100 75q6 4 9 1l9 -9q3 -3 -3 -10l-105 -131q-9 -9 -12 -9q-5 0 -13 10l-110 131q-5 5 -2 8
l8 9q3 5 9 1z" />
    <glyph glyph-name="uni0162" unicode="&#x162;" horiz-adv-x="702" 
d="M355 0h-8q-42 0 -76.5 -0.5t-53 -1.5t-22.5 -1q-9 0 -9 10v19q0 10 7 10h68q14 0 23 7t10 17q3 29 3 355v257h-25q-119 0 -158 -12q-44 -14 -89 -116q-3 -6 -10 -5l-18 5q-6 2 -4 8q43 156 47 176q2 16 10 16q7 0 12 -4l13 -9q22 -16 57 -17q159 -6 189 -6h48q54 0 201 6
q31 1 52 14l19 12q7 4 12 4q7 0 9 -16q0 -2 6 -39.5t12.5 -79.5t10.5 -61q1 -7 -6 -8l-16 -4q-5 -1 -8 7q-41 97 -71 112q-34 17 -173 17h-28v-285q0 -294 1 -311q3 -40 34 -40h63q10 0 10 -10v-21q0 -8 -10 -8q-3 0 -13 0.5l-30 1.5t-45 1l-58 -68q25 -7 43.5 -26.5
t18.5 -41.5q0 -44 -49.5 -72t-103.5 -28q-20 0 -20 20q0 14 32 14q28 0 54.5 15t26.5 41q0 39 -66 51z" />
    <glyph glyph-name="uni0163" unicode="&#x163;" horiz-adv-x="319" 
d="M169 225v-100q0 -50 16.5 -69t35.5 -19q46 0 66 13q7 4 12 -2l5 -9q4 -5 -2 -11q-17 -17 -48 -28l-57 -68q25 -7 43.5 -26.5t18.5 -41.5q0 -44 -49.5 -72t-103.5 -28q-20 0 -20 20q0 14 32 14q28 0 54.5 15t26.5 41q0 39 -66 51l68 83h-10q-36 0 -66.5 28t-30.5 57
q0 24 1.5 81.5t1.5 61.5v22q0 44 2 128h-61q-15 0 -15 12q0 8 18 18q20 12 62.5 56.5t51.5 68.5q4 10 14 10t10 -15l-5 -98h139q11 0 7 -9l-10 -35q-2 -8 -9 -8h-129q-3 -69 -3 -141z" />
    <glyph glyph-name="Tcaron" unicode="&#x164;" horiz-adv-x="702" 
d="M297 415v257h-25q-119 0 -158 -12q-44 -14 -89 -116q-3 -6 -10 -5l-18 5q-6 2 -4 8q43 156 47 176q2 16 10 16q7 0 12 -4l13 -9q22 -16 57 -17q159 -6 189 -6h48q54 0 201 6q31 1 52 14l19 12q7 4 12 4q7 0 9 -16q0 -2 6 -39.5t12.5 -79.5t10.5 -61q1 -7 -6 -8l-16 -4
q-5 -1 -8 7q-41 97 -71 112q-34 17 -173 17h-28v-285q0 -294 1 -311q3 -40 34 -40h63q10 0 10 -10v-21q0 -8 -10 -8q-2 0 -17 0.5t-47.5 1.5t-75.5 1q-42 0 -76.5 -0.5t-53 -1.5t-22.5 -1q-9 0 -9 10v19q0 10 7 10h68q14 0 23 7t10 17q3 29 3 355zM226 909l131 -56l117 55
q8 5 10 1l8 -10q4 -3 -2 -9l-126 -111q-11 -9 -13 -9q-3 0 -14 9l-126 112q-4 4 -1 8l7 9q3 4 9 1z" />
    <glyph glyph-name="tcaron" unicode="&#x165;" horiz-adv-x="319" 
d="M169 225v-100q0 -50 16.5 -69t35.5 -19q46 0 66 13q7 4 12 -2l5 -9q4 -5 -2 -11q-13 -13 -42.5 -26.5t-68.5 -13.5q-36 0 -66.5 28t-30.5 57q0 24 1.5 81.5t1.5 61.5v22q0 44 2 128h-61q-15 0 -15 12q0 8 18 18q20 12 62.5 56.5t51.5 68.5q4 10 14 10t10 -15l-5 -98h139
q11 0 7 -9l-10 -35q-2 -8 -9 -8h-129q-3 -69 -3 -141zM298 695q21 0 35 -18.5t14 -52.5q0 -46 -25.5 -82.5t-55.5 -54.5q-9 -6 -14 -6q-9 0 -9 7q0 5 7 11q17 13 29 34.5t12 39.5q0 21 -10 34q-27 17 -27 48q0 18 12 29t32 11z" />
    <glyph glyph-name="Umacron" unicode="&#x16a;" horiz-adv-x="746" 
d="M370 -15q-86 0 -135 21q-94 38 -119 134q-16 60 -16 243v238q0 28 -8 39.5t-30 11.5h-47q-7 0 -7 9v22q0 8 9 8q2 0 20.5 -0.5t50.5 -1.5t66 -1t65.5 1t50 1.5t21.5 0.5q9 0 9 -6v-26q0 -7 -8 -7h-50q-21 0 -33.5 -12t-14.5 -29q-2 -18 -2 -130v-66q0 -52 5 -212
q2 -82 32 -127q49 -72 159 -72q97 0 150 55q52 56 52 176v214q0 117 -5 159q-2 20 -14 32t-31 12h-44q-7 0 -7 8v24q0 7 7 7q3 0 20 -0.5t45.5 -1.5t57.5 -1q30 0 55.5 1t39 1.5t15.5 0.5q10 0 10 -7v-22q0 -10 -6 -10h-41q-6 0 -11 -1t-9 -3t-7 -4t-5 -5t-3.5 -5t-3 -6
t-2 -6t-1.5 -5.5t-1 -4.5q-2 -10 -2 -166q0 -163 -5 -228q-9 -129 -84 -193q-65 -60 -188 -60zM522 834v-33q0 -7 -11 -7h-239q-8 0 -8 7v33q0 7 8 7h241q9 0 9 -7z" />
    <glyph glyph-name="umacron" unicode="&#x16b;" horiz-adv-x="506" 
d="M417 278v-75q0 -97 2 -118q3 -35 26 -35q21 0 33 3q10 3 12 -4l3 -13q1 -7 -5 -9l-105 -35q-12 -4 -20 -4t-9 12l-8 58h-2q-21 -30 -60 -50t-76 -20q-59 0 -94 46q-28 37 -33.5 69.5t-5.5 126.5v117q-1 20 -10 28t-28 10q-22 1 -22 7v18q0 8 11 8h89q6 0 14 2q2 0 6 0.5
t5 0.5q13 0 11 -12q-4 -36 -4 -115v-72q0 -4 -1 -32.5t0 -42t6.5 -36.5t16.5 -39q26 -38 80 -38q19 0 45 15.5t41 34.5q10 12 10 27v239q-1 19 -11.5 26t-31.5 9q-22 0 -22 7v17q0 6 2 7.5t10 1.5h93q7 0 17 2q3 0 7 0.5t5 0.5q11 0 9 -10q-6 -54 -6 -133zM135 519v32
q0 7 8 7h220q9 0 9 -7v-32q0 -7 -11 -7h-218q-8 0 -8 7z" />
    <glyph glyph-name="Uring" unicode="&#x16e;" horiz-adv-x="746" 
d="M370 -15q-86 0 -135 21q-94 38 -119 134q-16 60 -16 243v238q0 28 -8 39.5t-30 11.5h-47q-7 0 -7 9v22q0 8 9 8q2 0 20.5 -0.5t50.5 -1.5t66 -1t65.5 1t50 1.5t21.5 0.5q9 0 9 -6v-26q0 -7 -8 -7h-50q-21 0 -33.5 -12t-14.5 -29q-2 -18 -2 -130v-66q0 -52 5 -212
q2 -82 32 -127q49 -72 159 -72q97 0 150 55q52 56 52 176v214q0 117 -5 159q-2 20 -14 32t-31 12h-44q-7 0 -7 8v24q0 7 7 7q3 0 20 -0.5t45.5 -1.5t57.5 -1q30 0 55.5 1t39 1.5t15.5 0.5q10 0 10 -7v-22q0 -10 -6 -10h-41q-6 0 -11 -1t-9 -3t-7 -4t-5 -5t-3.5 -5t-3 -6
t-2 -6t-1.5 -5.5t-1 -4.5q-2 -10 -2 -166q0 -163 -5 -228q-9 -129 -84 -193q-65 -60 -188 -60zM393 784q-39 0 -66.5 19.5t-27.5 51.5q0 34 30.5 56.5t72.5 22.5q46 0 70.5 -19.5t24.5 -49.5q0 -43 -32.5 -62t-71.5 -19zM398 809q22 0 34.5 13.5t12.5 37.5q0 22 -13.5 35.5
t-31.5 13.5q-23 -1 -36 -16t-13 -33q0 -23 12 -37t35 -14z" />
    <glyph glyph-name="uring" unicode="&#x16f;" horiz-adv-x="506" 
d="M417 278v-75q0 -97 2 -118q3 -35 26 -35q21 0 33 3q10 3 12 -4l3 -13q1 -7 -5 -9l-105 -35q-12 -4 -20 -4t-9 12l-8 58h-2q-21 -30 -60 -50t-76 -20q-59 0 -94 46q-28 37 -33.5 69.5t-5.5 126.5v117q-1 20 -10 28t-28 10q-22 1 -22 7v18q0 8 11 8h89q6 0 14 2q2 0 6 0.5
t5 0.5q13 0 11 -12q-4 -36 -4 -115v-72q0 -4 -1 -32.5t0 -42t6.5 -36.5t16.5 -39q26 -38 80 -38q19 0 45 15.5t41 34.5q10 12 10 27v239q-1 19 -11.5 26t-31.5 9q-22 0 -22 7v17q0 6 2 7.5t10 1.5h93q7 0 17 2q3 0 7 0.5t5 0.5q11 0 9 -10q-6 -54 -6 -133zM249 495
q-41 0 -65 19t-24 47q0 33 27 54t71 21q41 0 65 -19t24 -46q0 -35 -26.5 -55.5t-71.5 -20.5zM253 519q45 0 45 48q0 19 -12 31.5t-29 12.5q-21 0 -34.5 -13.5t-13.5 -33.5t12 -32.5t32 -12.5z" />
    <glyph glyph-name="Uhungarumlaut" unicode="&#x170;" horiz-adv-x="746" 
d="M370 -15q-86 0 -135 21q-94 38 -119 134q-16 60 -16 243v238q0 28 -8 39.5t-30 11.5h-47q-7 0 -7 9v22q0 8 9 8q2 0 20.5 -0.5t50.5 -1.5t66 -1t65.5 1t50 1.5t21.5 0.5q9 0 9 -6v-26q0 -7 -8 -7h-50q-21 0 -33.5 -12t-14.5 -29q-2 -18 -2 -130v-66q0 -52 5 -212
q2 -82 32 -127q49 -72 159 -72q97 0 150 55q52 56 52 176v214q0 117 -5 159q-2 20 -14 32t-31 12h-44q-7 0 -7 8v24q0 7 7 7q3 0 20 -0.5t45.5 -1.5t57.5 -1q30 0 55.5 1t39 1.5t15.5 0.5q10 0 10 -7v-22q0 -10 -6 -10h-41q-6 0 -11 -1t-9 -3t-7 -4t-5 -5t-3.5 -5t-3 -6
t-2 -6t-1.5 -5.5t-1 -4.5q-2 -10 -2 -166q0 -163 -5 -228q-9 -129 -84 -193q-65 -60 -188 -60zM233 769l-12 16q-4 4 2 8l137 111q27 22 42 22t25 -10.5t10 -24.5q0 -23 -29 -38l-168 -84q-4 -3 -7 0zM393 769l-12 16q-4 4 2 8l137 111q27 22 42 22t25 -10.5t10 -24.5
q0 -23 -29 -38l-168 -84q-4 -3 -7 0z" />
    <glyph glyph-name="uhungarumlaut" unicode="&#x171;" horiz-adv-x="506" 
d="M417 278v-75q0 -97 2 -118q3 -35 26 -35q21 0 33 3q10 3 12 -4l3 -13q1 -7 -5 -9l-105 -35q-12 -4 -20 -4t-9 12l-8 58h-2q-21 -30 -60 -50t-76 -20q-59 0 -94 46q-28 37 -33.5 69.5t-5.5 126.5v117q-1 20 -10 28t-28 10q-22 1 -22 7v18q0 8 11 8h89q6 0 14 2q2 0 6 0.5
t5 0.5q13 0 11 -12q-4 -36 -4 -115v-72q0 -4 -1 -32.5t0 -42t6.5 -36.5t16.5 -39q26 -38 80 -38q19 0 45 15.5t41 34.5q10 12 10 27v239q-1 19 -11.5 26t-31.5 9q-22 0 -22 7v17q0 6 2 7.5t10 1.5h93q7 0 17 2q3 0 7 0.5t5 0.5q11 0 9 -10q-6 -54 -6 -133zM154 486l-12 10
q-3 3 0 6l98 119q21 25 41 25q22 0 28.5 -22t-20.5 -44l-129 -94q-3 -3 -6 0zM289 486l-12 10q-3 3 0 6l98 119q21 25 41 25q22 0 28.5 -22t-20.5 -44l-129 -94q-3 -3 -6 0z" />
    <glyph glyph-name="Uogonek" unicode="&#x172;" horiz-adv-x="746" 
d="M692 672q-6 0 -11 -1t-9 -3t-7 -4t-5 -5t-3.5 -5t-3 -6t-2 -6t-1.5 -5.5t-1 -4.5q-2 -10 -2 -166q0 -163 -5 -228q-9 -126 -84 -193q-10 -9 -26.5 -19t-36 -20.5t-26.5 -14.5q-36 -22 -65 -60t-29 -85q0 -29 13 -45.5t36 -16.5q32 0 55 23q13 11 15 11q9 0 9 -16
q0 -21 -31 -43.5t-78 -22.5q-37 0 -68 24.5t-31 69.5t27.5 81.5t88.5 75.5q-26 -2 -41 -2q-82 0 -135 21q-95 39 -119 134q-16 60 -16 243v238q0 28 -8 39.5t-30 11.5h-47q-7 0 -7 9v22q0 8 9 8q2 0 20.5 -0.5t50.5 -1.5t66 -1t65.5 1t50 1.5t21.5 0.5q9 0 9 -6v-26
q0 -7 -8 -7h-50q-21 0 -33.5 -12t-14.5 -29q-2 -18 -2 -130v-66q0 -52 5 -212q2 -82 32 -127q49 -72 159 -72q97 0 150 55q52 56 52 176v214q0 117 -5 159q-2 20 -14 32t-31 12h-44q-7 0 -7 8v24q0 7 7 7q3 0 20 -0.5t45.5 -1.5t57.5 -1q30 0 55.5 1t39 1.5t15.5 0.5
q10 0 10 -7v-22q0 -10 -6 -10h-41z" />
    <glyph glyph-name="uogonek" unicode="&#x173;" horiz-adv-x="506" 
d="M356 -8q-3 18 -10 66h-2q-21 -30 -60 -50t-76 -20q-59 0 -94 46q-28 37 -33.5 69.5t-5.5 126.5v117q0 35 -38 38q-22 3 -22 7v18q0 8 11 8h89q6 0 14 2q2 0 6 0.5t5 0.5q13 0 11 -12q-4 -36 -4 -115v-72q0 -4 -1 -32.5t0 -42t6.5 -36.5t16.5 -39q26 -38 80 -38
q19 0 45 15.5t41 34.5q10 12 10 27v239q0 19 -11 26.5t-32 8.5q-22 1 -22 7v17q0 6 2 7.5t10 1.5h93q7 0 17 2q3 0 7 0.5t5 0.5q11 0 9 -10q-6 -54 -6 -133v-75q0 -97 2 -118q3 -35 26 -35q21 0 33 3q10 3 12 -4l3 -13q1 -7 -6 -10q-39 -13 -70 -31q-80 -47 -80 -128
q0 -26 12.5 -41.5t33.5 -15.5q27 0 51 22q10 10 14 10q9 0 9 -15q0 -20 -29.5 -41.5t-72.5 -21.5q-35 0 -63.5 23t-28.5 68q0 28 18 57t33.5 44t41.5 36z" />
    <glyph glyph-name="Ydieresis" unicode="&#x178;" horiz-adv-x="665" 
d="M369 317v-131q0 -71 4 -115q2 -22 12 -28.5t32 -6.5h39q7 0 7 -7v-23q0 -9 -7 -9q-3 0 -19.5 0.5t-47.5 1.5t-68 1q-40 0 -70 -0.5t-45 -1.5t-17 -1q-6 0 -6 8v24q0 7 7 7h49q33 0 35 25q3 42 3 186v58q-13 26 -101 173t-107 170q-21 24 -52 24h-25q-7 0 -7 7v26q0 6 7 6
q2 0 19 -0.5t44 -1.5t54 -1q45 0 80 1t51 1.5t18 0.5q7 0 7 -5v-25q0 -9 -7 -9h-33q-22 0 -27.5 -7t-2.5 -26q1 -7 32.5 -65.5t72.5 -132t51 -92.5q10 15 59.5 90t84.5 130.5t37 63.5q7 13 1 26t-34 13h-27q-7 0 -7 9v24q0 6 7 6q3 0 18.5 -0.5t43 -1.5t56.5 -1q26 0 46.5 1
t31 1.5t12.5 0.5q8 0 8 -6v-24q0 -9 -8 -9h-25q-26 0 -49 -22q-20 -19 -237 -333zM267 880q17 0 30.5 -13t13.5 -35q0 -20 -13 -32.5t-31 -12.5t-35 11.5t-17 37.5q0 14 12.5 29t39.5 15zM466 880q18 0 31.5 -13t13.5 -35q0 -20 -13 -32.5t-32 -12.5q-18 0 -35 11.5
t-17 37.5q0 14 12.5 29t39.5 15z" />
    <glyph glyph-name="Zacute" unicode="&#x179;" horiz-adv-x="702" 
d="M273 0h-211q-19 0 -19 8q0 13 6 19q34 40 249.5 337.5t223.5 311.5h-271q-20 0 -40 -16q-15 -13 -61 -69t-61 -80q-3 -5 -9 -1l-13 6q-4 3 -2 9l63 180q4 11 12 11q4 0 20 -2q47 -6 271 -6q16 0 34 0.5t40 1.5t34 1q54 3 106 3q12 0 13.5 -7t-6.5 -17
q-15 -17 -239.5 -324.5t-238.5 -329.5h352q24 15 72 68.5t68 79.5q4 4 9 2l14 -8q5 -3 2 -9q-10 -19 -37.5 -86t-33.5 -87q-3 -11 -13 -11q-2 0 -5 0.5l-9 1.5t-11 2q-86 11 -309 11zM331 769l-12 16q-4 4 2 8l137 113q25 20 41 20q15 0 25.5 -10.5t10.5 -24.5
q0 -25 -29 -40l-168 -82q-4 -3 -7 0z" />
    <glyph glyph-name="zacute" unicode="&#x17a;" horiz-adv-x="434" 
d="M189 0h-138q-18 0 -6 17l257 371h-106q-48 0 -72.5 -17t-84.5 -92q-6 -8 -11 -4l-13 6q-5 3 -2 10l66 140q16 -5 48 -9q49 -4 131 -4h138q7 0 10 -4.5t-1 -9.5l-265 -373h142q58 0 137 107q5 8 13 3l10 -7q6 -4 2 -10l-77 -136q-21 8 -90 10q-40 2 -88 2zM194 486l-12 10
q-3 3 0 6l96 119q21 25 42 25q23 0 30.5 -22.5t-19.5 -43.5l-131 -94q-3 -3 -6 0z" />
    <glyph glyph-name="Zdotaccent" unicode="&#x17b;" horiz-adv-x="702" 
d="M273 0h-211q-19 0 -19 8q0 13 6 19q34 40 249.5 337.5t223.5 311.5h-271q-20 0 -40 -16q-15 -13 -61 -69t-61 -80q-3 -5 -9 -1l-13 6q-4 3 -2 9l63 180q4 11 12 11q4 0 20 -2q47 -6 271 -6q16 0 34 0.5t40 1.5t34 1q54 3 106 3q12 0 13.5 -7t-6.5 -17
q-15 -17 -239.5 -324.5t-238.5 -329.5h352q24 15 72 68.5t68 79.5q4 4 9 2l14 -8q5 -3 2 -9q-10 -19 -37.5 -86t-33.5 -87q-3 -11 -13 -11q-2 0 -5 0.5l-9 1.5t-11 2q-86 11 -309 11zM385 890q20 0 35 -14.5t15 -38.5q0 -22 -14.5 -36t-35.5 -14q-20 0 -38.5 12.5
t-18.5 41.5q0 16 13.5 32.5t43.5 16.5z" />
    <glyph glyph-name="zdotaccent" unicode="&#x17c;" horiz-adv-x="434" 
d="M189 0h-138q-18 0 -6 17l257 371h-106q-48 0 -72.5 -17t-84.5 -92q-6 -8 -11 -4l-13 6q-5 3 -2 10l66 140q16 -5 48 -9q49 -4 131 -4h138q7 0 10 -4.5t-1 -9.5l-265 -373h142q58 0 137 107q5 8 13 3l10 -7q6 -4 2 -10l-77 -136q-21 8 -90 10q-40 2 -88 2zM235 544
q-19 0 -37 15t-18 37q0 20 16.5 36t44.5 16q24 0 38 -15t14 -34q0 -22 -15 -38.5t-43 -16.5z" />
    <glyph glyph-name="Zcaron" unicode="&#x17d;" horiz-adv-x="702" 
d="M273 0h-211q-19 0 -19 8q0 13 6 19q34 40 249.5 337.5t223.5 311.5h-271q-20 0 -40 -16q-15 -13 -61 -69t-61 -80q-3 -5 -9 -1l-13 6q-4 3 -2 9l63 180q4 11 12 11q4 0 20 -2q47 -6 271 -6q16 0 34 0.5t40 1.5t34 1q54 3 106 3q12 0 13.5 -7t-6.5 -17
q-15 -17 -239.5 -324.5t-238.5 -329.5h352q24 15 72 68.5t68 79.5q4 4 9 2l14 -8q5 -3 2 -9q-10 -19 -37.5 -86t-33.5 -87q-3 -11 -13 -11q-2 0 -5 0.5l-9 1.5t-11 2q-86 11 -309 11zM251 909l131 -56l117 55q8 5 10 1l8 -10q3 -3 -2 -9l-126 -111q-11 -9 -13 -9q-3 0 -14 9
l-126 112q-4 4 -1 8l7 9q3 4 9 1z" />
    <glyph glyph-name="zcaron" unicode="&#x17e;" horiz-adv-x="434" 
d="M189 0h-138q-18 0 -6 17l257 371h-106q-48 0 -72.5 -17t-84.5 -92q-6 -8 -11 -4l-13 6q-5 3 -2 10l66 140q16 -5 48 -9q49 -4 131 -4h138q7 0 10 -4.5t-1 -9.5l-265 -373h142q58 0 137 107q5 8 13 3l10 -7q6 -4 2 -10l-77 -136q-21 8 -90 10q-40 2 -88 2zM137 646
l110 -76l100 75q6 4 9 1l9 -9q3 -3 -3 -10l-105 -131q-9 -9 -12 -9q-5 0 -13 10l-110 131q-5 5 -2 8l8 9q3 5 9 1z" />
    <glyph glyph-name="longs" unicode="&#x17f;" horiz-adv-x="285" 
d="M107 256v114h-67q-8 0 -6 11l3 30q1 7 12 7h58v18q0 132 67 208q72 79 164 79q38 0 64.5 -14.5t26.5 -41.5q0 -17 -14.5 -30t-27.5 -13q-16 0 -28 6q-10 6 -24 23q-19 23 -46 23q-47 0 -75 -35q-17 -22 -25.5 -62.5t-9 -64t-0.5 -77.5v-157q0 -210 1 -221q2 -14 6.5 -20
t19.5 -6h57q11 0 11 -8v-16q0 -12 -7 -12q-1 0 -15 0.5t-42.5 1.5t-62.5 1q-24 0 -50.5 -0.5t-44 -1.5t-19.5 -1q-8 0 -8 7v22q0 7 10 7h48q13 0 18 8t6 27v188z" />
    <glyph glyph-name="florin" unicode="&#x192;" 
d="M279 395h105q5 0 7.5 -1.5t1.5 -4.5l-7 -24q-1 -6 -12 -6h-100l-23 -209q-16 -144 -67.5 -211.5t-124.5 -67.5q-39 0 -64 18t-25 43q0 17 9 28t25 11q33 0 51 -46q7 -17 31 -17q40 0 60 50t33 174l24 227h-77q-9 0 -6 9l7 21q1 6 9 6h72q19 142 80 216q58 72 137 72
q43 0 70 -19t27 -43q0 -17 -13.5 -28t-35.5 -11q-31 0 -39 40q-1 8 -11 16t-30 8q-47 0 -74 -58.5t-40 -192.5z" />
    <glyph glyph-name="Scommaaccent" unicode="&#x218;" horiz-adv-x="548" 
d="M292 -15q-92 0 -159 52q-16 12 -23 12q-6 0 -16 -17q-7 -12 -18 -12q-12 0 -9 16q2 15 9.5 96t7.5 85q1 6 7 6l15 -1q6 0 6 -8q2 -63 36 -116q22 -35 60 -54.5t80 -19.5q52 0 94 32.5t42 94.5q0 70 -40.5 106.5t-113.5 62.5q-104 37 -146 81q-50 50 -50 146q0 70 62 128
q51 48 140 48q65 0 118 -25q12 -6 19 1l13 12q8 6 13 6q8 0 8 -17q0 -20 7 -86.5t7 -72.5q0 -7 -5 -8l-12 -3q-4 -2 -6 3q-18 65 -62 111q-40 43 -109 43q-61 0 -91 -36t-30 -81q0 -55 31 -87q36 -36 114 -60q46 -15 67 -22.5t49 -23.5t45 -37q44 -52 44 -136
q0 -93 -54.5 -156t-149.5 -63zM261 -60q23 0 43.5 -19.5t20.5 -51.5q0 -49 -31 -87t-56 -52q-7 -7 -14 -7q-9 0 -9 7q0 5 7 11q53 50 53 93q0 15 -13 23l-4 1q-5 2 -8 3.5t-8 4.5t-8.5 6.5t-7 8t-5.5 11t-2 14.5q0 14 11.5 24t30.5 10z" />
    <glyph glyph-name="scommaaccent" unicode="&#x219;" horiz-adv-x="356" 
d="M166 -12q-62 0 -101 29q-4 2 -6 14l-17 95q-1 6 6 8l13 3q6 1 9 -6l25 -49q12 -23 20 -33.5t25 -19.5t42 -9q30 0 54.5 17.5t24.5 50.5q0 35 -21 56t-76 36q-118 34 -118 127q0 51 41.5 86.5t98.5 35.5q50 0 92 -21q16 -8 18 -18l15 -70q0 -6 -7 -9l-12 -4q-5 -1 -9 5
l-34 46q-25 39 -70 39q-31 0 -54 -17.5t-23 -48.5q0 -17 6 -30t12.5 -20t23.5 -14.5t24.5 -10t29.5 -8.5q60 -17 89.5 -45.5t30.5 -82.5q-1 -60 -44 -96t-108 -36zM165 -60q23 0 43.5 -19.5t20.5 -51.5q0 -49 -31 -87t-56 -52q-7 -7 -14 -7q-9 0 -9 7q0 5 7 11q53 50 53 93
q0 15 -13 23l-4 1q-5 2 -8 3.5t-8 4.5t-8.5 6.5t-7 8t-5.5 11t-2 14.5q0 14 11.5 24t30.5 10z" />
    <glyph glyph-name="uni021A" unicode="&#x21a;" horiz-adv-x="702" 
d="M297 415v257h-25q-119 0 -158 -12q-44 -14 -89 -116q-3 -6 -10 -5l-18 5q-6 2 -4 8q43 156 47 176q2 16 10 16q7 0 12 -4l13 -9q22 -16 57 -17q159 -6 189 -6h48q54 0 201 6q31 1 52 14l19 12q7 4 12 4q7 0 9 -16q0 -2 6 -39.5t12.5 -79.5t10.5 -61q1 -7 -6 -8l-16 -4
q-5 -1 -8 7q-41 97 -71 112q-34 17 -173 17h-28v-285q0 -294 1 -311q3 -40 34 -40h63q10 0 10 -10v-21q0 -8 -10 -8q-2 0 -17 0.5t-47.5 1.5t-75.5 1q-42 0 -76.5 -0.5t-53 -1.5t-22.5 -1q-9 0 -9 10v19q0 10 7 10h68q14 0 23 7t10 17q3 29 3 355zM338 -60q23 0 43.5 -19.5
t20.5 -51.5q0 -49 -31 -87t-56 -52q-7 -7 -14 -7q-9 0 -9 7q0 5 7 11q53 50 53 93q0 15 -13 23l-5 1l-7 3.5t-8 4.5t-8.5 6.5t-7 8t-5.5 11t-2 14.5q0 14 11.5 24t30.5 10z" />
    <glyph glyph-name="uni021B" unicode="&#x21b;" horiz-adv-x="319" 
d="M169 225v-100q0 -50 16.5 -69t35.5 -19q46 0 66 13q7 4 12 -2l5 -9q4 -5 -2 -11q-13 -13 -42.5 -26.5t-68.5 -13.5q-36 0 -66.5 28t-30.5 57q0 24 1.5 81.5t1.5 61.5v22q0 44 2 128h-61q-15 0 -15 12q0 8 18 18q20 12 62.5 56.5t51.5 68.5q4 10 14 10t10 -15l-5 -98h139
q11 0 7 -9l-10 -35q-2 -8 -9 -8h-129q-3 -69 -3 -141zM147 -60q23 0 43.5 -19.5t20.5 -51.5q0 -49 -31 -87t-56 -52q-7 -7 -14 -7q-9 0 -9 7q0 5 7 11q53 50 53 93q0 15 -13 23l-4 1q-5 2 -8 3.5t-8 4.5t-8.5 6.5t-7 8t-5.5 11t-2 14.5q0 14 11.5 24t30.5 10z" />
    <glyph glyph-name="circumflex" unicode="&#x2c6;" horiz-adv-x="307" 
d="M259 488l-109 77l-101 -76q-6 -4 -9 -1l-9 9q-3 3 3 10l105 131q9 9 12 9q5 0 13 -10l110 -131q5 -5 2 -8l-8 -9q-3 -5 -9 -1z" />
    <glyph glyph-name="caron" unicode="&#x2c7;" horiz-adv-x="307" 
d="M48 646l110 -76l100 75q6 4 9 1l9 -9q4 -3 -3 -10l-105 -131q-9 -9 -12 -9q-5 0 -13 10l-110 131q-5 5 -2 8l8 9q3 5 9 1z" />
    <glyph glyph-name="uni02C9" unicode="&#x2c9;" horiz-adv-x="297" 
d="M30 519v32q0 7 8 7h220q9 0 9 -7v-32q0 -7 -11 -7h-218q-8 0 -8 7z" />
    <glyph glyph-name="breve" unicode="&#x2d8;" horiz-adv-x="326" 
d="M161 485q-47 0 -86 35.5t-45 83.5q-1 12 3 13l11 5q4 2 8 -6q16 -32 47 -51t62 -19q35 0 68 22.5t45 47.5q4 7 8 5l12 -6q4 -1 2 -9q-8 -41 -49.5 -81t-85.5 -40z" />
    <glyph glyph-name="dotaccent" unicode="&#x2d9;" horiz-adv-x="167" 
d="M81 544q-19 0 -37 15t-18 37q0 20 16.5 36t44.5 16q24 0 38 -15t14 -34q0 -22 -15 -38.5t-43 -16.5z" />
    <glyph glyph-name="ring" unicode="&#x2da;" horiz-adv-x="247" 
d="M119 495q-41 0 -65 19t-24 47q0 33 27 54t71 21q41 0 65 -19t24 -46q0 -35 -26.5 -55.5t-71.5 -20.5zM123 519q45 0 45 48q0 19 -12 31.5t-29 12.5q-21 0 -34.5 -13.5t-13.5 -33.5t12 -32.5t32 -12.5z" />
    <glyph glyph-name="ogonek" unicode="&#x2db;" horiz-adv-x="227" 
d="M121 0h39q-20 -19 -31 -30.5t-25 -40.5t-14 -60q0 -27 12 -43t34 -16q27 0 51 22q10 10 14 10q9 0 9 -15q0 -20 -29.5 -41.5t-72.5 -21.5q-35 0 -63.5 23t-28.5 68q0 41 31.5 79.5t73.5 65.5z" />
    <glyph glyph-name="tilde" unicode="&#x2dc;" horiz-adv-x="341" 
d="M290 607h17q7 0 3 -18q-7 -32 -26.5 -54t-50.5 -22q-22 0 -73 17q-32 11 -62 11q-13 0 -24 -11t-15 -31q-1 -5 -7 -5h-18q-7 0 -3 17q7 39 28 61t49 22q26 0 74 -15q44 -14 68 -14q25 0 33 36q1 6 7 6z" />
    <glyph glyph-name="hungarumlaut" unicode="&#x2dd;" horiz-adv-x="365" 
d="M83 486l-12 10q-3 3 0 6l98 119q21 25 41 25q22 0 28.5 -22t-20.5 -44l-129 -94q-3 -3 -6 0zM218 486l-12 10q-3 3 0 6l98 119q21 25 41 25q22 0 28.5 -22t-20.5 -44l-129 -94q-3 -3 -6 0z" />
    <glyph glyph-name="pi" unicode="&#x3c0;" horiz-adv-x="526" 
d="M36 321l-16 20q18 21 32.5 34t52.5 27.5t86 14.5q132 -2 234 -2q22 0 32 5t18 24l25 -7q-7 -47 -23 -80q-14 -4 -73 -4q-6 -83 -4 -214q0 -88 38 -88q18 0 41 10l10 -19q-15 -23 -38.5 -38.5t-47.5 -15.5q-70 -2 -70 120q0 86 8 246q-53 1 -137 1v-20
q0 -104 -11.5 -183.5t-21.5 -107.5t-18 -38q-38 -16 -61 -17l-7 18q39 57 57.5 157t18.5 192q-83 0 -125 -35z" />
    <glyph glyph-name="uni2010" unicode="&#x2010;" horiz-adv-x="404" 
d="M52 243v44q0 7 9 7h280q11 0 11 -11v-38q0 -7 -12 -7h-279q-9 -1 -9 5z" />
    <glyph glyph-name="figuredash" unicode="&#x2012;" 
d="M460 238h-420v56h420v-56z" />
    <glyph glyph-name="endash" unicode="&#x2013;" 
d="M500 238h-500v56h500v-56z" />
    <glyph glyph-name="emdash" unicode="&#x2014;" horiz-adv-x="1000" 
d="M1000 294v-56h-1000v56h1000z" />
    <glyph glyph-name="quoteleft" unicode="&#x2018;" horiz-adv-x="190" 
d="M107 460q-27 0 -52.5 23.5t-25.5 62.5q0 43 24.5 83.5t44.5 58t36 27.5q13 8 18 8q10 0 10 -8q0 -7 -8 -13q-63 -60 -63 -113q0 -22 15 -28l6 -3q7 -2 11.5 -4t11.5 -7t11 -10.5t7.5 -14.5t3.5 -19q0 -18 -13.5 -30.5t-36.5 -12.5z" />
    <glyph glyph-name="quoteright" unicode="&#x2019;" horiz-adv-x="190" 
d="M84 723q27 0 52.5 -23.5t25.5 -62.5q0 -33 -13.5 -64t-33 -52.5t-34 -34t-24.5 -18.5q-13 -8 -18 -8q-10 0 -10 8q0 7 8 13q63 60 63 113q0 22 -15 28l-7 2q-6 3 -10.5 5t-11.5 7t-11 10.5t-7.5 14.5t-3.5 19q0 18 13.5 30.5t36.5 12.5z" />
    <glyph glyph-name="quotesinglbase" unicode="&#x201a;" horiz-adv-x="190" 
d="M84 112q27 0 52.5 -23.5t25.5 -62.5q0 -33 -13 -63.5t-33 -52t-34 -34t-25 -18.5q-13 -8 -19 -8q-9 0 -9 8q0 7 7 13q64 55 64 112q0 22 -15 28l-7 3q-6 2 -10.5 4t-11.5 7t-11 10.5t-7.5 14.5t-3.5 20q0 17 13.5 29.5t36.5 12.5z" />
    <glyph glyph-name="quotedblleft" unicode="&#x201c;" horiz-adv-x="360" 
d="M109 460q-27 0 -52.5 23.5t-25.5 62.5q0 43 24.5 83.5t44.5 58t36 27.5q13 8 18 8q10 0 10 -8q0 -7 -8 -13q-63 -60 -63 -113q0 -22 15 -28l6 -3q7 -2 11.5 -4t11.5 -7t11 -10.5t7.5 -14.5t3.5 -19q0 -18 -13.5 -30.5t-36.5 -12.5zM273 460q-26 0 -52 24t-26 62
q0 43 24.5 83.5t44.5 58t36 27.5q13 8 19 8q10 0 10 -8q0 -7 -8 -13q-64 -58 -64 -113q0 -22 15 -28l6 -3q7 -2 11.5 -4t11.5 -7t11.5 -10.5t8 -14.5t3.5 -19q0 -18 -14 -30.5t-37 -12.5z" />
    <glyph glyph-name="quotedblright" unicode="&#x201d;" horiz-adv-x="360" 
d="M85 723q27 0 52.5 -23.5t25.5 -62.5q0 -33 -13.5 -64t-33 -52.5t-34 -34t-24.5 -18.5q-13 -8 -18 -8q-10 0 -10 8q0 7 8 13q63 60 63 113q0 22 -15 28l-6 2q-7 3 -11.5 5t-11.5 7t-11 10.5t-7.5 14.5t-3.5 19q0 18 13.5 30.5t36.5 12.5zM251 723q27 0 53 -23.5t26 -62.5
q0 -33 -13.5 -64t-33 -52.5t-34 -34t-24.5 -18.5q-13 -8 -19 -8q-10 0 -10 8q0 7 8 13q63 57 63 113q0 22 -15 28l-8 3q-8 3 -13.5 6.5t-13.5 10t-12 16.5t-4 22q0 18 13.5 30.5t36.5 12.5z" />
    <glyph glyph-name="quotedblbase" unicode="&#x201e;" horiz-adv-x="360" 
d="M85 112q27 0 52.5 -23.5t25.5 -62.5q0 -33 -13 -63.5t-33 -52t-34 -34t-25 -18.5q-13 -8 -18 -8q-10 0 -10 8q0 7 8 13q63 57 63 112q0 22 -15 28l-6 3q-7 2 -11.5 4t-11.5 7t-11 10.5t-7.5 14.5t-3.5 20q0 17 13.5 29.5t36.5 12.5zM251 112q27 0 53 -23.5t26 -62.5
q0 -33 -13 -63.5t-33 -52t-34 -34t-25 -18.5q-13 -8 -19 -8q-10 0 -10 8q0 7 8 13q63 54 63 112q0 22 -15 28q-1 0 -6.5 2.5t-10.5 4.5t-11.5 7t-11 10.5t-8 14.5t-3.5 20q0 17 14 29.5t36 12.5z" />
    <glyph glyph-name="dagger" unicode="&#x2020;" 
d="M261 -135h-21q-7 0 -7 12q-1 92 -14.5 242.5t-26.5 182.5q37 44 37 129q-33 0 -94 -15t-67 -15q-23 0 -33 12.5t-10 27.5q0 17 12.5 29t34.5 12q4 0 63 -11.5t94 -11.5q0 40 -13 119t-13 91q0 22 14.5 38t34.5 16q24 0 36.5 -15t12.5 -39q0 -12 -15 -91t-15 -119
q34 0 96.5 11.5t70.5 11.5q19 0 28.5 -12.5t9.5 -28.5q0 -14 -9.5 -27t-32.5 -13q-3 0 -65.5 15t-97.5 15q0 -83 37 -129q-13 -32 -26 -179.5t-14 -248.5q0 -9 -7 -9z" />
    <glyph glyph-name="daggerdbl" unicode="&#x2021;" 
d="M252 723q24 0 36.5 -15t12.5 -39q0 -12 -15 -91t-15 -119q35 0 97 11.5t65 11.5q22 0 32 -12.5t10 -28.5q0 -14 -9 -27t-29 -13q-6 0 -68.5 15t-97.5 15q0 -71 28 -130q-28 -50 -28 -144q33 0 94 15t67 15q23 0 33 -12.5t10 -27.5q0 -17 -12.5 -29t-34.5 -12
q-4 0 -63 11.5t-94 11.5q0 -40 13.5 -118.5t13.5 -91.5q0 -22 -15.5 -38t-35.5 -16q-22 0 -34.5 15t-12.5 39q0 14 14.5 92t15.5 118q-35 0 -97 -11.5t-65 -11.5q-19 0 -30.5 13.5t-11.5 27.5t9.5 27t32.5 13q3 0 65 -15t97 -15q0 43 -9 84t-19 60q28 67 28 130
q-34 0 -94.5 -15t-66.5 -15q-23 0 -33 12.5t-10 27.5q0 17 12.5 29t34.5 12q4 0 63 -11.5t94 -11.5q0 40 -13.5 119t-13.5 91q0 22 15 38t34 16z" />
    <glyph glyph-name="bullet" unicode="&#x2022;" horiz-adv-x="340" 
d="M289 360q0 -50 -33.5 -81t-85.5 -31q-46 0 -82.5 33t-36.5 79q0 51 33 84.5t84 33.5q53 0 87 -32t34 -86z" />
    <glyph glyph-name="onedotenleader" unicode="&#x2024;" 
d="M253 -12q-22 0 -42 14t-20 45q0 19 14.5 37.5t47.5 18.5q23 0 39.5 -16.5t16.5 -43.5q0 -24 -16 -39.5t-40 -15.5z" />
    <glyph glyph-name="twodotenleader" unicode="&#x2025;" 
d="M128 -12q-22 0 -42 14t-20 45q0 19 14.5 37.5t47.5 18.5q23 0 39.5 -16.5t16.5 -43.5q0 -24 -16 -39.5t-40 -15.5zM378 -12q-22 0 -42 14t-20 45q0 19 14.5 37.5t47.5 18.5q23 0 39.5 -16.5t16.5 -43.5q0 -24 -16 -39.5t-40 -15.5z" />
    <glyph glyph-name="ellipsis" unicode="&#x2026;" horiz-adv-x="1000" 
d="M169 -12q-22 0 -42 14t-20 45q0 18 15 37t47 19q24 0 41 -16.5t17 -43.5q0 -24 -16.5 -39.5t-41.5 -15.5zM838 -12q-23 0 -43.5 14t-20.5 45q0 18 15 37t49 19q22 0 39 -16.5t17 -43.5q0 -24 -16.5 -39.5t-39.5 -15.5zM503 -12q-22 0 -42 14t-20 45q0 19 14.5 37.5
t47.5 18.5q23 0 40 -16.5t17 -43.5q0 -24 -16.5 -39.5t-40.5 -15.5z" />
    <glyph glyph-name="perthousand" unicode="&#x2030;" horiz-adv-x="1100" 
d="M170 294q44 0 58 41q14 44 14 134q0 184 -80 184q-34 0 -51 -35q-21 -44 -21 -154q0 -75 18 -121q10 -23 28.5 -36t33.5 -13zM165 683q41 0 71 -19.5t46 -53t23.5 -66.5t9.5 -70q-1 -99 -40.5 -154.5t-104.5 -55.5q-46 0 -78 22.5t-46.5 57.5t-20 64.5t-5.5 56.5
q0 91 37 154.5t108 63.5zM598 654l-406 -656q-7 -13 -10 -13q-4 0 -18 8t-14 12t5 12l406 658q4 8 8 8t16 -6q17 -10 17 -14q0 -1 -4 -9zM585 21q44 0 58 41q14 44 14 134q0 184 -80 184q-34 0 -51 -35q-21 -44 -21 -154q0 -75 18 -121q10 -23 28.5 -36t33.5 -13zM580 410
q41 0 71 -19.5t46 -53t23.5 -66.5t9.5 -70q-1 -99 -40.5 -154.5t-104.5 -55.5q-46 0 -78 22.5t-46.5 57.5t-20 64.5t-5.5 56.5q0 91 37 154.5t108 63.5zM935 21q44 0 58 41q14 44 14 134q0 184 -80 184q-34 0 -51 -35q-21 -44 -21 -154q0 -75 18 -121q10 -23 28.5 -36
t33.5 -13zM930 410q41 0 71 -19.5t46 -53t23.5 -66.5t9.5 -70q-1 -99 -40.5 -154.5t-104.5 -55.5q-46 0 -78 22.5t-46.5 57.5t-20 64.5t-5.5 56.5q0 91 37 154.5t108 63.5z" />
    <glyph glyph-name="guilsinglleft" unicode="&#x2039;" horiz-adv-x="254" 
d="M185 50l-155 156q-4 4 -4 6t5 7l155 155q4 4 6 4t5 -3l14 -14q3 -3 3 -5q0 -3 -4 -7l-91 -137l92 -138q3 -5 3 -7t-3 -5l-15 -14q-2 -2 -4 -2q-1 0 -7 4z" />
    <glyph glyph-name="guilsinglright" unicode="&#x203a;" horiz-adv-x="254" 
d="M223 205l-156 -155q-4 -4 -6 -4t-5 3l-13 13q-3 3 -3 5q0 3 4 7l91 138l-92 137q-3 4 -3 7q0 2 3 5l14 15q2 2 4 2t7 -5l156 -155q4 -4 4 -6t-5 -7z" />
    <glyph glyph-name="fraction" unicode="&#x2044;" horiz-adv-x="63" 
d="M224 654l-372 -656q-6 -13 -9 -13q-4 0 -18 8q-15 8 -15 12q0 2 4 12l372 658q4 8 7 8q5 0 17 -6q16 -9 18 -14q0 -1 -4 -9z" />
    <glyph glyph-name="zero.superior" unicode="&#x2070;" horiz-adv-x="335" 
d="M170 423q44 0 58 41q14 44 14 134q0 184 -80 184q-34 0 -51 -35q-21 -44 -21 -154q0 -75 18 -121q10 -23 28.5 -36t33.5 -13zM165 812q41 0 71.5 -20t46.5 -52.5t24 -66.5t8 -70q1 -98 -39 -154t-106 -56q-46 0 -78 22.5t-46.5 57.5t-20 64.5t-5.5 56.5q0 91 37 154.5
t108 63.5z" />
    <glyph glyph-name="four.superior" unicode="&#x2074;" horiz-adv-x="335" 
d="M253 402h-43q-8 0 -8 10v95h-193q-9 0 -9 11q0 8 7 15l223 267q12 12 18 12q15 0 15 -23v-235h65q7 0 7 -9v-30q0 -8 -10 -8h-62v-94q0 -11 -10 -11zM202 554v142q0 8 -4.5 10t-9.5 -4l-113 -132q-13 -16 4 -16h123z" />
    <glyph glyph-name="five.superior" unicode="&#x2075;" horiz-adv-x="335" 
d="M113 744l-14 -84q22 5 61 5q49 0 85 -30.5t36 -79.5q0 -70 -54.5 -116t-124.5 -46q-37 0 -61 11.5t-24 30.5q0 12 7.5 21t17.5 9q16 0 28 -19q14 -18 45 -18q40 0 70.5 28t30.5 75q0 31 -22 56t-56 25q-39 0 -63 -9q-7 -2 -12 0q-3 2 -3 15l24 169q2 13 13 13h144
q14 0 21.5 6.5t16.5 23.5q3 5 13 2t8 -10l-23 -64q-5 -14 -27 -14h-137z" />
    <glyph glyph-name="six.superior" unicode="&#x2076;" horiz-adv-x="335" 
d="M171 393q-65 0 -99 33q-41 41 -41 107q0 119 94 213q37 37 92 60q13 6 23 6t10 -11q0 -10 -10 -13q-38 -15 -80 -65t-53 -112l2 -2q26 28 80 28q58 0 89 -35t31 -73q0 -61 -41 -100q-39 -36 -97 -36zM175 423q8 0 16.5 2.5t21 10.5t20.5 27.5t8 47.5q0 39 -19 65.5
t-52 26.5q-44 0 -59 -27q-13 -21 -13 -62q0 -18 4.5 -36t23 -36.5t49.5 -18.5z" />
    <glyph glyph-name="seven.superior" unicode="&#x2077;" horiz-adv-x="335" 
d="M138 800h189q5 0 6 -5t-2 -8q-9 -14 -38.5 -67t-46.5 -92l-12 -25q-13 -25 -25.5 -50.5t-27.5 -62.5t-23 -66q-9 -31 -42 -31q-25 0 -25 22q0 12 22 56q36 72 159 277h-148q-21 0 -33 -9t-29 -31q-5 -7 -14 -3q-8 4 -6 10l39 100q3 7 12 7t8 -11q-1 -6 6 -8.5t31 -2.5z
" />
    <glyph glyph-name="eight.superior" unicode="&#x2078;" horiz-adv-x="335" 
d="M163 393q-64 0 -94 26.5t-30 59.5q0 68 86 112q-90 46 -90 107q0 44 39 79t105 35q50 0 83 -25.5t33 -63.5q0 -34 -21.5 -60.5t-69.5 -51.5q92 -44 92 -112q0 -39 -37 -72.5t-96 -33.5zM167 422q33 0 52 20t19 45q0 30 -21.5 49.5t-64.5 39.5q-60 -26 -60 -87
q0 -29 23 -48t52 -19zM169 781q-33 0 -52 -20.5t-19 -49.5q0 -28 16.5 -44.5t61.5 -41.5q28 13 46 36.5t18 52.5t-19.5 48t-51.5 19z" />
    <glyph glyph-name="nine.superior" unicode="&#x2079;" horiz-adv-x="335" 
d="M159 812q71 0 106 -42q35 -44 35 -97q0 -140 -106 -225q-48 -39 -99 -52q-9 -3 -22 -3q-12 0 -12 10q0 11 14 15q44 13 91.5 61.5t57.5 115.5l-1 1q-36 -28 -74 -28q-65 0 -95.5 35.5t-30.5 84.5q0 18 15 48.5t33 44.5q40 31 88 31zM161 784q-29 0 -50.5 -25t-21.5 -68
q0 -41 19.5 -65t52.5 -24q39 0 59 28q9 13 9 58q0 39 -15.5 67.5t-52.5 28.5z" />
    <glyph glyph-name="parenleft.superior" unicode="&#x207d;" horiz-adv-x="240" 
d="M50 607q0 89 49 156q52 71 122 96q11 4 22 4q10 0 10 -11q0 -4 -12 -12q-131 -84 -131 -225q0 -145 131 -231q12 -8 12 -12q0 -11 -10 -11q-11 0 -22 4q-29 10 -62.5 35.5t-59.5 59.5q-49 64 -49 147z" />
    <glyph glyph-name="parenright.superior" unicode="&#x207e;" horiz-adv-x="240" 
d="M130 613q0 143 -131 227q-12 8 -12 12q0 11 10 11q11 0 22 -4q29 -10 62.5 -35.5t59.5 -59.5q49 -64 49 -146q0 -90 -49 -157q-52 -71 -122 -96q-11 -4 -22 -4q-10 0 -10 11q0 4 12 12q63 41 97 95t34 134z" />
    <glyph glyph-name="n.superior" unicode="&#x207f;" horiz-adv-x="375" 
d="M118 462v-140q0 -14 3.5 -19t14.5 -5h19q7 0 7 -6v-15q0 -6 -5 -6q-1 0 -10 0.5t-26.5 1t-39.5 0.5q-17 0 -32.5 -0.5t-24 -1t-9.5 -0.5q-5 0 -5 6v15q0 6 7 6h22q15 0 15 15v159q0 27 -31 40l-6 3q-5 3 -5 6v4q0 3 6 7l75 33q10 5 14 5q5 0 5 -8l6 -42h1q17 20 46 34.5
t55 14.5q37 0 60 -15q16 -10 28.5 -31t12.5 -35v-175q0 -15 16 -15h24q9 0 9 -6v-14q0 -7 -6 -7q-1 0 -10.5 0.5t-28.5 1t-43 0.5q-17 0 -32 -0.5t-24 -1t-11 -0.5q-6 0 -6 7v14q0 6 10 6h20q14 0 15 16q3 27 3 56v86q0 45 -20 63q-12 10 -41 10q-33 0 -60 -27
q-18 -17 -18 -40z" />
    <glyph glyph-name="zero.inferior" unicode="&#x2080;" horiz-adv-x="335" 
d="M170 -85q44 0 58 41q14 44 14 134q0 184 -80 184q-34 0 -51 -35q-21 -44 -21 -154q0 -75 18 -121q10 -23 28.5 -36t33.5 -13zM165 304q41 0 71.5 -20t46.5 -52.5t24 -66.5t8 -70q1 -98 -39 -154t-106 -56q-46 0 -78 22.5t-46.5 57.5t-20 64.5t-5.5 56.5q0 91 37 154.5
t108 63.5z" />
    <glyph glyph-name="one.inferior" unicode="&#x2081;" horiz-adv-x="335" 
d="M209 119v-158q0 -23 7.5 -29t38.5 -6h23q6 0 6 -6v-24q0 -5 -7 -5q-1 0 -21 0.5t-45 1.5t-38 1q-11 0 -36.5 -1t-46.5 -1.5t-22 -0.5q-7 0 -7 5v26q0 4 9 4h29q31 0 38 5.5t8 27.5q0 1 0.5 51.5t0.5 70.5v30q0 38 -2 84q-2 24 -15 24q-9 0 -26 -6l-39 -16q-8 -4 -10 -1
l-11 20q-2 3 4 6l138 75q13 7 18 7q8 0 8 -9q0 -2 -0.5 -30.5t-1 -70t-0.5 -75.5z" />
    <glyph glyph-name="two.inferior" unicode="&#x2082;" horiz-adv-x="335" 
d="M203 -106h-141q-12 0 -34 -1t-23 -1q-4 0 -5.5 6.5t2.5 9.5q84 69 137 127q73 79 73 144q0 37 -20.5 55.5t-44.5 18.5q-52 0 -89 -48q-5 -8 -11 -5l-13 7q-3 1 -2 7q12 30 46 60t91 30q46 0 79 -27t33 -78q0 -70 -79 -153q-59 -63 -106 -98v-2h111q27 0 42.5 10t28.5 29
q5 7 17 3t8 -13l-41 -89q-2 -6 -13 -6q-10 0 -14 6q-5 8 -32 8z" />
    <glyph glyph-name="three.inferior" unicode="&#x2083;" horiz-adv-x="335" 
d="M23 -68q0 17 7.5 27t18.5 10q10 0 16 -5.5t11 -16.5l4 -11q16 -20 54 -20t63 25t25 54q0 38 -24 65.5t-60 33.5q-14 3 -14 14q2 10 11 11q28 2 51 24.5t23 55.5q0 23 -17 41.5t-42 18.5q-58 0 -79 -58q-3 -9 -10 -7l-13 3q-6 1 -4 10q8 39 37.5 68t88.5 29
q50 0 74.5 -25.5t24.5 -53.5q0 -64 -71 -105q35 -7 64 -36.5t29 -66.5q0 -59 -46.5 -95.5t-116.5 -36.5q-39 0 -64 8.5t-33 18.5t-8 20z" />
    <glyph glyph-name="four.inferior" unicode="&#x2084;" horiz-adv-x="335" 
d="M253 -106h-43q-8 0 -8 10v95h-193q-9 0 -9 11q0 8 7 15l223 267q12 12 18 12q15 0 15 -23v-235h65q7 0 7 -9v-30q0 -8 -10 -8h-62v-94q0 -11 -10 -11zM202 46v142q0 8 -4.5 10t-9.5 -4l-113 -132q-13 -16 4 -16h123z" />
    <glyph glyph-name="five.inferior" unicode="&#x2085;" horiz-adv-x="335" 
d="M113 236l-14 -84q22 5 61 5q49 0 85 -30.5t36 -79.5q0 -70 -54.5 -116t-124.5 -46q-37 0 -61 11.5t-24 30.5q0 12 7.5 21t17.5 9q16 0 28 -19q14 -18 45 -18q40 0 70.5 28t30.5 75q0 31 -22 56t-56 25q-39 0 -63 -9q-7 -2 -12 0q-3 2 -3 15l24 169q2 13 13 13h144
q14 0 21.5 6.5t16.5 23.5q3 5 13 2t8 -10l-23 -64q-5 -14 -27 -14h-137z" />
    <glyph glyph-name="six.inferior" unicode="&#x2086;" horiz-adv-x="335" 
d="M171 -115q-65 0 -99 33q-41 41 -41 107q0 119 94 213q37 37 92 60q13 6 23 6t10 -11q0 -10 -10 -13q-38 -15 -80 -65t-53 -112l2 -2q26 28 80 28q58 0 89 -35t31 -73q0 -61 -41 -100q-39 -36 -97 -36zM175 -85q8 0 16.5 2.5t21 10.5t20.5 27.5t8 47.5q0 39 -19 65.5
t-52 26.5q-44 0 -59 -27q-13 -21 -13 -62q0 -18 4.5 -36t23 -36.5t49.5 -18.5z" />
    <glyph glyph-name="seven.inferior" unicode="&#x2087;" horiz-adv-x="335" 
d="M138 292h189q5 0 6 -5t-2 -8q-9 -14 -38.5 -67t-46.5 -92l-12 -25q-13 -25 -25.5 -50.5t-27.5 -62.5t-23 -66q-9 -31 -42 -31q-25 0 -25 22q0 12 22 56q36 72 159 277h-148q-21 0 -33 -9t-29 -31q-5 -7 -14 -3q-8 4 -6 10l39 100q3 7 12 7t8 -11q-1 -6 6 -8.5t31 -2.5z
" />
    <glyph glyph-name="eight.inferior" unicode="&#x2088;" horiz-adv-x="335" 
d="M163 -115q-64 0 -94 26.5t-30 59.5q0 68 86 112q-90 46 -90 107q0 44 39 79t105 35q50 0 83 -25.5t33 -63.5q0 -34 -21.5 -60.5t-69.5 -51.5q92 -44 92 -112q0 -39 -37 -72.5t-96 -33.5zM167 -86q33 0 52 20t19 45q0 30 -21.5 49.5t-64.5 39.5q-60 -26 -60 -87
q0 -29 23 -48t52 -19zM169 273q-33 0 -52 -20.5t-19 -49.5q0 -28 16.5 -44.5t61.5 -41.5q28 13 46 36.5t18 52.5t-19.5 48t-51.5 19z" />
    <glyph glyph-name="nine.inferior" unicode="&#x2089;" horiz-adv-x="335" 
d="M159 304q71 0 106 -42q35 -44 35 -97q0 -140 -106 -225q-48 -39 -99 -52q-9 -3 -22 -3q-12 0 -12 10q0 11 14 15q44 13 91.5 61.5t57.5 115.5l-1 1q-36 -28 -74 -28q-65 0 -95.5 35.5t-30.5 84.5q0 18 15 48.5t33 44.5q40 31 88 31zM161 276q-29 0 -50.5 -25t-21.5 -68
q0 -41 19.5 -65t52.5 -24q39 0 59 28q9 13 9 58q0 39 -15.5 67.5t-52.5 28.5z" />
    <glyph glyph-name="parenleft.inferior" unicode="&#x208d;" horiz-adv-x="240" 
d="M50 88q0 89 49 156q52 71 122 96q11 4 22 4q10 0 10 -11q0 -4 -12 -12q-131 -84 -131 -225q0 -145 131 -231q12 -8 12 -12q0 -11 -10 -11q-11 0 -22 4q-29 10 -62.5 35.5t-59.5 59.5q-49 64 -49 147z" />
    <glyph glyph-name="parenright.inferior" unicode="&#x208e;" horiz-adv-x="240" 
d="M130 94q0 143 -131 227q-12 8 -12 12q0 11 10 11q11 0 22 -4q29 -10 62.5 -35.5t59.5 -59.5q49 -64 49 -146q0 -90 -49 -157q-52 -71 -122 -96q-11 -4 -22 -4q-10 0 -10 11q0 4 12 12q63 41 97 95t34 134z" />
    <glyph glyph-name="colonmonetary" unicode="&#x20a1;" 
d="M220 100l113 486q-20 12 -48 17l-110 -473q20 -20 45 -30zM147 156l104 449q-57 -1 -95.5 -40.5t-53.5 -90.5t-15 -107q0 -131 59 -210zM479 197l11 -8q4 -1 1 -9q-35 -62 -92 -103t-134 -41q-17 0 -26 2l-13 -56q-1 -6 -10 -4l-16 4q-6 2 -5 10l12 52q-25 4 -49 17
l-18 -77q-1 -6 -10 -4l-16 4q-7 2 -5 11l20 83q-57 39 -88 110.5t-31 147.5q0 126 69 214q28 36 75 61t103 25h2l14 65q3 6 8 5l19 -5q6 -3 5 -10l-13 -56q27 -3 50 -11l17 74q1 7 8 5l19 -5q7 -2 5 -10l-17 -76q22 -10 40 -23q14 -9 16 0l7 25q2 5 11 5t9 -14t4.5 -82
t7.5 -84q1 -7 -3 -9l-13 -3q-3 -1 -4 0.5t-3 6.5q-7 28 -33.5 71.5t-48.5 62.5l-113 -478q18 -3 35 -3q111 0 186 107q4 5 7 3z" />
    <glyph glyph-name="Euro" unicode="&#x20ac;" 
d="M366 255h-190q8 -104 43.5 -167t100.5 -63q55 0 85.5 38t47.5 100q3 9 9 7l15 -4q3 -1 3 -10q-10 -93 -10 -140q0 -10 -2 -13t-9 -3q-10 0 -12 6l-12 28q-6 14 -17 2q-47 -51 -106 -51q-99 0 -154 77.5t-69 192.5h-68q-5 0 -7 1.5t-1 5.5l9 23q2 6 10 6h54q-2 16 -2 46
q0 22 1 35h-60q-5 0 -7 1.5t-1 5.5l8 23q2 6 10 6h55q10 69 36 129t75 103t111 43q52 0 102 -50q11 -13 18 5l7 19q2 6 13 6q7 0 8.5 -2.5t1.5 -13.5q0 -50 10 -143q1 -3 1 -5.5t-2 -4t-6 -2.5l-8 -3q-7 -2 -11 8q-10 31 -15 44.5t-17.5 38.5t-24.5 36t-32.5 21t-45.5 10
q-64 0 -99 -67.5t-40 -171.5h244q4 0 6.5 -2t1.5 -4l-9 -24q-2 -6 -13 -6h-231v-36q0 -12 0.5 -17.5t1 -12t0.5 -15.5h207q4 0 6.5 -2t1.5 -4l-9 -24q-2 -6 -13 -6z" />
    <glyph glyph-name="uni2113" unicode="&#x2113;" horiz-adv-x="415" 
d="M177 398v-107q121 107 121 222q0 39 -16 63.5t-42 24.5q-34 0 -48.5 -48.5t-14.5 -154.5zM98 238v90q0 116 16 170.5t51 91.5q42 45 95 45q44 0 71.5 -32t27.5 -90q0 -34 -15 -69.5t-30.5 -59t-48.5 -56t-45 -42.5t-43 -35v-64q0 -136 81 -136q59 0 107 62l19 -18
q-64 -107 -160 -107q-61 0 -92 39q-34 39 -34 135v37l-55 -41l-12 24z" />
    <glyph glyph-name="trademark" unicode="&#x2122;" horiz-adv-x="908" 
d="M211 679v-102v-32v-147q3 -20 18 -20h27q5 0 5 -6v-19q0 -4 -5 -4q-1 0 -31 0.5t-42 0.5q-13 0 -44.5 -0.5t-33.5 -0.5q-6 0 -6 5v18q0 6 5 6h28q16 0 18 11q1 15 1 169v40v81q-59 0 -80 -7q-23 -8 -46 -49q-1 -7 -9 -4l-9 4q-3 0 -2 4q9 31 20 88q1 8 6 8q1 0 5 -2l7 -4
q12 -8 30 -9q96 -3 107 -3q23 0 116 3q18 2 28 7l10 6q4 2 5 2q4 0 5 -8l5 -39q5 -38 7 -51q0 -3 -3 -5l-8 -3q-7 -1 -8 5q-19 39 -37 48t-89 9zM620 452l109 249q3 8 18 8h40.5t29 0.5t17.5 0.5h10.5h4.5q4 0 4 -5v-17q0 -7 -4 -7h-10q-14 0 -18 -5t-4 -16q0 -4 -1 -65.5
t-1 -66.5q0 -6 1 -62t1 -61q0 -27 17 -27h24q4 0 4 -6v-17q0 -6 -5 -6q-2 0 -30.5 0.5t-41.5 0.5t-43 -0.5t-31 -0.5q-5 0 -5 6v16q0 7 5 7h20q19 0 23 18q1 9 1 125v152h-3l-136 -304q-7 -12 -13 -12q-7 0 -10 9l-124 306h-6v-135v-123q4 -36 34 -36h12q4 0 4 -7v-16
q0 -6 -5 -6q-3 0 -29.5 0.5t-34.5 0.5q-9 0 -37 -0.5t-29 -0.5q-5 0 -5 6v16q0 7 4 7h12q28 0 33 29q7 43 7 166v80q0 28 -28 28h-16q-3 0 -3 5v18q0 6 4 6q1 0 27.5 -1t35.5 -1q23 0 53 2q16 0 19 -10z" />
    <glyph glyph-name="Omega" unicode="&#x2126;" horiz-adv-x="771" 
d="M312 0h-247l-17 145l24 2q17 -49 32 -62.5t45 -13.5h94l-21.5 21.5t-27 27.5t-26 29.5t-27.5 35t-23.5 37t-21 43t-12 45t-5.5 50.5q0 135 89 221t221 86q135 0 223 -83.5t88 -219.5q0 -39 -11.5 -77t-33.5 -72t-39 -56t-44.5 -51t-33.5 -37h85q36 0 49.5 12t32.5 64
l27 -2l-19 -145h-247l-5 13l17 25q17 24 25 36.5t25.5 42t27.5 54t21.5 56.5t17 66.5t5.5 69.5q0 121 -56.5 196t-154.5 75q-99 0 -154.5 -73t-55.5 -201q0 -44 11 -90t31 -88t35 -69.5t37.5 -62t25.5 -38.5z" />
    <glyph glyph-name="estimated" unicode="&#x212e;" horiz-adv-x="842" 
d="M811 324h-632q-5 0 -5 -5v-190q0 -14 9 -23q98 -103 240 -103q151 0 250 115h57q-54 -63 -135 -99.5t-174 -36.5q-161 0 -275.5 103t-114.5 248t114.5 248t275.5 103t275.5 -103t114.5 -248v-9zM668 349v191q0 14 -10 24q-97 99 -235 99q-140 0 -239 -102
q-10 -10 -10 -24v-188q0 -6 5 -6h485q4 0 4 6z" />
    <glyph glyph-name="onethird" unicode="&#x2153;" horiz-adv-x="742" 
d="M581 654l-406 -656q-7 -13 -10 -13q-4 0 -18 8t-14 12t5 12l406 658q4 8 8 8t16 -6q17 -10 17 -14q0 -1 -4 -9zM423 38q0 17 7.5 27t18.5 10q10 0 16 -5.5t11 -16.5l4 -11q16 -20 54 -20t63 25t25 54q0 38 -24 65.5t-60 33.5q-14 3 -14 14q2 10 11 11q28 2 51 24.5
t23 55.5q0 23 -17 41.5t-42 18.5q-58 0 -79 -58q-3 -9 -10 -7l-13 3q-6 1 -4 10q8 39 37.5 68t88.5 29q50 0 74.5 -25.5t24.5 -53.5q0 -64 -71 -105q35 -7 64 -36.5t29 -66.5q0 -59 -46.5 -95.5t-116.5 -36.5q-39 0 -64 8.5t-33 18.5t-8 20zM182 498v-158q0 -23 7.5 -29
t38.5 -6h23q6 0 6 -6v-24q0 -5 -7 -5q-1 0 -21 1t-45 1.5t-38 0.5q-11 0 -36.5 -0.5t-46.5 -1.5t-22 -1q-7 0 -7 5v26q0 4 9 4h29q31 0 38 5.5t8 27.5q0 1 0.5 51.5t0.5 70.5v30q0 38 -2 84q-2 24 -15 24q-9 0 -26 -6l-39 -16q-8 -4 -10 -1l-11 20q-2 3 4 6l138 75
q13 7 18 7q8 0 8 -9q0 -2 -0.5 -30.5t-1 -70t-0.5 -75.5z" />
    <glyph glyph-name="twothirds" unicode="&#x2154;" horiz-adv-x="742" 
d="M621 654l-406 -656q-7 -13 -10 -13q-4 0 -18 8t-14 12t5 12l406 658q4 8 8 8t16 -6q17 -10 17 -14q0 -1 -4 -9zM463 38q0 17 7.5 27t18.5 10q10 0 16 -5.5t11 -16.5l4 -11q16 -20 54 -20t63 25t25 54q0 38 -24 65.5t-60 33.5q-14 3 -14 14q2 10 11 11q28 2 51 24.5
t23 55.5q0 23 -17 41.5t-42 18.5q-58 0 -79 -58q-3 -9 -10 -7l-13 3q-6 1 -4 10q8 39 37.5 68t88.5 29q50 0 74.5 -25.5t24.5 -53.5q0 -64 -71 -105q35 -7 64 -36.5t29 -66.5q0 -59 -46.5 -95.5t-116.5 -36.5q-39 0 -64 8.5t-33 18.5t-8 20zM203 273h-141q-12 0 -34 -1
t-23 -1q-7 0 -7 6q0 5 4 8q104 93 137 129q73 79 73 144q0 37 -20.5 55.5t-44.5 18.5q-52 0 -89 -48q-5 -8 -11 -5l-13 7q-3 1 -2 7q12 30 46 60t91 30q46 0 79 -27t33 -78q0 -70 -79 -153q-59 -63 -106 -98v-2h111q27 0 42.5 10t28.5 29q5 7 17 3t8 -13l-41 -89
q-2 -6 -13 -6q-10 0 -14 6q-5 8 -32 8z" />
    <glyph glyph-name="oneeighth" unicode="&#x215b;" horiz-adv-x="742" 
d="M573 -9q-64 0 -94 26.5t-30 59.5q0 68 86 112q-90 46 -90 107q0 44 39 79t105 35q50 0 83 -25.5t33 -63.5q0 -34 -21.5 -60.5t-69.5 -51.5q92 -44 92 -112q0 -39 -37 -72.5t-96 -33.5zM577 20q33 0 52 20t19 45q0 30 -21.5 49.5t-64.5 39.5q-60 -26 -60 -87q0 -29 23 -48
t52 -19zM579 379q-33 0 -52 -20.5t-19 -49.5q0 -28 16.5 -44.5t61.5 -41.5q28 13 46 36.5t18 52.5t-19.5 48t-51.5 19zM583 654l-406 -656q-7 -13 -10 -13q-4 0 -18 8t-14 12t5 12l406 658q4 8 8 8t16 -6q17 -10 17 -14q0 -1 -4 -9zM185 498v-158q0 -23 7.5 -29t38.5 -6h23
q6 0 6 -6v-24q0 -5 -7 -5q-1 0 -21 1t-45 1.5t-38 0.5q-11 0 -36.5 -0.5t-46.5 -1.5t-22 -1q-7 0 -7 5v26q0 4 9 4h29q31 0 38 5.5t8 27.5q0 1 0.5 51.5t0.5 70.5v30q0 38 -2 84q-2 24 -15 24q-9 0 -26 -6l-39 -16q-8 -4 -10 -1l-11 20q-2 3 4 6l138 75q13 7 18 7q8 0 8 -9
q0 -2 -0.5 -30.5t-1 -70t-0.5 -75.5z" />
    <glyph glyph-name="threeeighths" unicode="&#x215c;" horiz-adv-x="742" 
d="M569 -9q-64 0 -94 26.5t-30 59.5q0 68 86 112q-90 46 -90 107q0 44 39 79t105 35q50 0 83 -25.5t33 -63.5q0 -34 -21.5 -60.5t-69.5 -51.5q92 -44 92 -112q0 -39 -37 -72.5t-96 -33.5zM573 20q33 0 52 20t19 45q0 30 -21.5 49.5t-64.5 39.5q-60 -26 -60 -87q0 -29 23 -48
t52 -19zM575 379q-33 0 -52 -20.5t-19 -49.5q0 -28 16.5 -44.5t61.5 -41.5q28 13 46 36.5t18 52.5t-19.5 48t-51.5 19zM577 654l-406 -656q-7 -13 -10 -13q-4 0 -18 8t-14 12t5 12l406 658q4 8 8 8t16 -6q17 -10 17 -14q0 -1 -4 -9zM9 311q0 17 7.5 27t18.5 10q10 0 16 -5.5
t11 -16.5l4 -11q16 -20 54 -20t63 25t25 54q0 38 -24 65.5t-60 33.5q-14 3 -14 14q2 10 11 11q28 2 51 24.5t23 55.5q0 23 -17 41.5t-42 18.5q-58 0 -79 -58q-3 -9 -10 -7l-13 3q-6 1 -4 10q8 39 37.5 68t88.5 29q50 0 74.5 -25.5t24.5 -53.5q0 -64 -71 -105q35 -7 64 -36.5
t29 -66.5q0 -59 -46.5 -95.5t-116.5 -36.5q-39 0 -64 8.5t-33 18.5t-8 20z" />
    </font>
</defs>
</svg>
