<?xml version="1.0" standalone="no"?>
<!DOCTYPE svg PUBLIC "-//W3C//DTD SVG 1.1//EN" "http://www.w3.org/Graphics/SVG/1.1/DTD/svg11.dtd" >
<svg xmlns="http://www.w3.org/2000/svg" xmlns:xlink="http://www.w3.org/1999/xlink" version="1.1">
<metadata>
Created by FontForge 20170731 at Sun Oct 29 20:19:23 2017
 By ,,,
Copyright (c) 2015 Indian Type Foundry (info@indiantypefoundry.com)
</metadata>
<defs>
<font id="HindSiliguri-Light" horiz-adv-x="1083" >
  <font-face 
    font-family="Hind Siliguri Light"
    font-weight="300"
    font-stretch="normal"
    units-per-em="2048"
    panose-1="2 0 0 0 0 0 0 0 0 0"
    ascent="1638"
    descent="-410"
    x-height="1038"
    cap-height="1380"
    bbox="-100 -508 1913 1876"
    underline-thickness="102"
    underline-position="-919"
    unicode-range="U+000D-FB02"
  />
<missing-glyph horiz-adv-x="748" 
d="M68 0v1365h544v-1365h-544zM136 68h408v1229h-408v-1229z" />
    <glyph glyph-name=".notdef" horiz-adv-x="748" 
d="M68 0v1365h544v-1365h-544zM136 68h408v1229h-408v-1229z" />
    <glyph glyph-name="glyph1" horiz-adv-x="0" 
 />
    <glyph glyph-name="uni000D" unicode="&#xd;" horiz-adv-x="681" 
 />
    <glyph glyph-name="space" unicode=" " horiz-adv-x="450" 
 />
    <glyph glyph-name="exclam" unicode="!" horiz-adv-x="493" 
d="M141 86q0 43 30 73.5t73 30.5q45 0 75.5 -30.5t30.5 -73.5q0 -45 -30.5 -73.5t-75.5 -28.5t-74 28.5t-29 73.5zM184 401v979h125v-979h-125z" />
    <glyph glyph-name="quotedbl" unicode="&#x22;" horiz-adv-x="555" 
d="M92 924v471h117v-471h-117zM346 924v471h117v-471h-117z" />
    <glyph glyph-name="numbersign" unicode="#" horiz-adv-x="1427" 
d="M113 356v105h249l97 459h-226v104h248l74 356h121l-76 -356h389l76 356h117l-74 -356h207v-104h-230l-96 -459h209v-105h-231l-74 -356h-121l76 356h-389l-76 -356h-117l74 356h-227zM481 461h389l97 459h-389z" />
    <glyph glyph-name="dollar" unicode="$" horiz-adv-x="1028" 
d="M119 1024q0 166 113.5 262t281.5 107v206h113v-210q125 -14 209 -58v-141q-49 33 -129 55.5t-156 22.5q-137 0 -219 -64.5t-82 -171.5q0 -55 23.5 -99t68.5 -76t93 -56.5t114 -52.5q23 -8 35 -15q76 -33 124 -60.5t101 -71.5t79.5 -105.5t26.5 -139.5q0 -170 -109.5 -265
t-283.5 -105v-205h-112v209q-162 12 -287 86v141q61 -47 158.5 -77.5t197.5 -30.5q145 0 226 63.5t81 181.5q0 55 -23.5 99.5t-69.5 76t-94 55t-116 52.5q-6 2 -10 4t-10 4t-10 4q-76 33 -124 59.5t-102.5 71.5t-81 105.5t-26.5 138.5z" />
    <glyph glyph-name="percent" unicode="%" horiz-adv-x="1667" 
d="M102 1044.5q0 126.5 90.5 217t217.5 90.5t217 -90.5t90 -217t-90 -217t-217 -90.5t-217.5 90.5t-90.5 217zM217 1044.5q0 -79.5 56.5 -136t136 -56.5t136 56.5t56.5 136t-56.5 136t-136 56.5t-136 -56.5t-56.5 -136zM410 -2l720 1341h127l-722 -1341h-125zM950 293
q0 127 90 217t217 90t217.5 -91t90.5 -216q0 -127 -90.5 -217t-217.5 -90t-217 90t-90 217zM1065 293q0 -80 56.5 -136.5t136 -56.5t136 56.5t56.5 136.5t-56.5 136t-136 56t-136 -56t-56.5 -136z" />
    <glyph glyph-name="ampersand" unicode="&#x26;" horiz-adv-x="1419" 
d="M141 356q0 121 84 205t246 152q-109 115 -153 196.5t-44 171.5q0 147 99.5 240.5t269.5 93.5q162 0 265.5 -101.5t103.5 -244.5q0 -119 -78 -214t-260 -173l389 -356q49 86 61 204h125q-20 -170 -94 -288l262 -242h-180l-158 145q-162 -162 -440 -161q-219 0 -358.5 103
t-139.5 269zM272 356q0 -115 101.5 -182.5t259.5 -67.5q221 0 354 123l-430 400q-143 -61 -214 -120.5t-71 -152.5zM408 1079q0 -70 34.5 -135t143.5 -178q154 70 224.5 139.5t70.5 165.5q0 92 -62.5 156.5t-179.5 64.5q-102 0 -166.5 -56.5t-64.5 -156.5z" />
    <glyph glyph-name="quotesingle" unicode="'" horiz-adv-x="301" 
d="M92 924v471h117v-471h-117z" />
    <glyph glyph-name="parenleft" unicode="(" horiz-adv-x="620" 
d="M164 537q0 244 84 483.5t227 427.5h146q-324 -444 -324 -922q0 -483 338 -927h-143q-328 418 -328 938z" />
    <glyph glyph-name="parenright" unicode=")" horiz-adv-x="620" 
d="M-14 -401q338 444 338 927q0 477 -324 922h145q143 -188 227.5 -428t84.5 -483q0 -520 -328 -938h-143z" />
    <glyph glyph-name="asterisk" unicode="*" horiz-adv-x="780" 
d="M59 1102l31 98l189 -61q51 -18 75 -43q-18 41 -18 88v196h102v-196q0 -49 -14 -84q29 29 74 43l188 59l33 -96l-189 -64q-31 -10 -67 -10h-17q33 -14 64 -57l115 -160l-82 -61l-117 159q-31 41 -37 80q-4 -39 -35 -82l-116 -157l-84 59l116 160q31 43 66 59q-8 -2 -27 -2
q-33 0 -63 10z" />
    <glyph glyph-name="plus" unicode="+" horiz-adv-x="1114" 
d="M123 639v115h366v393h117v-393h385v-115h-385v-393h-117v393h-366z" />
    <glyph glyph-name="comma" unicode="," horiz-adv-x="423" 
d="M-16 -250l186 438h184l-260 -438h-110z" />
    <glyph glyph-name="hyphen" unicode="-" horiz-adv-x="706" 
d="M123 498v112h461v-112h-461z" />
    <glyph glyph-name="period" unicode="." horiz-adv-x="290" 
d="M41 88q0 45 29.5 75t74.5 30t75 -30t30 -75t-30 -74.5t-75 -29.5t-74.5 29.5t-29.5 74.5z" />
    <glyph glyph-name="slash" unicode="/" horiz-adv-x="792" 
d="M-23 -209l750 1657h127l-752 -1657h-125z" />
    <glyph glyph-name="zero" unicode="0" horiz-adv-x="1112" 
d="M92 673.5q0 311.5 129 495t330 183.5q209 0 339 -182.5t130 -495.5q0 -311 -123 -500.5t-346 -189.5q-205 0 -332 189t-127 500.5zM221 674q0 -266 96.5 -417t233.5 -151q154 0 247 147.5t93 420.5q0 268 -97.5 411.5t-242.5 143.5q-131 0 -230.5 -145.5t-99.5 -409.5z
" />
    <glyph glyph-name="one" unicode="1" horiz-adv-x="630" 
d="M41 1014v141l301 184h125v-1339h-125v1202z" />
    <glyph glyph-name="two" unicode="2" horiz-adv-x="1007" 
d="M82 0v113q655 502 655 835q0 139 -78.5 212t-212.5 73q-154 0 -315 -119v127q139 111 320 111q172 0 294.5 -103.5t122.5 -294.5q0 -356 -608 -841h655v-113h-833z" />
    <glyph glyph-name="three" unicode="3" horiz-adv-x="944" 
d="M82 55v127q145 -76 328 -76q137 0 214.5 74t77.5 193q0 121 -86 184.5t-235 63.5h-90v112h90q115 0 196.5 70.5t81.5 189.5t-72.5 179.5t-199.5 60.5q-143 0 -268 -82v127q111 74 266 74q197 0 301.5 -100.5t104.5 -245.5q0 -233 -213 -326q115 -27 184 -108.5t69 -202.5
q0 -164 -110.5 -272.5t-312.5 -108.5q-184 0 -326 67z" />
    <glyph glyph-name="four" unicode="4" horiz-adv-x="1093" 
d="M92 336v113l537 890h207v-890h206v-113h-206v-336h-123v336h-621zM221 449h492v819z" />
    <glyph glyph-name="five" unicode="5" horiz-adv-x="1048" 
d="M133 51v127q131 -76 320 -76q362 0 362 314q0 129 -86 198.5t-217 69.5q-150 0 -311 -72v727h651v-112h-524v-447q100 23 178 23q199 0 319.5 -106.5t120.5 -286.5q0 -197 -127 -311.5t-346 -114.5q-197 0 -340 67z" />
    <glyph glyph-name="six" unicode="6" horiz-adv-x="1071" 
d="M117 604q0 215 64.5 388t203.5 281.5t332 108.5q96 0 182 -30v-127q-84 39 -184 39q-205 0 -326 -158t-143 -393q66 70 160 109.5t188 39.5q186 0 291.5 -116.5t105.5 -309.5q0 -205 -112.5 -328.5t-294.5 -123.5q-223 0 -345 172t-122 448zM240 582q6 -236 100 -359
t244 -123q127 0 201.5 94.5t74.5 245.5q0 139 -74.5 221t-193.5 82q-102 0 -196.5 -46t-155.5 -115z" />
    <glyph glyph-name="seven" unicode="7" horiz-adv-x="907" 
d="M20 1227v112h867v-112l-563 -1227h-136l566 1227h-734z" />
    <glyph glyph-name="eight" unicode="8" horiz-adv-x="1091" 
d="M113 332q0 127 70.5 213t191.5 121q-113 35 -176.5 117.5t-63.5 197.5q0 174 122 272.5t282 98.5q164 0 284.5 -97.5t120.5 -277.5q0 -109 -62.5 -190.5t-172.5 -116.5q127 -33 198.5 -115t71.5 -213q0 -162 -127 -260t-313 -98q-178 0 -302 95t-124 253zM242 340
q0 -100 77.5 -169t221.5 -69q150 0 229.5 75t79.5 183q0 104 -77 177t-232 71q-150 -2 -224.5 -78.5t-74.5 -189.5zM264 981q0 -127 79 -190.5t204 -63.5q119 0 193.5 67.5t74.5 190.5q0 106 -72.5 177t-203.5 71q-125 0 -200 -73t-75 -179z" />
    <glyph glyph-name="nine" unicode="9" horiz-adv-x="1015" 
d="M82 922q0 186 109.5 310t297.5 124q221 0 329 -166t108 -412q0 -367 -138.5 -580.5t-429.5 -213.5q-119 0 -229 39v127q109 -47 229 -48q387 0 437 508q-106 -127 -312 -127q-160 0 -280.5 120t-120.5 319zM213 922q0 -156 81 -239t220 -83q178 0 289 139v39
q0 88 -14.5 164t-47 145.5t-97 109.5t-152.5 40q-127 0 -203 -85t-76 -230z" />
    <glyph glyph-name="colon" unicode=":" horiz-adv-x="454" 
d="M123 100q0 43 29.5 74t72.5 31q45 0 76 -31t31 -74q0 -45 -31 -73.5t-76 -28.5t-73.5 28.5t-28.5 73.5zM123 756q0 43 29.5 73.5t72.5 30.5q45 0 76 -30.5t31 -73.5q0 -45 -31 -74t-76 -29t-73.5 29t-28.5 74z" />
    <glyph glyph-name="semicolon" unicode=";" horiz-adv-x="423" 
d="M-16 -250l186 438h184l-260 -438h-110zM141 754q0 43 30 73.5t73 30.5q45 0 75.5 -30.5t30.5 -73.5q0 -45 -30.5 -74t-75.5 -29t-74 29t-29 74z" />
    <glyph glyph-name="less" unicode="&#x3c;" horiz-adv-x="1044" 
d="M123 637v123l819 391v-133l-682 -318l682 -321v-133z" />
    <glyph glyph-name="equal" unicode="=" horiz-adv-x="1114" 
d="M123 440v115h868v-115h-868zM123 840v112h868v-112h-868z" />
    <glyph glyph-name="greater" unicode="&#x3e;" horiz-adv-x="1044" 
d="M102 246v133l682 321l-682 318v133l820 -391v-123z" />
    <glyph glyph-name="question" unicode="?" horiz-adv-x="921" 
d="M82 1174v133q55 37 146 63.5t184 26.5q197 0 312.5 -98.5t115.5 -276.5q0 -174 -122 -270.5t-298 -112.5v-238h-125v349q193 0 303.5 68.5t110.5 205.5q0 113 -74 183.5t-221 70.5q-168 0 -332 -104zM252 86q0 43 29.5 73.5t72.5 30.5q45 0 76 -30.5t31 -73.5
q0 -45 -31 -73.5t-76 -28.5t-73.5 28.5t-28.5 73.5z" />
    <glyph glyph-name="at" unicode="@" horiz-adv-x="1814" 
d="M133 399q0 356 250 590t608 234q305 0 513 -188.5t208 -502.5q0 -233 -107.5 -356t-240.5 -123q-176 0 -223 164q-113 -170 -299 -170q-147 0 -232.5 102.5t-85.5 258.5q0 176 110.5 301t278.5 125q164 0 242 -127q2 47 6 114h109l-37 -346q-6 -57 -6 -113
q0 -205 145 -204q94 0 158.5 104.5t64.5 263.5q0 274 -172 431t-436 157q-289 0 -508 -201.5t-219 -511.5q0 -293 165 -449.5t398 -156.5q207 0 353 86l-9 -133q-123 -66 -348 -65q-315 0 -500.5 199.5t-185.5 516.5zM649 399q0 -109 55.5 -175t147.5 -66q86 0 164 59
t114 166q0 27 9 113q-16 111 -69.5 168t-162.5 57q-115 0 -186.5 -95.5t-71.5 -226.5z" />
    <glyph glyph-name="A" unicode="A" horiz-adv-x="1304" 
d="M78 0l487 1380h185l477 -1380h-137l-132 383h-610l-133 -383h-137zM387 496h535l-31 88l-234 690q-26 -82 -239 -692z" />
    <glyph glyph-name="B" unicode="B" horiz-adv-x="1150" 
d="M164 0v1380h385q209 0 339 -95t130 -263q0 -123 -68.5 -210t-177.5 -110q117 -14 202 -100t85 -235q0 -166 -107.5 -266.5t-308.5 -100.5h-479zM291 113h352q133 0 208 66.5t75 191.5q0 129 -85 199.5t-237 70.5h-313v-528zM291 754h248q178 0 262 76.5t84 195.5
q0 102 -81 172t-241 70h-272v-514z" />
    <glyph glyph-name="C" unicode="C" horiz-adv-x="1226" 
d="M102 698q0 311 199 506t492 195q203 0 348 -74v-133q-90 47 -160 66.5t-193 19.5q-238 0 -396.5 -161t-158.5 -419q0 -270 157 -432t417 -162q203 0 338 107v-139q-125 -88 -344 -88q-313 0 -506 190.5t-193 523.5z" />
    <glyph glyph-name="D" unicode="D" horiz-adv-x="1341" 
d="M164 0v1380h393q303 0 497.5 -188t194.5 -494q0 -186 -71.5 -340.5t-230.5 -256t-380 -101.5h-403zM291 117h276q141 0 250 49t172.5 133t95 184.5t31.5 214.5q0 236 -156.5 401t-402.5 165h-266v-1147z" />
    <glyph glyph-name="E" unicode="E" horiz-adv-x="1003" 
d="M164 0v1380h735v-116h-608v-516h536v-117h-536v-514h620v-117h-747z" />
    <glyph glyph-name="F" unicode="F" horiz-adv-x="991" 
d="M164 0v1380h735v-116h-608v-527h536v-116h-536v-621h-127z" />
    <glyph glyph-name="G" unicode="G" horiz-adv-x="1353" 
d="M102 692q0 311 187.5 512t474.5 201q244 0 401 -96v-142q-158 111 -385 111q-242 0 -394.5 -161t-152.5 -425q0 -272 152 -426.5t418 -154.5q158 0 280 63v473h-325v113h452v-658q-161 -118 -405 -118h-4q-315 0 -507 189t-192 519z" />
    <glyph glyph-name="H" unicode="H" horiz-adv-x="1294" 
d="M164 0v1380h127v-618h713v618h126v-1380h-126v645h-713v-645h-127z" />
    <glyph glyph-name="I" unicode="I" horiz-adv-x="475" 
d="M174 0v1380h127v-1380h-127z" />
    <glyph glyph-name="J" unicode="J" horiz-adv-x="714" 
d="M61 47v129q82 -55 177 -55q186 0 186 196v1063h127v-1042q0 -338 -301 -338q-111 0 -189 47z" />
    <glyph glyph-name="K" unicode="K" horiz-adv-x="1124" 
d="M164 0v1380h127v-1380h-127zM328 680l546 700h160l-545 -700l574 -680h-168z" />
    <glyph glyph-name="L" unicode="L" horiz-adv-x="970" 
d="M164 0v1380h127v-1263h608v-117h-735z" />
    <glyph glyph-name="M" unicode="M" horiz-adv-x="1736" 
d="M154 0l96 1380h174l180 -506l244 -702q141 389 258 702l188 506h174l117 -1380h-127l-47 547l-55 667q-123 -342 -244 -667l-190 -512h-150l-180 512l-230 653q-18 -309 -43 -653l-38 -547h-127z" />
    <glyph glyph-name="N" unicode="N" horiz-adv-x="1366" 
d="M164 0v1380h174l352 -583l389 -647q-4 213 -4 645v585h127v-1380h-174l-350 580l-391 651q4 -221 4 -647v-584h-127z" />
    <glyph glyph-name="O" unicode="O" horiz-adv-x="1415" 
d="M102 696q0 326 163 519.5t442 193.5q287 0 446.5 -191.5t159.5 -521.5q0 -328 -162 -520t-440 -192q-274 0 -441.5 194.5t-167.5 517.5zM233 696q0 -272 130.5 -431t347.5 -159q225 0 348 157t123 433q0 279 -124 434.5t-351 155.5q-221 0 -347.5 -157t-126.5 -433z" />
    <glyph glyph-name="P" unicode="P" horiz-adv-x="1105" 
d="M164 0v1380h332q242 0 380 -121.5t138 -320.5q0 -172 -134.5 -293t-361.5 -121h-227v-524h-127zM291 637h241q162 0 257.5 86t95.5 215q0 152 -98.5 241t-276.5 89h-219v-631z" />
    <glyph glyph-name="Q" unicode="Q" horiz-adv-x="1435" 
d="M102 696q0 326 163 519.5t442 193.5q287 0 446.5 -191.5t159.5 -521.5q0 -244 -92.5 -415.5t-257.5 -245.5l405 -262l-133 -58l-414 277q-47 -8 -110 -8q-274 0 -441.5 194.5t-167.5 517.5zM233 696q0 -272 130.5 -431t347.5 -159q225 0 348 157t123 433
q0 279 -124 434.5t-351 155.5q-221 0 -347.5 -157t-126.5 -433z" />
    <glyph glyph-name="R" unicode="R" horiz-adv-x="1087" 
d="M164 0v1380h311q242 0 361.5 -109.5t119.5 -309.5q-4 -139 -77.5 -239.5t-208.5 -137.5l366 -584h-151l-346 563q-12 -2 -39 -2h-209v-561h-127zM291 674h223q152 0 233.5 84t81.5 209q0 301 -340 301h-198v-594z" />
    <glyph glyph-name="S" unicode="S" horiz-adv-x="1079" 
d="M150 1024q0 174 124.5 271.5t305.5 97.5q172 0 286 -62v-141q-49 33 -129 55.5t-155 22.5q-137 0 -219 -64.5t-82 -171.5q0 -55 21.5 -98t72.5 -79t89 -55.5t116 -51.5q72 -31 108.5 -48.5t94 -54.5t87 -72.5t53 -92t23.5 -124.5q0 -180 -120.5 -275t-309.5 -95
q-213 0 -362 90v141q61 -47 158.5 -77.5t197.5 -30.5q145 0 226 63.5t81 181.5q0 90 -61.5 146.5t-177.5 107.5q-16 8 -71.5 32t-78 34t-70 34.5t-69 43t-54 49t-47 61.5t-26.5 73t-12 89z" />
    <glyph glyph-name="T" unicode="T" horiz-adv-x="952" 
d="M31 1264v116h891v-116h-383v-1264h-127v1264h-381z" />
    <glyph glyph-name="U" unicode="U" horiz-adv-x="1308" 
d="M164 506v874h127v-872q0 -207 97 -304.5t263 -97.5q367 0 367 412v862h127v-858q0 -266 -129 -402t-365 -136q-231 0 -359 133t-128 389z" />
    <glyph glyph-name="V" unicode="V" horiz-adv-x="1292" 
d="M82 1380h137l182 -546l238 -721l246 721l188 546h137l-485 -1380h-174z" />
    <glyph glyph-name="W" unicode="W" horiz-adv-x="1902" 
d="M82 1380h133l129 -512l186 -739q137 489 211 739l144 492h149l154 -494l229 -745q113 524 162 743l115 516h127l-314 -1380h-174l-137 436l-233 758q-78 -283 -220 -758l-129 -436h-174z" />
    <glyph glyph-name="X" unicode="X" horiz-adv-x="1228" 
d="M86 0l446 696l-419 684h147l342 -569l342 569h148l-418 -684l469 -696h-148l-391 588l-371 -588h-147z" />
    <glyph glyph-name="Y" unicode="Y" horiz-adv-x="1187" 
d="M61 1380h146l108 -202l277 -533q16 39 280 533l109 202h145l-471 -864v-516h-127v516z" />
    <glyph glyph-name="Z" unicode="Z" horiz-adv-x="1136" 
d="M102 0v113l758 1155h-749v112h893v-112l-758 -1155h788v-113h-932z" />
    <glyph glyph-name="bracketleft" unicode="[" horiz-adv-x="606" 
d="M164 -367v1815h442v-113h-315v-1587h315v-115h-442z" />
    <glyph glyph-name="backslash" unicode="\" horiz-adv-x="790" 
d="M-61 1448h127l749 -1659h-127z" />
    <glyph glyph-name="bracketright" unicode="]" horiz-adv-x="606" 
d="M0 -252h315v1587h-315v113h442v-1815h-442v115z" />
    <glyph glyph-name="asciicircum" unicode="^" horiz-adv-x="927" 
d="M98 680l287 537h168l276 -537h-131l-231 463l-238 -463h-131z" />
    <glyph glyph-name="underscore" unicode="_" horiz-adv-x="1157" 
d="M61 -55h1035v-113h-1035v113z" />
    <glyph glyph-name="grave" unicode="`" horiz-adv-x="819" 
d="M225 1634h166l209 -307h-113z" />
    <glyph glyph-name="a" unicode="a" horiz-adv-x="995" 
d="M102 293q0 150 116 232.5t306 82.5h203v47q0 139 -59.5 210t-198.5 71q-162 0 -291 -88v135q119 72 293 72q381 0 381 -400v-655h-125v121q-86 -131 -299 -131q-143 0 -234.5 85t-91.5 218zM236 297q0 -86 56 -139.5t165 -53.5q123 0 196.5 68t73.5 172v150h-203
q-145 0 -216.5 -56.5t-71.5 -140.5z" />
    <glyph glyph-name="b" unicode="b" horiz-adv-x="1144" 
d="M164 0v1448h125v-565q115 172 317 172q197 0 322 -152.5t125 -394.5q0 -219 -117 -371.5t-326 -152.5q-213 0 -321 168v-152h-125zM289 524q0 -227 96 -324.5t229.5 -97.5t220.5 113t87 291q0 207 -90.5 318.5t-229.5 111.5q-49 0 -99 -19.5t-100.5 -63.5t-82 -129
t-31.5 -200z" />
    <glyph glyph-name="c" unicode="c" horiz-adv-x="966" 
d="M92 516q0 217 144.5 379t390.5 162q127 0 227 -56v-127q-92 61 -215 62q-190 0 -303 -124t-113 -298q0 -176 108.5 -297t309.5 -121q125 0 213 66v-127q-88 -59 -227 -60q-252 0 -393.5 159t-141.5 382z" />
    <glyph glyph-name="d" unicode="d" horiz-adv-x="1136" 
d="M92 508q0 242 125 394.5t322 152.5q203 0 317 -172v565h125v-1448h-125v152q-109 -168 -321 -168q-209 0 -326 152.5t-117 371.5zM223 506q0 -178 87 -291t220.5 -113t229.5 97.5t96 324.5q0 115 -31.5 200t-82 129t-100.5 63.5t-99 19.5q-139 0 -229.5 -111.5
t-90.5 -318.5z" />
    <glyph glyph-name="e" unicode="e" horiz-adv-x="1062" 
d="M92 514q0 250 127 393.5t330 143.5q190 0 303 -125t113 -353q0 -70 -9 -110h-733q14 -172 118.5 -263t276.5 -91q176 0 281 69v-127q-123 -61 -287 -61q-231 0 -375.5 144.5t-144.5 379.5zM223 578h613v47q0 141 -79 225t-212 84q-131 0 -219 -92t-103 -264z" />
    <glyph glyph-name="f" unicode="f" horiz-adv-x="665" 
d="M61 932v106h191v111q0 141 73.5 225t206.5 84q39 0 84 -12v-123q-43 16 -90 16q-61 0 -105 -48t-44 -144v-109h237v-106h-237v-932h-125v932h-191z" />
    <glyph glyph-name="g" unicode="g" horiz-adv-x="1103" 
d="M92 518q0 233 116 385t304 152q223 0 324 -199v182h125v-958q0 -236 -127 -353.5t-328 -117.5q-178 0 -303 59v123q127 -63 293 -63q156 0 248 85t92 267v135q-104 -190 -312 -190q-180 0 -306 133t-126 360zM223 524q0 -186 94.5 -283.5t208.5 -97.5q117 0 213.5 91.5
t96.5 279.5q0 215 -92.5 318.5t-206.5 103.5q-145 0 -229.5 -115t-84.5 -297z" />
    <glyph glyph-name="h" unicode="h" 
d="M156 0v1448h125v-588q94 195 329 195q150 0 240 -92.5t90 -237.5v-725h-125v686q0 121 -61.5 184.5t-161.5 63.5q-127 0 -219 -97.5t-92 -263.5v-573h-125z" />
    <glyph glyph-name="i" unicode="i" horiz-adv-x="452" 
d="M139 1370q0 37 24.5 62.5t61.5 25.5t62.5 -25.5t25.5 -62.5t-25.5 -61.5t-62.5 -24.5t-61.5 24.5t-24.5 61.5zM164 0v1038h125v-1038h-125z" />
    <glyph glyph-name="j" unicode="j" horiz-adv-x="442" 
d="M-96 -246q72 -33 143 -33q117 0 117 152v1165h125v-1169q0 -127 -64.5 -196.5t-179.5 -69.5q-68 0 -141 28v123zM137 1370q0 37 24.5 62.5t61.5 25.5t62.5 -25.5t25.5 -62.5t-25.5 -61.5t-62.5 -24.5t-61.5 24.5t-24.5 61.5z" />
    <glyph glyph-name="k" unicode="k" horiz-adv-x="946" 
d="M156 0v1448h125v-1448h-125zM311 545l422 493h154l-424 -493l438 -545h-156z" />
    <glyph glyph-name="l" unicode="l" horiz-adv-x="452" 
d="M164 0v1448h125v-1448h-125z" />
    <glyph glyph-name="m" unicode="m" horiz-adv-x="1652" 
d="M156 0v1038h125v-170q88 186 290 187q250 0 308 -205q96 205 307 205q164 0 243.5 -91.5t79.5 -238.5v-725h-125v686q0 248 -217 248q-106 0 -189 -98.5t-83 -262.5v-573h-125v686q0 248 -217 248q-106 0 -189 -98.5t-83 -262.5v-573h-125z" />
    <glyph glyph-name="n" unicode="n" 
d="M156 0v1038h125v-178q96 195 329 195q150 0 240 -92.5t90 -237.5v-725h-125v686q0 121 -61.5 184.5t-161.5 63.5q-127 0 -219 -97.5t-92 -263.5v-573h-125z" />
    <glyph glyph-name="o" unicode="o" horiz-adv-x="1148" 
d="M92 514q0 227 133 383t344 156q231 0 359.5 -153t128.5 -386q0 -231 -130 -381.5t-358 -150.5q-219 0 -348 151.5t-129 380.5zM223 514q0 -170 95.5 -292t250.5 -122q170 0 263.5 120t93.5 294q0 180 -88 300t-269 120q-162 0 -254 -123t-92 -297z" />
    <glyph glyph-name="p" unicode="p" horiz-adv-x="1136" 
d="M156 -410v1448h125v-151q109 168 321 168q209 0 325.5 -152.5t116.5 -372.5q0 -242 -124.5 -394t-321.5 -152q-203 0 -317 172v-566h-125zM281 514q0 -115 31.5 -200t81.5 -129t100.5 -63.5t99.5 -19.5q139 0 229 112t90 318q0 178 -87 291t-220 113t-229 -97.5
t-96 -324.5z" />
    <glyph glyph-name="q" unicode="q" horiz-adv-x="1136" 
d="M92 530q0 219 117 372t326 153q213 0 321 -168v151h125v-1448h-125v566q-115 -172 -317 -172q-197 0 -322 152.5t-125 393.5zM223 532q0 -207 90 -318.5t230 -111.5q49 0 99 19.5t100.5 63.5t82 129t31.5 200q0 227 -96 324.5t-229.5 97.5t-220.5 -113t-87 -291z" />
    <glyph glyph-name="r" unicode="r" horiz-adv-x="643" 
d="M156 0v1038h125v-176q86 188 290 189q14 0 52 -4v-127q-41 12 -82 12q-111 0 -185.5 -109.5t-74.5 -242.5v-580h-125z" />
    <glyph glyph-name="s" unicode="s" horiz-adv-x="831" 
d="M117 774q0 125 92 200t231 75q168 0 258 -48v-124q-96 55 -260 55q-90 0 -142 -42t-52 -110q0 -41 15 -71.5t53 -56t64.5 -38t86.5 -36.5q143 -57 220 -126t77 -186q0 -129 -89 -203.5t-245 -74.5q-188 0 -303 61v129q137 -78 295 -78q104 0 158.5 43t54.5 113
q0 82 -56.5 127t-185.5 96q-125 49 -198.5 114.5t-73.5 180.5z" />
    <glyph glyph-name="t" unicode="t" horiz-adv-x="745" 
d="M51 932v106h170v260h127v-260h297v-106h-297v-645q0 -178 166 -178q82 0 139 47v-127q-59 -39 -137 -39q-295 0 -295 303v639h-170z" />
    <glyph glyph-name="u" unicode="u" 
d="M143 317v721h125v-686q0 -119 62.5 -182.5t165.5 -63.5q137 0 222 98.5t85 256.5v577h125v-1038h-125v186q-82 -200 -328 -200h-2q-152 0 -241 91t-89 240z" />
    <glyph glyph-name="v" unicode="v" horiz-adv-x="1017" 
d="M61 1038h132l145 -436l166 -502q20 76 170 502l151 436h131l-368 -1038h-168z" />
    <glyph glyph-name="w" unicode="w" horiz-adv-x="1613" 
d="M61 1038h138l102 -344q57 -193 97 -335t53 -187l10 -47q37 133 164 571l98 342h147l103 -342l168 -575q33 121 174 575l106 342h131l-327 -1038h-168l-101 340l-159 553q-35 -129 -154 -553l-96 -340h-168z" />
    <glyph glyph-name="x" unicode="x" horiz-adv-x="952" 
d="M55 0l342 535l-321 505h147l254 -409l252 409h145l-325 -508l348 -532h-149l-273 436l-278 -436h-142z" />
    <glyph glyph-name="y" unicode="y" horiz-adv-x="987" 
d="M18 1038h144l141 -348l201 -500q14 47 178 500l127 348h139l-377 -1011q-78 -211 -184 -291t-242 -80q-41 0 -77 10v123q37 -10 69 -10q219 0 305 250z" />
    <glyph glyph-name="z" unicode="z" horiz-adv-x="913" 
d="M92 0v104l545 814h-524v120h680v-94l-553 -821h581v-123h-729z" />
    <glyph glyph-name="braceleft" unicode="{" horiz-adv-x="659" 
d="M102 479v125q43 0 66 4q90 16 136 85t46 167q0 49 -23.5 150.5t-23.5 158.5q0 133 73 211t177 78q45 0 86 -14v-127q-35 18 -70 18q-68 0 -101.5 -46t-33.5 -115q0 -61 23.5 -172t23.5 -175q0 -111 -62.5 -188.5t-189.5 -97.5q127 -20 189.5 -99.5t62.5 -189.5
q0 -63 -23.5 -174t-23.5 -172q0 -70 34 -116t101 -46q37 0 70 18v-127q-41 -14 -86 -14q-104 0 -177 78t-73 211q0 57 23.5 158.5t23.5 150.5q0 211 -182 256q-16 4 -66 4z" />
    <glyph glyph-name="bar" unicode="|" horiz-adv-x="438" 
d="M164 -397v1820h110v-1820h-110z" />
    <glyph glyph-name="braceright" unicode="}" horiz-adv-x="659" 
d="M20 -238q33 -18 70 -18q68 0 101.5 46t33.5 116q0 61 -23.5 171.5t-23.5 174.5q0 111 62.5 189.5t189.5 99.5q-127 20 -189.5 98t-62.5 188q0 63 23.5 174t23.5 173q0 70 -33.5 115.5t-101.5 45.5q-37 0 -70 -18v127q41 14 86 14q104 0 177 -77.5t73 -211.5
q0 -57 -23.5 -158.5t-23.5 -150.5q0 -98 46 -166.5t137 -85.5q23 -4 65 -4v-125q-49 0 -65 -4q-182 -45 -183 -256q0 -49 23.5 -150.5t23.5 -158.5q0 -133 -72.5 -211t-177.5 -78q-45 0 -86 14v127z" />
    <glyph glyph-name="asciitilde" unicode="~" horiz-adv-x="1198" 
d="M78 494q133 186 311 186q102 0 242.5 -82t210.5 -82q115 0 180 123l96 -66q-109 -174 -276 -174q-92 0 -239 83t-200 83q-143 0 -243 -147z" />
    <glyph glyph-name="uni00A0" unicode="&#xa0;" horiz-adv-x="450" 
 />
    <glyph glyph-name="exclamdown" unicode="&#xa1;" horiz-adv-x="493" 
d="M141 956q0 45 29 74t74 29t75.5 -29t30.5 -74q0 -43 -30.5 -73.5t-75.5 -30.5q-43 0 -73 30.5t-30 73.5zM184 -338v979h125v-979h-125z" />
    <glyph glyph-name="cent" unicode="&#xa2;" horiz-adv-x="911" 
d="M102 516q0 197 122 349.5t333 178.5v213h113v-210q76 -4 159 -39v-127q-88 47 -180 47q-190 0 -303 -121t-113 -293q0 -174 109 -292t309 -118q98 0 178 46v-127q-84 -35 -159 -37v-213h-113v215q-215 27 -335 176t-120 352z" />
    <glyph glyph-name="sterling" unicode="&#xa3;" horiz-adv-x="1058" 
d="M133 0v106q127 57 172 143.5t45 260.5q0 47 -6 102h-197v105h187q-18 176 -19 219q0 201 106.5 307.5t295.5 106.5q109 0 207 -50v-126q-100 55 -205 55q-281 0 -281 -281q0 -51 19 -231h377v-105h-365q4 -70 4 -100q0 -178 -46 -264t-126 -135h676v-113h-844z" />
    <glyph glyph-name="currency" unicode="&#xa4;" horiz-adv-x="1097" 
d="M74 248l119 119q-82 111 -82 266q0 154 88 270l-125 127l84 84l125 -127q119 90 274 90q150 0 264 -82l119 119l84 -84l-119 -119q82 -115 82 -264q0 -154 -92 -272l129 -127l-84 -84l-129 127q-115 -86 -270 -86q-153 0 -262 80l-121 -121zM221 641q0 -143 92.5 -236.5
t235.5 -93.5t235.5 92.5t92.5 235.5t-92.5 237.5t-235.5 94.5t-235.5 -93.5t-92.5 -236.5z" />
    <glyph glyph-name="yen" unicode="&#xa5;" horiz-adv-x="1171" 
d="M82 1339h139l359 -702l362 702h139l-317 -598h246v-102h-301l-66 -123v-72h367v-102h-367v-342h-127v342h-366v102h366v72l-65 123h-301v102h247z" />
    <glyph glyph-name="brokenbar" unicode="&#xa6;" horiz-adv-x="438" 
d="M164 276h110v-673h-110v673zM164 750v673h110v-673h-110z" />
    <glyph glyph-name="section" unicode="&#xa7;" horiz-adv-x="1001" 
d="M102 614q0 137 82 232q-82 78 -82 198q0 172 123 260.5t307 88.5q172 0 287 -62v-141q-49 33 -129 55.5t-155 22.5q-141 0 -221.5 -55.5t-80.5 -159.5q0 -37 12.5 -68t30 -49t50 -37.5t58.5 -30t73 -29t75 -30.5q72 -31 109 -48.5t94.5 -54t87 -72.5t53 -92t23.5 -124
q0 -150 -88 -244q88 -92 88 -227q0 -180 -121 -275.5t-309 -95.5q-213 0 -363 90v141q61 -47 158.5 -77.5t198.5 -30.5q145 0 226 63.5t81 182.5q0 90 -61.5 146t-178.5 108q-16 8 -71.5 31.5t-78 33.5t-69.5 35t-68.5 43t-54 49t-47 61.5t-27 72.5t-12.5 89zM229 618
q0 -45 18.5 -83.5t41 -63.5t72 -53.5t77.5 -41.5t94 -42q123 -53 181 -86q61 66 61 170q0 90 -63.5 147.5t-180.5 108.5q-29 12 -113.5 46t-127.5 54q-59 -59 -60 -156z" />
    <glyph glyph-name="dieresis" unicode="&#xa8;" horiz-adv-x="819" 
d="M133 1487q0 39 24.5 63.5t63.5 24.5q37 0 62.5 -24.5t25.5 -63.5q0 -37 -25.5 -62.5t-62.5 -25.5q-39 0 -63.5 25.5t-24.5 62.5zM510 1487q0 39 25.5 63.5t62.5 24.5q39 0 63.5 -24.5t24.5 -63.5q0 -37 -24.5 -62.5t-63.5 -25.5q-37 0 -62.5 25.5t-25.5 62.5z" />
    <glyph glyph-name="copyright" unicode="&#xa9;" horiz-adv-x="1597" 
d="M92 688q0 289 209 499t497.5 210t497.5 -210t209 -499t-209 -497.5t-497.5 -208.5t-497.5 208.5t-209 497.5zM213 688q0 -242 173 -415t414.5 -173t415 173t173.5 415t-173.5 416t-415 174t-414.5 -174t-173 -416zM459 684q0 160 105.5 279.5t287.5 119.5q94 0 166 -41
v-116q-70 47 -158 47q-127 0 -204.5 -82t-77.5 -209q0 -121 77.5 -203t204.5 -82q98 0 158 52v-117q-61 -45 -166 -45q-184 0 -288.5 116.5t-104.5 280.5z" />
    <glyph glyph-name="ordfeminine" unicode="&#xaa;" horiz-adv-x="690" 
d="M0 1049q0 127 97.5 197.5t260.5 70.5h166v37q0 117 -49 177t-168 60q-137 0 -244 -73v108q102 63 246 64q319 0 320 -336v-551h-105v110q-98 -119 -250 -118q-123 0 -198.5 68.5t-75.5 185.5zM109 1051q0 -70 49 -113t139 -43q96 0 161.5 55.5t65.5 128.5v135h-141
q-274 0 -274 -163z" />
    <glyph glyph-name="guillemotleft" unicode="&#xab;" horiz-adv-x="921" 
d="M55 518l307 332h144l-301 -332l301 -332h-144zM418 518l307 332h143l-301 -332l301 -332h-143z" />
    <glyph glyph-name="logicalnot" unicode="&#xac;" horiz-adv-x="1095" 
d="M41 723v121h983v-504h-125v383h-858z" />
    <glyph glyph-name="uni00AD" unicode="&#xad;" horiz-adv-x="706" 
d="M123 498v112h461v-112h-461z" />
    <glyph glyph-name="registered" unicode="&#xae;" horiz-adv-x="897" 
d="M20 1185.5q0 186.5 121 307.5t307.5 121t307.5 -121t121 -307.5t-121 -306t-307.5 -119.5t-307.5 119.5t-121 306zM113 1185.5q0 -151.5 92 -244.5t246 -93q152 0 244.5 93t92.5 244.5t-93 246t-244 94.5q-154 0 -246 -94.5t-92 -246zM317 987v426h121q162 0 162 -135
q0 -88 -72 -119l107 -172h-98l-93 156h-43v-156h-84zM401 1210h54q61 0 61 68q1 65 -67 65h-48v-133z" />
    <glyph glyph-name="macron" unicode="&#xaf;" horiz-adv-x="819" 
d="M139 1442v92h539v-92h-539z" />
    <glyph glyph-name="degree" unicode="&#xb0;" horiz-adv-x="679" 
d="M61 1104q0 121 80 198.5t203 77.5t198.5 -73.5t75.5 -194.5t-79.5 -198.5t-202.5 -77.5t-199 73.5t-76 194.5zM170 1108q0 -74 50 -125t124 -51t120 50t46 126q0 74 -50 125t-124 51t-120 -50t-46 -126z" />
    <glyph glyph-name="plusminus" unicode="&#xb1;" horiz-adv-x="1114" 
d="M123 63v115h868v-115h-868zM123 680v115h366v362h117v-362h385v-115h-385v-363h-117v363h-366z" />
    <glyph glyph-name="uni00B2" unicode="&#xb2;" horiz-adv-x="747" 
d="M102 803v84q420 319 420 534q0 86 -46 128t-120 42q-111 0 -223 -90v121q111 68 219 68q115 0 199 -69t84 -196q0 -119 -103.5 -259t-269.5 -269h404v-94h-564z" />
    <glyph glyph-name="uni00B3" unicode="&#xb3;" horiz-adv-x="651" 
d="M72 844v104q102 -55 225 -55q80 0 126 39t46 108q0 76 -55.5 118t-151.5 42h-55v94h55q74 0 126 42t52 114q0 141 -159 141q-88 0 -187 -63v108q84 53 185 54q133 0 202.5 -67t69.5 -167q0 -164 -160 -205q76 -6 132.5 -66.5t56.5 -146.5q0 -109 -74 -176t-209 -67
q-123 0 -225 49z" />
    <glyph glyph-name="acute" unicode="&#xb4;" horiz-adv-x="819" 
d="M225 1327l209 307h166l-262 -307h-113z" />
    <glyph glyph-name="mu" unicode="&#xb5;" horiz-adv-x="1095" 
d="M156 -367v1405h125v-686q0 -117 79.5 -181.5t188.5 -64.5q121 0 193.5 98.5t72.5 256.5v577h125v-1038h-125v166q-74 -180 -289 -180q-158 0 -245 98v-451h-125z" />
    <glyph glyph-name="paragraph" unicode="&#xb6;" horiz-adv-x="1091" 
d="M61 1038q0 137 101.5 239.5t277.5 102.5h125v-1683h-123v1014q-180 0 -280.5 93t-100.5 234zM813 -303v1683h123v-1683h-123z" />
    <glyph glyph-name="periodcentered" unicode="&#xb7;" horiz-adv-x="454" 
d="M123 690q0 45 29.5 75t74.5 30t75 -30t30 -75t-30 -74.5t-75 -29.5t-74.5 29.5t-29.5 74.5z" />
    <glyph glyph-name="cedilla" unicode="&#xb8;" horiz-adv-x="819" 
d="M262 -408q178 18 178 150q0 76 -47 154h125q37 -54 37 -144q0 -106 -76 -180t-217 -80v100z" />
    <glyph glyph-name="uni00B9" unicode="&#xb9;" horiz-adv-x="495" 
d="M20 1434v116l232 131h88v-878h-107v749z" />
    <glyph glyph-name="ordmasculine" unicode="&#xba;" horiz-adv-x="733" 
d="M-20 1241q0 190 105 321.5t277 131.5q188 0 290 -128t102 -325t-103.5 -323.5t-288.5 -126.5q-178 0 -280 128t-102 322zM88 1241q0 -147 76 -249.5t198 -102.5q135 0 208 100.5t73 251.5q0 154 -67.5 254t-213.5 100q-129 0 -201.5 -104.5t-72.5 -249.5z" />
    <glyph glyph-name="guillemotright" unicode="&#xbb;" horiz-adv-x="927" 
d="M53 186l301 332l-301 332h144l307 -332l-307 -332h-144zM416 186l301 332l-301 332h143l307 -332l-307 -332h-143z" />
    <glyph glyph-name="onequarter" unicode="&#xbc;" horiz-adv-x="1705" 
d="M164 1208v117l231 131h88v-878h-106v749zM307 0l934 1458h127l-936 -1458h-125zM952 209v86l355 584h153v-584h133v-86h-133v-209h-102v209h-406zM1061 295h297v496z" />
    <glyph glyph-name="onehalf" unicode="&#xbd;" horiz-adv-x="1705" 
d="M164 1208v117l231 131h88v-878h-106v749zM307 0l934 1458h127l-936 -1458h-125zM1049 0v84q420 319 419 534q0 86 -46 128t-119 42q-111 0 -224 -90v121q111 68 219 68q115 0 199 -68.5t84 -195.5q0 -119 -103.5 -259.5t-269.5 -269.5h404v-94h-563z" />
    <glyph glyph-name="threequarters" unicode="&#xbe;" horiz-adv-x="1757" 
d="M174 618v105q102 -55 225 -55q80 0 126 38.5t46 108.5q0 76 -55 118t-151 42h-56v94h56q74 0 126 42t52 114q0 141 -160 141q-88 0 -186 -63v108q84 53 184 53q133 0 202.5 -66.5t69.5 -166.5q0 -164 -159 -205q76 -6 132 -66.5t56 -146.5q0 -109 -73.5 -176.5
t-209.5 -67.5q-123 0 -225 49zM424 0l934 1458h127l-936 -1458h-125zM1069 209v86l354 584h154v-584h133v-86h-133v-209h-102v209h-406zM1178 295h297v496z" />
    <glyph glyph-name="questiondown" unicode="&#xbf;" horiz-adv-x="921" 
d="M82 20q0 174 122 270.5t298 112.5v238h125v-348q-193 0 -303.5 -68.5t-110.5 -206.5q0 -113 73.5 -183.5t221.5 -70.5q168 0 332 105v-133q-55 -37 -146.5 -63.5t-183.5 -26.5q-197 0 -312.5 98t-115.5 276zM461 956q0 45 30.5 74t75.5 29t74 -29t29 -74q0 -43 -30 -73.5
t-73 -30.5q-45 0 -75.5 30.5t-30.5 73.5z" />
    <glyph glyph-name="Agrave" unicode="&#xc0;" horiz-adv-x="1304" 
d="M78 0l487 1380h185l477 -1380h-137l-132 383h-610l-133 -383h-137zM324 1800h165l209 -307h-112zM387 496h535l-31 88l-234 690q-26 -82 -239 -692z" />
    <glyph glyph-name="Aacute" unicode="&#xc1;" horiz-adv-x="1304" 
d="M78 0l487 1380h185l477 -1380h-137l-132 383h-610l-133 -383h-137zM387 496h535l-31 88l-234 690q-26 -82 -239 -692zM614 1493l209 307h166l-262 -307h-113z" />
    <glyph glyph-name="Acircumflex" unicode="&#xc2;" horiz-adv-x="1304" 
d="M78 0l487 1380h185l477 -1380h-137l-132 383h-610l-133 -383h-137zM350 1493l244 307h129l244 -307h-131l-179 219l-176 -219h-131zM387 496h535l-31 88l-234 690q-26 -82 -239 -692z" />
    <glyph glyph-name="Atilde" unicode="&#xc3;" horiz-adv-x="1304" 
d="M78 0l487 1380h185l477 -1380h-137l-132 383h-610l-133 -383h-137zM328 1616q27 59 81 99t117 40q57 0 146.5 -47t126.5 -47q61 0 102 88l86 -57q-61 -131 -182 -131q-51 0 -142 47t-124 47q-86 0 -138 -101zM387 496h535l-31 88l-234 690q-26 -82 -239 -692z" />
    <glyph glyph-name="Adieresis" unicode="&#xc4;" horiz-adv-x="1304" 
d="M78 0l487 1380h185l477 -1380h-137l-132 383h-610l-133 -383h-137zM381 1649q0 39 24.5 63.5t63.5 24.5q37 0 62.5 -24.5t25.5 -63.5q0 -37 -25.5 -62.5t-62.5 -25.5q-39 0 -63.5 25.5t-24.5 62.5zM387 496h535l-31 88l-234 690q-26 -82 -239 -692zM758 1649
q0 39 25.5 63.5t62.5 24.5q39 0 63.5 -24.5t24.5 -63.5q0 -37 -24.5 -62.5t-63.5 -25.5q-37 0 -62.5 25.5t-25.5 62.5z" />
    <glyph glyph-name="Aring" unicode="&#xc5;" horiz-adv-x="1304" 
d="M78 0l487 1380h185l477 -1380h-137l-132 383h-610l-133 -383h-137zM387 496h535l-31 88l-234 690q-26 -82 -239 -692zM457 1673q0 84 58 143.5t142 59.5t143.5 -59.5t59.5 -143.5t-59.5 -142t-143.5 -58t-142 58t-58 142zM549 1673q0 -45 31.5 -76.5t76.5 -31.5t78 31.5
t33 76.5q0 47 -31.5 79t-79.5 32q-45 0 -76.5 -33t-31.5 -78z" />
    <glyph glyph-name="AE" unicode="&#xc6;" horiz-adv-x="1767" 
d="M55 0l815 1380h793v-116h-608v-516h536v-117h-536v-514h620v-117h-747v383h-508l-227 -383h-138zM487 496h441v757q-131 -237 -389 -671z" />
    <glyph glyph-name="Ccedilla" unicode="&#xc7;" horiz-adv-x="1226" 
d="M102 698q0 311 199 506t492 195q203 0 348 -74v-133q-90 47 -160 66.5t-193 19.5q-238 0 -396.5 -161t-158.5 -419q0 -270 157 -432t417 -162q203 0 338 107v-139q-125 -88 -344 -88q-313 0 -506 190.5t-193 523.5zM557 -408q178 18 178 150q0 76 -47 154h125
q37 -54 37 -144q0 -106 -76 -180t-217 -80v100z" />
    <glyph glyph-name="Egrave" unicode="&#xc8;" horiz-adv-x="1003" 
d="M164 0v1380h735v-116h-608v-516h536v-117h-536v-514h620v-117h-747zM266 1798h166l209 -307h-113z" />
    <glyph glyph-name="Eacute" unicode="&#xc9;" horiz-adv-x="1003" 
d="M164 0v1380h735v-116h-608v-516h536v-117h-536v-514h620v-117h-747zM512 1493l209 307h166l-262 -307h-113z" />
    <glyph glyph-name="Ecircumflex" unicode="&#xca;" horiz-adv-x="1003" 
d="M164 0v1380h735v-116h-608v-516h536v-117h-536v-514h620v-117h-747zM252 1493l244 307h129l243 -307h-131l-178 219l-176 -219h-131z" />
    <glyph glyph-name="Edieresis" unicode="&#xcb;" horiz-adv-x="1003" 
d="M164 0v1380h735v-116h-608v-516h536v-117h-536v-514h620v-117h-747zM270 1645q0 39 24.5 63.5t63.5 24.5q37 0 62.5 -24.5t25.5 -63.5q0 -37 -25.5 -63t-62.5 -26q-39 0 -63.5 26t-24.5 63zM647 1645q0 39 25.5 63.5t62.5 24.5q39 0 63.5 -24.5t24.5 -63.5
q0 -37 -24.5 -63t-63.5 -26q-37 0 -62.5 26t-25.5 63z" />
    <glyph glyph-name="Igrave" unicode="&#xcc;" horiz-adv-x="475" 
d="M-90 1800h166l209 -307h-113zM174 0v1380h127v-1380h-127z" />
    <glyph glyph-name="Iacute" unicode="&#xcd;" horiz-adv-x="475" 
d="M174 0v1380h127v-1380h-127zM190 1493l209 307h166l-262 -307h-113z" />
    <glyph glyph-name="Icircumflex" unicode="&#xce;" horiz-adv-x="475" 
d="M-70 1493l244 307h129l244 -307h-131l-178 219l-177 -219h-131zM174 0v1380h127v-1380h-127z" />
    <glyph glyph-name="Idieresis" unicode="&#xcf;" horiz-adv-x="475" 
d="M-37 1647q0 39 24.5 63.5t63.5 24.5q37 0 62.5 -24.5t25.5 -63.5q0 -37 -25.5 -62.5t-62.5 -25.5q-39 0 -63.5 25.5t-24.5 62.5zM174 0v1380h127v-1380h-127zM340 1647q0 39 25.5 63.5t62.5 24.5q39 0 63.5 -24.5t24.5 -63.5q0 -37 -24.5 -62.5t-63.5 -25.5
q-37 0 -62.5 25.5t-25.5 62.5z" />
    <glyph glyph-name="Eth" unicode="&#xd0;" horiz-adv-x="1484" 
d="M123 641v109h184v630h393q303 0 498 -188t195 -494q0 -186 -72 -340.5t-230.5 -256t-379.5 -101.5h-404v641h-184zM434 117h277q141 0 249.5 49t172 133t95.5 184.5t32 214.5q0 236 -157 401t-403 165h-266v-514h377v-109h-377v-524z" />
    <glyph glyph-name="Ntilde" unicode="&#xd1;" horiz-adv-x="1366" 
d="M164 0v1380h174l352 -583l389 -647q-4 213 -4 645v585h127v-1380h-174l-350 580l-391 651q4 -221 4 -647v-584h-127zM373 1614q27 59 81 99t117 40q57 0 146.5 -47t126.5 -47q61 0 102 88l86 -57q-61 -131 -182 -131q-51 0 -142 47t-124 47q-86 0 -138 -101z" />
    <glyph glyph-name="Ograve" unicode="&#xd2;" horiz-adv-x="1415" 
d="M102 696q0 326 163 519.5t442 193.5q287 0 446.5 -191.5t159.5 -521.5q0 -328 -162 -520t-440 -192q-274 0 -441.5 194.5t-167.5 517.5zM233 696q0 -272 130.5 -431t347.5 -159q225 0 348 157t123 433q0 279 -124 434.5t-351 155.5q-221 0 -347.5 -157t-126.5 -433z
M408 1800h165l209 -307h-112z" />
    <glyph glyph-name="Oacute" unicode="&#xd3;" horiz-adv-x="1415" 
d="M102 696q0 326 163 519.5t442 193.5q287 0 446.5 -191.5t159.5 -521.5q0 -328 -162 -520t-440 -192q-274 0 -441.5 194.5t-167.5 517.5zM233 696q0 -272 130.5 -431t347.5 -159q225 0 348 157t123 433q0 279 -124 434.5t-351 155.5q-221 0 -347.5 -157t-126.5 -433z
M670 1493l209 307h165l-262 -307h-112z" />
    <glyph glyph-name="Ocircumflex" unicode="&#xd4;" horiz-adv-x="1415" 
d="M102 696q0 326 163 519.5t442 193.5q287 0 446.5 -191.5t159.5 -521.5q0 -328 -162 -520t-440 -192q-274 0 -441.5 194.5t-167.5 517.5zM233 696q0 -272 130.5 -431t347.5 -159q225 0 348 157t123 433q0 279 -124 434.5t-351 155.5q-221 0 -347.5 -157t-126.5 -433z
M416 1493l243 307h129l244 -307h-131l-178 219l-176 -219h-131z" />
    <glyph glyph-name="Otilde" unicode="&#xd5;" horiz-adv-x="1415" 
d="M102 696q0 326 163 519.5t442 193.5q287 0 446.5 -191.5t159.5 -521.5q0 -328 -162 -520t-440 -192q-274 0 -441.5 194.5t-167.5 517.5zM233 696q0 -272 130.5 -431t347.5 -159q225 0 348 157t123 433q0 279 -124 434.5t-351 155.5q-221 0 -347.5 -157t-126.5 -433z
M383 1618q27 59 81 99t118 40q57 0 146 -47t126 -47q61 0 102 88l86 -57q-61 -131 -182 -131q-51 0 -142 47t-124 47q-86 0 -137 -101z" />
    <glyph glyph-name="Odieresis" unicode="&#xd6;" horiz-adv-x="1415" 
d="M102 696q0 326 163 519.5t442 193.5q287 0 446.5 -191.5t159.5 -521.5q0 -328 -162 -520t-440 -192q-274 0 -441.5 194.5t-167.5 517.5zM233 696q0 -272 130.5 -431t347.5 -159q225 0 348 157t123 433q0 279 -124 434.5t-351 155.5q-221 0 -347.5 -157t-126.5 -433z
M436 1649q0 39 24.5 63.5t63.5 24.5q37 0 62.5 -24.5t25.5 -63.5q0 -37 -25.5 -62.5t-62.5 -25.5q-39 0 -63.5 25.5t-24.5 62.5zM813 1649q0 39 25.5 63.5t62.5 24.5q39 0 63.5 -24.5t24.5 -63.5q0 -37 -24.5 -62.5t-63.5 -25.5q-37 0 -62.5 25.5t-25.5 62.5z" />
    <glyph glyph-name="multiply" unicode="&#xd7;" horiz-adv-x="985" 
d="M129 975l82 82l281 -277l280 279l82 -82l-281 -279l271 -268l-82 -82l-270 268l-271 -268l-82 82l271 268z" />
    <glyph glyph-name="Oslash" unicode="&#xd8;" horiz-adv-x="1359" 
d="M84 -18l158 211q-156 190 -156 503q0 326 163 519.5t441 193.5q219 0 371 -119l90 119h147l-151 -203q149 -195 149 -510q0 -328 -161.5 -520t-440.5 -192q-213 0 -370 125l-95 -127h-145zM217 696q0 -242 105 -397l663 889q-117 98 -295 98q-221 0 -347 -157t-126 -433z
M401 211q121 -105 293 -105q225 0 348 157t123 433q0 248 -100 402z" />
    <glyph glyph-name="Ugrave" unicode="&#xd9;" horiz-adv-x="1308" 
d="M164 506v874h127v-872q0 -207 97 -304.5t263 -97.5q367 0 367 412v862h127v-858q0 -266 -129 -402t-365 -136q-231 0 -359 133t-128 389zM340 1800h166l209 -307h-113z" />
    <glyph glyph-name="Uacute" unicode="&#xda;" horiz-adv-x="1308" 
d="M164 506v874h127v-872q0 -207 97 -304.5t263 -97.5q367 0 367 412v862h127v-858q0 -266 -129 -402t-365 -136q-231 0 -359 133t-128 389zM623 1493l208 307h166l-262 -307h-112z" />
    <glyph glyph-name="Ucircumflex" unicode="&#xdb;" horiz-adv-x="1308" 
d="M164 506v874h127v-872q0 -207 97 -304.5t263 -97.5q367 0 367 412v862h127v-858q0 -266 -129 -402t-365 -136q-231 0 -359 133t-128 389zM352 1493l244 307h129l244 -307h-131l-179 219l-176 -219h-131z" />
    <glyph glyph-name="Udieresis" unicode="&#xdc;" horiz-adv-x="1308" 
d="M164 506v874h127v-872q0 -207 97 -304.5t263 -97.5q367 0 367 412v862h127v-858q0 -266 -129 -402t-365 -136q-231 0 -359 133t-128 389zM379 1649q0 39 24.5 63.5t63.5 24.5q37 0 62.5 -24.5t25.5 -63.5q0 -37 -25.5 -62.5t-62.5 -25.5q-39 0 -63.5 25.5t-24.5 62.5z
M756 1649q0 39 25.5 63.5t62.5 24.5q39 0 63.5 -24.5t24.5 -63.5q0 -37 -24.5 -62.5t-63.5 -25.5q-37 0 -62.5 25.5t-25.5 62.5z" />
    <glyph glyph-name="Yacute" unicode="&#xdd;" horiz-adv-x="1187" 
d="M61 1380h146l108 -202l277 -533q16 39 280 533l109 202h145l-471 -864v-516h-127v516zM573 1491l209 307h166l-262 -307h-113z" />
    <glyph glyph-name="Thorn" unicode="&#xde;" 
d="M164 0v1380h127v-262h184q254 0 386 -120.5t132 -321.5q0 -176 -127.5 -295t-367.5 -119h-207v-262h-127zM291 375h221q174 0 263 84t89 217q0 156 -93.5 243t-281.5 87h-198v-631z" />
    <glyph glyph-name="germandbls" unicode="&#xdf;" horiz-adv-x="1077" 
d="M164 0v1034q0 190 103.5 284.5t275.5 94.5q152 0 245 -88t93 -217q0 -94 -43 -165t-85 -121t-42 -93q0 -49 47 -100t103.5 -90t103.5 -111t47 -160q0 -123 -88 -202.5t-248 -79.5q-94 0 -160 20v131q76 -35 166 -35q92 0 147.5 43t55.5 113q0 55 -32 102.5t-77 84
t-91 74.5t-78 89t-32 113q0 57 28 109.5t61.5 85t61.5 84t28 108.5q0 84 -61.5 134t-160.5 50q-242 0 -241 -258v-1034h-127z" />
    <glyph glyph-name="agrave" unicode="&#xe0;" horiz-adv-x="995" 
d="M102 293q0 150 116 232.5t306 82.5h203v47q0 139 -59.5 210t-198.5 71q-162 0 -291 -88v135q119 72 293 72q381 0 381 -400v-655h-125v121q-86 -131 -299 -131q-143 0 -234.5 85t-91.5 218zM203 1458h166l209 -307h-113zM236 297q0 -86 56 -139.5t165 -53.5
q123 0 196.5 68t73.5 172v150h-203q-145 0 -216.5 -56.5t-71.5 -140.5z" />
    <glyph glyph-name="aacute" unicode="&#xe1;" horiz-adv-x="995" 
d="M102 293q0 150 116 232.5t306 82.5h203v47q0 139 -59.5 210t-198.5 71q-162 0 -291 -88v135q119 72 293 72q381 0 381 -400v-655h-125v121q-86 -131 -299 -131q-143 0 -234.5 85t-91.5 218zM236 297q0 -86 56 -139.5t165 -53.5q123 0 196.5 68t73.5 172v150h-203
q-145 0 -216.5 -56.5t-71.5 -140.5zM473 1151l209 307h166l-262 -307h-113z" />
    <glyph glyph-name="acircumflex" unicode="&#xe2;" horiz-adv-x="995" 
d="M102 293q0 150 116 232.5t306 82.5h203v47q0 139 -59.5 210t-198.5 71q-162 0 -291 -88v135q119 72 293 72q381 0 381 -400v-655h-125v121q-86 -131 -299 -131q-143 0 -234.5 85t-91.5 218zM211 1149l244 307h129l243 -307h-131l-178 219l-176 -219h-131zM236 297
q0 -86 56 -139.5t165 -53.5q123 0 196.5 68t73.5 172v150h-203q-145 0 -216.5 -56.5t-71.5 -140.5z" />
    <glyph glyph-name="atilde" unicode="&#xe3;" horiz-adv-x="995" 
d="M102 293q0 150 116 232.5t306 82.5h203v47q0 139 -59.5 210t-198.5 71q-162 0 -291 -88v135q119 72 293 72q381 0 381 -400v-655h-125v121q-86 -131 -299 -131q-143 0 -234.5 85t-91.5 218zM180 1274q27 59 81 99t118 40q57 0 146 -47t126 -47q61 0 103 88l86 -57
q-61 -131 -183 -131q-51 0 -142 47t-124 47q-86 0 -137 -101zM236 297q0 -86 56 -139.5t165 -53.5q123 0 196.5 68t73.5 172v150h-203q-145 0 -216.5 -56.5t-71.5 -140.5z" />
    <glyph glyph-name="adieresis" unicode="&#xe4;" horiz-adv-x="995" 
d="M102 293q0 150 116 232.5t306 82.5h203v47q0 139 -59.5 210t-198.5 71q-162 0 -291 -88v135q119 72 293 72q381 0 381 -400v-655h-125v121q-86 -131 -299 -131q-143 0 -234.5 85t-91.5 218zM233 1298q0 39 25 63.5t64 24.5q37 0 62.5 -24.5t25.5 -63.5q0 -37 -26 -62.5
t-62 -25.5q-39 0 -64 26t-25 62zM236 297q0 -86 56 -139.5t165 -53.5q123 0 196.5 68t73.5 172v150h-203q-145 0 -216.5 -56.5t-71.5 -140.5zM610 1298q0 39 26 63.5t62 24.5q39 0 63.5 -24.5t24.5 -63.5q0 -37 -24.5 -62.5t-63.5 -25.5q-37 0 -62.5 26t-25.5 62z" />
    <glyph glyph-name="aring" unicode="&#xe5;" horiz-adv-x="995" 
d="M102 293q0 150 116 232.5t306 82.5h203v47q0 139 -59.5 210t-198.5 71q-162 0 -291 -88v135q119 72 293 72q381 0 381 -400v-655h-125v121q-86 -131 -299 -131q-143 0 -234.5 85t-91.5 218zM236 297q0 -86 56 -139.5t165 -53.5q123 0 196.5 68t73.5 172v150h-203
q-145 0 -216.5 -56.5t-71.5 -140.5zM317 1331q0 84 58.5 143.5t142.5 59.5t143.5 -59.5t59.5 -143.5t-59.5 -142.5t-143.5 -58.5t-142.5 59.5t-58.5 141.5zM410 1331q0 -45 31.5 -76.5t76.5 -31.5t78 31.5t33 76.5t-32 78t-79 33q-45 0 -76.5 -33t-31.5 -78z" />
    <glyph glyph-name="ae" unicode="&#xe6;" horiz-adv-x="1683" 
d="M113 291q0 152 116.5 235.5t311.5 83.5h196v45q0 139 -59.5 210t-198.5 71q-166 0 -291 -86v129q121 76 293 76q270 0 346 -195q125 190 367 191q199 0 303.5 -127t104.5 -361q0 -59 -9 -100h-729q14 -172 121 -263t266 -91q170 0 275 69v-127q-123 -61 -281 -61
q-139 0 -254 60.5t-178 158.5q-41 -100 -139.5 -159.5t-235.5 -59.5q-143 0 -234 81t-91 220zM244 295q0 -84 57 -134t166 -50q113 0 191.5 69.5t78.5 184.5v124h-168q-325 1 -325 -194zM864 578h609v47q0 150 -79 229.5t-204 79.5q-129 0 -219 -90t-107 -266z" />
    <glyph glyph-name="ccedilla" unicode="&#xe7;" horiz-adv-x="966" 
d="M92 516q0 217 144.5 379t390.5 162q127 0 227 -56v-127q-92 61 -215 62q-190 0 -303 -124t-113 -298q0 -176 108.5 -297t309.5 -121q125 0 213 66v-127q-88 -59 -227 -60q-252 0 -393.5 159t-141.5 382zM385 -408q178 18 178 150q0 76 -47 154h125q37 -54 37 -144
q0 -106 -76 -180t-217 -80v100z" />
    <glyph glyph-name="egrave" unicode="&#xe8;" horiz-adv-x="1062" 
d="M92 514q0 250 127 393.5t330 143.5q190 0 303 -125t113 -353q0 -70 -9 -110h-733q14 -172 118.5 -263t276.5 -91q176 0 281 69v-127q-123 -61 -287 -61q-231 0 -375.5 144.5t-144.5 379.5zM223 578h613v47q0 141 -79 225t-212 84q-131 0 -219 -92t-103 -264zM268 1458
h166l209 -307h-113z" />
    <glyph glyph-name="eacute" unicode="&#xe9;" horiz-adv-x="1062" 
d="M92 514q0 250 127 393.5t330 143.5q190 0 303 -125t113 -353q0 -70 -9 -110h-733q14 -172 118.5 -263t276.5 -91q176 0 281 69v-127q-123 -61 -287 -61q-231 0 -375.5 144.5t-144.5 379.5zM223 578h613v47q0 141 -79 225t-212 84q-131 0 -219 -92t-103 -264zM528 1151
l209 307h166l-262 -307h-113z" />
    <glyph glyph-name="ecircumflex" unicode="&#xea;" horiz-adv-x="1062" 
d="M92 514q0 250 127 393.5t330 143.5q190 0 303 -125t113 -353q0 -70 -9 -110h-733q14 -172 118.5 -263t276.5 -91q176 0 281 69v-127q-123 -61 -287 -61q-231 0 -375.5 144.5t-144.5 379.5zM223 578h613v47q0 141 -79 225t-212 84q-131 0 -219 -92t-103 -264zM274 1151
l244 307h129l244 -307h-131l-178 219l-176 -219h-132z" />
    <glyph glyph-name="edieresis" unicode="&#xeb;" horiz-adv-x="1062" 
d="M92 514q0 250 127 393.5t330 143.5q190 0 303 -125t113 -353q0 -70 -9 -110h-733q14 -172 118.5 -263t276.5 -91q176 0 281 69v-127q-123 -61 -287 -61q-231 0 -375.5 144.5t-144.5 379.5zM223 578h613v47q0 141 -79 225t-212 84q-131 0 -219 -92t-103 -264zM299 1305
q0 39 24.5 63.5t63.5 24.5q37 0 62.5 -24.5t25.5 -63.5q0 -37 -25.5 -62.5t-62.5 -25.5q-39 0 -63.5 25.5t-24.5 62.5zM676 1305q0 39 25.5 63.5t62.5 24.5q39 0 63.5 -24.5t24.5 -63.5q0 -37 -24.5 -62.5t-63.5 -25.5q-37 0 -62.5 25.5t-25.5 62.5z" />
    <glyph glyph-name="igrave" unicode="&#xec;" horiz-adv-x="452" 
d="M-100 1456h166l208 -307h-112zM164 0v1038h125v-1038h-125z" />
    <glyph glyph-name="iacute" unicode="&#xed;" horiz-adv-x="452" 
d="M164 0v1038h125v-1038h-125zM182 1151l209 307h166l-262 -307h-113z" />
    <glyph glyph-name="icircumflex" unicode="&#xee;" horiz-adv-x="452" 
d="M-80 1151l244 307h129l244 -307h-131l-179 219l-176 -219h-131zM164 0v1038h125v-1038h-125z" />
    <glyph glyph-name="idieresis" unicode="&#xef;" horiz-adv-x="452" 
d="M-49 1309q0 39 24.5 63.5t63.5 24.5q37 0 62.5 -24.5t25.5 -63.5q0 -37 -25.5 -62.5t-62.5 -25.5q-39 0 -63.5 25.5t-24.5 62.5zM164 0v1038h125v-1038h-125zM328 1309q0 39 25.5 63.5t62.5 24.5q39 0 63.5 -24.5t24.5 -63.5q0 -37 -24.5 -62.5t-63.5 -25.5
q-37 0 -62.5 25.5t-25.5 62.5z" />
    <glyph glyph-name="eth" unicode="&#xf0;" horiz-adv-x="1036" 
d="M80 414q0 199 124 312.5t294 113.5q197 0 317 -150q-39 227 -199 420l-284 -147v114l213 111q-133 127 -275 192h222q90 -55 163 -135l254 131v-114l-184 -95q219 -278 219 -626q0 -279 -118.5 -419t-319.5 -140q-188 0 -307 127t-119 305zM211 414q0 -145 83 -229.5
t212 -84.5q137 0 229 109.5t92 327.5q-127 180 -335 180q-119 0 -200 -80t-81 -223z" />
    <glyph glyph-name="ntilde" unicode="&#xf1;" 
d="M156 0v1038h125v-178q96 195 329 195q150 0 240 -92.5t90 -237.5v-725h-125v686q0 121 -61.5 184.5t-161.5 63.5q-127 0 -219 -97.5t-92 -263.5v-573h-125zM238 1272q27 59 81 99t117 40q57 0 146.5 -47t126.5 -47q61 0 102 88l86 -57q-61 -131 -182 -131q-51 0 -142 47
t-124 47q-86 0 -138 -101z" />
    <glyph glyph-name="ograve" unicode="&#xf2;" horiz-adv-x="1148" 
d="M92 514q0 227 133 383t344 156q231 0 359.5 -153t128.5 -386q0 -231 -130 -381.5t-358 -150.5q-219 0 -348 151.5t-129 380.5zM223 514q0 -170 95.5 -292t250.5 -122q170 0 263.5 120t93.5 294q0 180 -88 300t-269 120q-162 0 -254 -123t-92 -297zM258 1458h166l209 -307
h-113z" />
    <glyph glyph-name="oacute" unicode="&#xf3;" horiz-adv-x="1148" 
d="M92 514q0 227 133 383t344 156q231 0 359.5 -153t128.5 -386q0 -231 -130 -381.5t-358 -150.5q-219 0 -348 151.5t-129 380.5zM223 514q0 -170 95.5 -292t250.5 -122q170 0 263.5 120t93.5 294q0 180 -88 300t-269 120q-162 0 -254 -123t-92 -297zM541 1151l209 307h165
l-262 -307h-112z" />
    <glyph glyph-name="ocircumflex" unicode="&#xf4;" horiz-adv-x="1148" 
d="M92 514q0 227 133 383t344 156q231 0 359.5 -153t128.5 -386q0 -231 -130 -381.5t-358 -150.5q-219 0 -348 151.5t-129 380.5zM223 514q0 -170 95.5 -292t250.5 -122q170 0 263.5 120t93.5 294q0 180 -88 300t-269 120q-162 0 -254 -123t-92 -297zM272 1149l244 307h129
l244 -307h-131l-178 219l-177 -219h-131z" />
    <glyph glyph-name="otilde" unicode="&#xf5;" horiz-adv-x="1148" 
d="M92 514q0 227 133 383t344 156q231 0 359.5 -153t128.5 -386q0 -231 -130 -381.5t-358 -150.5q-219 0 -348 151.5t-129 380.5zM223 514q0 -170 95.5 -292t250.5 -122q170 0 263.5 120t93.5 294q0 180 -88 300t-269 120q-162 0 -254 -123t-92 -297zM250 1272q27 59 81 99
t118 40q57 0 146 -47t126 -47q61 0 102 88l86 -57q-61 -131 -182 -131q-51 0 -142 47t-124 47q-86 0 -137 -101z" />
    <glyph glyph-name="odieresis" unicode="&#xf6;" horiz-adv-x="1148" 
d="M92 514q0 227 133 383t344 156q231 0 359.5 -153t128.5 -386q0 -231 -130 -381.5t-358 -150.5q-219 0 -348 151.5t-129 380.5zM223 514q0 -170 95.5 -292t250.5 -122q170 0 263.5 120t93.5 294q0 180 -88 300t-269 120q-162 0 -254 -123t-92 -297zM313 1300q0 39 24.5 64
t63.5 25q37 0 62.5 -25t25.5 -64q0 -37 -25.5 -62.5t-62.5 -25.5q-39 0 -63.5 26t-24.5 62zM690 1300q0 39 25.5 64t62.5 25q39 0 63.5 -25t24.5 -64q0 -37 -24.5 -62.5t-63.5 -25.5q-37 0 -62.5 26t-25.5 62z" />
    <glyph glyph-name="divide" unicode="&#xf7;" horiz-adv-x="1114" 
d="M123 639v115h868v-115h-868zM463 330q0 39 27.5 66.5t66.5 27.5t66.5 -27.5t27.5 -66.5t-27.5 -66.5t-66.5 -27.5t-66.5 27.5t-27.5 66.5zM463 1063q0 39 27.5 66.5t66.5 27.5t66.5 -27.5t27.5 -66.5t-27.5 -66.5t-66.5 -27.5t-66.5 27.5t-27.5 66.5z" />
    <glyph glyph-name="oslash" unicode="&#xf8;" horiz-adv-x="1153" 
d="M127 -18l123 159q-123 147 -123 373q0 227 133 383t344 156q164 0 279 -80l61 80h148l-123 -160q123 -146 123 -379q0 -231 -130.5 -381.5t-357.5 -150.5q-158 0 -270 81l-62 -81h-145zM252 514q0 -154 76 -268l485 635q-86 59 -209 59q-164 0 -258 -124t-94 -302z
M408 160q87 -66 196 -66q172 0 267.5 121t95.5 299q0 170 -72 281z" />
    <glyph glyph-name="ugrave" unicode="&#xf9;" 
d="M143 317v721h125v-686q0 -119 62.5 -182.5t165.5 -63.5q137 0 222 98.5t85 256.5v577h125v-1038h-125v186q-82 -201 -330 -200q-152 0 -241 91t-89 240zM223 1456h166l209 -307h-113z" />
    <glyph glyph-name="uacute" unicode="&#xfa;" 
d="M143 317v721h125v-686q0 -119 62.5 -182.5t165.5 -63.5q137 0 222 98.5t85 256.5v577h125v-1038h-125v186q-82 -201 -330 -200q-152 0 -241 91t-89 240zM494 1151l208 307h166l-262 -307h-112z" />
    <glyph glyph-name="ucircumflex" unicode="&#xfb;" 
d="M143 317v721h125v-686q0 -119 62.5 -182.5t165.5 -63.5q137 0 222 98.5t85 256.5v577h125v-1038h-125v186q-82 -201 -330 -200q-152 0 -241 91t-89 240zM231 1151l244 307h129l244 -307h-131l-178 219l-177 -219h-131z" />
    <glyph glyph-name="udieresis" unicode="&#xfc;" 
d="M143 317v721h125v-686q0 -119 62.5 -182.5t165.5 -63.5q137 0 222 98.5t85 256.5v577h125v-1038h-125v186q-82 -201 -330 -200q-152 0 -241 91t-89 240zM268 1300q0 39 24.5 64t63.5 25q37 0 62.5 -25t25.5 -64q0 -37 -25.5 -62.5t-62.5 -25.5q-39 0 -63.5 26t-24.5 62z
M645 1300q0 39 25.5 64t62.5 25q39 0 63.5 -25t24.5 -64q0 -37 -24.5 -62.5t-63.5 -25.5q-37 0 -62.5 26t-25.5 62z" />
    <glyph glyph-name="yacute" unicode="&#xfd;" horiz-adv-x="987" 
d="M18 1038h144l141 -348l201 -500q14 47 178 500l127 348h139l-377 -1011q-78 -211 -184 -291t-242 -80q-41 0 -77 10v123q37 -10 69 -10q219 0 305 250zM455 1151l209 307h165l-262 -307h-112z" />
    <glyph glyph-name="thorn" unicode="&#xfe;" horiz-adv-x="1136" 
d="M156 -410v1858h125v-561q109 168 321 168q209 0 325.5 -152.5t116.5 -372.5q0 -242 -124.5 -394t-321.5 -152q-203 0 -317 172v-566h-125zM281 514q0 -115 31.5 -200t81.5 -129t100.5 -63.5t99.5 -19.5q139 0 229 112t90 318q0 178 -87 291t-220 113t-229 -97.5
t-96 -324.5z" />
    <glyph glyph-name="ydieresis" unicode="&#xff;" horiz-adv-x="987" 
d="M18 1038h144l141 -348l201 -500q14 47 178 500l127 348h139l-377 -1011q-78 -211 -184 -291t-242 -80q-41 0 -77 10v123q37 -10 69 -10q219 0 305 250zM236 1300q0 39 24.5 64t63.5 25q37 0 62.5 -25t25.5 -64q0 -37 -26 -62.5t-62 -25.5q-39 0 -63.5 26t-24.5 62z
M612 1300q0 39 26 64t62 25q39 0 63.5 -25t24.5 -64q0 -37 -24.5 -62.5t-63.5 -25.5q-37 0 -62.5 26t-25.5 62z" />
    <glyph glyph-name="OE" unicode="&#x152;" horiz-adv-x="2004" 
d="M102 696q0 328 159 520.5t435 192.5q311 0 469 -229v200h736v-116h-609v-516h537v-117h-537v-514h621v-117h-748v217q-158 -233 -465 -233q-272 0 -435 193.5t-163 518.5zM233 696q0 -274 126 -432t341 -158q225 0 345 156t120 434.5t-120.5 434t-348.5 155.5
q-221 0 -342 -157t-121 -433z" />
    <glyph glyph-name="oe" unicode="&#x153;" horiz-adv-x="1835" 
d="M92 514q0 229 124 384t333 155q279 0 393 -234q123 231 395 232q199 0 303.5 -127t104.5 -361q0 -59 -8 -100h-729q14 -172 120.5 -263t266.5 -91q170 0 274 69v-127q-123 -61 -280 -61q-143 0 -259 61.5t-184 173.5q-115 -244 -397 -243q-217 0 -337 150.5t-120 381.5z
M223 514q0 -174 86 -294t240 -120q168 0 246.5 117t78.5 297q0 420 -325 420q-160 0 -243 -121t-83 -299zM1008 578h608v47q0 150 -79 229.5t-204 79.5q-129 0 -219 -90t-106 -266z" />
    <glyph glyph-name="Ydieresis" unicode="&#x178;" horiz-adv-x="1187" 
d="M61 1380h146l108 -202l277 -533q16 39 280 533l109 202h145l-471 -864v-516h-127v516zM315 1647q0 39 25 63.5t63 24.5q37 0 63 -24.5t26 -63.5q0 -37 -26 -62.5t-63 -25.5q-39 0 -63.5 25.5t-24.5 62.5zM692 1647q0 39 25.5 63.5t62.5 24.5q39 0 63.5 -24.5t24.5 -63.5
q0 -37 -24.5 -62.5t-63.5 -25.5q-37 0 -62.5 25.5t-25.5 62.5z" />
    <glyph glyph-name="circumflex" unicode="&#x2c6;" horiz-adv-x="819" 
d="M100 1327l244 307h129l244 -307h-131l-178 219l-177 -219h-131z" />
    <glyph glyph-name="tilde" unicode="&#x2dc;" horiz-adv-x="819" 
d="M102 1423q27 59 81.5 99.5t117.5 40.5q57 0 146.5 -47.5t125.5 -47.5q61 0 103 88l86 -57q-61 -131 -182 -131q-51 0 -142.5 47t-124.5 47q-86 0 -137 -100z" />
    <glyph glyph-name="uni2000" unicode="&#x2000;" horiz-adv-x="938" 
 />
    <glyph glyph-name="uni2001" unicode="&#x2001;" horiz-adv-x="1876" 
 />
    <glyph glyph-name="uni2002" unicode="&#x2002;" horiz-adv-x="938" 
 />
    <glyph glyph-name="uni2003" unicode="&#x2003;" horiz-adv-x="1876" 
 />
    <glyph glyph-name="uni2004" unicode="&#x2004;" horiz-adv-x="625" 
 />
    <glyph glyph-name="uni2005" unicode="&#x2005;" horiz-adv-x="469" 
 />
    <glyph glyph-name="uni2006" unicode="&#x2006;" horiz-adv-x="312" 
 />
    <glyph glyph-name="uni2007" unicode="&#x2007;" horiz-adv-x="312" 
 />
    <glyph glyph-name="uni2008" unicode="&#x2008;" horiz-adv-x="234" 
 />
    <glyph glyph-name="uni2009" unicode="&#x2009;" horiz-adv-x="375" 
 />
    <glyph glyph-name="uni200A" unicode="&#x200a;" horiz-adv-x="104" 
 />
    <glyph glyph-name="uni2010" unicode="&#x2010;" horiz-adv-x="706" 
d="M123 498v112h461v-112h-461z" />
    <glyph glyph-name="uni2011" unicode="&#x2011;" horiz-adv-x="706" 
d="M123 498v112h461v-112h-461z" />
    <glyph glyph-name="figuredash" unicode="&#x2012;" horiz-adv-x="706" 
d="M123 498v112h461v-112h-461z" />
    <glyph glyph-name="endash" unicode="&#x2013;" horiz-adv-x="1097" 
d="M123 498v112h852v-112h-852z" />
    <glyph glyph-name="emdash" unicode="&#x2014;" horiz-adv-x="1677" 
d="M123 502v112h1431v-112h-1431z" />
    <glyph glyph-name="quoteleft" unicode="&#x2018;" horiz-adv-x="321" 
d="M14 985l236 438h92l-162 -438h-166z" />
    <glyph glyph-name="quoteright" unicode="&#x2019;" horiz-adv-x="323" 
d="M16 985l162 438h166l-235 -438h-93z" />
    <glyph glyph-name="quotesinglbase" unicode="&#x201a;" horiz-adv-x="323" 
d="M8 -250l162 438h166l-236 -438h-92z" />
    <glyph glyph-name="quotedblleft" unicode="&#x201c;" horiz-adv-x="593" 
d="M16 985l236 438h92l-162 -438h-166zM287 985l235 438h92l-161 -438h-166z" />
    <glyph glyph-name="quotedblright" unicode="&#x201d;" horiz-adv-x="591" 
d="M16 985l162 438h166l-235 -438h-93zM287 985l162 438h165l-235 -438h-92z" />
    <glyph glyph-name="quotedblbase" unicode="&#x201e;" horiz-adv-x="591" 
d="M8 -250l162 438h166l-236 -438h-92zM279 -250l161 438h166l-235 -438h-92z" />
    <glyph glyph-name="bullet" unicode="&#x2022;" horiz-adv-x="931" 
d="M195 729q0 117 76.5 194.5t193.5 77.5q115 0 193.5 -78.5t78.5 -193.5t-77.5 -193.5t-192.5 -78.5q-117 0 -194.5 77.5t-77.5 194.5z" />
    <glyph glyph-name="ellipsis" unicode="&#x2026;" horiz-adv-x="1355" 
d="M61 88q0 45 30 75t75 30t74.5 -30t29.5 -75t-29.5 -74.5t-74.5 -29.5t-75 29.5t-30 74.5zM573 88q0 45 30 75t75 30t74.5 -30t29.5 -75t-29.5 -74.5t-74.5 -29.5t-75 29.5t-30 74.5zM1085 88q0 45 30 75t75 30t74.5 -30t29.5 -75t-29.5 -74.5t-74.5 -29.5t-75 29.5
t-30 74.5z" />
    <glyph glyph-name="uni202F" unicode="&#x202f;" horiz-adv-x="375" 
 />
    <glyph glyph-name="guilsinglleft" unicode="&#x2039;" horiz-adv-x="573" 
d="M61 518l308 332h143l-301 -332l301 -332h-143z" />
    <glyph glyph-name="guilsinglright" unicode="&#x203a;" horiz-adv-x="567" 
d="M61 186l301 332l-301 332h144l307 -332l-307 -332h-144z" />
    <glyph glyph-name="uni205F" unicode="&#x205f;" horiz-adv-x="469" 
 />
    <glyph glyph-name="Euro" unicode="&#x20ac;" horiz-adv-x="1191" 
d="M113 463v100h198q-6 49 -6 103q0 72 8 122h-200v101h217q53 217 201.5 339t353.5 122q147 0 225 -39v-121q-76 39 -213 39q-160 0 -273.5 -87t-158.5 -253h416v-101h-437q-8 -51 -8 -122q0 -53 6 -103h439v-100h-420q45 -170 160.5 -264.5t265.5 -94.5q145 0 223 43v-120
q-84 -43 -240 -43q-197 0 -346 129t-198 350h-213z" />
    <glyph glyph-name="trademark" unicode="&#x2122;" horiz-adv-x="1388" 
d="M0 1286v94h459v-94h-174v-610h-105v610h-180zM522 678l56 702h147l129 -368l64 -201q33 100 69 201l137 368h152l47 -702h-106l-23 342l-10 231q-18 -53 -84 -231l-123 -326h-117l-115 326l-79 231q-6 -55 -17 -231l-18 -342h-109z" />
    <glyph glyph-name="uni25FC" unicode="&#x25fc;" horiz-adv-x="1044" 
d="M0 0v1044h1044v-1044h-1044z" />
    <glyph glyph-name="uniFB01" unicode="&#xfb01;" horiz-adv-x="1019" 
d="M61 932v106h191v111q0 141 74.5 225t216.5 84q135 0 256 -65v-123q-133 70 -262 69q-160 0 -160 -192v-109h487v-1038h-125v932h-362v-932h-125v932h-191z" />
    <glyph glyph-name="uniFB02" unicode="&#xfb02;" horiz-adv-x="999" 
d="M61 932v106h191v111q0 143 74.5 226t214.5 83q160 0 303 -92v-1366h-125v1300q-96 39 -172 39q-170 0 -170 -192v-109h237v-106h-237v-932h-125v932h-191z" />
  </font>
</defs>
</svg>
