<?xml version="1.0" standalone="no"?>
<!DOCTYPE svg PUBLIC "-//W3C//DTD SVG 1.1//EN" "http://www.w3.org/Graphics/SVG/1.1/DTD/svg11.dtd" >
<svg xmlns="http://www.w3.org/2000/svg">
<metadata>Generated by IcoMoon</metadata>
<defs>
<font id="icomoon" horiz-adv-x="1024">
<font-face units-per-em="1024" ascent="960" descent="-64" />
<missing-glyph horiz-adv-x="1024" />
<glyph unicode="&#x20;" d="" />
<glyph unicode="&#x21;" glyph-name="bakhsha-ghoran" d="M1024 448c0 52-8 102-22 150-22 78-66 148-128 212-100 100-220 150-362 150-140 0-258-48-358-144-2-2-4-4-4-6-84-84-132-182-146-294-2-24-4-46-4-68 0-82 16-158 50-228 2 0 2 0 2-2 24-46 56-92 98-132 100-100 220-150 362-150 140 0 262 50 360 150 10 8 18 16 24 24 84 96 128 208 128 338zM926 616c22-54 34-114 34-176 0-124-44-228-130-316-6-4-10-10-14-12-84-80-186-118-302-118-124 0-230 44-316 130-24 24-44 48-62 74-6 10-12 20-18 30-8 16-16 32-22 48-20 50-30 104-30 164 0 30 2 60 8 88 6 30 14 58 26 84 20 54 54 102 98 144 22 24 46 44 72 60 72 48 152 72 244 72 122 0 228-44 316-132 42-42 74-90 96-140zM818 674c-16 18-26 44-32 72l-18-24c4-28 10-54 14-80 4-34 10-68 14-102 10-70 18-134 22-196 4-42 4-82 6-120 0-20-10-30-34-30h-32c-16 4-22 12-20 22 16 12 24 26 28 44 2 10 2 24 0 38 0 8-2 14-6 22-6 26-18 36-30 34-16-2-24-6-30-14s-8-20-6-38c0-6 0-14 0-22 2-12 2-28 0-44-42-16-82-38-122-70-16-14-30-26-42-38-20-18-34-34-46-50-20-28-40-34-62-22-14 12-18 28-14 52 24 10 44 18 62 28 30 16 54 32 68 50 18 18 24 42 20 72l-26 64h26l-52 54v-50l22-42c4-6 8-20 12-36 6-18-2-34-18-50-18-16-42-30-72-44-6-2-16-8-28-12-4 0-8-2-12-4 0 2 0 4 0 6 2 16 8 34 18 52l20 24c-2 12-10 22-22 30l-26-24c8-6 14-12 18-18 0-2 0-2 2-4 0-2 0-4 0-6-10-18-16-36-18-54 0-2 0-4 0-8-6-2-8-2-14-2-26-6-54-6-84 2-18 8-30 18-40 34-8 14-12 32-12 52l4 20c4 2 6 6 10 8 6 4 12 8 18 14 28 18 58 32 94 42 48 14 76 30 82 48 8 18 10 34 6 52s-18 42-44 70c68-62 116-104 144-126 16-14 28-20 30-18v-126l20 22v104c28 8 46 22 56 38 8 16 10 38 10 66-2 6-2 10-2 16l-44 308 20-16v24c-8 10-14 18-18 28s-10 22-12 34l-14-32c8-52 16-98 22-140 18-126 28-206 30-240 0-14-2-20-4-20-16-22-36-30-54-26-2 2-2 2-4 2l-14 144c-6 30-8 62-8 94l18-12v18c-12 14-20 28-26 44-4 8-6 16-8 24l-10-16 26-288c-10-4-66 42-168 140 36 10 72 2 110-26v40c-44 30-66 70-66 126-2 2-2 4 0 6h20c-20 16-30 34-34 56l-12-10-2-64c12-22 24-54 38-96-44 10-76 6-92-6l-172 118c94 58 180 96 260 116 78 20 114 20 106 0-20-32-44-62-72-92v-22c32 36 62 74 86 114 2 8 4 14 4 22 0 12-2 20-6 24-6 6-46 0-118-16 0 0 0 0 0 0-72-16-166-58-278-126v-48l4 4-2-12v-2l6 2-2-4 140-110c-120-130-188-168-206-108-8 42 6 76 38 106 12 8 20 18 24 26s4 14 4 20c-6-12-10-18-16-20-2-2-4-2-8-2 0 0 0 0-2 0-10 2-12 14-4 38 6 18 14 34 26 48l-2 4v10c-22-20-36-46-40-72-2-10-4-20-4-30-2-14-2-26 0-38-18-22-28-48-30-80 2-42 20-64 56-68-18-26-26-54-26-82 0 0 0 0 0-2 0-14 2-24 6-36 2-8 6-14 12-20 12-12 26-18 44-14s32 16 42 36c-4-20-4-38 2-60 2-6 8-20 16-38 10-16 30-28 62-34s58-4 74 4c-4-24 0-44 14-60 32-24 58-24 80 0 24 32 48 60 70 80 8 8 14 14 22 18 44 28 88 48 130 60 4-28 20-40 52-40 20-4 34-2 44 4 22 14 34 38 34 70 0 56-4 116-12 182-4 28-8 60-12 92-4 20-6 44-10 64l-14 96 20-12 2 16zM162 326c8 16 22 28 40 34s70 50 154 136c36-24 66-58 92-104 10-16-12-32-72-54-60-20-100-38-120-56l-48-46c-20-16-36-16-44-2-2 4-4 10-6 18-2 6-2 10-2 16-4 24-2 42 6 58zM750 292c4-6 4-14 0-22-16-18-28-26-36-22-4 14-6 26-6 34-2 14-2 22 0 26 4 8 10 12 18 14 14-10 22-20 24-30zM236 362c-4 0-8-2-10-4 0-2 0-4 0-6 0-4 0-6 0-6 0-2 4-4 8-6 0-2 2-4 8-6s8-4 10-6c0 0 2-4 6-14 4-6 6-10 8-10s4 4 4 12c0 10 0 16 0 18 0 10 4 18 12 22 8 6 12 8 12 8 0 4-4 10-10 14-8 6-14 2-18-10 0 0 0-6-4-12-2-6-4-10-2-14-4 4-6 8-8 12s-8 8-16 8zM372 424l-20-22c-4 12-14 20-26 28l-18-34c10-2 20-10 30-28l20 22 20-22 24 26c-4 12-14 22-30 30zM194 264c8 0 14 0 16 4 0 0 0 2 0 6 2 2 2 4 0 6-2 6-4 8-8 8h-4c2 36 2 50-2 40-4-12-6-22-8-32-2-12-2-20 0-24 2-6 2-8 6-8zM230 538c0-8 2-12 4-18 0-2 2-4 4-6l-84-90 40 24 56 58c6-8 12-12 20-14l-10 18c0 6 0 14 0 20s-2 12-4 16-10 14-16 12c-6-2-10-8-10-20zM250 526c-2-2-2-4-2-6-2 2-4 2-4 6s0 6 0 12l4 6c2-6 2-12 2-18zM606 738c-2 2-6 6-12 8-4 2-8 4-12 4-2-2-4-2-6-6-2-2-4-6-4-10-2-4-4-6-4-8 0 0 0-4 0-8 0 0 0-4 2-12s6-12 14-12c8 0 14 4 20 14 2 4 4 10 4 14 0 8 0 14-2 16zM580 714c-2 2-2 2-2 4s2 6 4 10c6-4 8-4 8-6 2 0 2-2 2-4 2-4-2-6-10-6 0 0-2 0-2 2zM712 774c-4 10-6 20-8 32l-16-26c8-42 18-86 24-128 4-24 6-46 10-68 0-10 2-20 2-30l-44-54 36 24 10 12c2-8 2-18 4-28 2-22 4-46 4-68 4 28 6 58 6 92 0 6 0 12-2 18l24 26c6-6 14-10 22-14l-14 20c2 6 2 14 2 20-2 6-2 12-4 16-4 10-8 14-16 12-6-2-10-10-10-20 0-8 2-14 4-18 2-2 2-6 6-8l-14-14c0 2 0 4 0 4-2 24-4 50-6 76-4 26-8 52-14 80l22-8 4 10c-14 12-26 26-32 42zM756 610l4 4c2-4 2-10 2-16-2-2-2-4-2-6-2 0-2 2-2 4-2 4-4 8-2 14zM676 658c4 36 4 50 0 40s-6-22-8-32c-2-12-2-18 0-22 0-8 2-10 4-10 10 0 16 0 18 2 0 2 2 4 2 8 0 2 0 4-2 6 0 6-4 8-10 8h-4zM766 512c-2-10-6-18-6-26-2-6-2-12 0-16 0-6 2-10 4-14 4-6 6-8 12-8 4 0 6 2 8 8 0 0 0 4 0 8 0 10-6 10-16 2-2 8-2 16 0 24 0 10 0 18 2 26 0 8-2 6-4-4zM538 620c8 4 10 6 10 6 0 4-2 10-10 14-8 6-14 2-16-10-2 0-2-4-6-12-2-6-4-10-4-14-2 6-4 10-6 12-4 6-8 8-16 8-4 0-8-2-10-4 0 0 0-2 0-6s0-6 0-6c2-2 4-4 6-8 2 0 4 0 10-4 4-2 12-6 22-12 2-2 6-8 10-16-2 16-2 28-2 36 2 8 6 14 12 16zM534 496c2 8 0 8-2-4-2-10-6-18-6-24-2-6-2-12 0-18 0-4 2-10 4-14s6-6 10-6c4 0 6 2 8 6 0 2 0 4 0 10 0 8-4 10-16 2 0 6 0 14 0 24 0 8 2 16 2 24zM616 528c-4 14-6 24-6 32 0 4 0 8 0 6-2 0-2-2-4-6l-2-16c0-6 2-14 4-22 2-14 6-22 12-22 8 0 12 6 12 16 0 4 0 6-2 8s-4 4-8 4c-2 0-4 0-4 0s0 0-2 0zM610 416c2-2 4-2 4-2 8 0 14 2 18 6 2 2 6 4 10 8 2 2 2 4 6 10 0 2 2 2 2 4-10-10-20-16-26-20-6-2-10-4-14-6zM740 412c-2 6-4 12-8 16-4 6-10 10-16 12l-22-32c10-6 20-16 28-30l22 26c10-6 16-16 22-26l22 24c-4 20-14 32-28 38l-20-28zM904 490c0 8 0 16 2 24 0 8 0 8-2-4-4-10-6-18-8-24 0-6 0-12 0-18 2-6 4-10 6-14s6-6 10-6c4 0 6 2 8 6 0 2 0 4 0 8 0 10-6 12-16 4 0 6 0 14 0 22zM886 572l4 16c-12 12-20 26-26 40-6 12-10 22-12 34l-14-26c2-2 2-2 2-4 24-122 40-240 44-354 18 34 12 136-14 308zM428 832l20 22-146-60-12-18zM276 668c0-10 0-18 0-22 2-6 4-10 6-10 8 0 14 2 16 4s2 4 2 6 0 6-2 8c0 4-4 8-8 8h-4c2 36 2 50-2 38-4-10-6-20-8-32zM348 664c0-6 2-8 4-8 10 0 16 0 18 2 0 2 0 4 0 8 0 2 0 4 0 6-2 6-4 8-10 8h-4c4 36 4 50 0 38-4-10-6-20-8-30-2-12-2-18 0-24zM484 764c-4-10-8-20-8-32-2-10-2-18-2-22 2-6 4-10 6-10 10 0 16 2 18 4 0 2 0 4 0 6s0 6 0 8c-2 4-4 6-10 6h-4c4 38 4 50 0 40zM408 652c-6 6-12 6-18 2-8-6-12-14-18-24-4-8-6-16-6-18-2 4-4 8-6 10-4 6-8 8-16 8-6 0-8 0-10-4 0 0 0-2 0-6 0-2 0-4 0-4 0-2 2-4 6-8 2 0 4-2 10-4 4-2 12-6 22-14 2-2 6-6 10-14-2 16-4 30-2 42s6 16 14 10c8-4 12-2 18 6 4 6 2 14-4 18zM486 330c-2 10-8 14-16 12-6-2-8-10-8-20 0-8 0-14 2-18 0-2 2-4 6-6l-32-44 20 10 24 26c4-8 10-12 20-14l-12 18c0 6 0 14 0 20s-2 12-4 16zM474 322l6 6c2-6 2-12 0-18 0-2 0-4-2-6-2 2-2 4-4 6 0 4 0 6 0 12zM476 260c0-4-2-6-4-10s-2-6-4-8c0 0 0-4 0-8 0 0 2-4 2-12 2-8 8-12 14-12 10 0 16 6 22 14 2 4 4 10 4 14 0 8-2 14-4 16s-6 6-10 8c-6 2-10 4-12 4-2-2-4-4-8-6zM494 234c0-4-4-6-10-6-2 0-2 0-4 2 0 2 0 4 0 4 0 2 2 6 4 10 4-4 6-6 6-6 2 0 4-2 4-4zM406 268c8 6 12 16 12 26 0 8-4 10-8 4-4-4-8-8-14-14-10-6-24-12-40-16-28-10-46-16-52-20-8-4-12-12-12-22l2-10c2-10 6-14 14-14 0 0 2 4 2 10 0 8 0 14 0 16 0 4 8 8 24 14 8 2 18 4 32 6 20 6 34 14 40 20zM318 204c0-2 0-4 0-6 0-4 0-6 0-6 2-2 4-4 6-6s4-2 10-6c4-2 8-4 10-6 0 0 2-4 6-12s6-12 8-12c2 0 4 4 4 12 0 10-2 16 0 18 0 10 4 18 14 22 6 6 10 8 10 8 0 4-4 10-10 14-8 6-14 2-16-10-2 0-2-4-6-12-2-6-2-10-2-14-2 4-6 10-8 12-2 6-8 6-16 6-4 0-8 0-10-2zM354 54c2-6 4-8 6-8 10 0 14 0 16 4 0 0 2 0 2 4 0 2 0 6-2 8 0 4-4 8-8 8h-4c0 14-2 20-6 14-4-4-6-10-6-20 0-2 0-6 2-10zM220 172c0 16-2 20-4 16-4-6-6-12-6-20 0-2 0-6 0-10 2-6 4-10 6-10 10 0 16 2 18 4 0 0 0 2 0 6 0 2 0 6 0 8-2 4-4 6-10 6h-4zM790 298c-2-12-6-20-6-28 0-4 0-10 0-16 0-4 2-10 4-14 4-4 6-6 12-6 4 0 6 2 8 6 0 2 0 4 0 10 0 8-6 10-16 2-2 6-2 14 0 24 0 8 0 18 2 24 0 8 0 8-4-4zM662 294c0 4 0 6-4 10-4 2-12 0-22-6-4-2-6-8-6-16 0-2 0-4 2-6 2-4 2-6 2-8s-2-6-4-12c-4-8-6-12-6-14s2-2 2-2 8 4 14 10c6 4 12 8 14 10 4 2 8 6 16 10 4 4 6 8 6 12s-4 6-8 6c-4 0-6-2-8-6s-6-6-8-6c-4 0-6 2-6 4 0 0 0 2 0 4 0 4 0 6 4 6 2 0 4 0 4-2 0 0 0 0 2 0 0 0 0 0 0 0 2 0 2 0 4 0s2 2 2 6zM640 116c-6 0-10-2-10-4-2 0-2-4-2-6s0-4 0-6c2 0 4-4 8-6 0 0 4-2 8-4 6-4 10-6 10-6 0-2 2-6 6-14 4-6 8-10 10-10s2 4 2 12c0 8 0 14 0 18 0 10 6 16 14 20 8 6 12 8 12 8 0 6-4 10-12 16-8 4-14 0-16-10 0-2-2-6-6-14-2-6-2-10-2-14-2 6-4 10-6 12-4 6-10 8-16 8zM742 96c0 0 2 2 2 6 0 2 0 4-2 6 0 6-4 8-10 8h-4c2 16 0 20-4 16-4-6-6-12-6-22 0-2 0-4 2-8 0-8 2-10 4-10 10 0 16 0 18 4zM1598-10368l-82 74" />
<glyph unicode="&#x22;" glyph-name="c3" d="M614 716c-26 26-58 40-96 40-40 0-72-14-98-40-6-6-12-10-16-18-16-24-26-50-26-80 0-38 14-72 42-98 2-2 4-4 6-6 26-24 56-34 92-34 30 0 56 8 80 24 6 6 12 10 18 16 26 26 40 60 40 98s-14 72-40 98zM716 572c-6-6-12-10-16-18-16-22-24-48-24-80 0-28 6-54 20-76 6-8 12-14 20-20 2-2 4-4 6-6 26-24 56-36 92-36 10 0 20 2 28 4 20 2 36 10 52 20 6 6 12 10 18 16 26 28 40 60 40 98s-14 72-40 98c-28 28-60 42-100 42-36 0-70-14-96-42zM658 420c0 0 0 0 0 0-12 16-24 30-40 44-18-8-40-14-62-16-10 0-22-2-34-2-42 0-78 8-110 22-16-14-32-30-46-48-4-6-10-14-14-22 36-30 72-74 102-130 34-2 68-2 102 2v-2c6 0 10 0 14 0 0 0 2 2 2 2 28 48 58 86 88 116 6 4 10 8 16 12-6 8-10 14-16 20 0 0 0 2-2 2zM704 344c-4-6-10-10-16-16-32-30-58-66-76-102-10-20-18-38-26-58 80-16 152-26 220-26 80 0 152 8 216 26-22 66-60 122-112 170-20-8-42-14-68-16-8 0-18 0-30 0-40 0-76 8-108 22zM226 628c-38 0-70-14-98-40-6-6-10-12-16-18-16-24-24-50-24-80 0-40 14-72 40-98 2-2 4-4 6-6 26-24 58-34 92-34 30 0 56 8 80 24 6 4 12 10 18 16 28 26 40 58 40 98 0 38-12 70-40 98-28 26-60 40-98 40zM226 330c-42 0-78 8-110 22-54-50-94-108-116-176 170-34 314-34 434 0-22 66-58 122-112 170-28-10-60-16-96-16z" />
<glyph unicode="&#x23;" glyph-name="chap" d="M862 630v220c0 72-36 110-110 110h-486c-74 0-112-38-112-110v-220zM154 200v-152c0-14 0-24 2-34 12-52 48-76 110-76h486c58 0 94 22 106 68 4 12 4 26 4 42v152h-708zM78 60v216h858v-216h88v500h-1024v-500h78zM936 508c10-2 18-6 26-14s14-20 14-32c0-14-6-26-14-34-8-6-16-12-26-14-2 0-6 0-8 0-12 0-24 4-34 14-8 8-14 20-14 34 0 12 6 24 14 32 10 10 22 14 34 14 2 0 6 0 8 0z" />
<glyph unicode="&#x24;" glyph-name="chap1" d="M1022 448c0 142-50 262-150 362s-220 150-362 150c-140 0-260-50-360-150s-150-220-150-362c0-140 50-262 150-360 100-100 220-150 360-150 142 0 262 50 362 150 100 98 150 220 150 360zM818 756c86-84 128-186 128-308 0-120-42-222-128-308-84-86-188-128-308-128s-222 42-308 128c-84 86-128 188-128 308 0 122 44 224 128 308 86 86 188 128 308 128s224-42 308-128zM534 726v120l-396-394 396-394v120l-214 214h560v120h-560z" />
<glyph unicode="&#x25;" glyph-name="chat" d="M570 334c26 22 48 52 64 92 6 14 12 26 16 40l42 164c16 144-48 214-190 210-140 4-200-64-184-202l42-166c4-12 10-24 14-36 16-42 38-74 66-96 10-8 24-16 36-20 10-4 18-6 28-6s18 0 28 2c14 4 26 10 38 18zM508 66l-122 222c-144 6-250-28-318-98 22-36 48-70 80-102 102-100 224-152 366-152s264 52 366 152c30 30 56 64 78 98-64 62-168 96-310 104l-140-224zM758 732c-4 58-30 110-74 152-48 50-106 74-176 76-2 0-2 0-4 0s-2 0-4 0-6 0-8 0c0 0-2 0-4 0-68-2-126-26-176-76-42-42-68-94-74-152-14-6-30-14-42-26-20-22-30-48-30-76 0-30 10-54 30-74 22-22 60-32 118-30-24 68-34 128-34 180 0 10 0 20 2 30 6 46 26 86 60 120 42 42 90 62 146 64 2 0 4 0 4 0 2 0 4 0 4 0v-2c2 0 2 0 4 0 0 2 0 2 0 0v2c2 0 4 0 4 0 2 0 4 0 4 0 58-2 106-22 148-64 34-34 54-74 60-120 2-10 2-20 2-30 0-52-10-112-26-182 52 0 88 10 108 32 22 20 32 44 32 74 0 28-10 54-32 76-12 12-26 20-42 26z" />
<glyph unicode="&#x26;" glyph-name="chap2" d="M1022 448c0 142-50 262-150 362s-220 150-362 150c-140 0-260-50-360-150s-150-220-150-362c0-140 50-262 150-360 100-100 220-150 360-150 142 0 262 50 362 150 100 98 150 220 150 360zM534 846v-120l-214-214h560v-120h-560l214-214v-120l-396 394z" />
<glyph unicode="&#x27;" glyph-name="chatesouti" d="M624 726v52h60v12c0 46-18 86-50 120-34 34-74 50-120 50s-86-16-120-50c-34-34-50-74-50-120v-12h60v-52h-60v-78h60v-50h-60v-84h60v-52h-60v-6c0-48 18-88 50-120 2-4 4-4 6-8 2 0 4 0 4-2 32-26 68-40 110-40s78 14 110 40c0 0 2 2 4 2 2 2 4 4 6 6 34 34 50 74 50 120v8h-60v50h60v84h-60v52h60v78h-60zM746 446v0c0-64-22-118-68-164-18-16-36-30-54-42-26-14-52-22-84-24-8-2-18-2-28-2s-20 0-30 2c-50 6-96 28-134 66-46 44-70 100-70 164v172h-2c0 2 2 2 2 2v-2 18h-160v-58h102v-132c0-66 20-124 58-174 10-10 18-22 28-32 50-50 110-78 178-84v-160h-182v-58h416v58h-176v160c28 2 56 8 82 20 34 14 66 36 96 64 10 10 18 20 26 32 38 48 58 104 60 170v136h100v58h-160v-188z" />
<glyph unicode="&#x28;" glyph-name="chatetasviri" d="M672 926c-48 22-102 34-160 34s-112-12-162-34c-42-18-82-46-118-82-78-78-116-170-116-280s38-202 116-278c78-78 170-118 280-118s202 40 280 118c78 76 116 168 116 278s-38 202-116 280c-36 36-76 62-120 82zM512 762c54 0 100-20 140-58 16-18 28-36 38-56 14-26 18-54 18-84 0-54-18-100-56-140-40-38-86-56-140-56-56 0-102 18-140 56-38 40-58 86-58 140 0 30 6 60 18 84 10 20 22 38 38 56 40 38 86 58 140 58zM636 888c-36-30-78-44-124-44-48 0-88 14-124 44 0 0 0 0-2 0 40 16 82 24 128 24 44 0 86-6 124-22-2-2-2-2-4-2h2zM516 644c12-12 18-26 18-42 0-8-4-16-6-24-4-6-6-12-12-16-10-10-24-16-40-16s-30 6-40 16c-6 6-10 10-12 16-4 8-6 16-6 24l-2 2c-6-12-8-26-8-40 0-16 2-32 10-46 4-10 12-18 20-28 20-20 44-30 74-30 28 0 52 10 72 30 10 8 16 18 22 28 6 14 10 30 10 46 0 28-12 52-32 72-2 4-4 6-8 8-18 16-40 22-64 22-14 0-26 0-36-6v0c14 0 26-6 36-12 0-2 2-4 4-6l2 2zM432 146v-92h-194c-26 0-38-14-38-40v-80h622v80c0 26-12 40-38 40h-192v92c-56-8-108-8-160 0z" />
<glyph unicode="&#x29;" glyph-name="choob-alef" d="M512 204l266-270v1026h-530v-1026z" />
<glyph unicode="&#x2a;" glyph-name="choob-alefha" d="M1022 912h-204v-724l204-206zM748 912h-208v-718l208-212zM482 912h-482v-930l242 244 240-244z" />
<glyph unicode="&#x2b;" glyph-name="choob-alef-2" d="M514 410l444-476v1026h-890v-1026z" />
<glyph unicode="&#x2c;" glyph-name="choobalefnazok" d="M718 960h-180v-792l180-234zM956 960h-176v-798l176-228zM488 960h-418v-1026l210 270 208-270z" />
<glyph unicode="&#x2d;" glyph-name="copycon" d="M1012 774l-184 182v-182zM794 740v220h-572v-204h408l200-200v-388h182v572zM796 540l-182 182v-182zM798 506h-218v220h-572v-792h790zM656 394c6-4 8-10 8-16s-2-12-8-16c-4-4-8-6-16-8h-504c-6 2-12 4-16 8s-8 10-8 16c0 6 4 12 8 16s10 6 16 6h504c6 0 12-2 16-6zM112 538c0 6 4 12 8 16s10 6 16 8h356c6 0 12-4 16-8 2 0 2 0 2-2 4-4 6-8 6-14s-2-12-8-16c-4-4-10-8-16-8h-356c-6 0-12 4-16 8s-8 10-8 16zM120 106c4 4 10 6 16 8h504c6 0 12-4 16-8 6-4 8-10 8-16 0-8-2-12-8-18-4-4-8-6-16-6h-504c-6 0-12 2-16 6-4 6-8 12-8 18s4 12 8 16zM136 208c-6 0-12 2-16 6-4 6-8 10-8 18 0 6 4 10 8 16 4 4 10 6 16 6h504c6 0 12-2 16-6 6-6 8-10 8-16 0-8-2-12-8-18-4-4-8-6-16-6zM8904 924v-1982h1980z" />
<glyph unicode="&#x2e;" glyph-name="d1" d="M798 652c14 12 20 28 20 46s-6 34-20 46c-12 12-26 18-44 18s-34-6-48-18c-12-12-18-28-18-46s6-34 18-46c14-12 30-18 48-18s32 6 44 18zM644 960h-36l-134-94h38zM666 768l28 28v124c0 40-14 50-40 30l-452-328c-26-18-40-48-40-88v-452c0-40 14-50 40-32l420 306v40l-388-284c-24-16-36-10-36 26v388c0 34 12 58 36 76l398 288c24 18 34 10 34-24v-98zM762 548h-10l-64 62h-254c-8 0-14-2-18-8-6-4-8-14-8-28 0-6 2-12 8-18 4-4 10-8 18-8h230v-172h12v-326c-2-2-2-4-2-6v-2c0-10 4-20 12-28 10-8 18-12 30-12 10 0 20 4 28 12 6 4 8 10 10 16 2-6 6-12 10-16 8-8 18-12 28-12 12 0 22 4 30 12s12 16 12 28v334h14v-20c0-8 2-14 8-18 4-6 12-8 18-8 8 0 14 2 18 8 6 4 8 10 8 18 0 0 0 0 0 0v208l-36 46h-38l-62-62zM474 846c-6 10-16 18-34 22-24-6-34-30-34-78zM382 772c-10 62 6 100 44 110-58-4-82-38-74-106l-188-136c-26-20-40-50-40-90v-454c4-40 18-62 42-62-14 12-18 28-18 52v454c0 40 12 68 40 88l194 144zM420 168h-28l-114-230h38zM436 120l64-56 28 18-94 86-106-232 46 34z" />
<glyph unicode="&#x2f;" glyph-name="d2" d="M932 748l-126 126-202-202v-126h126zM678 618c6-4 8-10 8-18s-2-14-8-20c-4-6-12-8-20-8-6 0-14 2-18 8-6 4-8 12-8 20s2 14 8 18c4 6 12 8 18 8 8 0 16-2 20-8zM596 672v284l-178 2v-286l90-90zM528 678c4-6 6-12 6-20s-2-14-6-18c-6-6-12-8-20-8s-14 2-20 8c-4 4-8 10-8 18s4 14 8 20c6 6 12 8 20 8s14-2 20-8zM652 446l88-88h284v176h-284l-88-88zM754 446c0-8-4-14-8-20-6-6-12-8-20-8s-14 2-18 8c-6 6-8 12-8 20s2 14 8 18c4 6 10 8 18 8s14-2 20-6c6-6 8-12 8-20zM740 348h-126v-124l202-202 126 124-202 202zM668 322c6 0 14-2 18-8 6-6 8-12 8-20 0-6-2-14-8-20-4-4-12-6-18-6-8 0-16 2-20 6-6 6-8 14-8 20 0 8 2 14 8 20 4 6 12 8 20 8zM210 872l-126-124 202-204h124v126zM376 580c-4-6-10-8-18-8s-14 2-20 8c-6 4-8 12-8 20s2 14 8 18c6 6 12 8 20 8s14-2 18-8c6-4 8-10 8-18s-2-14-8-20zM0 536v-176h286l88 88-88 88h-286zM318 430c-6-6-12-8-20-8-8-2-14 2-20 8-4 4-8 12-8 18 0 8 4 14 8 20 6 6 12 8 20 8s14-2 20-8c6-6 8-12 8-20 0-6-2-14-8-18zM420 348h-126l-202-202 126-124 202 200v126zM346 314c6 6 12 8 20 8 6 0 14-2 20-8 4-6 6-12 6-20 0-6-2-14-6-20-6-4-14-6-20-6-8 0-14 2-20 6-4 6-8 14-8 20 0 8 4 14 8 20zM430 222v-284h176v284l-88 88-90-88zM490 236c0 6 2 14 8 18 6 6 12 10 20 8 6 0 12-2 18-8 6-4 8-12 8-18 0-8-2-14-8-20s-12-8-18-8c-8 0-14 2-20 8s-8 12-8 20z" />
<glyph unicode="&#x30;" glyph-name="bkhsha-ashkhas" d="M912 654c-28 26-60 40-98 40s-70-14-98-40c-6-6-10-12-14-18-18-24-26-50-26-80 0-28 8-54 22-76 6-8 12-16 18-22 2-2 4-4 6-6 26-24 56-36 92-36 10 0 20 2 30 4 18 4 34 12 50 22 6 4 12 10 18 16 26 26 40 60 40 98s-14 70-40 98zM656 698c0 38-14 72-40 98-28 28-60 42-98 42s-70-14-98-42c-6-4-10-10-16-16-16-24-24-52-24-82 0-38 14-70 40-96 2-2 4-4 6-6 26-24 56-36 92-36 30 0 56 10 80 26 6 4 12 10 18 16 26 26 40 58 40 96zM660 478c-2 0-2 0-2 2-12 26-24 50-38 74-20-12-40-20-64-26-10-2-22-4-34-4-42 0-78 14-110 42-16-28-32-58-46-88-4-12-8-26-14-38 36-58 72-136 104-236 32-4 66-4 100 2v-4c6 0 10 0 16 0 0 2 0 4 0 4 28 86 58 154 90 208 4 8 8 18 14 26-4 10-10 22-14 34 0 0-2 2-2 4zM706 424c-6-8-12-18-18-28-32-56-56-118-76-186-10-32-18-66-24-104 78-28 152-42 218-46 80-2 152 14 216 46-22 118-58 220-110 308-22-14-44-24-68-28-10 0-20-2-30-2-42 0-78 14-108 40zM128 668c-6-6-10-10-14-16-18-24-26-52-26-82 0-38 14-70 40-98 2-2 4-4 6-6 26-22 56-34 92-34 30 0 58 8 80 24 6 6 12 10 16 16 28 28 42 60 42 98s-14 72-42 98c-26 26-58 40-96 40s-70-14-98-40zM226 400c-42 0-78 12-110 40-54-90-94-196-116-318 170-62 314-62 434 0-22 118-58 220-110 308-28-20-62-30-98-30z" />
<glyph unicode="&#x31;" glyph-name="baste-2" d="M30 950c-20 0-30-10-30-34v-934c0-24 10-36 30-36h194c20 0 30 12 30 36v934c0 24-10 34-30 34zM230 832c0-4-2-8-6-12-2-4-6-6-10-6h-168c-4 0-8 2-10 6s-4 8-4 12c0 6 2 10 4 14s6 4 10 4h168c4 0 8 0 10-4 4-4 6-8 6-14zM46 664c-4 0-8 2-10 6-4 4-4 8-4 12 0 6 2 10 4 14s6 6 10 6h168c4 0 8-2 10-6 4-4 4-8 4-14 0-4 0-8-4-12-2-4-6-6-10-6zM36 770c2 4 6 6 10 6h168c4 0 8-2 10-6 4-4 4-8 4-14 0-4 0-8-4-12-2-4-6-6-10-6h-168c-4 0-8 2-10 6-4 4-4 8-4 12 0 6 2 10 4 14zM46 30c-4 0-8 0-10 4-4 4-4 8-4 12 0 6 2 10 4 14s6 6 10 6h168c4-2 8-2 10-6 4-4 4-8 4-14 0-4 0-8-4-12-2-4-6-4-10-4zM186 264c16-16 24-36 24-60s-8-44-24-60c-16-16-34-24-58-24-20 0-40 8-56 24s-24 36-24 60c0 24 8 44 24 60s34 24 56 24c24 0 42-8 58-24zM168 162c10 12 16 26 16 42s-6 30-16 40c-10 12-24 18-40 18-14 0-28-6-38-18-10-10-16-24-16-40s6-30 16-42c10-10 24-16 38-16 16 0 30 6 40 16zM548 916c0 24-10 34-30 34h-194c-20 0-30-10-30-34v-934c0-24 10-36 30-36h194c20 0 30 12 30 36zM508 850c4 0 8 0 10-4 4-4 4-8 4-14 0-4-2-8-4-12s-6-6-10-6h-170c-2 0-6 2-8 6-4 4-6 8-6 12 0 6 2 10 6 14 2 4 6 4 10 4zM508 776c4 0 8-2 10-6 4-4 4-8 4-14 0-4-2-8-4-12s-6-6-10-6h-170c-2 0-6 2-8 6-4 4-6 8-6 12 0 6 2 10 6 14 2 4 6 6 10 6zM518 696c4-4 4-8 4-14 0-4-2-8-4-12s-6-6-10-6h-170c-2 0-6 2-8 6-4 4-6 8-6 12 0 6 2 10 6 14 2 4 6 6 10 6h168c4 0 8-2 10-6zM422 288c24 0 42-8 58-24s22-36 22-60c0-24-6-44-22-60s-36-24-58-24c-22 0-40 8-56 24s-24 36-24 60c0 24 8 44 24 60s34 24 56 24zM324 46c0 6 2 10 4 14 4 4 8 6 12 6h168c4-2 6-2 10-6 2-4 4-8 4-14 0-4-2-8-4-12-4-4-6-4-10-4h-170c-2 0-6 2-10 4-2 4-4 8-4 12zM462 162c10 12 14 26 14 42s-4 30-14 40c-12 12-26 18-40 18-16 0-28-6-38-18-12-10-18-24-18-40s6-30 18-42c10-10 22-16 38-16 14 0 28 6 40 16zM820 932c-6 22-18 32-36 28l-190-42c-20-4-28-18-22-42l202-912c4-22 16-32 36-28l190 42c20 4 26 18 22 42l-202 912zM806 856c4-2 6-6 8-12 0-4 0-10-2-12-2-6-6-8-10-8l-164-38c-4 0-8 0-10 4-4 4-8 8-8 12-2 6 0 10 2 14s4 6 8 8l164 36c4 0 8 0 12-4zM844 686c-2-4-6-8-10-8l-164-36c-4 0-8 0-10 2-4 4-8 8-8 12-2 6-2 10 2 14 2 4 4 6 8 8l164 36c6 0 8 0 12-4 4-2 6-6 8-12 0-4 0-8-2-12zM828 756c-2-2-6-4-10-6l-164-36c-4 0-8 0-10 2-4 4-8 8-8 12 0 6 0 10 2 14s6 6 10 8l164 36c4 0 8 0 10-4 4-2 6-6 8-12 2-4 0-8-2-14zM930 226c6-22 2-44-10-62-12-20-28-32-50-38-22-4-42 0-62 14-18 12-30 30-34 52-6 22-2 44 10 62 10 20 28 32 50 38 20 4 42 0 60-12 20-12 32-30 36-54zM808 20c-4 0-8 0-12 2-2 4-6 8-6 14-2 4-2 8 2 12 2 4 4 8 8 8l164 36c4 2 8 0 12-2 4-4 6-8 6-12 2-6 2-10 0-14s-6-6-10-8zM906 220c-4 16-12 28-24 38-14 8-28 12-44 8-14-4-26-12-34-26-8-12-10-28-6-42 2-16 10-28 24-38 12-8 26-10 42-8 14 4 26 12 34 26 8 12 10 28 8 42z" />
<glyph unicode="&#x32;" glyph-name="baste2" d="M242 866c0 0-2 0-4 2l-198 80c-18 8-30 2-30-20v-864c0-22 10-38 30-46l198-80c20-8 28-2 28 20v866c0 18-8 32-24 42zM48 848c2 2 6 2 10 2l168-70c4-2 8-6 10-10 4-4 4-10 4-14s0-8-4-10c-2-2-6-2-10 0l-168 70c-6 0-8 4-10 8-4 6-6 10-6 14s2 8 6 10zM58 746c-6 2-8 4-10 8-4 4-6 10-6 14s2 8 6 10c2 2 6 2 10 2l168-70c4-2 8-6 10-10 4-6 4-10 4-14s0-8-4-10c-2-2-6-2-10 0zM48 710c2 2 6 4 10 0l168-70c4 0 8-4 10-8 4-4 4-10 4-14s0-8-4-10c-2-2-6-2-10-2l-168 72c-6 2-8 4-10 8-4 4-6 10-6 14s2 8 6 10zM222 196c0-6 0-10 0-14 0-20-8-36-24-44-16-10-34-10-58 0-22 8-40 24-56 44 0 2 0 2 0 4-2 2-6 6-8 10-10 14-14 30-16 46 0 2 0 6 0 8s0 4 0 6c2 18 10 30 24 38 0 2 0 2 0 2 16 8 34 6 56-2 24-10 42-24 58-46 14-18 22-36 24-52zM42 112c0 4 2 8 6 10 2 2 6 2 10 0l168-70c4-2 8-4 10-8 4-4 4-10 4-14 0-6 0-10-4-10-2-2-6-2-10-2l-168 70c-6 2-8 6-10 10-4 4-6 8-6 14zM196 192c0 2 0 2 0 2 0 14-4 30-16 44-10 14-24 26-40 32-14 6-28 6-38 0-12-6-16-16-18-30v-2c2-14 6-28 16-44 2 0 2 0 2 0 10-14 24-26 38-32 16-6 30-6 40-2 12 8 16 18 16 32zM102 960l194-88 526 88zM308 842v-908l706 118v908z" />
<glyph unicode="&#x33;" glyph-name="baste1" d="M32 960c-20 0-30-12-30-36v-954c0-24 12-36 30-36h202c18 0 28 12 28 36v954c0 24-10 36-28 36zM222 858c4 0 8-2 10-6 2-2 4-8 4-14 0-4-2-8-4-12s-6-4-10-4h-172c-6 0-8 0-10 4-4 4-6 8-6 12 0 6 2 12 6 14 2 4 6 6 10 6zM50 668c-6 0-8 2-10 6-4 4-6 8-6 12 0 6 2 10 6 14 2 4 6 6 10 6h172c4 0 8-2 10-6s4-8 4-14c0-4-2-8-4-12s-6-6-10-6zM40 776c2 2 6 4 10 4h172c4 0 8-2 10-4 2-4 4-10 4-14 0-6-2-10-4-12-2-4-6-6-10-6h-172c-6 0-8 2-10 6-4 2-6 6-6 12 0 4 2 10 6 14zM134 282c24 0 42-8 58-24 18-16 26-38 26-62s-8-44-26-60c-16-16-34-26-58-26-22 0-40 10-58 26-16 16-24 38-24 60 0 24 8 46 24 62s36 24 58 24zM40 24c-4 4-6 8-6 12 0 6 2 10 6 14 2 4 6 6 10 6h172c4-2 8-2 10-6s4-8 4-14c0-4-2-8-4-12s-6-6-10-6h-172c-6 0-8 2-10 6zM176 238c-12 12-26 18-42 18-14 0-28-6-40-18-10-12-16-26-16-42s6-30 16-42c12-10 26-16 40-16 16 0 30 6 42 16 10 12 16 26 16 42s-6 30-16 42zM1020 84v726l-716 150v-1026z" />
<glyph unicode="&#x34;" glyph-name="baste" d="M1022 862c-4 28-14 50-32 66-18 18-44 28-78 32-6 0-14 0-20 0h-350v-476h144c-20 20-32 46-32 76 0 32 12 58 34 80 4 2 8 6 12 10 20 14 42 22 66 22 32 0 58-12 80-32 22-22 32-48 32-80 0-30-10-56-30-76h174v-64h-480v-142c20 14 42 22 66 22 32 0 58-10 80-32s32-50 32-80c0-30-10-56-32-78s-48-34-80-34c-24 0-46 8-66 22v-160h-64v482h-148c16-20 24-44 24-70 0-30-12-58-32-78-22-22-50-34-80-34s-58 12-78 34c-22 20-34 48-34 78 0 26 8 50 24 70h-154v64h478v174c-4-4-8-10-12-14 0 0 0-2-2-2-20-22-48-32-78-32-24 0-48 8-66 22-4 4-10 6-14 12 0 0 0 0 0 0-22 22-32 48-32 78s12 56 34 78c4 4 8 8 12 12 18 14 42 20 66 20 30 0 58-10 78-32 6-4 10-10 14-16v176h-344c-44 0-78-10-100-32-18-18-30-44-32-80 0-6-2-14-2-20v-760c0-8 2-14 2-22 2-32 12-58 30-76 14-14 34-26 60-32 12-2 26-2 40-2h760c8 0 14 0 20 0 8 0 16 2 22 2 24 6 44 16 58 32 16 16 26 36 30 64 2 10 4 22 4 34v760c0 12-2 22-4 34z" />
<glyph unicode="&#x35;" glyph-name="bastan" d="M1024 808l-146 148-364-362-366 366-148-148 368-366-362-362 146-148 362 362 358-358 148 148-358 358z" />
<glyph unicode="&#x36;" glyph-name="bala" d="M1024 846v114h-1024v-114zM556 742c-2 2-4 4-6 6-12 10-24 16-38 16s-26-6-36-16c-2-2-6-6-8-8l-462-802h1014l-464 804z" />
<glyph unicode="&#x37;" glyph-name="bakhsha-safar" d="M604 954c-26 4-52 6-80 6v-796h-22v796c-28 0-56-4-84-6-122-90-180-198-176-324 2-132 72-288 210-466h-32c-136 178-206 332-210 464-4 128 52 234 168 316 2 2 2 2 4 4-2 0-2 0-2 0-4-2-8-2-10-4-76-16-144-44-204-86-98-70-148-152-148-250 0-36 8-70 20-100 2-6 4-12 8-18l34-66c2-4 4-8 6-10 28-32 70-70 126-114 54-42 108-88 162-136 2-2 6-4 8-8 4-4 6-8 10-12l48-110v-100h146v100l48 110c4 4 8 8 12 12 2 4 4 6 8 8 54 48 106 94 160 136 56 44 98 82 128 114 2 2 4 6 6 10l34 66c2 6 4 12 6 18 14 30 20 64 20 100 0 98-48 180-146 250-64 44-138 74-220 90 116-82 174-190 170-318-4-132-74-288-212-466h-28c138 178 208 334 212 466s-56 240-178 324zM456 48l-44 96h90v-96zM524 144h90l-40-96h-50v96z" />
<glyph unicode="&#x38;" glyph-name="bakhsha-porso-jo" d="M1024 448c0 142-50 262-150 362s-220 150-362 150c-142 0-262-50-362-150s-150-220-150-362c0-142 50-262 150-362s220-150 362-150c142 0 262 50 362 150s150 220 150 362zM746 644h-160c2 92-26 136-86 136-54-2-80-34-78-100 0-64 42-136 124-214 56-54 80-130 72-230h-164c4 56-6 102-34 138-26 36-72 88-136 158-8 8-14 18-18 28-58 128-34 228 70 300 78 44 168 54 266 24s146-112 144-240zM464 2v144h144v-144z" />
<glyph unicode="&#x39;" glyph-name="bakhsha-hamayesh" d="M684 790c0 48-16 86-50 120s-72 50-120 50c-46 0-86-16-120-50-32-34-50-74-50-120v-334c0-48 18-88 50-122 2-2 6-4 8-6 30-28 68-42 112-42s82 14 114 42c2 2 4 4 6 6 34 34 50 74 50 122zM9658-3548h-1278M5026-8936h-8M5018-8936c-940 0-1722 330-2382 988-650 650-980 1450-980 2374M1656-5574v2026h2176M370-3548h1286M7268-11722h-4556M5026-11722v2786M5026-8936c922 0 1714 330 2366 988 660 650 988 1450 988 2374M8380-5574v2026h-1178" />
<glyph unicode="&#x3a;" glyph-name="d4" d="M736 414c-76 0-140 28-192 80-54 54-80 118-80 194 0 58 14 108 46 154l-118 118h-392v-392l630-630 392 392-132 132c-46-32-96-48-154-48zM166 876c24 0 44-6 60-24 18-18 26-36 26-60s-8-44-26-60c-16-18-36-26-60-26s-44 8-60 26c-16 16-26 36-26 60 0 22 10 42 26 60s36 24 60 24zM968 688c0 62-24 116-68 162-46 46-100 68-164 68-16 0-34-2-50-6-42-8-80-30-112-62-46-44-68-100-68-162 0-64 22-118 68-164 32-32 70-54 112-62 16-4 34-4 50-6 64 0 120 24 164 68 44 46 68 100 68 164zM886 788l-104-104 104-104-42-44-106 106-104-104-42 42 104 104-102 102 42 44 102-102 106 104z" />
<glyph unicode="&#x3b;" glyph-name="d5" d="M1008 394l-28 28-338-340-536 544v334h-34v-354l572-576zM54 916h-38v-352l628-630 366 366-30 30-338-340-588 596zM960 442l-52 52c-114 114-230 230-344 344-18 20-38 38-56 58l-58 56h-318v-316l510-510 318 316zM266 886c20 0 36-8 50-22s20-28 20-48c0-18-6-36-20-48-14-14-30-22-50-22-18 0-34 8-48 22-14 12-20 30-20 48 0 20 6 34 20 48s30 22 48 22z" />
<glyph unicode="&#x3c;" glyph-name="d6" d="M852 676c0-4 0-8 0-12 4-10 8-18 16-28 2 0 4-2 4-4 8-4 14-8 24-10 4-2 8-2 12-2 8 0 14 0 22 4 0 0 0 0 0 0 8 4 14 6 18 12 12 12 18 26 18 40 0 18-6 30-18 42-10 12-24 16-40 16-12 0-22-2-32-8-2-2-4-4-6-6 0 0-2 0-2-2-8-8-14-18-16-30 0-4-2-6-2-12zM838 696c4 14 10 24 18 34l-274 158c-2-12-8-24-16-34l272-158zM568 902c0 0 0 2 0 2 0 16-6 28-16 38-12 12-26 18-42 18-14 0-26-6-36-14-2-2-2-2-4-4-10-10-16-24-16-40 0-2 0-4 0-6 0-14 6-24 16-34 6-6 14-12 22-14 6-2 12-2 18-2 8 0 14 0 20 2 8 2 16 8 22 14v0c10 10 14 20 16 34 0 2 0 4 0 6zM512 886l-2-2v2zM604 520c8-10 14-20 18-32l238 136c-2 0-2 2-4 2-8 10-14 20-18 30l-234-136zM576 512c-12 14-28 24-46 26-6 2-14 2-20 2s-12 0-18-2c-8-2-18-4-26-8s-16-10-22-18c-2 0-4-4-6-6-8-10-14-20-18-32-2-8-4-18-4-28 0-12 2-22 6-32 2-12 10-22 18-32 0 0 2-2 4-4 14-14 30-22 50-26 4 0 10-2 16-2 4 0 8 2 12 2s6 0 8 0c18 4 34 12 46 26 2 2 4 4 4 4 10 10 16 20 20 32 2 10 4 20 4 32 0 10-2 20-4 28-4 12-10 24-18 34-2 0-4 4-6 4zM622 402c-4-12-10-22-20-32l234-136c4 14 10 24 18 34l-232 134zM908 604c-4 0-8 2-12 2v-318c4 2 6 2 10 2 2 0 4 0 6 0 6-2 14-2 18-4v322c-6-2-14-4-22-4zM530 564v268c-6-2-12-2-20-2-6 0-12 0-18 2v-268c6 2 12 2 18 2s14 0 20-2zM456 854c-8 10-14 20-16 34l-276-160c0 0 2-2 2-4 10-8 14-18 18-28l272 158zM74 714c-10-12-16-24-16-42 0-12 4-24 12-34 2-2 4-4 4-6 6-4 10-8 16-12 8-2 16-4 26-4 4 0 8 0 12 0 8 2 16 6 24 12 2 2 2 2 4 4 8 8 14 18 16 28 2 4 2 8 2 12 0 6-2 12-2 16-4 10-8 18-16 26-2 2-4 4-6 6-8 4-16 8-24 10-4 0-6 0-10 0-16 0-30-6-42-16zM166 622c0 0 0-2 0-2l232-134c4 12 10 24 18 34l-230 132c-4-12-10-22-18-30zM116 600c-8 0-18 2-26 4v-318c8 4 18 6 28 6 2 0 6-2 10-2v310c-4 0-8 0-12 0zM418 368c-8 12-16 22-20 34l-228-132c10-10 16-22 18-34l230 134zM510 326c-6 0-12 0-18 0v-262c6 0 12 0 18 0s14 0 20-2v266c-6-2-14-2-20-2zM510 50c-6 0-12-2-18-4-8-2-16-6-22-14-2-2-6-4-6-6-8-10-12-20-12-34 0-2 0-2 0-4 0-14 6-26 18-36 10-12 24-18 40-18s30 6 40 18c10 10 16 24 16 38 0 2 0 2 0 2 0 4 0 8 0 14-2 6-6 12-8 18-2 2-4 6-8 8-6 6-12 10-20 14-6 2-14 4-20 4zM438 0c0 14 4 24 12 34l-266 152c-4-6-8-12-14-20 0 0 0 0 0 0-4-2-6-4-8-6l276-160zM128 276c-4 0-8 0-10 0-8 0-16-2-24-4 0-2-2-2-4-2-4-4-8-6-12-10-12-12-18-26-18-42 0-14 6-28 18-40 10-12 24-16 40-16 10 0 20 2 30 6 2 2 6 6 10 8 0 0 0 2 2 2 4 6 8 10 10 18 4 6 6 14 6 22 0 4 0 6-2 10-2 12-6 22-16 32 0 0-2 0-2 2-8 8-18 12-28 14zM948 258c-6 4-12 8-18 12-6 2-14 4-20 4-2 0-2 0-4 0-4 0-6 0-10 0-10-2-20-6-28-14 0-2-2-2-2-2-10-10-14-20-16-32 0-2 0-6 0-10 0-6 0-14 2-20 4-8 8-14 14-20 2-2 6-4 8-8 2 0 2 0 2 0 10-6 20-8 30-8 16 0 30 6 40 16 12 12 18 26 18 40 0 16-6 30-18 42zM860 160c0 2-4 4-4 6-8 6-12 14-16 22l-270-156c6-6 8-14 10-22 2-4 2-6 2-10z" />
<glyph unicode="&#x3d;" glyph-name="d3" d="M968 688c0 62-24 116-68 162-46 46-100 68-164 68s-118-22-162-68c-14-12-24-26-34-40-22-36-34-76-34-122 0-64 22-118 68-164 44-44 98-68 162-68 46 0 88 12 124 36 14 10 26 20 40 32 44 46 68 100 68 164zM920 718v-62h-150v-146h-60v146h-146v62h146v146h60v-146zM736 414c-76 0-140 28-192 80-54 54-80 118-80 194 0 58 14 108 46 154l-118 118h-392v-392l630-630 392 392-132 132c-46-32-96-48-154-48zM226 732c-16-18-36-26-60-26s-44 8-60 26c-16 16-26 36-26 60 0 22 10 42 26 60s36 24 60 24c24 0 44-6 60-24 18-18 26-36 26-60s-8-44-26-60z" />
<glyph unicode="&#x3e;" glyph-name="d8" d="M1026 448c0 142-50 262-150 362s-222 150-362 150c-66 0-128-10-184-32-66-24-126-64-180-118-100-100-150-220-150-362s50-262 150-364c100-100 222-150 364-150 140 0 262 50 362 150 100 102 150 222 150 364zM864 796c96-96 144-212 144-348s-48-254-144-350c-96-96-212-144-350-144-136 0-252 48-348 144s-144 214-144 350c0 136 48 252 144 348 54 56 116 96 184 118 50 18 106 28 164 28 138 0 254-48 350-146zM714 648h-78v-606c26 10 54 20 78 32zM872 390h-78v-258c8 6 16 14 24 20 20 22 38 44 54 66zM392 786h-76v-716c24-12 50-22 76-30zM230 434h-78v-222c16-20 32-40 52-60 8-8 16-16 26-24zM468 28c14-2 28-2 42-2 12 0 24 0 36 2v562h-78z" />
<glyph unicode="&#x3f;" glyph-name="d9" d="M626 750c8 12 12 26 12 42 0 18-6 34-18 48-14 12-30 18-48 18-2 0-4 0-6 0 0 14-6 28-16 38-8 8-18 14-30 14-2 2-6 2-10 2v0c-4 0-6 0-10-2-10 0-20-6-30-14-10-10-16-24-16-38-2 0-2 0-4 0-20 0-34-6-48-18-12-14-20-30-20-48 0-16 4-30 14-42-10-2-18-8-26-16-12-12-18-28-18-48 0-18 6-34 18-46s24-18 38-20l66-86-6-64h-468v-8h468l-4-40h-394l248-22-136-142-94-8 96-10 34 36v-46l-70-66 86 58v64l148 114h102l-108-104v-76h-72l-154-120 64 30-10-70 26 44v34l84 64h50v-22l-144-108 70 26 52-32 14-80v86l-52 38 70 56v28l24 18v76l118 82v30h18l32-36-92-102v-90l46-30v-46l-80-56 72 30 54-14 18-64v72l-50 22v70l-40 22v68l60 64 72-66v-182l14 118 78-54-68 74v58l-68 68 34 38-38 36h118v-112l100-72v-44l-42-30 10-62v54l36 24 58-32-48 44v60l-56 48h116l82-66-60 76 106 14h-272v98l288 22-454 8-6 32h472v8h-472l-6 64 66 86c14 2 26 10 36 20 14 12 20 28 20 48 0 18-6 34-20 46-8 8-16 14-24 16zM510 558l-60 68h120z" />
<glyph unicode="&#x40;" glyph-name="d7" d="M858 826c-6 6-14 12-20 18-16 14-34 26-50 36-10 6-20 14-32 20-10 6-24 12-34 16-18 8-34 14-50 20-4 0-6 2-10 2-6 2-12 4-18 6-18 4-38 8-58 10-24 4-48 6-74 6-8 0-16 0-24-2-10 0-20 0-30 0-8-2-16-2-22-4-44-6-84-18-124-34-30-12-62-30-90-50-6-2-10-6-14-10-16-12-32-26-50-42-2-2-4-6-8-8-84-84-132-182-146-292-2-14-4-28-4-42 0-8 0-18 0-28 0-128 40-238 120-332 10-10 20-22 30-32 0 0 2-2 4-4 78-76 168-122 272-140v2c0 0 0 0 0-2 12 0 24-2 36-4 14 0 28 0 42 0 2 0 6 0 8 0 20 0 40 0 58 2 2 0 2 0 4 0 58 6 112 22 162 48 28 12 52 28 78 46 8 8 18 14 26 22 12 10 24 20 34 30 60 62 104 130 128 206 14 48 22 98 22 148 0 4 0 6 0 8 0 0 0 2 0 2 0 2 0 6 0 8 0 6 0 12 0 16h-2c2 2 2 4 2 4-6 118-48 220-126 308-8 8-14 18-24 26-4 4-8 8-12 14-2 0-4 2-4 2zM854 786c12-14 24-26 34-38 10-38 16-80 16-126 2-50-2-100-12-150-90 10-186 36-290 82-18 6-34 14-50 22 40 88 88 164 146 226 22 22 42 42 62 58 34-20 64-46 94-74zM710 886c8-2 14-2 20-6 0 0-2-2-4-2-22-16-44-38-66-62-58-62-106-136-144-222-46 22-88 48-124 74-4 26-6 52-4 80 2 30 6 58 10 84 54 40 110 70 174 92 48-6 96-18 138-38zM542 554c16-8 32-14 48-22 108-46 206-72 298-82 0 0-2 0-2 0-8-36-20-72-34-108-86-42-184-64-296-68-22 30-42 60-60 94-4 4-8 10-10 16 0 2 0 6 0 8 16 58 36 112 56 162zM880 316c10 4 18 10 26 16 34 20 64 44 88 68-2-28-8-56-14-84-22-80-64-150-126-214-14-14-28-26-42-38-4 2-8 4-14 6-8 4-18 8-26 14-8 4-16 8-24 14 12 16 26 34 40 52 28 42 54 84 74 126 6 12 12 26 18 40zM920 448c4 0 8 0 10 0 24 0 46 0 66 2 2 0 6 0 10 2-4-4-8-8-10-12-24-24-52-46-86-68-4-2-8-4-12-6 10 26 16 54 22 82zM994 470c-16-2-32-2-52-2-6 0-12 0-18 2 8 44 12 88 10 132 0 34-4 66-10 96 44-68 66-144 70-228zM430 920c2 0 2 0 2 0 24 4 48 6 72 8-32-14-62-32-92-50 2 8 6 12 8 18 0 2 4 10 10 24zM390 912h10c-10-18-16-30-20-38-2-8-6-16-8-24-32-24-64-52-92-84-20 24-36 46-46 66 0 2-2 4-2 6 18 14 36 26 56 36 32 16 66 30 102 38zM352 730c0-12 0-22 0-32-16 14-32 28-46 42-2 0-2 2-4 2 18 22 38 40 58 58-4-22-6-46-8-70zM288 726c2-2 4-4 6-8 18-16 38-34 60-50 6-96 36-192 88-290-8-32-14-66-20-98-106 12-198 44-278 92-10 6-16 10-24 14 18 96 58 190 122 280 14 22 30 42 46 60zM216 826c2-6 4-10 8-16 10-20 24-40 42-62-18-18-34-40-50-64-64-90-104-182-120-278-28 22-50 44-66 68 6 120 52 224 140 312 14 14 30 28 46 40zM28 430c18-22 38-42 62-62-4-28-6-56-4-84 0-32 4-62 10-88-44 70-66 146-68 234zM116 348c8-6 14-10 24-16 80-50 172-80 276-94-12-96-10-186 6-270-96 18-180 62-252 134-14 16-28 30-42 46-10 38-14 76-16 118 0 28 0 54 4 82zM458 438c-30 66-52 134-62 198 32-22 70-44 110-64-18-42-34-88-48-134zM506 274c-14 0-30 2-44 2 4 18 8 34 10 50 12-18 22-34 34-52zM456 236c22-2 44-2 68-2 4 0 8 0 14 0 46-58 100-106 156-144-18-22-40-42-60-60-10-10-20-18-30-26-18-16-38-30-56-42-12-2-24-2-36-2-18 0-36 2-54 2-14 86-16 176-2 274zM772 48c4-2 8-4 12-4-26-20-54-34-82-46-26-12-54-20-82-26 38 28 72 62 106 100 2-2 6-4 10-6 12-8 24-12 36-18zM716 118c-46 32-88 70-128 118 90 6 170 24 244 56-22-40-46-80-74-120-14-18-26-36-42-54z" />
<glyph unicode="&#x41;" glyph-name="b9" d="M940 700c52-90 64-186 38-286-26-102-86-178-176-230-8-4-18-8-26-14l-30-46c24 8 48 20 72 34 96 56 160 138 188 246 30 108 16 210-40 308-56 96-138 160-246 188-108 30-212 16-308-40-24-14-46-30-66-48l48 8c10 6 20 12 30 18 92 54 186 66 286 38 102-26 178-84 230-176zM360 792c-14 0-30-4-44-8-12-12-22-24-32-38-26-40-48-84-60-132-30-108-16-210 40-308 56-96 138-160 246-190 50-12 98-16 144-12 18 2 34 4 50 8 12 14 24 28 36 42 26 40 44 82 58 128 28 108 14 212-42 308-56 98-136 162-244 190-52 14-102 18-152 12zM620 564h-84c0 48-14 72-46 72-28-2-42-18-40-52 0-34 22-72 64-114 30-28 42-68 38-120h-86c2 30-4 54-18 74-14 18-38 46-72 82-4 4-8 8-10 14-30 66-16 120 38 156 42 26 88 28 140 14 52-16 76-58 76-126zM472 228v74h74v-74zM248 730l26 42c-24-8-48-20-70-32-98-56-160-140-188-246-30-108-16-212 40-308 56-98 138-160 246-190 108-28 210-16 308 40 24 16 46 32 66 50l-50-6c-12-8-24-16-36-22-90-52-184-64-286-38-100 26-178 86-230 176s-64 186-38 288c28 100 86 176 178 228 10 6 22 14 34 18z" />
<glyph unicode="&#x42;" glyph-name="b8" d="M998 880c0 14-4 24-14 34l-34 32c-8 8-18 14-32 14s-24-6-34-14l-32-32 98-100 34 34c10 8 14 20 14 32zM918 788l-92 98-350-338 98-98zM444 516l-44-138 142 40zM260 776v-78h-196v198l196-2 36 36h-268v-268h266v152zM372 920l-24 30-182-182-68 66-26-28 94-92zM70 432l94-92 208 208-24 30-184-184-66 68zM62 326l2 196h196l34 34h-266l-2-266h268v150l-36-38v-76zM294 202h-268v-268h268zM258 166l2-194h-196l-2 196z" />
<glyph unicode="&#x43;" glyph-name="b7" d="M752 592l-18 24v-214h18zM996 612l-16-22v-416l-228-144v274h-18v-274l-228 144v238h-16v-238l-228-142v272h-18v-272l-228 142v604l228-142v-236h18v236l228 142v-274h16v274l206-128-24 38-180 112-10 6-244-152-254 158v-646l252-162 246 158 244-158 254 162zM976 846c-30 30-66 44-110 44 0 0-2 0-2 0-2 0-2 0-2 0-44 0-80-14-112-44-30-30-44-64-44-106 0-36 10-66 30-92l128-188 128 188c20 26 30 56 30 92 0 42-14 76-46 106zM784 818c22 22 48 32 80 32s58-10 82-32c22-22 32-50 32-82 0-30-10-58-32-80-24-22-50-34-82-34s-58 12-80 34c-22 22-34 50-34 80 0 32 12 60 34 82zM708 384l-20-52c30-14 64-14 104 0l-22 52c-12-4-24-6-36-6-10 0-18 2-26 6zM596 446l-24-44 74-44 26 46zM532 426l16 52c-40 10-72 10-96 0l14-52c20 8 42 8 66 0zM894 344c10 8 14 20 14 34s-4 24-14 34c-10 10-20 14-34 14s-24-4-34-14c-10-10-14-20-14-34s4-26 14-34c10-10 20-14 34-14s24 4 34 14zM90 378c0-14 4-26 14-34 8-10 20-14 34-14s24 4 34 14c8 8 12 18 14 28 0 2 0 4 0 6 0 14-4 24-14 34s-20 14-34 14c-14 0-26-4-34-14-10-10-14-20-14-34zM226 384l-20-52c30-14 64-14 104 0l-20 52c-26-8-46-8-64 0zM428 404l-26 44-74-44 26-44z" />
<glyph unicode="&#x44;" glyph-name="b6" d="M938 672c-2 4-4 6-8 10-20 20-46 30-74 30-30 0-56-10-76-30-22-22-32-46-32-76s10-56 32-76c4-4 8-8 14-12 12-8 24-14 38-18 6 0 16-2 24-2 26 0 50 10 68 28 2 2 4 4 6 4 6 6 10 12 14 16 2 4 4 8 6 10 8 14 12 30 12 50 0 22-6 44-20 62-2 2-2 2-4 4zM604 814c-2 4-6 6-8 10-20 20-46 30-76 30-2 0-4 0-6 0-4 0-6 0-8 0-30 0-54-10-76-30-2-4-4-6-8-10 0 0-2-2-2-4-14-18-22-38-22-62 0-18 4-36 12-50 2-2 6-6 6-8 4-8 10-12 14-18 2 0 4-2 6-4 20-18 42-28 70-28 2 0 4 0 8 0 2 0 4 0 6 0 28 0 52 10 70 28 2 2 4 4 6 4 6 6 10 10 14 18 2 2 4 6 6 8 8 14 12 30 12 50 0 24-6 44-20 62-2 2-2 2-4 4zM604 648c-20-18-42-28-70-32 0 0 2 0 2 0-16-2-28-2-44 0v0c-26 4-50 14-70 32 0-2-2-4-2-6-4-4-8-12-10-18-26-42-44-88-60-142-2-6-4-12-6-20-24-4-48-8-72-12-6 16-14 28-22 42-2 2-2 4-4 6-16-12-32-20-50-22-8-2-16-2-24-2-32 0-62 10-84 32-2-2-2-4-4-6-2-6-6-12-10-18-24-42-44-88-58-142-8-26-12-52-16-82 0 0 0-2 0-2 0-62 50-114 148-156 64-28 138-46 220-56-10 2-20 6-30 10 6 28 12 54 20 80 14 52 34 100 58 142 4 8 6 14 10 18 2 2 2 4 4 6 24-22 50-32 84-32 6 0 14 0 22 2 18 2 36 10 52 20 0 0 2-2 2-2 40-68 68-146 84-234-8-4-16-8-24-10 84 8 162 28 230 56 98 42 146 94 146 156 0 0 0 2 0 2-2 30-8 56-14 82-16 54-36 100-60 142-2 8-6 12-10 18-2 2-2 4-2 6-24-22-52-32-84-32-8 0-16 0-24 2-20 2-36 10-52 22 0-2-2-4-2-6-8-14-16-26-24-42-22 4-46 10-72 12-2 8-4 14-6 20-14 54-34 100-58 142-2 8-6 14-10 18-2 2-2 4-2 6zM588 324c-4-4-10-8-14-12-12-8-24-14-38-16-8-2-16-2-22-2-28 0-52 8-72 26 0 0-2 2-4 4-6 6-10 12-14 16-2 4-4 6-6 10-8 14-12 30-12 50 0 22 8 44 20 62 2 0 2 2 4 4 2 4 4 6 8 8 20 22 46 32 76 32 28 0 54-12 74-32 22-20 32-46 32-74 0-30-10-56-32-76zM172 712c-30 0-54-10-76-30-2-4-6-6-8-10 0-2-2-2-4-4-12-18-20-40-20-62 0-20 6-36 14-50 0-2 2-6 4-10 4-4 8-10 14-16 2 0 4-2 6-4 20-18 42-28 70-28 8 0 16 2 22 2 14 4 28 10 38 18 6 4 10 8 16 12 20 20 30 46 30 76s-10 54-30 76c-22 20-46 30-76 30z" />
<glyph unicode="&#x45;" glyph-name="b5" d="M528 582l140 38-38-140 62-64 88 314-316-86zM240 678h88l-160 282-162-282h90l72 126zM738 32l-2-88 284 160-282 164v-92l126-72zM532 342l54 194-194-52 60-58-256-254v366h70l-100 172-98-172h74v-460h444v-72l172 100-172 98v-70h-350l254 254zM362 112c0 48-16 90-50 124-36 34-76 52-124 52s-90-18-124-52c-34-34-52-76-52-124s18-88 52-122c34-36 76-52 124-52s90 16 124 52c34 34 50 74 50 122z" />
<glyph unicode="&#x46;" glyph-name="b4" d="M462 282c-2-2-4-4-6-6s-2-2-4-4c-8-14-14-28-14-46 0-14 4-28 10-38 0-2 2-4 4-8s6-8 10-12c2-2 2-2 4-2 14-14 32-22 52-22 8 0 14 0 18 2 10 2 20 6 30 12 4 4 8 8 10 10 16 16 24 36 24 58s-8 42-24 56c-16 16-34 24-56 24-24 0-42-8-58-24zM454 148c0 0 0-2-2-2-2-4-4-10-6-14-18-32-34-68-46-108-6-18-10-40-14-62 46-16 90-24 128-26 46 0 90 8 126 26-12 68-34 128-62 178-2 0-2 2-2 2-12-8-26-12-40-16-4 0-10 0-18 0-24 0-46 8-64 22zM176 166c12 10 18 24 18 42s-6 32-18 44c-10 12-26 18-44 18-16 0-30-6-42-18-2-2-4-4-6-6 0 0 0-2 0-2-8-10-12-22-12-36 0-10 2-20 6-30 2 0 4-2 4-4 2-2 4-6 8-8 0-2 2-2 4-4 10-10 24-16 38-16 6 0 10 0 14 2 8 2 16 4 22 10 4 2 6 4 8 8zM44 56c-4-16-8-32-12-48 36-12 68-20 98-20 34 0 68 6 96 20-10 52-26 96-48 134 0 2-2 2-2 2-8-6-18-10-30-10-4-2-8-2-14-2-18 0-34 6-48 18 0 0 0-2-2-2-2-4-4-6-4-12-14-24-26-50-34-80zM960 208c0 18-6 32-20 44-10 12-26 18-44 18-16 0-30-6-42-18-2-2-2-4-6-6 0 0 0-2 0-2-8-10-12-22-12-36 0-10 2-20 6-30 2 0 4-2 4-4 2-2 6-6 8-8s2-2 4-4c10-10 24-16 38-16 6 0 10 0 14 2 10 2 16 4 24 10 2 2 4 4 6 8 14 10 20 24 20 42zM796 8c36-12 68-20 98-20 36 0 68 6 96 20-10 52-26 96-48 134 0 2-2 2-2 2-8-6-18-10-30-10-4-2-8-2-14-2-18 0-34 6-48 18 0-2 0-2-2-4 0-2-4-6-4-10-14-24-26-50-34-80-4-16-8-32-12-48zM524 436v132h-24v-132h-382v-144h24v122h358v-78h24v78h364v-122h24v144zM566 936c-14 16-34 24-56 24s-42-8-58-24c-2-2-4-4-6-6 0-2-2-2-2-4-10-14-16-30-16-46 0-14 4-28 10-40 0-2 2-2 4-6s6-8 10-12c2-2 2-2 6-4 14-14 30-20 52-20 6 0 12 0 18 2 10 2 20 6 28 14 4 2 8 4 12 8 16 16 22 34 22 58 0 22-6 40-22 56zM526 780c-4 0-10 0-16 0-24 0-46 6-64 22-2 0-2-2-2-4-2-4-6-8-8-12-18-32-34-68-44-108-6-20-12-40-16-62 46-16 90-24 130-26 46 0 88 8 126 26-14 68-34 128-64 178 0 0-2 2-2 2-12-8-24-14-40-16z" />
<glyph unicode="&#x47;" glyph-name="b3" d="M848 768c-4 8-8 16-16 24 0 0-2 2-2 2s0 0 0 0c-16 16-34 22-54 22-22 0-40-8-56-24-10-10-18-24-20-38 0-4 0-10 0-14 0-20 6-38 22-54 0 0 0 0 0 0 10-10 22-16 34-20 6 0 12-2 20-2 18 0 36 6 50 18 0 0 0 2 0 2h2c0 0 0 2 2 2v2h2c14 16 20 32 20 52 0 10-2 20-4 28zM756 798c4 0 6 0 8-2 0-2 2-4 2-6 0 0 0-2 0-2 0-2 0-4-2-6s-2-2-6-2c-12-6-20-14-24-26 0-2 0-4 0-6s-2-4-2-4-2-4-4-4c-2 0-2 0-4 0s-4 0-6 2c-2 2-2 4-2 6-2 2-2 2 0 4 0 2 0 2 0 2 0 8 6 18 12 28 6 6 14 12 26 14l2 2v-2c0 2 0 2 0 2zM844 690l-16-16 38-38 16 14zM582 774l8 14c-24 6-48 6-72 0-8-2-12-6-14-10 0 4-4 8-12 10-12 4-26 4-40 4-10 0-20-2-32-4l8-14c8 2 16 4 24 4 12 0 26-2 42-6 2-6 6-8 10-8 6 0 10 2 12 8 24 6 46 8 66 2zM590 794v118c-24 6-50 4-80-2 0 0 0 0-2 0v-118c2 0 2 0 2 2 30 6 56 6 80 0zM526 518c6 6 10 16 10 24 0 10-4 18-10 26-8 6-16 8-26 8-8 0-16-2-24-8-6-8-10-16-10-26 0-8 4-18 10-24 8-8 16-10 24-10 10 0 18 2 26 10zM604 556c4-2 8-6 12-10 0 0 0-2 2-2l102 102-14 14zM544 470v-70h22v100h-120v-100h22v70h8v-158h26v72h8v-72h26v158zM624 338c-4-4-6-8-8-10s-4-2-6-4l96-96 14 14zM660 454c0-6 0-10 0-16 0-2 0-2 0-4h140v20h-140zM914 542h-68v-68l110-110 68 68zM886 502c-4-2-6-4-12-4-4 0-8 2-10 4-2 4-4 6-4 10s2 8 4 12c2 2 6 2 10 2 6 0 8 0 12-2 2-4 4-8 4-12s-2-6-4-10zM452 916c-12 0-22-2-32-4v-118c8 2 20 4 32 4 14 2 30-2 46-4 2-2 2-2 2-2v118c0 0 0 0-2 0-16 4-32 6-46 6zM302 738c0 24-10 46-28 64-16 16-38 26-62 26-26 0-46-10-64-26-18-18-26-40-26-64 0-26 8-46 26-64 18-16 38-26 64-26 24 0 46 10 62 26 18 18 28 38 28 64zM262 742c2-2 2-2 2-4 0-4 0-4-2-6 0 0 0-2-2-2l-66-34c0 0 0 0 0 0l-2-2c-2 0-2 0-4 0s-4 0-6 2c-2 2-2 2-2 2v76c0 0 0 2 2 2 2 2 4 4 6 4s4-2 6-2l66-34c2-2 2-2 2-2zM512 740h-18v-150c4 0 8 2 12 2 2 0 4 0 6-2zM164 492l-22 22-18-18c-6 4-12 6-20 8v24h-28v-24c-8-2-16-4-22-8l-16 16-22-20 18-16c-4-6-8-14-10-22h-24v-28h24c2-8 6-16 10-22l-18-18 20-20 18 18c6-4 14-6 22-8v-26h28v26c8 2 14 4 20 8l18-18 22 20-20 20c4 6 6 12 8 20h26v28h-26c-2 6-2 12-6 16 0 2-2 2-2 4l20 18zM114 466c2-2 4-4 6-6 0 0 0-2 0-2 2-2 4-6 4-10 0-2 2-4 2-8 0-2-2-4-2-6 0-4-2-8-4-12-2-2-4-4-4-6-4-2-4-4-8-6-2-2-6-4-10-4-4-2-6-2-8-2-4 0-6 0-8 0-4 2-8 4-12 6s-4 2-8 6c0 2-2 4-4 6s-4 8-4 12c0 2-2 4-2 6 0 4 2 6 2 8 0 6 2 10 4 14 2 2 4 4 4 6 4 2 4 4 8 4 4 4 8 4 12 4 2 2 4 2 8 2 2 0 4 0 8-2 4 0 8-2 10-4 4-2 4-4 8-4zM206 454v-20h146c0 2 0 2 0 4 0 6 0 10 0 16h-146zM392 542c2 2 4 2 4 4 4 4 6 6 10 8l-106 106-12-14 104-104zM400 326c-2 2-2 2-4 2-2 4-6 8-10 12l-98-98 12-14 100 98zM512 284c-2 0-4 0-6 0-4 0-8 0-12 0v-136h18v136zM256 226c0 2 0 4 0 4-2 8-6 14-14 16-2 0-4 0-6 0h-88c-2 0-4 0-8 0-8-2-12-8-12-20v-52c0-14 6-20 20-20h18v-26l38 26h30c14 0 22 6 22 20v52zM288 186h-22v-20c-2-12-10-20-24-22h-36l-26-16v-16c0-14 6-20 20-20h32l38-24v24h18c14 0 20 6 20 20v52c0 14-6 22-20 22zM464 48l38-38 70 70-38 38zM434-18l56 16-40 38zM862 218c-18 16-38 26-64 26-24 0-46-10-62-26-18-18-26-40-26-64s8-46 26-62c16-18 38-26 62-26 26 0 46 8 64 26 18 16 26 38 26 62s-8 46-26 64zM840 188h-28c0 16-6 24-16 24-8 0-14-6-12-16 0-12 6-26 20-38 10-10 14-24 14-40h-30c2 10 0 16-6 24-4 6-12 14-24 26 0 2-2 4-2 6-10 22-6 40 12 52 14 8 28 8 46 4 16-4 26-20 26-42zM790 102h26v-26h-26zM604 118c0 6-2 10-6 14l-12 12c-4 4-8 6-14 6s-10-2-14-6l-12-12 38-40 14 14c4 2 6 8 6 12z" />
<glyph unicode="&#x48;" glyph-name="b2" d="M956 726c-10 10-22 16-38 16s-28-6-38-16c-12-10-16-24-16-38 0-16 4-30 16-40 10-10 22-16 38-16s28 6 38 16c12 10 18 24 18 40 0 14-6 28-18 38zM566 880c0 16-6 28-16 40-6 6-14 10-22 12-4 2-8 2-14 4 0 0-2 0-4 0 0 0-2 0-2 0-2 0-2 0-2-2-14 0-26-6-34-14-10-12-16-24-16-40 0-14 6-28 16-38 12-12 24-16 38-16 16 0 30 4 40 16 10 10 16 24 16 38zM568 682c0 16-6 28-16 38-10 12-24 16-38 16-16 0-30-4-40-16-6-4-8-10-12-18l-4-20 4-20c4-8 6-14 12-18 4-6 8-8 12-12l10-2c4-2 8-2 12-4 2 0 2 0 6 0 14 0 28 6 38 18 10 10 16 22 16 38zM668 820c-10-10-16-24-16-38 0-16 6-28 16-40 12-10 24-16 40-16s28 6 38 16c12 12 16 24 16 40 0 14-4 28-16 38-10 12-22 16-38 16s-28-4-40-16zM772 584c0 14-6 28-16 38-12 10-24 16-40 16-14 0-28-6-38-16-12-10-16-24-16-38 0-16 4-30 16-40 10-10 24-16 38-16 16 0 28 6 40 16 10 10 16 24 16 40zM550 440c12 10 16 24 16 40 0 14-4 28-16 38-4 6-10 8-16 12l-20 4c0 0-2 0-2 0-2 0-4 0-4 0l-10-2c-10-2-20-6-26-14-12-10-16-24-16-40 0-14 4-28 16-38 10-10 22-16 36-16 0 0 2 0 4 0 0 0 2 0 2 0h10c10 4 20 8 26 16zM606 388c0 16-8 24-22 24h-146c-16 0-22-8-22-24v-184c0-16 6-24 22-24h14v-196c0-16 8-24 22-24h74c16 0 22 8 22 24v196h14c14 0 22 8 22 24zM792 508h-148c-16 0-22-8-22-22v-186c0-16 6-24 22-24h8v-196c0-14 10-22 24-22h80c14 0 22 8 22 22v196h14c14 0 22 8 22 24v186c0 14-8 22-22 22zM1022 596c0 16-8 24-24 24h-146c-16 0-24-8-24-24v-184c0-16 8-24 24-24h8v-196c0-16 8-24 24-24h78c16 0 24 8 24 24v196h12c16 0 24 8 24 24zM314 726c16 0 28 6 40 16 10 12 16 24 16 40 0 14-6 28-16 38-12 12-24 16-40 16-14 0-28-4-38-16-12-10-16-24-16-38 0-16 4-28 16-40 10-10 24-16 38-16zM142 726c-10 10-22 16-38 16s-28-6-38-16c-12-10-18-24-18-38 0-16 6-30 18-40 10-10 22-16 38-16s28 6 38 16c12 10 16 24 16 40 0 14-4 28-16 38zM192 596c0 16-8 24-22 24h-148c-14 0-22-8-22-24v-184c0-16 8-24 22-24h14v-196c0-16 8-24 24-24h78c16 0 24 8 24 24v196h8c14 0 22 8 22 24zM232 508c-16 0-24-8-24-22v-186c0-16 8-24 24-24h12v-196c0-14 8-22 22-22h80c16 0 24 8 24 22v196h8c14 0 24 8 24 24v186c0 14-10 22-24 22zM306 528c14 0 28 6 38 16s16 24 16 40c0 14-6 28-16 38s-24 16-38 16c-16 0-30-6-40-16s-16-24-16-38c0-16 6-30 16-40s24-16 40-16z" />
<glyph unicode="&#x49;" glyph-name="b1" d="M854 702c-14-2-28-8-40-20s-18-28-18-46c0-4 2-6 2-10h-96v120c4-2 8-2 14-2 18 0 34 6 46 18s18 26 18 42c0 18-6 32-18 44s-28 18-46 18c-6 0-10 0-14-2v96h-132c0-4 0-10 0-14 0-2 0-4 0-4 0-16-6-32-18-42-12-14-26-20-42-20-18 0-32 6-44 20-10 12-16 26-18 42 0 0 0 2 0 4 0 4 0 10 2 14h-128v-96c-2 0-6 0-10 0-18 0-34-6-46-18-14-12-20-26-20-44s8-32 20-44c12-10 28-18 46-18 4 0 8 2 10 2v-116h-98c2 4 2 6 2 10 0 18-6 34-18 46s-24 18-40 20c0 0-2 0-4 0 0 0 0 0 0 0s-2 0-2 0-4 0-4 0c-16-2-28-8-40-20s-18-28-18-46c0-4 0-6 2-10h-98v-128c4 2 8 2 14 2 2 0 2 0 4 0 16-2 30-6 42-18s18-26 20-42c-2-16-8-32-20-42-12-12-26-18-42-18-2 0-2 0-4 0-6 0-10 0-14 0v-128h98c-2-2-2-6-2-10 0-18 6-32 18-46 12-12 24-18 40-18 0 0 2 0 4 0 0 0 2 0 2 0s0 0 0 0c2 0 4 0 4 0 16 0 28 6 40 18 12 14 18 28 18 46 0 4 0 8-2 10h102v-96c-2 0-6 2-10 2-18 0-32-6-46-18-12-12-18-24-18-40 0 0 0-2 0-4 0 0 0 0 0 0 0-2 0-2 0-2 0-2 0-4 0-4 0-16 8-28 18-40 14-12 28-18 46-18 4 0 8 0 10 2v-98h128c0 4-2 10-2 14 0 2 0 4 2 4 0 16 6 30 18 42 10 12 24 18 42 20 16-2 30-8 42-20 10-12 16-26 18-42 0 0 0-2 0-4 0-4 0-10-2-14h128v98c4-2 6-2 10-2 18 0 34 6 46 18s18 24 20 40c0 0 0 2 0 4 0 0 0 0 0 2 0 0 0 0 0 0 0 2 0 4 0 4-2 16-8 28-20 40s-28 18-46 18c-4 0-6-2-10-2v96h98c0-2-2-6-2-10 0-18 6-32 18-46 12-12 26-18 40-18 2 0 2 0 4 0 0 0 2 0 2 0s0 0 0 0c2 0 4 0 6 0 14 0 28 6 38 18 12 14 18 28 18 46 0 4 0 8 0 10h98v128c-6 0-10 0-16 0 0 0-2 0-4 0-16 0-30 6-42 18-12 10-18 26-18 42s6 30 18 42c12 12 26 16 42 18 2 0 4 0 4 0 6 0 10 0 16-2v128h-98c0 4 0 6 0 10 0 18-6 34-18 46-10 12-24 18-38 20-2 0-4 0-6 0 0 0 0 0 0 0s-2 0-2 0-2 0-4 0zM828 666c8 8 16 12 26 12 2 0 2 0 4 0s2 0 2 0 0 0 0 0c2 0 4 0 6 0 10 0 18-4 24-12 8-8 12-18 12-30 0-10-2-20-10-28h108v-90c-20 0-40-8-56-22-14-16-22-34-24-56 2-22 10-40 24-56 16-16 36-24 56-24v-90h-108c8-6 10-18 10-26 0-12-2-22-12-30-6-8-14-12-24-12-2-2-4-2-6-2 0 0 0 0 0 0s0 0-2 0-2 0-4 2c-10 0-18 4-26 12s-12 18-12 30c0 10 4 20 10 26h-108v90c22 0 42 8 56 24 16 16 24 34 24 56s-8 40-24 56c-14 16-34 22-56 22v90h108c-6 8-10 18-10 28 0 12 4 22 12 30zM718 848c10 0 20-4 30-12 8-10 12-20 12-30 0-12-4-22-12-30-8-10-20-12-30-12-12 0-22 2-30 12h-2v-128h-98c0 0 0 2 0 2 0 2 0 2 0 2 0 2 0 2 0 2 0 4 0 10-2 16-2 14-10 26-22 38-14 16-34 22-56 22s-40-6-56-22c-10-12-18-24-22-38 0-6-2-12-2-16 0 0 0 0 0-2 0 0 0 0 0-2 0 0 0-2 0-2h-90v122c-6-8-16-12-28-12-10 0-20 6-28 14s-12 18-12 30c0 10 2 20 12 30 8 8 18 12 28 12 12 0 22-4 28-10v108h90c0-22 8-42 24-56 16-16 34-24 56-24s42 8 56 24c16 14 24 34 24 56h98v-106h2c8 8 18 12 30 12zM132 666c8 8 16 12 26 12 0 0 2 0 4 0 0 0 0 0 0 0 2 0 2 0 2 0s2 0 4 0c10 0 18-4 26-12s12-18 12-30c0-10-4-20-10-28h108v-90c-22 0-40-8-56-22-16-16-24-34-24-56s8-40 24-56c16-16 34-24 56-24v-90h-108c6-6 10-18 10-26 0-12-4-22-12-30s-16-12-26-12c-2-2-4-2-4-2s0 0-2 0c0 0 0 0 0 0-2 0-4 0-4 2-10 0-18 4-26 12s-12 18-12 30c0 10 4 20 10 26h-108v90c22 0 40 8 56 24s22 34 22 56c0 22-6 40-22 56s-34 22-56 22v90h108c-6 8-10 18-10 28 0 12 4 22 12 30zM434 236c0-22 8-40 24-56 14-16 34-24 54-24 22 0 42 8 56 24 16 16 24 34 24 56h90v-110c8 8 18 12 28 12 12 0 22-4 30-14 8-6 10-14 12-24 0-2 0-4 0-6 0 0 0 0 0 0 0-2 0-4 0-4-2-10-4-18-12-26s-18-12-30-12c-10 0-20 4-28 10v-108h-90c0 22-8 40-24 56-14 16-34 24-56 24-20 0-40-8-54-24-16-16-24-34-24-56h-90v108c-8-6-18-10-28-10-12 0-22 4-30 12-6 6-10 16-12 26 0 0 0 2 0 4 0 0 0 0 0 0 0 2 0 4 0 6 2 10 6 18 12 24 8 10 18 14 30 14 10 0 20-4 28-12v110z" />
<glyph unicode="&#x4a;" glyph-name="ax" d="M94 960c-32 0-62 0-94 0v-1024h1026v1024zM106 854h812v-812h-812zM760 484c-38-12-74-26-108-48l-280-172-222 182v-358h726v406h-78c-12-2-26-6-38-10zM340 754c-28-2-52-12-72-32-22-24-34-50-34-80s12-58 34-80c20-20 46-32 76-32 0 0 2 0 2 0 32 0 58 10 80 32s34 50 34 80c0 30-12 56-34 80-22 20-48 32-80 32 0 0-2 0-2 0-2 0-4 0-4 0z" />
<glyph unicode="&#x4b;" glyph-name="amuzesh2" d="M698 318h-14v6h-660v-58h446l-208-206 50-50 182 182v-256h68v256l136-136v98l-114 112h114zM874 318h-14v-52h16c-2 4-2 8-2 10v44zM1004 856v58h-442v46h-96v-46h-442v-58zM798 742c26 0 48-8 66-26s28-42 28-66c0-26-10-48-28-66-2-2-4-2-4-4 0 0-2-2-2-2h68l46-58v306h-922v-476h636v122l-236 2c0 0 0 0 0 0-8 0-14 2-18 8-4 2-6 6-8 10 0 2 0 6 0 8 0 6 0 10 0 14 0 2 0 4 0 8s0 8 0 12c0 2 0 6 0 8 0 14 2 24 8 30 4 4 10 8 18 8h262v-2h26c0 2-2 2-2 2s-2 2-4 4c-18 18-26 40-26 66s8 48 26 66c18 18 40 26 66 26zM706 494v-176h12v-334c0-2 0-4 0-6 0 0 0 0 0 0 0-12 4-22 12-30s18-12 28-12c12 0 22 4 30 12 6 4 10 10 10 16 4-6 6-12 10-16 10-8 18-12 30-12s22 4 30 12c8 6 12 16 12 28v342h14v-20c0-8 4-14 8-20 6-4 12-6 20-6 6 0 12 2 18 6 4 6 8 12 8 20 0 0 0 0 0 0v212l-38 46h-38l-64-62h-12l-64 62h-262c-6 0-14-2-18-6-4-6-8-16-8-28 0-8 4-16 8-20s12-8 18-8c0 0 0 0 2 0h234zM864 646c0 20-6 36-20 48-12 14-28 20-46 20s-34-6-48-20c-12-12-18-28-18-48 0-18 6-32 18-46 14-12 30-18 48-18s34 6 46 18c14 14 20 28 20 46z" />
<glyph unicode="&#x4c;" glyph-name="b12" d="M876 916c0 30-16 44-44 44h-638c-30 0-44-14-44-44v-938c0-30 16-44 44-44h638c28 0 44 14 44 44zM628 898v-42h-224v42zM352 16h68v-40h-68zM452-24v40h100v-40zM584 16h68v-40h-68zM804 80h-578v734h578z" />
<glyph unicode="&#x4d;" glyph-name="b13" d="M940 806c0 24-12 38-38 38h-784c-26 0-38-14-38-38v-534h860zM852 768v-430h-684v430zM74 248l-74-112v-86h1026v86l-82 112zM494 216v-26h-104v26zM526 190v26h110v-26zM498 160v-40h-118v40zM534 120v40h124v-40zM266 216h88v-26h-88zM342 160v-40h-100v40zM238 216v-26h-110v26zM210 160v-40h-124v40zM838 160h100v-40h-100zM886 216v-26h-90v26zM810 160v-40h-116v40zM772 216v-26h-104v26z" />
<glyph unicode="&#x4e;" glyph-name="b14" d="M576 742l34 14-56 204-36-10zM668 540l-22 84-38-12 60-206 34 14-26 94c58 4 70 48 32 132l-28-10c28-52 24-84-12-96zM576 608l-28 22-128-220-82 46-18-36 112-62zM506 442l20-74-186-50-48 188 184 50 24 40-252-68 66-254 254 68-38 144zM854 334l-28-10c26-52 22-82-12-94 2 22-4 48-18 78l-28-10c22-46 22-76-2-90-4-2-8-4-12-6l-22 82-36-10 54-206 34 12-20 88c12 4 24 12 34 20 2 4 4 6 6 10h16c50 24 62 70 34 136zM478 680l-68 254-254-68 68-254zM386 892l50-188-186-48-50 186 186 50zM336 190l70-254 254 68-70 254zM430-18l-50 186 186 48 52-186-188-48z" />
<glyph unicode="&#x4f;" glyph-name="b15" d="M582 818h86v-74c22-4 44-14 62-26l56 54 60-60-56-56c2-4 4-8 6-10 8-18 16-34 18-52h80v-84h-80c-4-22-12-42-24-62l56-56-60-60-56 56c-8-4-16-10-24-14l-8-54c2-6 2-12 2-18 0-8 0-14 0-22 0-100-34-184-106-252-44-48-96-78-154-94h576v1026h-540c-168-14-260-102-274-268v-84c42 20 90 30 142 30 14 0 28-2 42-4l60 8c4 6 6 12 10 18l-50 50 62 60 50-50c20 12 40 20 64 24v74zM678 594c-16 14-34 22-54 22-22 0-40-8-56-22-6-8-10-16-14-24 14-12 28-24 40-36 22-22 40-44 56-68 10 4 18 8 28 20 16 14 24 32 24 52 0 22-8 40-24 56zM576 514c-10 10-20 18-30 26-34 28-72 48-116 60-12 2-26 6-40 8-16 2-32 2-50 2-92 0-170-32-236-96-62-64-96-142-96-234s34-170 96-236c66-64 144-96 236-96s172 32 236 96c44 46 74 98 88 156 6 24 8 50 8 80 0 18-2 36-4 54-8 46-24 88-48 126-14 20-28 38-44 54zM408 416c4-2 8-6 14-8 12-6 22-14 32-24 12-10 22-24 28-36 4-8 8-16 12-24 4-16 6-32 6-50 0-44-14-80-46-110-30-30-66-44-108-44-44 0-82 14-112 44s-46 66-46 110c0 44 14 80 46 110 30 30 68 46 112 46 22 0 44-6 62-14zM374 352c-8 6-20 6-28 6-24 0-42-6-58-24-16-14-22-32-22-54 0-24 6-44 22-60 16-14 34-20 58-20 20 0 38 6 56 20 12 14 18 28 22 44 0 4 0 10 0 16 0 22-8 40-22 54-10 10-18 16-28 18z" />
<glyph unicode="&#x50;" glyph-name="b16" d="M934 574c0 20-10 30-32 30h-630c-22 0-34-16-30-46v-412h692zM312 198v346h552v-346zM954 472h68v454h-844v-148h74v92h702zM954 454v-92h34c24 0 34 10 34 32v60h-68zM372 732c0 8-2 12-4 16-4 6-10 8-20 8h-326c-14 0-22-8-22-22v-480c0-16 8-24 22-24h194v74h-178v378h298v-52h36v102zM244 724v-20h-114v20zM206 272v-20h-50v20zM104 252v20h34v-20zM178 36v-68h824v68l-66 92h-698zM368 100v-20h-88v20zM246 24v32h100v-32zM372 24v32h80v-32zM462 80h-70v20h70zM484 24v32h94v-32zM492 80v20h84v-20zM888 100v-20h-72v20zM798 100v-20h-84v20zM850 24v32h82v-32zM828 56v-32h-92v32zM600 80v20h88v-20zM606 24v32h100v-32z" />
<glyph unicode="&#x51;" glyph-name="backrast1" d="M1022 448c0 142-50 262-150 362-98 100-220 150-360 150-142 0-262-50-362-150s-150-220-150-362c0-140 50-262 150-362 100-98 220-148 362-148 140 0 262 50 360 148 100 100 150 222 150 362zM820 756c86-84 128-186 128-308 0-120-42-222-128-308-84-86-188-128-308-128s-222 42-308 128c-84 86-126 188-126 308 0 122 42 224 126 308 86 86 188 128 308 128s224-42 308-128zM490 846v-120l214-214h-562v-120h562l-214-214v-120l394 394z" />
<glyph unicode="&#x52;" glyph-name="backrast2" d="M1022 448c0 142-48 262-150 362-100 100-220 150-360 150-142 0-262-50-362-150s-150-220-150-362c0-140 50-262 150-360 100-100 220-150 362-150 140 0 260 50 360 150 102 98 150 220 150 360zM490 726v120l394-394-394-394v120l214 214h-562v120h562z" />
<glyph unicode="&#x53;" glyph-name="bakhsha-amuzesh" d="M1002 854v58h-442v48h-96v-48h-442v-58zM980 348v478h-932v-478zM664 698v62h242v-240h-64v134l-242-242-240 240-212-212-38 36 250 250 234-236 206 208h-134zM310 8l180 182v-256h70v256l182-180 48 48-206 206 418 2v56h-980v-56h420v-2h26l-208-206z" />
<glyph unicode="&#x54;" glyph-name="bakhsha-asnad" d="M874 736c42 0 64-22 64-66v-386h20c44 0 66 20 66 66v460c0 44-22 66-66 66h-378v18c0 38-16 60-48 64-4 2-10 2-14 2h-196c-44 0-64-22-64-66v-74h178c6 0 10-2 16-2 30-4 46-26 46-64v-18h376zM768 462c0 44-22 66-66 66h-378v20c0 36-16 58-46 64-6 0-10 0-16 0h-194c-6 0-14 0-18 0-32-6-48-28-48-64v-546c0-44 22-66 66-66h634c40 0 62 18 66 52 0 4 0 10 0 14zM908 630c0 44-24 66-66 66h-380v18c0 38-14 58-46 64-4 2-10 2-16 2h-194c-10 0-16 0-24-4-28-6-40-28-40-62v-58h162c6 0 12-2 16-2 30-6 46-26 46-64v-18h376c42 0 64-22 64-66v-404h36c38 0 60 18 64 52 0 4 2 10 2 16v460z" />
<glyph unicode="&#x55;" glyph-name="bakhsha-bahs" d="M698 498c-18-24-26-50-26-80 0-26 8-52 22-74 6-6 12-14 18-20 2-2 4-4 6-6 26-24 54-36 90-36 10 0 20 2 28 4 18 4 34 12 50 22 6 4 12 10 18 16 26 26 40 58 40 94 0 38-14 70-40 98-26 26-58 38-96 38s-70-12-96-38c-6-6-10-12-14-18zM122 512c-18-22-26-48-26-78 0-38 14-70 40-96 2-2 4-4 6-6 24-22 54-34 90-34 30 0 56 8 78 24 6 6 12 10 16 16 28 26 42 58 42 96s-14 70-42 96c-24 26-56 38-94 38s-70-12-96-38c-6-6-10-12-14-18zM232 266c-42 0-76 14-108 40-54-88-92-192-114-312 166-60 308-60 426 0-22 114-58 216-110 302-26-20-58-30-94-30zM904 280c-20-14-42-22-66-26-10-2-20-2-30-2-42 0-76 12-106 38-6-8-12-18-18-26-30-56-54-116-74-182-10-32-18-68-24-102 78-28 148-44 214-46 78-2 150 14 212 46-22 114-58 214-108 300zM586 916c-2 22-14 38-34 42-8 2-14 2-20 2h-236c-8 0-14 0-20-2-22-6-34-22-34-52v-142c0-36 18-54 54-54h46v-66l104 66h86c36 0 54 18 54 54v142c0 4 0 6 0 10zM612 792v-50c-4-34-24-54-62-60h-96l-72-44v-42c0-36 18-54 56-54h84l104-68v68h46c36 0 56 18 56 54v142c0 36-20 54-56 54h-60z" />
<glyph unicode="&#x56;" glyph-name="bakhsha-bazar" d="M820 704c0-22 6-40 18-56 0-2 2-4 4-6 2-4 4-6 6-8 4-4 6-6 10-8 6-6 14-12 24-16 8-2 18-6 30-6 2 0 6 0 8 0 0 0 0 0 2 0 0 0 0 0 0 0 14 0 28 2 38 6 12 6 24 14 34 24 20 20 30 44 30 72l-102 102h-820l-102-102c0-26 8-46 22-64 2-4 6-6 8-8 2-4 6-6 8-8 10-8 20-14 30-18 8-2 18-4 28-4 0 0 2 0 4 0 0 0 0 0 2 0 0 0 0 0 0 0 16 0 32 4 46 10 6 2 12 6 16 10s8 6 12 10c18 20 28 42 28 70 0-24 8-44 22-62 4-4 6-6 8-8 4-4 6-6 10-8 16-16 38-22 62-22 0 0 0 0 0 0s0 0 0 0c4 0 8 0 12 0 24 2 44 12 62 30 20 18 30 42 30 70 0-18 4-36 14-50 2-4 4-8 8-12 2-4 4-6 8-8 2-4 4-6 8-8 8-8 20-14 30-18 10-2 20-4 32-4 2 0 2 0 2 0s0 0 0 0c16 0 32 4 46 10 10 4 18 12 26 20 10 8 16 18 20 28 8 12 10 26 10 42 0-24 8-44 24-62 2-4 4-6 6-8 2-4 6-6 8-8 18-14 38-22 60-22 2 0 2 0 4 0 0 0 0 0 0 0s0 0 0 0c28 0 50 8 70 26 0 0 2 2 4 4 18 18 28 42 30 70zM912 870c-2 4-2 8-4 12-8 24-28 36-60 36h-688c-34 0-54-12-62-36 0-6 0-10-2-14 0-4 0-8 0-14v-8h816v8c0 6 0 10 0 16zM912 556c-28 2-52 10-74 24v-228h-674v212c-16-4-36-8-56-8 0 0 0 0 0 0s-2 0-2 0-6 0-8 0c-2 0-2 0-2 0v-514c0-44 22-64 64-64h688c44 0 64 20 64 64v514z" />
<glyph unicode="&#x57;" glyph-name="bakhsha-dade" d="M1016 696c-2-4-2-6-4-10-10-26-32-50-70-72-20-12-44-24-72-34-98-38-218-56-356-56-140 0-260 18-358 56-28 12-52 22-72 34-38 22-60 46-70 72-2 4-2 8-4 12 0 0-2 2-2 2v-144c0-2 0-2 0-2 0-8 0-14 2-20 2-10 6-20 12-30 8-10 16-18 24-26 16-14 34-28 58-40 16-6 32-14 52-22 18-8 38-14 60-20 30-8 62-16 96-20 62-12 128-16 202-16 62 0 120 4 174 12 66 8 126 22 180 42 0 0 2 2 2 2 14 6 26 10 36 16 32 14 58 30 78 48 0 0 0 2 0 2 16 14 26 28 30 44 2 8 4 18 4 28 0 0 0 2 0 4 0 0 0 2 0 4v134c0 0 0 0-2 0zM1018 766c0 54-48 100-148 136-98 40-216 58-356 58s-260-18-358-58c-100-36-148-82-148-136 0-10 2-20 6-30 0-4 2-8 6-12 10-22 32-42 64-62 20-12 44-24 72-34 100-38 218-56 358-56s258 18 356 56c28 10 52 22 72 34 32 20 54 40 66 62 2 4 4 8 4 12 4 10 6 20 6 30zM1018 340c0 2 0 4 0 4 0 2 0 2 0 4v136c0 0 0 0-2 0-2-4-2-8-4-10-8-26-32-50-70-72-20-14-44-24-72-34-98-38-216-56-356-56s-260 18-358 56c-28 10-52 20-72 34-36 22-60 46-70 72-2 4-2 8-4 12 0 0-2 0-2 2v-146c0 0 0 0 0-2 0-6 0-12 2-18 2-12 6-20 14-32 6-8 14-16 22-26 16-12 34-26 58-38 16-8 32-16 52-22 20-8 40-14 60-20 30-10 62-16 96-22 62-10 128-16 202-16 62 0 120 6 174 12 66 10 126 24 180 44 0 0 2 2 2 2 14 4 26 10 36 14 34 16 60 32 78 50 0 0 0 0 0 0 16 14 26 30 30 44 4 10 6 20 6 28zM10 276c0 0-2 0-2 2v-146c0 0 0 0 0-2 0-6 0-12 2-20s6-20 12-30c8-8 14-18 24-26 16-12 34-26 58-38 16-8 32-14 52-22 18-8 38-14 58-20 32-10 64-16 98-22 62-10 128-16 202-16 62 0 120 4 174 12 66 10 126 24 180 44 0 0 2 2 2 2 14 4 26 10 36 14 32 16 58 32 78 50 0 0 0 0 0 0 16 16 24 30 30 46 2 8 4 16 4 26 0 2 0 4 0 4 0 2 0 2 0 4v136c0 0 0 0-2 0-2-4-2-8-4-10-8-26-32-50-70-74-20-10-44-22-72-32-98-38-216-56-356-56s-260 18-358 56c-28 10-52 22-72 32-36 24-60 48-70 74-2 4-2 8-4 12z" />
<glyph unicode="&#x58;" glyph-name="bakhsha-daneshname" d="M858 712c6 2 12 4 16 8 24 10 44 24 62 36-16 22-34 44-54 64-52 50-106 88-168 112 0-2-2-4-4-6 0-4-4-8-6-10-4-4-8-6-12-8 24-26 46-60 66-100 8-16 16-34 22-50 2 0 2 0 2 0 6 0 14-2 20-4 16-4 30-12 42-24 6-6 10-12 14-18zM870 666c0 0 0 0 0-2 0-8-2-16-2-24-6-16-12-30-24-42-6-6-12-10-20-14 2-14 4-30 6-44 0-14 2-28 2-42 0-8 0-16 0-24h194c0 8 0 16 0 24-6 78-26 150-62 214-8-4-16-10-26-14-22-12-44-22-68-32zM566 868c-10 0-20-2-32-2v-218c56 0 110 4 158 14 0 0 0 2 0 2 0 8 2 18 4 24 4 16 12 30 22 42 4 4 8 8 12 10-8 22-18 44-30 64-18 32-36 60-56 80-22-8-48-14-78-16zM718 598c-6 6-10 14-14 20-52-10-110-18-170-20v-58c18-2 32-12 44-24s20-26 26-42h174c0 8 0 16 0 24 0 14-2 28-2 40-2 12-2 24-4 34-4 0-8 0-12 2-16 4-30 12-42 24zM604 424c-6-16-14-30-26-42s-26-20-44-24v-58c60-2 118-10 170-20 4 8 8 14 14 20 14 12 26 20 42 24 4 2 8 2 12 2 2 10 2 22 4 32 0 14 0 28 2 44 0 6 0 14 0 22h-174zM832 424c0-8 0-16 0-22 0-16-2-30-2-44-2-14-4-28-6-42 8-4 14-10 20-16 12-12 18-26 24-40 0-10 2-18 2-26 0 0 0 0 0-2 24-10 46-20 68-32 10-4 18-10 26-14 36 64 56 136 62 216 0 6 0 14 0 22h-194zM490 866c-10 0-22 2-32 2-28 4-54 8-78 16-18-20-38-48-54-80-12-20-22-42-32-64 6-2 8-6 12-10 12-12 20-26 24-42 2-6 2-14 2-24 0 0 0-2 0-2 50-10 102-14 158-14v218zM332 908c-4 2-6 4-10 8-2 2-6 6-8 10-2 2-2 4-4 6-60-24-114-62-166-112-20-20-38-42-54-64 16-12 38-26 60-36 6-4 12-6 18-8 4 6 8 12 14 18 12 12 24 20 40 24 8 2 14 4 22 4 0 0 0 0 0 0 6 16 14 34 22 50 20 40 44 74 66 100zM86 698c-8 4-16 10-24 14-38-64-58-136-62-214 0-8 0-16 0-24h192c0 8 2 16 2 24 0 14 2 28 2 42s2 28 4 44c-6 4-12 8-18 14-12 12-20 26-24 42-2 8-2 16-2 24 0 0 0 0 0 2-24 10-48 20-70 32zM254 572c-2-10-4-22-4-34-2-12-2-26-2-40-2-8-2-16-2-24h176c4 16 12 30 24 42 14 12 28 22 44 24v58c-60 2-116 10-170 20-4-8-8-14-14-20-12-12-26-20-42-24-4-2-6-2-10-2zM0 424c0-8 0-16 0-22 4-80 24-152 62-216 8 4 16 10 24 14 22 12 46 22 70 32 0 0 0 0 0 2 0 8 0 16 2 24 4 16 12 30 24 42 6 6 12 10 18 16-2 14-4 28-4 42-2 14-2 28-2 44-2 6-2 14-2 22h-192zM248 402c0-16 0-30 2-42 0-12 2-24 4-34 4 0 6 0 10-2 16-4 30-12 42-24 6-6 12-12 14-20 54 10 110 18 170 20v58c-16 4-30 12-44 24-12 12-20 26-24 42h-176c0-8 0-16 2-22zM332 236c0 0 0-2 0-2 0-8 0-18-2-24-4-16-12-30-24-42-4-4-6-6-12-10 10-22 20-44 32-64 16-32 36-58 54-80 24 8 50 14 78 16 10 2 22 2 32 2v218c-56 0-108-4-158-14zM166 186c-4-2-10-6-16-8-22-10-44-24-60-36 16-22 34-44 54-64 50-50 106-88 166-112 2 2 2 6 4 6 2 4 4 8 8 10 4 4 6 6 10 8-22 26-46 60-66 102-8 16-16 32-22 50 0 0 0 0 0 0-8 0-14 0-22 2-16 4-28 12-40 24-6 6-12 12-16 18zM874 180c-4 0-10 4-16 6-4-6-8-12-14-18-12-12-26-20-42-24-6-2-14-2-20-2-2 0-2 0-2 0-6-18-14-34-22-50-20-42-42-76-66-102 4-2 8-4 10-6 4-4 6-8 8-10s4-6 4-8c62 24 116 62 166 112 22 20 40 42 56 64-18 14-38 26-62 38zM692 234c0 0 0 2 0 2-48 10-102 14-158 14v-218c12 0 22-2 32-2 30-4 56-8 78-16 20 22 38 48 56 78 12 22 22 44 30 66-4 4-8 6-12 10-12 12-18 26-22 42-2 6-4 14-4 24z" />
<glyph unicode="&#x59;" glyph-name="c2" d="M1022 898c0 40-18 60-56 62h-418v-476h474v414zM708 906h262v-262zM1022 412h-474v-476h414c40 0 60 22 60 62zM744 344h204v-206zM58 960c-38-2-56-20-58-58v-418h476v476zM404 878v-206l-204 206zM476 412h-476v-418c2-38 22-58 62-58h414zM248 324h140v-140z" />
<glyph unicode="&#x5a;" glyph-name="c1" d="M680 496c0-4 0-6 0-8 0-4 2-6 4-10 0-2 2-4 4-4 6-2 12-2 22-2 14 0 26 2 34 8 8 4 14 10 18 18 2 10-2 16-10 24-2 0-2 0-2 0-8 8-18 12-26 12-10 2-20-2-30-12 0 0-2 0-2-2-8-8-12-14-14-22 0-2 0-2 0-2zM846 494c-2 8-6 14-12 18s-14 8-24 10c-2 0-4 0-6 0s-2 0-4 0c-4 0-8-2-12-4-4-6-6-12-6-20 0-6 0-12 2-18 38-4 56-4 60 0s4 8 2 14zM734 810c-30 30-62 58-96 84-110 96-194 88-250-24-12-22-24-42-34-64-54-98-104-192-146-286-28-64-56-126-78-186-22-62-14-104 24-130l334-224c32-24 58-38 76-44 18 2 42 16 68 44 74 92 138 190 188 296 10 24 20 46 30 68s18 46 26 70c8 26 18 50 26 76 8 40 6 76-8 110-4 8-8 16-12 24-2 4-6 8-8 14-20 30-40 58-62 84-24 32-50 60-78 88zM576 658c2 14 6 30 10 44 0 6 2 12 4 20 6 18 12 34 20 50 2 4 6 6 8 0l6-232c0 0 0-2 0-2-2-2-2-6-2-10 0-6-2-14-2-20-2-8-4-16-6-22 0-2 0-4-2-6-2-12-6-24-10-34-2-4-4-6-6-10s-4-8-8-12c-8-8-12-6-10 4 2 6 2 12 2 18 2 4 2 10 2 14s0 6 0 10c2 16 2 30 2 44 0 8 0 16-2 22-2 26-2 50-4 76 0 16-2 30-2 46zM518 896c4-4 4-8 4-14-6-22-14-42-28-60-2-4-4-6-6-6-4 0-6 2-10 4l-40 22c-4 2-6 4-6 8 0 2 0 4 2 8 6 20 14 42 24 64 6 14 16 16 30 4 10-6 20-16 28-26 2-2 2-2 2-4zM672 518c6 12 12 26 20 40 8 28 16 48 26 64 16-20 38-38 72-48 30-12 48-20 60-24 10-4 18-10 22-16 2-4 4-8 4-12 0-24 0-44-4-56-4-18-14-26-28-28-12-2-22-2-30-2h-36c-8 0-16 0-22 0s-16-2-34-6c-16-4-30-12-42-24-12-14-18-22-18-24 24-6 38-16 44-30 4-10 2-22-4-38-16-34-40-52-74-56-8 0-16-2-26-4-26-4-52-10-82-20-16-6-34-18-60-36-2-2-4-4-6-6-22-20-44-48-64-88 10 36 24 70 46 100 8 12 18 24 28 36 4 6 10 12 16 18 22 22 48 42 76 58l60 86c10 12 20 24 30 34 4 4 8 8 12 12-2 10-2 20 2 36 0 4 2 8 2 12 4 6 6 14 10 22zM552 582c4-16 6-32 4-48-2-42-20-80-54-116-2-2-6-6-8-8 0 0 0-2-2-2-12-4-24-8-34-12-34-12-58-26-72-46-2-2-6-4-10-10-4-4-10-12-18-22-6-8-12-14-18-22-2 0-2-2-4-4-4-6-8-12-12-18-10-14-50-40-126-80 26 20 54 46 80 78 12 12 22 26 32 38 8 12 16 24 26 34 0 2 0 2 0 2 10 12 18 24 28 36 16 24 36 42 58 56 16 8 30 14 44 20 4 0 6 2 10 4 18 6 28 12 34 20-2 18-8 26-18 30-4-2-10-4-18-4-30 0-42 14-32 42 0 0 0 2 0 2 12 24 24 50 38 74 8 8 20 10 38 2 16-8 28-22 34-46zM350 702c2 6 6 6 8 0l-4-230c0-2 0-2-2-2-6-50-20-86-40-114v0c-8-6-12-6-10 6 6 26 8 54 10 84 0 8 0 14 0 22-2 26-2 52-2 76 0 16 0 30 2 46 2 12 4 24 8 34 6 24 14 46 24 68 2 4 2 6 6 10zM458 786c6 14 16 16 30 6 10-8 20-18 30-28 2-6 4-12 2-18-4-22-12-42-26-60 0-2 0-2-2-2-2-2-4-4-6-4 0 0 0 0-2 0 0 2-2 2-6 4l-40 24c-4 2-6 4-6 10 0 2 0 2 2 4 6 20 14 42 24 64z" />
<glyph unicode="&#x5b;" glyph-name="d10" d="M622 960v-54h342v-910h-342v-60h400v1024zM404 906v54h-402v-1024h402v60h-340v910zM796 732h-572v-576h572z" />
<glyph unicode="&#x5c;" glyph-name="dargah-2" d="M832 850c0 74-36 110-110 110h-426c-72 0-108-36-108-110v-698h644zM624 552c16 14 32 22 54 22s38-8 52-22c16-14 24-32 24-54 0-20-8-38-24-52-14-16-30-22-52-22-20 0-38 6-54 22-14 14-22 32-22 52 0 22 8 40 22 54zM66 78v-142h894v142z" />
<glyph unicode="&#x5d;" glyph-name="d11" d="M408 228c0 24-12 36-34 36h-202v10c0 20-8 32-26 34-2 0-4 0-8 0h-104c-4 0-6 0-10 0-16-2-24-14-24-34v-290c0-24 12-36 34-36h340c20 0 32 10 34 28 0 2 0 4 0 8v246zM674 584c0 0 0 2 0 2 0 4 0 8 0 12 0 10-2 18-10 26v0c-6 6-16 10-26 10-2 2-6 0-10-2h-212c-10 0-18-2-26-10-6-8-8-16-8-24v-2c0-10 4-18 8-26 8-6 16-10 26-10h134l-156-158c-8-6-12-14-12-24s4-18 10-24l2-2c6-6 16-10 24-10 12 0 20 4 26 10l156 156v-132c0-10 4-20 12-26 6-6 16-10 24-10h2c10 0 18 4 26 10 6 6 8 16 8 26l2 208zM1022 712l-24 24c-52 52-104 106-158 158-8 10-16 18-26 26l-26 26h-146v-144l234-236 146 146zM680 906c6 6 14 10 24 10 8 0 16-4 22-10s10-14 10-22c0-10-4-16-10-22-6-8-14-10-22-10-10 0-16 2-24 10-6 6-8 12-8 22 0 8 2 16 8 22z" />
<glyph unicode="&#x5e;" glyph-name="d12" d="M964 356c4 4 4 4 8 4 8 8 16 14 24 22 18 18 28 40 28 66v2c0 26-10 48-28 68-8 6-16 12-24 16l-398 398c-18 18-42 28-70 28-24-2-46-12-62-28l-4-4c-18-18-28-40-30-66 2-26 12-48 30-66l252-252h-592c-28 0-48-8-66-26-20-20-30-42-30-68v-2c0-26 10-48 30-68 18-18 38-28 66-28h588l-250-250c-20-18-28-42-28-70 2-26 10-46 28-62l2-4c20-18 42-28 66-32 26 4 48 14 68 32l394 390z" />
<glyph unicode="&#x5f;" glyph-name="d13" d="M588 930l-4 2c-16 16-36 26-64 28-26 0-50-8-68-28l-398-396c-8-6-18-12-24-18-18-20-28-40-28-66v-4c0-26 10-48 28-66 6-8 16-14 24-20 4 0 6-2 8-4l392-392c20-18 42-28 66-30 28 2 50 12 68 30l4 4c14 16 24 38 28 64 0 28-10 50-28 68l-252 252h588c26 0 50 10 66 28 20 18 30 40 30 66v4c0 26-10 46-30 66-18 18-40 28-66 28h-590l250 250c18 20 28 42 32 66-4 26-14 48-32 66z" />
<glyph unicode="&#x60;" glyph-name="d14" d="M598 904c-4 10-10 18-16 26-20 18-42 28-66 28h-4c-26 0-48-10-66-28-6-8-14-16-22-26 0-2 0-4-2-6l-390-394c-20-18-30-40-32-66 2-26 12-48 32-66l2-4c16-16 38-26 64-28 28 0 50 10 70 28l250 252v-590c0-26 8-48 28-66 18-18 40-28 66-28h4c24 0 46 10 66 28 18 18 28 40 28 66v592l250-250c18-20 40-30 66-32 26 2 48 12 66 32l4 2c16 18 26 38 28 64 0 28-8 52-28 70z" />
<glyph unicode="&#x61;" glyph-name="1" d="M736 414c-76 0-140 28-192 80-54 54-80 118-80 194 0 58 14 108 46 154l-118 118h-392v-392l630-630 392 392-132 132c-46-32-96-48-154-48zM226 732c-16-18-36-26-60-26s-44 8-60 26c-16 16-26 36-26 60 0 22 10 42 26 60s36 24 60 24c24 0 44-6 60-24 18-18 26-36 26-60s-8-44-26-60zM968 688c0 62-24 116-68 162-46 46-100 68-164 68s-118-22-162-68c-14-12-24-26-34-40-22-36-34-76-34-122 0-64 22-118 68-164 44-44 98-68 162-68 46 0 88 12 124 36 14 10 26 20 40 32 44 46 68 100 68 164zM920 718v-62h-150v-146h-60v146h-146v62h146v146h60v-146z" />
<glyph unicode="&#x62;" glyph-name="1-2" d="M734 810c-30 30-62 58-96 84-110 96-194 88-250-24-12-22-24-42-34-64-54-98-104-192-146-286-28-64-56-126-78-186-22-62-14-104 24-130l334-224c32-24 58-38 76-44 18 2 42 16 68 44 74 92 138 190 188 296 10 24 20 46 30 68s18 46 26 70c8 26 18 50 26 76 8 40 6 76-8 110-4 8-8 16-12 24-2 4-6 8-8 14-20 30-40 58-62 84-24 32-50 60-78 88z" />
<glyph unicode="&#x63;" glyph-name="1-3" d="M734 810c-30 30-62 58-96 84-110 96-194 88-250-24-12-22-24-42-34-64-54-98-104-192-146-286-28-64-56-126-78-186-22-62-14-104 24-130l334-224c32-24 58-38 76-44 18 2 42 16 68 44 74 92 138 190 188 296 10 24 20 46 30 68s18 46 26 70c8 26 18 50 26 76 8 40 6 76-8 110-4 8-8 16-12 24-2 4-6 8-8 14-20 30-40 58-62 84-24 32-50 60-78 88z" />
<glyph unicode="&#x64;" glyph-name="1-4" d="M972 450c0 46-6 92-18 134-22 70-60 134-116 188-88 90-196 134-322 134-124 0-230-42-320-128 0-2-2-4-4-6-74-74-118-162-130-262-2-20-4-40-4-60 0-74 16-142 46-202 2-2 2-2 2-2 22-44 50-82 86-120 90-88 198-134 324-134s232 46 322 134c8 8 14 14 22 22 74 86 112 186 112 302zM886 600c20-48 30-102 30-158 0-110-40-204-118-282-4-2-6-6-10-12-76-68-166-104-270-104-110 0-206 40-284 116-20 22-38 44-52 66-8 10-12 18-18 28-8 12-14 28-20 42-16 46-26 94-26 146 0 28 2 54 8 80 4 26 12 50 22 74 18 48 48 90 86 128 22 22 44 40 66 54 64 42 136 64 218 64 110 0 204-40 280-116 38-40 68-82 88-126zM762 408c-4 18-12 30-24 34l-18-24c-2 6-4 10-6 14-4 4-10 8-16 10l-20-28c8-6 18-14 26-26l20 24c8-8 14-16 18-24l20 20zM808 616c0 0 0 0 0-2 22-108 36-214 40-316 14 30 10 122-12 274l14-12 2 14c-10 12-16 24-22 36-4 10-8 20-10 32zM688 768l-14-22c8-38 14-76 20-114 4-22 6-40 10-62 0-8 2-18 2-26l-40-48 30 20 12 12c0-8 2-16 2-26 2-20 4-40 4-60 4 26 6 52 4 82 0 6 0 12 0 18l22 22c4-6 10-10 18-12l-12 16c2 8 2 14 2 20-2 4-2 10-4 14-2 8-8 12-14 10s-8-8-8-18c0-6 0-12 2-16 2-2 4-4 6-6l-12-14c0 2 0 2 0 4-2 22-4 44-6 68-4 22-8 46-12 72l20-8 2 8c-12 12-22 26-28 38-4 10-6 18-8 28zM738 584c0-2 0-4 0-6-2 0-4 2-4 4-2 4-2 8 0 12l4 6c2-6 2-10 0-16zM328 758l-10-16 122 50 18 20zM604 550c0 4 0 6 0 6-2-2-2-2-4-6l-2-14c0-6 2-14 4-20 2-14 6-18 10-18 8 0 12 4 12 14 0 2-2 4-2 6-2 2-4 4-8 4-2 0-2 0-4-2 0 0 0 0 0 0-4 14-6 24-4 30zM662 302c0 2-2 4-6 4s-6-2-8-4c-2-4-4-6-8-6-2 0-4 2-4 4s-2 2-2 4c0 4 2 4 6 4 0 0 2 0 2 0 2 0 2-2 2-2 2 0 2 2 2 2s2 0 2-2c2 0 2 2 2 8 0 2 0 4-2 6-6 4-12 2-22-4-4-2-6-8-6-14 0-2 0-2 2-6s2-6 2-8c0 0 0-4-4-10-2-6-4-10-4-12s2-2 2-2 6 2 12 8c6 4 10 8 14 10 2 2 6 6 12 10 4 2 6 6 6 10zM422 290c6 6 10 12 10 22 0 8-2 8-8 4-2-2-6-8-10-14-10-4-22-8-38-14-24-8-40-14-46-16-8-4-10-12-10-20l2-10c2-8 6-12 12-12 0 0 2 4 2 10s0 12 0 14c0 2 6 8 20 10 8 2 18 4 30 8 18 4 30 12 36 18zM252 182c10 0 14 2 16 4 0 0 0 2 0 6 0 2 0 4 0 6-2 4-4 6-8 6h-4c0 14-2 18-4 14-4-4-6-10-6-18 0-2 0-6 2-8 0-6 2-10 4-10zM394 230c6 6 10 8 10 8 0 4-4 8-10 12-8 4-12 2-14-8 0-2-2-6-6-12-2-6-2-10-2-12-2 4-4 8-6 10-2 4-8 8-14 8-4 0-8-2-8-4s-2-2-2-6c0-2 0-4 2-6 0 0 2-2 4-4s4-4 10-6c4-2 6-2 8-4 0 0 2-4 6-12 2-6 4-10 6-10s4 4 4 10c0 8 0 14 0 16 0 10 4 16 12 20zM722 136c0 0 0 2 0 4 0 4 0 6 0 8-2 4-4 6-10 6h-2c0 14-2 18-4 14-4-4-6-10-6-18 0-2 0-6 2-10 0-6 2-8 4-8 8 0 14 2 16 4zM616 428c-6-2-10-4-12-6 2-2 2-2 4-2 6 0 12 2 14 4 4 2 6 4 10 8 0 0 2 4 6 8 0 2 0 2 0 4-8-10-16-14-22-18zM536 494c0 6 0 6-2-4s-4-16-6-22c-2-6-2-12 0-16 0-4 2-10 4-12 2-4 4-6 8-6s8 2 8 6c0 0 0 4 0 8 0 8-4 8-14 2 0 6 0 12 0 20s0 16 2 24zM744 488c0 8 0 16 2 24 0 6 0 6-4-4-2-10-4-18-4-24-2-6-2-10 0-14 0-6 2-10 4-14s4-6 8-6c4 0 6 2 8 6 0 2 0 4 0 8 0 8-4 10-14 4 0 4 0 12 0 20zM650 136c-2 4-4 8-6 12-4 4-8 6-14 6s-8-2-10-4c0 0 0-2 0-4 0-4 0-6 0-6 2-2 2-4 6-6 2 0 4-2 8-4 6-2 8-4 8-6 2 0 4-4 8-12 2-6 4-8 6-8s4 2 4 10c0 8-2 12 0 16 0 8 4 16 10 20 8 4 12 6 12 6 0 4-4 10-10 14-8 4-12 0-14-10-2 0-2-4-6-12-2-4-2-8-2-10zM378 126c-4-4-4-10-4-18 0-2 0-6 0-10 2-6 4-8 6-8 8 0 14 2 16 4 0 0 0 2 0 6 0 2 0 4 0 6-2 4-4 6-10 6h-2c0 14-2 18-6 14zM548 608c0 6-2 10-8 14-8 4-12 2-16-10 0 0-2-4-4-12-2-4-4-8-2-10-4 4-6 6-6 10-4 4-8 6-16 6-4 0-8 0-8-4 0 0 0-2 0-4 0-4 0-4 0-6 0 0 2-2 6-6 0 0 2-2 8-4 4-2 10-6 20-12 2-2 4-6 8-14-2 16-2 28 0 34 0 6 4 10 10 14 6 2 8 4 8 4zM426 616c4 6 4 12-2 16s-12 4-18 0c-6-4-10-10-14-18-4-10-6-14-6-18-2 4-4 8-6 10-4 4-8 8-14 8-4 0-8-2-8-4s-2-2-2-6c0-2 0-4 2-4 0-2 2-4 6-6 0 0 2-2 6-4 6-2 12-6 20-12 2-2 6-8 10-14-2 14-2 28 0 38 0 10 4 14 10 8 8-4 12-2 16 6zM326 622c0 0 0 2 0 6 2 2 0 4 0 6-2 4-4 6-8 6h-4c2 32 2 44-2 36-2-10-4-20-6-30s-2-16 0-20c0-4 2-8 4-8 10 0 14 2 16 4zM376 656c4 32 4 46 0 36s-6-18-6-28c-2-10-2-18-2-20 2-6 4-8 6-8 8 0 14 0 16 2 0 2 0 2 0 6 0 2 0 4 0 6-2 4-4 6-8 6zM502 690c0 4-2 8-8 8l-4-2c4 34 4 46 0 36-4-8-6-18-8-28 0-10 0-16 0-20 2-6 4-8 6-8 8 0 14 0 14 2 2 2 2 2 2 6 0 2 0 4-2 6zM676 624c0 2 0 4-2 6 0 4-4 6-6 6h-6c4 34 4 46 0 36-4-8-6-18-6-28-2-10-2-16-2-20 2-6 4-8 6-8 8 0 12 0 14 2s2 4 2 6zM502 284c-6 2-10 4-12 2-2 0-4 0-6-4 0-2-2-6-4-8-2-4-2-6-2-8 0 0 0-2 0-8 0 0 0-2 0-10 4-6 6-10 14-10s14 4 18 12c2 4 4 8 4 12 0 8-2 12-4 14 0 2-4 6-8 8zM490 254c0 0-2 0-2 2-2 0-2 2-2 2 0 4 2 6 4 10 4-2 8-4 8-4 2-2 2-4 2-4 0-4-2-6-10-6zM574 714c-2-2-4-6-6-8 0-4-2-6-2-8 0 0 0-2 0-6 0-2 0-4 2-12 2-6 6-10 12-10 8 0 14 4 18 12 2 4 4 8 4 12 0 8-2 12-2 14-2 2-6 6-10 8-6 2-8 4-12 2 0 0-2 0-4-4zM576 690c0 2 0 6 4 10 4-2 6-4 6-4 2-2 2-4 2-6s-2-4-8-4c-2 0-2 0-4 2 0 0 0 2 0 2zM866 486c0 8 0 16 2 24 0 6 0 6-2-4-4-10-6-18-6-22-2-6-2-12 0-16 0-4 2-8 4-12s4-6 8-6c4 0 6 2 8 6 0 0 0 4 0 8 0 8-4 8-14 2-2 6-2 12 0 20zM768 318c0 8 0 6-4-4-2-8-4-16-6-22 0-6 0-10 0-16 2-4 2-8 6-12 2-4 4-6 8-6s6 2 8 6c0 2 0 4 0 8 0 8-4 10-14 4-2 4-2 12 0 20 0 8 0 16 2 22zM478 356c-4-2-8-8-8-18 0-6 2-12 4-16 0-2 2-4 4-6l-30-40 18 10 22 22c4-6 12-10 18-12l-10 16c0 8 0 14 0 20 0 4-2 8-2 12-4 10-10 14-16 12zM482 326c0 4 0 8 0 12l4 4c2-4 2-10 2-14-2-2-2-4-2-6-2 0-2 2-4 4zM198 428l34 22 52 52c4-8 10-12 18-14l-12 18c2 6 2 12 0 18 0 4 0 10-2 14-4 10-8 12-14 10s-8-8-8-18c0-6 0-12 2-16 0-2 2-4 4-6l-74-80zM276 530l4 4c2-4 2-8 2-14 0-2-2-4-2-6-2 0-2 2-2 4-2 4-2 8-2 12zM616 792l-10-30c6-46 12-86 18-124 16-112 26-184 26-214 0-12 0-18-2-20-16-18-32-26-48-20-2 0-2 0-4 0l-14 130c-4 26-6 54-6 84l16-12v16c-10 12-18 26-22 40-4 6-6 14-8 20l-10-14 24-256c-8-6-58 36-148 124 30 10 62 2 96-22v34c-38 26-58 64-58 114-2 2-2 4 0 4h16c-16 14-26 30-28 50l-12-8v-56c8-22 20-50 32-86-40 6-68 6-82-6l-152 106c84 50 160 86 232 102 70 18 100 18 94 0-18-26-40-56-64-82v-18c28 32 54 66 78 100 0 8 2 14 2 20 0 10-2 18-6 22-6 4-40 0-104-14 0 0 0 0 0 0-66-14-148-52-248-112v-44l2 4-2-12 4 2-2-4 128-98c-108-118-168-150-184-98-8 38 2 68 34 94 10 8 18 16 20 26 2 4 4 10 2 16-2-10-6-16-12-18-2 0-4 0-6 0s-2 0-2 0c-10 0-12 12-6 32 6 16 14 32 26 44l-2 4v8c-22-18-34-40-38-64-2-10-2-18-2-28-2-10-2-22 0-32-16-20-24-44-26-72 0-38 16-58 50-60-18-24-24-48-24-74 0 0 0-2 0-2 0-12 2-22 6-32 2-6 6-12 10-18 10-12 24-16 38-12 16 4 30 14 38 32-4-18-2-34 2-52 2-8 6-18 14-34s26-26 56-32c28-6 50-4 66 4-4-22 0-38 12-54 28-20 52-20 72 0 22 30 42 54 62 72 8 6 14 12 18 16 42 26 80 44 118 52 2-22 18-34 46-36 18-2 32 0 38 4 20 14 32 34 32 64-2 50-6 104-12 162-2 26-6 54-10 82-2 20-6 38-10 58l-10 86 16-12 4 14c-16 16-24 38-30 64l-16-20c4-26 8-50 12-72 6-32 10-62 14-92 8-62 16-120 18-174 4-38 6-74 6-108 0-16-8-26-30-26h-30c-12 4-18 10-18 20 16 10 22 24 26 38 4 10 4 22 0 36 0 6-2 12-4 18-6 22-16 32-28 32-12-4-22-8-26-14-6-6-6-18-6-32 0-6 0-14 0-22 2-12 2-24 0-40-36-12-74-34-108-62-14-10-26-22-38-32-16-16-30-32-40-46-18-24-36-30-56-18-12 10-16 24-12 46 20 8 38 16 54 24 28 14 48 28 62 44s20 38 18 64l-24 58h24l-48 48v-44l20-38c2-6 6-16 12-32 4-16-2-30-18-44s-38-28-62-38c-8-4-16-8-28-12-2-2-6-2-8-4 0 2 0 4 0 4 0 16 6 32 14 48l18 22c-2 10-8 20-18 26l-24-22c8-6 14-10 16-16 0 0 0-2 0-2 2-2 2-4 2-6-8-16-14-32-16-48 0-2 0-4-2-8-2 0-6-2-10-2-24-6-50-4-74 2-18 6-28 16-36 30-8 12-12 28-12 48l4 16c2 4 6 6 10 8 4 4 10 8 16 12 24 16 50 30 82 38 44 14 68 28 74 42 8 16 8 32 6 48-4 14-18 36-40 62 60-56 102-94 128-114 16-10 24-16 28-14v-114l18 22v92c24 6 42 18 50 34 6 14 8 32 8 58 0 4-2 10-2 14l-38 276 16-14v20c-6 8-12 16-16 26s-8 20-10 30zM692 324c2 8 8 12 16 14 12-10 18-18 22-26 2-6 2-14 0-20-16-18-28-24-34-20-2 12-4 22-4 30-2 12-2 20 0 22zM204 340c6 16 20 26 36 30 16 6 62 46 136 122 32-20 60-50 82-92 10-14-12-30-64-48-54-18-88-34-106-50l-42-42c-18-12-32-14-40-2-2 4-4 10-6 18 0 4-2 8-2 12-2 22-2 40 6 52zM334 404c10-2 18-10 26-24l18 18 20-20 20 24c-4 10-12 20-26 28l-18-20c-4 10-12 16-24 22zM298 380c0-2-2-6-6-12-2-6-2-10-2-12-2 4-4 8-6 10-2 4-8 6-14 6-4 0-8 0-8-2s-2-4-2-6c0-4 0-4 2-6 0 0 2-2 4-6 2 0 4-2 10-4 4-2 6-4 8-4 0 0 2-4 6-12 2-8 4-10 6-10s4 4 4 10c0 8 0 14 0 16 0 10 4 16 12 20 6 4 10 6 10 8 0 4-4 8-10 12-8 4-12 2-14-8zM246 300c0 4-4 6-8 6h-4c4 34 4 44 0 36s-6-18-6-28c-2-10-2-16-2-20 2-6 4-8 6-8 8 0 12 0 14 2 0 0 2 4 2 6s0 4-2 6zM1898-8468l-58 66M984-64h40v1024h-1024v-1024h984zM806 834l44-38c0 0 0 0 0 0l6-6c0 0 0 0 0 0l48-56c36-48 62-102 78-158 4-14 6-28 10-42 4-28 6-58 6-86 0-32-2-60-6-88-14-78-46-150-96-212-12-14-26-30-40-44-52-52-110-90-174-112-52-20-108-28-168-28s-114 8-168 28c-64 22-122 60-174 112 0 2 0 2 0 2l-6 6c0 0 0 0 0 0l-38 42c-22 28-40 58-54 90-2 4-4 8-6 10-6 12-10 26-14 40-16 46-24 98-24 154 0 18 2 38 4 56 4 34 10 66 20 96 22 66 56 124 106 176 4 4 8 8 12 14 60 58 126 98 200 120 44 14 92 20 142 20 52 0 98-6 144-20 54-16 102-40 148-76z" />
<glyph unicode="&#x65;" glyph-name="2" d="M960 442l-52 52c-114 114-230 230-344 344-18 20-38 38-56 58l-58 56h-318v-316l510-510 318 316zM316 864c14-14 20-28 20-48 0-18-6-36-20-48-14-14-30-22-50-22-18 0-34 8-48 22-14 12-20 30-20 48 0 20 6 34 20 48s30 22 48 22c20 0 36-8 50-22zM54 916h-38v-352l628-630 366 366-30 30-338-340-588 596zM1008 394l-28 28-338-340-536 544v334h-34v-354l572-576z" />
<glyph unicode="&#x66;" glyph-name="2-2" d="M510 958l-510-512 510-510 512 510z" />
<glyph unicode="&#x67;" glyph-name="2-3" d="M510 958l-510-512 510-510 512 510z" />
<glyph unicode="&#x68;" glyph-name="2-4" d="M874 736c42 0 64-22 64-66v-386h20c44 0 66 20 66 66v460c0 42-22 66-66 66h-378v18c0 38-16 60-48 64-4 2-10 2-16 2h-194c-44 0-64-22-64-66v-74h178c6 0 10-2 16-2 30-6 46-26 46-64v-18h376zM768 462c0 44-22 66-66 66h-378v20c0 36-16 58-46 64-6 0-10 0-16 0h-194c-6 0-14 0-18 0-32-6-48-28-48-64v-546c0-44 22-66 66-66h634c40 0 62 18 66 52 0 4 0 10 0 14v460zM906 630c0 42-22 66-64 66h-380v18c0 38-14 58-46 64-4 2-10 2-16 2h-194c-10 0-18 0-24-4-28-6-42-28-42-62v-58h164c6 0 10-2 16-2 30-6 46-26 46-64v-18h376c42 0 64-22 64-66v-404h36c38 0 60 18 64 52 0 4 0 10 0 16z" />
<glyph unicode="&#x69;" glyph-name="3" d="M736 414c-76 0-140 28-192 80-54 54-80 118-80 194 0 58 14 108 46 154l-118 118h-392v-392l630-630 392 392-132 132c-46-32-96-48-154-48zM226 732c-16-18-36-26-60-26s-44 8-60 26c-16 16-26 36-26 60 0 22 10 42 26 60s36 24 60 24c24 0 44-6 60-24 18-18 26-36 26-60s-8-44-26-60zM968 688c0 62-24 116-68 162-46 46-100 68-164 68-16 0-34-2-50-6-42-8-80-30-112-62-46-44-68-100-68-162 0-64 22-118 68-164 32-32 70-54 112-62 16-4 34-4 50-6 64 0 120 24 164 68 44 46 68 100 68 164zM844 832l42-44-104-104 104-104-42-44-106 106-104-104-42 42 104 104-102 102 42 44 102-102z" />
<glyph unicode="&#x6a;" glyph-name="3-2" d="M626 724c0 2-2 2-2 2-30 0-62 0-96 0 0-28 2-58 2-90 0 0-2-2-4-4-2 0-4-2-6-4 0 0 0 0 0 0-2 0-2 0-2-2 0 0 0 0 0 0-2 0-2 0-2 0 0-2 0-2 0-2-4-2-8-2-12-2s-8 0-10 2c-2 2-4 2-4 2s0 0 0 2c-6 4-14 6-20 4-10 2-18-2-24-8s-10-14-10-24c0-10 4-16 10-22 8-8 16-12 24-12 8 2 16 4 22 8 0 2 0 2 2 2 0 0 0 2 0 2 2 2 8 2 12 2 2 0 6 0 10-2 0 0 2-2 4-4 0 0 0 0 2 0 2-2 4-4 6-6s4-4 4-8c2-32 4-66 4-100 36 0 70 0 104 0 2-2 4-4 6-6 0 0 0 0 0-2 2 0 4-2 4-2 2-4 2-8 4-12-2-4-2-8-4-12-2 0-2-2-2-2-2 0-2-2-2-2-4-6-6-12-6-20 0-10 2-18 10-24 6-6 14-10 24-8 8 0 18 4 24 10 8 8 10 16 12 24 0 8-4 16-8 22-2 0-2 2-2 2v0c-4 4-4 8-4 12-2 4 0 8 2 12 0 0 2 2 2 2 2 2 2 2 2 2 2 2 4 4 6 6 34 2 66 4 98 4-2 36-4 70-6 104-2 0-4 2-6 2-6 2-12 0-16-4-10-8-22-10-36-6-18 8-26 20-28 38-2 14 4 26 20 34 14 6 26 4 36-4 6-6 12-6 18-6 2 2 4 2 4 2-4 34-10 64-16 94-30 2-60 4-94 4 0 0 0 0 0-2-4-6-2-12 6-18 8-8 12-20 8-36-6-14-18-22-34-22s-28 8-38 22c-6 16-6 28 2 36 4 8 4 14 2 20zM644 446c-2 0-2 2-2 2-36 0-70-2-106-2 0-34 0-68 0-100-4 0-4-2-8-4v0c-2-2-2-2-4-4-2 0-2 0-2 0s0 0-2-2c0 0 0 0-2-2 0 0 0 0-2 0-2-2-6-4-10-4s-8 2-10 4c-2 2-2 2-4 2v2c-6 4-12 6-20 6-10 2-18-2-24-8-8-6-10-14-10-24 0-8 4-16 10-24 6-6 14-8 22-10 8 0 16 2 22 8 0 0 0 0 2 0 0 2 0 2 0 0 0 2 0 2 0 2 2 2 8 4 12 2 2 0 6 0 10-2 0 0 2-2 4-4h2c2-2 4-4 6-6s2-4 4-6c0-32-2-62-2-90 36 0 70 0 104 2 0-2 2-2 4-4 0 0 0-2 0-2 2 0 2-2 4-2 2-2 2-6 2-10s-2-6-4-10c-2-2-2-2-2-2-2 0-2-2-2-2-4-6-8-12-8-18 0-8 2-16 8-22 6-4 14-6 24-6 8 2 16 6 24 12 6 8 10 16 12 24 0 6-2 12-6 18 0 0-2 0-2 0v2c-2 2-4 6-4 10 2 2 2 6 6 8 0 2 0 4 2 4 0 0 0 2 2 2 2 2 2 4 4 6 34 4 66 8 96 14 4 30 6 58 10 90-2 2-4 2-6 2-6 0-12-2-18-6-10-10-22-12-38-8s-22 16-20 32c0 14 6 28 24 38 16 6 28 6 36-2 6-4 12-6 18-2 2 0 4 2 6 2 0 34 0 68 0 104-34-2-66-4-102-6 0 0 0-2 0-2-6-8-4-16 2-22 10-10 10-22 4-40-8-16-20-24-38-26-16 0-30 8-38 24-6 16-6 30 4 40 8 6 8 14 4 22zM520 464c0 36 0 72-2 106-2 0-2 2-4 2-8 2-14 2-20-4-10-8-22-10-38-4-16 8-24 20-24 36s8 28 22 36c16 6 28 6 38-2 6-6 14-8 20-6 2 0 4 2 4 4 0 34-2 66-2 98-34 0-68-2-100-2 0 0 0-2 0-2-4-8-4-14 2-20 8-8 10-20 4-34-8-16-18-24-34-24-16-2-26 6-34 22-6 14-4 26 4 34 6 8 8 14 4 20 0 0 0 2-2 2-30-2-60-4-90-8-2-28-4-58-6-88-2-2-4-4-4-4-2 0-2-2-2-2-2 0-4-2-4-2-4-2-6-4-10-4s-6 0-10 2c0 2 0 2-2 2 0 2 0 2 0 2-6 2-12 4-18 4-8 0-16-4-22-10s-10-14-10-22c-2-8 2-16 8-20 4-6 12-8 22-8 6 0 12 2 18 6 0 2 0 2 2 2 0 0 0 0 0 0s0 2 0 2c4 2 8 4 12 4 2 0 6-2 8-4 2 0 2-2 4-2l2-2c0 0 2-2 4-4 0-32 0-68 0-102 32 0 64-2 96-2 2-2 2-4 4-6 0 0 0-2 2-2 2-2 2-2 2-4 2-2 4-6 4-10s-2-8-4-12c0 0-2-2-2-2s0-2-2-2c-4-6-6-12-4-20 0-10 2-18 8-24 6-8 14-12 22-12 10 0 18 2 24 10 6 6 10 14 10 24 0 8-4 16-8 22 0 0 0 2 0 2h-2c-2 4-4 8-4 12s2 10 4 12c0 2 2 2 2 2 0 2 2 2 2 4 2 2 2 4 6 6 32-2 66-2 100-2zM794 856c14-10 24-20 28-32s0-18-12-22c-8-2-16 0-22 4-4 0-6 4-8 4-6 6-10 8-16 6 8-26 14-56 22-86 28-2 54-4 80-8 2-2 4-4 6-4 0-2 2-2 2-4 0 0 2-2 4-2 0 0 0-2 0-2 2-2 2-4 4-8 0-2 0-4-2-8 0 0 0 0 0-2 0 0 0 0 0 0-4-4-4-10-2-16s6-14 12-20c8-6 14-10 22-10s14 0 18 6c4 4 6 10 4 18-2 6-6 12-12 18 0 0 0 0-2 0v0c-2 4-4 8-4 10-2 2-2 4-2 6s0 2 2 2c0 2 0 2 0 2s0 0 0 2c2 0 2 2 4 2 10-2 22-4 32-6 2-4 4-8 6-10-10 2-22 4-34 6 0 0-2 0 0-2-2-4 0-8 8-16s12-18 12-30c-4-12-14-18-28-16s-26 8-36 22c-8 16-8 26-2 32 2 6 2 10-2 16-2 0-2 2-4 2-26 4-54 8-82 10 6-28 10-54 16-84-2-2-4-2-4-4-2 0-4-2-6-4 0 0 0 0-2-2 0 0 0 0 0 0s0 0 0 0-2 0-2-2c-2 0-6-2-8-2-4 0-8 2-12 4 0 0-2 0-2 2 0 0 0 0 0 0-8 4-14 6-20 6-10 2-18-2-22-8-6-6-8-14-8-24 2-8 6-16 12-22s14-10 24-10c6 0 14 4 20 8 0 0 0 2 0 2s0 0 2 0c2 2 6 4 10 4s6-2 10-4c0 0 2 0 2-2 2 0 2 0 2 0 2-4 4-4 6-6v-2c2 0 4-2 6-4 2-32 6-64 6-98 32 0 60 2 90 2 2-2 2-2 4-4 0-2 2-2 2-2 0-2 0-2 2-4s4-6 4-10c0-4-2-6-4-10 0 0-2-2-2-2s0 0 0-2c-4-4-6-12-6-18 0-8 2-16 8-22 6-4 12-8 20-8 8 2 14 4 20 10 6 8 10 14 10 22s-2 14-6 18c-2 2-2 2-2 2v2c-2 2-4 6-4 10s0 6 2 8c0 2 2 4 2 4s2 2 2 2 2 2 4 4c18 0 38 0 54 0 0-4 0-8 2-10-20 0-38 0-58 0-2 0-2 0-2-2-2-6-2-14 4-20s8-18 4-34c-8-14-20-22-34-22-14-2-24 6-30 20s-4 26 4 34c6 8 6 14 2 22 0 0-2 2-2 2-28-2-58-2-90-4 2-32 2-62 0-94 0 0-2-2-4-4s-4-2-6-4v0c0 0-2 0-2-2 0 0 0 0 0 0-2-2-2-2-2-2-4-2-8-2-10-4-6 0-8 0-12 2 0 2-2 2-2 2s0 2 0 2c-6 2-12 4-20 4-10-2-18-4-24-12-6-6-10-14-10-24 0-8 2-14 8-22 6-4 14-6 24-6 8 0 14 4 20 10 2 0 2 0 2 2 0 0 0 0 0 0 4 2 8 4 12 4s6 0 10-2c0 0 2 0 2-2h2c2-2 4-4 6-6 0-2 2-2 4-4-2-30-6-58-10-86 32 6 60 12 86 16 2 0 2-2 4-4 0 0 0 0 0 0 2-2 2-2 2-4s2-4 2-6c-2-4-2-8-6-10 0-2 0-2-2-2 0 0 0-2 0-2-4-6-8-12-10-18-2-8 0-12 6-16 2-4 8-6 16-4 6 2 12 6 20 12 6 6 10 14 12 20 0 8 0 12-2 16 0 2-2 2-2 2s0 0 0 0c0 2-2 4 0 8 0 2 2 6 2 8 2 2 4 2 4 2 0 2 0 2 0 4 2 0 4 2 6 4 12 2 22 4 32 6 12 26 20 52 28 78 4 22 8 42 10 64 0 4 2 8 2 12 2 18 2 36 2 54s0 34-2 52c-10 120-60 224-148 312-22 22-44 42-70 58-20 14-40 26-60 38 4-16 8-32 14-50 4-2 8-2 12 2 0 2 2 2 4 2 6 2 14 0 24-6zM804 844c-6 6-14 10-20 12-6 0-10 0-14-2 0 0 0 0 0 0-2 0-2 0-2-2-2 0-4-2-8 0-2 0-6 2-8 4-2 0-2 0-4 2 0 0 0 2-2 2s-2 2-4 2c-4 18-8 34-14 50 0 0 0 0 0 0-10 6-22 10-32 14-16 6-34 12-50 16-40 12-80 16-122 18-2-26-2-52 0-80 4 0 8 0 14 4 2 2 4 4 6 4 8 2 16 2 28-2 14-6 22-16 22-30 2-14-4-24-18-30-12-4-20-4-28 0-4 0-6 2-8 4-6 4-12 6-16 4 0-30 2-62 2-96 32 2 64 0 94 0 2 0 4-2 6-4s2-2 2-2c0-2 2-2 4-4 0 0 0 0 0-2 2-2 2-4 2-8 2-2 0-6-2-8 0-2 0-2-2-4 0 0 0 0 0 0-4-4-6-12-6-18 0-10 6-16 12-22 8-8 16-10 24-10 10 0 16 4 22 10s8 12 6 20c0 8-2 16-8 20 0 0 0 0-2 2v0c-2 4-4 6-4 10-2 4 0 6 0 8 0 0 2 2 2 2s0 2 2 2c0 0 0 2 0 2 2 2 2 2 4 4 32 0 62-2 92-4-6 28-14 56-20 82 2 2 2 2 4 4h2c0 2 0 2 2 2 0 2 4 2 8 0 2 0 6 0 8-4 2 0 2 0 4-2 0 0 0 0 0 0 6-4 12-8 18-8 8-2 12 0 16 4s4 8 2 16c-2 6-6 12-14 18zM582 876c-6 6-12 10-22 10-6 0-10-2-16-4 0-2-2-2-2-2s-2-2-2-2v0-2c-4 0-6-2-10-2s-6 2-8 2c0 0-2 0-2 0-2 2-2 2-4 4 0 0 0 0-2 0-2 2-2 2-4 4 0 26 0 52 2 76-2 0-2 0-2 0-62 0-122-10-176-28-10-4-22-10-32-14-4-18-8-36-12-54 4-2 10 0 18 6s18 10 30 6c12-4 16-12 14-26 0-14-8-24-22-32-14-6-24-6-32 0-4 4-10 4-18-2-4-28-8-58-12-88 30 4 60 6 90 6 0 0 2-2 4-2 2-2 2-2 2-4 0 0 2 0 2-2 0 0 0 0 2-2 0-2 0-4 0-6 0-4 0-8-2-12-2 0-2 0-2-2-2 0-2 0-2 0-4-6-6-12-6-20s2-16 8-22c6-6 12-8 22-8 8 0 16 4 22 10s10 14 10 22c0 8-2 14-8 20 0 0 0 0-2 2v0c-2 4-2 6-2 10 0 2 0 6 2 6 0 2 0 2 0 4 0 0 2 2 2 2s2 2 2 2c0 2 2 4 4 6 32 0 64 2 96 2 0 30-2 60-2 90 2 2 4 4 6 4 0 2 2 2 2 2s2 0 2 2c2 0 2 2 2 2 2 0 6 0 8 0 4 0 8 0 10-2 0-2 2-2 4-2 0 0 0 0 0-2 2 0 2 0 2-2 6-2 12-2 18-2 8 0 14 2 20 6 6 6 8 12 8 20-2 8-4 14-10 20zM286 860c0 0-2 2-2 2s-2 0-2 0c2 18 6 34 12 52-48-22-92-52-132-90-4-4-10-10-14-14-2 0-2 0-2 0-18-20-34-38-50-58-32-44-56-90-74-140-2-6-2-12-4-16-6-14-8-30-10-44 0 0 0-2 2-2-4-26-4-52-4-80 32 0 62 0 96 0 4 8 4 16-2 22-8 8-8 20-4 34 8 16 20 22 36 24 14 0 24-6 32-22 4-14 2-26-6-36-6-6-6-14 0-22 30 0 60 0 92-2 0 36 0 70 0 102-6 6-14 6-20-2-10-8-20-8-36-4-14 6-20 18-20 32 2 14 8 26 24 34 14 6 26 6 34 0 6-6 14-8 20-2 2 30 4 60 6 90-28-4-56-6-86-12-2 2-2 2-4 4 0 0 0 0 0 2-2 0-2 0-2 2-2 2-2 4-2 6 0 4 2 8 4 10 0 0 2 2 2 2 2 2 2 2 2 2 4 4 8 10 8 16 2 8 0 14-4 18s-10 4-18 4c-6-2-14-8-20-14s-10-12-12-20c-2-6-2-10 2-14 0 0 0 0 0-2 2-2 2-4 2-8-2-2-2-6-4-8 0 0-2-2-2-4-2 0-2 0-2 0-2-2-4-4-6-6-22-4-42-8-64-14 2 4 4 6 4 8 22 6 42 12 64 16 6 6 8 12 2 16-4 6-4 16 4 28 10 14 22 22 34 26 14 4 22-2 26-12 2-12-2-22-8-30-8-8-10-14-6-20 30 6 58 10 88 14 2 28 6 56 12 84 2 2 2 4 4 6 0 0 2 0 2 2 0 0 2 0 4 2s4 2 8 4c4 0 6 0 8-2 2 0 2-2 2-2v0c4-4 10-4 16-4 8 2 16 4 22 12 4 6 8 12 10 20 0 6-2 14-6 18s-10 6-18 6c-6-2-12-4-18-10 0 0 0 0-2 0 0 0 0-2 0-2-2-2-6-4-8-4-4 0-6 0-8 0-2 2-2 2-2 2zM150 534c-8 4-14 8-22 8s-16-4-22-10c-6-6-10-14-10-22 0-6 2-12 8-18 0 0 0-2 0-2h2c2-4 2-8 2-10 0-4 0-6-2-10 0 0-2-2-2-4-2 0-2 0-2 0-2-2-4-4-6-6-30 0-60 2-90 0 0-28 0-58 2-84-2-2-2-4-4-4 0 0 0 0-2-2 4-20 8-42 14-64 2-6 4-12 6-18 4-12 8-24 14-38 28-6 54-12 82-16 4 4 2 12-6 18-8 10-10 20-6 32 6 12 16 18 32 14 14-2 24-10 32-24 6-14 6-24 0-32-4-4-4-10 2-18 28-6 58-12 88-16-4 30-6 62-6 92-8 8-14 8-22 2s-20-6-34 0c-14 8-22 20-22 36-2 14 4 24 20 30 14 4 26 2 34-6s14-10 22-4c0 32 0 64 0 98-34 2-64 2-94 4-4 2-4 4-6 6 0 0 0 0-2 0 0 2-2 2-2 4-2 2-4 6-4 10s2 6 4 10c0 0 2 2 2 2s2 0 2 0c4 6 6 12 6 20s-4 16-8 22zM416 178c0 0 0-2 0-2-4-6-4-12 4-20 6-8 8-20 4-34-8-14-18-20-32-20-14 2-26 12-34 28-6 14-6 26 2 34 4 4 6 12 2 18 0 0 0 2 0 2-32 4-62 8-92 12 2-28 6-58 8-86-2 0-2-2-2-2-2 0-4-2-4-2s0-2-2-2c-2 0-4 0-8 0s-6 2-10 4c0 2-2 2-2 4v0c-6 6-12 8-18 10-8 2-14 0-18-4s-6-8-4-16c0-8 4-16 12-22 6-8 12-12 20-14 6-2 12-2 16 2 0 0 0 0 0 0l2 2c2 0 4 0 8 0 2 0 6-2 10-6 0 0 2-2 2-2l2-2c2-2 4-4 6-6 2-24 8-50 14-76 38-18 82-30 126-36 2 0 4-2 6-2 24-2 50-4 76-4 0 0 2 0 2 0 0 28 0 58 0 86-2 2-4 2-6 2-4 2-10 2-16-4-8-6-20-8-32-2-14 8-22 22-22 36-2 14 6 24 20 32 14 4 26 2 34-6 6-6 12-8 18-6 0 2 2 2 4 4 2 30 2 64 4 96-34 0-68 2-100 4zM278 58c-8 8-14 8-18 4-8-6-18-4-30 6-16 10-24 22-26 36-4 12 2 20 14 24 12 2 22-2 32-10 6-8 14-10 20-6-4 28-8 56-10 86-30 4-60 10-88 16-2 2-4 4-6 6 0 0 0 0-2 2 0 0-2 2-2 2-2 4-4 6-4 10 0 2 0 6 2 8 0 0 0 0 2 0 0 2 0 2 0 2 4 4 6 8 6 16-2 8-6 14-12 20-8 6-14 12-22 12-8 2-14 0-20-6-6-4-8-10-6-18 0-6 4-10 8-16 2-2 2-2 2-2v0c4-4 4-8 4-10 2-4 0-6 0-8s-2-2-2-2c0 0 0-2-2-2 0 0-2-2-4-2-24 4-50 10-76 16 26-56 62-108 110-156 2-2 6-6 8-8 0-2 0-2 2-2 42-40 86-70 134-94-6 26-10 52-14 76zM448 74c-6-4-8-12-8-20s4-16 10-22c4-6 12-10 20-10 8-2 12 2 18 6 2 0 2 0 2 0 0 2 0 2 0 2 4 2 8 2 10 2 4 0 6-2 10-4 0 0 2 0 2-2 0 0 2 0 2 0 2-2 4-4 6-6s4-4 6-6c-2-26-2-52 0-78 68 2 130 16 190 42 4 0 8 4 10 4 14 6 28 14 38 20 4 18 6 34 10 52-2 0-2 2-4 2-6 0-12-2-16-10-10-8-22-12-36-10s-20 12-18 28c2 14 10 24 26 36 16 8 28 8 34 2 6-2 12-2 16 0 2 2 4 2 6 4 4 30 8 58 12 90-32-6-64-10-98-14-2-2-2-2-2-4-4-6-4-14 2-18 6-6 8-18 0-34s-22-24-38-26c-14-2-26 4-34 18-6 14-4 26 6 34 8 8 8 14 6 20-2 2-2 2-2 2-34-2-68-4-104-4-2-30-2-58-2-88-2 0-4-2-6-4v0c-2 0-4-2-6-4v0c0 0-2 0-2 0 0-2 0-2 0-2s-2 0-2 0c0 0-2 0-2 0-2-2-6-4-10-4s-6 2-8 4c-2 0-2 2-4 2v0c-4 4-12 8-18 8-8 0-16-2-22-8zM962 208c6 6 10 14 12 22-10 0-20-2-32-6 0 0 0-2 0-2-6-6-6-10-2-16s4-14-4-30c-10-12-20-20-32-24-14-4-22 0-26 12-2 12 2 22 10 30 6 8 8 14 6 20 0 0 0 0-2 0-26-4-54-10-84-16-4-26-8-54-12-82 0 0-2-2-4-4s-4-2-6-4c0 0 0 0 0 0-2 0-2-2-2-2v0c0 0 0-2-2-2 0 0 0 0 0-2-4-2-8-2-10-4-4 0-8 0-10 0 0 2-2 2-2 2-6 4-12 4-18 2-8 0-16-6-24-12-6-6-10-14-10-22-2-8 0-14 6-18 4-6 12-6 20-4s14 4 20 10c0 0 0 2 0 2s0 0 2 0c-2 0-2 0 0 2 4 2 6 4 10 4 4 2 6 2 8 0 2 0 2 0 4-2 0 0 0 0 0 0 2-2 4-2 4-4 2-2 2-2 4-4-2-14-6-30-8-42 24 14 46 32 68 52 8 6 18 14 26 22 12 12 24 26 34 38 22 28 42 54 56 84zM520 342c0 34 2 72 0 108-34 0-70 2-104 2 0 0-2-2-2-2-2-8-2-16 4-24 8-10 10-22 4-40-8-16-20-22-36-22s-26 10-34 26c-6 16-4 30 4 38 6 8 6 16 4 22-2 2-2 2-2 4-34 0-66 2-98 2 0-34 0-66 2-98-2-2-4-2-6-4 0 0 0-2 0-2-2 0-4-2-4-2-4-2-6-2-10-2s-6 2-10 4c0 0-2 2-2 2 0 2 0 2 0 0-6 6-14 8-20 10-8 0-16-4-22-8-4-6-8-12-8-20 2-8 4-16 10-22 6-8 14-12 24-12 6 0 12 0 18 4 0 2 0 2 2 2 0 0 0 0 0 0 2 2 6 2 10 2s6 0 10-4c0 0 2-2 2-2s2 0 2-2c2 0 4-2 6-4 0-32 2-62 6-92 28-4 60-10 90-12 2-2 4-4 4-6 2 0 2 0 2-2 0 0 2-2 2-2 2-4 2-6 4-10-2-4-2-8-4-10 0 0 0 0-2-2 0 0 0 0 0 0-4-6-4-12-4-18 0-8 2-16 8-22 6-8 14-10 22-12 8 0 14 2 20 8 6 4 8 10 10 20-2 8-4 14-8 18-2 2-2 2-2 2v2c-2 4-4 6-4 10s0 6 4 10c0 0 0 2 2 2 0 2 0 2 0 2 2 2 4 2 6 4 30-2 62-4 96-4 0 32 2 64 2 96-2 2-4 2-6 2-6 2-12 2-18-4-10-6-22-8-38-4-16 10-22 22-22 38s6 28 24 36c16 6 28 4 38-6 6-4 10-6 18-4 2 0 4 2 6 2z" />
<glyph unicode="&#x6b;" glyph-name="4" d="M916 654c-26 26-60 40-98 40s-70-14-98-40c-6-6-12-12-16-18-16-24-26-50-26-82 0-28 8-54 24-76 4-8 10-14 18-22 2-2 4-4 6-6 26-22 56-34 92-34 10 0 20 0 30 2 18 4 34 12 50 22 6 6 12 10 18 16 26 26 40 60 40 98 0 40-14 72-40 100zM658 698c0 38-12 72-40 98-26 28-58 42-98 42-38 0-72-14-98-42-6-4-10-10-16-16-16-24-24-50-24-82 0-38 14-70 40-98 2-2 4-4 6-6 26-24 56-34 92-34 30 0 58 8 80 24 6 6 12 10 18 16 28 28 40 60 40 98zM662 478c0 0 0 0 0 0-12 26-26 52-40 76-18-12-40-22-62-26-12-2-22-4-36-4-42 0-78 14-108 40-18-26-34-56-48-86-4-14-8-26-14-38 38-58 72-138 104-238 32-2 66-2 102 2v-4c6 0 10 2 14 2 0 0 2 2 2 2 28 86 58 156 88 210 6 8 10 16 16 24-6 12-10 24-16 34 0 2-2 4-2 6zM708 422c-6-8-12-18-16-28-32-56-58-118-76-184-12-34-20-68-26-106 78-28 152-44 220-46 80-2 152 14 216 46-22 118-58 222-112 308-20-14-42-22-66-26-10-2-20-2-30-2-42 0-80 12-110 40zM128 668c-4-6-8-12-14-18-16-22-26-50-26-80 0-40 14-72 40-98 4-4 6-4 8-6 26-24 56-36 92-36 30 0 56 8 80 24 6 6 12 12 18 18 26 26 40 58 40 98 0 38-14 70-40 98-28 26-60 40-98 40-40 0-72-14-100-40zM228 398c-42 0-80 14-110 40-56-90-96-196-118-318 170-62 316-62 436 0-22 118-58 220-110 308-28-20-62-30-98-30z" />
<glyph unicode="&#x6c;" glyph-name="a-b" d="M670 930c-98 26-146-16-144-124l68-102c18 44 32 74 42 92 252-50 376 4 374 164-58-70-172-80-340-30zM832 740l-114-104c20-174 30-398 28-670 106 66 134 326 86 774zM276 368c-10-10-26-18-46-24-8-2-18-4-26-6-46-8-110-10-190-6v-148c150-14 250 12 296 82 80 112 70 238-30 378l-80-118 76-158zM168 146l-84-114c54-26 96-58 126-94l80 106c-30 38-70 72-122 102z" />
<glyph unicode="&#x6d;" glyph-name="a-b2" d="M670 930c-98 26-146-16-144-124l68-102c18 44 32 74 42 92 252-52 376 4 374 164-60-70-172-80-340-30v0zM832 742l-114-106c20-174 30-398 28-670 106 66 134 326 86 776zM276 368c-10-10-26-18-46-24-8-2-18-4-28-6-44-8-108-10-188-6v-148c150-14 250 14 296 82 80 112 68 238-30 378l-80-118 76-158h-2zM168 146l-84-114c54-26 96-58 126-94l78 106c-30 38-70 72-120 102z" />
<glyph unicode="&#x6e;" glyph-name="aaaa" d="M764 776v184h-500v-216c-8 2-14 4-20 8-10 4-22 12-32 20-2 2-2 4-4 6-20 18-42 26-68 26-28 0-50-8-68-26-2-4-4-6-8-8-14-18-20-38-20-60 0-24 6-44 20-60 4-4 6-6 8-8 18-20 40-28 68-28 26 0 48 8 68 28 4 2 6 6 8 10 10 8 20 12 28 18 6 2 12 6 20 8v-218h214c-4-16-12-34-28-50-2-2-2-2-4-4-18-20-28-42-28-68 0-28 10-50 28-68 18-20 40-30 68-30 26 0 48 10 68 30 18 18 28 40 28 68 0 26-10 48-28 68-4 4-8 6-12 10-12 16-20 30-24 46h218v182c-4-4-8-10-12-14-2 0-2-2-2-2-22-22-50-34-82-34-28 0-50 8-70 22-4 4-10 8-14 12 0 0-2 2-2 2-22 22-32 50-32 80 0 32 12 60 34 84 4 4 10 8 14 10 20 16 42 24 70 24 32 0 60-12 82-36 4-4 10-10 14-16zM596 422c24-24 34-52 34-84 0-26-6-50-22-70-4-4-8-8-12-12 0 0 0 0-2-2-22-22-48-32-80-32s-60 12-82 34c-4 4-8 8-12 12-14 22-22 44-22 70 0 32 10 60 34 84 4 4 10 10 16 14h-184v-502h116v2c6 0 12 0 18-2h366v218c6-2 14-4 20-8 10-4 20-12 30-22 2 0 4-2 6-4 18-18 40-28 68-28 26 0 48 10 66 28 4 2 6 6 8 8 16 16 22 38 22 60 0 24-6 44-22 60-2 4-4 6-8 8-18 20-40 30-66 30-28 0-50-12-68-30-4-4-8-6-10-10-8-8-18-14-26-18s-14-6-20-8v218h-184c6-4 10-8 14-12 2-2 2-2 2-2z" />
<glyph unicode="&#x6f;" glyph-name="abr" d="M1024 928c0 22-10 32-32 32h-960c-20 0-32-10-32-32v-960c0-20 12-32 32-32h960c22 0 32 12 32 32zM736 916v0zM622 568c18 8 38 12 60 12 46 0 88-20 120-58 22-22 36-50 44-78 28-8 52-24 74-50 34-38 50-82 50-136 0-52-16-98-50-134-24-30-52-46-84-54h-632c-34 6-66 22-92 52-30 36-48 80-48 130 0 52 18 94 48 132 14 14 28 26 44 34 0 2 0 4 0 6 0 78 24 146 74 202 48 54 106 82 176 82 68 0 128-28 176-82 16-18 28-38 40-58z" />
<glyph unicode="&#x70;" glyph-name="abrehoroof-act" d="M618 306v0h176v190h-190v-190h8zM716 458c-2-4-4-10-6-16l-12 18c0 18 8 26 24 20 30-8 50-6 60 6 0-28-22-38-66-28zM732 430l18 18c10-78 4-124-14-136 0 48-2 88-4 118zM648 394c0-2-2-4-2-8l-6 8c0 8 4 12 12 10 14-4 22-4 26 2 0-12-10-18-30-12zM656 380l8 8c4-36 2-56-6-60 0 20-2 38-2 52z" />
<glyph unicode="&#x71;" glyph-name="abrehoroof-deact" d="M500 696c18 44 34 76 42 96 260-52 388 2 386 168-60-72-178-82-350-32-100 26-150-14-148-126zM746 734l-118-106c20-180 30-410 28-690 108 68 138 334 90 796zM94 418l32-50c8 20 14 36 20 44 116-24 176 0 174 76-28-32-80-36-158-14-46 12-68-6-68-56zM236 386l-52-48c8-82 14-186 12-314 50 32 62 152 40 362z" />
<glyph unicode="&#x72;" glyph-name="afzoodane-fard" d="M912 686c30 32 46 68 46 114 0 44-16 82-46 112-32 32-70 48-114 48-46 0-84-16-114-48-32-30-48-68-48-112 0-46 16-82 48-114 30-32 68-48 114-48 44 0 82 16 114 48zM656 572c-54 0-82-26-82-80v-558h450v558c0 54-28 80-82 80zM0 382h202v-206h84v206h206v82h-206v206h-84v-206h-202z" />
<glyph unicode="&#x73;" glyph-name="alamatgozari" d="M1022 628l-306 306-510-510 308-306zM172 20l-58 56-114-114h104zM334 234l2-4-152 152c36-94 14-180-64-260l46-46 48-46c78 76 166 98 258 64l-138 140z" />
<glyph unicode="&#x74;" glyph-name="alamatgozari-2" d="M1020 654l-306 306-506-506 306-306zM284 24l124 122-198 198-120-124zM174 50l-56 56-116-114 58-56z" />
<glyph unicode="&#x75;" glyph-name="alamatva-yaddasht" d="M854 828v-62c10-4 20-12 30-22 22-22 34-50 34-82s-12-60-34-82c-24-22-52-34-84-34 0 0-2 0-4 0-30 0-56 12-78 34s-34 50-34 82c0 32 12 60 34 82 10 10 20 18 30 22v62h-190v-62c10-4 20-12 30-22 22-22 32-50 32-82s-10-60-32-82c-24-22-52-34-84-34s-60 10-82 34c-22 22-34 50-34 82s12 60 34 82c10 10 18 18 30 22v62h-194v-62c10-4 20-12 28-22 24-22 36-50 36-82s-12-60-36-82c-22-22-50-34-82-34s-60 10-82 34c-24 22-34 50-34 82s10 60 34 82c6 8 14 14 22 18 2 2 4 2 8 4v62h-144v-894h1010v894zM608 538l174-174-288-290-176 174zM266 50l34-32-40-34h-58l66 66zM306 224l86-84 78-80c-54 18-102 6-148-36l-52 52c44 46 56 94 36 148zM780 960v-302h40v302zM524 658v302h-38v-302zM222 960h-38v-302h38z" />
<glyph unicode="&#x76;" glyph-name="alamt-yaddasht" d="M168 600l-168-168 278-276 166 166zM448 256c0 14 2 28 8 42l-82-80-4-4-70-72c50 18 98 6 142-36l50 52c-30 30-44 62-44 98zM494 132l-30-30 36-32h56zM904 450c0-8-2-12-6-16-6-6-10-6-16-8h-494l112-116c-2-2-4-6-6-10h388c6 0 10-2 16-6 4-6 6-10 6-16s-2-12-6-16c-6-4-10-6-16-6h-400c0-2 0-2 0-2-2-26 16-56 54-90l-12-12 104-114h-140l-38 36-16-16c-44 60-96 74-154 40l-40 40v-196h786v1012h-786v-374l124-128c0 4 2 10 6 14s10 6 16 6h496c6 0 10-2 16-6 4-4 6-10 6-16zM898 808c4-4 6-10 6-16s-2-12-6-16c-6-4-10-6-16-6h-496c-6 0-12 2-16 6s-6 10-6 16c0 6 2 12 6 16s10 6 16 8h496c6-2 10-4 16-8zM904 620c0-6-2-10-6-16-6-4-10-6-16-6h-496c-6 0-12 2-16 6-4 6-6 10-6 16s2 12 6 16c4 4 10 6 16 6h496c6 0 10-2 16-6 4-4 6-10 6-16zM892 80c-4-4-8-6-16-6h-200c-6 0-10 2-14 6-4 6-6 10-6 16s2 12 6 16c4 4 8 6 14 8h200c6 0 12-4 16-8s6-10 6-16c0-6-2-10-6-16zM4104-7256l30 28" />
<glyph unicode="&#x77;" glyph-name="alefba" d="M1024 916c0 22-10 34-32 34h-262c-22 0-34-12-34-34v-934c0-22 12-34 34-34h262c22 0 32 12 32 34zM1008 810c2 2 4 4 6 8 2-84-52-124-158-116l-62 6c-6 2-12 4-18 4-6-12-16-32-28-58l-42 66c0 60 22 88 72 82 6-2 12-2 20-4 24-8 48-14 68-16 66-10 112 0 142 28zM798 606l82 76c34-324 14-510-62-558 0 196-6 356-20 482zM676 916c0 22-10 34-32 34h-264c-20 0-32-12-32-34v-552c58-2 102 0 134 6 8 0 14 2 20 4 14 4 26 10 32 16l-54 114 58 84c4-4 6-10 10-14 62-94 66-180 12-258-4-4-8-10-12-14-38-38-104-52-200-44v-276c0-22 12-34 32-34h264c22 0 32 12 32 34v934zM488 82c-22 26-52 48-92 68l60 82c38-22 66-48 88-74l-58-76zM328 916c0 22-10 34-32 34h-264c-20 0-32-12-32-34v-550c64-2 110 0 140 4 6 2 14 4 18 6 16 4 26 8 34 16l-54 114 56 84c72-100 78-190 22-272-32-46-104-66-216-60v-276c0-22 12-34 34-34h262c22 0 32 12 32 34v934zM168 228c26-16 48-34 64-54l-42-58c-16 20-40 36-68 50zM6 166l44 62c28-16 50-34 66-54l-42-58c-16 20-38 36-68 50zM74 62l44 62c28-16 50-36 66-56l-42-56c-16 20-38 38-68 50z" />
<glyph unicode="&#x78;" glyph-name="amuzesh" d="M666 768l28 28v124c0 40-14 50-40 30l-452-328c-26-18-40-48-40-88v-452c0-40 14-50 40-32l420 306v40l-388-284c-24-16-36-10-36 26v388c0 34 12 58 36 76l398 288c24 18 34 10 34-24v-98zM644 960h-36l-134-94h38zM406 790l68 56c-6 10-16 18-34 22-24-6-34-30-34-78zM382 772c-10 62 6 100 44 110-58-4-82-38-74-106l-188-136c-26-20-40-50-40-90v-454c4-40 18-62 42-62-14 12-18 28-18 52v454c0 40 12 68 40 88l194 144zM420 168h-28l-114-230h38zM436 120l64-56 28 18-94 86-106-232 46 34zM818 698c0 18-6 34-20 46-12 12-26 18-44 18s-34-6-48-18c-12-12-18-28-18-46s6-34 18-46c14-12 30-18 48-18s32 6 44 18c14 12 20 28 20 46zM664 548v-172h12v-326c-2-2-2-4-2-6v-2c0-10 4-20 12-28s18-12 30-12c10 0 20 4 28 12 4 6 8 10 10 16 2-6 6-10 10-16 8-8 18-12 28-12 12 0 22 4 30 12s12 18 12 28v334h14v-20c0-6 2-14 8-18 4-4 12-8 18-8 8 0 14 4 18 8 6 4 8 12 8 18 0 0 0 0 0 0v208l-36 46h-38l-64-62h-10l-64 62h-254c-8 0-14-2-18-8-6-4-8-14-8-28 0-6 2-12 8-18 4-4 10-8 18-8h230z" />
<glyph unicode="&#x79;" glyph-name="b11" d="M1024 322v552h-1024v-552zM942 804v-454h-852v454zM438 88h-140v-64h448v64h-142v70h-166zM0 226c0-26 14-40 40-40h944c26 0 40 14 40 40v72h-1024zM844 256v-22h-86v22zM868 234v22h30v-22z" />
</font>
</defs>
</svg>
