<?xml version="1.0" standalone="no"?>
<!DOCTYPE svg PUBLIC "-//W3C//DTD SVG 1.1//EN" "http://www.w3.org/Graphics/SVG/1.1/DTD/svg11.dtd" >
<svg xmlns="http://www.w3.org/2000/svg">
<metadata>Generated by IcoMoon</metadata>
<defs>
<font id="icomoon" horiz-adv-x="1024">
<font-face units-per-em="1024" ascent="960" descent="-64" />
<missing-glyph horiz-adv-x="1024" />
<glyph unicode="&#x20;" horiz-adv-x="512" d="" />
<glyph unicode="&#xe313;" glyph-name="angle-down" d="M316 604.667l196-196 196 196 60-60-256-256-256 256z" />
<glyph unicode="&#xe314;" glyph-name="angle-left" d="M658 252.667l-60-60-256 256 256 256 60-60-196-196z" />
<glyph unicode="&#xe315;" glyph-name="angle-right" d="M366 240.667l196 196-196 196 60 60 256-256-256-256z" />
<glyph unicode="&#xe316;" glyph-name="angle-up" d="M316 280.667l-60 60 256 256 256-256-60-60-196 196z" />
<glyph unicode="&#xe5cd;" glyph-name="close" d="M810 664.667l-238-238 238-238-60-60-238 238-238-238-60 60 238 238-238 238 60 60 238-238 238 238z" />
<glyph unicode="&#xe8b6;" glyph-name="search" d="M932.698-69.762l-253.474 252.433c-74.49-64.905-168.214-100.466-265.785-100.466-227.967 0-413.439 192.108-413.439 428.23 0 236.124 185.473 428.232 413.439 428.232s413.441-192.109 413.441-428.232c0-88.644-25.816-173.117-74.815-245.338l255.397-254.35c10.661-10.633 16.538-24.934 16.538-40.255 0-14.507-5.336-28.268-15.047-38.713-20.617-22.192-54.807-22.898-76.254-1.542zM107.853 510.436c0-174.534 137.082-316.517 305.585-316.517 168.505 0 305.585 141.983 305.585 316.517s-137.079 316.52-305.585 316.52c-168.503 0-305.585-141.987-305.585-316.52z" />
<glyph unicode="&#xe900;" glyph-name="instagram" horiz-adv-x="878" d="M585.143 438.857c0 80.571-65.714 146.286-146.286 146.286s-146.286-65.714-146.286-146.286 65.714-146.286 146.286-146.286 146.286 65.714 146.286 146.286zM664 438.857c0-124.571-100.571-225.143-225.143-225.143s-225.143 100.571-225.143 225.143 100.571 225.143 225.143 225.143 225.143-100.571 225.143-225.143zM725.714 673.143c0-29.143-23.429-52.571-52.571-52.571s-52.571 23.429-52.571 52.571 23.429 52.571 52.571 52.571 52.571-23.429 52.571-52.571zM438.857 798.857c-64 0-201.143 5.143-258.857-17.714-20-8-34.857-17.714-50.286-33.143s-25.143-30.286-33.143-50.286c-22.857-57.714-17.714-194.857-17.714-258.857s-5.143-201.143 17.714-258.857c8-20 17.714-34.857 33.143-50.286s30.286-25.143 50.286-33.143c57.714-22.857 194.857-17.714 258.857-17.714s201.143-5.143 258.857 17.714c20 8 34.857 17.714 50.286 33.143s25.143 30.286 33.143 50.286c22.857 57.714 17.714 194.857 17.714 258.857s5.143 201.143-17.714 258.857c-8 20-17.714 34.857-33.143 50.286s-30.286 25.143-50.286 33.143c-57.714 22.857-194.857 17.714-258.857 17.714zM877.714 438.857c0-60.571 0.571-120.571-2.857-181.143-3.429-70.286-19.429-132.571-70.857-184s-113.714-67.429-184-70.857c-60.571-3.429-120.571-2.857-181.143-2.857s-120.571-0.571-181.143 2.857c-70.286 3.429-132.571 19.429-184 70.857s-67.429 113.714-70.857 184c-3.429 60.571-2.857 120.571-2.857 181.143s-0.571 120.571 2.857 181.143c3.429 70.286 19.429 132.571 70.857 184s113.714 67.429 184 70.857c60.571 3.429 120.571 2.857 181.143 2.857s120.571 0.571 181.143-2.857c70.286-3.429 132.571-19.429 184-70.857s67.429-113.714 70.857-184c3.429-60.571 2.857-120.571 2.857-181.143z" />
<glyph unicode="&#xe901;" glyph-name="twitter" horiz-adv-x="951" d="M950.926 733.33c-26.551-38.619-59.739-73.015-97.755-100.773 0.603-8.448 0.603-16.896 0.603-25.344 0-257.664-196.114-554.551-554.551-554.551-110.427 0-213.010 31.982-299.301 87.497 15.689-1.81 30.775-2.414 47.067-2.414 91.118 0 174.994 30.775 241.975 83.273-85.687 1.81-157.495 57.929-182.235 135.168 12.069-1.81 24.137-3.017 36.809-3.017 17.499 0 34.999 2.414 51.291 6.638-89.307 18.103-156.288 96.549-156.288 191.287v2.414c25.947-14.482 56.119-23.534 88.101-24.741-52.498 34.999-86.894 94.738-86.894 162.322 0 36.206 9.655 69.394 26.551 98.359 95.945-118.272 240.165-195.511 401.883-203.959-3.017 14.482-4.827 29.568-4.827 44.654 0 107.41 86.894 194.907 194.907 194.907 56.119 0 106.807-23.534 142.409-61.55 44.050 8.448 86.29 24.741 123.703 47.067-14.482-45.257-45.257-83.273-85.687-107.41 39.223 4.224 77.239 15.086 112.238 30.171z" />
<glyph unicode="&#xe902;" glyph-name="facebook" horiz-adv-x="602" d="M567 982.857v-162.461h-96.615c-75.693 0-89.847-36.307-89.847-88.616v-116.308h180.308l-24-182.154h-156.308v-467.077h-188.308v467.077h-156.923v182.154h156.923v134.153c0 155.692 95.384 240.616 234.461 240.616 66.461 0 123.692-4.923 140.308-7.384z" />
<glyph unicode="&#xe903;" glyph-name="linkedin" horiz-adv-x="878" d="M199.429 593.714v-566.286h-188.571v566.286h188.571zM211.429 768.571c0.571-54.286-40.571-97.714-106.286-97.714v0h-1.143c-63.429 0-104 43.429-104 97.714 0 55.429 42.286 97.714 106.286 97.714 64.571 0 104.571-42.286 105.143-97.714zM877.714 352v-324.571h-188v302.857c0 76-27.429 128-95.429 128-52 0-82.857-34.857-96.571-68.571-4.571-12.571-6.286-29.143-6.286-46.286v-316h-188c2.286 513.143 0 566.286 0 566.286h188v-82.286h-1.143c24.571 38.857 69.143 95.429 170.857 95.429 124 0 216.571-81.143 216.571-254.857z" />
<glyph unicode="&#xe904;" glyph-name="youtube" horiz-adv-x="878" d="M554.857 240v-120.571c0-25.714-7.429-38.286-22.286-38.286-8.571 0-17.143 4-25.714 12.571v172c8.571 8.571 17.143 12.571 25.714 12.571 14.857 0 22.286-13.143 22.286-38.286zM748 239.428v-26.286h-51.429v26.286c0 25.714 8.571 38.857 25.714 38.857s25.714-13.143 25.714-38.857zM196 364h61.143v53.714h-178.286v-53.714h60v-325.143h57.143v325.143zM360.571 38.857h50.857v282.286h-50.857v-216c-11.429-16-22.286-24-32.571-24-6.857 0-10.857 4-12 12-0.571 1.714-0.571 8-0.571 20v208h-50.857v-223.429c0-20 1.714-33.143 4.571-41.714 4.571-14.286 16.571-21.143 33.143-21.143 18.286 0 37.714 11.429 58.286 34.857v-30.857zM605.714 123.428v112.571c0 26.286-1.143 45.143-5.143 56.571-6.286 21.143-20.571 32-40.571 32-18.857 0-36.571-10.286-53.143-30.857v124h-50.857v-378.857h50.857v27.429c17.143-21.143 34.857-31.429 53.143-31.429 20 0 34.286 10.857 40.571 31.429 4 12 5.143 30.857 5.143 57.143zM798.857 129.143v7.429h-52c0-20.571-0.571-32-1.143-34.857-2.857-13.714-10.286-20.571-22.857-20.571-17.714 0-26.286 13.143-26.286 39.429v49.714h102.286v58.857c0 30.286-5.143 52-15.429 66.286-14.857 19.429-34.857 29.143-60.571 29.143-26.286 0-46.286-9.714-61.143-29.143-10.857-14.286-16-36-16-66.286v-98.857c0-30.286 5.714-52.571 16.571-66.286 14.857-19.429 34.857-29.143 61.714-29.143s48 10.286 61.714 30.286c6.286 9.143 10.857 19.429 12 30.857 1.143 5.143 1.143 16.571 1.143 33.143zM451.429 650.857v120c0 26.286-7.429 39.429-24.571 39.429-16.571 0-24.571-13.143-24.571-39.429v-120c0-26.286 8-40 24.571-40 17.143 0 24.571 13.714 24.571 40zM862.286 221.714c0-65.714-0.571-136-14.857-200-10.857-45.143-47.429-78.286-91.429-82.857-105.143-12-211.429-12-317.143-12s-212 0-317.143 12c-44 4.571-81.143 37.714-91.429 82.857-14.857 64-14.857 134.286-14.857 200v0c0 66.286 0.571 136 14.857 200 10.857 45.143 47.429 78.286 92 83.429 104.571 11.429 210.857 11.429 316.571 11.429s212 0 317.143-11.429c44-5.143 81.143-38.286 91.429-83.429 14.857-64 14.857-133.714 14.857-200zM292 950.857h58.286l-69.143-228v-154.857h-57.143v154.857c-5.143 28-16.571 68-34.857 121.143-12.571 35.429-25.143 71.429-37.143 106.857h60.571l40.571-150.286zM503.429 760.571v-100c0-30.286-5.143-53.143-16-67.429-14.286-19.429-34.286-29.143-60.571-29.143-25.714 0-45.714 9.714-60 29.143-10.857 14.857-16 37.143-16 67.429v100c0 30.286 5.143 52.571 16 66.857 14.286 19.429 34.286 29.143 60 29.143 26.286 0 46.286-9.714 60.571-29.143 10.857-14.286 16-36.571 16-66.857zM694.857 853.143v-285.143h-52v31.429c-20.571-24-40-35.429-58.857-35.429-16.571 0-28.571 6.857-33.714 21.143-2.857 8.571-4.571 22.286-4.571 42.857v225.143h52v-209.714c0-12 0-18.857 0.571-20 1.143-8 5.143-12.571 12-12.571 10.286 0 21.143 8 32.571 24.571v217.714h52z" />
<glyph unicode="&#xe905;" glyph-name="double-angle-right" horiz-adv-x="1023" d="M499.507 832.548c14.209-14.209 28.281-28.281 42.482-42.482 33.835-33.835 67.649-67.649 101.603-101.603 40.873-40.873 81.858-81.858 122.731-122.731 35.338-35.338 70.777-70.777 106.092-106.092 17.202-17.202 34.179-34.741 51.606-51.606 0.225-0.225 0.452-0.452 0.695-0.695 0 27.253 0 54.373 0 81.633-14.209-14.209-28.281-28.281-42.482-42.482-33.835-33.835-67.649-67.649-101.603-101.603-40.873-40.873-81.858-81.858-122.731-122.731-35.338-35.338-70.777-70.777-106.092-106.092-17.202-17.202-34.629-34.179-51.606-51.606-0.225-0.225-0.452-0.452-0.695-0.695-10.508-10.508-16.864-25.986-16.864-40.873 0-14.209 6.244-31.058 16.864-40.873 10.958-10.051 25.392-17.539 40.873-16.864 15.364 0.695 29.789 5.886 40.873 16.864 14.209 14.209 28.281 28.281 42.482 42.482 33.835 33.835 67.649 67.649 101.603 101.603 40.873 40.873 81.858 81.858 122.731 122.731 35.338 35.338 70.777 70.777 106.092 106.092 17.202 17.202 34.629 34.179 51.606 51.606 0.225 0.225 0.452 0.452 0.695 0.695 22.062 22.062 22.062 59.571 0 81.633-14.209 14.209-28.281 28.281-42.482 42.482-33.835 33.835-67.649 67.649-101.603 101.603-40.873 40.873-81.858 81.858-122.731 122.731-35.338 35.338-70.777 70.777-106.092 106.092-17.202 17.202-34.179 34.629-51.606 51.606-0.225 0.225-0.452 0.452-0.695 0.695-10.508 10.508-25.986 16.864-40.873 16.864-14.209 0-31.058-6.244-40.873-16.864-10.051-10.958-17.539-25.392-16.864-40.873 0.695-15.121 5.886-29.548 16.864-40.648v0zM16.909 832.548c14.209-14.209 28.281-28.281 42.482-42.482 33.835-33.835 67.649-67.649 101.603-101.603 40.873-40.873 81.858-81.858 122.731-122.731 35.338-35.338 70.777-70.777 106.092-106.092 17.202-17.202 34.179-34.741 51.606-51.606 0.225-0.225 0.452-0.452 0.695-0.695 0 27.253 0 54.373 0 81.633-14.209-14.209-28.281-28.281-42.482-42.482-33.835-33.835-67.649-67.649-101.603-101.603-40.873-40.873-81.858-81.858-122.731-122.731-35.338-35.338-70.777-70.777-106.092-106.092-17.202-17.202-34.629-34.179-51.606-51.606-0.225-0.225-0.452-0.452-0.695-0.695-10.508-10.508-16.864-25.986-16.864-40.873 0-14.209 6.244-31.058 16.864-40.873 10.958-10.051 25.392-17.539 40.873-16.864 15.364 0.695 29.789 5.886 40.873 16.864 14.209 14.209 28.281 28.281 42.482 42.482 33.835 33.835 67.649 67.649 101.603 101.603 40.873 40.873 81.858 81.858 122.731 122.731 35.338 35.338 70.777 70.777 106.092 106.092 17.202 17.202 34.629 34.179 51.606 51.606 0.225 0.225 0.452 0.452 0.695 0.695 22.062 22.062 22.062 59.571 0 81.633-14.209 14.209-28.281 28.281-42.482 42.482-33.835 33.835-67.649 67.649-101.603 101.603-40.873 40.873-81.858 81.858-122.731 122.731-35.338 35.338-70.777 70.777-106.092 106.092-17.202 17.202-34.179 34.629-51.606 51.606-0.225 0.225-0.452 0.452-0.695 0.695-10.508 10.508-25.986 16.864-40.873 16.864-14.209 0-31.058-6.244-40.873-16.864-10.051-10.958-17.539-25.392-16.864-40.873 0.695-15.121 5.886-29.548 16.864-40.648v0z" />
<glyph unicode="&#xe906;" glyph-name="single-angle-left" horiz-adv-x="991" d="M738.881 817.488c-13.646-13.646-27.176-27.176-40.823-40.823-32.506-32.506-65.006-65.006-97.622-97.622-39.271-39.271-78.652-78.652-117.923-117.923-33.947-33.947-68.005-68.005-101.946-101.946-16.529-16.529-32.837-33.389-49.587-49.587-0.221-0.221-0.442-0.442-0.667-0.667 0 26.183 0 52.249 0 78.431 13.646-13.646 27.176-27.176 40.823-40.823 32.506-32.506 65.006-65.006 97.622-97.622 39.271-39.271 78.652-78.652 117.923-117.923 33.947-33.947 68.005-68.005 101.946-101.946 16.529-16.529 33.279-32.837 49.587-49.587 0.221-0.221 0.442-0.442 0.667-0.667 10.095-10.095 16.198-24.962 16.198-39.271 0-13.646-5.992-29.841-16.198-39.271-10.537-9.654-24.404-16.86-39.271-16.198-14.756 0.667-28.623 5.655-39.271 16.198-13.646 13.646-27.176 27.176-40.823 40.823-32.506 32.506-65.006 65.006-97.622 97.622-39.271 39.271-78.652 78.652-117.923 117.923-33.947 33.947-68.005 68.005-101.946 101.946-16.529 16.529-33.279 32.837-49.587 49.587-0.221 0.221-0.442 0.442-0.667 0.667-21.19 21.19-21.19 57.241 0 78.431 13.646 13.646 27.176 27.176 40.823 40.823 32.506 32.506 65.006 65.006 97.622 97.622 39.271 39.271 78.652 78.652 117.923 117.923 33.947 33.947 68.005 68.005 101.946 101.946 16.529 16.529 32.837 33.279 49.587 49.587 0.221 0.221 0.442 0.442 0.667 0.667 10.095 10.095 24.962 16.198 39.271 16.198 13.646 0 29.841-5.992 39.271-16.198 9.654-10.537 16.86-24.404 16.198-39.271-0.667-14.53-5.655-28.397-16.198-39.050v0z" />
<glyph unicode="&#xe907;" glyph-name="single-angle-right" horiz-adv-x="1023" d="M268.117 817.488c13.646-13.646 27.176-27.176 40.823-40.823 32.506-32.506 65.006-65.006 97.622-97.622 39.271-39.271 78.652-78.652 117.923-117.923 33.947-33.947 68.005-68.005 101.946-101.946 16.529-16.529 32.837-33.389 49.587-49.587 0.221-0.221 0.442-0.442 0.667-0.667 0 26.183 0 52.249 0 78.431-13.646-13.646-27.176-27.176-40.823-40.823-32.506-32.506-65.006-65.006-97.622-97.622-39.271-39.271-78.652-78.652-117.923-117.923-33.947-33.947-68.005-68.005-101.946-101.946-16.529-16.529-33.279-32.837-49.587-49.587-0.221-0.221-0.442-0.442-0.667-0.667-10.095-10.095-16.198-24.962-16.198-39.271 0-13.646 5.992-29.841 16.198-39.271 10.537-9.654 24.404-16.86 39.271-16.198 14.756 0.667 28.623 5.655 39.271 16.198 13.646 13.646 27.176 27.176 40.823 40.823 32.506 32.506 65.006 65.006 97.622 97.622 39.271 39.271 78.652 78.652 117.923 117.923 33.947 33.947 68.005 68.005 101.946 101.946 16.529 16.529 33.279 32.837 49.587 49.587 0.221 0.221 0.442 0.442 0.667 0.667 21.19 21.19 21.19 57.241 0 78.431-13.646 13.646-27.176 27.176-40.823 40.823-32.506 32.506-65.006 65.006-97.622 97.622-39.271 39.271-78.652 78.652-117.923 117.923-33.947 33.947-68.005 68.005-101.946 101.946-16.529 16.529-32.837 33.279-49.587 49.587-0.221 0.221-0.442 0.442-0.667 0.667-10.095 10.095-24.962 16.198-39.271 16.198-13.646 0-29.841-5.992-39.271-16.198-9.654-10.537-16.86-24.404-16.198-39.271 0.667-14.53 5.655-28.397 16.198-39.050v0z" />
<glyph unicode="&#xe908;" glyph-name="double-angle-left" horiz-adv-x="1023" d="M515.312 826.512c-13.987-13.987-27.839-27.839-41.817-41.817-33.306-33.306-66.591-66.591-100.014-100.014-40.234-40.234-80.578-80.578-120.812-120.812-34.785-34.785-69.67-69.67-104.433-104.433-16.933-16.933-33.644-34.198-50.799-50.799-0.221-0.221-0.445-0.445-0.684-0.684 0 26.827 0 53.523 0 80.357 13.987-13.987 27.839-27.839 41.817-41.817 33.306-33.306 66.591-66.591 100.014-100.014 40.234-40.234 80.578-80.578 120.812-120.812 34.785-34.785 69.67-69.67 104.433-104.433 16.933-16.933 34.087-33.644 50.799-50.799 0.221-0.221 0.445-0.445 0.684-0.684 10.344-10.344 16.601-25.58 16.601-40.234 0-13.987-6.146-30.572-16.601-40.234-10.787-9.894-24.995-17.265-40.234-16.601-15.123 0.684-29.323 5.794-40.234 16.601-13.987 13.987-27.839 27.839-41.817 41.817-33.306 33.306-66.591 66.591-100.014 100.014-40.234 40.234-80.578 80.578-120.812 120.812-34.785 34.785-69.67 69.67-104.433 104.433-16.933 16.933-34.087 33.644-50.799 50.799-0.221 0.221-0.445 0.445-0.684 0.684-21.717 21.717-21.717 58.64 0 80.357 13.987 13.987 27.839 27.839 41.817 41.817 33.306 33.306 66.591 66.591 100.014 100.014 40.234 40.234 80.578 80.578 120.812 120.812 34.785 34.785 69.67 69.67 104.433 104.433 16.933 16.933 33.644 34.087 50.799 50.799 0.221 0.221 0.445 0.445 0.684 0.684 10.344 10.344 25.58 16.601 40.234 16.601 13.987 0 30.572-6.146 40.234-16.601 9.894-10.787 17.265-24.995 16.601-40.234-0.684-14.884-5.794-29.086-16.601-40.012v0zM990.363 826.512c-13.987-13.987-27.839-27.839-41.817-41.817-33.306-33.306-66.591-66.591-100.014-100.014-40.234-40.234-80.578-80.578-120.812-120.812-34.785-34.785-69.67-69.67-104.433-104.433-16.933-16.933-33.644-34.198-50.799-50.799-0.221-0.221-0.445-0.445-0.684-0.684 0 26.827 0 53.523 0 80.357 13.987-13.987 27.839-27.839 41.817-41.817 33.306-33.306 66.591-66.591 100.014-100.014 40.234-40.234 80.578-80.578 120.812-120.812 34.785-34.785 69.67-69.67 104.433-104.433 16.933-16.933 34.087-33.644 50.799-50.799 0.221-0.221 0.445-0.445 0.684-0.684 10.344-10.344 16.601-25.58 16.601-40.234 0-13.987-6.146-30.572-16.601-40.234-10.787-9.894-24.995-17.265-40.234-16.601-15.123 0.684-29.323 5.794-40.234 16.601-13.987 13.987-27.839 27.839-41.817 41.817-33.306 33.306-66.591 66.591-100.014 100.014-40.234 40.234-80.578 80.578-120.812 120.812-34.785 34.785-69.67 69.67-104.433 104.433-16.933 16.933-34.087 33.644-50.799 50.799-0.221 0.221-0.445 0.445-0.684 0.684-21.717 21.717-21.717 58.64 0 80.357 13.987 13.987 27.839 27.839 41.817 41.817 33.306 33.306 66.591 66.591 100.014 100.014 40.234 40.234 80.578 80.578 120.812 120.812 34.785 34.785 69.67 69.67 104.433 104.433 16.933 16.933 33.644 34.087 50.799 50.799 0.221 0.221 0.445 0.445 0.684 0.684 10.344 10.344 25.58 16.601 40.234 16.601 13.987 0 30.572-6.146 40.234-16.601 9.894-10.787 17.265-24.995 16.601-40.234-0.684-14.884-5.794-29.086-16.601-40.012v0z" />
<glyph unicode="&#xe909;" glyph-name="envelope" d="M977.455 535.481v-412.467c0-45.714-37.403-83.117-83.117-83.117h-764.675c-45.714 0-83.117 37.403-83.117 83.117v412.467c15.584-17.143 33.246-32.208 52.467-45.194 86.234-58.701 173.506-117.403 258.182-179.221 43.636-32.208 97.663-71.688 154.284-71.688h1.039c56.624 0 110.649 39.481 154.284 71.688 84.674 61.299 171.948 120.519 258.701 179.221 18.701 12.987 36.364 28.052 51.948 45.194zM977.455 688.208c0-58.182-43.117-110.649-88.831-142.337-81.039-56.104-162.597-112.208-243.117-168.831-33.766-23.376-90.909-71.169-132.987-71.169h-1.039c-42.078 0-99.221 47.792-132.987 71.169-80.519 56.624-162.078 112.727-242.597 168.831-36.883 24.934-89.351 83.636-89.351 130.909 0 50.909 27.533 94.544 83.117 94.544h764.675c45.194 0 83.117-37.403 83.117-83.117z" />
<glyph unicode="&#xe948;" glyph-name="sg-crest" d="M188.849 605.718c0 0-30.409-42.948 9.43-98.502 0 0 6.287 28.29 69.154 28.29h75.475c71.272 0 124.709 68.094 91.157 138.341 0 0 50.293-5.262 67.104 26.206 16.741 31.434-1.059 44.007-26.206 44.007h-126.827c0-22.55-42.948-25.693-42.948 0h-71.272c0 0-53.471 0-54.496-45.066 0 0 12.061 7.346 24.088 8.371v-12.027c0 0-14.657-2.631-21.491-6.321-6.8-3.656-16.741-13.598-7.312-39.291 9.43-25.659 13.086-34.577 13.086-34.577s15.204 13.12 39.838 13.12h28.837c51.318 0 41.888-49.781-9.464-49.781s-58.152 27.231-58.152 27.231zM456.611 657.601c0 0 17.288-1.059 29.862 9.943 0 0 113.707-88.56-55.009-266.705-168.75-178.145-38.266-293.458-38.266-293.458s-30.375-29.315-13.086-86.441c0 0-70.179 39.634-123.854 106.907-77.593 97.238-124.982 246.034 88.048 364.695 0 0 140.596 70.725 112.306 165.059zM282.808 760.817c0 0 22.721 40.522 75.44 40.522 41.581 0 51.045 21.32 51.045 21.32s18.143 34.577 109.675 34.577c83.879 0 140.425-27.948 186.175-65.327 0 0-123.307 76.5-244.873-31.091h-177.462zM795.626 504.417c-3.485 126.45-101.304 261.99-311.6 254.302 205.411 173.977 561.735-214.464 268.277-418.508 0 0 49.098 70.007 43.323 164.205zM515.469 744.753c256.421 7.688 347.954-299.711 182.348-438.051l-166.289-80.36c0 0-21.662 69.871 58.698 151.632 80.36 81.727 157.884 234.725-64.268 335.346 0 0 4.202 20.944-10.489 31.434zM502.189 675.585c0 0 12.573 11.89 16.775 21.662 190.718-79.643 160.686-214.498 46.809-327.693-69.871-71.955-48.209-149.513-48.209-149.513s-85.212-53.061-114.561-99.186c0 0-123.375 105.063 47.491 279.45 167.69 171.175 51.694 275.281 51.694 275.281z" />
<glyph unicode="&#xe949;" glyph-name="notification" d="M511.999-64c58.98 0 107.085 46 107.085 102.4h-214.17c0-56.4 48.104-102.4 107.085-102.4zM860.023 243.2v281.6c0 158.8-112.521 286.8-267.71 322.6v35.8c0 41-37.437 76.8-80.313 76.8s-80.314-35.8-80.314-76.8v-35.8c-155.189-35.8-267.712-163.8-267.712-322.6v-281.6l-107.085-102.4v-51.2h910.222v51.2l-107.088 102.4z" />
<glyph unicode="&#xe94a;" glyph-name="rightward" d="M1012.582 486.378l-344.437 367.478c-9.391 12.238-47.701 23.402-69.324 6.89-23.49-17.937-23.668-52.748-6.303-75.419l255.933-279.953h-799.204c-27.097 0-49.196-23.984-49.246-53.469-0.041-29.496 21.999-53.546 49.155-53.611h798.925l-248.028-284.141c-17.324-22.672-24.137-59.692 0-78.74 21.335-16.843 59.885-5.394 69.265 6.843l343.289 375.572c7.346 9.602 11.394 21.774 11.394 34.264-0.016 12.522-4.063 24.716-11.418 34.287z" />
<glyph unicode="&#xe94b;" glyph-name="leftward" d="M11.418 486.378l344.437 367.478c9.391 12.238 47.701 23.402 69.324 6.89 23.49-17.937 23.668-52.748 6.303-75.419l-255.933-279.953h799.204c27.097 0 49.196-23.984 49.246-53.469 0.041-29.496-21.999-53.546-49.155-53.611h-798.925l248.028-284.141c17.324-22.672 24.137-59.692 0-78.74-21.335-16.843-59.885-5.394-69.265 6.843l-343.289 375.572c-7.346 9.602-11.394 21.774-11.394 34.264 0.016 12.522 4.063 24.716 11.418 34.287z" />
<glyph unicode="&#xe94c;" glyph-name="share" d="M820.393 236.162c-39.038 0-73.979-15.316-100.606-39.465l-366.635 213.247c2.646 11.82 4.693 23.722 4.693 36.010s-2.091 24.15-4.693 36.011l362.496 211.243c27.645-25.601 64.211-41.6 104.745-41.6 85.465 0 154.328 68.736 154.328 154.197 0 85.289-68.909 154.194-154.328 154.194-85.29 0-154.194-68.906-154.194-154.154 0-12.458 2.088-24.149 4.694-36.011l-362.499-211.412c-27.691 25.727-64.213 41.685-104.79 41.685-85.461 0-154.326-68.865-154.326-154.154s68.865-154.194 154.326-154.194c40.532 0 77.099 15.999 104.747 41.599l365.991-213.72c-2.514-10.879-4.093-22.226-4.093-33.537 0-82.771 67.454-150.101 150.101-150.101 82.729 0 150.225 67.284 150.225 150.101s-67.449 150.060-150.183 150.060z" />
<glyph unicode="&#xe94d;" glyph-name="copy" d="M917.811 602.924c-22.209 30.291-53.172 65.699-87.178 99.704s-69.413 64.964-99.704 87.178c-51.573 37.818-76.592 42.194-90.926 42.194h-368.005c-44.114 0-79.998-35.888-79.998-79.998v-736.004c0-44.114 35.886-79.998 79.998-79.998h608.006c44.114 0 79.998 35.888 79.998 79.998v496.006c0 14.334-4.371 39.349-42.194 90.926zM785.378 657.375c30.701-30.701 54.8-58.396 72.581-81.373h-153.957v153.946c22.983-17.781 50.678-41.878 81.373-72.573v0zM896.004 15.995c0-8.672-7.328-15.999-15.999-15.999h-608.006c-8.672 0-15.999 7.328-15.999 15.999v736.004c0 8.672 7.328 15.999 15.999 15.999 0 0 367.959 0 368.005 0v-224.002c0-17.672 14.325-32 32.002-32h224.002v-496.006zM602.926 917.803c-51.573 37.824-76.592 42.197-90.926 42.197h-368.005c-44.114 0-79.998-35.888-79.998-79.998v-736.004c0-38.631 27.527-70.956 63.999-78.388v814.398c0 8.672 7.328 15.999 15.999 15.999h486.879c-9.645 7.92-19.027 15.259-27.954 21.805z" />
<glyph unicode="&#xe94e;" glyph-name="whatsapp" d="M872.9 811.2c-95.8 96-223.2 148.8-359 148.8-279.6 0-507.2-227.6-507.2-507.4 0-89.4 23.4-176.8 67.8-253.6l-72-263 269 70.6c74.2-40.4 157.6-61.8 242.4-61.8h0.2c0 0 0 0 0 0 279.6 0 507.4 227.6 507.4 507.4 0 135.6-52.8 263-148.6 359zM514.1 30.4v0c-75.8 0-150 20.4-214.8 58.8l-15.4 9.2-159.6-41.8 42.6 155.6-10 16c-42.4 67-64.6 144.6-64.6 224.4 0 232.6 189.2 421.8 422 421.8 112.6 0 218.6-44 298.2-123.6 79.6-79.8 123.4-185.6 123.4-298.4-0.2-232.8-189.4-422-421.8-422zM745.3 346.4c-12.6 6.4-75 37-86.6 41.2s-20 6.4-28.6-6.4c-8.4-12.6-32.8-41.2-40.2-49.8-7.4-8.4-14.8-9.6-27.4-3.2s-53.6 19.8-102 63c-37.6 33.6-63.2 75.2-70.6 87.8s-0.8 19.6 5.6 25.8c5.8 5.6 12.6 14.8 19 22.2s8.4 12.6 12.6 21.2c4.2 8.4 2.2 15.8-1 22.2s-28.6 68.8-39 94.2c-10.2 24.8-20.8 21.4-28.6 21.8-7.4 0.4-15.8 0.4-24.2 0.4s-22.2-3.2-33.8-15.8c-11.6-12.6-44.4-43.4-44.4-105.8s45.4-122.6 51.8-131.2c6.4-8.4 89.4-136.6 216.6-191.4 30.2-13 53.8-20.8 72.2-26.8 30.4-9.6 58-8.2 79.8-5 24.4 3.6 75 30.6 85.6 60.2s10.6 55 7.4 60.2c-3 5.6-11.4 8.8-24.2 15.2z" />
</font>
</defs>
</svg>
