{"glyphs":{"0":{"ha":838,"x_min":75,"x_max":762,"o":"m 418 -25 q 164 127 252 -25 q 75 503 75 282 q 163 875 75 721 q 418 1029 249 1029 q 675 875 587 1029 q 762 503 762 721 q 673 127 762 282 q 418 -25 586 -25 m 418 75 q 566 175 511 75 q 619 503 619 275 q 565 829 619 729 q 418 929 511 929 q 271 829 325 929 q 218 503 218 729 q 271 175 218 275 q 418 75 325 75 z "},"1":{"ha":838,"x_min":125,"x_max":794,"o":"m 125 0 l 125 111 l 393 111 l 393 875 l 125 804 l 125 903 l 526 1029 l 526 111 l 794 111 l 794 0 l 125 0 z "},"2":{"ha":838,"x_min":114,"x_max":689,"o":"m 313 215 q 272 117 288 176 l 684 117 l 684 0 l 114 0 l 114 117 q 192 238 142 171 q 303 374 243 304 q 421 500 364 443 q 546 751 546 625 q 498 879 546 829 q 371 929 453 929 q 235 903 281 929 q 139 859 208 893 l 139 977 q 383 1029 264 1029 q 550 993 486 1029 q 652 896 615 956 q 689 755 689 833 q 654 614 689 682 q 624 569 643 593 q 572 509 606 546 q 519 452 538 473 q 447 372 498 425 q 369 288 396 318 q 313 215 342 258 z "},"3":{"ha":838,"x_min":158,"x_max":713,"o":"m 606 618 q 501 549 568 579 q 671 432 628 504 q 713 278 713 357 q 671 123 713 196 q 557 12 631 52 q 366 -25 484 -25 q 158 4 267 -25 l 158 122 q 297 82 258 87 q 340 79 328 79 q 449 95 400 79 q 519 138 498 111 q 570 278 570 199 q 510 429 570 368 q 427 475 481 458 q 297 492 372 492 q 252 490 268 492 l 252 586 q 457 612 411 586 q 524 682 500 639 q 547 778 547 724 q 504 889 547 847 q 389 928 461 928 q 174 873 288 928 l 174 990 q 397 1029 283 1029 q 611 964 541 1029 q 682 800 682 898 q 660 698 680 741 q 606 618 640 656 z "},"4":{"ha":838,"x_min":75,"x_max":753,"o":"m 494 0 l 494 268 l 75 268 l 75 380 l 494 1004 l 619 1004 l 619 368 l 753 368 l 753 268 l 619 268 l 619 0 l 494 0 m 187 368 l 494 368 l 494 823 l 187 368 z "},"5":{"ha":838,"x_min":183,"x_max":699,"o":"m 183 5 l 183 119 q 367 81 285 81 q 501 139 451 81 q 555 302 555 201 q 484 472 555 415 q 261 528 408 528 q 203 525 236 528 l 203 1004 l 672 1004 l 672 888 l 315 888 l 315 627 q 602 533 501 627 q 699 293 699 439 q 603 64 699 154 q 371 -25 505 -25 q 183 5 290 -25 z "},"6":{"ha":838,"x_min":110,"x_max":761,"o":"m 542 517 q 449 546 498 546 q 382 534 411 546 q 323 496 353 522 q 267 329 267 446 q 319 146 267 216 q 463 75 371 75 q 587 144 545 75 q 631 301 631 213 q 615 431 631 379 q 542 517 599 484 m 761 328 q 719 146 761 231 q 608 18 677 61 q 446 -25 538 -25 q 195 110 278 -25 q 110 482 110 244 q 163 785 110 665 q 304 966 215 903 q 503 1029 395 1029 q 705 991 585 1029 l 707 876 q 609 915 652 901 q 515 929 567 929 q 318 815 383 929 q 250 514 250 701 q 318 589 286 565 q 452 643 378 643 q 479 642 469 643 q 619 602 555 642 q 724 486 687 550 q 761 328 761 422 z "},"7":{"ha":838,"x_min":136,"x_max":742,"o":"m 742 892 q 517 484 598 650 q 403 216 440 328 q 350 0 363 106 l 191 0 q 214 119 199 71 q 260 225 229 158 q 333 373 292 292 q 406 509 374 454 l 615 878 l 136 878 l 136 1003 l 742 1003 l 742 892 z "},"8":{"ha":838,"x_min":109,"x_max":747,"o":"m 296 547 q 160 778 160 647 q 231 953 160 876 q 447 1029 300 1029 q 644 966 582 1029 q 707 812 707 904 q 660 669 707 736 q 530 553 612 603 q 707 406 667 469 q 747 264 747 340 q 705 117 747 184 q 590 12 663 49 q 421 -25 518 -25 q 257 9 325 -25 q 147 110 186 45 q 109 253 109 175 q 158 415 109 336 q 296 547 207 493 m 368 492 q 261 372 283 424 q 240 269 240 319 q 294 127 240 180 q 433 75 350 75 q 562 123 511 75 q 614 236 614 171 q 457 439 614 347 l 368 492 m 456 599 q 551 689 517 636 q 587 790 587 739 q 550 886 587 842 q 435 929 514 929 q 322 889 359 929 q 285 796 285 850 q 318 703 285 746 q 419 619 351 661 l 456 599 z "},"9":{"ha":838,"x_min":102,"x_max":753,"o":"m 400 929 q 275 860 318 929 q 231 703 231 790 q 254 576 231 636 q 321 488 277 517 q 414 458 366 458 q 539 508 482 458 q 596 675 596 558 q 545 859 596 787 q 400 929 492 929 m 382 363 q 243 404 309 363 q 140 515 178 444 q 102 675 102 585 q 143 859 102 774 q 256 986 184 943 q 416 1029 323 1029 q 668 895 585 1029 q 753 522 753 760 q 700 219 753 339 q 558 37 647 100 q 361 -25 468 -25 q 157 9 282 -25 l 155 125 q 240 97 218 104 q 295 83 263 90 q 349 75 328 76 q 545 187 475 75 q 612 492 612 298 q 520 401 572 427 q 382 363 469 375 z "},"":{"ha":1042,"x_min":174,"x_max":868,"o":"m 174 0 l 174 868 l 868 868 l 868 0 l 174 0 m 846 22 l 846 846 l 196 846 l 196 22 l 846 22 z "}," ":{"ha":838,"x_min":0,"x_max":0,"o":""},"!":{"ha":838,"x_min":335,"x_max":501,"o":"m 368 285 l 351 803 l 351 1004 l 485 1004 l 485 803 l 468 285 l 368 285 m 335 0 l 335 150 l 501 150 l 501 0 l 335 0 z "},"\"":{"ha":838,"x_min":168,"x_max":669,"o":"m 201 703 l 168 1071 l 336 1071 l 301 703 l 201 703 m 536 703 l 501 1071 l 669 1071 l 636 703 l 536 703 z "},"#":{"ha":838,"x_min":35,"x_max":808,"o":"m 115 0 l 191 306 l 35 306 l 54 406 l 215 406 l 264 604 l 94 604 l 115 704 l 290 704 l 366 1004 l 467 1004 l 393 704 l 551 704 l 625 1004 l 728 1004 l 654 704 l 808 704 l 789 604 l 628 604 l 579 406 l 749 406 l 729 306 l 554 306 l 481 0 l 376 0 l 450 306 l 293 306 l 220 0 l 115 0 m 318 406 l 475 406 l 524 607 l 368 604 l 318 406 z "},"$":{"ha":838,"x_min":146,"x_max":718,"o":"m 404 604 l 404 903 q 321 856 353 897 q 290 760 290 814 q 311 689 290 718 q 404 604 328 660 m 396 0 q 316 5 353 0 q 255 19 280 11 q 146 54 229 26 l 146 168 q 396 98 292 98 l 396 463 l 347 494 q 211 616 254 557 q 167 755 167 677 q 231 922 167 848 q 404 1004 292 994 l 404 1088 l 488 1088 l 488 1004 q 600 991 553 1002 q 693 960 648 980 l 693 850 q 488 909 595 899 l 488 551 l 533 524 q 669 411 621 472 q 718 265 718 350 q 661 97 718 178 q 479 0 603 17 l 479 -83 l 396 -83 l 396 0 m 479 412 l 479 100 q 547 132 524 111 q 598 183 579 153 q 616 245 616 212 q 582 335 616 290 q 538 378 566 355 q 479 412 510 401 z "},"%":{"ha":838,"x_min":0,"x_max":836,"o":"m 0 -25 l 734 1029 l 836 1029 l 102 -25 l 0 -25 m 205 545 q 103 571 150 545 q 29 654 56 596 q 1 774 1 711 q 28 893 1 836 q 103 977 56 950 q 205 1004 149 1004 q 310 977 262 1004 q 385 892 357 949 q 411 774 411 836 q 383 653 411 710 q 307 570 354 596 q 205 545 260 545 m 205 611 q 279 653 248 611 q 311 774 311 694 q 281 895 311 851 q 205 937 249 937 q 132 894 163 937 q 102 774 102 851 q 134 653 102 694 q 205 611 165 611 m 632 0 q 529 26 578 0 q 454 110 482 53 q 427 231 427 167 q 454 349 427 292 q 528 433 481 406 q 632 460 575 460 q 637 460 635 460 q 736 433 692 460 q 810 347 783 404 q 836 231 836 292 q 810 110 836 167 q 733 26 781 52 q 632 0 686 0 m 632 66 q 704 108 672 66 q 736 231 736 150 q 705 350 736 309 q 632 393 675 393 q 558 350 589 393 q 526 231 526 309 q 558 108 526 150 q 632 66 590 66 z "},"&":{"ha":838,"x_min":17,"x_max":838,"o":"m 532 149 q 392 340 450 249 q 294 513 340 421 q 191 429 224 478 q 155 319 155 380 q 183 199 155 256 q 258 114 209 148 q 367 86 296 86 q 456 104 417 91 q 532 149 496 117 m 375 652 q 471 729 437 682 q 503 825 503 778 q 478 900 503 872 q 416 928 453 928 q 353 897 378 928 q 326 822 326 865 q 375 652 326 760 m 193 810 q 258 970 193 909 q 415 1029 322 1029 q 562 979 497 1029 q 627 835 627 928 q 579 694 627 758 q 414 562 533 631 q 629 241 490 412 q 668 317 656 281 q 694 404 684 347 q 704 507 704 461 q 703 534 704 526 l 838 534 q 794 325 833 442 q 703 150 757 211 q 838 0 766 75 l 653 0 l 603 60 q 343 -25 492 -25 q 171 17 241 -25 q 58 132 100 58 q 17 292 17 204 q 62 457 17 380 q 254 596 110 533 q 193 810 193 729 z "},"'":{"ha":838,"x_min":318,"x_max":519,"o":"m 368 653 l 318 1071 l 519 1071 l 468 653 l 368 653 z "},"(":{"ha":838,"x_min":235,"x_max":736,"o":"m 736 -201 q 471 -93 581 -183 q 298 134 361 -4 q 235 435 235 271 q 298 736 235 599 q 471 964 361 873 q 736 1071 581 1054 l 736 979 q 533 883 610 954 q 412 694 456 812 q 368 435 368 575 q 412 176 368 296 q 532 -12 456 57 q 736 -109 610 -83 l 736 -201 z "},")":{"ha":838,"x_min":100,"x_max":602,"o":"m 100 1071 q 366 964 256 1054 q 539 736 476 873 q 602 435 602 599 q 539 134 602 271 q 366 -93 475 -4 q 100 -201 256 -183 l 100 -109 q 304 -12 227 -83 q 425 176 380 57 q 468 435 468 296 q 425 694 468 574 q 304 884 380 812 q 100 979 227 953 l 100 1071 z "},"*":{"ha":838,"x_min":111,"x_max":725,"o":"m 492 675 l 648 498 l 542 419 l 418 628 l 296 419 l 187 498 l 340 667 l 111 732 l 153 860 l 371 754 l 351 1004 l 485 1004 l 461 761 l 685 860 l 725 732 l 492 675 z "},"+":{"ha":838,"x_min":58,"x_max":778,"o":"m 368 0 l 368 310 l 58 310 l 58 411 l 368 411 l 368 720 l 469 720 l 469 411 l 778 411 l 778 310 l 469 310 l 469 0 l 368 0 z "},",":{"ha":838,"x_min":318,"x_max":519,"o":"m 494 -87 q 453 -161 479 -134 q 395 -201 428 -189 q 318 -218 361 -214 l 318 -150 q 361 -135 345 -146 q 389 -105 382 -121 q 398 -55 397 -88 q 401 0 399 -21 l 318 0 l 318 201 l 519 201 l 519 79 q 494 -87 519 -33 z "},"-":{"ha":838,"x_min":143,"x_max":694,"o":"m 143 368 l 143 468 l 694 468 l 694 368 l 143 368 z "},".":{"ha":838,"x_min":318,"x_max":519,"o":"m 318 0 l 318 201 l 519 201 l 519 0 l 318 0 z "},"/":{"ha":838,"x_min":52,"x_max":787,"o":"m 787 1071 l 163 -201 l 52 -201 l 675 1071 l 787 1071 z "},":":{"ha":838,"x_min":318,"x_max":519,"o":"m 318 536 l 318 737 l 519 737 l 519 536 l 318 536 m 318 0 l 318 201 l 519 201 l 519 0 l 318 0 z "},";":{"ha":838,"x_min":318,"x_max":522,"o":"m 318 536 l 318 737 l 519 737 l 519 536 l 318 536 m 494 -87 q 428 -179 472 -143 q 318 -218 385 -214 l 318 -150 q 353 -140 340 -148 q 394 -110 387 -140 q 401 0 400 -79 l 318 0 l 318 201 l 519 201 q 520 134 519 178 q 522 69 522 90 q 517 -23 524 16 q 494 -87 511 -61 z "},"<":{"ha":838,"x_min":58,"x_max":778,"o":"m 778 0 l 58 359 l 778 720 l 778 607 l 283 359 l 778 113 l 778 0 z "},"=":{"ha":838,"x_min":58,"x_max":778,"o":"m 58 193 l 58 293 l 778 293 l 778 193 l 58 193 m 58 427 l 58 526 l 778 526 l 778 427 l 58 427 z "},">":{"ha":838,"x_min":58,"x_max":778,"o":"m 58 720 l 778 359 l 58 0 l 58 113 l 553 359 l 58 607 l 58 720 z "},"?":{"ha":838,"x_min":111,"x_max":736,"o":"m 285 0 l 285 150 l 452 150 l 452 0 l 285 0 m 606 586 q 531 526 566 557 q 476 468 497 494 q 452 428 456 441 q 439 365 443 403 q 435 285 435 328 l 301 285 q 305 350 301 313 q 315 406 309 386 q 357 493 329 453 q 415 559 373 517 q 498 631 456 601 q 573 707 549 666 q 596 789 596 747 q 536 893 596 856 q 368 929 475 929 q 211 908 292 929 l 211 793 l 111 793 l 111 989 q 390 1029 249 1029 q 654 966 571 1029 q 736 808 736 905 q 606 586 736 678 z "},"@":{"ha":838,"x_min":39,"x_max":827,"o":"m 642 22 q 427 -25 518 -25 q 232 33 319 -25 q 92 207 143 92 q 39 469 39 322 q 96 758 39 627 q 250 961 153 892 q 473 1029 346 1029 q 675 956 608 1029 q 742 729 742 879 l 742 285 l 827 285 l 827 201 l 642 201 l 642 427 q 546 240 596 289 q 447 193 496 193 q 343 260 387 193 q 298 444 298 325 q 335 633 298 549 q 428 764 370 718 q 555 811 488 811 q 596 806 574 811 q 642 789 618 800 q 578 909 628 878 q 467 939 530 939 q 306 888 372 939 q 184 711 231 831 q 139 468 139 591 q 180 253 139 350 q 290 106 221 153 q 439 58 361 58 q 642 115 526 58 l 642 22 m 562 739 q 444 665 489 739 q 399 460 399 591 q 416 335 399 380 q 458 292 432 292 q 461 292 460 292 q 562 401 510 294 q 642 595 615 509 l 642 711 q 562 739 616 739 z "},"A":{"ha":838,"x_min":8,"x_max":828,"o":"m 8 0 l 351 1004 l 485 1004 l 828 0 l 686 0 l 589 283 l 221 283 l 123 0 l 8 0 m 254 385 l 555 385 l 406 825 l 254 385 z "},"B":{"ha":838,"x_min":125,"x_max":754,"o":"m 621 583 q 513 522 591 557 q 694 416 635 489 q 754 252 754 345 q 724 134 754 188 q 668 65 691 90 q 613 23 646 40 q 533 7 580 7 q 387 0 469 0 l 125 0 l 125 1004 l 406 1004 q 539 994 486 1004 q 665 920 616 981 q 711 779 711 857 q 621 583 700 653 m 411 570 q 502 605 473 584 q 555 668 531 625 q 576 749 576 705 q 561 822 576 793 q 513 869 545 851 q 427 899 469 895 q 258 904 367 904 l 258 561 q 411 570 365 561 m 611 261 q 536 412 611 347 q 443 461 501 444 q 310 479 385 479 q 258 476 289 479 l 258 100 q 478 106 393 100 q 564 153 526 109 q 611 261 603 196 z "},"C":{"ha":838,"x_min":69,"x_max":783,"o":"m 783 24 q 530 -25 650 -25 q 345 8 428 -25 q 205 102 261 43 q 103 279 136 176 q 69 494 69 380 q 103 714 69 607 q 195 889 135 821 q 343 994 254 957 q 526 1029 431 1029 q 772 990 639 1029 l 772 867 q 524 929 637 929 q 393 897 453 929 q 294 810 332 864 q 232 664 253 745 q 212 496 212 581 q 302 201 212 311 q 418 115 350 144 q 566 85 486 85 q 783 134 657 85 l 783 24 z "},"D":{"ha":838,"x_min":89,"x_max":785,"o":"m 89 0 l 89 1004 l 350 1004 q 685 876 585 1004 q 785 521 785 749 q 758 302 785 403 q 663 127 730 203 q 513 28 597 56 q 315 0 429 0 l 89 0 m 222 100 l 289 100 q 500 144 429 100 q 607 278 570 186 q 642 509 642 368 q 608 734 642 646 q 510 864 574 822 q 285 904 444 904 l 222 903 l 222 100 z "},"E":{"ha":838,"x_min":147,"x_max":765,"o":"m 147 0 l 147 1004 l 734 1004 l 734 904 l 281 904 l 281 581 l 665 581 l 665 481 l 281 481 l 281 100 l 765 100 l 765 0 l 147 0 z "},"F":{"ha":838,"x_min":168,"x_max":786,"o":"m 168 0 l 168 1004 l 786 1004 l 786 904 l 301 904 l 301 542 l 715 542 l 715 441 l 301 441 l 301 0 l 168 0 z "},"G":{"ha":838,"x_min":52,"x_max":765,"o":"m 765 22 q 612 -20 661 -12 q 519 -25 564 -25 q 273 35 375 -25 q 113 216 171 94 q 52 500 52 340 q 107 775 52 652 q 267 964 161 897 q 515 1029 372 1029 q 754 991 621 1029 l 755 868 q 510 929 631 929 q 347 879 418 929 q 235 724 275 831 q 195 492 195 618 q 239 275 195 364 q 366 135 282 184 q 545 83 447 83 q 632 93 579 83 l 632 432 l 765 432 l 765 22 z "},"H":{"ha":838,"x_min":100,"x_max":736,"o":"m 100 0 l 100 1004 l 233 1004 l 233 576 l 602 576 l 602 1004 l 736 1004 l 736 0 l 602 0 l 602 476 l 233 476 l 233 0 l 100 0 z "},"I":{"ha":838,"x_min":117,"x_max":720,"o":"m 117 0 l 117 100 l 351 100 l 351 904 l 117 904 l 117 1004 l 720 1004 l 720 904 l 486 904 l 486 100 l 720 100 l 720 0 l 117 0 z "},"J":{"ha":838,"x_min":134,"x_max":631,"o":"m 134 121 q 236 87 181 99 q 325 75 292 75 q 414 92 375 75 q 476 151 454 110 q 497 300 497 195 l 497 904 l 197 904 l 197 1004 l 631 1004 l 631 371 q 591 110 631 180 q 483 7 550 39 q 335 -25 416 -25 q 134 7 258 -25 l 134 121 z "},"K":{"ha":838,"x_min":115,"x_max":815,"o":"m 115 0 l 115 1004 l 249 1004 l 249 511 l 612 1004 l 749 1004 l 397 526 l 815 0 l 656 0 l 249 511 l 249 0 l 115 0 z "},"L":{"ha":838,"x_min":150,"x_max":753,"o":"m 150 0 l 150 1004 l 283 1004 l 283 111 l 753 111 l 753 0 l 150 0 z "},"M":{"ha":838,"x_min":64,"x_max":772,"o":"m 416 433 l 606 1004 l 772 1004 l 772 0 l 661 0 l 661 880 l 465 268 l 353 268 l 168 865 l 168 0 l 64 0 l 64 1004 l 225 1004 l 416 433 z "},"N":{"ha":838,"x_min":100,"x_max":736,"o":"m 627 240 l 627 1004 l 736 1004 l 736 0 l 612 0 l 208 768 l 208 0 l 100 0 l 100 1004 l 227 1004 l 627 240 z "},"O":{"ha":838,"x_min":41,"x_max":794,"o":"m 418 -25 q 140 123 236 -25 q 41 501 41 272 q 140 880 41 732 q 418 1029 237 1029 q 697 880 600 1029 q 794 501 794 732 q 697 123 794 272 q 418 -25 600 -25 m 418 75 q 593 180 532 75 q 653 503 653 288 q 593 823 653 718 q 418 929 532 929 q 244 823 306 929 q 184 503 184 718 q 244 180 184 288 q 418 75 304 75 z "},"P":{"ha":838,"x_min":154,"x_max":785,"o":"m 154 0 l 154 1004 l 437 1004 q 587 993 525 1004 q 733 908 682 975 q 785 736 785 843 q 677 490 785 578 q 385 401 572 401 l 288 401 l 288 0 l 154 0 m 288 501 l 372 501 q 589 574 534 501 q 642 734 642 643 q 579 869 642 827 q 519 897 551 889 q 421 904 488 904 l 288 904 l 288 501 z "},"Q":{"ha":838,"x_min":41,"x_max":854,"o":"m 766 -218 q 603 -136 668 -179 q 464 -25 534 -93 l 419 -25 q 140 123 237 -25 q 41 501 41 272 q 140 880 41 733 q 418 1029 237 1029 q 697 880 600 1029 q 794 501 794 733 q 750 224 794 351 q 582 8 704 94 q 854 -106 705 -72 l 766 -218 m 184 501 q 244 180 184 286 q 418 75 306 75 q 593 180 532 75 q 653 503 653 288 q 593 823 653 718 q 418 929 532 929 q 244 823 306 929 q 184 501 184 718 z "},"R":{"ha":838,"x_min":125,"x_max":815,"o":"m 125 0 l 125 1004 l 368 1004 q 572 978 510 1004 q 669 890 635 951 q 705 760 705 829 q 665 608 705 688 q 503 468 624 529 l 815 0 l 654 0 l 379 429 l 258 429 l 258 0 l 125 0 m 258 529 l 329 529 q 504 596 444 529 q 562 749 562 661 q 545 831 562 796 q 482 885 524 865 q 340 904 440 904 l 258 904 l 258 529 z "},"S":{"ha":838,"x_min":111,"x_max":758,"o":"m 399 -25 q 262 -12 320 -23 q 111 24 204 -1 l 111 155 q 277 95 202 115 q 414 75 352 75 q 533 102 494 87 q 597 160 572 118 q 624 250 624 203 q 504 408 624 346 l 310 510 q 160 627 203 567 q 118 768 118 688 q 192 951 118 872 q 424 1029 264 1029 q 686 987 539 1029 l 685 872 q 546 915 611 901 q 424 929 481 929 q 389 933 405 933 q 264 863 317 933 q 243 789 243 826 q 253 730 244 755 q 291 680 262 705 q 376 628 319 654 l 558 533 q 716 412 675 473 q 758 271 758 351 q 665 60 758 144 q 399 -25 574 -25 z "},"T":{"ha":838,"x_min":17,"x_max":819,"o":"m 351 0 l 351 888 l 17 888 l 17 1004 l 819 1004 l 819 888 l 486 888 l 486 0 l 351 0 z "},"U":{"ha":838,"x_min":104,"x_max":733,"o":"m 422 75 q 561 125 505 75 q 616 342 616 175 l 616 1004 l 733 1004 l 733 361 q 722 197 733 253 q 627 41 703 109 q 424 -25 550 -25 q 187 61 273 -25 q 125 165 144 106 q 109 252 113 205 q 104 340 104 300 l 104 1004 l 227 1004 l 227 338 q 256 165 227 225 q 330 99 292 121 q 422 75 367 77 z "},"V":{"ha":838,"x_min":9,"x_max":827,"o":"m 347 0 l 9 1004 l 144 1004 l 424 178 l 713 1004 l 827 1004 l 482 0 l 347 0 z "},"W":{"ha":838,"x_min":11,"x_max":825,"o":"m 611 155 l 724 1004 l 825 1004 l 682 0 l 538 0 l 415 561 l 294 0 l 140 0 l 11 1004 l 125 1004 l 232 147 l 358 736 l 488 736 l 611 155 z "},"X":{"ha":838,"x_min":7,"x_max":827,"o":"m 7 0 l 346 513 l 36 1004 l 195 1004 l 432 629 l 679 1004 l 810 1004 l 494 528 l 827 0 l 668 0 l 410 411 l 138 0 l 7 0 z "},"Y":{"ha":838,"x_min":22,"x_max":832,"o":"m 353 0 l 353 424 l 22 1004 l 170 1004 l 429 550 l 705 1004 l 832 1004 l 486 424 l 486 0 l 353 0 z "},"Z":{"ha":838,"x_min":66,"x_max":770,"o":"m 66 0 l 66 100 l 612 888 l 100 888 l 100 1004 l 764 1004 l 764 904 l 218 117 l 770 117 l 770 0 l 66 0 z "},"[":{"ha":838,"x_min":301,"x_max":720,"o":"m 301 -200 l 301 1071 l 720 1071 l 720 971 l 418 971 l 418 -100 l 720 -100 l 720 -200 l 301 -200 z "},"\\":{"ha":838,"x_min":50,"x_max":786,"o":"m 673 -201 l 50 1071 l 163 1071 l 786 -201 l 673 -201 z "},"]":{"ha":838,"x_min":117,"x_max":536,"o":"m 536 1071 l 536 -200 l 117 -200 l 117 -100 l 419 -100 l 419 971 l 117 971 l 117 1071 l 536 1071 z "},"^":{"ha":838,"x_min":58,"x_max":778,"o":"m 58 201 l 418 1004 l 778 201 l 665 201 l 418 753 l 171 201 l 58 201 z "},"_":{"ha":838,"x_min":0,"x_max":838,"o":"m 0 -100 l 0 0 l 838 0 l 838 -100 l 0 -100 z "},"`":{"ha":838,"x_min":283,"x_max":585,"o":"m 467 869 l 283 1071 l 435 1071 l 585 869 l 467 869 z "},"a":{"ha":838,"x_min":92,"x_max":802,"o":"m 545 175 l 545 361 l 505 361 q 297 321 363 361 q 231 212 231 281 q 262 129 231 165 q 359 94 294 94 q 450 115 404 94 q 545 175 496 135 m 510 625 q 470 649 492 645 q 396 653 448 653 q 290 640 349 653 q 155 587 232 628 l 155 701 q 301 743 243 733 q 424 753 359 753 q 628 690 570 753 q 669 611 660 654 q 679 505 679 568 l 679 197 q 681 140 679 153 q 690 89 684 107 q 717 71 696 71 q 742 77 729 71 q 762 81 747 77 q 789 89 777 86 l 802 8 q 700 -12 734 -12 q 624 5 660 -12 q 567 89 589 24 q 440 9 498 32 q 323 -12 382 -12 q 160 45 227 -12 q 92 191 92 100 q 193 374 92 301 q 463 444 292 444 l 545 444 q 553 528 553 495 q 510 625 553 592 z "},"b":{"ha":838,"x_min":118,"x_max":762,"o":"m 252 183 q 345 109 298 134 q 435 83 389 83 q 564 150 509 83 q 619 378 619 218 q 575 579 619 521 q 464 639 530 639 q 361 606 418 639 q 252 497 304 572 l 252 183 m 249 83 l 249 -8 l 118 -8 l 118 1071 l 252 1071 l 252 599 q 359 714 300 675 q 492 753 419 753 q 690 654 618 753 q 762 393 762 555 q 679 100 762 210 q 578 12 636 43 q 453 -17 518 -17 q 350 3 400 -17 q 249 83 294 27 z "},"c":{"ha":838,"x_min":110,"x_max":749,"o":"m 749 24 q 511 -17 629 -17 q 210 87 310 -17 q 110 368 110 193 q 211 647 110 542 q 498 753 311 753 q 734 718 615 753 l 734 606 q 511 653 604 653 q 321 576 389 653 q 253 368 253 498 q 326 160 253 235 q 529 83 401 83 q 749 129 627 83 l 749 24 z "},"d":{"ha":838,"x_min":86,"x_max":730,"o":"m 597 551 q 504 628 550 603 q 414 653 458 653 q 285 586 340 653 q 229 357 229 519 q 272 157 229 215 q 383 98 317 98 q 488 132 431 98 q 597 239 545 165 l 597 551 m 597 139 q 488 22 549 61 q 355 -17 428 -17 q 158 82 231 -17 q 86 345 86 179 q 170 636 86 525 q 271 724 211 694 q 396 753 329 753 q 497 734 447 753 q 597 653 546 715 l 597 1071 l 730 1071 l 730 0 l 597 0 l 597 139 z "},"e":{"ha":838,"x_min":96,"x_max":745,"o":"m 603 433 q 550 607 603 554 q 432 653 503 653 q 302 596 354 653 q 241 433 252 539 l 603 433 m 745 29 q 630 -9 669 1 q 528 -18 592 -18 q 510 -17 518 -18 q 490 -17 503 -17 q 189 90 284 -17 q 96 359 96 197 q 192 637 96 522 q 443 753 286 753 q 527 744 487 753 q 600 718 567 736 q 659 672 633 699 q 722 553 702 625 q 742 378 742 480 q 742 354 742 363 q 741 334 741 345 l 237 334 q 323 138 245 192 q 509 83 401 83 q 745 135 615 83 l 745 29 z "},"f":{"ha":838,"x_min":100,"x_max":814,"o":"m 450 901 q 433 806 433 867 q 434 770 434 787 q 435 720 435 753 l 786 720 l 786 619 l 435 619 l 435 0 l 301 0 l 301 619 l 100 619 l 100 720 l 301 720 q 301 786 301 765 q 300 832 300 808 q 317 928 300 880 q 410 1044 337 1001 q 608 1088 482 1088 q 814 1059 718 1088 l 814 953 q 619 987 715 987 q 482 947 530 987 q 450 901 461 930 z "},"g":{"ha":838,"x_min":83,"x_max":730,"o":"m 614 261 l 614 550 q 513 632 566 604 q 411 653 467 653 q 271 572 317 653 q 227 364 227 490 q 268 183 227 249 q 387 117 311 117 q 517 168 450 117 q 545 190 526 174 q 583 224 564 206 q 614 261 601 242 m 616 153 q 595 123 607 136 q 573 102 584 111 q 555 86 562 93 q 358 0 480 0 q 255 22 298 0 q 161 90 212 43 q 99 197 115 136 q 83 354 83 258 q 104 506 83 435 q 165 635 125 577 q 393 754 245 754 q 493 736 447 754 q 614 653 570 707 l 614 737 l 730 736 l 730 147 q 718 -41 730 29 q 543 -261 698 -213 q 379 -285 473 -285 q 144 -245 275 -285 l 158 -134 q 217 -154 174 -138 q 297 -177 261 -170 q 380 -184 332 -184 q 541 -135 493 -184 q 589 -73 571 -107 q 607 14 606 -39 q 616 153 616 72 z "},"h":{"ha":838,"x_min":123,"x_max":718,"o":"m 718 504 l 718 0 l 585 0 l 585 467 q 581 534 585 510 q 467 627 555 627 q 363 591 409 625 q 257 482 313 554 l 257 0 l 123 0 l 123 1071 l 257 1071 l 257 599 q 368 712 301 672 q 509 753 435 753 q 671 682 612 753 q 709 609 701 650 q 718 504 717 568 z "},"i":{"ha":838,"x_min":117,"x_max":536,"o":"m 385 0 l 385 636 l 117 636 l 117 736 l 518 736 l 518 0 l 385 0 m 368 903 l 368 1071 l 536 1071 l 536 903 l 368 903 z "},"j":{"ha":838,"x_min":100,"x_max":607,"o":"m 439 903 l 439 1071 l 607 1071 l 607 903 l 439 903 m 526 -199 q 434 -266 484 -248 q 307 -285 384 -283 q 100 -249 215 -285 l 100 -138 q 307 -179 220 -177 q 416 -125 382 -179 q 448 -69 441 -102 q 456 18 456 -35 l 456 636 l 154 636 l 154 736 l 589 736 l 589 46 q 576 -94 589 -36 q 526 -199 566 -154 z "},"k":{"ha":838,"x_min":144,"x_max":806,"o":"m 144 0 l 144 1071 l 278 1071 l 278 385 l 587 736 l 732 736 l 440 406 l 806 0 l 625 0 l 278 385 l 278 0 l 144 0 z "},"l":{"ha":838,"x_min":117,"x_max":536,"o":"m 401 0 l 401 971 l 117 971 l 117 1071 l 536 1071 l 536 0 l 401 0 z "},"m":{"ha":838,"x_min":64,"x_max":774,"o":"m 760 671 q 774 539 774 635 l 774 0 l 657 0 l 657 570 q 643 614 655 590 q 615 637 630 637 q 546 587 584 637 q 478 475 507 539 l 478 0 l 361 0 l 361 510 q 355 599 361 582 q 317 636 347 636 q 247 588 286 636 q 180 473 208 541 l 180 0 l 64 0 l 64 736 l 180 736 l 180 599 q 261 714 224 675 q 345 753 300 753 q 428 713 392 753 q 478 599 472 664 q 549 705 505 660 q 643 753 592 753 q 760 671 742 753 z "},"n":{"ha":838,"x_min":123,"x_max":718,"o":"m 718 504 l 718 0 l 585 0 l 585 467 q 579 539 583 516 q 562 582 576 562 q 524 617 546 607 q 467 627 501 627 q 363 591 412 627 q 257 482 313 554 l 257 0 l 123 0 l 123 736 l 257 736 l 257 599 q 368 712 301 672 q 509 753 435 753 q 671 682 612 753 q 708 610 699 652 q 718 504 717 568 z "},"o":{"ha":838,"x_min":71,"x_max":765,"o":"m 418 -17 q 161 90 252 -17 q 71 368 71 197 q 161 646 71 541 q 418 753 252 753 q 675 646 585 753 q 765 368 765 541 q 675 90 765 197 q 418 -17 585 -17 m 418 83 q 570 160 515 83 q 623 368 623 235 q 570 578 623 501 q 418 653 515 653 q 268 578 322 653 q 214 368 214 501 q 268 160 214 235 q 418 83 321 83 z "},"p":{"ha":838,"x_min":121,"x_max":765,"o":"m 254 183 q 347 109 301 134 q 437 83 393 83 q 568 150 513 83 q 623 378 623 218 q 579 579 623 521 q 468 639 534 639 q 366 606 422 639 q 254 497 309 572 l 254 183 m 254 83 l 254 -268 l 121 -268 l 121 736 l 254 736 l 254 599 q 364 714 302 675 q 496 753 424 753 q 694 654 623 753 q 765 393 765 555 q 684 100 765 210 q 581 12 640 43 q 457 -17 522 -17 q 354 3 404 -17 q 254 83 304 25 z "},"q":{"ha":838,"x_min":75,"x_max":720,"o":"m 586 551 q 493 628 539 603 q 403 653 447 653 q 273 586 329 653 q 218 357 218 519 q 261 157 218 215 q 374 98 306 98 q 476 132 419 98 q 586 239 533 165 l 586 551 m 586 139 q 476 22 538 61 q 345 -17 416 -17 q 147 82 220 -17 q 75 345 75 179 q 158 636 75 525 q 260 724 201 694 q 385 753 318 753 q 486 734 436 753 q 539 704 511 725 q 591 653 568 682 l 591 736 l 720 736 l 720 -268 l 586 -268 l 586 139 z "},"r":{"ha":838,"x_min":208,"x_max":753,"o":"m 342 599 q 454 711 387 668 q 616 753 518 753 q 753 736 676 753 l 753 526 l 653 526 l 653 632 q 596 639 621 639 q 464 600 528 639 q 342 479 401 559 l 342 0 l 208 0 l 208 736 l 342 736 l 342 599 z "},"s":{"ha":838,"x_min":126,"x_max":715,"o":"m 374 465 l 542 406 q 681 323 644 371 q 715 211 715 277 q 636 50 715 117 q 399 -17 554 -17 q 126 29 271 -17 l 126 150 q 396 83 282 83 q 468 93 436 83 q 534 119 500 103 q 593 197 593 146 q 559 256 593 235 q 520 281 547 268 q 457 304 493 294 l 314 351 q 190 424 236 376 q 144 543 144 471 q 218 694 144 636 q 435 753 289 753 q 676 721 567 753 l 676 612 q 435 653 545 653 q 317 625 358 653 q 273 554 273 597 q 301 500 279 520 q 374 465 323 479 z "},"t":{"ha":838,"x_min":87,"x_max":747,"o":"m 336 41 q 272 264 272 120 l 272 597 l 87 597 l 87 720 l 272 720 l 272 878 l 407 878 l 407 720 l 732 720 l 732 597 l 407 597 l 407 241 q 414 171 407 202 q 444 117 422 140 q 582 83 504 83 q 747 103 665 83 l 747 0 q 553 -17 647 -17 q 420 -3 472 -17 q 336 41 368 12 z "},"u":{"ha":838,"x_min":119,"x_max":714,"o":"m 253 201 q 276 137 253 169 q 340 106 298 106 q 370 110 352 106 q 473 146 423 110 q 581 256 524 182 l 581 736 l 714 736 l 714 0 l 581 0 l 581 139 q 468 24 534 62 q 328 -17 403 -17 q 167 54 224 -17 q 150 75 159 64 q 135 97 142 85 q 124 129 128 110 q 119 168 119 147 l 119 736 l 253 736 l 253 201 z "},"v":{"ha":838,"x_min":41,"x_max":794,"o":"m 347 0 l 41 736 l 179 736 l 424 146 l 676 736 l 794 736 l 482 0 l 347 0 z "},"w":{"ha":838,"x_min":8,"x_max":828,"o":"m 143 0 l 8 736 l 132 736 l 229 160 l 231 160 l 361 669 l 492 669 l 615 140 l 616 140 l 725 736 l 828 736 l 681 0 l 550 0 l 419 550 l 418 550 l 275 0 l 143 0 z "},"x":{"ha":838,"x_min":62,"x_max":782,"o":"m 62 0 l 336 372 l 64 736 l 232 736 l 435 464 l 623 736 l 753 736 l 503 374 l 782 0 l 615 0 l 406 282 l 199 0 l 62 0 z "},"y":{"ha":838,"x_min":58,"x_max":800,"o":"m 96 -168 q 126 -170 106 -170 q 213 -160 173 -170 q 268 -138 252 -151 q 323 -72 299 -111 q 368 32 348 -33 l 58 736 l 196 736 l 436 184 l 679 736 l 800 736 l 429 -94 q 322 -232 387 -186 q 153 -268 260 -266 l 97 -268 l 96 -168 z "},"z":{"ha":838,"x_min":92,"x_max":745,"o":"m 92 0 l 92 100 l 575 636 l 109 636 l 110 736 l 732 736 l 732 636 l 249 100 l 745 100 l 745 0 l 92 0 z "},"{":{"ha":838,"x_min":158,"x_max":694,"o":"m 158 485 q 221 490 179 487 q 284 498 263 494 q 324 514 305 503 q 357 545 343 526 q 382 640 382 578 q 355 794 382 697 q 345 871 345 836 q 366 970 345 920 q 456 1046 399 1023 q 621 1071 515 1071 l 694 1071 l 694 971 l 640 971 q 492 942 526 971 q 457 860 462 917 q 469 727 457 816 q 481 600 481 638 q 476 549 481 572 q 432 470 459 499 q 353 435 406 441 q 432 400 406 428 q 476 321 458 372 q 481 271 481 298 q 477 211 481 241 q 470 152 474 180 q 461 82 466 124 q 457 9 457 41 q 492 -72 462 -48 q 640 -102 526 -102 l 694 -102 l 694 -201 l 621 -201 q 456 -176 515 -201 q 366 -100 398 -153 q 345 -1 345 -52 q 355 75 345 33 q 382 229 382 172 q 357 325 382 291 q 325 356 344 345 q 282 372 305 367 q 222 380 260 377 q 158 385 184 382 l 158 485 z "},"|":{"ha":838,"x_min":368,"x_max":468,"o":"m 368 -201 l 368 1071 l 468 1071 l 468 -201 l 368 -201 z "},"}":{"ha":838,"x_min":161,"x_max":697,"o":"m 697 485 l 697 385 q 633 380 670 382 q 573 372 597 377 q 531 356 550 367 q 498 325 513 345 q 473 229 473 290 q 477 178 473 206 q 487 126 481 150 q 500 75 492 102 q 511 -1 511 35 q 490 -100 511 -49 q 400 -176 456 -153 q 235 -201 340 -201 l 161 -201 l 161 -102 l 215 -102 q 364 -72 329 -102 q 399 9 394 -47 q 387 149 399 60 q 375 269 375 237 q 379 321 375 296 q 425 400 398 372 q 503 435 451 428 q 444 454 467 439 q 405 493 420 469 q 379 549 390 517 q 375 599 375 574 q 387 721 375 631 q 399 860 399 811 q 364 942 394 916 q 215 971 329 971 l 161 971 l 161 1071 l 235 1071 q 400 1046 340 1071 q 490 970 456 1023 q 511 871 511 918 q 500 794 511 835 q 480 711 487 745 q 473 640 473 677 q 498 545 473 580 q 531 514 513 525 q 572 498 550 503 q 635 490 593 494 q 697 485 676 487 z "},"~":{"ha":838,"x_min":58,"x_max":778,"o":"m 593 236 q 452 281 531 239 l 351 336 q 290 369 315 358 q 233 379 265 379 q 185 370 200 378 q 163 336 170 361 q 150 260 151 298 l 58 260 q 106 414 58 346 q 243 484 152 484 q 385 439 316 484 l 485 383 q 603 340 560 340 q 643 351 627 340 q 673 383 659 361 q 686 461 684 404 l 778 461 q 730 306 778 374 q 593 236 682 236 z "},"‚":{"ha":838,"x_min":318,"x_max":519,"o":"m 494 -87 q 453 -161 479 -134 q 395 -201 428 -189 q 318 -218 361 -214 l 318 -150 q 361 -135 345 -146 q 389 -105 382 -121 q 398 -55 397 -88 q 401 0 399 -21 l 318 0 l 318 201 l 519 201 l 519 79 q 494 -87 519 -33 z "},"ƒ":{"ha":838,"x_min":154,"x_max":777,"o":"m 307 586 q 333 709 313 642 q 376 828 353 776 q 415 905 399 881 q 521 999 461 968 q 654 1029 581 1029 q 777 1013 701 1029 l 755 908 q 644 929 692 929 q 533 882 571 929 q 467 700 494 836 l 443 586 l 561 586 l 561 486 l 428 486 l 290 -201 l 154 -201 l 289 486 l 180 486 l 180 586 l 307 586 z "},"„":{"ha":838,"x_min":167,"x_max":669,"o":"m 237 0 l 167 0 l 167 168 l 335 168 l 335 18 q 289 -151 335 -103 q 167 -201 244 -201 l 167 -134 q 237 0 237 -134 m 572 0 l 501 0 l 501 168 l 669 168 l 669 18 q 624 -151 669 -103 q 501 -201 579 -201 l 501 -134 q 572 0 572 -134 z "},"…":{"ha":838,"x_min":72,"x_max":764,"o":"m 72 0 l 72 134 l 205 134 l 205 0 l 72 0 m 351 0 l 351 134 l 486 134 l 486 0 l 351 0 m 629 0 l 629 134 l 764 134 l 764 0 l 629 0 z "},"†":{"ha":838,"x_min":134,"x_max":703,"o":"m 351 -201 l 368 570 l 134 551 l 134 653 l 368 636 l 351 1004 l 485 1004 l 468 636 l 703 653 l 703 551 l 468 570 l 485 -201 l 351 -201 z "},"‡":{"ha":838,"x_min":134,"x_max":703,"o":"m 351 -201 l 368 168 l 134 150 l 134 252 l 368 233 l 368 570 l 134 551 l 134 653 l 368 636 l 351 1004 l 485 1004 l 468 636 l 703 653 l 703 551 l 468 570 l 468 233 l 703 252 l 703 150 l 468 168 l 485 -201 l 351 -201 z "},"ˆ":{"ha":838,"x_min":193,"x_max":644,"o":"m 493 1071 l 644 869 l 526 869 l 418 996 l 310 869 l 193 869 l 343 1071 l 493 1071 z "},"‰":{"ha":838,"x_min":0,"x_max":838,"o":"m 0 -25 l 454 1029 l 546 1029 l 90 -25 l 0 -25 m 140 570 q 50 616 89 570 q 11 786 11 664 q 50 957 11 909 q 140 1004 87 1004 q 232 957 193 1004 q 271 786 271 909 q 232 616 271 664 q 140 570 193 570 m 140 636 q 175 673 164 636 q 186 786 186 711 q 175 900 186 863 q 140 937 164 937 q 107 900 118 937 q 96 786 96 863 q 107 673 96 711 q 140 636 118 636 m 406 0 q 315 47 353 0 q 277 218 277 94 q 315 387 277 340 q 406 435 353 435 q 497 387 458 435 q 536 218 536 340 q 497 47 536 94 q 406 0 458 0 m 406 66 q 440 106 429 66 q 452 218 452 143 q 440 330 452 293 q 406 368 429 368 q 371 330 382 368 q 359 218 359 293 q 371 106 359 143 q 406 66 382 66 m 707 0 q 616 47 656 0 q 576 218 576 94 q 615 387 576 340 q 707 435 654 435 q 799 387 760 435 q 838 218 838 340 q 799 47 838 94 q 707 0 758 0 m 707 66 q 742 106 729 66 q 753 218 753 143 q 742 330 753 293 q 707 368 729 368 q 672 330 685 368 q 661 218 661 293 q 672 106 661 143 q 707 66 685 66 z "},"‹":{"ha":838,"x_min":236,"x_max":623,"o":"m 536 673 l 618 596 l 387 364 l 623 135 l 538 58 l 236 364 l 536 673 z "},"Œ":{"ha":838,"x_min":50,"x_max":825,"o":"m 428 0 q 370 -19 397 -12 q 315 -25 342 -25 q 117 89 182 -25 q 50 515 50 203 q 113 908 50 786 q 317 1029 174 1029 q 364 1026 342 1029 q 427 1004 386 1023 l 786 1004 l 786 904 l 559 904 l 559 579 l 743 579 l 743 479 l 559 479 l 559 100 l 825 100 l 825 0 l 428 0 m 425 170 l 425 835 q 413 890 425 867 q 378 920 401 914 q 329 933 358 933 q 227 854 260 933 q 193 498 193 777 q 227 150 193 231 q 330 71 262 71 q 395 104 364 79 q 425 170 425 129 z "},"›":{"ha":838,"x_min":225,"x_max":602,"o":"m 300 58 l 225 131 l 450 368 l 227 591 l 298 673 l 602 368 l 300 58 z "},"œ":{"ha":838,"x_min":33,"x_max":818,"o":"m 272 85 q 346 143 321 85 q 371 355 371 201 q 346 583 371 515 q 271 653 319 653 q 197 570 220 653 q 176 368 176 486 q 195 174 176 262 q 272 85 214 85 m 505 441 l 676 441 q 679 481 679 467 q 677 510 679 492 q 675 539 676 528 q 673 557 674 551 q 602 653 664 648 q 529 600 553 653 q 512 529 518 576 q 505 441 505 481 m 428 83 q 367 7 401 32 q 269 -17 332 -17 q 97 89 162 -17 q 33 363 33 195 q 94 642 33 532 q 278 753 155 753 q 359 733 323 753 q 435 643 396 715 q 519 734 481 717 q 603 753 557 753 q 762 665 704 753 q 804 537 790 621 q 818 350 818 453 l 505 350 q 517 224 505 280 q 549 142 528 168 q 659 87 590 87 q 735 104 687 87 q 817 139 783 120 l 817 29 q 619 -17 701 -17 q 545 -7 579 -17 q 479 30 509 5 q 428 83 449 55 z "},"":{"ha":838,"x_min":0,"x_max":0,"o":""},"‘":{"ha":838,"x_min":317,"x_max":518,"o":"m 342 904 q 409 1001 366 973 q 518 1035 452 1029 l 518 966 q 475 951 492 963 q 447 922 455 939 q 438 871 439 905 q 435 817 437 838 l 518 817 l 518 615 l 317 615 l 317 737 q 342 904 317 849 z "},"’":{"ha":838,"x_min":318,"x_max":519,"o":"m 494 746 q 429 651 472 680 q 318 615 387 622 l 318 684 q 361 699 345 688 q 389 729 382 712 q 398 779 397 745 q 401 833 399 812 l 318 833 l 318 1035 l 519 1035 l 519 913 q 494 746 519 801 z "},"“":{"ha":838,"x_min":167,"x_max":669,"o":"m 264 871 l 335 871 l 335 703 l 167 703 l 167 852 q 212 1022 167 974 q 335 1071 257 1071 l 335 1004 q 283 971 302 1004 q 264 871 264 937 m 599 871 l 669 871 l 669 703 l 501 703 l 501 852 q 547 1022 501 974 q 669 1071 591 1071 l 669 1004 q 599 871 599 1004 z "},"”":{"ha":838,"x_min":167,"x_max":669,"o":"m 239 903 l 167 903 l 167 1071 l 335 1071 l 335 921 q 289 751 335 800 q 167 703 244 703 l 167 770 q 205 784 190 770 q 230 828 221 798 q 239 903 239 859 m 574 903 l 501 903 l 501 1071 l 669 1071 l 669 921 q 624 751 669 800 q 501 703 579 703 l 501 770 q 555 805 536 770 q 574 903 574 840 z "},"•":{"ha":838,"x_min":318,"x_max":519,"o":"m 418 297 q 347 326 376 297 q 318 397 318 355 q 347 468 318 439 q 418 497 378 497 q 489 468 460 497 q 519 397 519 439 q 490 326 519 355 q 418 297 460 297 z "},"–":{"ha":838,"x_min":92,"x_max":745,"o":"m 92 368 l 92 452 l 745 452 l 745 368 l 92 368 z "},"—":{"ha":838,"x_min":41,"x_max":794,"o":"m 41 368 l 41 452 l 794 452 l 794 368 l 41 368 z "},"˜":{"ha":838,"x_min":193,"x_max":644,"o":"m 443 884 q 407 902 433 888 q 361 924 381 916 q 326 932 342 932 q 277 869 283 932 l 193 869 q 205 946 194 915 q 233 996 216 978 q 318 1029 264 1029 q 393 1015 372 1029 q 434 995 412 1007 q 468 977 455 983 q 494 971 481 971 q 510 974 500 971 q 561 1029 555 974 l 644 1029 q 604 903 635 935 q 519 869 572 869 q 443 884 476 869 z "},"™":{"ha":838,"x_min":0,"x_max":798,"o":"m 143 501 l 143 916 l 0 916 l 0 1004 l 482 1004 l 582 737 l 696 1004 l 798 1004 l 798 501 l 703 501 l 703 827 l 615 586 l 541 586 l 461 798 l 461 501 l 371 501 l 371 916 l 243 916 l 243 501 l 143 501 z "}," ":{"ha":838,"x_min":0,"x_max":0,"o":""},"¡":{"ha":838,"x_min":335,"x_max":501,"o":"m 468 452 l 485 -66 l 485 -268 l 351 -268 l 351 -66 l 368 452 l 468 452 m 335 586 l 335 736 l 501 736 l 501 586 l 335 586 z "},"¢":{"ha":838,"x_min":134,"x_max":689,"o":"m 431 0 l 431 123 q 267 184 329 138 q 170 319 205 232 q 134 503 134 406 q 168 684 134 599 q 265 818 203 768 q 431 886 326 868 l 431 1004 l 514 1004 l 514 886 q 688 856 589 879 l 688 742 q 600 772 629 762 q 514 787 568 781 l 514 220 q 608 233 579 227 q 689 267 636 241 l 689 164 q 602 135 629 140 q 514 121 572 127 l 514 0 l 431 0 m 431 232 l 431 782 q 318 694 358 765 q 277 504 277 623 q 431 232 277 286 z "},"£":{"ha":838,"x_min":171,"x_max":724,"o":"m 253 170 q 306 326 306 216 l 306 486 l 192 486 l 192 586 l 306 586 l 306 732 q 339 904 306 844 q 428 996 371 962 q 570 1029 484 1029 q 714 1010 633 1029 l 714 896 q 564 929 623 929 q 473 897 509 929 q 439 785 439 867 l 439 586 l 574 586 l 574 486 l 439 486 l 439 390 l 439 351 q 406 216 439 259 q 323 117 385 180 l 724 117 l 724 0 l 171 0 l 171 117 q 253 170 224 138 z "},"¤":{"ha":838,"x_min":75,"x_max":762,"o":"m 418 335 q 532 385 484 335 q 579 503 579 435 q 532 623 579 574 q 418 672 484 672 q 306 623 354 672 q 257 503 257 574 q 306 385 257 435 q 418 335 354 335 m 496 248 q 424 235 461 235 q 342 248 385 235 q 261 288 298 263 l 136 160 l 75 221 l 201 347 q 157 503 157 421 q 201 660 157 586 l 75 786 l 136 846 l 261 720 q 342 760 301 745 q 416 774 379 774 q 496 760 457 774 q 576 720 536 745 l 701 846 l 762 786 l 635 660 q 679 503 679 586 q 635 347 679 421 l 762 221 l 701 160 l 576 288 q 496 248 540 263 z "},"¥":{"ha":838,"x_min":33,"x_max":819,"o":"m 350 0 l 350 180 l 149 180 l 149 272 l 350 272 l 350 410 l 149 410 l 149 501 l 347 501 l 33 1004 l 195 1004 l 440 610 l 704 1004 l 819 1004 l 489 501 l 685 501 l 685 410 l 484 410 l 484 272 l 685 272 l 685 180 l 484 180 l 484 0 l 350 0 z "},"¦":{"ha":838,"x_min":368,"x_max":468,"o":"m 368 -201 l 368 301 l 468 301 l 468 -201 l 368 -201 m 368 570 l 368 1071 l 468 1071 l 468 570 l 368 570 z "},"§":{"ha":838,"x_min":147,"x_max":697,"o":"m 562 323 q 572 370 574 343 q 562 420 572 395 q 539 454 552 446 q 323 582 510 475 q 277 458 277 515 q 309 374 277 406 q 406 304 341 338 l 521 244 q 562 323 555 300 m 659 -107 q 558 -192 628 -162 q 406 -221 489 -221 q 289 -210 353 -221 q 147 -174 224 -198 l 147 -50 q 297 -94 239 -79 q 415 -114 355 -109 q 474 -111 450 -114 q 521 -96 497 -107 q 575 -5 575 -66 q 538 82 575 46 q 484 125 513 105 q 416 158 455 145 q 292 221 353 179 q 201 297 231 263 q 157 418 157 347 q 170 491 157 456 q 202 554 184 527 q 253 623 221 582 q 180 692 204 652 q 157 790 157 732 q 195 908 157 852 q 266 982 227 955 q 350 1018 304 1008 q 461 1029 396 1028 q 661 1002 553 1029 l 660 888 q 454 929 551 929 q 326 896 375 929 q 277 810 277 863 q 296 754 277 781 q 351 716 323 736 q 411 679 380 697 q 473 648 441 661 q 636 534 552 602 q 673 483 661 516 q 685 411 685 450 q 665 321 685 359 q 583 203 646 269 q 697 11 697 151 q 659 -107 697 -52 z "},"¨":{"ha":838,"x_min":227,"x_max":611,"o":"m 227 871 l 227 987 l 343 987 l 343 871 l 227 871 m 494 871 l 494 987 l 611 987 l 611 871 l 494 871 z "},"©":{"ha":838,"x_min":118,"x_max":720,"o":"m 418 427 q 268 465 338 427 q 158 576 200 505 q 118 728 118 646 q 158 878 118 808 q 267 989 199 949 q 418 1029 336 1029 q 571 989 501 1029 q 679 878 639 949 q 720 728 720 808 q 677 576 720 646 q 568 465 636 505 q 418 427 500 427 m 418 493 q 534 525 482 493 q 621 611 587 555 q 653 728 653 665 q 623 843 653 789 q 536 930 590 899 q 418 962 482 962 q 301 930 354 962 q 215 843 248 899 q 184 728 184 789 q 216 610 184 665 q 302 525 249 555 q 418 493 355 493 m 536 575 q 427 557 482 557 q 288 603 334 557 q 241 729 241 652 q 289 856 241 808 q 421 903 335 903 q 529 888 475 903 l 524 825 q 427 846 481 846 q 345 814 376 846 q 309 729 309 776 q 342 640 309 672 q 435 608 376 608 q 462 611 448 608 q 495 621 475 614 q 530 633 514 628 l 536 575 z "},"ª":{"ha":838,"x_min":161,"x_max":701,"o":"m 353 575 q 431 590 393 575 q 504 636 468 606 l 504 742 q 399 735 452 742 q 323 718 347 729 q 277 646 277 695 q 296 593 277 610 q 353 575 315 577 m 504 825 q 469 924 504 900 q 387 946 436 946 q 187 885 278 937 l 187 983 q 406 1029 289 1029 q 570 991 517 1029 q 621 852 621 954 l 621 657 q 628 588 623 606 q 653 570 633 570 q 701 587 672 570 l 701 510 q 612 486 657 486 q 554 500 579 486 q 513 559 528 515 q 414 504 461 522 q 323 486 367 486 q 208 530 256 486 q 161 639 161 575 q 229 771 161 717 q 440 828 299 828 q 504 825 482 828 z "},"«":{"ha":838,"x_min":79,"x_max":764,"o":"m 379 673 l 467 596 l 232 364 l 460 135 l 382 58 l 79 364 l 379 673 m 676 673 l 764 596 l 528 364 l 762 135 l 679 58 l 376 364 l 676 673 z "},"¬":{"ha":838,"x_min":58,"x_max":778,"o":"m 58 436 l 58 536 l 778 536 l 778 201 l 677 201 l 677 436 l 58 436 z "},"­":{"ha":838,"x_min":143,"x_max":694,"o":"m 143 368 l 143 468 l 694 468 l 694 368 l 143 368 z "},"®":{"ha":838,"x_min":118,"x_max":720,"o":"m 418 427 q 268 465 338 427 q 158 576 200 505 q 118 728 118 646 q 158 878 118 808 q 267 989 199 949 q 418 1029 336 1029 q 571 989 501 1029 q 679 878 639 949 q 720 728 720 808 q 677 576 720 646 q 568 465 636 505 q 418 427 500 427 m 418 493 q 534 525 482 493 q 621 611 587 555 q 653 728 653 665 q 623 843 653 789 q 536 930 590 899 q 418 962 482 962 q 301 930 354 962 q 215 843 248 899 q 184 728 184 789 q 216 610 184 665 q 302 525 249 555 q 418 493 355 493 m 467 711 l 551 551 l 476 551 l 399 697 l 368 697 l 368 551 l 301 551 l 301 913 l 401 913 q 509 885 481 913 q 536 815 536 857 q 524 758 536 785 q 467 711 511 730 m 368 860 l 368 749 q 449 766 432 749 q 465 807 465 783 q 456 843 465 827 q 425 857 444 854 q 368 860 406 860 z "},"¯":{"ha":838,"x_min":0,"x_max":838,"o":"m 0 987 l 0 1088 l 838 1088 l 838 987 l 0 987 z "},"°":{"ha":838,"x_min":301,"x_max":534,"o":"m 418 794 q 335 831 370 794 q 301 913 301 867 q 335 993 301 957 q 418 1029 368 1029 q 501 993 468 1029 q 534 913 534 957 q 501 830 534 867 q 418 794 468 794 m 418 852 q 458 869 439 852 q 476 913 476 886 q 458 954 476 937 q 418 971 437 971 q 379 954 399 971 q 359 913 359 937 q 378 869 359 886 q 418 852 397 852 z "},"±":{"ha":838,"x_min":58,"x_max":778,"o":"m 58 0 l 58 100 l 778 100 l 778 0 l 58 0 m 368 201 l 368 411 l 58 411 l 58 511 l 368 511 l 368 720 l 469 720 l 469 511 l 778 511 l 778 411 l 469 411 l 469 201 l 368 201 z "},"²":{"ha":838,"x_min":205,"x_max":657,"o":"m 406 755 q 493 815 471 789 q 525 854 525 825 q 521 873 525 863 q 488 926 521 908 q 399 946 454 946 q 205 897 306 946 l 205 990 q 421 1029 310 1029 q 595 983 543 1029 q 646 878 646 941 q 595 770 631 797 q 523 729 570 755 q 446 687 475 703 q 378 646 416 670 q 329 595 350 628 l 657 595 l 657 503 l 205 503 l 205 597 q 278 676 241 652 q 406 755 345 725 z "},"³":{"ha":838,"x_min":212,"x_max":647,"o":"m 521 889 q 425 946 513 946 q 385 942 416 945 q 353 939 354 939 q 212 897 307 932 l 212 989 q 440 1029 322 1029 q 593 993 545 1029 q 642 904 642 958 q 614 831 642 865 q 510 771 585 798 q 612 718 579 751 q 647 636 647 685 q 591 530 647 575 q 416 486 538 486 q 212 514 332 486 l 212 608 q 404 570 342 570 q 485 586 449 570 q 521 640 521 604 q 472 704 521 684 q 288 725 425 725 l 288 808 q 398 814 341 808 q 476 829 455 819 q 521 889 521 850 z "},"´":{"ha":838,"x_min":252,"x_max":553,"o":"m 252 869 l 401 1071 l 553 1071 l 368 869 l 252 869 z "},"µ":{"ha":838,"x_min":121,"x_max":715,"o":"m 364 -17 q 254 16 305 -17 l 254 -201 l 121 -201 l 121 736 l 254 736 l 254 268 q 313 125 254 177 q 371 113 341 113 q 485 155 429 113 q 536 202 513 176 q 582 261 558 227 l 582 736 l 715 736 l 715 0 l 582 0 l 582 139 q 469 14 522 45 q 364 -17 415 -17 z "},"¶":{"ha":838,"x_min":85,"x_max":679,"o":"m 345 -201 l 345 501 q 139 610 193 536 q 85 782 85 684 q 109 897 85 846 q 181 977 131 949 q 361 1004 232 1004 l 679 1004 l 679 -201 l 596 -201 l 596 921 l 428 921 l 428 -201 l 345 -201 z "},"¸":{"ha":838,"x_min":336,"x_max":559,"o":"m 336 -250 l 336 -193 q 406 -207 378 -207 q 450 -196 435 -207 q 465 -171 465 -184 q 354 -109 465 -123 l 408 0 l 486 0 l 450 -74 q 559 -178 559 -104 q 529 -240 559 -214 q 433 -268 498 -268 q 336 -250 386 -268 z "},"¹":{"ha":838,"x_min":222,"x_max":494,"o":"m 325 611 l 325 921 l 222 921 l 222 1004 l 431 1029 l 431 611 l 494 611 l 494 511 l 267 511 l 267 611 l 325 611 z "},"º":{"ha":838,"x_min":151,"x_max":685,"o":"m 418 486 q 214 562 278 486 q 151 757 151 640 q 215 953 151 875 q 412 1029 279 1029 q 623 951 559 1029 q 685 757 685 872 q 623 562 685 640 q 418 486 558 486 m 418 570 q 526 619 492 570 q 559 753 559 669 q 526 893 559 839 q 418 946 493 946 q 310 893 343 946 q 277 753 277 839 q 311 619 277 669 q 418 570 346 570 z "},"»":{"ha":838,"x_min":78,"x_max":757,"o":"m 160 58 l 78 131 l 309 368 l 90 597 l 158 673 l 460 368 l 160 58 m 457 58 l 375 131 l 606 368 l 376 597 l 456 673 l 757 368 l 457 58 z "},"¼":{"ha":838,"x_min":0,"x_max":819,"o":"m 28 -25 l 578 1029 l 690 1029 l 140 -25 l 28 -25 m 618 0 l 619 134 l 368 134 l 368 233 l 607 519 l 736 519 l 736 218 l 819 218 l 819 134 l 736 134 l 736 0 l 618 0 m 456 218 l 619 218 l 619 406 l 456 218 m 103 611 l 103 921 l 0 921 l 0 1004 l 208 1029 l 208 611 l 272 611 l 272 511 l 45 511 l 45 611 l 103 611 z "},"½":{"ha":838,"x_min":0,"x_max":819,"o":"m 26 -25 l 578 1029 l 692 1029 l 140 -25 l 26 -25 m 599 151 q 561 92 581 136 l 819 92 l 819 0 l 452 0 l 452 94 q 490 160 471 131 q 545 215 509 189 q 584 249 559 229 q 633 289 609 268 q 685 374 685 330 q 663 427 685 408 q 595 443 640 443 q 452 406 528 443 l 452 497 q 608 528 538 528 q 750 489 692 528 q 808 379 808 450 q 787 302 808 338 q 697 222 768 269 q 599 151 654 193 m 103 611 l 103 921 l 0 921 l 0 1004 l 208 1029 l 208 611 l 272 611 l 272 511 l 45 511 l 45 611 l 103 611 z "},"¾":{"ha":838,"x_min":29,"x_max":859,"o":"m 29 -25 l 737 1029 l 859 1029 l 147 -25 l 29 -25 m 631 0 l 632 134 l 380 134 l 380 239 l 616 518 l 747 518 l 747 218 l 832 218 l 832 134 l 747 134 l 747 0 l 631 0 m 467 218 l 631 218 l 631 404 l 467 218 m 272 892 q 182 950 260 950 q 33 922 118 950 l 33 1008 q 196 1029 117 1029 q 347 991 298 1029 q 395 904 395 956 q 361 828 395 864 q 236 768 329 791 q 329 742 301 757 q 376 697 355 725 q 396 636 396 669 q 343 532 396 576 q 164 488 290 488 q 33 509 100 488 l 33 597 q 171 571 115 571 q 240 588 210 571 q 271 639 271 606 q 87 728 271 728 l 87 811 q 237 835 201 811 q 272 892 272 859 z "},"¿":{"ha":838,"x_min":111,"x_max":736,"o":"m 562 750 l 562 600 l 396 600 l 396 750 l 562 750 m 241 164 q 342 250 296 202 q 396 322 388 298 q 412 465 412 370 l 546 465 q 532 345 546 389 q 490 257 518 297 q 433 192 475 234 q 349 119 391 149 q 275 43 298 84 q 252 -39 252 3 q 311 -143 252 -106 q 479 -179 372 -179 q 636 -158 555 -179 l 636 -43 l 736 -43 l 736 -239 q 457 -279 599 -279 q 193 -216 277 -279 q 111 -58 111 -155 q 241 164 111 72 z "},"Å":{"ha":838,"x_min":8,"x_max":828,"o":"m 254 385 l 555 385 l 406 825 l 254 385 m 418 1029 q 460 1046 441 1029 q 476 1088 476 1064 q 460 1129 476 1111 q 418 1146 441 1146 q 376 1129 393 1146 q 359 1088 359 1111 q 376 1046 359 1064 q 418 1029 393 1029 m 485 1004 l 828 0 l 686 0 l 589 283 l 221 283 l 123 0 l 8 0 l 349 1004 q 319 1042 329 1019 q 310 1088 310 1063 q 342 1164 310 1132 q 418 1196 374 1196 q 494 1164 463 1196 q 526 1089 526 1133 q 518 1040 526 1056 q 485 1004 510 1023 z "},"Æ":{"ha":838,"x_min":0,"x_max":811,"o":"m 0 0 l 383 1004 l 778 1004 l 778 904 l 551 904 l 551 581 l 732 581 l 732 481 l 551 481 l 551 100 l 811 100 l 811 0 l 418 0 l 418 248 l 210 248 l 117 0 l 0 0 m 249 347 l 418 347 l 418 791 l 249 347 z "},"Ç":{"ha":838,"x_min":69,"x_max":783,"o":"m 513 -25 l 486 -72 q 572 -121 549 -93 q 595 -180 595 -147 q 559 -244 595 -221 q 469 -268 525 -268 q 371 -252 421 -268 l 371 -193 q 440 -207 415 -207 q 485 -196 468 -207 q 500 -168 500 -183 q 479 -134 500 -149 q 390 -107 457 -118 l 437 -14 q 225 83 298 11 q 110 261 149 155 q 69 493 69 367 q 122 772 69 643 q 283 964 176 899 q 526 1029 389 1029 q 772 990 639 1029 l 772 867 q 524 929 637 929 q 366 880 436 929 q 253 728 294 832 q 212 496 212 624 q 256 278 212 371 q 380 135 297 186 q 566 85 463 85 q 783 134 657 85 l 783 24 q 513 -25 649 -25 z "},"Ð":{"ha":838,"x_min":21,"x_max":785,"o":"m 89 0 l 89 476 l 21 476 l 21 576 l 89 576 l 89 1004 l 350 1004 q 685 876 585 1004 q 785 521 785 749 q 734 236 785 347 q 586 62 684 125 q 315 0 489 0 l 89 0 m 222 100 l 289 100 q 498 144 429 100 q 606 278 570 186 q 642 509 642 368 q 608 734 642 646 q 509 864 574 822 q 283 904 443 904 l 222 903 l 222 576 l 389 576 l 389 476 l 222 476 l 222 100 z "},"×":{"ha":838,"x_min":58,"x_max":778,"o":"m 129 0 l 58 71 l 347 359 l 58 648 l 129 720 l 418 431 l 707 720 l 778 648 l 489 359 l 778 71 l 707 0 l 418 289 l 129 0 z "},"Ø":{"ha":838,"x_min":41,"x_max":796,"o":"m 328 -14 q 261 15 295 -3 q 204 52 228 33 l 160 -25 l 41 -25 l 136 131 q 41 504 41 279 q 136 878 41 726 q 425 1029 232 1029 q 517 1018 473 1029 q 632 956 559 1007 l 677 1029 l 796 1029 l 701 875 q 794 500 794 725 q 697 123 794 272 q 419 -25 600 -25 q 328 -14 371 -25 m 424 75 q 591 180 532 75 q 653 488 653 288 q 624 745 653 612 l 265 153 q 283 135 275 143 q 297 121 291 127 q 351 86 328 94 q 424 75 375 77 m 571 854 q 419 928 520 928 q 243 819 302 928 q 184 515 184 711 q 212 261 184 393 l 571 854 z "},"Þ":{"ha":838,"x_min":154,"x_max":785,"o":"m 154 0 l 154 1004 l 288 1004 l 288 819 l 437 819 q 587 808 525 819 q 733 725 682 790 q 785 551 785 660 q 679 306 785 395 q 386 218 574 218 l 288 218 l 288 0 l 154 0 m 579 686 q 523 713 559 707 q 421 720 486 720 l 288 720 l 288 318 l 371 318 q 587 389 534 318 q 642 551 642 460 q 579 686 642 642 z "},"ß":{"ha":838,"x_min":129,"x_max":798,"o":"m 659 249 q 590 319 643 273 l 460 433 q 379 572 379 501 q 446 733 379 639 q 493 813 480 787 q 505 884 505 840 q 476 961 505 937 q 385 987 446 987 q 332 977 353 987 q 289 947 311 967 q 256 901 267 926 q 245 838 245 876 l 245 0 l 129 0 l 129 786 q 157 970 129 911 q 236 1057 183 1026 q 390 1088 290 1088 q 532 1064 477 1088 q 639 908 639 1006 q 620 827 639 869 q 561 722 601 785 q 528 671 542 692 q 507 635 515 649 q 498 611 500 621 q 508 571 498 585 q 541 538 517 557 l 682 416 q 798 204 798 318 q 734 44 798 106 q 568 -17 671 -17 q 361 22 469 -17 l 361 138 q 550 83 485 83 q 644 114 618 83 q 681 183 681 153 q 659 249 681 209 z "},"æ":{"ha":838,"x_min":33,"x_max":817,"o":"m 673 441 q 668 541 673 494 q 654 608 663 589 q 590 653 635 653 q 518 600 543 653 q 497 530 507 576 q 485 441 488 483 l 673 441 m 310 111 q 350 153 332 125 l 350 358 q 216 321 264 358 q 167 211 167 283 q 196 125 167 153 q 265 98 222 98 q 310 111 290 98 m 485 350 q 482 302 482 317 q 495 203 482 245 q 529 138 508 160 q 637 90 575 90 q 739 110 690 97 q 812 134 787 123 l 812 28 q 603 -17 668 -17 q 533 -9 564 -17 q 464 18 502 -1 q 403 86 441 30 q 367 45 383 61 q 306 0 342 17 q 229 -17 267 -17 q 142 -3 174 -17 q 85 46 110 12 q 33 196 33 102 q 119 375 33 305 q 310 441 204 441 l 350 441 l 350 521 q 339 612 350 589 q 292 644 328 636 q 243 653 270 653 q 96 616 179 653 l 96 718 q 281 753 189 753 q 375 741 335 753 q 446 672 412 726 q 524 740 490 728 q 596 753 557 753 q 761 661 705 753 q 803 531 789 616 q 817 350 817 446 l 485 350 z "},"ç":{"ha":838,"x_min":110,"x_max":749,"o":"m 482 -17 l 456 -72 q 547 -125 528 -98 q 564 -178 564 -151 q 530 -243 564 -220 q 440 -268 496 -268 q 340 -252 395 -268 l 340 -192 q 412 -207 386 -207 q 454 -196 437 -207 q 471 -168 471 -184 q 359 -109 471 -123 l 408 -12 q 229 71 290 17 q 139 201 167 125 q 110 368 110 278 q 211 647 110 542 q 498 753 311 753 q 734 718 615 753 l 734 606 q 511 653 604 653 q 321 576 389 653 q 253 368 253 498 q 326 160 253 235 q 529 83 401 83 q 749 129 627 83 l 749 24 q 659 2 705 11 q 568 -12 612 -7 q 482 -17 523 -17 z "},"ð":{"ha":838,"x_min":75,"x_max":762,"o":"m 422 83 q 570 155 510 83 q 628 371 628 227 q 572 578 628 514 q 427 639 517 639 q 271 564 323 639 q 218 364 218 489 q 244 211 218 278 q 319 114 271 143 q 422 83 367 83 m 75 1071 q 243 1053 167 1071 q 393 994 323 1036 l 509 1071 l 566 989 l 482 933 q 688 694 611 836 q 762 392 762 550 q 668 96 762 210 q 419 -17 574 -17 q 239 31 319 -17 q 117 170 158 79 q 75 366 75 260 q 118 557 75 469 q 239 692 160 644 q 412 737 318 737 q 505 724 456 737 q 452 798 481 768 q 378 864 422 828 l 214 754 l 158 836 l 286 924 q 187 958 228 950 q 77 971 147 966 l 75 1071 z "},"÷":{"ha":838,"x_min":58,"x_max":778,"o":"m 343 0 l 343 150 l 494 150 l 494 0 l 343 0 m 58 310 l 58 411 l 778 411 l 778 310 l 58 310 m 343 570 l 343 720 l 494 720 l 494 570 l 343 570 z "},"ø":{"ha":838,"x_min":71,"x_max":766,"o":"m 418 653 q 268 579 323 653 q 214 357 214 505 q 216 300 214 328 q 222 250 217 273 q 240 211 228 227 l 534 610 q 418 653 481 653 m 416 83 q 568 157 513 83 q 624 380 624 231 q 614 455 623 411 q 597 525 606 499 l 300 123 q 349 94 325 104 q 416 83 374 83 m 416 753 q 523 741 480 753 q 606 704 565 730 l 640 753 l 766 753 l 682 639 q 714 582 694 623 q 751 496 734 542 q 765 371 765 436 q 673 89 765 195 q 422 -17 582 -17 q 341 -13 386 -17 q 231 29 297 -8 l 196 -17 l 71 -17 l 154 96 q 71 370 71 211 q 161 646 71 541 q 416 753 248 749 z "},"þ":{"ha":838,"x_min":121,"x_max":765,"o":"m 254 183 q 347 109 301 134 q 437 83 393 83 q 568 150 513 83 q 623 378 623 218 q 579 579 623 521 q 468 639 534 639 q 366 606 422 639 q 254 497 309 572 l 254 183 m 254 83 l 254 -268 l 121 -268 l 121 937 l 254 937 l 254 599 q 364 714 302 675 q 496 753 424 753 q 694 654 623 753 q 765 393 765 555 q 684 100 765 210 q 581 12 640 43 q 457 -17 522 -17 q 354 3 404 -17 q 254 83 306 24 z "},"Ì":{"ha":838,"x_min":117,"x_max":720,"o":"m 117 0 l 117 100 l 351 100 l 351 904 l 117 904 l 117 1004 l 720 1004 l 720 904 l 486 904 l 486 100 l 720 100 l 720 0 l 117 0 m 586 1064 l 469 1064 l 285 1265 l 436 1265 l 586 1064 z "},"ì":{"ha":838,"x_min":117,"x_max":518,"o":"m 385 0 l 385 636 l 117 636 l 117 736 l 518 736 l 518 0 l 385 0 m 461 869 l 345 869 l 160 1071 l 311 1071 l 461 869 z "},"í":{"ha":838,"x_min":117,"x_max":553,"o":"m 385 0 l 385 636 l 117 636 l 117 736 l 518 736 l 518 0 l 385 0 m 252 869 l 401 1071 l 553 1071 l 368 869 l 252 869 z "},"î":{"ha":838,"x_min":110,"x_max":561,"o":"m 385 0 l 385 636 l 117 636 l 117 736 l 518 736 l 518 0 l 385 0 m 410 1071 l 561 869 l 443 869 l 335 996 l 227 869 l 110 869 l 260 1071 l 410 1071 z "},"ï":{"ha":838,"x_min":117,"x_max":542,"o":"m 385 0 l 385 636 l 117 636 l 117 736 l 518 736 l 518 0 l 385 0 m 157 871 l 157 987 l 273 987 l 273 871 l 157 871 m 425 871 l 425 987 l 542 987 l 542 871 l 425 871 z "},"À":{"ha":838,"x_min":8,"x_max":828,"o":"m 8 0 l 351 1004 l 485 1004 l 828 0 l 686 0 l 589 283 l 221 283 l 123 0 l 8 0 m 254 385 l 555 385 l 406 825 l 254 385 m 554 1092 l 437 1092 l 253 1293 l 404 1293 l 554 1092 z "},"Á":{"ha":838,"x_min":8,"x_max":828,"o":"m 8 0 l 351 1004 l 485 1004 l 828 0 l 686 0 l 589 283 l 221 283 l 123 0 l 8 0 m 254 385 l 555 385 l 406 825 l 254 385 m 252 1092 l 401 1293 l 553 1293 l 368 1092 l 252 1092 z "},"à":{"ha":838,"x_min":92,"x_max":802,"o":"m 545 175 l 545 361 l 505 361 q 297 321 363 361 q 231 212 231 281 q 262 129 231 165 q 359 94 294 94 q 450 115 404 94 q 545 175 496 135 m 510 625 q 470 649 492 645 q 396 653 448 653 q 290 640 349 653 q 155 587 232 628 l 155 701 q 301 743 243 733 q 424 753 359 753 q 628 690 570 753 q 669 611 660 654 q 679 505 679 568 l 679 197 q 681 140 679 153 q 690 89 684 107 q 717 71 696 71 q 742 77 729 71 q 762 81 747 77 q 789 89 777 86 l 802 8 q 700 -12 734 -12 q 624 5 660 -12 q 567 89 589 24 q 440 9 498 32 q 323 -12 382 -12 q 160 45 227 -12 q 92 191 92 100 q 193 374 92 301 q 463 444 292 444 l 545 444 q 553 528 553 495 q 510 625 553 592 m 586 869 l 469 869 l 285 1071 l 436 1071 l 586 869 z "},"á":{"ha":838,"x_min":92,"x_max":802,"o":"m 545 175 l 545 361 l 505 361 q 297 321 363 361 q 231 212 231 281 q 262 129 231 165 q 359 94 294 94 q 450 115 404 94 q 545 175 496 135 m 510 625 q 470 649 492 645 q 396 653 448 653 q 290 640 349 653 q 155 587 232 628 l 155 701 q 301 743 243 733 q 424 753 359 753 q 628 690 570 753 q 669 611 660 654 q 679 505 679 568 l 679 197 q 681 140 679 153 q 690 89 684 107 q 717 71 696 71 q 742 77 729 71 q 762 81 747 77 q 789 89 777 86 l 802 8 q 700 -12 734 -12 q 624 5 660 -12 q 567 89 589 24 q 440 9 498 32 q 323 -12 382 -12 q 160 45 227 -12 q 92 191 92 100 q 193 374 92 301 q 463 444 292 444 l 545 444 q 553 528 553 495 q 510 625 553 592 m 252 869 l 401 1071 l 553 1071 l 368 869 l 252 869 z "},"ò":{"ha":838,"x_min":71,"x_max":765,"o":"m 418 -17 q 161 90 252 -17 q 71 368 71 197 q 161 646 71 541 q 418 753 252 753 q 675 646 585 753 q 765 368 765 541 q 675 90 765 197 q 418 -17 585 -17 m 418 83 q 570 160 515 83 q 623 368 623 235 q 570 578 623 501 q 418 653 515 653 q 268 578 322 653 q 214 368 214 501 q 268 160 214 235 q 418 83 321 83 m 586 869 l 469 869 l 285 1071 l 436 1071 l 586 869 z "},"ó":{"ha":838,"x_min":71,"x_max":765,"o":"m 418 -17 q 161 90 252 -17 q 71 368 71 197 q 161 646 71 541 q 418 753 252 753 q 675 646 585 753 q 765 368 765 541 q 675 90 765 197 q 418 -17 585 -17 m 418 83 q 570 160 515 83 q 623 368 623 235 q 570 578 623 501 q 418 653 515 653 q 268 578 322 653 q 214 368 214 501 q 268 160 214 235 q 418 83 321 83 m 252 869 l 401 1071 l 553 1071 l 368 869 l 252 869 z "},"ù":{"ha":838,"x_min":119,"x_max":714,"o":"m 253 201 q 276 137 253 169 q 340 106 298 106 q 370 110 352 106 q 473 146 423 110 q 581 256 524 182 l 581 736 l 714 736 l 714 0 l 581 0 l 581 139 q 468 24 534 62 q 328 -17 403 -17 q 167 54 224 -17 q 150 75 159 64 q 135 97 142 85 q 124 129 128 110 q 119 168 119 147 l 119 736 l 253 736 l 253 201 m 586 869 l 469 869 l 285 1071 l 436 1071 l 586 869 z "},"ú":{"ha":838,"x_min":119,"x_max":714,"o":"m 253 201 q 276 137 253 169 q 340 106 298 106 q 370 110 352 106 q 473 146 423 110 q 581 256 524 182 l 581 736 l 714 736 l 714 0 l 581 0 l 581 139 q 468 24 534 62 q 328 -17 403 -17 q 167 54 224 -17 q 150 75 159 64 q 135 97 142 85 q 124 129 128 110 q 119 168 119 147 l 119 736 l 253 736 l 253 201 m 252 869 l 401 1071 l 553 1071 l 368 869 l 252 869 z "},"Ù":{"ha":838,"x_min":104,"x_max":733,"o":"m 422 75 q 561 125 505 75 q 616 342 616 175 l 616 1004 l 733 1004 l 733 361 q 722 197 733 253 q 627 41 703 109 q 424 -25 550 -25 q 187 61 273 -25 q 125 165 144 106 q 109 252 113 205 q 104 340 104 300 l 104 1004 l 227 1004 l 227 338 q 256 165 227 225 q 330 99 292 121 q 422 75 367 77 m 586 1105 l 469 1105 l 285 1307 l 436 1307 l 586 1105 z "},"Ú":{"ha":838,"x_min":104,"x_max":733,"o":"m 422 75 q 561 125 505 75 q 616 342 616 175 l 616 1004 l 733 1004 l 733 361 q 722 197 733 253 q 627 41 703 109 q 424 -25 550 -25 q 187 61 273 -25 q 125 165 144 106 q 109 252 113 205 q 104 340 104 300 l 104 1004 l 227 1004 l 227 338 q 256 165 227 225 q 330 99 292 121 q 422 75 367 77 m 349 1078 l 498 1279 l 650 1279 l 465 1078 l 349 1078 z "},"È":{"ha":838,"x_min":147,"x_max":765,"o":"m 147 0 l 147 1004 l 734 1004 l 734 904 l 281 904 l 281 581 l 665 581 l 665 481 l 281 481 l 281 100 l 765 100 l 765 0 l 147 0 m 586 1050 l 469 1050 l 285 1251 l 436 1251 l 586 1050 z "},"É":{"ha":838,"x_min":147,"x_max":765,"o":"m 147 0 l 147 1004 l 734 1004 l 734 904 l 281 904 l 281 581 l 665 581 l 665 481 l 281 481 l 281 100 l 765 100 l 765 0 l 147 0 m 363 1050 l 513 1251 l 664 1251 l 479 1050 l 363 1050 z "},"è":{"ha":838,"x_min":96,"x_max":745,"o":"m 603 433 q 550 607 603 554 q 432 653 503 653 q 302 596 354 653 q 241 433 252 539 l 603 433 m 745 29 q 630 -9 669 1 q 528 -18 592 -18 q 510 -17 518 -18 q 490 -17 503 -17 q 189 90 284 -17 q 96 359 96 197 q 192 637 96 522 q 443 753 286 753 q 527 744 487 753 q 600 718 567 736 q 659 672 633 699 q 722 553 702 625 q 742 378 742 480 q 742 354 742 363 q 741 334 741 345 l 237 334 q 323 138 245 192 q 509 83 401 83 q 745 135 615 83 l 745 29 m 586 869 l 469 869 l 285 1071 l 436 1071 l 586 869 z "},"é":{"ha":838,"x_min":96,"x_max":745,"o":"m 603 433 q 550 607 603 554 q 432 653 503 653 q 302 596 354 653 q 241 433 252 539 l 603 433 m 745 29 q 630 -9 669 1 q 528 -18 592 -18 q 510 -17 518 -18 q 490 -17 503 -17 q 189 90 284 -17 q 96 359 96 197 q 192 637 96 522 q 443 753 286 753 q 527 744 487 753 q 600 718 567 736 q 659 672 633 699 q 722 553 702 625 q 742 378 742 480 q 742 354 742 363 q 741 334 741 345 l 237 334 q 323 138 245 192 q 509 83 401 83 q 745 135 615 83 l 745 29 m 335 869 l 485 1071 l 636 1071 l 452 869 l 335 869 z "},"Ò":{"ha":838,"x_min":41,"x_max":794,"o":"m 418 -25 q 140 123 236 -25 q 41 501 41 272 q 140 880 41 732 q 418 1029 237 1029 q 697 880 600 1029 q 794 501 794 732 q 697 123 794 272 q 418 -25 600 -25 m 418 75 q 593 180 532 75 q 653 503 653 288 q 593 823 653 718 q 418 929 532 929 q 244 823 306 929 q 184 503 184 718 q 244 180 184 288 q 418 75 304 75 m 586 1078 l 469 1078 l 285 1279 l 436 1279 l 586 1078 z "},"Ó":{"ha":838,"x_min":41,"x_max":794,"o":"m 418 -25 q 140 123 236 -25 q 41 501 41 272 q 140 880 41 732 q 418 1029 237 1029 q 697 880 600 1029 q 794 501 794 732 q 697 123 794 272 q 418 -25 600 -25 m 418 75 q 593 180 532 75 q 653 503 653 288 q 593 823 653 718 q 418 929 532 929 q 244 823 306 929 q 184 503 184 718 q 244 180 184 288 q 418 75 304 75 m 321 1120 l 471 1321 l 622 1321 l 437 1120 l 321 1120 z "},"Ý":{"ha":838,"x_min":22,"x_max":832,"o":"m 353 0 l 353 424 l 22 1004 l 170 1004 l 429 550 l 705 1004 l 832 1004 l 486 424 l 486 0 l 353 0 m 363 1050 l 513 1251 l 664 1251 l 479 1050 l 363 1050 z "},"ý":{"ha":838,"x_min":58,"x_max":800,"o":"m 96 -168 q 126 -170 106 -170 q 213 -160 173 -170 q 268 -138 252 -151 q 323 -72 299 -111 q 368 32 348 -33 l 58 736 l 196 736 l 436 184 l 679 736 l 800 736 l 429 -94 q 322 -232 387 -186 q 153 -268 260 -266 l 97 -268 l 96 -168 m 376 786 l 526 987 l 677 987 l 493 786 l 376 786 z "},"Í":{"ha":838,"x_min":117,"x_max":720,"o":"m 117 0 l 117 100 l 351 100 l 351 904 l 117 904 l 117 1004 l 720 1004 l 720 904 l 486 904 l 486 100 l 720 100 l 720 0 l 117 0 m 321 1064 l 471 1265 l 622 1265 l 437 1064 l 321 1064 z "},"Š":{"ha":838,"x_min":111,"x_max":758,"o":"m 399 -25 q 262 -12 320 -23 q 111 24 204 -1 l 111 155 q 277 95 202 115 q 414 75 352 75 q 533 102 494 87 q 597 160 572 118 q 624 250 624 203 q 504 408 624 346 l 310 510 q 160 627 203 567 q 118 768 118 688 q 192 951 118 872 q 424 1029 264 1029 q 686 987 539 1029 l 685 872 q 546 915 611 901 q 424 929 481 929 q 389 933 405 933 q 264 863 317 933 q 243 789 243 826 q 253 730 244 755 q 291 680 262 705 q 376 628 319 654 l 558 533 q 716 412 675 473 q 758 271 758 351 q 665 60 758 144 q 399 -25 574 -25 m 493 1082 l 343 1082 l 193 1283 l 310 1283 l 418 1157 l 526 1283 l 644 1283 l 493 1082 z "},"š":{"ha":838,"x_min":126,"x_max":715,"o":"m 374 465 l 542 406 q 681 323 644 371 q 715 211 715 277 q 636 50 715 117 q 399 -17 554 -17 q 126 29 271 -17 l 126 150 q 396 83 282 83 q 468 93 436 83 q 534 119 500 103 q 593 197 593 146 q 559 256 593 235 q 520 281 547 268 q 457 304 493 294 l 314 351 q 190 424 236 376 q 144 543 144 471 q 218 694 144 636 q 435 753 289 753 q 676 721 567 753 l 676 612 q 435 653 545 653 q 317 625 358 653 q 273 554 273 597 q 301 500 279 520 q 374 465 323 479 m 493 832 l 343 832 l 193 1034 l 310 1034 l 418 907 l 526 1034 l 644 1034 l 493 832 z "},"∙":{"ha":838,"x_min":318,"x_max":519,"o":"m 318 416 l 318 618 l 519 618 l 519 416 l 318 416 z "},"Â":{"ha":838,"x_min":8,"x_max":828,"o":"m 8 0 l 351 1004 l 485 1004 l 828 0 l 686 0 l 589 283 l 221 283 l 123 0 l 8 0 m 254 385 l 555 385 l 406 825 l 254 385 m 493 1265 l 644 1064 l 526 1064 l 418 1190 l 310 1064 l 193 1064 l 343 1265 l 493 1265 z "},"Ê":{"ha":838,"x_min":147,"x_max":765,"o":"m 147 0 l 147 1004 l 734 1004 l 734 904 l 281 904 l 281 581 l 665 581 l 665 481 l 281 481 l 281 100 l 765 100 l 765 0 l 147 0 m 493 1265 l 644 1064 l 526 1064 l 418 1190 l 310 1064 l 193 1064 l 343 1265 l 493 1265 z "},"Ô":{"ha":838,"x_min":41,"x_max":794,"o":"m 418 -25 q 140 123 236 -25 q 41 501 41 272 q 140 880 41 732 q 418 1029 237 1029 q 697 880 600 1029 q 794 501 794 732 q 697 123 794 272 q 418 -25 600 -25 m 418 75 q 593 180 532 75 q 653 503 653 288 q 593 823 653 718 q 418 929 532 929 q 244 823 306 929 q 184 503 184 718 q 244 180 184 288 q 418 75 304 75 m 493 1307 l 644 1105 l 526 1105 l 418 1232 l 310 1105 l 193 1105 l 343 1307 l 493 1307 z "},"Û":{"ha":838,"x_min":104,"x_max":733,"o":"m 422 75 q 561 125 505 75 q 616 342 616 175 l 616 1004 l 733 1004 l 733 361 q 722 197 733 253 q 627 41 703 109 q 424 -25 550 -25 q 187 61 273 -25 q 125 165 144 106 q 109 252 113 205 q 104 340 104 300 l 104 1004 l 227 1004 l 227 338 q 256 165 227 225 q 330 99 292 121 q 422 75 367 77 m 493 1293 l 644 1092 l 526 1092 l 418 1218 l 310 1092 l 193 1092 l 343 1293 l 493 1293 z "},"û":{"ha":838,"x_min":119,"x_max":714,"o":"m 253 201 q 276 137 253 169 q 340 106 298 106 q 370 110 352 106 q 473 146 423 110 q 581 256 524 182 l 581 736 l 714 736 l 714 0 l 581 0 l 581 139 q 468 24 534 62 q 328 -17 403 -17 q 167 54 224 -17 q 150 75 159 64 q 135 97 142 85 q 124 129 128 110 q 119 168 119 147 l 119 736 l 253 736 l 253 201 m 493 1071 l 644 869 l 526 869 l 418 996 l 310 869 l 193 869 l 343 1071 l 493 1071 z "},"ô":{"ha":838,"x_min":71,"x_max":765,"o":"m 418 -17 q 161 90 252 -17 q 71 368 71 197 q 161 646 71 541 q 418 753 252 753 q 675 646 585 753 q 765 368 765 541 q 675 90 765 197 q 418 -17 585 -17 m 418 83 q 570 160 515 83 q 623 368 623 235 q 570 578 623 501 q 418 653 515 653 q 268 578 322 653 q 214 368 214 501 q 268 160 214 235 q 418 83 321 83 m 493 1071 l 644 869 l 526 869 l 418 996 l 310 869 l 193 869 l 343 1071 l 493 1071 z "},"ê":{"ha":838,"x_min":96,"x_max":745,"o":"m 603 433 q 550 607 603 554 q 432 653 503 653 q 302 596 354 653 q 241 433 252 539 l 603 433 m 745 29 q 630 -9 669 1 q 528 -18 592 -18 q 510 -17 518 -18 q 490 -17 503 -17 q 189 90 284 -17 q 96 359 96 197 q 192 637 96 522 q 443 753 286 753 q 527 744 487 753 q 600 718 567 736 q 659 672 633 699 q 722 553 702 625 q 742 378 742 480 q 742 354 742 363 q 741 334 741 345 l 237 334 q 323 138 245 192 q 509 83 401 83 q 745 135 615 83 l 745 29 m 493 1071 l 644 869 l 526 869 l 418 996 l 310 869 l 193 869 l 343 1071 l 493 1071 z "},"â":{"ha":838,"x_min":92,"x_max":802,"o":"m 545 175 l 545 361 l 505 361 q 297 321 363 361 q 231 212 231 281 q 262 129 231 165 q 359 94 294 94 q 450 115 404 94 q 545 175 496 135 m 510 625 q 470 649 492 645 q 396 653 448 653 q 290 640 349 653 q 155 587 232 628 l 155 701 q 301 743 243 733 q 424 753 359 753 q 628 690 570 753 q 669 611 660 654 q 679 505 679 568 l 679 197 q 681 140 679 153 q 690 89 684 107 q 717 71 696 71 q 742 77 729 71 q 762 81 747 77 q 789 89 777 86 l 802 8 q 700 -12 734 -12 q 624 5 660 -12 q 567 89 589 24 q 440 9 498 32 q 323 -12 382 -12 q 160 45 227 -12 q 92 191 92 100 q 193 374 92 301 q 463 444 292 444 l 545 444 q 553 528 553 495 q 510 625 553 592 m 493 1071 l 644 869 l 526 869 l 418 996 l 310 869 l 193 869 l 343 1071 l 493 1071 z "},"Ë":{"ha":838,"x_min":147,"x_max":765,"o":"m 147 0 l 147 1004 l 734 1004 l 734 904 l 281 904 l 281 581 l 665 581 l 665 481 l 281 481 l 281 100 l 765 100 l 765 0 l 147 0 m 227 1093 l 227 1210 l 343 1210 l 343 1093 l 227 1093 m 494 1093 l 494 1210 l 611 1210 l 611 1093 l 494 1093 z "},"Ï":{"ha":838,"x_min":117,"x_max":720,"o":"m 117 0 l 117 100 l 351 100 l 351 904 l 117 904 l 117 1004 l 720 1004 l 720 904 l 486 904 l 486 100 l 720 100 l 720 0 l 117 0 m 227 1093 l 227 1210 l 343 1210 l 343 1093 l 227 1093 m 494 1093 l 494 1210 l 611 1210 l 611 1093 l 494 1093 z "},"Ü":{"ha":838,"x_min":104,"x_max":733,"o":"m 422 75 q 561 125 505 75 q 616 342 616 175 l 616 1004 l 733 1004 l 733 361 q 722 197 733 253 q 627 41 703 109 q 424 -25 550 -25 q 187 61 273 -25 q 125 165 144 106 q 109 252 113 205 q 104 340 104 300 l 104 1004 l 227 1004 l 227 338 q 256 165 227 225 q 330 99 292 121 q 422 75 367 77 m 227 1093 l 227 1210 l 343 1210 l 343 1093 l 227 1093 m 494 1093 l 494 1210 l 611 1210 l 611 1093 l 494 1093 z "},"ë":{"ha":838,"x_min":96,"x_max":745,"o":"m 603 433 q 550 607 603 554 q 432 653 503 653 q 302 596 354 653 q 241 433 252 539 l 603 433 m 745 29 q 630 -9 669 1 q 528 -18 592 -18 q 510 -17 518 -18 q 490 -17 503 -17 q 189 90 284 -17 q 96 359 96 197 q 192 637 96 522 q 443 753 286 753 q 527 744 487 753 q 600 718 567 736 q 659 672 633 699 q 722 553 702 625 q 742 378 742 480 q 742 354 742 363 q 741 334 741 345 l 237 334 q 323 138 245 192 q 509 83 401 83 q 745 135 615 83 l 745 29 m 227 871 l 227 987 l 343 987 l 343 871 l 227 871 m 494 871 l 494 987 l 611 987 l 611 871 l 494 871 z "},"ä":{"ha":838,"x_min":92,"x_max":802,"o":"m 545 175 l 545 361 l 505 361 q 297 321 363 361 q 231 212 231 281 q 262 129 231 165 q 359 94 294 94 q 450 115 404 94 q 545 175 496 135 m 510 625 q 470 649 492 645 q 396 653 448 653 q 290 640 349 653 q 155 587 232 628 l 155 701 q 301 743 243 733 q 424 753 359 753 q 628 690 570 753 q 669 611 660 654 q 679 505 679 568 l 679 197 q 681 140 679 153 q 690 89 684 107 q 717 71 696 71 q 742 77 729 71 q 762 81 747 77 q 789 89 777 86 l 802 8 q 700 -12 734 -12 q 624 5 660 -12 q 567 89 589 24 q 440 9 498 32 q 323 -12 382 -12 q 160 45 227 -12 q 92 191 92 100 q 193 374 92 301 q 463 444 292 444 l 545 444 q 553 528 553 495 q 510 625 553 592 m 227 871 l 227 987 l 343 987 l 343 871 l 227 871 m 494 871 l 494 987 l 611 987 l 611 871 l 494 871 z "},"Ä":{"ha":838,"x_min":8,"x_max":828,"o":"m 8 0 l 351 1004 l 485 1004 l 828 0 l 686 0 l 589 283 l 221 283 l 123 0 l 8 0 m 254 385 l 555 385 l 406 825 l 254 385 m 227 1093 l 227 1210 l 343 1210 l 343 1093 l 227 1093 m 494 1093 l 494 1210 l 611 1210 l 611 1093 l 494 1093 z "},"ö":{"ha":838,"x_min":71,"x_max":765,"o":"m 418 -17 q 161 90 252 -17 q 71 368 71 197 q 161 646 71 541 q 418 753 252 753 q 675 646 585 753 q 765 368 765 541 q 675 90 765 197 q 418 -17 585 -17 m 418 83 q 570 160 515 83 q 623 368 623 235 q 570 578 623 501 q 418 653 515 653 q 268 578 322 653 q 214 368 214 501 q 268 160 214 235 q 418 83 321 83 m 227 871 l 227 987 l 343 987 l 343 871 l 227 871 m 494 871 l 494 987 l 611 987 l 611 871 l 494 871 z "},"ü":{"ha":838,"x_min":119,"x_max":714,"o":"m 253 201 q 276 137 253 169 q 340 106 298 106 q 370 110 352 106 q 473 146 423 110 q 581 256 524 182 l 581 736 l 714 736 l 714 0 l 581 0 l 581 139 q 468 24 534 62 q 328 -17 403 -17 q 167 54 224 -17 q 150 75 159 64 q 135 97 142 85 q 124 129 128 110 q 119 168 119 147 l 119 736 l 253 736 l 253 201 m 227 871 l 227 987 l 343 987 l 343 871 l 227 871 m 494 871 l 494 987 l 611 987 l 611 871 l 494 871 z "},"ÿ":{"ha":838,"x_min":58,"x_max":800,"o":"m 96 -168 q 126 -170 106 -170 q 213 -160 173 -170 q 268 -138 252 -151 q 323 -72 299 -111 q 368 32 348 -33 l 58 736 l 196 736 l 436 184 l 679 736 l 800 736 l 429 -94 q 322 -232 387 -186 q 153 -268 260 -266 l 97 -268 l 96 -168 m 227 871 l 227 987 l 343 987 l 343 871 l 227 871 m 494 871 l 494 987 l 611 987 l 611 871 l 494 871 z "},"Ÿ":{"ha":838,"x_min":22,"x_max":832,"o":"m 353 0 l 353 424 l 22 1004 l 170 1004 l 429 550 l 705 1004 l 832 1004 l 486 424 l 486 0 l 353 0 m 227 1093 l 227 1210 l 343 1210 l 343 1093 l 227 1093 m 494 1093 l 494 1210 l 611 1210 l 611 1093 l 494 1093 z "},"å":{"ha":838,"x_min":92,"x_max":802,"o":"m 545 175 l 545 361 l 505 361 q 297 321 363 361 q 231 212 231 281 q 262 129 231 165 q 359 94 294 94 q 450 115 404 94 q 545 175 496 135 m 510 625 q 470 649 492 645 q 396 653 448 653 q 290 640 349 653 q 155 587 232 628 l 155 701 q 301 743 243 733 q 424 753 359 753 q 628 690 570 753 q 669 611 660 654 q 679 505 679 568 l 679 197 q 681 140 679 153 q 690 89 684 107 q 717 71 696 71 q 742 77 729 71 q 762 81 747 77 q 789 89 777 86 l 802 8 q 700 -12 734 -12 q 624 5 660 -12 q 567 89 589 24 q 440 9 498 32 q 323 -12 382 -12 q 160 45 227 -12 q 92 191 92 100 q 193 374 92 301 q 463 444 292 444 l 545 444 q 553 528 553 495 q 510 625 553 592 m 418 794 q 335 831 370 794 q 301 913 301 867 q 335 993 301 957 q 418 1029 368 1029 q 501 993 468 1029 q 534 913 534 957 q 501 830 534 867 q 418 794 468 794 m 418 852 q 458 869 439 852 q 476 913 476 886 q 458 954 476 937 q 418 971 437 971 q 379 954 399 971 q 359 913 359 937 q 378 869 359 886 q 418 852 397 852 z "},"Î":{"ha":838,"x_min":117,"x_max":720,"o":"m 117 0 l 117 100 l 351 100 l 351 904 l 117 904 l 117 1004 l 720 1004 l 720 904 l 486 904 l 486 100 l 720 100 l 720 0 l 117 0 m 493 1293 l 644 1092 l 526 1092 l 418 1218 l 310 1092 l 193 1092 l 343 1293 l 493 1293 z "},"Ö":{"ha":838,"x_min":41,"x_max":794,"o":"m 418 -25 q 140 123 236 -25 q 41 501 41 272 q 140 880 41 732 q 418 1029 237 1029 q 697 880 600 1029 q 794 501 794 732 q 697 123 794 272 q 418 -25 600 -25 m 418 75 q 593 180 532 75 q 653 503 653 288 q 593 823 653 718 q 418 929 532 929 q 244 823 306 929 q 184 503 184 718 q 244 180 184 288 q 418 75 304 75 m 227 1093 l 227 1210 l 343 1210 l 343 1093 l 227 1093 m 494 1093 l 494 1210 l 611 1210 l 611 1093 l 494 1093 z "},"Ã":{"ha":838,"x_min":8,"x_max":828,"o":"m 8 0 l 351 1004 l 485 1004 l 828 0 l 686 0 l 589 283 l 221 283 l 123 0 l 8 0 m 254 385 l 555 385 l 406 825 l 254 385 m 443 1106 q 407 1125 433 1111 q 361 1146 381 1139 q 326 1154 342 1154 q 277 1092 283 1154 l 193 1092 q 205 1169 194 1137 q 233 1218 216 1200 q 318 1252 264 1252 q 393 1238 372 1252 q 434 1217 412 1230 q 468 1199 455 1205 q 494 1194 481 1194 q 510 1196 500 1194 q 561 1252 555 1196 l 644 1252 q 604 1125 635 1157 q 519 1092 572 1092 q 443 1106 476 1092 z "},"Ñ":{"ha":838,"x_min":100,"x_max":736,"o":"m 627 240 l 627 1004 l 736 1004 l 736 0 l 612 0 l 208 768 l 208 0 l 100 0 l 100 1004 l 227 1004 l 627 240 m 443 1106 q 407 1125 433 1111 q 361 1146 381 1139 q 326 1154 342 1154 q 277 1092 283 1154 l 193 1092 q 205 1169 194 1137 q 233 1218 216 1200 q 318 1252 264 1252 q 393 1238 372 1252 q 434 1217 412 1230 q 468 1199 455 1205 q 494 1194 481 1194 q 510 1196 500 1194 q 561 1252 555 1196 l 644 1252 q 604 1125 635 1157 q 519 1092 572 1092 q 443 1106 476 1092 z "},"Õ":{"ha":838,"x_min":41,"x_max":794,"o":"m 418 -25 q 140 123 236 -25 q 41 501 41 272 q 140 880 41 732 q 418 1029 237 1029 q 697 880 600 1029 q 794 501 794 732 q 697 123 794 272 q 418 -25 600 -25 m 418 75 q 593 180 532 75 q 653 503 653 288 q 593 823 653 718 q 418 929 532 929 q 244 823 306 929 q 184 503 184 718 q 244 180 184 288 q 418 75 304 75 m 443 1106 q 407 1125 433 1111 q 361 1146 381 1139 q 326 1154 342 1154 q 277 1092 283 1154 l 193 1092 q 205 1169 194 1137 q 233 1218 216 1200 q 318 1252 264 1252 q 393 1238 372 1252 q 434 1217 412 1230 q 468 1199 455 1205 q 494 1194 481 1194 q 510 1196 500 1194 q 561 1252 555 1196 l 644 1252 q 604 1125 635 1157 q 519 1092 572 1092 q 443 1106 476 1092 z "},"ã":{"ha":838,"x_min":92,"x_max":802,"o":"m 545 175 l 545 361 l 505 361 q 297 321 363 361 q 231 212 231 281 q 262 129 231 165 q 359 94 294 94 q 450 115 404 94 q 545 175 496 135 m 510 625 q 470 649 492 645 q 396 653 448 653 q 290 640 349 653 q 155 587 232 628 l 155 701 q 301 743 243 733 q 424 753 359 753 q 628 690 570 753 q 669 611 660 654 q 679 505 679 568 l 679 197 q 681 140 679 153 q 690 89 684 107 q 717 71 696 71 q 742 77 729 71 q 762 81 747 77 q 789 89 777 86 l 802 8 q 700 -12 734 -12 q 624 5 660 -12 q 567 89 589 24 q 440 9 498 32 q 323 -12 382 -12 q 160 45 227 -12 q 92 191 92 100 q 193 374 92 301 q 463 444 292 444 l 545 444 q 553 528 553 495 q 510 625 553 592 m 443 884 q 407 902 433 888 q 361 924 381 916 q 326 932 342 932 q 277 869 283 932 l 193 869 q 205 946 194 915 q 233 996 216 978 q 318 1029 264 1029 q 393 1015 372 1029 q 434 995 412 1007 q 468 977 455 983 q 494 971 481 971 q 510 974 500 971 q 561 1029 555 974 l 644 1029 q 604 903 635 935 q 519 869 572 869 q 443 884 476 869 z "},"ñ":{"ha":838,"x_min":123,"x_max":718,"o":"m 718 504 l 718 0 l 585 0 l 585 467 q 579 539 583 516 q 562 582 576 562 q 524 617 546 607 q 467 627 501 627 q 363 591 412 627 q 257 482 313 554 l 257 0 l 123 0 l 123 736 l 257 736 l 257 599 q 368 712 301 672 q 509 753 435 753 q 671 682 612 753 q 708 610 699 652 q 718 504 717 568 m 443 884 q 407 902 433 888 q 361 924 381 916 q 326 932 342 932 q 277 869 283 932 l 193 869 q 205 946 194 915 q 233 996 216 978 q 318 1029 264 1029 q 393 1015 372 1029 q 434 995 412 1007 q 468 977 455 983 q 494 971 481 971 q 510 974 500 971 q 561 1029 555 974 l 644 1029 q 604 903 635 935 q 519 869 572 869 q 443 884 476 869 z "},"õ":{"ha":838,"x_min":71,"x_max":765,"o":"m 418 -17 q 161 90 252 -17 q 71 368 71 197 q 161 646 71 541 q 418 753 252 753 q 675 646 585 753 q 765 368 765 541 q 675 90 765 197 q 418 -17 585 -17 m 418 83 q 570 160 515 83 q 623 368 623 235 q 570 578 623 501 q 418 653 515 653 q 268 578 322 653 q 214 368 214 501 q 268 160 214 235 q 418 83 321 83 m 443 884 q 407 902 433 888 q 361 924 381 916 q 326 932 342 932 q 277 869 283 932 l 193 869 q 205 946 194 915 q 233 996 216 978 q 318 1029 264 1029 q 393 1015 372 1029 q 434 995 412 1007 q 468 977 455 983 q 494 971 481 971 q 510 974 500 971 q 561 1029 555 974 l 644 1029 q 604 903 635 935 q 519 869 572 869 q 443 884 476 869 z "}}}
