<?xml version="1.0" standalone="no"?>
<!DOCTYPE svg PUBLIC "-//W3C//DTD SVG 1.1//EN" "http://www.w3.org/Graphics/SVG/1.1/DTD/svg11.dtd" >
<svg xmlns="http://www.w3.org/2000/svg" xmlns:xlink="http://www.w3.org/1999/xlink" version="1.1">
<metadata>
Created by FontForge 20170731 at Thu Aug 20 22:41:25 2015
 By Aleksey,,,
Copyright 2015 Dalton Maag Ltd. Modification of this file requires prior written permission from Dalton Maag Ltd.
</metadata>
<defs>
<font id="ObjektivMk2W03-Light" horiz-adv-x="380" >
  <font-face 
    font-family="ObjektivMk2W03-Light"
    font-weight="300"
    font-stretch="normal"
    units-per-em="1000"
    panose-1="2 11 4 2 2 2 4 2 2 3"
    ascent="800"
    descent="-200"
    x-height="489"
    cap-height="760"
    bbox="-238 -302 1271 1060"
    underline-thickness="50"
    underline-position="-225"
    unicode-range="U+0008-FEFF"
  />
<missing-glyph horiz-adv-x="500" 
d="M50 750h400v-750h-400v750zM400 50v650h-300v-650h300z" />
    <glyph glyph-name=".notdef" horiz-adv-x="500" 
d="M50 750h400v-750h-400v750zM400 50v650h-300v-650h300z" />
    <glyph glyph-name=".null" horiz-adv-x="0" 
 />
    <glyph glyph-name="nonmarkingreturn" horiz-adv-x="333" 
 />
    <glyph glyph-name="uni0008" horiz-adv-x="0" 
 />
    <glyph glyph-name="uni0008" horiz-adv-x="0" 
 />
    <glyph glyph-name="uni0008" horiz-adv-x="0" 
 />
    <glyph glyph-name="uni0009" unicode="&#x9;" horiz-adv-x="225" 
 />
    <glyph glyph-name="uni0009" unicode="&#xd;" horiz-adv-x="225" 
 />
    <glyph glyph-name="space" unicode=" " horiz-adv-x="225" 
 />
    <glyph glyph-name="exclam" unicode="!" horiz-adv-x="274" 
d="M107 789h61l-5 -570h-51zM137 -8q-19 0 -33 14t-14 33q0 20 13.5 33.5t33.5 13.5t33.5 -13.5t13.5 -33.5q0 -19 -13.5 -33t-33.5 -14z" />
    <glyph glyph-name="quotedbl" unicode="&#x22;" horiz-adv-x="329" 
d="M50 760h62l-7 -292h-48zM217 760h62l-7 -292h-48z" />
    <glyph glyph-name="numbersign" unicode="#" horiz-adv-x="680" 
d="M162 185h-103v46h113l48 215h-124v46h135l42 185h49l-42 -185h183l42 185h49l-42 -185h106v-46h-116l-48 -215h127v-46h-138l-40 -185h-49l40 185h-183l-40 -185h-50zM405 231l48 215h-183l-48 -215h183z" />
    <glyph glyph-name="dollar" unicode="$" horiz-adv-x="620" 
d="M282 -130v120q-56 1 -107 15t-89 38l8 53q82 -54 188 -55v322q-104 42 -148.5 89t-44.5 115q0 79 52 129t141 57v123h46v-123q88 -5 161 -45l-9 -50q-36 20 -73 31.5t-79 13.5v-301q105 -40 152.5 -91t47.5 -123q0 -79 -54 -131.5t-146 -63.5v-123h-46zM328 43
q68 9 106 46.5t38 96.5q0 56 -32.5 91.5t-111.5 67.5v-302zM282 703q-65 -5 -101.5 -40t-36.5 -92q0 -54 31 -88t107 -64v284z" />
    <glyph glyph-name="percent" unicode="%" horiz-adv-x="905" 
d="M227 456q52 0 86.5 36t34.5 91q0 56 -34 92t-87 36t-87.5 -36t-34.5 -92q0 -54 34.5 -90.5t87.5 -36.5zM227 407q-47 0 -87 22.5t-64 63t-24 90.5q0 48 22 88t62.5 64.5t90.5 24.5q47 0 86.5 -22.5t63.5 -63t24 -91.5q0 -74 -50.5 -125t-123.5 -51zM708 744h63l-578 -744
h-63zM678 39q52 0 86.5 36t34.5 91q0 56 -34 92t-87 36t-87.5 -36t-34.5 -92q0 -54 34.5 -90.5t87.5 -36.5zM678 -10q-47 0 -87 22.5t-64 63t-24 90.5q0 48 22 88t62.5 64.5t90.5 24.5q47 0 86.5 -22.5t63.5 -63t24 -91.5q0 -74 -50.5 -125t-123.5 -51z" />
    <glyph glyph-name="ampersand" unicode="&#x26;" horiz-adv-x="739" 
d="M320 -16q-72 0 -128.5 25t-88.5 72t-32 109q0 67 42.5 121.5t132.5 101.5q-58 68 -79 109.5t-21 88.5q0 73 50 120t129 47q76 0 124.5 -45.5t48.5 -117.5q0 -60 -41.5 -111.5t-130.5 -100.5l221 -246q54 85 56 223l52 -6q-2 -151 -73 -256l106 -118h-73l-69 76
q-43 -45 -100.5 -68.5t-125.5 -23.5zM321 35q118 0 192 79l-238 265q-78 -44 -112 -87.5t-34 -100.5q0 -45 23.5 -80t67 -55.5t101.5 -20.5zM295 438q78 43 113 84t35 91q0 53 -32.5 85.5t-85.5 32.5q-55 0 -89 -32.5t-34 -85.5q0 -38 18.5 -73.5t74.5 -101.5z" />
    <glyph glyph-name="quotesingle" unicode="'" horiz-adv-x="162" 
d="M50 760h62l-7 -292h-48z" />
    <glyph glyph-name="parenleft" unicode="(" horiz-adv-x="383" 
d="M272 -133q-84 81 -133.5 210t-49.5 266q0 138 49.5 267.5t133.5 209.5h67q-92 -91 -142.5 -215.5t-50.5 -261.5t50.5 -261t142.5 -215h-67z" />
    <glyph glyph-name="parenright" unicode=")" horiz-adv-x="383" 
d="M44 -133q92 91 142.5 215.5t50.5 261.5t-50.5 261t-142.5 215h67q84 -81 133.5 -210t49.5 -266q0 -138 -49.5 -267.5t-133.5 -209.5h-67z" />
    <glyph glyph-name="asterisk" unicode="*" horiz-adv-x="490" 
d="M99 418l110 134l-158 51l20 50l151 -60l-7 167h57l-7 -167l152 60l19 -50l-157 -51l110 -134l-45 -32l-100 141l-100 -141z" />
    <glyph glyph-name="plus" unicode="+" horiz-adv-x="620" 
d="M282 309h-194v53h194v198h56v-198h194v-53h-194v-197h-56v197z" />
    <glyph glyph-name="comma" unicode="," horiz-adv-x="290" 
d="M28 -181q36 52 59 122t28 141h65q-6 -73 -34 -146t-67 -117h-51z" />
    <glyph glyph-name="hyphen" unicode="-" horiz-adv-x="441" 
d="M78 313h285v-57h-285v57z" />
    <glyph glyph-name="period" unicode="." horiz-adv-x="290" 
d="M145 -8q-19 0 -33 14t-14 33q0 20 13.5 33.5t33.5 13.5t33.5 -13.5t13.5 -33.5q0 -19 -13.5 -33t-33.5 -14z" />
    <glyph glyph-name="slash" unicode="/" horiz-adv-x="505" 
d="M429 810h61l-413 -943h-61z" />
    <glyph glyph-name="zero" unicode="0" horiz-adv-x="620" 
d="M309 36q90 0 140.5 89t50.5 248q0 158 -50.5 246.5t-140.5 88.5t-140 -88.5t-50 -246.5q0 -159 50.5 -248t139.5 -89zM309 -16q-76 0 -132.5 46t-87.5 134t-31 209q0 118 29.5 205t86.5 134.5t135 47.5q56 0 102.5 -25.5t80 -75t51.5 -122t18 -164.5q0 -180 -68 -284.5
t-184 -104.5z" />
    <glyph glyph-name="one" unicode="1" horiz-adv-x="620" 
d="M322 680l-217 -97l-8 54l237 107h46v-744h-58v680z" />
    <glyph glyph-name="two" unicode="2" horiz-adv-x="620" 
d="M86 0v50q75 73 183 197q97 112 135 180t38 129q0 70 -40 110.5t-110 40.5q-104 0 -181 -89l-12 55q36 41 88 64t109 23q94 0 149.5 -54t55.5 -144q0 -72 -37.5 -144.5t-128.5 -175.5q-101 -114 -174 -187h365v-55h-440z" />
    <glyph glyph-name="three" unicode="3" horiz-adv-x="620" 
d="M270 -16q-52 0 -101.5 13.5t-83.5 36.5l7 54q81 -53 179 -53q91 0 143.5 48t52.5 130q0 78 -49.5 122.5t-137.5 44.5q-36 0 -68 -8l-16 36l243 283h-340v53h405v-52l-229 -266q5 1 21 1q67 0 118.5 -25.5t81 -74t29.5 -114.5q0 -105 -69.5 -167t-185.5 -62z" />
    <glyph glyph-name="four" unicode="4" horiz-adv-x="620" 
d="M399 200h-348v48l348 496h55v-495h102v-49h-102v-200h-55v200zM399 249v412l-290 -412h290z" />
    <glyph glyph-name="five" unicode="5" horiz-adv-x="620" 
d="M273 -16q-53 0 -103.5 14t-83.5 37l6 55q80 -54 179 -54q91 0 144.5 52t53.5 139q0 83 -56.5 131.5t-154.5 48.5q-69 0 -138 -23l12 360h350v-55h-300l-8 -244q42 12 99 12q75 0 132.5 -27.5t89.5 -79.5t32 -122t-31 -125t-88.5 -87t-134.5 -32z" />
    <glyph glyph-name="six" unicode="6" horiz-adv-x="620" 
d="M309 -16q-64 0 -115.5 29.5t-81.5 84.5t-30 126q0 82 34 174.5t98 183t150 163.5l72 -5q-100 -81 -173.5 -181t-105.5 -199q30 41 74.5 62.5t98.5 21.5q60 0 109 -28t78.5 -79t29.5 -117t-29.5 -119.5t-84 -85t-124.5 -31.5zM313 34q77 0 127 51t50 129q0 84 -47.5 132
t-129.5 48q-74 0 -124.5 -52t-50.5 -129q0 -80 48.5 -129.5t126.5 -49.5z" />
    <glyph glyph-name="seven" unicode="7" horiz-adv-x="620" 
d="M174 2l294 686h-386v56h446v-49l-292 -697z" />
    <glyph glyph-name="eight" unicode="8" horiz-adv-x="620" 
d="M309 -16q-70 0 -125 26t-86.5 74t-31.5 111q0 71 41 123.5t111 72.5q-61 19 -95.5 65.5t-34.5 110.5q0 55 27.5 98.5t78 69t116.5 25.5q62 0 112 -23.5t79.5 -67.5t29.5 -102q0 -64 -35 -110.5t-96 -65.5q70 -19 111.5 -72t41.5 -124q0 -61 -29.5 -108.5t-85 -75
t-129.5 -27.5zM309 35q83 0 135 45.5t52 119.5q0 73 -52 118.5t-135 45.5q-53 0 -95 -20t-66.5 -57.5t-24.5 -86.5q0 -74 51.5 -119.5t134.5 -45.5zM309 416q74 0 120.5 40.5t46.5 105.5q0 66 -46 107t-121 41q-74 0 -120 -41t-46 -107q0 -65 46.5 -105.5t119.5 -40.5z" />
    <glyph glyph-name="nine" unicode="9" horiz-adv-x="620" 
d="M182 4q100 81 173.5 181t104.5 198q-30 -40 -75 -61.5t-97 -21.5q-60 0 -109 28t-78.5 79t-29.5 117t29.5 119.5t84 85t124.5 31.5q64 0 115.5 -29.5t81.5 -84.5t30 -126q0 -82 -34 -174.5t-98 -183t-150 -163.5zM305 350q74 0 124.5 52t50.5 129q0 80 -48.5 129.5
t-126.5 49.5q-77 0 -127 -51t-50 -129q0 -84 47.5 -132t129.5 -48z" />
    <glyph glyph-name="colon" unicode=":" horiz-adv-x="290" 
d="M145 -8q-19 0 -33 14t-14 33q0 20 13.5 33.5t33.5 13.5t33.5 -13.5t13.5 -33.5q0 -19 -13.5 -33t-33.5 -14zM145 402q-19 0 -33 14t-14 33q0 20 13.5 33.5t33.5 13.5t33.5 -13.5t13.5 -33.5q0 -19 -13.5 -33t-33.5 -14z" />
    <glyph glyph-name="semicolon" unicode=";" horiz-adv-x="290" 
d="M28 -181q36 52 59 122t28 141h65q-6 -73 -34 -146t-67 -117h-51zM145 402q-19 0 -33 14t-14 33q0 20 13.5 33.5t33.5 13.5t33.5 -13.5t13.5 -33.5q0 -19 -13.5 -33t-33.5 -14z" />
    <glyph glyph-name="less" unicode="&#x3c;" horiz-adv-x="620" 
d="M103 311v56l412 194v-58l-347 -162l347 -163v-60z" />
    <glyph glyph-name="equal" unicode="=" horiz-adv-x="620" 
d="M99 476h411v-53h-411v53zM99 247h411v-53h-411v53z" />
    <glyph glyph-name="greater" unicode="&#x3e;" horiz-adv-x="620" 
d="M103 176l347 162l-347 163v60l412 -193v-56l-412 -194v58z" />
    <glyph glyph-name="question" unicode="?" horiz-adv-x="470" 
d="M174 219q-3 18 -3 48q0 49 14 85t36 63t46 50t46 45.5t36 49.5t14 63q0 56 -40 90t-106 34q-100 0 -180 -87l-15 51q32 40 86.5 64t114.5 24q88 0 143 -49t55 -127q0 -43 -14.5 -74.5t-37 -56.5t-47.5 -48t-47.5 -48.5t-37 -58.5t-14.5 -79q0 -19 2 -39h-51zM201 -8
q-19 0 -33 14t-14 33q0 20 13.5 33.5t33.5 13.5t33.5 -13.5t13.5 -33.5q0 -19 -13.5 -33t-33.5 -14z" />
    <glyph glyph-name="at" unicode="@" horiz-adv-x="983" 
d="M477 -224q-125 0 -220.5 49t-149.5 141t-54 217t61.5 232.5t172.5 174t247 66.5q115 0 205 -46.5t142 -132.5t52 -201q0 -78 -25.5 -141.5t-73 -101.5t-108.5 -38q-99 0 -116 86q-28 -41 -70 -63t-93 -22q-76 0 -125 54.5t-49 139.5q0 63 27.5 118t77 89t110.5 34
q57 0 98 -29t58 -81l21 94h48l-51 -263q-5 -24 -5 -43q0 -70 71 -70q42 0 77 29.5t56 82.5t21 120q0 100 -42 176t-121 119t-187 43q-115 0 -212 -54t-156.5 -151.5t-59.5 -219.5q0 -108 45 -189t129.5 -126.5t199.5 -45.5q110 0 212 47l4 -48q-98 -46 -217 -46zM460 43
q71 0 118.5 54t47.5 135q0 71 -36 111.5t-99 40.5q-45 0 -83 -24t-61 -68t-23 -98q0 -70 36.5 -110.5t99.5 -40.5z" />
    <glyph glyph-name="A" unicode="A" horiz-adv-x="751" 
d="M341 760h68l312 -760h-67l-98 243h-366l-97 -243h-63zM535 295l-161 405l-163 -405h324z" />
    <glyph glyph-name="B" unicode="B" horiz-adv-x="712" 
d="M122 760h243q111 0 172 -49.5t61 -139.5q0 -58 -29.5 -102.5t-83.5 -65.5q71 -15 111.5 -66t40.5 -124q0 -103 -65 -158t-186 -55h-264v760zM181 53h203q94 0 142.5 41t48.5 119q0 158 -198 158h-196v-318zM181 424h182q173 0 173 145q0 138 -179 138h-176v-283z" />
    <glyph glyph-name="C" unicode="C" horiz-adv-x="772" 
d="M460 -11q-110 0 -198.5 48t-140.5 136.5t-52 204.5q0 112 48.5 201t139.5 140.5t211 51.5q58 0 117.5 -15.5t107.5 -42.5l-13 -56q-111 57 -218 57q-94 0 -168.5 -40.5t-117.5 -116.5t-43 -176q0 -97 40 -173t115 -119t174 -43q57 0 117.5 14.5t110.5 39.5l9 -55
q-52 -27 -114 -41.5t-125 -14.5z" />
    <glyph glyph-name="D" unicode="D" horiz-adv-x="847" 
d="M122 760h253q192 0 297.5 -99.5t105.5 -280.5q0 -184 -106.5 -282t-306.5 -98h-243v760zM184 55h183q172 0 259.5 82t87.5 242q0 161 -87.5 243.5t-258.5 82.5h-184v-650z" />
    <glyph glyph-name="E" unicode="E" horiz-adv-x="654" 
d="M122 760h440v-54h-378v-288h338v-53h-338v-311h393v-54h-455v760z" />
    <glyph glyph-name="F" unicode="F" horiz-adv-x="604" 
d="M122 760h424v-54h-362v-305h312v-54h-312v-347h-62v760z" />
    <glyph glyph-name="G" unicode="G" horiz-adv-x="827" 
d="M467 -11q-114 0 -204 47t-142 135t-52 205q0 112 49.5 201.5t141 141.5t211.5 52q66 0 132 -15.5t116 -42.5l-13 -55q-48 26 -112.5 41t-127.5 15q-93 0 -168.5 -41t-120 -117.5t-44.5 -175.5q0 -98 40 -173.5t116.5 -118t179.5 -42.5q112 0 206 39v248h-194v55h255v-341
q-118 -58 -269 -58z" />
    <glyph glyph-name="H" unicode="H" horiz-adv-x="859" 
d="M122 760h62v-336h491v336h62v-760h-62v371h-491v-371h-62v760z" />
    <glyph glyph-name="I" unicode="I" horiz-adv-x="306" 
d="M122 760h62v-760h-62v760z" />
    <glyph glyph-name="J" unicode="J" horiz-adv-x="544" 
d="M208 -16q-88 0 -160 40l8 57q66 -40 150 -40q85 0 123.5 44t38.5 142v533h61v-533q0 -122 -54.5 -182.5t-166.5 -60.5z" />
    <glyph glyph-name="K" unicode="K" horiz-adv-x="746" 
d="M122 760h62v-349l410 349h84l-430 -364l470 -396h-92l-442 374v-374h-62v760z" />
    <glyph glyph-name="L" unicode="L" horiz-adv-x="603" 
d="M122 760h62v-706h373v-54h-435v760z" />
    <glyph glyph-name="M" unicode="M" horiz-adv-x="1038" 
d="M147 760h63l310 -567l308 567h63l35 -760h-59l-32 663l-290 -534h-52l-291 529l-31 -658h-59z" />
    <glyph glyph-name="N" unicode="N" horiz-adv-x="877" 
d="M122 760h61l514 -672v672h58v-760h-61l-514 672v-672h-58v760z" />
    <glyph glyph-name="O" unicode="O" horiz-adv-x="908" 
d="M454 41q88 0 161 42t116.5 119.5t43.5 176.5q0 94 -40 171t-113.5 123t-167.5 46q-88 0 -161 -42t-116.5 -119.5t-43.5 -176.5q0 -94 40 -171t113.5 -123t167.5 -46zM454 -16q-105 0 -192.5 49.5t-140 140.5t-52.5 205q0 108 48.5 198t137.5 144.5t200 54.5
q105 0 192 -50t139.5 -141t52.5 -205q0 -107 -48.5 -197t-137 -144.5t-199.5 -54.5z" />
    <glyph glyph-name="P" unicode="P" horiz-adv-x="637" 
d="M122 760h206q74 0 131 -27t89 -78t32 -120q0 -106 -70.5 -168.5t-191.5 -62.5h-136v-304h-60v760zM182 358h126q102 0 155.5 45t53.5 130q0 82 -52 127.5t-146 45.5h-137v-348z" />
    <glyph glyph-name="Q" unicode="Q" horiz-adv-x="908" 
d="M682 -182l-152 174q-43 -8 -76 -8q-105 0 -192.5 49.5t-140 140.5t-52.5 205q0 108 48.5 198t137.5 144.5t200 54.5q105 0 192 -50t139.5 -141t52.5 -205q0 -82 -29 -155.5t-84.5 -130t-131.5 -85.5l170 -191h-82zM454 41q88 0 161 42t116.5 119.5t43.5 176.5
q0 94 -40 171t-113.5 123t-167.5 46q-88 0 -161 -42t-116.5 -119.5t-43.5 -176.5q0 -94 40 -171t113.5 -123t167.5 -46z" />
    <glyph glyph-name="R" unicode="R" horiz-adv-x="697" 
d="M122 760h208q114 0 182.5 -60t68.5 -160q0 -74 -38.5 -128t-109.5 -79l221 -333h-74l-207 319q-21 -3 -52 -3h-139v-316h-60v760zM182 370h128q101 0 154 43t53 125q0 81 -50.5 124.5t-143.5 43.5h-141v-336z" />
    <glyph glyph-name="S" unicode="S" horiz-adv-x="656" 
d="M308 -16q-65 0 -128 17t-105 45l9 57q47 -30 106 -47.5t116 -17.5q93 0 147 41t54 111q0 45 -19 73.5t-62.5 51.5t-122.5 50q-116 39 -164.5 87.5t-48.5 126.5q0 90 64.5 143.5t173.5 53.5q54 0 108 -13t99 -37l-12 -54q-100 50 -195 50q-83 0 -130.5 -37t-47.5 -102
q0 -41 16.5 -68.5t54.5 -49t106 -44.5q92 -31 144 -63t74.5 -71t22.5 -92q0 -97 -70.5 -154t-189.5 -57z" />
    <glyph glyph-name="T" unicode="T" horiz-adv-x="672" 
d="M305 706h-260v54h582v-54h-260v-706h-62v706z" />
    <glyph glyph-name="U" unicode="U" horiz-adv-x="850" 
d="M424 -16q-148 0 -228.5 83t-80.5 236v457h61v-449q0 -134 63 -202t186 -68t186 68t63 202v449h61v-457q0 -153 -81 -236t-230 -83z" />
    <glyph glyph-name="V" unicode="V" horiz-adv-x="741" 
d="M35 760h68l269 -695l270 695h64l-300 -760h-70z" />
    <glyph glyph-name="W" unicode="W" horiz-adv-x="1100" 
d="M37 760h67l205 -686l210 676h64l209 -676l207 686h64l-236 -760h-66l-212 672l-209 -672h-68z" />
    <glyph glyph-name="X" unicode="X" horiz-adv-x="719" 
d="M324 398l-264 362h74l228 -318l230 318h69l-265 -362l291 -398h-74l-255 354l-256 -354h-70z" />
    <glyph glyph-name="Y" unicode="Y" horiz-adv-x="679" 
d="M308 337l-279 423h71l240 -372l244 372h66l-280 -424v-336h-62v337z" />
    <glyph glyph-name="Z" unicode="Z" horiz-adv-x="700" 
d="M62 53l487 653h-462v54h533v-53l-487 -653h495v-54h-566v53z" />
    <glyph glyph-name="bracketleft" unicode="[" horiz-adv-x="374" 
d="M108 820h225v-49h-170v-855h170v-49h-225v953z" />
    <glyph glyph-name="backslash" unicode="\" horiz-adv-x="505" 
d="M15 810h62l412 -943h-61z" />
    <glyph glyph-name="bracketright" unicode="]" horiz-adv-x="374" 
d="M41 -84h170v855h-170v49h225v-953h-225v49z" />
    <glyph glyph-name="asciicircum" unicode="^" horiz-adv-x="620" 
d="M287 696h52l201 -369h-61l-167 313l-173 -313h-59z" />
    <glyph glyph-name="underscore" unicode="_" horiz-adv-x="500" 
d="M0 -64h500v-53h-500v53z" />
    <glyph glyph-name="grave" unicode="`" horiz-adv-x="500" 
d="M154 773h69l123 -174h-57z" />
    <glyph glyph-name="a" unicode="a" horiz-adv-x="654" 
d="M302 -16q-68 0 -123 32.5t-87.5 92t-32.5 135.5q0 70 31.5 129t88.5 95.5t128 36.5q62 0 113.5 -29t79.5 -79l2 92h56v-489h-56l-2 92q-28 -51 -79.5 -79.5t-118.5 -28.5zM312 36q54 0 97.5 25.5t69.5 73t26 109.5q0 58 -24 105.5t-68 75.5t-101 28q-53 0 -97 -25.5
t-70 -73.5t-26 -110q0 -58 23.5 -105t67.5 -75t102 -28z" />
    <glyph glyph-name="b" unicode="b" horiz-adv-x="654" 
d="M347 -16q-63 0 -114.5 29t-79.5 79l-1 -92h-56v810h58v-413q28 51 79.5 79.5t118.5 28.5q68 0 123 -32.5t87.5 -92t32.5 -135.5q0 -70 -31.5 -129t-88.5 -95.5t-128 -36.5zM342 36q53 0 97 25.5t70 73.5t26 110q0 58 -23.5 105t-67.5 75t-102 28q-54 0 -97.5 -25.5
t-69.5 -73t-26 -109.5q0 -58 24 -105.5t68 -75.5t101 -28z" />
    <glyph glyph-name="c" unicode="c" horiz-adv-x="530" 
d="M322 -15q-76 0 -135.5 31.5t-93.5 90t-34 136.5q0 73 32 132t91.5 93.5t136.5 34.5q89 0 149 -36l-9 -51q-30 17 -66.5 26t-73.5 9q-58 0 -103 -25t-71 -72t-26 -109q0 -94 56 -151t149 -57q78 0 148 38l7 -49q-30 -19 -72 -30t-85 -11z" />
    <glyph glyph-name="d" unicode="d" horiz-adv-x="654" 
d="M302 -16q-68 0 -123 32.5t-87.5 92t-32.5 135.5q0 70 31.5 129t88.5 95.5t128 36.5q62 0 114 -29t79 -78v412h58v-810h-56l-2 92q-28 -51 -79.5 -79.5t-118.5 -28.5zM312 36q54 0 97.5 25.5t69.5 73t26 109.5q0 58 -24 105.5t-68 75.5t-101 28q-53 0 -97 -25.5t-70 -73.5
t-26 -110q0 -58 23.5 -105t67.5 -75t102 -28z" />
    <glyph glyph-name="e" unicode="e" horiz-adv-x="577" 
d="M326 -16q-121 0 -194 70.5t-73 187.5q0 73 29.5 132.5t84.5 95t125 35.5q62 0 111 -29t77 -82.5t28 -124.5q0 -17 -3 -41h-395q4 -89 60.5 -140.5t152.5 -51.5q92 0 166 41l8 -50q-31 -20 -78.5 -31.5t-98.5 -11.5zM458 278q-2 81 -46 128.5t-117 47.5q-71 0 -119.5 -48
t-58.5 -128h341z" />
    <glyph glyph-name="f" unicode="f" horiz-adv-x="388" 
d="M133 438h-103v51h103v93q0 115 48 174t140 59q56 0 98 -20l-7 -50q-47 19 -88 19q-68 0 -100.5 -46t-32.5 -144v-85h166v-51h-166v-438h-58v438z" />
    <glyph glyph-name="g" unicode="g" horiz-adv-x="654" 
d="M295 -255q-46 0 -98 13.5t-83 34.5l9 52q33 -22 80.5 -35t91.5 -13q107 0 156.5 55.5t49.5 176.5v64q-27 -51 -80 -80t-119 -29q-68 0 -123 32.5t-87.5 92t-32.5 135.5q0 70 31.5 129t88.5 95.5t128 36.5q62 0 113.5 -29t79.5 -79l2 92h56v-454q0 -147 -65 -218.5
t-198 -71.5zM312 36q54 0 97.5 25.5t69.5 73t26 109.5q0 58 -24 105.5t-68 75.5t-101 28q-53 0 -97 -25.5t-70 -73.5t-26 -110q0 -58 23.5 -105t67.5 -75t102 -28z" />
    <glyph glyph-name="h" unicode="h" horiz-adv-x="603" 
d="M96 810h58v-399q26 46 70.5 70t102.5 24q87 0 135 -55t48 -155v-295h-58v286q0 167 -137 167q-74 0 -117.5 -50.5t-43.5 -136.5v-266h-58v810z" />
    <glyph glyph-name="i" unicode="i" horiz-adv-x="250" 
d="M96 489h58v-489h-58v489zM125 639q-19 0 -31.5 12.5t-12.5 31.5t12.5 31t31.5 12t31 -12t12 -31t-12 -31.5t-31 -12.5z" />
    <glyph glyph-name="j" unicode="j" horiz-adv-x="250" 
d="M-4 -255q-54 0 -98 23l6 50q43 -22 95 -22q50 0 73.5 30t23.5 95v568h58v-567q0 -89 -39 -133t-119 -44zM125 639q-19 0 -31.5 12.5t-12.5 31.5t12.5 31t31.5 12t31 -12t12 -31t-12 -31.5t-31 -12.5z" />
    <glyph glyph-name="k" unicode="k" horiz-adv-x="549" 
d="M96 810h58v-522l249 201h80l-271 -216l311 -273h-82l-287 253v-253h-58v810z" />
    <glyph glyph-name="l" unicode="l" horiz-adv-x="250" 
d="M96 810h58v-810h-58v810z" />
    <glyph glyph-name="m" unicode="m" horiz-adv-x="936" 
d="M96 489h54l1 -84q25 47 70 73.5t101 26.5q60 0 102 -30t60 -87q22 55 70 86t111 31q85 0 131.5 -55t46.5 -155v-295h-58v286q0 167 -132 167q-71 0 -113 -51t-42 -137v-265h-58v286q0 167 -131 167q-71 0 -113 -50.5t-42 -136.5v-266h-58v489z" />
    <glyph glyph-name="n" unicode="n" horiz-adv-x="603" 
d="M96 489h54l1 -83q26 48 71.5 73.5t104.5 25.5q87 0 135 -55t48 -155v-295h-58v286q0 167 -137 167q-74 0 -117.5 -50.5t-43.5 -136.5v-266h-58v489z" />
    <glyph glyph-name="o" unicode="o" horiz-adv-x="624" 
d="M312 -16q-70 0 -127 32.5t-91.5 92t-34.5 135.5q0 70 32 129t90 95.5t131 36.5q70 0 127 -32.5t91.5 -92t34.5 -135.5q0 -70 -32 -129t-90 -95.5t-131 -36.5zM312 36q53 0 97 25.5t70 73.5t26 110q0 58 -23.5 105t-67.5 75t-102 28q-53 0 -97 -25.5t-70 -73.5t-26 -110
q0 -58 23.5 -105t67.5 -75t102 -28z" />
    <glyph glyph-name="p" unicode="p" horiz-adv-x="656" 
d="M98 489h56l1 -92q28 51 80 79.5t119 28.5q68 0 123 -32.5t87.5 -92t32.5 -135.5q0 -70 -31.5 -129t-88.5 -95.5t-128 -36.5q-63 0 -115 29t-78 78v-336h-58v734zM344 36q53 0 97 25.5t70 73.5t26 110q0 58 -23.5 105t-67.5 75t-102 28q-54 0 -97.5 -25.5t-69.5 -73
t-26 -109.5q0 -58 24 -105.5t68 -75.5t101 -28z" />
    <glyph glyph-name="q" unicode="q" horiz-adv-x="654" 
d="M500 -245v336q-28 -51 -80 -79t-118 -28q-68 0 -123 32.5t-87.5 92t-32.5 135.5q0 70 31.5 129t88.5 95.5t128 36.5q62 0 113.5 -29t79.5 -79l2 92h56v-734h-58zM312 36q54 0 97.5 25.5t69.5 73t26 109.5q0 58 -24 105.5t-68 75.5t-101 28q-53 0 -97 -25.5t-70 -73.5
t-26 -110q0 -58 23.5 -105t67.5 -75t102 -28z" />
    <glyph glyph-name="r" unicode="r" horiz-adv-x="402" 
d="M96 489h55v-97q59 104 161 104q35 0 55 -10l-6 -54q-30 10 -57 10q-70 0 -110 -56t-40 -155v-231h-58v489z" />
    <glyph glyph-name="s" unicode="s" horiz-adv-x="459" 
d="M215 -16q-47 0 -92 13t-73 34l8 53q32 -23 75 -36.5t82 -13.5q61 0 96.5 23t35.5 64q0 28 -12.5 44t-42 29.5t-85.5 31.5q-79 25 -112.5 58.5t-33.5 86.5q0 61 46.5 97.5t125.5 36.5q38 0 78.5 -10.5t70.5 -28.5l-9 -51q-30 19 -67 29.5t-74 10.5q-55 0 -85 -21t-30 -58
q0 -36 25.5 -58t88.5 -40q96 -27 135 -61.5t39 -92.5q0 -64 -51.5 -102t-138.5 -38z" />
    <glyph glyph-name="t" unicode="t" horiz-adv-x="427" 
d="M282 -16q-78 0 -115 43t-37 135v276h-114v51h114v155h58v-155h180v-51h-180v-263q0 -76 23.5 -108t79.5 -32q51 0 99 27l8 -49q-22 -14 -53 -21.5t-63 -7.5z" />
    <glyph glyph-name="u" unicode="u" horiz-adv-x="601" 
d="M275 -16q-87 0 -134.5 55t-47.5 155v295h58v-286q0 -167 136 -167q73 0 116.5 50.5t43.5 136.5v266h58v-489h-54l-1 83q-26 -49 -71 -74t-104 -25z" />
    <glyph glyph-name="v" unicode="v" horiz-adv-x="528" 
d="M29 489h63l175 -424l173 424h59l-205 -489h-58z" />
    <glyph glyph-name="w" unicode="w" horiz-adv-x="797" 
d="M29 489h62l144 -423l136 417h52l139 -417l147 423h59l-177 -489h-56l-139 416l-136 -416h-56z" />
    <glyph glyph-name="x" unicode="x" horiz-adv-x="536" 
d="M233 252l-182 237h70l148 -197l148 197h65l-181 -235l200 -254h-70l-166 214l-164 -214h-66z" />
    <glyph glyph-name="y" unicode="y" horiz-adv-x="541" 
d="M247 33l-218 456h64l185 -392l173 392h61l-335 -734h-61z" />
    <glyph glyph-name="z" unicode="z" horiz-adv-x="507" 
d="M55 48l315 390h-304v51h373v-48l-317 -391h324v-50h-391v48z" />
    <glyph glyph-name="braceleft" unicode="{" horiz-adv-x="423" 
d="M314 -145q-82 0 -120.5 33.5t-38.5 105.5q1 35 9 74t16.5 78.5t9.5 76.5q0 48 -25.5 68.5t-83.5 20.5h-22v53h22q59 0 84 20.5t25 67.5q-1 37 -9 76.5t-16.5 78.5t-9.5 74q0 72 38.5 105.5t120.5 33.5q16 0 46 -2v-46q-8 1 -47 1q-55 0 -79.5 -21.5t-24.5 -68.5
q0 -23 5.5 -51t12 -59t12 -61t5.5 -57q0 -46 -21.5 -76.5t-62.5 -41.5q41 -11 62.5 -41t21.5 -77q0 -26 -5.5 -56.5t-12 -61t-12 -59t-5.5 -51.5q0 -47 24.5 -68.5t79.5 -21.5q39 0 47 1v-46q-30 -2 -46 -2z" />
    <glyph glyph-name="bar" unicode="|" horiz-adv-x="271" 
d="M106 866h58v-1093h-58v1093z" />
    <glyph glyph-name="braceright" unicode="}" horiz-adv-x="423" 
d="M109 -145q-16 0 -46 2v46q8 -1 47 -1q55 0 79.5 21.5t24.5 68.5q0 23 -5.5 51t-12 59t-12 61t-5.5 57q0 46 21.5 76.5t62.5 41.5q-41 11 -62.5 41t-21.5 77q0 26 5.5 56.5t12 61t12 59t5.5 51.5q0 47 -24.5 68.5t-79.5 21.5q-39 0 -47 -1v46q30 2 46 2q82 0 120.5 -33.5
t38.5 -105.5q-1 -35 -9 -74t-16.5 -78.5t-9.5 -76.5q0 -48 25.5 -68.5t83.5 -20.5h22v-53h-22q-59 0 -84 -20.5t-25 -67.5q1 -37 9.5 -76.5t16.5 -78.5t9 -74q0 -72 -38.5 -105.5t-120.5 -33.5z" />
    <glyph glyph-name="asciitilde" unicode="~" horiz-adv-x="620" 
d="M424 255q-29 0 -58 14t-67 47q-40 34 -61 45.5t-42 11.5q-35 0 -53 -28.5t-19 -89.5h-51v8q1 77 33 120t88 43q29 0 58.5 -14t67.5 -46q37 -33 59.5 -45.5t43.5 -12.5q35 0 52.5 28.5t19.5 89.5h51v-8q-1 -77 -33 -120t-89 -43z" />
    <glyph glyph-name="uni00A0" unicode="&#xa0;" horiz-adv-x="225" 
 />
    <glyph glyph-name="exclamdown" unicode="&#xa1;" horiz-adv-x="274" 
d="M111 278h51l5 -570h-61zM137 505q20 0 33.5 -13.5t13.5 -33.5t-13.5 -33.5t-33.5 -13.5t-33.5 13.5t-13.5 33.5t14 33.5t33 13.5z" />
    <glyph glyph-name="cent" unicode="&#xa2;" horiz-adv-x="620" 
d="M310 -130v127q-61 11 -106.5 44.5t-70.5 86.5t-25 119q0 97 55 166.5t147 87.5v129h46v-125q83 -2 141 -36l-9 -51q-61 34 -132 36v-409q76 0 146 38l7 -49q-28 -18 -68.5 -28.5t-84.5 -11.5v-124h-46zM310 449q-66 -17 -104.5 -71t-38.5 -129q0 -76 38 -129t105 -70v399
z" />
    <glyph glyph-name="sterling" unicode="&#xa3;" horiz-adv-x="620" 
d="M82 51h98v289h-94v50h94v85q0 139 58.5 212t170.5 73q74 0 138 -32l-11 -51q-62 31 -129 31q-86 0 -128.5 -58.5t-42.5 -179.5v-80h219v-50h-219v-289h319v-51h-473v51z" />
    <glyph glyph-name="currency" unicode="&#xa4;" horiz-adv-x="620" 
d="M68 220l75 76q-36 53 -36 121q0 70 36 122l-75 76l35 32l71 -73q27 25 62.5 39t73.5 14t73.5 -14t62.5 -39l71 73l35 -32l-76 -77q37 -51 37 -121q0 -68 -36 -121l75 -76l-35 -32l-71 72q-58 -52 -136 -52q-38 0 -74 13.5t-63 38.5l-70 -72zM310 252q43 0 77.5 20.5
t55 58.5t20.5 86q0 72 -43 118.5t-110 46.5t-109.5 -46.5t-42.5 -118.5t42.5 -118.5t109.5 -46.5z" />
    <glyph glyph-name="yen" unicode="&#xa5;" horiz-adv-x="620" 
d="M283 167h-205v49h205v114h-205v49h177l-219 365h66l209 -362l209 362h64l-218 -365h177v-49h-204v-114h204v-49h-204v-167h-56v167z" />
    <glyph glyph-name="brokenbar" unicode="&#xa6;" horiz-adv-x="270" 
d="M106 218h58v-445h-58v445zM106 866h58v-445h-58v445z" />
    <glyph glyph-name="section" unicode="&#xa7;" horiz-adv-x="481" 
d="M220 -121q-44 0 -87.5 12.5t-72.5 34.5l9 52q31 -24 71 -37t81 -13q61 0 97 29.5t36 79.5q0 42 -31.5 68t-109.5 49t-116 63.5t-38 101.5q0 58 35.5 100.5t93.5 55.5q-55 22 -82 55.5t-27 81.5q0 61 48 99t126 38q40 0 78.5 -10t67.5 -28l-9 -50q-62 39 -138 39
q-56 0 -88 -23t-32 -63q0 -37 30 -62.5t100 -49.5q87 -30 124 -69.5t37 -101.5q0 -56 -32.5 -97.5t-88.5 -57.5q55 -22 82 -55.5t27 -81.5q0 -73 -52.5 -116.5t-138.5 -43.5zM243 207q56 0 91 33.5t35 85.5q0 51 -36.5 84.5t-91.5 33.5q-57 0 -93 -34.5t-36 -88.5
q0 -50 36.5 -82t94.5 -32z" />
    <glyph glyph-name="dieresis" unicode="&#xa8;" horiz-adv-x="500" 
d="M160 642q-18 0 -29 11.5t-11 29.5q0 19 11.5 30.5t28.5 11.5q18 0 30 -12t12 -30t-12 -29.5t-30 -11.5zM339 642q-18 0 -29.5 11.5t-11.5 29.5t11.5 30t29.5 12t29.5 -12t11.5 -30t-11.5 -29.5t-29.5 -11.5z" />
    <glyph glyph-name="copyright" unicode="&#xa9;" horiz-adv-x="797" 
d="M415 199q-86 0 -137.5 50.5t-51.5 133.5q0 52 23 94.5t65.5 67.5t97.5 25q59 0 105 -24l-8 -50q-46 24 -98 24q-57 0 -93 -38t-36 -98q0 -61 36.5 -98.5t96.5 -37.5q48 0 103 27l8 -49q-46 -27 -111 -27zM399 33q-96 0 -175 43.5t-126 123t-47 180.5q0 95 43.5 174
t123 126t181.5 47q96 0 174.5 -43t125.5 -122.5t47 -181.5q0 -96 -43.5 -174.5t-123 -125.5t-180.5 -47zM399 80q84 0 151 37t106.5 105.5t39.5 157.5q0 84 -36.5 152t-104.5 108t-156 40q-84 0 -151.5 -37t-107 -105.5t-39.5 -157.5q0 -84 36.5 -152t105 -108t156.5 -40z
" />
    <glyph glyph-name="ordfeminine" unicode="&#xaa;" horiz-adv-x="460" 
d="M219 408q-44 0 -81.5 22.5t-60.5 63t-23 90.5q0 46 21.5 86t60.5 65t86 25q38 0 70 -16.5t54 -47.5l1 54h46v-332h-46l-1 53q-46 -63 -127 -63zM76 328h321v-43h-321v43zM226 452q52 0 87 37.5t35 94.5t-34.5 94.5t-86.5 37.5t-87 -37.5t-35 -94.5q0 -56 34.5 -94
t86.5 -38z" />
    <glyph glyph-name="guillemotleft" unicode="&#xab;" horiz-adv-x="471" 
d="M35 257l141 208h66l-141 -208l141 -208h-66zM219 257l141 208h66l-141 -208l141 -208h-66z" />
    <glyph glyph-name="logicalnot" unicode="&#xac;" horiz-adv-x="620" 
d="M462 334h-359v53h415v-213h-56v160z" />
    <glyph glyph-name="uni00AD" unicode="&#xad;" horiz-adv-x="441" 
d="M78 313h285v-57h-285v57z" />
    <glyph glyph-name="registered" unicode="&#xae;" horiz-adv-x="508" 
d="M254 395q-56 0 -104 27t-77.5 75.5t-29.5 108.5q0 57 26.5 104.5t75.5 77t109 29.5q57 0 105 -27t77 -75.5t29 -108.5q0 -56 -27 -104t-75.5 -77.5t-108.5 -29.5zM254 432q46 0 85 22t63 62t24 90q0 47 -22 86.5t-61.5 63.5t-88.5 24q-46 0 -85 -22t-63 -62t-24 -90
q0 -47 22 -86.5t61.5 -63.5t88.5 -24zM183 712h68q37 0 58 -17t21 -47q0 -42 -36 -58l50 -80h-42l-44 73h-39v-73h-36v202zM219 615h28q24 0 34.5 7.5t10.5 25.5q0 32 -44 32h-29v-65z" />
    <glyph glyph-name="macron" unicode="&#xaf;" horiz-adv-x="500" 
d="M103 704h294v-51h-294v51z" />
    <glyph glyph-name="degree" unicode="&#xb0;" horiz-adv-x="500" 
d="M250 434q-45 0 -83 21.5t-61 60.5t-23 89q0 45 21.5 84t60 62.5t85.5 23.5q45 0 83 -21.5t60.5 -60.5t22.5 -88q0 -46 -21 -84.5t-59 -62.5t-86 -24zM250 481q49 0 82 35t33 89q0 53 -33 88t-82 35q-50 0 -83 -35.5t-33 -87.5q0 -54 33 -89t83 -35z" />
    <glyph glyph-name="plusminus" unicode="&#xb1;" horiz-adv-x="620" 
d="M88 54h444v-53h-444v53zM282 361h-194v53h194v198h56v-198h194v-53h-194v-197h-56v197z" />
    <glyph glyph-name="uni00B2" unicode="&#xb2;" 
d="M58 456v45q62 54 118 110q46 45 65 78t19 67q0 33 -22.5 53t-59.5 20q-61 0 -109 -51l-12 43q21 24 55.5 38.5t69.5 14.5q56 0 91.5 -31.5t35.5 -82.5q0 -43 -23.5 -85t-78.5 -95q-18 -18 -87 -79h204v-45h-266z" />
    <glyph glyph-name="uni00B3" unicode="&#xb3;" 
d="M163 446q-30 0 -60 7.5t-49 20.5l5 44q47 -30 104 -30q49 0 76.5 24t27.5 66q0 37 -26.5 58t-73.5 21q-22 0 -39 -6l-13 29l132 140h-183v44h238v-43l-116 -125q58 -2 93.5 -35t35.5 -84q0 -59 -41.5 -95t-110.5 -36z" />
    <glyph glyph-name="acute" unicode="&#xb4;" horiz-adv-x="500" 
d="M294 773h70l-136 -174h-57z" />
    <glyph glyph-name="mu" unicode="&#xb5;" horiz-adv-x="603" 
d="M95 489h58v-286q0 -167 136 -167q73 0 116.5 50.5t43.5 136.5v266h58v-489h-54l-1 83q-25 -46 -69 -72.5t-96 -26.5q-46 0 -80 16t-54 47v-292h-58v734z" />
    <glyph glyph-name="paragraph" unicode="&#xb6;" horiz-adv-x="620" 
d="M269 -130v495q-101 7 -156.5 58.5t-55.5 138.5q0 94 64 146t179 52h214v-890h-56v837h-133v-837h-56z" />
    <glyph glyph-name="periodcentered" unicode="&#xb7;" horiz-adv-x="290" 
d="M145 332q-19 0 -33 14t-14 33q0 20 13.5 33.5t33.5 13.5t33.5 -13.5t13.5 -33.5q0 -19 -13.5 -33t-33.5 -14z" />
    <glyph glyph-name="cedilla" unicode="&#xb8;" horiz-adv-x="500" 
d="M238 -255q-22 0 -45.5 5.5t-38.5 13.5l10 42q15 -8 35 -12.5t39 -4.5q33 0 52 14t19 38q0 23 -17.5 36.5t-48.5 13.5q-27 0 -42 -4l32 123h42l-21 -82h5q44 0 71.5 -24t27.5 -62q0 -44 -32.5 -70.5t-87.5 -26.5z" />
    <glyph glyph-name="uni00B9" unicode="&#xb9;" 
d="M203 812l-124 -57l-8 45l138 64h43v-408h-49v356z" />
    <glyph glyph-name="ordmasculine" unicode="&#xba;" horiz-adv-x="451" 
d="M225 408q-48 0 -87 22t-62 62.5t-23 91.5q0 75 49.5 125.5t122.5 50.5q48 0 87 -22t62.5 -62.5t23.5 -91.5q0 -75 -49.5 -125.5t-123.5 -50.5zM225 452q52 0 87 37.5t35 94.5t-34.5 94.5t-86.5 37.5t-87 -37.5t-35 -94.5t34.5 -94.5t86.5 -37.5zM64 328h322v-43h-322v43z
" />
    <glyph glyph-name="guillemotright" unicode="&#xbb;" horiz-adv-x="471" 
d="M186 257l-141 208h66l141 -208l-141 -208h-66zM370 257l-141 208h66l141 -208l-141 -208h-66z" />
    <glyph glyph-name="onequarter" unicode="&#xbc;" horiz-adv-x="931" 
d="M747 744h63l-578 -744h-63zM789 104h-202v41l197 263h50v-263h56v-41h-56v-104h-45v104zM789 145v203l-153 -203h153zM203 692l-124 -57l-8 45l138 64h43v-408h-49v356z" />
    <glyph glyph-name="onehalf" unicode="&#xbd;" horiz-adv-x="931" 
d="M708 744h63l-578 -744h-63zM609 0v45q62 54 118 110q46 45 65 78t19 67q0 33 -22.5 53t-59.5 20q-61 0 -109 -51l-12 43q21 24 55.5 38.5t69.5 14.5q56 0 91.5 -31.5t35.5 -82.5q0 -43 -23.5 -85t-78.5 -95q-18 -18 -87 -79h204v-45h-266zM203 692l-124 -57l-8 45l138 64
h43v-408h-49v356z" />
    <glyph glyph-name="threequarters" unicode="&#xbe;" horiz-adv-x="931" 
d="M750 744h63l-578 -744h-63zM789 104h-202v41l197 263h50v-263h56v-41h-56v-104h-45v104zM789 145v203l-153 -203h153zM163 326q-30 0 -60 7.5t-49 20.5l5 44q47 -30 104 -30q49 0 76.5 24t27.5 66q0 37 -26.5 58t-73.5 21q-22 0 -39 -6l-13 29l132 140h-183v44h238v-43
l-116 -125q58 -2 93.5 -35t35.5 -84q0 -59 -41.5 -95t-110.5 -36z" />
    <glyph glyph-name="questiondown" unicode="&#xbf;" horiz-adv-x="470" 
d="M247 -302q-88 0 -143 49t-55 127q0 43 14.5 74.5t37 56.5t47.5 48t47.5 48.5t37 58.5t14.5 79q0 19 -2 39h51q3 -18 3 -48q0 -49 -14 -85t-36 -63t-46 -50t-46 -45.5t-36 -49.5t-14 -63q0 -56 40 -90t106 -34q101 0 180 87l15 -51q-32 -40 -86.5 -64t-114.5 -24zM269 505
q20 0 33.5 -13.5t13.5 -33.5t-13.5 -33.5t-33.5 -13.5t-33.5 13.5t-13.5 33.5t14 33.5t33 13.5z" />
    <glyph glyph-name="Agrave" unicode="&#xc0;" horiz-adv-x="751" 
d="M341 760h68l312 -760h-67l-98 243h-366l-97 -243h-63zM535 295l-161 405l-163 -405h324zM229 964h79l136 -129h-65z" />
    <glyph glyph-name="Aacute" unicode="&#xc1;" horiz-adv-x="751" 
d="M341 760h68l312 -760h-67l-98 243h-366l-97 -243h-63zM535 295l-161 405l-163 -405h324zM442 964h79l-149 -129h-66z" />
    <glyph glyph-name="Acircumflex" unicode="&#xc2;" horiz-adv-x="751" 
d="M341 760h68l312 -760h-67l-98 243h-366l-97 -243h-63zM535 295l-161 405l-163 -405h324zM349 977h53l143 -142h-65l-105 103l-104 -103h-66z" />
    <glyph glyph-name="Atilde" unicode="&#xc3;" horiz-adv-x="751" 
d="M341 760h68l312 -760h-67l-98 243h-366l-97 -243h-63zM535 295l-161 405l-163 -405h324zM445 834q-25 1 -44 12.5t-34.5 26.5t-30 26.5t-30.5 12.5q-47 0 -47 -77h-45q0 61 23 93t67 32q26 -1 45 -12.5t34.5 -27t29.5 -27t30 -12.5q48 0 48 78h45q0 -60 -23.5 -92.5
t-67.5 -32.5z" />
    <glyph glyph-name="Adieresis" unicode="&#xc4;" horiz-adv-x="751" 
d="M341 760h68l312 -760h-67l-98 243h-366l-97 -243h-63zM535 295l-161 405l-163 -405h324zM281 847q-18 0 -29.5 12t-11.5 30t11.5 29.5t29.5 11.5q17 0 29 -11.5t12 -29.5t-12 -30t-29 -12zM469 847q-18 0 -29.5 12t-11.5 30t11.5 29.5t29.5 11.5t29.5 -11.5t11.5 -29.5
t-12 -30t-29 -12z" />
    <glyph glyph-name="Aring" unicode="&#xc5;" horiz-adv-x="751" 
d="M341 760h68l312 -760h-67l-98 243h-366l-97 -243h-63zM535 295l-161 405l-163 -405h324zM375 818q-54 0 -90 34.5t-36 86.5q0 53 35.5 87t90.5 34t91 -34.5t36 -86.5t-36 -86.5t-91 -34.5zM375 858q37 0 60 22.5t23 58.5t-23 58.5t-60 22.5t-59.5 -22t-22.5 -59
q0 -36 22.5 -58.5t59.5 -22.5z" />
    <glyph glyph-name="AE" unicode="&#xc6;" horiz-adv-x="1074" 
d="M543 295v406l-263 -406h263zM516 760h467v-54h-378v-288h338v-53h-338v-311h393v-54h-455v243h-296l-157 -243h-69z" />
    <glyph glyph-name="Ccedilla" unicode="&#xc7;" horiz-adv-x="772" 
d="M460 -11q-110 0 -198.5 48t-140.5 136.5t-52 204.5q0 112 48.5 201t139.5 140.5t211 51.5q58 0 117.5 -15.5t107.5 -42.5l-13 -56q-111 57 -218 57q-94 0 -168.5 -40.5t-117.5 -116.5t-43 -176q0 -97 40 -173t115 -119t174 -43q57 0 117.5 14.5t110.5 39.5l9 -55
q-52 -27 -114 -41.5t-125 -14.5zM402 -255q-22 0 -45.5 5.5t-38.5 13.5l10 43q33 -18 74 -18q32 0 50.5 14t18.5 38q0 23 -16.5 36t-47.5 13q-30 0 -43 -4l33 124h43l-22 -82h5q44 0 71.5 -24t27.5 -62q0 -44 -32.5 -70.5t-87.5 -26.5z" />
    <glyph glyph-name="Egrave" unicode="&#xc8;" horiz-adv-x="654" 
d="M122 760h440v-54h-378v-288h338v-53h-338v-311h393v-54h-455v760zM204 964h79l136 -129h-65z" />
    <glyph glyph-name="Eacute" unicode="&#xc9;" horiz-adv-x="654" 
d="M122 760h440v-54h-378v-288h338v-53h-338v-311h393v-54h-455v760zM417 964h79l-149 -129h-66z" />
    <glyph glyph-name="Ecircumflex" unicode="&#xca;" horiz-adv-x="654" 
d="M122 760h440v-54h-378v-288h338v-53h-338v-311h393v-54h-455v760zM324 977h53l143 -142h-65l-105 103l-104 -103h-66z" />
    <glyph glyph-name="Edieresis" unicode="&#xcb;" horiz-adv-x="654" 
d="M122 760h440v-54h-378v-288h338v-53h-338v-311h393v-54h-455v760zM256 847q-18 0 -29.5 12t-11.5 30t11.5 29.5t29.5 11.5q17 0 29 -11.5t12 -29.5t-12 -30t-29 -12zM444 847q-18 0 -29.5 12t-11.5 30t11.5 29.5t29.5 11.5t29.5 -11.5t11.5 -29.5t-12 -30t-29 -12z" />
    <glyph glyph-name="Igrave" unicode="&#xcc;" horiz-adv-x="306" 
d="M122 760h62v-760h-62v760zM7 964h79l136 -129h-65z" />
    <glyph glyph-name="Iacute" unicode="&#xcd;" horiz-adv-x="306" 
d="M122 760h62v-760h-62v760zM220 964h79l-149 -129h-66z" />
    <glyph glyph-name="Icircumflex" unicode="&#xce;" horiz-adv-x="306" 
d="M122 760h62v-760h-62v760zM127 977h53l143 -142h-65l-105 103l-104 -103h-66z" />
    <glyph glyph-name="Idieresis" unicode="&#xcf;" horiz-adv-x="306" 
d="M122 760h62v-760h-62v760zM59 847q-18 0 -29.5 12t-11.5 30t11.5 29.5t29.5 11.5q17 0 29 -11.5t12 -29.5t-12 -30t-29 -12zM247 847q-18 0 -29.5 12t-11.5 30t11.5 29.5t29.5 11.5t29.5 -11.5t11.5 -29.5t-12 -30t-29 -12z" />
    <glyph glyph-name="Eth" unicode="&#xd0;" horiz-adv-x="857" 
d="M132 358h-105v50h105v352h253q192 0 297.5 -99.5t105.5 -280.5q0 -184 -106.5 -282t-306.5 -98h-243v358zM194 55h183q172 0 259.5 82t87.5 242q0 161 -87.5 243.5t-258.5 82.5h-184v-297h195v-50h-195v-303z" />
    <glyph glyph-name="Ntilde" unicode="&#xd1;" horiz-adv-x="877" 
d="M122 760h61l514 -672v672h58v-760h-61l-514 672v-672h-58v760zM503 834q-25 1 -44 12.5t-34.5 26.5t-30 26.5t-30.5 12.5q-47 0 -47 -77h-45q0 61 23 93t67 32q26 -1 45 -12.5t34.5 -27t29.5 -27t30 -12.5q48 0 48 78h45q0 -60 -23.5 -92.5t-67.5 -32.5z" />
    <glyph glyph-name="Ograve" unicode="&#xd2;" horiz-adv-x="908" 
d="M454 41q88 0 161 42t116.5 119.5t43.5 176.5q0 94 -40 171t-113.5 123t-167.5 46q-88 0 -161 -42t-116.5 -119.5t-43.5 -176.5q0 -94 40 -171t113.5 -123t167.5 -46zM454 -16q-105 0 -192.5 49.5t-140 140.5t-52.5 205q0 108 48.5 198t137.5 144.5t200 54.5
q105 0 192 -50t139.5 -141t52.5 -205q0 -107 -48.5 -197t-137 -144.5t-199.5 -54.5zM308 964h79l136 -129h-65z" />
    <glyph glyph-name="Oacute" unicode="&#xd3;" horiz-adv-x="908" 
d="M454 41q88 0 161 42t116.5 119.5t43.5 176.5q0 94 -40 171t-113.5 123t-167.5 46q-88 0 -161 -42t-116.5 -119.5t-43.5 -176.5q0 -94 40 -171t113.5 -123t167.5 -46zM454 -16q-105 0 -192.5 49.5t-140 140.5t-52.5 205q0 108 48.5 198t137.5 144.5t200 54.5
q105 0 192 -50t139.5 -141t52.5 -205q0 -107 -48.5 -197t-137 -144.5t-199.5 -54.5zM521 964h79l-149 -129h-66z" />
    <glyph glyph-name="Ocircumflex" unicode="&#xd4;" horiz-adv-x="908" 
d="M454 41q88 0 161 42t116.5 119.5t43.5 176.5q0 94 -40 171t-113.5 123t-167.5 46q-88 0 -161 -42t-116.5 -119.5t-43.5 -176.5q0 -94 40 -171t113.5 -123t167.5 -46zM454 -16q-105 0 -192.5 49.5t-140 140.5t-52.5 205q0 108 48.5 198t137.5 144.5t200 54.5
q105 0 192 -50t139.5 -141t52.5 -205q0 -107 -48.5 -197t-137 -144.5t-199.5 -54.5zM428 977h53l143 -142h-65l-105 103l-104 -103h-66z" />
    <glyph glyph-name="Otilde" unicode="&#xd5;" horiz-adv-x="908" 
d="M454 41q88 0 161 42t116.5 119.5t43.5 176.5q0 94 -40 171t-113.5 123t-167.5 46q-88 0 -161 -42t-116.5 -119.5t-43.5 -176.5q0 -94 40 -171t113.5 -123t167.5 -46zM454 -16q-105 0 -192.5 49.5t-140 140.5t-52.5 205q0 108 48.5 198t137.5 144.5t200 54.5
q105 0 192 -50t139.5 -141t52.5 -205q0 -107 -48.5 -197t-137 -144.5t-199.5 -54.5zM524 834q-25 1 -44 12.5t-34.5 26.5t-30 26.5t-30.5 12.5q-47 0 -47 -77h-45q0 61 23 93t67 32q26 -1 45 -12.5t34.5 -27t29.5 -27t30 -12.5q48 0 48 78h45q0 -60 -23.5 -92.5t-67.5 -32.5
z" />
    <glyph glyph-name="Odieresis" unicode="&#xd6;" horiz-adv-x="908" 
d="M454 41q88 0 161 42t116.5 119.5t43.5 176.5q0 94 -40 171t-113.5 123t-167.5 46q-88 0 -161 -42t-116.5 -119.5t-43.5 -176.5q0 -94 40 -171t113.5 -123t167.5 -46zM454 -16q-105 0 -192.5 49.5t-140 140.5t-52.5 205q0 108 48.5 198t137.5 144.5t200 54.5
q105 0 192 -50t139.5 -141t52.5 -205q0 -107 -48.5 -197t-137 -144.5t-199.5 -54.5zM360 847q-18 0 -29.5 12t-11.5 30t11.5 29.5t29.5 11.5q17 0 29 -11.5t12 -29.5t-12 -30t-29 -12zM548 847q-18 0 -29.5 12t-11.5 30t11.5 29.5t29.5 11.5t29.5 -11.5t11.5 -29.5t-12 -30
t-29 -12z" />
    <glyph glyph-name="multiply" unicode="&#xd7;" horiz-adv-x="620" 
d="M121 185l151 150l-151 152l37 37l152 -151l152 151l36 -37l-152 -151l152 -151l-37 -38l-152 152l-152 -151z" />
    <glyph glyph-name="Oslash" unicode="&#xd8;" horiz-adv-x="908" 
d="M454 -16q-73 0 -139 25t-119 72l-89 -91l-36 37l89 91q-44 52 -67.5 119t-23.5 142q0 108 48.5 198t137.5 144.5t200 54.5q72 0 138 -25.5t119 -72.5l89 91l36 -37l-89 -91q44 -54 67.5 -121t23.5 -140q0 -107 -48.5 -197t-137 -144.5t-199.5 -54.5zM454 41q88 0 161 42
t116.5 119.5t43.5 176.5q0 62 -18 117.5t-52 100.5l-467 -474q43 -40 98.5 -61t117.5 -21zM133 381q0 -128 70 -219l467 474q-43 40 -98.5 61.5t-117.5 21.5q-88 0 -161 -42t-116.5 -119.5t-43.5 -176.5z" />
    <glyph glyph-name="Ugrave" unicode="&#xd9;" horiz-adv-x="850" 
d="M424 -16q-148 0 -228.5 83t-80.5 236v457h61v-449q0 -134 63 -202t186 -68t186 68t63 202v449h61v-457q0 -153 -81 -236t-230 -83zM279 964h79l136 -129h-65z" />
    <glyph glyph-name="Uacute" unicode="&#xda;" horiz-adv-x="850" 
d="M424 -16q-148 0 -228.5 83t-80.5 236v457h61v-449q0 -134 63 -202t186 -68t186 68t63 202v449h61v-457q0 -153 -81 -236t-230 -83zM492 964h79l-149 -129h-66z" />
    <glyph glyph-name="Ucircumflex" unicode="&#xdb;" horiz-adv-x="850" 
d="M424 -16q-148 0 -228.5 83t-80.5 236v457h61v-449q0 -134 63 -202t186 -68t186 68t63 202v449h61v-457q0 -153 -81 -236t-230 -83zM399 977h53l143 -142h-65l-105 103l-104 -103h-66z" />
    <glyph glyph-name="Udieresis" unicode="&#xdc;" horiz-adv-x="850" 
d="M424 -16q-148 0 -228.5 83t-80.5 236v457h61v-449q0 -134 63 -202t186 -68t186 68t63 202v449h61v-457q0 -153 -81 -236t-230 -83zM331 847q-18 0 -29.5 12t-11.5 30t11.5 29.5t29.5 11.5q17 0 29 -11.5t12 -29.5t-12 -30t-29 -12zM519 847q-18 0 -29.5 12t-11.5 30
t11.5 29.5t29.5 11.5t29.5 -11.5t11.5 -29.5t-12 -30t-29 -12z" />
    <glyph glyph-name="Yacute" unicode="&#xdd;" horiz-adv-x="679" 
d="M308 337l-279 423h71l240 -372l244 372h66l-280 -424v-336h-62v337zM406 964h79l-149 -129h-66z" />
    <glyph glyph-name="Thorn" unicode="&#xde;" horiz-adv-x="639" 
d="M122 760h60v-143h146q74 0 131 -27t89 -78t32 -120q0 -106 -70.5 -168.5t-191.5 -62.5h-136v-161h-60v760zM182 215h126q102 0 155.5 45t53.5 130q0 82 -52 127.5t-146 45.5h-137v-348z" />
    <glyph glyph-name="germandbls" unicode="&#xdf;" horiz-adv-x="642" 
d="M355 -16q-78 0 -129 33l11 49q23 -15 53.5 -23.5t60.5 -8.5q77 0 125 52t48 136q0 81 -53 129t-142 48h-44v51h36q69 0 110 44.5t41 117.5q0 69 -41.5 110t-111.5 41q-78 0 -121.5 -55t-43.5 -154v-554h-58v568q0 113 60.5 180t163.5 67q61 0 108.5 -24.5t75 -70.5
t27.5 -106q0 -64 -30.5 -113.5t-83.5 -70.5q76 -17 121 -75t45 -140q0 -65 -28 -117.5t-80 -83t-120 -30.5z" />
    <glyph glyph-name="agrave" unicode="&#xe0;" horiz-adv-x="654" 
d="M302 -16q-68 0 -123 32.5t-87.5 92t-32.5 135.5q0 70 31.5 129t88.5 95.5t128 36.5q62 0 113.5 -29t79.5 -79l2 92h56v-489h-56l-2 92q-28 -51 -79.5 -79.5t-118.5 -28.5zM312 36q54 0 97.5 25.5t69.5 73t26 109.5q0 58 -24 105.5t-68 75.5t-101 28q-53 0 -97 -25.5
t-70 -73.5t-26 -110q0 -58 23.5 -105t67.5 -75t102 -28zM204 773h69l123 -174h-57z" />
    <glyph glyph-name="aacute" unicode="&#xe1;" horiz-adv-x="654" 
d="M302 -16q-68 0 -123 32.5t-87.5 92t-32.5 135.5q0 70 31.5 129t88.5 95.5t128 36.5q62 0 113.5 -29t79.5 -79l2 92h56v-489h-56l-2 92q-28 -51 -79.5 -79.5t-118.5 -28.5zM312 36q54 0 97.5 25.5t69.5 73t26 109.5q0 58 -24 105.5t-68 75.5t-101 28q-53 0 -97 -25.5
t-70 -73.5t-26 -110q0 -58 23.5 -105t67.5 -75t102 -28zM374 773h70l-136 -174h-57z" />
    <glyph glyph-name="acircumflex" unicode="&#xe2;" horiz-adv-x="654" 
d="M302 -16q-68 0 -123 32.5t-87.5 92t-32.5 135.5q0 70 31.5 129t88.5 95.5t128 36.5q62 0 113.5 -29t79.5 -79l2 92h56v-489h-56l-2 92q-28 -51 -79.5 -79.5t-118.5 -28.5zM312 36q54 0 97.5 25.5t69.5 73t26 109.5q0 58 -24 105.5t-68 75.5t-101 28q-53 0 -97 -25.5
t-70 -73.5t-26 -110q0 -58 23.5 -105t67.5 -75t102 -28zM299 773h47l146 -174h-60l-109 131l-108 -131h-60z" />
    <glyph glyph-name="atilde" unicode="&#xe3;" horiz-adv-x="654" 
d="M302 -16q-68 0 -123 32.5t-87.5 92t-32.5 135.5q0 70 31.5 129t88.5 95.5t128 36.5q62 0 113.5 -29t79.5 -79l2 92h56v-489h-56l-2 92q-28 -51 -79.5 -79.5t-118.5 -28.5zM312 36q54 0 97.5 25.5t69.5 73t26 109.5q0 58 -24 105.5t-68 75.5t-101 28q-53 0 -97 -25.5
t-70 -73.5t-26 -110q0 -58 23.5 -105t67.5 -75t102 -28zM393 621q-25 1 -44 12.5t-34.5 26.5t-30 26.5t-30.5 12.5q-47 0 -47 -77h-45q0 61 23 93t67 32q26 -1 45 -12.5t34.5 -27t29.5 -27t30 -12.5q48 0 48 78h45q0 -60 -23.5 -92.5t-67.5 -32.5z" />
    <glyph glyph-name="adieresis" unicode="&#xe4;" horiz-adv-x="654" 
d="M302 -16q-68 0 -123 32.5t-87.5 92t-32.5 135.5q0 70 31.5 129t88.5 95.5t128 36.5q62 0 113.5 -29t79.5 -79l2 92h56v-489h-56l-2 92q-28 -51 -79.5 -79.5t-118.5 -28.5zM312 36q54 0 97.5 25.5t69.5 73t26 109.5q0 58 -24 105.5t-68 75.5t-101 28q-53 0 -97 -25.5
t-70 -73.5t-26 -110q0 -58 23.5 -105t67.5 -75t102 -28zM233 642q-18 0 -29 11.5t-11 29.5q0 19 11.5 30.5t28.5 11.5q18 0 30 -12t12 -30t-12 -29.5t-30 -11.5zM412 642q-18 0 -29.5 11.5t-11.5 29.5t11.5 30t29.5 12t29.5 -12t11.5 -30t-11.5 -29.5t-29.5 -11.5z" />
    <glyph glyph-name="aring" unicode="&#xe5;" horiz-adv-x="654" 
d="M302 -16q-68 0 -123 32.5t-87.5 92t-32.5 135.5q0 70 31.5 129t88.5 95.5t128 36.5q62 0 113.5 -29t79.5 -79l2 92h56v-489h-56l-2 92q-28 -51 -79.5 -79.5t-118.5 -28.5zM312 36q54 0 97.5 25.5t69.5 73t26 109.5q0 58 -24 105.5t-68 75.5t-101 28q-53 0 -97 -25.5
t-70 -73.5t-26 -110q0 -58 23.5 -105t67.5 -75t102 -28zM323 588q-54 0 -90 34.5t-36 86.5q0 53 35.5 87t90.5 34t91 -34.5t36 -86.5t-36 -86.5t-91 -34.5zM323 628q37 0 60 22.5t23 58.5t-23 58.5t-60 22.5t-59.5 -22t-22.5 -59q0 -36 22.5 -58.5t59.5 -22.5z" />
    <glyph glyph-name="ae" unicode="&#xe6;" horiz-adv-x="1010" 
d="M302 -16q-68 0 -123 32.5t-87.5 92t-32.5 135.5q0 70 31.5 129t88.5 95.5t128 36.5q58 0 108.5 -29t81.5 -80l1 93h49l1 -95q28 53 76 82t107 29q62 0 111 -29t77 -82.5t28 -124.5q0 -14 -3 -41h-395q5 -91 61 -141.5t152 -50.5q92 0 166 41l8 -50q-31 -20 -78.5 -31.5
t-98.5 -11.5q-70 0 -125 28t-86 79l-1 -91h-50l-1 90q-32 -50 -82.5 -78t-111.5 -28zM312 36q53 0 96 25.5t68.5 73t25.5 109.5q0 58 -23.5 105.5t-67 75.5t-99.5 28q-53 0 -97 -25.5t-70 -73.5t-26 -110q0 -58 23.5 -105t67.5 -75t102 -28zM891 278q-2 81 -46 128.5
t-117 47.5q-71 0 -119.5 -48t-58.5 -128h341z" />
    <glyph glyph-name="ccedilla" unicode="&#xe7;" horiz-adv-x="530" 
d="M322 -15q-76 0 -135.5 31.5t-93.5 90t-34 136.5q0 73 32 132t91.5 93.5t136.5 34.5q89 0 149 -36l-9 -51q-30 17 -66.5 26t-73.5 9q-58 0 -103 -25t-71 -72t-26 -109q0 -94 56 -151t149 -57q78 0 148 38l7 -49q-30 -19 -72 -30t-85 -11zM288 -255q-22 0 -45.5 5.5
t-38.5 13.5l10 42q15 -8 35 -12.5t39 -4.5q33 0 52 14t19 38q0 23 -17.5 36.5t-48.5 13.5q-27 0 -42 -4l32 123h42l-21 -82h5q44 0 71.5 -24t27.5 -62q0 -44 -32.5 -70.5t-87.5 -26.5z" />
    <glyph glyph-name="egrave" unicode="&#xe8;" horiz-adv-x="577" 
d="M326 -16q-121 0 -194 70.5t-73 187.5q0 73 29.5 132.5t84.5 95t125 35.5q62 0 111 -29t77 -82.5t28 -124.5q0 -17 -3 -41h-395q4 -89 60.5 -140.5t152.5 -51.5q92 0 166 41l8 -50q-31 -20 -78.5 -31.5t-98.5 -11.5zM458 278q-2 81 -46 128.5t-117 47.5q-71 0 -119.5 -48
t-58.5 -128h341zM173 773h69l123 -174h-57z" />
    <glyph glyph-name="eacute" unicode="&#xe9;" horiz-adv-x="577" 
d="M326 -16q-121 0 -194 70.5t-73 187.5q0 73 29.5 132.5t84.5 95t125 35.5q62 0 111 -29t77 -82.5t28 -124.5q0 -17 -3 -41h-395q4 -89 60.5 -140.5t152.5 -51.5q92 0 166 41l8 -50q-31 -20 -78.5 -31.5t-98.5 -11.5zM458 278q-2 81 -46 128.5t-117 47.5q-71 0 -119.5 -48
t-58.5 -128h341zM343 773h70l-136 -174h-57z" />
    <glyph glyph-name="ecircumflex" unicode="&#xea;" horiz-adv-x="577" 
d="M326 -16q-121 0 -194 70.5t-73 187.5q0 73 29.5 132.5t84.5 95t125 35.5q62 0 111 -29t77 -82.5t28 -124.5q0 -17 -3 -41h-395q4 -89 60.5 -140.5t152.5 -51.5q92 0 166 41l8 -50q-31 -20 -78.5 -31.5t-98.5 -11.5zM458 278q-2 81 -46 128.5t-117 47.5q-71 0 -119.5 -48
t-58.5 -128h341zM268 773h47l146 -174h-60l-109 131l-108 -131h-60z" />
    <glyph glyph-name="edieresis" unicode="&#xeb;" horiz-adv-x="577" 
d="M326 -16q-121 0 -194 70.5t-73 187.5q0 73 29.5 132.5t84.5 95t125 35.5q62 0 111 -29t77 -82.5t28 -124.5q0 -17 -3 -41h-395q4 -89 60.5 -140.5t152.5 -51.5q92 0 166 41l8 -50q-31 -20 -78.5 -31.5t-98.5 -11.5zM458 278q-2 81 -46 128.5t-117 47.5q-71 0 -119.5 -48
t-58.5 -128h341zM202 642q-18 0 -29 11.5t-11 29.5q0 19 11.5 30.5t28.5 11.5q18 0 30 -12t12 -30t-12 -29.5t-30 -11.5zM381 642q-18 0 -29.5 11.5t-11.5 29.5t11.5 30t29.5 12t29.5 -12t11.5 -30t-11.5 -29.5t-29.5 -11.5z" />
    <glyph glyph-name="igrave" unicode="&#xec;" horiz-adv-x="250" 
d="M96 489h58v-489h-58v489zM6 773h69l123 -174h-57z" />
    <glyph glyph-name="iacute" unicode="&#xed;" horiz-adv-x="250" 
d="M96 489h58v-489h-58v489zM176 773h70l-136 -174h-57z" />
    <glyph glyph-name="icircumflex" unicode="&#xee;" horiz-adv-x="250" 
d="M96 489h58v-489h-58v489zM101 773h47l146 -174h-60l-109 131l-108 -131h-60z" />
    <glyph glyph-name="idieresis" unicode="&#xef;" horiz-adv-x="250" 
d="M96 489h58v-489h-58v489zM35 642q-18 0 -29 11.5t-11 29.5q0 19 11.5 30.5t28.5 11.5q18 0 30 -12t12 -30t-12 -29.5t-30 -11.5zM214 642q-18 0 -29.5 11.5t-11.5 29.5t11.5 30t29.5 12t29.5 -12t11.5 -30t-11.5 -29.5t-29.5 -11.5z" />
    <glyph glyph-name="eth" unicode="&#xf0;" horiz-adv-x="623" 
d="M313 -16q-71 0 -128.5 32.5t-91.5 92t-34 135.5q0 69 31.5 128.5t88 96t126.5 36.5q53 0 98.5 -23t75.5 -64q-46 126 -137 234l-146 -79l-22 40l137 75q-62 65 -125 112l75 5q56 -42 99 -90l114 62l22 -42l-104 -57q83 -100 126.5 -208t43.5 -213q0 -76 -30.5 -138
t-88 -98.5t-130.5 -36.5zM311 36q54 0 98 25.5t69.5 73.5t25.5 110q0 58 -23.5 105t-67.5 75t-101 28q-84 0 -138.5 -59t-54.5 -150q0 -58 24 -105t67.5 -75t100.5 -28z" />
    <glyph glyph-name="ntilde" unicode="&#xf1;" horiz-adv-x="603" 
d="M96 489h54l1 -83q26 48 71.5 73.5t104.5 25.5q87 0 135 -55t48 -155v-295h-58v286q0 167 -137 167q-74 0 -117.5 -50.5t-43.5 -136.5v-266h-58v489zM373 621q-25 1 -44 12.5t-34.5 26.5t-30 26.5t-30.5 12.5q-47 0 -47 -77h-45q0 61 23 93t67 32q26 -1 45 -12.5t34.5 -27
t29.5 -27t30 -12.5q48 0 48 78h45q0 -60 -23.5 -92.5t-67.5 -32.5z" />
    <glyph glyph-name="ograve" unicode="&#xf2;" horiz-adv-x="624" 
d="M312 -16q-70 0 -127 32.5t-91.5 92t-34.5 135.5q0 70 32 129t90 95.5t131 36.5q70 0 127 -32.5t91.5 -92t34.5 -135.5q0 -70 -32 -129t-90 -95.5t-131 -36.5zM312 36q53 0 97 25.5t70 73.5t26 110q0 58 -23.5 105t-67.5 75t-102 28q-53 0 -97 -25.5t-70 -73.5t-26 -110
q0 -58 23.5 -105t67.5 -75t102 -28zM193 773h69l123 -174h-57z" />
    <glyph glyph-name="oacute" unicode="&#xf3;" horiz-adv-x="624" 
d="M312 -16q-70 0 -127 32.5t-91.5 92t-34.5 135.5q0 70 32 129t90 95.5t131 36.5q70 0 127 -32.5t91.5 -92t34.5 -135.5q0 -70 -32 -129t-90 -95.5t-131 -36.5zM312 36q53 0 97 25.5t70 73.5t26 110q0 58 -23.5 105t-67.5 75t-102 28q-53 0 -97 -25.5t-70 -73.5t-26 -110
q0 -58 23.5 -105t67.5 -75t102 -28zM363 773h70l-136 -174h-57z" />
    <glyph glyph-name="ocircumflex" unicode="&#xf4;" horiz-adv-x="624" 
d="M312 -16q-70 0 -127 32.5t-91.5 92t-34.5 135.5q0 70 32 129t90 95.5t131 36.5q70 0 127 -32.5t91.5 -92t34.5 -135.5q0 -70 -32 -129t-90 -95.5t-131 -36.5zM312 36q53 0 97 25.5t70 73.5t26 110q0 58 -23.5 105t-67.5 75t-102 28q-53 0 -97 -25.5t-70 -73.5t-26 -110
q0 -58 23.5 -105t67.5 -75t102 -28zM288 773h47l146 -174h-60l-109 131l-108 -131h-60z" />
    <glyph glyph-name="otilde" unicode="&#xf5;" horiz-adv-x="624" 
d="M312 -16q-70 0 -127 32.5t-91.5 92t-34.5 135.5q0 70 32 129t90 95.5t131 36.5q70 0 127 -32.5t91.5 -92t34.5 -135.5q0 -70 -32 -129t-90 -95.5t-131 -36.5zM312 36q53 0 97 25.5t70 73.5t26 110q0 58 -23.5 105t-67.5 75t-102 28q-53 0 -97 -25.5t-70 -73.5t-26 -110
q0 -58 23.5 -105t67.5 -75t102 -28zM382 621q-25 1 -44 12.5t-34.5 26.5t-30 26.5t-30.5 12.5q-47 0 -47 -77h-45q0 61 23 93t67 32q26 -1 45 -12.5t34.5 -27t29.5 -27t30 -12.5q48 0 48 78h45q0 -60 -23.5 -92.5t-67.5 -32.5z" />
    <glyph glyph-name="odieresis" unicode="&#xf6;" horiz-adv-x="624" 
d="M312 -16q-70 0 -127 32.5t-91.5 92t-34.5 135.5q0 70 32 129t90 95.5t131 36.5q70 0 127 -32.5t91.5 -92t34.5 -135.5q0 -70 -32 -129t-90 -95.5t-131 -36.5zM312 36q53 0 97 25.5t70 73.5t26 110q0 58 -23.5 105t-67.5 75t-102 28q-53 0 -97 -25.5t-70 -73.5t-26 -110
q0 -58 23.5 -105t67.5 -75t102 -28zM222 642q-18 0 -29 11.5t-11 29.5q0 19 11.5 30.5t28.5 11.5q18 0 30 -12t12 -30t-12 -29.5t-30 -11.5zM401 642q-18 0 -29.5 11.5t-11.5 29.5t11.5 30t29.5 12t29.5 -12t11.5 -30t-11.5 -29.5t-29.5 -11.5z" />
    <glyph glyph-name="divide" unicode="&#xf7;" horiz-adv-x="620" 
d="M88 362h444v-53h-444v53zM310 112q-19 0 -32 13.5t-13 32.5t13 32t32 13t32.5 -13t13.5 -32t-13.5 -32.5t-32.5 -13.5zM310 464q-19 0 -32 13.5t-13 32.5t13 32t32 13t32.5 -13t13.5 -32t-13.5 -32.5t-32.5 -13.5z" />
    <glyph glyph-name="oslash" unicode="&#xf8;" horiz-adv-x="624" 
d="M312 -16q-48 0 -91.5 16t-77.5 46l-54 -55l-31 31l55 56q-26 33 -40 76t-14 90q0 70 32 129t90 95.5t131 36.5q92 0 163 -58l62 62l31 -31l-62 -63q59 -73 59 -170q0 -70 -32 -129t-90 -95.5t-131 -36.5zM437 407q-52 46 -125 46q-53 0 -97 -25.5t-70 -73.5t-26 -110
q0 -72 35 -125zM312 36q53 0 97 25.5t70 73.5t26 110q0 74 -39 130l-284 -290q52 -49 130 -49z" />
    <glyph glyph-name="ugrave" unicode="&#xf9;" horiz-adv-x="601" 
d="M275 -16q-87 0 -134.5 55t-47.5 155v295h58v-286q0 -167 136 -167q73 0 116.5 50.5t43.5 136.5v266h58v-489h-54l-1 83q-26 -49 -71 -74t-104 -25zM179 773h69l123 -174h-57z" />
    <glyph glyph-name="uacute" unicode="&#xfa;" horiz-adv-x="601" 
d="M275 -16q-87 0 -134.5 55t-47.5 155v295h58v-286q0 -167 136 -167q73 0 116.5 50.5t43.5 136.5v266h58v-489h-54l-1 83q-26 -49 -71 -74t-104 -25zM349 773h70l-136 -174h-57z" />
    <glyph glyph-name="ucircumflex" unicode="&#xfb;" horiz-adv-x="601" 
d="M275 -16q-87 0 -134.5 55t-47.5 155v295h58v-286q0 -167 136 -167q73 0 116.5 50.5t43.5 136.5v266h58v-489h-54l-1 83q-26 -49 -71 -74t-104 -25zM274 773h47l146 -174h-60l-109 131l-108 -131h-60z" />
    <glyph glyph-name="udieresis" unicode="&#xfc;" horiz-adv-x="601" 
d="M275 -16q-87 0 -134.5 55t-47.5 155v295h58v-286q0 -167 136 -167q73 0 116.5 50.5t43.5 136.5v266h58v-489h-54l-1 83q-26 -49 -71 -74t-104 -25zM208 642q-18 0 -29 11.5t-11 29.5q0 19 11.5 30.5t28.5 11.5q18 0 30 -12t12 -30t-12 -29.5t-30 -11.5zM387 642
q-18 0 -29.5 11.5t-11.5 29.5t11.5 30t29.5 12t29.5 -12t11.5 -30t-11.5 -29.5t-29.5 -11.5z" />
    <glyph glyph-name="yacute" unicode="&#xfd;" horiz-adv-x="541" 
d="M247 33l-218 456h64l185 -392l173 392h61l-335 -734h-61zM328 773h70l-136 -174h-57z" />
    <glyph glyph-name="thorn" unicode="&#xfe;" horiz-adv-x="656" 
d="M98 -245v1055h58v-412q28 51 80 79t118 28q68 0 123 -32.5t87.5 -92t32.5 -135.5q0 -70 -31.5 -129t-88.5 -95.5t-128 -36.5q-63 0 -115 29t-78 78v-336h-58zM344 36q53 0 97 25.5t70 73.5t26 110q0 58 -23.5 105t-67.5 75t-102 28q-54 0 -97.5 -25.5t-69.5 -73
t-26 -109.5q0 -58 24 -105.5t68 -75.5t101 -28z" />
    <glyph glyph-name="ydieresis" unicode="&#xff;" horiz-adv-x="541" 
d="M247 33l-218 456h64l185 -392l173 392h61l-335 -734h-61zM187 642q-18 0 -29 11.5t-11 29.5q0 19 11.5 30.5t28.5 11.5q18 0 30 -12t12 -30t-12 -29.5t-30 -11.5zM366 642q-18 0 -29.5 11.5t-11.5 29.5t11.5 30t29.5 12t29.5 -12t11.5 -30t-11.5 -29.5t-29.5 -11.5z" />
    <glyph glyph-name="Amacron" unicode="&#x100;" horiz-adv-x="751" 
d="M341 760h68l312 -760h-67l-98 243h-366l-97 -243h-63zM535 295l-161 405l-163 -405h324zM228 916h294v-51h-294v51z" />
    <glyph glyph-name="amacron" unicode="&#x101;" horiz-adv-x="654" 
d="M302 -16q-68 0 -123 32.5t-87.5 92t-32.5 135.5q0 70 31.5 129t88.5 95.5t128 36.5q62 0 113.5 -29t79.5 -79l2 92h56v-489h-56l-2 92q-28 -51 -79.5 -79.5t-118.5 -28.5zM312 36q54 0 97.5 25.5t69.5 73t26 109.5q0 58 -24 105.5t-68 75.5t-101 28q-53 0 -97 -25.5
t-70 -73.5t-26 -110q0 -58 23.5 -105t67.5 -75t102 -28zM176 704h294v-51h-294v51z" />
    <glyph glyph-name="Abreve" unicode="&#x102;" horiz-adv-x="751" 
d="M341 760h68l312 -760h-67l-98 243h-366l-97 -243h-63zM535 295l-161 405l-163 -405h324zM375 825q-66 0 -106.5 35t-40.5 93q0 10 1 14h47q0 -48 25 -73t74 -25q99 0 99 98h47q1 -4 1 -14q0 -58 -40 -93t-107 -35z" />
    <glyph glyph-name="abreve" unicode="&#x103;" horiz-adv-x="654" 
d="M302 -16q-68 0 -123 32.5t-87.5 92t-32.5 135.5q0 70 31.5 129t88.5 95.5t128 36.5q62 0 113.5 -29t79.5 -79l2 92h56v-489h-56l-2 92q-28 -51 -79.5 -79.5t-118.5 -28.5zM312 36q54 0 97.5 25.5t69.5 73t26 109.5q0 58 -24 105.5t-68 75.5t-101 28q-53 0 -97 -25.5
t-70 -73.5t-26 -110q0 -58 23.5 -105t67.5 -75t102 -28zM323 600q-65 0 -104.5 37.5t-39.5 99.5q0 10 1 14h45q0 -108 98 -108t98 108h45q1 -4 1 -14q0 -62 -39.5 -99.5t-104.5 -37.5z" />
    <glyph glyph-name="Aogonek" unicode="&#x104;" horiz-adv-x="751" 
d="M341 760h68l312 -760h-67l-98 243h-366l-97 -243h-63zM535 295l-161 405l-163 -405h324zM653 -252q-45 0 -72 25t-27 65q0 46 35 92.5t102 89.5l30 -20q-115 -80 -115 -151q0 -26 14.5 -40t40.5 -14q31 0 64 18l7 -44q-15 -10 -36.5 -15.5t-42.5 -5.5z" />
    <glyph glyph-name="aogonek" unicode="&#x105;" horiz-adv-x="654" 
d="M302 -16q-68 0 -123 32.5t-87.5 92t-32.5 135.5q0 70 31.5 129t88.5 95.5t128 36.5q62 0 113.5 -29t79.5 -79l2 92h56v-489h-56l-2 92q-28 -51 -79.5 -79.5t-118.5 -28.5zM312 36q54 0 97.5 25.5t69.5 73t26 109.5q0 58 -24 105.5t-68 75.5t-101 28q-53 0 -97 -25.5
t-70 -73.5t-26 -110q0 -58 23.5 -105t67.5 -75t102 -28zM491 -252q-45 0 -72 25t-27 65q0 93 136 182l30 -20q-114 -79 -114 -151q0 -26 14.5 -40t40.5 -14q31 0 64 18l7 -44q-15 -10 -36.5 -15.5t-42.5 -5.5z" />
    <glyph glyph-name="Cacute" unicode="&#x106;" horiz-adv-x="772" 
d="M460 -11q-110 0 -198.5 48t-140.5 136.5t-52 204.5q0 112 48.5 201t139.5 140.5t211 51.5q58 0 117.5 -15.5t107.5 -42.5l-13 -56q-111 57 -218 57q-94 0 -168.5 -40.5t-117.5 -116.5t-43 -176q0 -97 40 -173t115 -119t174 -43q57 0 117.5 14.5t110.5 39.5l9 -55
q-52 -27 -114 -41.5t-125 -14.5zM509 964h79l-149 -129h-66z" />
    <glyph glyph-name="cacute" unicode="&#x107;" horiz-adv-x="530" 
d="M322 -15q-76 0 -135.5 31.5t-93.5 90t-34 136.5q0 73 32 132t91.5 93.5t136.5 34.5q89 0 149 -36l-9 -51q-30 17 -66.5 26t-73.5 9q-58 0 -103 -25t-71 -72t-26 -109q0 -94 56 -151t149 -57q78 0 148 38l7 -49q-30 -19 -72 -30t-85 -11zM347 773h70l-136 -174h-57z" />
    <glyph glyph-name="Cdotaccent" unicode="&#x10a;" horiz-adv-x="772" 
d="M460 -11q-110 0 -198.5 48t-140.5 136.5t-52 204.5q0 112 48.5 201t139.5 140.5t211 51.5q58 0 117.5 -15.5t107.5 -42.5l-13 -56q-111 57 -218 57q-94 0 -168.5 -40.5t-117.5 -116.5t-43 -176q0 -97 40 -173t115 -119t174 -43q57 0 117.5 14.5t110.5 39.5l9 -55
q-52 -27 -114 -41.5t-125 -14.5zM442 846q-20 0 -31.5 11.5t-11.5 31.5t12 32t31 12q20 0 32 -12t12 -32q0 -19 -12 -31t-32 -12z" />
    <glyph glyph-name="cdotaccent" unicode="&#x10b;" horiz-adv-x="530" 
d="M322 -15q-76 0 -135.5 31.5t-93.5 90t-34 136.5q0 73 32 132t91.5 93.5t136.5 34.5q89 0 149 -36l-9 -51q-30 17 -66.5 26t-73.5 9q-58 0 -103 -25t-71 -72t-26 -109q0 -94 56 -151t149 -57q78 0 148 38l7 -49q-30 -19 -72 -30t-85 -11zM296 639q-20 0 -31.5 12t-11.5 32
q0 19 12 31t31 12q20 0 32 -12t12 -31t-12 -31.5t-32 -12.5z" />
    <glyph glyph-name="Ccaron" unicode="&#x10c;" horiz-adv-x="772" 
d="M460 -11q-110 0 -198.5 48t-140.5 136.5t-52 204.5q0 112 48.5 201t139.5 140.5t211 51.5q58 0 117.5 -15.5t107.5 -42.5l-13 -56q-111 57 -218 57q-94 0 -168.5 -40.5t-117.5 -116.5t-43 -176q0 -97 40 -173t115 -119t174 -43q57 0 117.5 14.5t110.5 39.5l9 -55
q-52 -27 -114 -41.5t-125 -14.5zM272 977h65l105 -104l104 104h66l-144 -142h-53z" />
    <glyph glyph-name="ccaron" unicode="&#x10d;" horiz-adv-x="530" 
d="M322 -15q-76 0 -135.5 31.5t-93.5 90t-34 136.5q0 73 32 132t91.5 93.5t136.5 34.5q89 0 149 -36l-9 -51q-30 17 -66.5 26t-73.5 9q-58 0 -103 -25t-71 -72t-26 -109q0 -94 56 -151t149 -57q78 0 148 38l7 -49q-30 -19 -72 -30t-85 -11zM126 773h61l109 -132l107 132h60
l-144 -174h-47z" />
    <glyph glyph-name="Dcaron" unicode="&#x10e;" horiz-adv-x="847" 
d="M122 760h253q192 0 297.5 -99.5t105.5 -280.5q0 -184 -106.5 -282t-306.5 -98h-243v760zM184 55h183q172 0 259.5 82t87.5 242q0 161 -87.5 243.5t-258.5 82.5h-184v-650zM229 977h65l105 -104l104 104h66l-144 -142h-53z" />
    <glyph glyph-name="dcaron" unicode="&#x10f;" horiz-adv-x="654" 
d="M302 -16q-68 0 -123 32.5t-87.5 92t-32.5 135.5q0 70 31.5 129t88.5 95.5t128 36.5q62 0 114 -29t79 -78v412h58v-810h-56l-2 92q-28 -51 -79.5 -79.5t-118.5 -28.5zM312 36q54 0 97.5 25.5t69.5 73t26 109.5q0 58 -24 105.5t-68 75.5t-101 28q-53 0 -97 -25.5t-70 -73.5
t-26 -110q0 -58 23.5 -105t67.5 -75t102 -28zM640 810h58l-31 -230h-40z" />
    <glyph glyph-name="Dcroat" unicode="&#x110;" horiz-adv-x="857" 
d="M132 358h-105v50h105v352h253q192 0 297.5 -99.5t105.5 -280.5q0 -184 -106.5 -282t-306.5 -98h-243v358zM194 55h183q172 0 259.5 82t87.5 242q0 161 -87.5 243.5t-258.5 82.5h-184v-297h195v-50h-195v-303z" />
    <glyph glyph-name="dcroat" unicode="&#x111;" horiz-adv-x="654" 
d="M302 -16q-68 0 -123 32.5t-87.5 92t-32.5 135.5q0 70 31.5 129t88.5 95.5t128 36.5q62 0 114 -29t79 -78v226h-176v46h176v140h58v-140h77v-46h-77v-624h-56l-2 92q-28 -51 -79.5 -79.5t-118.5 -28.5zM312 36q54 0 97.5 25.5t69.5 73t26 109.5q0 58 -24 105.5t-68 75.5
t-101 28q-53 0 -97 -25.5t-70 -73.5t-26 -110q0 -58 23.5 -105t67.5 -75t102 -28z" />
    <glyph glyph-name="Emacron" unicode="&#x112;" horiz-adv-x="654" 
d="M122 760h440v-54h-378v-288h338v-53h-338v-311h393v-54h-455v760zM203 916h294v-51h-294v51z" />
    <glyph glyph-name="emacron" unicode="&#x113;" horiz-adv-x="577" 
d="M326 -16q-121 0 -194 70.5t-73 187.5q0 73 29.5 132.5t84.5 95t125 35.5q62 0 111 -29t77 -82.5t28 -124.5q0 -17 -3 -41h-395q4 -89 60.5 -140.5t152.5 -51.5q92 0 166 41l8 -50q-31 -20 -78.5 -31.5t-98.5 -11.5zM458 278q-2 81 -46 128.5t-117 47.5q-71 0 -119.5 -48
t-58.5 -128h341zM145 704h294v-51h-294v51z" />
    <glyph glyph-name="Edotaccent" unicode="&#x116;" horiz-adv-x="654" 
d="M122 760h440v-54h-378v-288h338v-53h-338v-311h393v-54h-455v760zM350 846q-20 0 -31.5 11.5t-11.5 31.5t12 32t31 12q20 0 32 -12t12 -32q0 -19 -12 -31t-32 -12z" />
    <glyph glyph-name="edotaccent" unicode="&#x117;" horiz-adv-x="577" 
d="M326 -16q-121 0 -194 70.5t-73 187.5q0 73 29.5 132.5t84.5 95t125 35.5q62 0 111 -29t77 -82.5t28 -124.5q0 -17 -3 -41h-395q4 -89 60.5 -140.5t152.5 -51.5q92 0 166 41l8 -50q-31 -20 -78.5 -31.5t-98.5 -11.5zM458 278q-2 81 -46 128.5t-117 47.5q-71 0 -119.5 -48
t-58.5 -128h341zM292 639q-20 0 -31.5 12t-11.5 32q0 19 12 31t31 12q20 0 32 -12t12 -31t-12 -31.5t-32 -12.5z" />
    <glyph glyph-name="Eogonek" unicode="&#x118;" horiz-adv-x="654" 
d="M122 760h440v-54h-378v-288h338v-53h-338v-311h393v-54h-455v760zM509 -252q-45 0 -72 25t-27 65q0 46 35 92.5t102 89.5l30 -20q-115 -80 -115 -151q0 -26 14.5 -40t40.5 -14q31 0 64 18l7 -44q-15 -10 -36.5 -15.5t-42.5 -5.5z" />
    <glyph glyph-name="eogonek" unicode="&#x119;" horiz-adv-x="577" 
d="M326 -16q-121 0 -194 70.5t-73 187.5q0 73 29.5 132.5t84.5 95t125 35.5q62 0 111 -29t77 -82.5t28 -124.5q0 -17 -3 -41h-395q4 -89 60.5 -140.5t152.5 -51.5q92 0 166 41l8 -50q-31 -20 -78.5 -31.5t-98.5 -11.5zM458 278q-2 81 -46 128.5t-117 47.5q-71 0 -119.5 -48
t-58.5 -128h341zM395 -252q-45 0 -72 25t-27 65q0 50 42 100.5t111 82.5l44 1q-145 -94 -145 -173q0 -26 14.5 -40t41.5 -14q30 0 63 18l7 -44q-15 -10 -36.5 -15.5t-42.5 -5.5z" />
    <glyph glyph-name="Ecaron" unicode="&#x11a;" horiz-adv-x="654" 
d="M122 760h440v-54h-378v-288h338v-53h-338v-311h393v-54h-455v760zM180 977h65l105 -104l104 104h66l-144 -142h-53z" />
    <glyph glyph-name="ecaron" unicode="&#x11b;" horiz-adv-x="577" 
d="M326 -16q-121 0 -194 70.5t-73 187.5q0 73 29.5 132.5t84.5 95t125 35.5q62 0 111 -29t77 -82.5t28 -124.5q0 -17 -3 -41h-395q4 -89 60.5 -140.5t152.5 -51.5q92 0 166 41l8 -50q-31 -20 -78.5 -31.5t-98.5 -11.5zM458 278q-2 81 -46 128.5t-117 47.5q-71 0 -119.5 -48
t-58.5 -128h341zM122 773h61l109 -132l107 132h60l-144 -174h-47z" />
    <glyph glyph-name="Gbreve" unicode="&#x11e;" horiz-adv-x="827" 
d="M467 -11q-114 0 -204 47t-142 135t-52 205q0 112 49.5 201.5t141 141.5t211.5 52q66 0 132 -15.5t116 -42.5l-13 -55q-48 26 -112.5 41t-127.5 15q-93 0 -168.5 -41t-120 -117.5t-44.5 -175.5q0 -98 40 -173.5t116.5 -118t179.5 -42.5q112 0 206 39v248h-194v55h255v-341
q-118 -58 -269 -58zM445 825q-66 0 -106.5 35t-40.5 93q0 10 1 14h47q0 -48 25 -73t74 -25q99 0 99 98h47q1 -4 1 -14q0 -58 -40 -93t-107 -35z" />
    <glyph glyph-name="gbreve" unicode="&#x11f;" horiz-adv-x="654" 
d="M295 -255q-46 0 -98 13.5t-83 34.5l9 52q33 -22 80.5 -35t91.5 -13q107 0 156.5 55.5t49.5 176.5v64q-27 -51 -80 -80t-119 -29q-68 0 -123 32.5t-87.5 92t-32.5 135.5q0 70 31.5 129t88.5 95.5t128 36.5q62 0 113.5 -29t79.5 -79l2 92h56v-454q0 -147 -65 -218.5
t-198 -71.5zM312 36q54 0 97.5 25.5t69.5 73t26 109.5q0 58 -24 105.5t-68 75.5t-101 28q-53 0 -97 -25.5t-70 -73.5t-26 -110q0 -58 23.5 -105t67.5 -75t102 -28zM322 600q-65 0 -104.5 37.5t-39.5 99.5q0 10 1 14h45q0 -108 98 -108t98 108h45q1 -4 1 -14
q0 -62 -39.5 -99.5t-104.5 -37.5z" />
    <glyph glyph-name="Gdotaccent" unicode="&#x120;" horiz-adv-x="827" 
d="M467 -11q-114 0 -204 47t-142 135t-52 205q0 112 49.5 201.5t141 141.5t211.5 52q66 0 132 -15.5t116 -42.5l-13 -55q-48 26 -112.5 41t-127.5 15q-93 0 -168.5 -41t-120 -117.5t-44.5 -175.5q0 -98 40 -173.5t116.5 -118t179.5 -42.5q112 0 206 39v248h-194v55h255v-341
q-118 -58 -269 -58zM445 846q-20 0 -31.5 11.5t-11.5 31.5t12 32t31 12q20 0 32 -12t12 -32q0 -19 -12 -31t-32 -12z" />
    <glyph glyph-name="gdotaccent" unicode="&#x121;" horiz-adv-x="654" 
d="M295 -255q-46 0 -98 13.5t-83 34.5l9 52q33 -22 80.5 -35t91.5 -13q107 0 156.5 55.5t49.5 176.5v64q-27 -51 -80 -80t-119 -29q-68 0 -123 32.5t-87.5 92t-32.5 135.5q0 70 31.5 129t88.5 95.5t128 36.5q62 0 113.5 -29t79.5 -79l2 92h56v-454q0 -147 -65 -218.5
t-198 -71.5zM312 36q54 0 97.5 25.5t69.5 73t26 109.5q0 58 -24 105.5t-68 75.5t-101 28q-53 0 -97 -25.5t-70 -73.5t-26 -110q0 -58 23.5 -105t67.5 -75t102 -28zM322 639q-20 0 -31.5 12t-11.5 32q0 19 12 31t31 12q20 0 32 -12t12 -31t-12 -31.5t-32 -12.5z" />
    <glyph glyph-name="uni0122" unicode="&#x122;" horiz-adv-x="827" 
d="M467 -11q-114 0 -204 47t-142 135t-52 205q0 112 49.5 201.5t141 141.5t211.5 52q66 0 132 -15.5t116 -42.5l-13 -55q-48 26 -112.5 41t-127.5 15q-93 0 -168.5 -41t-120 -117.5t-44.5 -175.5q0 -98 40 -173.5t116.5 -118t179.5 -42.5q112 0 206 39v248h-194v55h255v-341
q-118 -58 -269 -58zM360 -245q42 76 47 180h57q-4 -48 -20.5 -98t-38.5 -82h-45z" />
    <glyph glyph-name="uni0123" unicode="&#x123;" horiz-adv-x="654" 
d="M295 -255q-46 0 -98 13.5t-83 34.5l9 52q33 -22 80.5 -35t91.5 -13q107 0 156.5 55.5t49.5 176.5v64q-27 -51 -80 -80t-119 -29q-68 0 -123 32.5t-87.5 92t-32.5 135.5q0 70 31.5 129t88.5 95.5t128 36.5q62 0 113.5 -29t79.5 -79l2 92h56v-454q0 -147 -65 -218.5
t-198 -71.5zM312 36q54 0 97.5 25.5t69.5 73t26 109.5q0 58 -24 105.5t-68 75.5t-101 28q-53 0 -97 -25.5t-70 -73.5t-26 -110q0 -58 23.5 -105t67.5 -75t102 -28zM288 610q2 43 17 86t40 77h45q-40 -69 -44 -163h-58z" />
    <glyph glyph-name="Hbar" unicode="&#x126;" horiz-adv-x="879" 
d="M132 569h-105v50h105v141h62v-141h491v141h62v-141h104v-50h-104v-569h-62v371h-491v-371h-62v569zM685 424v145h-491v-145h491z" />
    <glyph glyph-name="hbar" unicode="&#x127;" horiz-adv-x="603" 
d="M96 624h-90v46h90v140h58v-140h159v-46h-159v-213q26 46 70.5 70t102.5 24q87 0 135 -55t48 -155v-295h-58v286q0 167 -137 167q-74 0 -117.5 -50.5t-43.5 -136.5v-266h-58v624z" />
    <glyph glyph-name="Itilde" unicode="&#x128;" horiz-adv-x="306" 
d="M122 760h62v-760h-62v760zM223 834q-25 1 -44 12.5t-34.5 26.5t-30 26.5t-30.5 12.5q-47 0 -47 -77h-45q0 61 23 93t67 32q26 -1 45 -12.5t34.5 -27t29.5 -27t30 -12.5q48 0 48 78h45q0 -60 -23.5 -92.5t-67.5 -32.5z" />
    <glyph glyph-name="itilde" unicode="&#x129;" horiz-adv-x="250" 
d="M96 489h58v-489h-58v489zM195 621q-25 1 -44 12.5t-34.5 26.5t-30 26.5t-30.5 12.5q-47 0 -47 -77h-45q0 61 23 93t67 32q26 -1 45 -12.5t34.5 -27t29.5 -27t30 -12.5q48 0 48 78h45q0 -60 -23.5 -92.5t-67.5 -32.5z" />
    <glyph glyph-name="Imacron" unicode="&#x12a;" horiz-adv-x="306" 
d="M122 760h62v-760h-62v760zM6 916h294v-51h-294v51z" />
    <glyph glyph-name="imacron" unicode="&#x12b;" horiz-adv-x="250" 
d="M96 489h58v-489h-58v489zM-22 704h294v-51h-294v51z" />
    <glyph glyph-name="Iogonek" unicode="&#x12e;" horiz-adv-x="306" 
d="M122 760h62v-760h-62v760zM116 -252q-45 0 -72 25t-27 65q0 46 35 92.5t102 89.5l30 -20q-115 -80 -115 -151q0 -26 14.5 -40t40.5 -14q31 0 64 18l7 -44q-15 -10 -36.5 -15.5t-42.5 -5.5z" />
    <glyph glyph-name="iogonek" unicode="&#x12f;" horiz-adv-x="250" 
d="M96 489h58v-489h-58v489zM125 639q-19 0 -31.5 12.5t-12.5 31.5t12.5 31t31.5 12t31 -12t12 -31t-12 -31.5t-31 -12.5zM87 -252q-45 0 -72 25t-27 65q0 93 136 182l30 -20q-114 -79 -114 -151q0 -26 14.5 -40t40.5 -14q31 0 64 18l7 -44q-15 -10 -36.5 -15.5t-42.5 -5.5z
" />
    <glyph glyph-name="Idotaccent" unicode="&#x130;" horiz-adv-x="306" 
d="M122 760h62v-760h-62v760zM153 846q-20 0 -31.5 11.5t-11.5 31.5t12 32t31 12q20 0 32 -12t12 -32q0 -19 -12 -31t-32 -12z" />
    <glyph glyph-name="dotlessi" unicode="&#x131;" horiz-adv-x="250" 
d="M96 489h58v-489h-58v489z" />
    <glyph glyph-name="IJ" unicode="&#x132;" horiz-adv-x="850" 
d="M122 760h62v-760h-62v760zM514 -16q-88 0 -160 40l8 57q66 -40 150 -40q85 0 123.5 44t38.5 142v533h61v-533q0 -122 -54.5 -182.5t-166.5 -60.5z" />
    <glyph glyph-name="ij" unicode="&#x133;" horiz-adv-x="500" 
d="M96 489h58v-489h-58v489zM125 639q-19 0 -31.5 12.5t-12.5 31.5t12.5 31t31.5 12t31 -12t12 -31t-12 -31.5t-31 -12.5zM246 -255q-54 0 -98 23l6 50q43 -22 95 -22q50 0 73.5 30t23.5 95v568h58v-567q0 -89 -39 -133t-119 -44zM375 639q-19 0 -31.5 12.5t-12.5 31.5
t12.5 31t31.5 12t31 -12t12 -31t-12 -31.5t-31 -12.5z" />
    <glyph glyph-name="uni0136" unicode="&#x136;" horiz-adv-x="746" 
d="M122 760h62v-349l410 349h84l-430 -364l470 -396h-92l-442 374v-374h-62v760zM327 -245q42 76 47 180h57q-4 -48 -20.5 -98t-38.5 -82h-45z" />
    <glyph glyph-name="uni0137" unicode="&#x137;" horiz-adv-x="549" 
d="M96 810h58v-522l249 201h80l-271 -216l311 -273h-82l-287 253v-253h-58v810zM232 -245q42 78 47 180h57q-4 -47 -20.5 -97t-39.5 -83h-44z" />
    <glyph glyph-name="kgreenlandic" unicode="&#x138;" horiz-adv-x="549" 
d="M96 489h58v-208l251 208h78l-273 -223l313 -266h-82l-287 243v-243h-58v489z" />
    <glyph glyph-name="Lacute" unicode="&#x139;" horiz-adv-x="603" 
d="M122 760h62v-706h373v-54h-435v760zM220 964h79l-149 -129h-66z" />
    <glyph glyph-name="lacute" unicode="&#x13a;" horiz-adv-x="250" 
d="M96 810h58v-810h-58v810zM192 979h79l-149 -129h-66z" />
    <glyph glyph-name="uni013B" unicode="&#x13b;" horiz-adv-x="603" 
d="M122 760h62v-706h373v-54h-435v760zM261 -245q42 76 47 180h57q-4 -48 -20.5 -98t-38.5 -82h-45z" />
    <glyph glyph-name="uni013C" unicode="&#x13c;" horiz-adv-x="250" 
d="M96 810h58v-810h-58v810zM54 -245q42 78 47 180h57q-4 -47 -20.5 -97t-39.5 -83h-44z" />
    <glyph glyph-name="Lcaron" unicode="&#x13d;" horiz-adv-x="603" 
d="M122 760h62v-706h373v-54h-435v760zM328 810h58l-31 -230h-40z" />
    <glyph glyph-name="lcaron" unicode="&#x13e;" horiz-adv-x="250" 
d="M96 810h58v-810h-58v810zM236 810h58l-31 -230h-40z" />
    <glyph glyph-name="Lslash" unicode="&#x141;" horiz-adv-x="613" 
d="M132 278l-84 -58l-6 56l90 62v422h62v-379l208 145l6 -56l-214 -149v-267h373v-54h-435v278z" />
    <glyph glyph-name="lslash" unicode="&#x142;" horiz-adv-x="270" 
d="M106 347l-95 -56l-6 52l101 60v407h58v-373l95 57l7 -53l-102 -60v-381h-58v347z" />
    <glyph glyph-name="Nacute" unicode="&#x143;" horiz-adv-x="877" 
d="M122 760h61l514 -672v672h58v-760h-61l-514 672v-672h-58v760zM500 964h79l-149 -129h-66z" />
    <glyph glyph-name="nacute" unicode="&#x144;" horiz-adv-x="603" 
d="M96 489h54l1 -83q26 48 71.5 73.5t104.5 25.5q87 0 135 -55t48 -155v-295h-58v286q0 167 -137 167q-74 0 -117.5 -50.5t-43.5 -136.5v-266h-58v489zM354 773h70l-136 -174h-57z" />
    <glyph glyph-name="uni0145" unicode="&#x145;" horiz-adv-x="877" 
d="M122 760h61l514 -672v672h58v-760h-61l-514 672v-672h-58v760zM354 -245q42 76 47 180h57q-4 -48 -20.5 -98t-38.5 -82h-45z" />
    <glyph glyph-name="uni0146" unicode="&#x146;" horiz-adv-x="603" 
d="M96 489h54l1 -83q26 48 71.5 73.5t104.5 25.5q87 0 135 -55t48 -155v-295h-58v286q0 167 -137 167q-74 0 -117.5 -50.5t-43.5 -136.5v-266h-58v489zM227 -245q42 78 47 180h57q-4 -47 -20.5 -97t-39.5 -83h-44z" />
    <glyph glyph-name="Ncaron" unicode="&#x147;" horiz-adv-x="877" 
d="M122 760h61l514 -672v672h58v-760h-61l-514 672v-672h-58v760zM263 977h65l105 -104l104 104h66l-144 -142h-53z" />
    <glyph glyph-name="ncaron" unicode="&#x148;" horiz-adv-x="603" 
d="M96 489h54l1 -83q26 48 71.5 73.5t104.5 25.5q87 0 135 -55t48 -155v-295h-58v286q0 167 -137 167q-74 0 -117.5 -50.5t-43.5 -136.5v-266h-58v489zM133 773h61l109 -132l107 132h60l-144 -174h-47z" />
    <glyph glyph-name="Omacron" unicode="&#x14c;" horiz-adv-x="908" 
d="M454 41q88 0 161 42t116.5 119.5t43.5 176.5q0 94 -40 171t-113.5 123t-167.5 46q-88 0 -161 -42t-116.5 -119.5t-43.5 -176.5q0 -94 40 -171t113.5 -123t167.5 -46zM454 -16q-105 0 -192.5 49.5t-140 140.5t-52.5 205q0 108 48.5 198t137.5 144.5t200 54.5
q105 0 192 -50t139.5 -141t52.5 -205q0 -107 -48.5 -197t-137 -144.5t-199.5 -54.5zM307 916h294v-51h-294v51z" />
    <glyph glyph-name="omacron" unicode="&#x14d;" horiz-adv-x="624" 
d="M312 -16q-70 0 -127 32.5t-91.5 92t-34.5 135.5q0 70 32 129t90 95.5t131 36.5q70 0 127 -32.5t91.5 -92t34.5 -135.5q0 -70 -32 -129t-90 -95.5t-131 -36.5zM312 36q53 0 97 25.5t70 73.5t26 110q0 58 -23.5 105t-67.5 75t-102 28q-53 0 -97 -25.5t-70 -73.5t-26 -110
q0 -58 23.5 -105t67.5 -75t102 -28zM165 704h294v-51h-294v51z" />
    <glyph glyph-name="Ohungarumlaut" unicode="&#x150;" horiz-adv-x="908" 
d="M454 41q88 0 161 42t116.5 119.5t43.5 176.5q0 94 -40 171t-113.5 123t-167.5 46q-88 0 -161 -42t-116.5 -119.5t-43.5 -176.5q0 -94 40 -171t113.5 -123t167.5 -46zM454 -16q-105 0 -192.5 49.5t-140 140.5t-52.5 205q0 108 48.5 198t137.5 144.5t200 54.5
q105 0 192 -50t139.5 -141t52.5 -205q0 -107 -48.5 -197t-137 -144.5t-199.5 -54.5zM434 964h70l-120 -129h-57zM586 964h70l-120 -129h-58z" />
    <glyph glyph-name="ohungarumlaut" unicode="&#x151;" horiz-adv-x="624" 
d="M312 -16q-70 0 -127 32.5t-91.5 92t-34.5 135.5q0 70 32 129t90 95.5t131 36.5q70 0 127 -32.5t91.5 -92t34.5 -135.5q0 -70 -32 -129t-90 -95.5t-131 -36.5zM312 36q53 0 97 25.5t70 73.5t26 110q0 58 -23.5 105t-67.5 75t-102 28q-53 0 -97 -25.5t-70 -73.5t-26 -110
q0 -58 23.5 -105t67.5 -75t102 -28zM297 773h66l-130 -176h-54zM452 773h66l-130 -176h-54z" />
    <glyph glyph-name="OE" unicode="&#x152;" horiz-adv-x="1292" 
d="M448 -16q-103 0 -189 49.5t-138 140.5t-52 205q0 108 47.5 198t135 144.5t197.5 54.5q102 0 184 -51t126 -141v176h440v-54h-378v-288h338v-53h-338v-311h393v-54h-455v176q-43 -90 -125.5 -141t-185.5 -51zM448 41q88 0 159.5 42.5t114 119.5t42.5 176q0 94 -39.5 171
t-111.5 123t-165 46q-86 0 -157.5 -42t-114.5 -119.5t-43 -176.5q0 -94 39 -171t111.5 -123t164.5 -46z" />
    <glyph glyph-name="oe" unicode="&#x153;" horiz-adv-x="1020" 
d="M312 36q54 0 97.5 26t69.5 73.5t26 108.5q0 91 -54.5 150t-138.5 59q-53 0 -97 -25.5t-70 -73.5t-26 -110q0 -58 23.5 -105t67.5 -75t102 -28zM312 -16q-70 0 -127 32.5t-91.5 92t-34.5 135.5q0 70 32 129t90 95.5t131 36.5q47 0 90.5 -17.5t77 -51t51.5 -78.5
q26 69 81.5 108t128.5 39q62 0 111 -29t77 -82.5t28 -124.5q0 -15 -3 -41h-395q5 -91 61.5 -141.5t151.5 -50.5q90 0 166 41l8 -50q-32 -20 -79.5 -31.5t-97.5 -11.5q-89 0 -151 38t-90 110q-28 -68 -86.5 -108t-129.5 -40zM901 278q-2 81 -46 128.5t-117 47.5
q-71 0 -119.5 -48t-58.5 -128h341z" />
    <glyph glyph-name="Racute" unicode="&#x154;" horiz-adv-x="697" 
d="M122 760h208q114 0 182.5 -60t68.5 -160q0 -74 -38.5 -128t-109.5 -79l221 -333h-74l-207 319q-21 -3 -52 -3h-139v-316h-60v760zM182 370h128q101 0 154 43t53 125q0 81 -50.5 124.5t-143.5 43.5h-141v-336zM387 964h79l-149 -129h-66z" />
    <glyph glyph-name="racute" unicode="&#x155;" horiz-adv-x="402" 
d="M96 489h55v-97q59 104 161 104q35 0 55 -10l-6 -54q-30 10 -57 10q-70 0 -110 -56t-40 -155v-231h-58v489zM271 773h70l-136 -174h-57z" />
    <glyph glyph-name="Rcaron" unicode="&#x158;" horiz-adv-x="697" 
d="M122 760h208q114 0 182.5 -60t68.5 -160q0 -74 -38.5 -128t-109.5 -79l221 -333h-74l-207 319q-21 -3 -52 -3h-139v-316h-60v760zM182 370h128q101 0 154 43t53 125q0 81 -50.5 124.5t-143.5 43.5h-141v-336zM150 977h65l105 -104l104 104h66l-144 -142h-53z" />
    <glyph glyph-name="rcaron" unicode="&#x159;" horiz-adv-x="402" 
d="M96 489h55v-97q59 104 161 104q35 0 55 -10l-6 -54q-30 10 -57 10q-70 0 -110 -56t-40 -155v-231h-58v489zM50 773h61l109 -132l107 132h60l-144 -174h-47z" />
    <glyph glyph-name="Sacute" unicode="&#x15a;" horiz-adv-x="656" 
d="M308 -16q-65 0 -128 17t-105 45l9 57q47 -30 106 -47.5t116 -17.5q93 0 147 41t54 111q0 45 -19 73.5t-62.5 51.5t-122.5 50q-116 39 -164.5 87.5t-48.5 126.5q0 90 64.5 143.5t173.5 53.5q54 0 108 -13t99 -37l-12 -54q-100 50 -195 50q-83 0 -130.5 -37t-47.5 -102
q0 -41 16.5 -68.5t54.5 -49t106 -44.5q92 -31 144 -63t74.5 -71t22.5 -92q0 -97 -70.5 -154t-189.5 -57zM390 964h79l-149 -129h-66z" />
    <glyph glyph-name="sacute" unicode="&#x15b;" horiz-adv-x="459" 
d="M215 -16q-47 0 -92 13t-73 34l8 53q32 -23 75 -36.5t82 -13.5q61 0 96.5 23t35.5 64q0 28 -12.5 44t-42 29.5t-85.5 31.5q-79 25 -112.5 58.5t-33.5 86.5q0 61 46.5 97.5t125.5 36.5q38 0 78.5 -10.5t70.5 -28.5l-9 -51q-30 19 -67 29.5t-74 10.5q-55 0 -85 -21t-30 -58
q0 -36 25.5 -58t88.5 -40q96 -27 135 -61.5t39 -92.5q0 -64 -51.5 -102t-138.5 -38zM280 773h70l-136 -174h-57z" />
    <glyph glyph-name="Scedilla" unicode="&#x15e;" horiz-adv-x="656" 
d="M308 -16q-65 0 -128 17t-105 45l9 57q47 -30 106 -47.5t116 -17.5q93 0 147 41t54 111q0 45 -19 73.5t-62.5 51.5t-122.5 50q-116 39 -164.5 87.5t-48.5 126.5q0 90 64.5 143.5t173.5 53.5q54 0 108 -13t99 -37l-12 -54q-100 50 -195 50q-83 0 -130.5 -37t-47.5 -102
q0 -41 16.5 -68.5t54.5 -49t106 -44.5q92 -31 144 -63t74.5 -71t22.5 -92q0 -97 -70.5 -154t-189.5 -57zM297 -255q-22 0 -45.5 5.5t-38.5 13.5l10 43q33 -18 74 -18q32 0 50.5 14t18.5 38q0 23 -16.5 36t-47.5 13q-30 0 -43 -4l33 124h43l-22 -82h5q44 0 71.5 -24t27.5 -62
q0 -44 -32.5 -70.5t-87.5 -26.5z" />
    <glyph glyph-name="scedilla" unicode="&#x15f;" horiz-adv-x="459" 
d="M215 -16q-47 0 -92 13t-73 34l8 53q32 -23 75 -36.5t82 -13.5q61 0 96.5 23t35.5 64q0 28 -12.5 44t-42 29.5t-85.5 31.5q-79 25 -112.5 58.5t-33.5 86.5q0 61 46.5 97.5t125.5 36.5q38 0 78.5 -10.5t70.5 -28.5l-9 -51q-30 19 -67 29.5t-74 10.5q-55 0 -85 -21t-30 -58
q0 -36 25.5 -58t88.5 -40q96 -27 135 -61.5t39 -92.5q0 -64 -51.5 -102t-138.5 -38zM206 -255q-22 0 -45.5 5.5t-38.5 13.5l10 42q15 -8 35 -12.5t39 -4.5q33 0 52 14t19 38q0 23 -17.5 36.5t-48.5 13.5q-27 0 -42 -4l32 123h42l-21 -82h5q44 0 71.5 -24t27.5 -62
q0 -44 -32.5 -70.5t-87.5 -26.5z" />
    <glyph glyph-name="Scaron" unicode="&#x160;" horiz-adv-x="656" 
d="M308 -16q-65 0 -128 17t-105 45l9 57q47 -30 106 -47.5t116 -17.5q93 0 147 41t54 111q0 45 -19 73.5t-62.5 51.5t-122.5 50q-116 39 -164.5 87.5t-48.5 126.5q0 90 64.5 143.5t173.5 53.5q54 0 108 -13t99 -37l-12 -54q-100 50 -195 50q-83 0 -130.5 -37t-47.5 -102
q0 -41 16.5 -68.5t54.5 -49t106 -44.5q92 -31 144 -63t74.5 -71t22.5 -92q0 -97 -70.5 -154t-189.5 -57zM153 977h65l105 -104l104 104h66l-144 -142h-53z" />
    <glyph glyph-name="scaron" unicode="&#x161;" horiz-adv-x="459" 
d="M215 -16q-47 0 -92 13t-73 34l8 53q32 -23 75 -36.5t82 -13.5q61 0 96.5 23t35.5 64q0 28 -12.5 44t-42 29.5t-85.5 31.5q-79 25 -112.5 58.5t-33.5 86.5q0 61 46.5 97.5t125.5 36.5q38 0 78.5 -10.5t70.5 -28.5l-9 -51q-30 19 -67 29.5t-74 10.5q-55 0 -85 -21t-30 -58
q0 -36 25.5 -58t88.5 -40q96 -27 135 -61.5t39 -92.5q0 -64 -51.5 -102t-138.5 -38zM59 773h61l109 -132l107 132h60l-144 -174h-47z" />
    <glyph glyph-name="uni0162" unicode="&#x162;" horiz-adv-x="672" 
d="M305 706h-260v54h582v-54h-260v-706h-62v706zM323 -255q-22 0 -45.5 5.5t-38.5 13.5l10 43q33 -18 74 -18q32 0 50.5 14t18.5 38q0 23 -16.5 36t-47.5 13q-30 0 -43 -4l33 124h43l-22 -82h5q44 0 71.5 -24t27.5 -62q0 -44 -32.5 -70.5t-87.5 -26.5z" />
    <glyph glyph-name="uni0163" unicode="&#x163;" horiz-adv-x="427" 
d="M282 -16q-78 0 -115 43t-37 135v276h-114v51h114v155h58v-155h180v-51h-180v-263q0 -76 23.5 -108t79.5 -32q51 0 99 27l8 -49q-22 -14 -53 -21.5t-63 -7.5zM246 -255q-22 0 -45.5 5.5t-38.5 13.5l10 42q15 -8 35 -12.5t39 -4.5q33 0 52 14t19 38q0 23 -17.5 36.5
t-48.5 13.5q-27 0 -42 -4l32 123h42l-21 -82h5q44 0 71.5 -24t27.5 -62q0 -44 -32.5 -70.5t-87.5 -26.5z" />
    <glyph glyph-name="Tcaron" unicode="&#x164;" horiz-adv-x="672" 
d="M305 706h-260v54h582v-54h-260v-706h-62v706zM166 977h65l105 -104l104 104h66l-144 -142h-53z" />
    <glyph glyph-name="tcaron" unicode="&#x165;" horiz-adv-x="427" 
d="M282 -16q-78 0 -115 43t-37 135v276h-114v51h114v155h58v-155h180v-51h-180v-263q0 -76 23.5 -108t79.5 -32q51 0 99 27l8 -49q-22 -14 -53 -21.5t-63 -7.5zM273 810h58l-30 -205h-40z" />
    <glyph glyph-name="Utilde" unicode="&#x168;" horiz-adv-x="850" 
d="M424 -16q-148 0 -228.5 83t-80.5 236v457h61v-449q0 -134 63 -202t186 -68t186 68t63 202v449h61v-457q0 -153 -81 -236t-230 -83zM495 834q-25 1 -44 12.5t-34.5 26.5t-30 26.5t-30.5 12.5q-47 0 -47 -77h-45q0 61 23 93t67 32q26 -1 45 -12.5t34.5 -27t29.5 -27
t30 -12.5q48 0 48 78h45q0 -60 -23.5 -92.5t-67.5 -32.5z" />
    <glyph glyph-name="utilde" unicode="&#x169;" horiz-adv-x="601" 
d="M275 -16q-87 0 -134.5 55t-47.5 155v295h58v-286q0 -167 136 -167q73 0 116.5 50.5t43.5 136.5v266h58v-489h-54l-1 83q-26 -49 -71 -74t-104 -25zM368 621q-25 1 -44 12.5t-34.5 26.5t-30 26.5t-30.5 12.5q-47 0 -47 -77h-45q0 61 23 93t67 32q26 -1 45 -12.5t34.5 -27
t29.5 -27t30 -12.5q48 0 48 78h45q0 -60 -23.5 -92.5t-67.5 -32.5z" />
    <glyph glyph-name="Umacron" unicode="&#x16a;" horiz-adv-x="850" 
d="M424 -16q-148 0 -228.5 83t-80.5 236v457h61v-449q0 -134 63 -202t186 -68t186 68t63 202v449h61v-457q0 -153 -81 -236t-230 -83zM278 916h294v-51h-294v51z" />
    <glyph glyph-name="umacron" unicode="&#x16b;" horiz-adv-x="601" 
d="M275 -16q-87 0 -134.5 55t-47.5 155v295h58v-286q0 -167 136 -167q73 0 116.5 50.5t43.5 136.5v266h58v-489h-54l-1 83q-26 -49 -71 -74t-104 -25zM151 704h294v-51h-294v51z" />
    <glyph glyph-name="Uring" unicode="&#x16e;" horiz-adv-x="850" 
d="M424 -16q-148 0 -228.5 83t-80.5 236v457h61v-449q0 -134 63 -202t186 -68t186 68t63 202v449h61v-457q0 -153 -81 -236t-230 -83zM425 818q-54 0 -90 34.5t-36 86.5q0 53 35.5 87t90.5 34t91 -34.5t36 -86.5t-36 -86.5t-91 -34.5zM425 858q37 0 60 22.5t23 58.5
t-23 58.5t-60 22.5t-59.5 -22t-22.5 -59q0 -36 22.5 -58.5t59.5 -22.5z" />
    <glyph glyph-name="uring" unicode="&#x16f;" horiz-adv-x="601" 
d="M275 -16q-87 0 -134.5 55t-47.5 155v295h58v-286q0 -167 136 -167q73 0 116.5 50.5t43.5 136.5v266h58v-489h-54l-1 83q-26 -49 -71 -74t-104 -25zM298 588q-54 0 -90 34.5t-36 86.5q0 53 35.5 87t90.5 34t91 -34.5t36 -86.5t-36 -86.5t-91 -34.5zM298 628q37 0 60 22.5
t23 58.5t-23 58.5t-60 22.5t-59.5 -22t-22.5 -59q0 -36 22.5 -58.5t59.5 -22.5z" />
    <glyph glyph-name="Uhungarumlaut" unicode="&#x170;" horiz-adv-x="850" 
d="M424 -16q-148 0 -228.5 83t-80.5 236v457h61v-449q0 -134 63 -202t186 -68t186 68t63 202v449h61v-457q0 -153 -81 -236t-230 -83zM405 964h70l-120 -129h-57zM557 964h70l-120 -129h-58z" />
    <glyph glyph-name="uhungarumlaut" unicode="&#x171;" horiz-adv-x="601" 
d="M275 -16q-87 0 -134.5 55t-47.5 155v295h58v-286q0 -167 136 -167q73 0 116.5 50.5t43.5 136.5v266h58v-489h-54l-1 83q-26 -49 -71 -74t-104 -25zM283 773h66l-130 -176h-54zM438 773h66l-130 -176h-54z" />
    <glyph glyph-name="Uogonek" unicode="&#x172;" horiz-adv-x="850" 
d="M424 -16q-148 0 -228.5 83t-80.5 236v457h61v-449q0 -134 63 -202t186 -68t186 68t63 202v449h61v-457q0 -153 -81 -236t-230 -83zM495 -252q-46 0 -72.5 24.5t-26.5 65.5q0 50 42.5 101t110.5 84l44 -1q-145 -94 -145 -173q0 -54 56 -54q33 0 63 18l7 -44
q-14 -10 -35.5 -15.5t-43.5 -5.5z" />
    <glyph glyph-name="uogonek" unicode="&#x173;" horiz-adv-x="601" 
d="M275 -16q-87 0 -134.5 55t-47.5 155v295h58v-286q0 -167 136 -167q73 0 116.5 50.5t43.5 136.5v266h58v-489h-54l-1 83q-26 -49 -71 -74t-104 -25zM438 -252q-45 0 -72 25t-27 65q0 93 136 182l30 -20q-114 -79 -114 -151q0 -26 14.5 -40t40.5 -14q31 0 64 18l7 -44
q-15 -10 -36.5 -15.5t-42.5 -5.5z" />
    <glyph glyph-name="Wcircumflex" unicode="&#x174;" horiz-adv-x="1100" 
d="M37 760h67l205 -686l210 676h64l209 -676l207 686h64l-236 -760h-66l-212 672l-209 -672h-68zM526 977h53l143 -142h-65l-105 103l-104 -103h-66z" />
    <glyph glyph-name="wcircumflex" unicode="&#x175;" horiz-adv-x="797" 
d="M29 489h62l144 -423l136 417h52l139 -417l147 423h59l-177 -489h-56l-139 416l-136 -416h-56zM372 773h47l146 -174h-60l-109 131l-108 -131h-60z" />
    <glyph glyph-name="Ycircumflex" unicode="&#x176;" horiz-adv-x="679" 
d="M308 337l-279 423h71l240 -372l244 372h66l-280 -424v-336h-62v337zM313 977h53l143 -142h-65l-105 103l-104 -103h-66z" />
    <glyph glyph-name="ycircumflex" unicode="&#x177;" horiz-adv-x="541" 
d="M247 33l-218 456h64l185 -392l173 392h61l-335 -734h-61zM253 773h47l146 -174h-60l-109 131l-108 -131h-60z" />
    <glyph glyph-name="Ydieresis" unicode="&#x178;" horiz-adv-x="679" 
d="M308 337l-279 423h71l240 -372l244 372h66l-280 -424v-336h-62v337zM245 847q-18 0 -29.5 12t-11.5 30t11.5 29.5t29.5 11.5q17 0 29 -11.5t12 -29.5t-12 -30t-29 -12zM433 847q-18 0 -29.5 12t-11.5 30t11.5 29.5t29.5 11.5t29.5 -11.5t11.5 -29.5t-12 -30t-29 -12z" />
    <glyph glyph-name="Zacute" unicode="&#x179;" horiz-adv-x="700" 
d="M62 53l487 653h-462v54h533v-53l-487 -653h495v-54h-566v53zM415 964h79l-149 -129h-66z" />
    <glyph glyph-name="zacute" unicode="&#x17a;" horiz-adv-x="507" 
d="M55 48l315 390h-304v51h373v-48l-317 -391h324v-50h-391v48zM300 773h70l-136 -174h-57z" />
    <glyph glyph-name="Zdotaccent" unicode="&#x17b;" horiz-adv-x="700" 
d="M62 53l487 653h-462v54h533v-53l-487 -653h495v-54h-566v53zM348 846q-20 0 -31.5 11.5t-11.5 31.5t12 32t31 12q20 0 32 -12t12 -32q0 -19 -12 -31t-32 -12z" />
    <glyph glyph-name="zdotaccent" unicode="&#x17c;" horiz-adv-x="507" 
d="M55 48l315 390h-304v51h373v-48l-317 -391h324v-50h-391v48zM249 639q-20 0 -31.5 12t-11.5 32q0 19 12 31t31 12q20 0 32 -12t12 -31t-12 -31.5t-32 -12.5z" />
    <glyph glyph-name="Zcaron" unicode="&#x17d;" horiz-adv-x="700" 
d="M62 53l487 653h-462v54h533v-53l-487 -653h495v-54h-566v53zM178 977h65l105 -104l104 104h66l-144 -142h-53z" />
    <glyph glyph-name="zcaron" unicode="&#x17e;" horiz-adv-x="507" 
d="M55 48l315 390h-304v51h373v-48l-317 -391h324v-50h-391v48zM79 773h61l109 -132l107 132h60l-144 -174h-47z" />
    <glyph glyph-name="florin" unicode="&#x192;" horiz-adv-x="388" 
d="M33 -255q-54 0 -98 23l6 50q43 -22 95 -22q50 0 73.5 30t23.5 95v517h-103v51h103v93q0 115 48 174t140 59q56 0 98 -20l-7 -50q-47 19 -88 19q-68 0 -100.5 -46t-32.5 -144v-85h166v-51h-166v-516q0 -89 -39 -133t-119 -44z" />
    <glyph glyph-name="uni0218" unicode="&#x218;" horiz-adv-x="656" 
d="M308 -16q-65 0 -128 17t-105 45l9 57q47 -30 106 -47.5t116 -17.5q93 0 147 41t54 111q0 45 -19 73.5t-62.5 51.5t-122.5 50q-116 39 -164.5 87.5t-48.5 126.5q0 90 64.5 143.5t173.5 53.5q54 0 108 -13t99 -37l-12 -54q-100 50 -195 50q-83 0 -130.5 -37t-47.5 -102
q0 -41 16.5 -68.5t54.5 -49t106 -44.5q92 -31 144 -63t74.5 -71t22.5 -92q0 -97 -70.5 -154t-189.5 -57zM246 -245q42 76 47 180h57q-4 -48 -20.5 -98t-38.5 -82h-45z" />
    <glyph glyph-name="uni0219" unicode="&#x219;" horiz-adv-x="459" 
d="M215 -16q-47 0 -92 13t-73 34l8 53q32 -23 75 -36.5t82 -13.5q61 0 96.5 23t35.5 64q0 28 -12.5 44t-42 29.5t-85.5 31.5q-79 25 -112.5 58.5t-33.5 86.5q0 61 46.5 97.5t125.5 36.5q38 0 78.5 -10.5t70.5 -28.5l-9 -51q-30 19 -67 29.5t-74 10.5q-55 0 -85 -21t-30 -58
q0 -36 25.5 -58t88.5 -40q96 -27 135 -61.5t39 -92.5q0 -64 -51.5 -102t-138.5 -38zM146 -245q42 78 47 180h57q-4 -47 -20.5 -97t-39.5 -83h-44z" />
    <glyph glyph-name="uni021A" unicode="&#x21a;" horiz-adv-x="672" 
d="M305 706h-260v54h582v-54h-260v-706h-62v706zM262 -245q42 76 47 180h57q-4 -48 -20.5 -98t-38.5 -82h-45z" />
    <glyph glyph-name="uni021B" unicode="&#x21b;" horiz-adv-x="427" 
d="M282 -16q-78 0 -115 43t-37 135v276h-114v51h114v155h58v-155h180v-51h-180v-263q0 -76 23.5 -108t79.5 -32q51 0 99 27l8 -49q-22 -14 -53 -21.5t-63 -7.5zM181 -245q42 78 47 180h57q-4 -47 -20.5 -97t-39.5 -83h-44z" />
    <glyph glyph-name="uni0237" unicode="&#x237;" horiz-adv-x="250" 
d="M-4 -255q-54 0 -98 23l6 50q43 -22 95 -22q50 0 73.5 30t23.5 95v568h58v-567q0 -89 -39 -133t-119 -44z" />
    <glyph glyph-name="circumflex" unicode="&#x2c6;" horiz-adv-x="500" 
d="M226 773h47l146 -174h-60l-109 131l-108 -131h-60z" />
    <glyph glyph-name="caron" unicode="&#x2c7;" horiz-adv-x="500" 
d="M80 773h61l109 -132l107 132h60l-144 -174h-47z" />
    <glyph glyph-name="uni02C9" unicode="&#x2c9;" horiz-adv-x="500" 
d="M103 704h294v-51h-294v51z" />
    <glyph glyph-name="uni02CB" unicode="&#x2cb;" horiz-adv-x="500" 
d="M154 773h69l123 -174h-57z" />
    <glyph glyph-name="breve" unicode="&#x2d8;" horiz-adv-x="500" 
d="M250 600q-65 0 -104.5 37.5t-39.5 99.5q0 10 1 14h45q0 -108 98 -108t98 108h45q1 -4 1 -14q0 -62 -39.5 -99.5t-104.5 -37.5z" />
    <glyph glyph-name="dotaccent" unicode="&#x2d9;" horiz-adv-x="500" 
d="M249 639q-20 0 -31.5 12t-11.5 32q0 19 12 31t31 12q20 0 32 -12t12 -31t-12 -31.5t-32 -12.5z" />
    <glyph glyph-name="ring" unicode="&#x2da;" horiz-adv-x="500" 
d="M250 588q-54 0 -90 34.5t-36 86.5q0 53 35.5 87t90.5 34t91 -34.5t36 -86.5t-36 -86.5t-91 -34.5zM250 628q37 0 60 22.5t23 58.5t-23 58.5t-60 22.5t-59.5 -22t-22.5 -59q0 -36 22.5 -58.5t59.5 -22.5z" />
    <glyph glyph-name="ogonek" unicode="&#x2db;" horiz-adv-x="500" 
d="M270 -252q-45 0 -72 25t-27 65q0 93 136 182l30 -20q-114 -79 -114 -151q0 -26 14.5 -40t40.5 -14q31 0 64 18l7 -44q-15 -10 -36.5 -15.5t-42.5 -5.5z" />
    <glyph glyph-name="tilde" unicode="&#x2dc;" horiz-adv-x="500" 
d="M320 621q-25 1 -44 12.5t-34.5 26.5t-30 26.5t-30.5 12.5q-47 0 -47 -77h-45q0 61 23 93t67 32q26 -1 45 -12.5t34.5 -27t29.5 -27t30 -12.5q48 0 48 78h45q0 -60 -23.5 -92.5t-67.5 -32.5z" />
    <glyph glyph-name="hungarumlaut" unicode="&#x2dd;" horiz-adv-x="500" 
d="M215 773h66l-130 -176h-54zM370 773h66l-130 -176h-54z" />
    <glyph glyph-name="gravecomb" unicode="&#x300;" horiz-adv-x="0" 
d="M-119 773h69l123 -174h-57z" />
    <glyph glyph-name="acutecomb" unicode="&#x301;" horiz-adv-x="0" 
d="M51 773h70l-136 -174h-57z" />
    <glyph glyph-name="uni0302" unicode="&#x302;" horiz-adv-x="0" 
d="M-24 773h47l146 -174h-60l-109 131l-108 -131h-60z" />
    <glyph glyph-name="tildecomb" unicode="&#x303;" horiz-adv-x="0" 
d="M70 621q-25 1 -44 12.5t-34.5 26.5t-30 26.5t-30.5 12.5q-47 0 -47 -77h-45q0 61 23 93t67 32q26 -1 45 -12.5t34.5 -27t29.5 -27t30 -12.5q48 0 48 78h45q0 -60 -23.5 -92.5t-67.5 -32.5z" />
    <glyph glyph-name="uni0304" unicode="&#x304;" horiz-adv-x="0" 
d="M-147 704h294v-51h-294v51z" />
    <glyph glyph-name="uni0306" unicode="&#x306;" horiz-adv-x="0" 
d="M0 600q-65 0 -104.5 37.5t-39.5 99.5q0 10 1 14h45q0 -108 98 -108t98 108h45q1 -4 1 -14q0 -62 -39.5 -99.5t-104.5 -37.5z" />
    <glyph glyph-name="uni0307" unicode="&#x307;" horiz-adv-x="0" 
d="M0 639q-20 0 -31.5 12t-11.5 32q0 19 12 31t31 12q20 0 32 -12t12 -31t-12 -31.5t-32 -12.5z" />
    <glyph glyph-name="uni0308" unicode="&#x308;" horiz-adv-x="0" 
d="M-90 642q-18 0 -29 11.5t-11 29.5q0 19 11.5 30.5t28.5 11.5q18 0 30 -12t12 -30t-12 -29.5t-30 -11.5zM89 642q-18 0 -29.5 11.5t-11.5 29.5t11.5 30t29.5 12t29.5 -12t11.5 -30t-11.5 -29.5t-29.5 -11.5z" />
    <glyph glyph-name="uni030A" unicode="&#x30a;" horiz-adv-x="0" 
d="M0 588q-54 0 -90 34.5t-36 86.5q0 53 35.5 87t90.5 34t91 -34.5t36 -86.5t-36 -86.5t-91 -34.5zM0 628q37 0 60 22.5t23 58.5t-23 58.5t-60 22.5t-59.5 -22t-22.5 -59q0 -36 22.5 -58.5t59.5 -22.5z" />
    <glyph glyph-name="uni030B" unicode="&#x30b;" horiz-adv-x="0" 
d="M-15 773h66l-130 -176h-54zM140 773h66l-130 -176h-54z" />
    <glyph glyph-name="uni030C" unicode="&#x30c;" horiz-adv-x="0" 
d="M-170 773h61l109 -132l107 132h60l-144 -174h-47z" />
    <glyph glyph-name="uni0312" unicode="&#x312;" horiz-adv-x="0" 
d="M-34 610q2 43 17 86t40 77h45q-40 -69 -44 -163h-58z" />
    <glyph glyph-name="uni0315" unicode="&#x315;" horiz-adv-x="0" 
d="M-23 810h58l-31 -230h-40z" />
    <glyph glyph-name="uni0326" unicode="&#x326;" horiz-adv-x="0" 
d="M-71 -245q42 78 47 180h57q-4 -47 -20.5 -97t-39.5 -83h-44z" />
    <glyph glyph-name="uni0327" unicode="&#x327;" horiz-adv-x="0" 
d="M-15 -255q-22 0 -45.5 5.5t-38.5 13.5l10 42q15 -8 35 -12.5t39 -4.5q33 0 52 14t19 38q0 23 -17.5 36.5t-48.5 13.5q-27 0 -42 -4l32 123h42l-21 -82h5q44 0 71.5 -24t27.5 -62q0 -44 -32.5 -70.5t-87.5 -26.5z" />
    <glyph glyph-name="uni0328" unicode="&#x328;" horiz-adv-x="0" 
d="M-27 -252q-45 0 -72 25t-27 65q0 93 136 182l30 -20q-114 -79 -114 -151q0 -26 14.5 -40t40.5 -14q31 0 64 18l7 -44q-15 -10 -36.5 -15.5t-42.5 -5.5z" />
    <glyph glyph-name="pi" unicode="&#x3c0;" horiz-adv-x="639" 
d="M534 -5q-49 0 -69 27.5t-20 93.5v322h-254v-438h-58v438h-82v51h536v-51h-84v-321q0 -41 9 -56t33 -15q20 0 35 6l6 -47q-22 -10 -52 -10z" />
    <glyph glyph-name="Wgrave" unicode="&#x1e80;" horiz-adv-x="1100" 
d="M37 760h67l205 -686l210 676h64l209 -676l207 686h64l-236 -760h-66l-212 672l-209 -672h-68zM406 964h79l136 -129h-65z" />
    <glyph glyph-name="wgrave" unicode="&#x1e81;" horiz-adv-x="797" 
d="M29 489h62l144 -423l136 417h52l139 -417l147 423h59l-177 -489h-56l-139 416l-136 -416h-56zM277 773h69l123 -174h-57z" />
    <glyph glyph-name="Wacute" unicode="&#x1e82;" horiz-adv-x="1100" 
d="M37 760h67l205 -686l210 676h64l209 -676l207 686h64l-236 -760h-66l-212 672l-209 -672h-68zM619 964h79l-149 -129h-66z" />
    <glyph glyph-name="wacute" unicode="&#x1e83;" horiz-adv-x="797" 
d="M29 489h62l144 -423l136 417h52l139 -417l147 423h59l-177 -489h-56l-139 416l-136 -416h-56zM447 773h70l-136 -174h-57z" />
    <glyph glyph-name="Wdieresis" unicode="&#x1e84;" horiz-adv-x="1100" 
d="M37 760h67l205 -686l210 676h64l209 -676l207 686h64l-236 -760h-66l-212 672l-209 -672h-68zM458 847q-18 0 -29.5 12t-11.5 30t11.5 29.5t29.5 11.5q17 0 29 -11.5t12 -29.5t-12 -30t-29 -12zM646 847q-18 0 -29.5 12t-11.5 30t11.5 29.5t29.5 11.5t29.5 -11.5
t11.5 -29.5t-12 -30t-29 -12z" />
    <glyph glyph-name="wdieresis" unicode="&#x1e85;" horiz-adv-x="797" 
d="M29 489h62l144 -423l136 417h52l139 -417l147 423h59l-177 -489h-56l-139 416l-136 -416h-56zM306 642q-18 0 -29 11.5t-11 29.5q0 19 11.5 30.5t28.5 11.5q18 0 30 -12t12 -30t-12 -29.5t-30 -11.5zM485 642q-18 0 -29.5 11.5t-11.5 29.5t11.5 30t29.5 12t29.5 -12
t11.5 -30t-11.5 -29.5t-29.5 -11.5z" />
    <glyph glyph-name="uni1E9E" unicode="&#x1e9e;" horiz-adv-x="790" 
d="M473 -16q-47 0 -92 12t-72 31l6 55q71 -44 156 -44q87 0 139.5 48.5t52.5 128.5q0 75 -48.5 120.5t-129.5 45.5q-27 0 -53 -8l-13 35l188 242q-40 33 -91 51.5t-106 18.5q-233 0 -233 -299v-421h-62v427q0 169 77 259t220 90q71 0 138.5 -26.5t113.5 -73.5v-41l-159 -204
q61 -1 110 -28.5t78 -77t29 -112.5q0 -64 -30.5 -116t-87.5 -82.5t-131 -30.5z" />
    <glyph glyph-name="Ygrave" unicode="&#x1ef2;" horiz-adv-x="679" 
d="M308 337l-279 423h71l240 -372l244 372h66l-280 -424v-336h-62v337zM193 964h79l136 -129h-65z" />
    <glyph glyph-name="ygrave" unicode="&#x1ef3;" horiz-adv-x="541" 
d="M247 33l-218 456h64l185 -392l173 392h61l-335 -734h-61zM158 773h69l123 -174h-57z" />
    <glyph glyph-name="uni2000" unicode="&#x2000;" horiz-adv-x="500" 
 />
    <glyph glyph-name="uni2001" unicode="&#x2001;" horiz-adv-x="1000" 
 />
    <glyph glyph-name="uni2002" unicode="&#x2002;" horiz-adv-x="500" 
 />
    <glyph glyph-name="uni2003" unicode="&#x2003;" horiz-adv-x="1000" 
 />
    <glyph glyph-name="uni2004" unicode="&#x2004;" horiz-adv-x="333" 
 />
    <glyph glyph-name="uni2005" unicode="&#x2005;" horiz-adv-x="250" 
 />
    <glyph glyph-name="uni2006" unicode="&#x2006;" horiz-adv-x="166" 
 />
    <glyph glyph-name="uni2007" unicode="&#x2007;" horiz-adv-x="620" 
 />
    <glyph glyph-name="uni2008" unicode="&#x2008;" horiz-adv-x="290" 
 />
    <glyph glyph-name="uni2009" unicode="&#x2009;" horiz-adv-x="200" 
 />
    <glyph glyph-name="uni200A" unicode="&#x200a;" horiz-adv-x="55" 
 />
    <glyph glyph-name="uni200B" unicode="&#x200b;" horiz-adv-x="0" 
 />
    <glyph glyph-name="uni2010" unicode="&#x2010;" horiz-adv-x="441" 
d="M78 313h285v-57h-285v57z" />
    <glyph glyph-name="figuredash" unicode="&#x2012;" horiz-adv-x="500" 
d="M0 316h500v-53h-500v53z" />
    <glyph glyph-name="endash" unicode="&#x2013;" horiz-adv-x="500" 
d="M0 316h500v-53h-500v53z" />
    <glyph glyph-name="emdash" unicode="&#x2014;" horiz-adv-x="1000" 
d="M0 316h1000v-53h-1000v53z" />
    <glyph glyph-name="uni2015" unicode="&#x2015;" horiz-adv-x="1000" 
d="M0 316h1000v-53h-1000v53z" />
    <glyph glyph-name="quoteleft" unicode="&#x2018;" horiz-adv-x="185" 
d="M46 530q5 59 21.5 121t41.5 109h45q-44 -103 -49 -230h-59z" />
    <glyph glyph-name="quoteright" unicode="&#x2019;" horiz-adv-x="185" 
d="M31 530q44 103 49 230h59q-5 -59 -21.5 -121t-41.5 -109h-45z" />
    <glyph glyph-name="quotesinglbase" unicode="&#x201a;" horiz-adv-x="185" 
d="M31 -112q44 103 49 230h59q-5 -59 -21.5 -121t-41.5 -109h-45z" />
    <glyph glyph-name="quotedblleft" unicode="&#x201c;" horiz-adv-x="329" 
d="M46 530q5 59 21.5 121t41.5 109h45q-44 -103 -49 -230h-59zM190 530q5 59 21.5 121t41.5 109h45q-44 -103 -49 -230h-59z" />
    <glyph glyph-name="quotedblright" unicode="&#x201d;" horiz-adv-x="329" 
d="M31 530q44 103 49 230h59q-5 -59 -21.5 -121t-41.5 -109h-45zM175 530q44 103 49 230h59q-5 -59 -21.5 -121t-41.5 -109h-45z" />
    <glyph glyph-name="quotedblbase" unicode="&#x201e;" horiz-adv-x="329" 
d="M31 -112q44 103 49 230h59q-5 -59 -21.5 -121t-41.5 -109h-45zM175 -112q44 103 49 230h59q-5 -59 -21.5 -121t-41.5 -109h-45z" />
    <glyph glyph-name="dagger" unicode="&#x2020;" horiz-adv-x="500" 
d="M221 454h-173v54h173v252h57v-252h174v-54h-174v-584h-57v584z" />
    <glyph glyph-name="daggerdbl" unicode="&#x2021;" horiz-adv-x="500" 
d="M221 113h-173v53h173v298h-173v54h173v242h57v-242h174v-54h-174v-298h174v-53h-174v-243h-57v243z" />
    <glyph glyph-name="bullet" unicode="&#x2022;" horiz-adv-x="339" 
d="M170 163q-46 0 -78.5 32.5t-32.5 78.5t32.5 78.5t78.5 32.5t78.5 -32.5t32.5 -78.5t-32.5 -78.5t-78.5 -32.5z" />
    <glyph glyph-name="ellipsis" unicode="&#x2026;" horiz-adv-x="1000" 
d="M167 -8q-19 0 -33 14t-14 33q0 20 13.5 33.5t33.5 13.5t33.5 -13.5t13.5 -33.5q0 -19 -13.5 -33t-33.5 -14zM500 -8q-19 0 -33 14t-14 33q0 20 13.5 33.5t33.5 13.5t33.5 -13.5t13.5 -33.5q0 -19 -13.5 -33t-33.5 -14zM833 -8q-19 0 -33 14t-14 33q0 20 13.5 33.5
t33.5 13.5t33.5 -13.5t13.5 -33.5q0 -19 -13.5 -33t-33.5 -14z" />
    <glyph glyph-name="perthousand" unicode="&#x2030;" horiz-adv-x="1324" 
d="M227 456q52 0 86.5 36t34.5 91q0 56 -34 92t-87 36t-87.5 -36t-34.5 -92q0 -54 34.5 -90.5t87.5 -36.5zM227 407q-47 0 -87 22.5t-64 63t-24 90.5q0 48 22 88t62.5 64.5t90.5 24.5q47 0 86.5 -22.5t63.5 -63t24 -91.5q0 -74 -50.5 -125t-123.5 -51zM708 744h63l-578 -744
h-63zM678 39q52 0 86.5 36t34.5 91q0 56 -34 92t-87 36t-87.5 -36t-34.5 -92q0 -54 34.5 -90.5t87.5 -36.5zM678 -10q-47 0 -87 22.5t-64 63t-24 90.5q0 48 22 88t62.5 64.5t90.5 24.5q47 0 86.5 -22.5t63.5 -63t24 -91.5q0 -74 -50.5 -125t-123.5 -51zM1097 39
q52 0 86.5 36t34.5 91q0 56 -34 92t-87 36t-87.5 -36t-34.5 -92q0 -54 34.5 -90.5t87.5 -36.5zM1097 -10q-47 0 -87 22.5t-64 63t-24 90.5q0 48 22 88t62.5 64.5t90.5 24.5q47 0 86.5 -22.5t63.5 -63t24 -91.5q0 -74 -50.5 -125t-123.5 -51z" />
    <glyph glyph-name="minute" unicode="&#x2032;" horiz-adv-x="252" 
d="M121 760h62l-65 -291h-49z" />
    <glyph glyph-name="second" unicode="&#x2033;" horiz-adv-x="403" 
d="M121 760h62l-65 -291h-49zM273 760h62l-65 -291h-49z" />
    <glyph glyph-name="guilsinglleft" unicode="&#x2039;" horiz-adv-x="287" 
d="M35 257l141 208h66l-141 -208l141 -208h-66z" />
    <glyph glyph-name="guilsinglright" unicode="&#x203a;" horiz-adv-x="287" 
d="M186 257l-141 208h66l141 -208l-141 -208h-66z" />
    <glyph glyph-name="fraction" unicode="&#x2044;" horiz-adv-x="165" 
d="M340 744h63l-578 -744h-63z" />
    <glyph glyph-name="uni2070" unicode="&#x2070;" 
d="M189 446q-45 0 -81 26t-57 74.5t-21 112.5q0 97 44 156t115 59q72 0 116 -59t44 -156q0 -95 -44.5 -154t-115.5 -59zM189 489q49 0 79 47t30 123q0 78 -30 125t-79 47t-78.5 -47t-29.5 -125q0 -77 29.5 -123.5t78.5 -46.5z" />
    <glyph glyph-name="uni2074" unicode="&#x2074;" 
d="M238 560h-202v41l197 263h50v-263h56v-41h-56v-104h-45v104zM238 601v203l-153 -203h153z" />
    <glyph glyph-name="uni2075" unicode="&#x2075;" 
d="M175 446q-31 0 -62 8t-49 21l5 44q49 -30 107 -30q49 0 75.5 24.5t26.5 68.5q0 40 -28.5 62.5t-79.5 22.5t-87 -14l7 211h212v-46h-170l-3 -114q25 5 46 5q69 0 110.5 -34t41.5 -92q0 -63 -41 -100t-111 -37z" />
    <glyph glyph-name="uni2076" unicode="&#x2076;" 
d="M187 446q-61 0 -100 39.5t-39 100.5q0 70 45 147t118 133l60 -3q-53 -38 -96 -88.5t-65 -100.5q35 37 90 37q57 0 94.5 -36.5t37.5 -91.5q0 -61 -40.5 -99t-104.5 -38zM190 488q42 0 69 25.5t27 64.5q0 42 -26 67t-70 25q-42 0 -69.5 -25.5t-27.5 -63.5q0 -41 27 -67
t70 -26z" />
    <glyph glyph-name="uni2077" unicode="&#x2077;" 
d="M98 457l171 360h-213v47h265v-44l-170 -366z" />
    <glyph glyph-name="uni2078" unicode="&#x2078;" 
d="M192 446q-64 0 -104.5 33.5t-40.5 86.5q0 35 22.5 64t60.5 42q-34 13 -52 37.5t-18 57.5q0 47 37 77t95 30q56 0 92.5 -30t36.5 -77q0 -33 -18 -57.5t-50 -37.5q37 -13 58.5 -41.5t21.5 -64.5q0 -53 -39 -86.5t-102 -33.5zM192 487q42 0 67.5 22t25.5 58q0 37 -26 60.5
t-67 23.5q-42 0 -69 -23.5t-27 -60.5q0 -36 26.5 -58t69.5 -22zM192 691q37 0 59.5 20.5t22.5 52.5t-22.5 51.5t-59.5 19.5q-38 0 -61.5 -19.5t-23.5 -51.5t23.5 -52.5t61.5 -20.5z" />
    <glyph glyph-name="uni2079" unicode="&#x2079;" 
d="M109 457q52 37 96 88t65 100q-17 -17 -40 -26.5t-49 -9.5q-57 0 -95 36.5t-38 91.5q0 60 40.5 98.5t104.5 38.5q61 0 100 -39.5t39 -100.5q0 -71 -45 -148t-118 -132zM191 650q42 0 69 25.5t27 63.5q0 41 -27 67t-69 26t-69 -25.5t-27 -64.5q0 -42 26 -67t70 -25z" />
    <glyph glyph-name="uni2080" unicode="&#x2080;" 
d="M189 -135q-45 0 -81 26t-57 74.5t-21 112.5q0 97 44 156t115 59q72 0 116 -59t44 -156q0 -95 -44.5 -154t-115.5 -59zM189 -92q49 0 79 47t30 123q0 78 -30 125t-79 47t-78.5 -47t-29.5 -125q0 -77 29.5 -123.5t78.5 -46.5z" />
    <glyph glyph-name="uni2081" unicode="&#x2081;" 
d="M203 231l-124 -57l-8 45l138 64h43v-408h-49v356z" />
    <glyph glyph-name="uni2082" unicode="&#x2082;" 
d="M58 -125v45q62 54 118 110q46 45 65 78t19 67q0 33 -22.5 53t-59.5 20q-61 0 -109 -51l-12 43q21 24 55.5 38.5t69.5 14.5q56 0 91.5 -31.5t35.5 -82.5q0 -43 -23.5 -85t-78.5 -95q-18 -18 -87 -79h204v-45h-266z" />
    <glyph glyph-name="uni2083" unicode="&#x2083;" 
d="M163 -135q-30 0 -60 7.5t-49 20.5l5 44q47 -30 104 -30q49 0 76.5 24t27.5 66q0 37 -26.5 58t-73.5 21q-22 0 -39 -6l-13 29l132 140h-183v44h238v-43l-116 -125q58 -2 93.5 -35t35.5 -84q0 -59 -41.5 -95t-110.5 -36z" />
    <glyph glyph-name="uni2084" unicode="&#x2084;" 
d="M238 -21h-202v41l197 263h50v-263h56v-41h-56v-104h-45v104zM238 20v203l-153 -203h153z" />
    <glyph glyph-name="uni2085" unicode="&#x2085;" 
d="M175 -135q-31 0 -62 8t-49 21l5 44q49 -30 107 -30q49 0 75.5 24.5t26.5 68.5q0 40 -28.5 62.5t-79.5 22.5t-87 -14l7 211h212v-46h-170l-3 -114q25 5 46 5q69 0 110.5 -34t41.5 -92q0 -63 -41 -100t-111 -37z" />
    <glyph glyph-name="uni2086" unicode="&#x2086;" 
d="M187 -135q-61 0 -100 39.5t-39 100.5q0 70 45 147t118 133l60 -3q-53 -38 -96 -88.5t-65 -100.5q35 37 90 37q57 0 94.5 -36.5t37.5 -91.5q0 -61 -40.5 -99t-104.5 -38zM190 -93q42 0 69 25.5t27 64.5q0 42 -26 67t-70 25q-42 0 -69.5 -25.5t-27.5 -63.5q0 -41 27 -67
t70 -26z" />
    <glyph glyph-name="uni2087" unicode="&#x2087;" 
d="M98 -124l171 360h-213v47h265v-44l-170 -366z" />
    <glyph glyph-name="uni2088" unicode="&#x2088;" 
d="M192 -135q-64 0 -104.5 33.5t-40.5 86.5q0 35 22.5 64t60.5 42q-34 13 -52 37.5t-18 57.5q0 47 37 77t95 30q56 0 92.5 -30t36.5 -77q0 -33 -18 -57.5t-50 -37.5q37 -13 58.5 -41.5t21.5 -64.5q0 -53 -39 -86.5t-102 -33.5zM192 -94q42 0 67.5 22t25.5 58q0 37 -26 60.5
t-67 23.5q-42 0 -69 -23.5t-27 -60.5q0 -36 26.5 -58t69.5 -22zM192 110q37 0 59.5 20.5t22.5 52.5t-22.5 51.5t-59.5 19.5q-38 0 -61.5 -19.5t-23.5 -51.5t23.5 -52.5t61.5 -20.5z" />
    <glyph glyph-name="uni2089" unicode="&#x2089;" 
d="M109 -124q52 37 96 88t65 100q-17 -17 -40 -26.5t-49 -9.5q-57 0 -95 36.5t-38 91.5q0 60 40.5 98.5t104.5 38.5q61 0 100 -39.5t39 -100.5q0 -71 -45 -148t-118 -132zM191 69q42 0 69 25.5t27 63.5q0 41 -27 67t-69 26t-69 -25.5t-27 -64.5q0 -42 26 -67t70 -25z" />
    <glyph glyph-name="Euro" unicode="&#x20ac;" horiz-adv-x="620" 
d="M447 -13q-114 0 -189 71t-100 202h-111v49h104q-3 32 -3 66q0 15 1 30l2 30h-104v49h111q24 130 100 203t189 73q80 0 143 -36l-12 -51q-61 34 -133 34q-87 0 -147.5 -58.5t-82.5 -164.5h282v-49h-289l-2 -28t-1 -28q0 -42 4 -70h288v-49h-280q22 -106 82 -163t150 -57
q73 0 139 34l6 -53q-63 -34 -147 -34z" />
    <glyph glyph-name="uni20BA" unicode="&#x20ba;" horiz-adv-x="620" 
d="M227 -13q-36 0 -79 10v293l-99 -43v49l99 44v115l-99 -43v49l99 44v239h56v-215l226 101v-50l-226 -101v-115l226 101v-50l-226 -101v-271q14 -2 32 -2q116 0 188 73.5t82 200.5l53 -5q-5 -95 -46.5 -168t-115 -114t-170.5 -41z" />
    <glyph glyph-name="trademark" unicode="&#x2122;" horiz-adv-x="843" 
d="M403 760h53l124 -257l123 257h53l19 -370h-47l-13 302l-114 -238h-42l-115 238l-13 -302h-46zM146 716h-119v44h287v-44h-118v-326h-50v326z" />
    <glyph glyph-name="Omega" unicode="&#x2126;" horiz-adv-x="932" 
d="M97 55h199q-95 57 -146.5 148.5t-51.5 203.5q0 102 46 185.5t130 133.5t191 50q103 0 186.5 -45.5t133 -130t49.5 -193.5q0 -111 -51.5 -203.5t-145.5 -148.5h198v-55h-296v48q107 49 169 144t62 211q0 90 -37.5 161.5t-107 113t-160.5 41.5q-86 0 -154.5 -39
t-108.5 -111t-40 -166q0 -116 62 -211t169 -144v-48h-296v55z" />
    <glyph glyph-name="uni2150" unicode="&#x2150;" horiz-adv-x="931" 
d="M686 744h63l-578 -744h-63zM649 1l171 360h-213v47h265v-44l-170 -366zM203 692l-124 -57l-8 45l138 64h43v-408h-49v356z" />
    <glyph glyph-name="uni2151" unicode="&#x2151;" horiz-adv-x="931" 
d="M709 744h63l-578 -744h-63zM660 1q52 37 96 88t65 100q-17 -17 -40 -26.5t-49 -9.5q-57 0 -95 36.5t-38 91.5q0 60 40.5 98.5t104.5 38.5q61 0 100 -39.5t39 -100.5q0 -71 -45 -148t-118 -132zM742 194q42 0 69 25.5t27 63.5q0 41 -27 67t-69 26t-69 -25.5t-27 -64.5
q0 -42 26 -67t70 -25zM203 692l-124 -57l-8 45l138 64h43v-408h-49v356z" />
    <glyph glyph-name="onethird" unicode="&#x2153;" horiz-adv-x="931" 
d="M693 744h63l-578 -744h-63zM714 -10q-30 0 -60 7.5t-49 20.5l5 44q47 -30 104 -30q49 0 76.5 24t27.5 66q0 37 -26.5 58t-73.5 21q-22 0 -39 -6l-13 29l132 140h-183v44h238v-43l-116 -125q58 -2 93.5 -35t35.5 -84q0 -59 -41.5 -95t-110.5 -36zM203 692l-124 -57l-8 45
l138 64h43v-408h-49v356z" />
    <glyph glyph-name="twothirds" unicode="&#x2154;" horiz-adv-x="931" 
d="M727 744h63l-578 -744h-63zM714 -10q-30 0 -60 7.5t-49 20.5l5 44q47 -30 104 -30q49 0 76.5 24t27.5 66q0 37 -26.5 58t-73.5 21q-22 0 -39 -6l-13 29l132 140h-183v44h238v-43l-116 -125q58 -2 93.5 -35t35.5 -84q0 -59 -41.5 -95t-110.5 -36zM58 336v45q62 54 118 110
q46 45 65 78t19 67q0 33 -22.5 53t-59.5 20q-61 0 -109 -51l-12 43q21 24 55.5 38.5t69.5 14.5q56 0 91.5 -31.5t35.5 -82.5q0 -43 -23.5 -85t-78.5 -95q-18 -18 -87 -79h204v-45h-266z" />
    <glyph glyph-name="uni2155" unicode="&#x2155;" horiz-adv-x="931" 
d="M709 744h63l-578 -744h-63zM726 -10q-31 0 -62 8t-49 21l5 44q49 -30 107 -30q49 0 75.5 24.5t26.5 68.5q0 40 -28.5 62.5t-79.5 22.5t-87 -14l7 211h212v-46h-170l-3 -114q25 5 46 5q69 0 110.5 -34t41.5 -92q0 -63 -41 -100t-111 -37zM203 692l-124 -57l-8 45l138 64
h43v-408h-49v356z" />
    <glyph glyph-name="uni2156" unicode="&#x2156;" horiz-adv-x="931" 
d="M735 744h63l-578 -744h-63zM726 -10q-31 0 -62 8t-49 21l5 44q49 -30 107 -30q49 0 75.5 24.5t26.5 68.5q0 40 -28.5 62.5t-79.5 22.5t-87 -14l7 211h212v-46h-170l-3 -114q25 5 46 5q69 0 110.5 -34t41.5 -92q0 -63 -41 -100t-111 -37zM58 336v45q62 54 118 110
q46 45 65 78t19 67q0 33 -22.5 53t-59.5 20q-61 0 -109 -51l-12 43q21 24 55.5 38.5t69.5 14.5q56 0 91.5 -31.5t35.5 -82.5q0 -43 -23.5 -85t-78.5 -95q-18 -18 -87 -79h204v-45h-266z" />
    <glyph glyph-name="uni2157" unicode="&#x2157;" horiz-adv-x="931" 
d="M708 744h63l-578 -744h-63zM726 -10q-31 0 -62 8t-49 21l5 44q49 -30 107 -30q49 0 75.5 24.5t26.5 68.5q0 40 -28.5 62.5t-79.5 22.5t-87 -14l7 211h212v-46h-170l-3 -114q25 5 46 5q69 0 110.5 -34t41.5 -92q0 -63 -41 -100t-111 -37zM163 326q-30 0 -60 7.5t-49 20.5
l5 44q47 -30 104 -30q49 0 76.5 24t27.5 66q0 37 -26.5 58t-73.5 21q-22 0 -39 -6l-13 29l132 140h-183v44h238v-43l-116 -125q58 -2 93.5 -35t35.5 -84q0 -59 -41.5 -95t-110.5 -36z" />
    <glyph glyph-name="uni2158" unicode="&#x2158;" horiz-adv-x="931" 
d="M723 744h63l-578 -744h-63zM726 -10q-31 0 -62 8t-49 21l5 44q49 -30 107 -30q49 0 75.5 24.5t26.5 68.5q0 40 -28.5 62.5t-79.5 22.5t-87 -14l7 211h212v-46h-170l-3 -114q25 5 46 5q69 0 110.5 -34t41.5 -92q0 -63 -41 -100t-111 -37zM238 440h-202v41l197 263h50v-263
h56v-41h-56v-104h-45v104zM238 481v203l-153 -203h153z" />
    <glyph glyph-name="uni2159" unicode="&#x2159;" horiz-adv-x="931" 
d="M734 744h63l-578 -744h-63zM738 -10q-61 0 -100 39.5t-39 100.5q0 70 45 147t118 133l60 -3q-53 -38 -96 -88.5t-65 -100.5q35 37 90 37q57 0 94.5 -36.5t37.5 -91.5q0 -61 -40.5 -99t-104.5 -38zM741 32q42 0 69 25.5t27 64.5q0 42 -26 67t-70 25q-42 0 -69.5 -25.5
t-27.5 -63.5q0 -41 27 -67t70 -26zM203 692l-124 -57l-8 45l138 64h43v-408h-49v356z" />
    <glyph glyph-name="uni215A" unicode="&#x215a;" horiz-adv-x="931" 
d="M743 744h63l-578 -744h-63zM738 -10q-61 0 -100 39.5t-39 100.5q0 70 45 147t118 133l60 -3q-53 -38 -96 -88.5t-65 -100.5q35 37 90 37q57 0 94.5 -36.5t37.5 -91.5q0 -61 -40.5 -99t-104.5 -38zM741 32q42 0 69 25.5t27 64.5q0 42 -26 67t-70 25q-42 0 -69.5 -25.5
t-27.5 -63.5q0 -41 27 -67t70 -26zM175 326q-31 0 -62 8t-49 21l5 44q49 -30 107 -30q49 0 75.5 24.5t26.5 68.5q0 40 -28.5 62.5t-79.5 22.5t-87 -14l7 211h212v-46h-170l-3 -114q25 5 46 5q69 0 110.5 -34t41.5 -92q0 -63 -41 -100t-111 -37z" />
    <glyph glyph-name="oneeighth" unicode="&#x215b;" horiz-adv-x="931" 
d="M707 744h63l-578 -744h-63zM743 -10q-64 0 -104.5 33.5t-40.5 86.5q0 35 22.5 64t60.5 42q-34 13 -52 37.5t-18 57.5q0 47 37 77t95 30q56 0 92.5 -30t36.5 -77q0 -33 -18 -57.5t-50 -37.5q37 -13 58.5 -41.5t21.5 -64.5q0 -53 -39 -86.5t-102 -33.5zM743 31
q42 0 67.5 22t25.5 58q0 37 -26 60.5t-67 23.5q-42 0 -69 -23.5t-27 -60.5q0 -36 26.5 -58t69.5 -22zM743 235q37 0 59.5 20.5t22.5 52.5t-22.5 51.5t-59.5 19.5q-38 0 -61.5 -19.5t-23.5 -51.5t23.5 -52.5t61.5 -20.5zM203 692l-124 -57l-8 45l138 64h43v-408h-49v356z" />
    <glyph glyph-name="threeeighths" unicode="&#x215c;" horiz-adv-x="931" 
d="M707 744h63l-578 -744h-63zM743 -10q-64 0 -104.5 33.5t-40.5 86.5q0 35 22.5 64t60.5 42q-34 13 -52 37.5t-18 57.5q0 47 37 77t95 30q56 0 92.5 -30t36.5 -77q0 -33 -18 -57.5t-50 -37.5q37 -13 58.5 -41.5t21.5 -64.5q0 -53 -39 -86.5t-102 -33.5zM743 31
q42 0 67.5 22t25.5 58q0 37 -26 60.5t-67 23.5q-42 0 -69 -23.5t-27 -60.5q0 -36 26.5 -58t69.5 -22zM743 235q37 0 59.5 20.5t22.5 52.5t-22.5 51.5t-59.5 19.5q-38 0 -61.5 -19.5t-23.5 -51.5t23.5 -52.5t61.5 -20.5zM163 326q-30 0 -60 7.5t-49 20.5l5 44q47 -30 104 -30
q49 0 76.5 24t27.5 66q0 37 -26.5 58t-73.5 21q-22 0 -39 -6l-13 29l132 140h-183v44h238v-43l-116 -125q58 -2 93.5 -35t35.5 -84q0 -59 -41.5 -95t-110.5 -36z" />
    <glyph glyph-name="fiveeighths" unicode="&#x215d;" horiz-adv-x="931" 
d="M717 744h63l-578 -744h-63zM743 -10q-64 0 -104.5 33.5t-40.5 86.5q0 35 22.5 64t60.5 42q-34 13 -52 37.5t-18 57.5q0 47 37 77t95 30q56 0 92.5 -30t36.5 -77q0 -33 -18 -57.5t-50 -37.5q37 -13 58.5 -41.5t21.5 -64.5q0 -53 -39 -86.5t-102 -33.5zM743 31
q42 0 67.5 22t25.5 58q0 37 -26 60.5t-67 23.5q-42 0 -69 -23.5t-27 -60.5q0 -36 26.5 -58t69.5 -22zM743 235q37 0 59.5 20.5t22.5 52.5t-22.5 51.5t-59.5 19.5q-38 0 -61.5 -19.5t-23.5 -51.5t23.5 -52.5t61.5 -20.5zM175 326q-31 0 -62 8t-49 21l5 44q49 -30 107 -30
q49 0 75.5 24.5t26.5 68.5q0 40 -28.5 62.5t-79.5 22.5t-87 -14l7 211h212v-46h-170l-3 -114q25 5 46 5q69 0 110.5 -34t41.5 -92q0 -63 -41 -100t-111 -37z" />
    <glyph glyph-name="seveneighths" unicode="&#x215e;" horiz-adv-x="931" 
d="M668 744h63l-578 -744h-63zM743 -10q-64 0 -104.5 33.5t-40.5 86.5q0 35 22.5 64t60.5 42q-34 13 -52 37.5t-18 57.5q0 47 37 77t95 30q56 0 92.5 -30t36.5 -77q0 -33 -18 -57.5t-50 -37.5q37 -13 58.5 -41.5t21.5 -64.5q0 -53 -39 -86.5t-102 -33.5zM743 31
q42 0 67.5 22t25.5 58q0 37 -26 60.5t-67 23.5q-42 0 -69 -23.5t-27 -60.5q0 -36 26.5 -58t69.5 -22zM743 235q37 0 59.5 20.5t22.5 52.5t-22.5 51.5t-59.5 19.5q-38 0 -61.5 -19.5t-23.5 -51.5t23.5 -52.5t61.5 -20.5zM98 337l171 360h-213v47h265v-44l-170 -366z" />
    <glyph glyph-name="partialdiff" unicode="&#x2202;" horiz-adv-x="605" 
d="M248 -16q-61 0 -109.5 26.5t-76 75.5t-27.5 113q0 66 31.5 123t88.5 92.5t128 35.5t122 -34.5t72 -96.5q5 57 5 99q0 141 -53 215.5t-153 74.5q-41 0 -80.5 -17t-71.5 -49l-8 53q32 31 76 48t90 17q121 0 188 -88.5t67 -247.5q0 -131 -34.5 -230.5t-99.5 -154.5t-155 -55
zM252 35q49 0 93.5 27t73.5 74.5t29 102.5q0 72 -45 116t-118 44q-51 0 -94.5 -25t-70 -70.5t-26.5 -102.5q0 -75 43.5 -120.5t114.5 -45.5z" />
    <glyph glyph-name="Delta" unicode="&#x2206;" horiz-adv-x="751" 
d="M341 760h68l312 -760h-691zM633 51l-259 649l-261 -649h520z" />
    <glyph glyph-name="product" unicode="&#x220f;" horiz-adv-x="731" 
d="M122 760h487v-840h-62v786h-363v-786h-62v840z" />
    <glyph glyph-name="summation" unicode="&#x2211;" horiz-adv-x="565" 
d="M41 -28l261 377l-244 359v52h452v-53h-381l241 -354l-263 -379h409v-53h-475v51z" />
    <glyph glyph-name="minus" unicode="&#x2212;" horiz-adv-x="620" 
d="M88 362h444v-53h-444v53z" />
    <glyph glyph-name="uni2215" unicode="&#x2215;" horiz-adv-x="165" 
d="M340 744h63l-578 -744h-63z" />
    <glyph glyph-name="uni2219" unicode="&#x2219;" horiz-adv-x="290" 
d="M145 333q-19 0 -33 14t-14 33q0 20 13.5 33.5t33.5 13.5t33.5 -13.5t13.5 -33.5q0 -19 -13.5 -33t-33.5 -14z" />
    <glyph glyph-name="radical" unicode="&#x221a;" horiz-adv-x="656" 
d="M145 394h-107v52h148l153 -385l285 749h57l-313 -810h-60z" />
    <glyph glyph-name="infinity" unicode="&#x221e;" horiz-adv-x="724" 
d="M202 181q-68 0 -112 46.5t-44 119.5t44 119.5t112 46.5q53 0 94.5 -28t65.5 -81q25 53 66 81t94 28q68 0 112 -46.5t44 -119.5t-44 -119.5t-112 -46.5q-54 0 -95 27.5t-66 81.5q-24 -53 -64.5 -81t-94.5 -28zM518 231q48 0 77.5 32t29.5 84t-29.5 84t-77.5 32
q-43 0 -77 -30t-54 -85q20 -58 53.5 -87.5t77.5 -29.5zM206 231q43 0 77.5 30.5t53.5 84.5q-19 57 -53 87t-78 30q-48 0 -77.5 -32t-29.5 -84t29.5 -84t77.5 -32z" />
    <glyph glyph-name="integral" unicode="&#x222b;" horiz-adv-x="374" 
d="M55 -254q-23 0 -48 5t-42 14l7 51q18 -7 41.5 -12t42.5 -5q48 0 70 33t22 105q0 30 -1 41l-41 614q-1 12 -1 41q0 93 38.5 140.5t112.5 47.5q23 0 48 -5t42 -14l-7 -51q-18 7 -41.5 12t-42.5 5q-48 0 -70 -33t-22 -105q0 -29 1 -41l41 -614q1 -10 1 -41
q0 -93 -38.5 -140.5t-112.5 -47.5z" />
    <glyph glyph-name="approxequal" unicode="&#x2248;" horiz-adv-x="620" 
d="M424 139q-29 0 -58 14t-67 47q-40 34 -61 45.5t-42 11.5q-35 0 -53 -28.5t-19 -89.5h-51v8q1 77 33 120t88 43q29 0 58.5 -14t67.5 -46q37 -33 59.5 -45.5t43.5 -12.5q35 0 52.5 28.5t19.5 89.5h51v-8q-1 -77 -33 -120t-89 -43zM424 394q-29 0 -58 14t-67 47
q-40 34 -61 45.5t-42 11.5q-35 0 -53 -28.5t-19 -89.5h-51v8q1 77 33 120t88 43q29 0 58.5 -14t67.5 -46q37 -33 59.5 -45.5t43.5 -12.5q35 0 52.5 28.5t19.5 89.5h51v-8q-1 -77 -33 -120t-89 -43z" />
    <glyph glyph-name="notequal" unicode="&#x2260;" horiz-adv-x="620" 
d="M209 194h-104v53h132l96 176h-228v53h255l70 128h54l-70 -128h102v-53h-129l-96 -176h225v-53h-253l-70 -130h-54z" />
    <glyph glyph-name="lessequal" unicode="&#x2264;" horiz-adv-x="620" 
d="M88 54h444v-53h-444v53zM104 360v56l412 194v-58l-347 -162l347 -163v-60z" />
    <glyph glyph-name="greaterequal" unicode="&#x2265;" horiz-adv-x="620" 
d="M88 54h444v-53h-444v53zM104 225l347 162l-347 163v60l412 -193v-56l-412 -194v58z" />
    <glyph glyph-name="lozenge" unicode="&#x25ca;" horiz-adv-x="606" 
d="M45 405l231 406h56l229 -406l-229 -405h-56zM501 405l-199 348l-194 -348l194 -346z" />
    <glyph glyph-name="uniF507" unicode="&#xf507;" horiz-adv-x="931" 
d="M722 744h63l-578 -744h-63zM649 1l171 360h-213v47h265v-44l-170 -366zM58 336v45q62 54 118 110q46 45 65 78t19 67q0 33 -22.5 53t-59.5 20q-61 0 -109 -51l-12 43q21 24 55.5 38.5t69.5 14.5q56 0 91.5 -31.5t35.5 -82.5q0 -43 -23.5 -85t-78.5 -95q-18 -18 -87 -79
h204v-45h-266z" />
    <glyph glyph-name="uniF508" unicode="&#xf508;" horiz-adv-x="931" 
d="M687 744h63l-578 -744h-63zM649 1l171 360h-213v47h265v-44l-170 -366zM163 326q-30 0 -60 7.5t-49 20.5l5 44q47 -30 104 -30q49 0 76.5 24t27.5 66q0 37 -26.5 58t-73.5 21q-22 0 -39 -6l-13 29l132 140h-183v44h238v-43l-116 -125q58 -2 93.5 -35t35.5 -84
q0 -59 -41.5 -95t-110.5 -36z" />
    <glyph glyph-name="uniF509" unicode="&#xf509;" horiz-adv-x="931" 
d="M703 744h63l-578 -744h-63zM649 1l171 360h-213v47h265v-44l-170 -366zM238 440h-202v41l197 263h50v-263h56v-41h-56v-104h-45v104zM238 481v203l-153 -203h153z" />
    <glyph glyph-name="uniF50A" unicode="&#xf50a;" horiz-adv-x="931" 
d="M698 744h63l-578 -744h-63zM649 1l171 360h-213v47h265v-44l-170 -366zM175 326q-31 0 -62 8t-49 21l5 44q49 -30 107 -30q49 0 75.5 24.5t26.5 68.5q0 40 -28.5 62.5t-79.5 22.5t-87 -14l7 211h212v-46h-170l-3 -114q25 5 46 5q69 0 110.5 -34t41.5 -92q0 -63 -41 -100
t-111 -37z" />
    <glyph glyph-name="uniF50B" unicode="&#xf50b;" horiz-adv-x="931" 
d="M694 744h63l-578 -744h-63zM649 1l171 360h-213v47h265v-44l-170 -366zM187 326q-61 0 -100 39.5t-39 100.5q0 70 45 147t118 133l60 -3q-53 -38 -96 -88.5t-65 -100.5q35 37 90 37q57 0 94.5 -36.5t37.5 -91.5q0 -61 -40.5 -99t-104.5 -38zM190 368q42 0 69 25.5
t27 64.5q0 42 -26 67t-70 25q-42 0 -69.5 -25.5t-27.5 -63.5q0 -41 27 -67t70 -26z" />
    <glyph glyph-name="uniF50D" unicode="&#xf50d;" horiz-adv-x="931" 
d="M733 744h63l-578 -744h-63zM660 1q52 37 96 88t65 100q-17 -17 -40 -26.5t-49 -9.5q-57 0 -95 36.5t-38 91.5q0 60 40.5 98.5t104.5 38.5q61 0 100 -39.5t39 -100.5q0 -71 -45 -148t-118 -132zM742 194q42 0 69 25.5t27 63.5q0 41 -27 67t-69 26t-69 -25.5t-27 -64.5
q0 -42 26 -67t70 -25zM58 336v45q62 54 118 110q46 45 65 78t19 67q0 33 -22.5 53t-59.5 20q-61 0 -109 -51l-12 43q21 24 55.5 38.5t69.5 14.5q56 0 91.5 -31.5t35.5 -82.5q0 -43 -23.5 -85t-78.5 -95q-18 -18 -87 -79h204v-45h-266z" />
    <glyph glyph-name="uniF50E" unicode="&#xf50e;" horiz-adv-x="931" 
d="M724 744h63l-578 -744h-63zM660 1q52 37 96 88t65 100q-17 -17 -40 -26.5t-49 -9.5q-57 0 -95 36.5t-38 91.5q0 60 40.5 98.5t104.5 38.5q61 0 100 -39.5t39 -100.5q0 -71 -45 -148t-118 -132zM742 194q42 0 69 25.5t27 63.5q0 41 -27 67t-69 26t-69 -25.5t-27 -64.5
q0 -42 26 -67t70 -25zM238 440h-202v41l197 263h50v-263h56v-41h-56v-104h-45v104zM238 481v203l-153 -203h153z" />
    <glyph glyph-name="uniF50F" unicode="&#xf50f;" horiz-adv-x="931" 
d="M717 744h63l-578 -744h-63zM660 1q52 37 96 88t65 100q-17 -17 -40 -26.5t-49 -9.5q-57 0 -95 36.5t-38 91.5q0 60 40.5 98.5t104.5 38.5q61 0 100 -39.5t39 -100.5q0 -71 -45 -148t-118 -132zM742 194q42 0 69 25.5t27 63.5q0 41 -27 67t-69 26t-69 -25.5t-27 -64.5
q0 -42 26 -67t70 -25zM175 326q-31 0 -62 8t-49 21l5 44q49 -30 107 -30q49 0 75.5 24.5t26.5 68.5q0 40 -28.5 62.5t-79.5 22.5t-87 -14l7 211h212v-46h-170l-3 -114q25 5 46 5q69 0 110.5 -34t41.5 -92q0 -63 -41 -100t-111 -37z" />
    <glyph glyph-name="uniF510" unicode="&#xf510;" horiz-adv-x="931" 
d="M672 744h63l-578 -744h-63zM660 1q52 37 96 88t65 100q-17 -17 -40 -26.5t-49 -9.5q-57 0 -95 36.5t-38 91.5q0 60 40.5 98.5t104.5 38.5q61 0 100 -39.5t39 -100.5q0 -71 -45 -148t-118 -132zM742 194q42 0 69 25.5t27 63.5q0 41 -27 67t-69 26t-69 -25.5t-27 -64.5
q0 -42 26 -67t70 -25zM98 337l171 360h-213v47h265v-44l-170 -366z" />
    <glyph glyph-name="uniF511" unicode="&#xf511;" horiz-adv-x="931" 
d="M717 744h63l-578 -744h-63zM660 1q52 37 96 88t65 100q-17 -17 -40 -26.5t-49 -9.5q-57 0 -95 36.5t-38 91.5q0 60 40.5 98.5t104.5 38.5q61 0 100 -39.5t39 -100.5q0 -71 -45 -148t-118 -132zM742 194q42 0 69 25.5t27 63.5q0 41 -27 67t-69 26t-69 -25.5t-27 -64.5
q0 -42 26 -67t70 -25zM192 326q-64 0 -104.5 33.5t-40.5 86.5q0 35 22.5 64t60.5 42q-34 13 -52 37.5t-18 57.5q0 47 37 77t95 30q56 0 92.5 -30t36.5 -77q0 -33 -18 -57.5t-50 -37.5q37 -13 58.5 -41.5t21.5 -64.5q0 -53 -39 -86.5t-102 -33.5zM192 367q42 0 67.5 22
t25.5 58q0 37 -26 60.5t-67 23.5q-42 0 -69 -23.5t-27 -60.5q0 -36 26.5 -58t69.5 -22zM192 571q37 0 59.5 20.5t22.5 52.5t-22.5 51.5t-59.5 19.5q-38 0 -61.5 -19.5t-23.5 -51.5t23.5 -52.5t61.5 -20.5z" />
    <glyph glyph-name="uniFB01" unicode="&#xfb01;" horiz-adv-x="658" 
d="M133 438h-103v51h103v93q0 114 46 173.5t135 59.5q45 0 84 -17l-7 -49q-37 15 -74 15q-65 0 -95.5 -46t-30.5 -144v-85h156v-51h-156v-438h-58v438zM504 489h58v-489h-58v489zM533 639q-19 0 -31.5 12.5t-12.5 31.5t12.5 31t31.5 12t31 -12t12 -31t-12 -31.5t-31 -12.5z
" />
    <glyph glyph-name="uniFB02" unicode="&#xfb02;" horiz-adv-x="658" 
d="M133 438h-103v51h103v93q0 114 46 173.5t135 59.5q45 0 84 -17l-7 -49q-37 15 -74 15q-65 0 -95.5 -46t-30.5 -144v-85h156v-51h-156v-438h-58v438zM504 810h58v-810h-58v810z" />
    <glyph glyph-name="uniFEFF" unicode="&#xfeff;" horiz-adv-x="0" 
 />
    <glyph glyph-name="zero.pnum" horiz-adv-x="599" 
d="M299 36q90 0 140.5 89t50.5 248q0 158 -50.5 246.5t-140.5 88.5t-140 -88.5t-50 -246.5q0 -159 50.5 -248t139.5 -89zM299 -16q-76 0 -132.5 46t-87.5 134t-31 209q0 118 29.5 205t86.5 134.5t135 47.5q56 0 102.5 -25.5t80 -75t51.5 -122t18 -164.5q0 -180 -68 -284.5
t-184 -104.5z" />
    <glyph glyph-name="one.pnum" horiz-adv-x="477" 
d="M280 680l-217 -97l-8 54l237 107h46v-744h-58v680z" />
    <glyph glyph-name="two.pnum" horiz-adv-x="584" 
d="M74 0v50q75 73 183 197q97 112 135 180t38 129q0 70 -40 110.5t-110 40.5q-104 0 -181 -89l-12 55q36 41 88 64t109 23q94 0 149.5 -54t55.5 -144q0 -72 -37.5 -144.5t-128.5 -175.5q-101 -114 -174 -187h365v-55h-440z" />
    <glyph glyph-name="three.pnum" horiz-adv-x="584" 
d="M250 -16q-52 0 -101.5 13.5t-83.5 36.5l7 54q81 -53 179 -53q91 0 143.5 48t52.5 130q0 78 -49.5 122.5t-137.5 44.5q-36 0 -68 -8l-16 36l243 283h-340v53h405v-52l-229 -266q5 1 21 1q67 0 118.5 -25.5t81 -74t29.5 -114.5q0 -105 -69.5 -167t-185.5 -62z" />
    <glyph glyph-name="four.pnum" horiz-adv-x="610" 
d="M404 200h-348v48l348 496h55v-495h102v-49h-102v-200h-55v200zM404 249v412l-290 -412h290z" />
    <glyph glyph-name="five.pnum" horiz-adv-x="586" 
d="M263 -16q-53 0 -103.5 14t-83.5 37l6 55q80 -54 179 -54q91 0 144.5 52t53.5 139q0 83 -56.5 131.5t-154.5 48.5q-69 0 -138 -23l12 360h350v-55h-300l-8 -244q42 12 99 12q75 0 132.5 -27.5t89.5 -79.5t32 -122t-31 -125t-88.5 -87t-134.5 -32z" />
    <glyph glyph-name="six.pnum" horiz-adv-x="586" 
d="M299 -16q-64 0 -115.5 29.5t-81.5 84.5t-30 126q0 82 34 174.5t98 183t150 163.5l72 -5q-100 -81 -173.5 -181t-105.5 -199q30 41 74.5 62.5t98.5 21.5q60 0 109 -28t78.5 -79t29.5 -117t-29.5 -119.5t-84 -85t-124.5 -31.5zM303 34q77 0 127 51t50 129q0 84 -47.5 132
t-129.5 48q-74 0 -124.5 -52t-50.5 -129q0 -80 48.5 -129.5t126.5 -49.5z" />
    <glyph glyph-name="seven.pnum" horiz-adv-x="561" 
d="M158 2l294 686h-386v56h446v-49l-292 -697z" />
    <glyph glyph-name="eight.pnum" horiz-adv-x="609" 
d="M305 -16q-70 0 -125 26t-86.5 74t-31.5 111q0 71 41 123.5t111 72.5q-61 19 -95.5 65.5t-34.5 110.5q0 55 27.5 98.5t78 69t116.5 25.5q62 0 112 -23.5t79.5 -67.5t29.5 -102q0 -64 -35 -110.5t-96 -65.5q70 -19 111.5 -72t41.5 -124q0 -61 -29.5 -108.5t-85 -75
t-129.5 -27.5zM305 35q83 0 135 45.5t52 119.5q0 73 -52 118.5t-135 45.5q-53 0 -95 -20t-66.5 -57.5t-24.5 -86.5q0 -74 51.5 -119.5t134.5 -45.5zM305 416q74 0 120.5 40.5t46.5 105.5q0 66 -46 107t-121 41q-74 0 -120 -41t-46 -107q0 -65 46.5 -105.5t119.5 -40.5z" />
    <glyph glyph-name="nine.pnum" horiz-adv-x="586" 
d="M171 4q100 81 173.5 181t104.5 198q-30 -40 -75 -61.5t-97 -21.5q-60 0 -109 28t-78.5 79t-29.5 117t29.5 119.5t84 85t124.5 31.5q64 0 115.5 -29.5t81.5 -84.5t30 -126q0 -82 -34 -174.5t-98 -183t-150 -163.5zM294 350q74 0 124.5 52t50.5 129q0 80 -48.5 129.5
t-126.5 49.5q-77 0 -127 -51t-50 -129q0 -84 47.5 -132t129.5 -48z" />
    <glyph glyph-name="zero.dnom" 
d="M189 -10q-45 0 -81 26t-57 74.5t-21 112.5q0 97 44 156t115 59q72 0 116 -59t44 -156q0 -95 -44.5 -154t-115.5 -59zM189 33q49 0 79 47t30 123q0 78 -30 125t-79 47t-78.5 -47t-29.5 -125q0 -77 29.5 -123.5t78.5 -46.5z" />
    <glyph glyph-name="one.dnom" 
d="M203 356l-124 -57l-8 45l138 64h43v-408h-49v356z" />
    <glyph glyph-name="two.dnom" 
d="M58 0v45q62 54 118 110q46 45 65 78t19 67q0 33 -22.5 53t-59.5 20q-61 0 -109 -51l-12 43q21 24 55.5 38.5t69.5 14.5q56 0 91.5 -31.5t35.5 -82.5q0 -43 -23.5 -85t-78.5 -95q-18 -18 -87 -79h204v-45h-266z" />
    <glyph glyph-name="three.dnom" 
d="M163 -10q-30 0 -60 7.5t-49 20.5l5 44q47 -30 104 -30q49 0 76.5 24t27.5 66q0 37 -26.5 58t-73.5 21q-22 0 -39 -6l-13 29l132 140h-183v44h238v-43l-116 -125q58 -2 93.5 -35t35.5 -84q0 -59 -41.5 -95t-110.5 -36z" />
    <glyph glyph-name="four.dnom" 
d="M238 104h-202v41l197 263h50v-263h56v-41h-56v-104h-45v104zM238 145v203l-153 -203h153z" />
    <glyph glyph-name="five.dnom" 
d="M175 -10q-31 0 -62 8t-49 21l5 44q49 -30 107 -30q49 0 75.5 24.5t26.5 68.5q0 40 -28.5 62.5t-79.5 22.5t-87 -14l7 211h212v-46h-170l-3 -114q25 5 46 5q69 0 110.5 -34t41.5 -92q0 -63 -41 -100t-111 -37z" />
    <glyph glyph-name="six.dnom" 
d="M187 -10q-61 0 -100 39.5t-39 100.5q0 70 45 147t118 133l60 -3q-53 -38 -96 -88.5t-65 -100.5q35 37 90 37q57 0 94.5 -36.5t37.5 -91.5q0 -61 -40.5 -99t-104.5 -38zM190 32q42 0 69 25.5t27 64.5q0 42 -26 67t-70 25q-42 0 -69.5 -25.5t-27.5 -63.5q0 -41 27 -67
t70 -26z" />
    <glyph glyph-name="seven.dnom" 
d="M98 1l171 360h-213v47h265v-44l-170 -366z" />
    <glyph glyph-name="eight.dnom" 
d="M192 -10q-64 0 -104.5 33.5t-40.5 86.5q0 35 22.5 64t60.5 42q-34 13 -52 37.5t-18 57.5q0 47 37 77t95 30q56 0 92.5 -30t36.5 -77q0 -33 -18 -57.5t-50 -37.5q37 -13 58.5 -41.5t21.5 -64.5q0 -53 -39 -86.5t-102 -33.5zM192 31q42 0 67.5 22t25.5 58q0 37 -26 60.5
t-67 23.5q-42 0 -69 -23.5t-27 -60.5q0 -36 26.5 -58t69.5 -22zM192 235q37 0 59.5 20.5t22.5 52.5t-22.5 51.5t-59.5 19.5q-38 0 -61.5 -19.5t-23.5 -51.5t23.5 -52.5t61.5 -20.5z" />
    <glyph glyph-name="nine.dnom" 
d="M109 1q52 37 96 88t65 100q-17 -17 -40 -26.5t-49 -9.5q-57 0 -95 36.5t-38 91.5q0 60 40.5 98.5t104.5 38.5q61 0 100 -39.5t39 -100.5q0 -71 -45 -148t-118 -132zM191 194q42 0 69 25.5t27 63.5q0 41 -27 67t-69 26t-69 -25.5t-27 -64.5q0 -42 26 -67t70 -25z" />
    <glyph glyph-name="zero.numr" 
d="M189 326q-45 0 -81 26t-57 74.5t-21 112.5q0 97 44 156t115 59q72 0 116 -59t44 -156q0 -95 -44.5 -154t-115.5 -59zM189 369q49 0 79 47t30 123q0 78 -30 125t-79 47t-78.5 -47t-29.5 -125q0 -77 29.5 -123.5t78.5 -46.5z" />
    <glyph glyph-name="one.numr" 
d="M203 692l-124 -57l-8 45l138 64h43v-408h-49v356z" />
    <glyph glyph-name="two.numr" 
d="M58 336v45q62 54 118 110q46 45 65 78t19 67q0 33 -22.5 53t-59.5 20q-61 0 -109 -51l-12 43q21 24 55.5 38.5t69.5 14.5q56 0 91.5 -31.5t35.5 -82.5q0 -43 -23.5 -85t-78.5 -95q-18 -18 -87 -79h204v-45h-266z" />
    <glyph glyph-name="three.numr" 
d="M163 326q-30 0 -60 7.5t-49 20.5l5 44q47 -30 104 -30q49 0 76.5 24t27.5 66q0 37 -26.5 58t-73.5 21q-22 0 -39 -6l-13 29l132 140h-183v44h238v-43l-116 -125q58 -2 93.5 -35t35.5 -84q0 -59 -41.5 -95t-110.5 -36z" />
    <glyph glyph-name="four.numr" 
d="M238 440h-202v41l197 263h50v-263h56v-41h-56v-104h-45v104zM238 481v203l-153 -203h153z" />
    <glyph glyph-name="five.numr" 
d="M175 326q-31 0 -62 8t-49 21l5 44q49 -30 107 -30q49 0 75.5 24.5t26.5 68.5q0 40 -28.5 62.5t-79.5 22.5t-87 -14l7 211h212v-46h-170l-3 -114q25 5 46 5q69 0 110.5 -34t41.5 -92q0 -63 -41 -100t-111 -37z" />
    <glyph glyph-name="six.numr" 
d="M187 326q-61 0 -100 39.5t-39 100.5q0 70 45 147t118 133l60 -3q-53 -38 -96 -88.5t-65 -100.5q35 37 90 37q57 0 94.5 -36.5t37.5 -91.5q0 -61 -40.5 -99t-104.5 -38zM190 368q42 0 69 25.5t27 64.5q0 42 -26 67t-70 25q-42 0 -69.5 -25.5t-27.5 -63.5q0 -41 27 -67
t70 -26z" />
    <glyph glyph-name="seven.numr" 
d="M98 337l171 360h-213v47h265v-44l-170 -366z" />
    <glyph glyph-name="eight.numr" 
d="M192 326q-64 0 -104.5 33.5t-40.5 86.5q0 35 22.5 64t60.5 42q-34 13 -52 37.5t-18 57.5q0 47 37 77t95 30q56 0 92.5 -30t36.5 -77q0 -33 -18 -57.5t-50 -37.5q37 -13 58.5 -41.5t21.5 -64.5q0 -53 -39 -86.5t-102 -33.5zM192 367q42 0 67.5 22t25.5 58q0 37 -26 60.5
t-67 23.5q-42 0 -69 -23.5t-27 -60.5q0 -36 26.5 -58t69.5 -22zM192 571q37 0 59.5 20.5t22.5 52.5t-22.5 51.5t-59.5 19.5q-38 0 -61.5 -19.5t-23.5 -51.5t23.5 -52.5t61.5 -20.5z" />
    <glyph glyph-name="nine.numr" 
d="M109 337q52 37 96 88t65 100q-17 -17 -40 -26.5t-49 -9.5q-57 0 -95 36.5t-38 91.5q0 60 40.5 98.5t104.5 38.5q61 0 100 -39.5t39 -100.5q0 -71 -45 -148t-118 -132zM191 530q42 0 69 25.5t27 63.5q0 41 -27 67t-69 26t-69 -25.5t-27 -64.5q0 -42 26 -67t70 -25z" />
    <glyph glyph-name="hyphen.case" horiz-adv-x="441" 
d="M78 405h285v-57h-285v57z" />
    <glyph glyph-name="endash.case" horiz-adv-x="500" 
d="M0 408h500v-53h-500v53z" />
    <glyph glyph-name="emdash.case" horiz-adv-x="1000" 
d="M0 408h1000v-53h-1000v53z" />
    <glyph glyph-name="parenleft.case" horiz-adv-x="383" 
d="M272 -61q-84 81 -133.5 210t-49.5 266q0 138 49.5 267.5t133.5 209.5h67q-92 -91 -142.5 -215.5t-50.5 -261.5t50.5 -261t142.5 -215h-67z" />
    <glyph glyph-name="parenright.case" horiz-adv-x="383" 
d="M44 -61q92 91 142.5 215.5t50.5 261.5t-50.5 261t-142.5 215h67q84 -81 133.5 -210t49.5 -266q0 -138 -49.5 -267.5t-133.5 -209.5h-67z" />
    <glyph glyph-name="slash.case" horiz-adv-x="505" 
d="M429 851h61l-413 -943h-61z" />
    <glyph glyph-name="backslash.case" horiz-adv-x="505" 
d="M15 851h62l412 -943h-61z" />
    <glyph glyph-name="bracketleft.case" horiz-adv-x="374" 
d="M108 892h225v-49h-170v-855h170v-49h-225v953z" />
    <glyph glyph-name="bracketright.case" horiz-adv-x="374" 
d="M41 -12h170v855h-170v49h225v-953h-225v49z" />
    <glyph glyph-name="braceleft.case" horiz-adv-x="423" 
d="M314 -68q-82 0 -120.5 33.5t-38.5 105.5q1 35 9 74t16.5 78.5t9.5 76.5q0 48 -25.5 68.5t-83.5 20.5h-22v53h22q59 0 84 20.5t25 67.5q-1 37 -9 76.5t-16.5 78.5t-9.5 74q0 72 38.5 105.5t120.5 33.5q16 0 46 -2v-46q-8 1 -47 1q-55 0 -79.5 -21.5t-24.5 -68.5
q0 -23 5.5 -51t12 -59t12 -61t5.5 -57q0 -46 -21.5 -76.5t-62.5 -41.5q41 -11 62.5 -41t21.5 -77q0 -26 -5.5 -56.5t-12 -61t-12 -59t-5.5 -51.5q0 -47 24.5 -68.5t79.5 -21.5q39 0 47 1v-46q-30 -2 -46 -2z" />
    <glyph glyph-name="braceright.case" horiz-adv-x="423" 
d="M109 -68q-16 0 -46 2v46q8 -1 47 -1q55 0 79.5 21.5t24.5 68.5q0 23 -5.5 51t-12 59t-12 61t-5.5 57q0 46 21.5 76.5t62.5 41.5q-41 11 -62.5 41t-21.5 77q0 26 5.5 56.5t12 61t12 59t5.5 51.5q0 47 -24.5 68.5t-79.5 21.5q-39 0 -47 -1v46q30 2 46 2q82 0 120.5 -33.5
t38.5 -105.5q-1 -35 -9 -74t-16.5 -78.5t-9.5 -76.5q0 -48 25.5 -68.5t83.5 -20.5h22v-53h-22q-59 0 -84 -20.5t-25 -67.5q1 -37 9.5 -76.5t16.5 -78.5t9 -74q0 -72 -38.5 -105.5t-120.5 -33.5z" />
    <glyph glyph-name="bullet.case" horiz-adv-x="339" 
d="M170 217q-46 0 -78.5 32.5t-32.5 78.5t32.5 78.5t78.5 32.5t78.5 -32.5t32.5 -78.5t-32.5 -78.5t-78.5 -32.5z" />
    <glyph glyph-name="guilsinglleft.case" horiz-adv-x="287" 
d="M35 380l141 208h66l-141 -208l141 -208h-66z" />
    <glyph glyph-name="guilsinglright.case" horiz-adv-x="287" 
d="M186 380l-141 208h66l141 -208l-141 -208h-66z" />
    <glyph glyph-name="guillemotleft.case" horiz-adv-x="471" 
d="M35 380l141 208h66l-141 -208l141 -208h-66zM219 380l141 208h66l-141 -208l141 -208h-66z" />
    <glyph glyph-name="guillemotright.case" horiz-adv-x="471" 
d="M186 380l-141 208h66l141 -208l-141 -208h-66zM370 380l-141 208h66l141 -208l-141 -208h-66z" />
    <glyph glyph-name="at.case" horiz-adv-x="983" 
d="M477 -73q-125 0 -220.5 49t-149.5 141t-54 217t61.5 232.5t172.5 174t247 66.5q115 0 205 -46.5t142 -132.5t52 -201q0 -78 -25.5 -141.5t-73 -101.5t-108.5 -38q-99 0 -116 86q-28 -41 -70 -63t-93 -22q-76 0 -125 54.5t-49 139.5q0 63 27.5 118t77 89t110.5 34
q57 0 98 -29t58 -81l21 94h48l-51 -263q-5 -24 -5 -43q0 -70 71 -70q42 0 77 29.5t56 82.5t21 120q0 100 -42 176t-121 119t-187 43q-115 0 -212 -54t-156.5 -151.5t-59.5 -219.5q0 -108 45 -189t129.5 -126.5t199.5 -45.5q110 0 212 47l4 -48q-98 -46 -217 -46zM460 194
q71 0 118.5 54t47.5 135q0 71 -36 111.5t-99 40.5q-45 0 -83 -24t-61 -68t-23 -98q0 -70 36.5 -110.5t99.5 -40.5z" />
    <glyph glyph-name="periodcentered.case" horiz-adv-x="290" 
d="M145 351q-19 0 -33 14t-14 33q0 20 13.5 33.5t33.5 13.5t33.5 -13.5t13.5 -33.5q0 -19 -13.5 -33t-33.5 -14z" />
    <glyph glyph-name="a.ss03" horiz-adv-x="558" 
d="M232 -16q-78 0 -127 42t-49 109q0 76 54 120t147 44q40 0 80.5 -8.5t71.5 -22.5v20q0 82 -40.5 124t-119.5 42q-88 0 -159 -54l-7 50q31 25 77.5 40t94.5 15q100 0 155 -55t55 -154v-296h-54l-1 80q-25 -46 -71.5 -71t-106.5 -25zM240 34q47 0 85.5 23t61 65.5t22.5 97.5
q-64 30 -148 30q-70 0 -109.5 -29t-39.5 -82q0 -48 34.5 -76.5t93.5 -28.5z" />
    <glyph glyph-name="g.ss03" horiz-adv-x="568" 
d="M277 -255q-110 0 -171 38.5t-61 107.5q0 47 26 81t73 49q-34 7 -53.5 29t-19.5 52q0 29 19 53.5t55 41.5q-35 23 -53 57.5t-18 78.5q0 77 56 124.5t147 47.5q27 0 56 -6.5t48 -16.5l157 8v-51l-107 4q49 -45 49 -110q0 -78 -55.5 -125t-147.5 -47q-53 0 -95 17
q-27 -13 -41 -30t-14 -36q0 -31 25.5 -44t89.5 -13h50q222 0 222 -148q0 -76 -63 -119t-174 -43zM283 -207q82 0 127.5 29t45.5 82q0 54 -40 78t-128 24h-25q-79 0 -120.5 -27.5t-41.5 -80.5q0 -51 47 -78t135 -27zM277 210q68 0 107 33t39 90q0 56 -39.5 89.5t-106.5 33.5
t-106.5 -33t-39.5 -90q0 -56 39.5 -89.5t106.5 -33.5z" />
    <glyph glyph-name="j.ss01" horiz-adv-x="250" 
d="M96 489h58v-734h-58v734zM125 639q-19 0 -31.5 12.5t-12.5 31.5t12.5 31t31.5 12t31 -12t12 -31t-12 -31.5t-31 -12.5z" />
    <glyph glyph-name="M.ss01" horiz-adv-x="1028" 
d="M122 760h63l330 -569l328 569h63v-760h-62v654l-304 -525h-52l-304 518v-647h-62v760z" />
    <glyph glyph-name="t.ss01" horiz-adv-x="355" 
d="M133 438h-115v51h115v155h58v-155h140v-51h-140v-438h-58v438z" />
    <glyph glyph-name="u.ss01" horiz-adv-x="598" 
d="M299 -16q-99 0 -152.5 55t-53.5 155v295h58v-295q0 -78 37.5 -118t110.5 -40t110.5 40t37.5 118v295h58v-295q0 -100 -53.5 -155t-152.5 -55z" />
    <glyph glyph-name="y.ss03" horiz-adv-x="541" 
d="M79 -255q-18 0 -36 4.5t-29 12.5l8 52q10 -7 25.5 -11.5t30.5 -4.5q33 0 57.5 17.5t47 55.5t47.5 101l14 36l-217 481h63l185 -420l168 420h64l-220 -524q-36 -85 -67 -133t-63.5 -67.5t-77.5 -19.5z" />
    <glyph glyph-name="glyph274" horiz-adv-x="290" 
d="M145 332q-19 0 -33 14t-14 33q0 20 13.5 33.5t33.5 13.5t33.5 -13.5t13.5 -33.5q0 -19 -13.5 -33t-33.5 -14z" />
    <glyph glyph-name="glyph275" horiz-adv-x="290" 
d="M145 361q-20 0 -33.5 13.5t-13.5 32.5q0 21 13.5 34t33.5 13t33.5 -13.5t13.5 -33.5q0 -19 -13.5 -32.5t-33.5 -13.5z" />
    <glyph glyph-name="uni0237.ss01" horiz-adv-x="250" 
d="M96 489h58v-734h-58v734z" />
    <glyph glyph-name="ij.ss01" horiz-adv-x="499" 
d="M96 489h58v-489h-58v489zM125 639q-19 0 -31.5 12.5t-12.5 31.5t12.5 31t31.5 12t31 -12t12 -31t-12 -31.5t-31 -12.5zM345 489h58v-734h-58v734zM374 639q-19 0 -31.5 12.5t-12.5 31.5t12.5 31t31.5 12t31 -12t12 -31t-12 -31.5t-31 -12.5z" />
    <glyph glyph-name="ae.ss03" horiz-adv-x="915" 
d="M229 -16q-78 0 -127 42t-49 109q0 76 54 120t147 44q40 0 80.5 -8.5t71.5 -22.5v20q0 82 -40.5 124t-119.5 42q-88 0 -159 -54l-7 50q31 25 77.5 40t94.5 15q74 0 122.5 -34.5t65.5 -99.5q25 62 78.5 98t120.5 36q62 0 111 -29t77 -82.5t28 -124.5q0 -14 -3 -41h-395
q4 -89 60.5 -140.5t152.5 -51.5q93 0 166 41l8 -50q-31 -20 -78.5 -31.5t-98.5 -11.5q-85 0 -147.5 35.5t-90.5 99.5q-23 -63 -76 -99t-124 -36zM237 34q75 0 122 51.5t47 134.5q-63 30 -148 30q-70 0 -109.5 -29t-39.5 -82q0 -48 34.5 -76.5t93.5 -28.5zM799 278
q-2 81 -46 128.5t-117 47.5q-71 0 -119.5 -48t-58.5 -128h341z" />
    <glyph glyph-name="glyph306" horiz-adv-x="0" 
d="M-15 -255q-22 0 -45.5 5.5t-38.5 13.5l10 43q33 -18 74 -18q32 0 50.5 14t18.5 38q0 23 -16.5 36t-47.5 13q-30 0 -43 -4l33 124h43l-22 -82h5q44 0 71.5 -24t27.5 -62q0 -44 -32.5 -70.5t-87.5 -26.5z" />
    <glyph glyph-name="glyph309" horiz-adv-x="0" 
d="M-74 -245q42 76 47 180h57q-4 -48 -20.5 -98t-38.5 -82h-45z" />
    <glyph glyph-name="glyph312" horiz-adv-x="0" 
d="M-27 -252q-45 0 -72 25t-27 65q0 46 35 92.5t102 89.5l30 -20q-115 -80 -115 -151q0 -26 14.5 -40t40.5 -14q31 0 64 18l7 -44q-15 -10 -36.5 -15.5t-42.5 -5.5z" />
    <glyph glyph-name="glyph313" horiz-adv-x="0" 
d="M5 -252q-45 0 -72 25t-27 65q0 50 42 100.5t111 82.5l44 1q-145 -94 -145 -173q0 -26 14.5 -40t41.5 -14q30 0 63 18l7 -44q-15 -10 -36.5 -15.5t-42.5 -5.5z" />
    <glyph glyph-name="glyph314" horiz-adv-x="0" 
d="M5 -252q-46 0 -72.5 24.5t-26.5 65.5q0 50 42.5 101t110.5 84l44 -1q-145 -94 -145 -173q0 -54 56 -54q33 0 63 18l7 -44q-14 -10 -35.5 -15.5t-43.5 -5.5z" />
    <glyph glyph-name="uni0163.ss01" horiz-adv-x="355" 
d="M133 438h-115v51h115v155h58v-155h140v-51h-140v-438h-58v438zM148 -255q-22 0 -45.5 5.5t-38.5 13.5l10 42q15 -8 35 -12.5t39 -4.5q33 0 52 14t19 38q0 23 -17.5 36.5t-48.5 13.5q-27 0 -42 -4l32 123h42l-21 -82h5q44 0 71.5 -24t27.5 -62q0 -44 -32.5 -70.5
t-87.5 -26.5z" />
    <glyph glyph-name="uni0123.ss03" horiz-adv-x="568" 
d="M277 -255q-110 0 -171 38.5t-61 107.5q0 47 26 81t73 49q-34 7 -53.5 29t-19.5 52q0 29 19 53.5t55 41.5q-35 23 -53 57.5t-18 78.5q0 77 56 124.5t147 47.5q27 0 56 -6.5t48 -16.5l157 8v-51l-107 4q49 -45 49 -110q0 -78 -55.5 -125t-147.5 -47q-53 0 -95 17
q-27 -13 -41 -30t-14 -36q0 -31 25.5 -44t89.5 -13h50q222 0 222 -148q0 -76 -63 -119t-174 -43zM283 -207q82 0 127.5 29t45.5 82q0 54 -40 78t-128 24h-25q-79 0 -120.5 -27.5t-41.5 -80.5q0 -51 47 -78t135 -27zM277 210q68 0 107 33t39 90q0 56 -39.5 89.5t-106.5 33.5
t-106.5 -33t-39.5 -90q0 -56 39.5 -89.5t106.5 -33.5zM255 610q2 43 17 86t40 77h45q-40 -69 -44 -163h-58z" />
    <glyph glyph-name="uni021B.ss01" horiz-adv-x="355" 
d="M133 438h-115v51h115v155h58v-155h140v-51h-140v-438h-58v438zM91 -245q42 78 47 180h57q-4 -47 -20.5 -97t-39.5 -83h-44z" />
    <glyph glyph-name="aogonek.ss03" horiz-adv-x="558" 
d="M232 -16q-78 0 -127 42t-49 109q0 76 54 120t147 44q40 0 80.5 -8.5t71.5 -22.5v20q0 82 -40.5 124t-119.5 42q-88 0 -159 -54l-7 50q31 25 77.5 40t94.5 15q100 0 155 -55t55 -154v-296h-54l-1 80q-25 -46 -71.5 -71t-106.5 -25zM240 34q47 0 85.5 23t61 65.5t22.5 97.5
q-64 30 -148 30q-70 0 -109.5 -29t-39.5 -82q0 -48 34.5 -76.5t93.5 -28.5zM398 -252q-45 0 -72 25t-27 65q0 93 136 182l30 -20q-114 -79 -114 -151q0 -26 14.5 -40t40.5 -14q31 0 64 18l7 -44q-15 -10 -36.5 -15.5t-42.5 -5.5z" />
    <glyph glyph-name="uogonek.ss01" horiz-adv-x="598" 
d="M299 -16q-99 0 -152.5 55t-53.5 155v295h58v-295q0 -78 37.5 -118t110.5 -40t110.5 40t37.5 118v295h58v-295q0 -100 -53.5 -155t-152.5 -55zM333 -252q-45 0 -72 25t-27 65q0 50 42 100.5t111 82.5l44 1q-145 -94 -145 -173q0 -26 14.5 -40t41.5 -14q30 0 63 18l7 -44
q-15 -10 -36.5 -15.5t-42.5 -5.5z" />
    <glyph glyph-name="glyph348" horiz-adv-x="0" 
d="M67 964h79l-149 -129h-66z" />
    <glyph glyph-name="glyph351" horiz-adv-x="0" 
d="M-20 964h70l-120 -129h-57zM132 964h70l-120 -129h-58z" />
    <glyph glyph-name="aacute.ss03" horiz-adv-x="558" 
d="M232 -16q-78 0 -127 42t-49 109q0 76 54 120t147 44q40 0 80.5 -8.5t71.5 -22.5v20q0 82 -40.5 124t-119.5 42q-88 0 -159 -54l-7 50q31 25 77.5 40t94.5 15q100 0 155 -55t55 -154v-296h-54l-1 80q-25 -46 -71.5 -71t-106.5 -25zM240 34q47 0 85.5 23t61 65.5t22.5 97.5
q-64 30 -148 30q-70 0 -109.5 -29t-39.5 -82q0 -48 34.5 -76.5t93.5 -28.5zM310 773h70l-136 -174h-57z" />
    <glyph glyph-name="uacute.ss01" horiz-adv-x="598" 
d="M299 -16q-99 0 -152.5 55t-53.5 155v295h58v-295q0 -78 37.5 -118t110.5 -40t110.5 40t37.5 118v295h58v-295q0 -100 -53.5 -155t-152.5 -55zM350 773h70l-136 -174h-57z" />
    <glyph glyph-name="yacute.ss03" horiz-adv-x="541" 
d="M79 -255q-18 0 -36 4.5t-29 12.5l8 52q10 -7 25.5 -11.5t30.5 -4.5q33 0 57.5 17.5t47 55.5t47.5 101l14 36l-217 481h63l185 -420l168 420h64l-220 -524q-36 -85 -67 -133t-63.5 -67.5t-77.5 -19.5zM321 773h70l-136 -174h-57z" />
    <glyph glyph-name="uhungarumlaut.ss01" horiz-adv-x="598" 
d="M299 -16q-99 0 -152.5 55t-53.5 155v295h58v-295q0 -78 37.5 -118t110.5 -40t110.5 40t37.5 118v295h58v-295q0 -100 -53.5 -155t-152.5 -55zM284 773h66l-130 -176h-54zM439 773h66l-130 -176h-54z" />
    <glyph glyph-name="glyph388" horiz-adv-x="0" 
d="M-146 964h79l136 -129h-65z" />
    <glyph glyph-name="agrave.ss03" horiz-adv-x="558" 
d="M232 -16q-78 0 -127 42t-49 109q0 76 54 120t147 44q40 0 80.5 -8.5t71.5 -22.5v20q0 82 -40.5 124t-119.5 42q-88 0 -159 -54l-7 50q31 25 77.5 40t94.5 15q100 0 155 -55t55 -154v-296h-54l-1 80q-25 -46 -71.5 -71t-106.5 -25zM240 34q47 0 85.5 23t61 65.5t22.5 97.5
q-64 30 -148 30q-70 0 -109.5 -29t-39.5 -82q0 -48 34.5 -76.5t93.5 -28.5zM140 773h69l123 -174h-57z" />
    <glyph glyph-name="ugrave.ss01" horiz-adv-x="598" 
d="M299 -16q-99 0 -152.5 55t-53.5 155v295h58v-295q0 -78 37.5 -118t110.5 -40t110.5 40t37.5 118v295h58v-295q0 -100 -53.5 -155t-152.5 -55zM180 773h69l123 -174h-57z" />
    <glyph glyph-name="ygrave.ss03" horiz-adv-x="541" 
d="M79 -255q-18 0 -36 4.5t-29 12.5l8 52q10 -7 25.5 -11.5t30.5 -4.5q33 0 57.5 17.5t47 55.5t47.5 101l14 36l-217 481h63l185 -420l168 420h64l-220 -524q-36 -85 -67 -133t-63.5 -67.5t-77.5 -19.5zM151 773h69l123 -174h-57z" />
    <glyph glyph-name="glyph409" horiz-adv-x="0" 
d="M-26 977h53l143 -142h-65l-105 103l-104 -103h-66z" />
    <glyph glyph-name="glyph412" horiz-adv-x="0" 
d="M70 834q-25 1 -44 12.5t-34.5 26.5t-30 26.5t-30.5 12.5q-47 0 -47 -77h-45q0 61 23 93t67 32q26 -1 45 -12.5t34.5 -27t29.5 -27t30 -12.5q48 0 48 78h45q0 -60 -23.5 -92.5t-67.5 -32.5z" />
    <glyph glyph-name="acircumflex.ss03" horiz-adv-x="558" 
d="M232 -16q-78 0 -127 42t-49 109q0 76 54 120t147 44q40 0 80.5 -8.5t71.5 -22.5v20q0 82 -40.5 124t-119.5 42q-88 0 -159 -54l-7 50q31 25 77.5 40t94.5 15q100 0 155 -55t55 -154v-296h-54l-1 80q-25 -46 -71.5 -71t-106.5 -25zM240 34q47 0 85.5 23t61 65.5t22.5 97.5
q-64 30 -148 30q-70 0 -109.5 -29t-39.5 -82q0 -48 34.5 -76.5t93.5 -28.5zM235 773h47l146 -174h-60l-109 131l-108 -131h-60z" />
    <glyph glyph-name="ucircumflex.ss01" horiz-adv-x="598" 
d="M299 -16q-99 0 -152.5 55t-53.5 155v295h58v-295q0 -78 37.5 -118t110.5 -40t110.5 40t37.5 118v295h58v-295q0 -100 -53.5 -155t-152.5 -55zM275 773h47l146 -174h-60l-109 131l-108 -131h-60z" />
    <glyph glyph-name="ycircumflex.ss03" horiz-adv-x="541" 
d="M79 -255q-18 0 -36 4.5t-29 12.5l8 52q10 -7 25.5 -11.5t30.5 -4.5q33 0 57.5 17.5t47 55.5t47.5 101l14 36l-217 481h63l185 -420l168 420h64l-220 -524q-36 -85 -67 -133t-63.5 -67.5t-77.5 -19.5zM246 773h47l146 -174h-60l-109 131l-108 -131h-60z" />
    <glyph glyph-name="atilde.ss03" horiz-adv-x="558" 
d="M232 -16q-78 0 -127 42t-49 109q0 76 54 120t147 44q40 0 80.5 -8.5t71.5 -22.5v20q0 82 -40.5 124t-119.5 42q-88 0 -159 -54l-7 50q31 25 77.5 40t94.5 15q100 0 155 -55t55 -154v-296h-54l-1 80q-25 -46 -71.5 -71t-106.5 -25zM240 34q47 0 85.5 23t61 65.5t22.5 97.5
q-64 30 -148 30q-70 0 -109.5 -29t-39.5 -82q0 -48 34.5 -76.5t93.5 -28.5zM329 621q-25 1 -44 12.5t-34.5 26.5t-30 26.5t-30.5 12.5q-47 0 -47 -77h-45q0 61 23 93t67 32q26 -1 45 -12.5t34.5 -27t29.5 -27t30 -12.5q48 0 48 78h45q0 -60 -23.5 -92.5t-67.5 -32.5z" />
    <glyph glyph-name="utilde.ss01" horiz-adv-x="598" 
d="M299 -16q-99 0 -152.5 55t-53.5 155v295h58v-295q0 -78 37.5 -118t110.5 -40t110.5 40t37.5 118v295h58v-295q0 -100 -53.5 -155t-152.5 -55zM369 621q-25 1 -44 12.5t-34.5 26.5t-30 26.5t-30.5 12.5q-47 0 -47 -77h-45q0 61 23 93t67 32q26 -1 45 -12.5t34.5 -27
t29.5 -27t30 -12.5q48 0 48 78h45q0 -60 -23.5 -92.5t-67.5 -32.5z" />
    <glyph glyph-name="glyph444" horiz-adv-x="0" 
d="M-170 977h65l105 -104l104 104h66l-144 -142h-53z" />
    <glyph glyph-name="glyph447" horiz-adv-x="0" 
d="M-23 810h58l-30 -205h-40z" />
    <glyph glyph-name="glyph449" horiz-adv-x="0" 
d="M-147 916h294v-51h-294v51z" />
    <glyph glyph-name="tcaron.ss01" horiz-adv-x="355" 
d="M133 438h-115v51h115v155h58v-155h140v-51h-140v-438h-58v438zM276 810h58l-30 -205h-40z" />
    <glyph glyph-name="amacron.ss03" horiz-adv-x="558" 
d="M232 -16q-78 0 -127 42t-49 109q0 76 54 120t147 44q40 0 80.5 -8.5t71.5 -22.5v20q0 82 -40.5 124t-119.5 42q-88 0 -159 -54l-7 50q31 25 77.5 40t94.5 15q100 0 155 -55t55 -154v-296h-54l-1 80q-25 -46 -71.5 -71t-106.5 -25zM240 34q47 0 85.5 23t61 65.5t22.5 97.5
q-64 30 -148 30q-70 0 -109.5 -29t-39.5 -82q0 -48 34.5 -76.5t93.5 -28.5zM112 704h294v-51h-294v51z" />
    <glyph glyph-name="umacron.ss01" horiz-adv-x="598" 
d="M299 -16q-99 0 -152.5 55t-53.5 155v295h58v-295q0 -78 37.5 -118t110.5 -40t110.5 40t37.5 118v295h58v-295q0 -100 -53.5 -155t-152.5 -55zM152 704h294v-51h-294v51z" />
    <glyph glyph-name="glyph484" horiz-adv-x="0" 
d="M-94 847q-18 0 -29.5 12t-11.5 30t11.5 29.5t29.5 11.5q17 0 29 -11.5t12 -29.5t-12 -30t-29 -12zM94 847q-18 0 -29.5 12t-11.5 30t11.5 29.5t29.5 11.5t29.5 -11.5t11.5 -29.5t-12 -30t-29 -12z" />
    <glyph glyph-name="glyph487" horiz-adv-x="0" 
d="M0 825q-66 0 -106.5 35t-40.5 93q0 10 1 14h47q0 -48 25 -73t74 -25q99 0 99 98h47q1 -4 1 -14q0 -58 -40 -93t-107 -35z" />
    <glyph glyph-name="adieresis.ss03" horiz-adv-x="558" 
d="M232 -16q-78 0 -127 42t-49 109q0 76 54 120t147 44q40 0 80.5 -8.5t71.5 -22.5v20q0 82 -40.5 124t-119.5 42q-88 0 -159 -54l-7 50q31 25 77.5 40t94.5 15q100 0 155 -55t55 -154v-296h-54l-1 80q-25 -46 -71.5 -71t-106.5 -25zM240 34q47 0 85.5 23t61 65.5t22.5 97.5
q-64 30 -148 30q-70 0 -109.5 -29t-39.5 -82q0 -48 34.5 -76.5t93.5 -28.5zM169 642q-18 0 -29 11.5t-11 29.5q0 19 11.5 30.5t28.5 11.5q18 0 30 -12t12 -30t-12 -29.5t-30 -11.5zM348 642q-18 0 -29.5 11.5t-11.5 29.5t11.5 30t29.5 12t29.5 -12t11.5 -30t-11.5 -29.5
t-29.5 -11.5z" />
    <glyph glyph-name="udieresis.ss01" horiz-adv-x="598" 
d="M299 -16q-99 0 -152.5 55t-53.5 155v295h58v-295q0 -78 37.5 -118t110.5 -40t110.5 40t37.5 118v295h58v-295q0 -100 -53.5 -155t-152.5 -55zM209 642q-18 0 -29 11.5t-11 29.5q0 19 11.5 30.5t28.5 11.5q18 0 30 -12t12 -30t-12 -29.5t-30 -11.5zM388 642
q-18 0 -29.5 11.5t-11.5 29.5t11.5 30t29.5 12t29.5 -12t11.5 -30t-11.5 -29.5t-29.5 -11.5z" />
    <glyph glyph-name="ydieresis.ss03" horiz-adv-x="541" 
d="M79 -255q-18 0 -36 4.5t-29 12.5l8 52q10 -7 25.5 -11.5t30.5 -4.5q33 0 57.5 17.5t47 55.5t47.5 101l14 36l-217 481h63l185 -420l168 420h64l-220 -524q-36 -85 -67 -133t-63.5 -67.5t-77.5 -19.5zM180 642q-18 0 -29 11.5t-11 29.5q0 19 11.5 30.5t28.5 11.5
q18 0 30 -12t12 -30t-12 -29.5t-30 -11.5zM359 642q-18 0 -29.5 11.5t-11.5 29.5t11.5 30t29.5 12t29.5 -12t11.5 -30t-11.5 -29.5t-29.5 -11.5z" />
    <glyph glyph-name="abreve.ss03" horiz-adv-x="558" 
d="M232 -16q-78 0 -127 42t-49 109q0 76 54 120t147 44q40 0 80.5 -8.5t71.5 -22.5v20q0 82 -40.5 124t-119.5 42q-88 0 -159 -54l-7 50q31 25 77.5 40t94.5 15q100 0 155 -55t55 -154v-296h-54l-1 80q-25 -46 -71.5 -71t-106.5 -25zM240 34q47 0 85.5 23t61 65.5t22.5 97.5
q-64 30 -148 30q-70 0 -109.5 -29t-39.5 -82q0 -48 34.5 -76.5t93.5 -28.5zM259 600q-65 0 -104.5 37.5t-39.5 99.5q0 10 1 14h45q0 -108 98 -108t98 108h45q1 -4 1 -14q0 -62 -39.5 -99.5t-104.5 -37.5z" />
    <glyph glyph-name="gbreve.ss03" horiz-adv-x="568" 
d="M277 -255q-110 0 -171 38.5t-61 107.5q0 47 26 81t73 49q-34 7 -53.5 29t-19.5 52q0 29 19 53.5t55 41.5q-35 23 -53 57.5t-18 78.5q0 77 56 124.5t147 47.5q27 0 56 -6.5t48 -16.5l157 8v-51l-107 4q49 -45 49 -110q0 -78 -55.5 -125t-147.5 -47q-53 0 -95 17
q-27 -13 -41 -30t-14 -36q0 -31 25.5 -44t89.5 -13h50q222 0 222 -148q0 -76 -63 -119t-174 -43zM283 -207q82 0 127.5 29t45.5 82q0 54 -40 78t-128 24h-25q-79 0 -120.5 -27.5t-41.5 -80.5q0 -51 47 -78t135 -27zM277 210q68 0 107 33t39 90q0 56 -39.5 89.5t-106.5 33.5
t-106.5 -33t-39.5 -90q0 -56 39.5 -89.5t106.5 -33.5zM289 600q-65 0 -104.5 37.5t-39.5 99.5q0 10 1 14h45q0 -108 98 -108t98 108h45q1 -4 1 -14q0 -62 -39.5 -99.5t-104.5 -37.5z" />
    <glyph glyph-name="glyph513" horiz-adv-x="0" 
d="M0 846q-20 0 -31.5 11.5t-11.5 31.5t12 32t31 12q20 0 32 -12t12 -32q0 -19 -12 -31t-32 -12z" />
    <glyph glyph-name="gdotaccent.ss03" horiz-adv-x="568" 
d="M277 -255q-110 0 -171 38.5t-61 107.5q0 47 26 81t73 49q-34 7 -53.5 29t-19.5 52q0 29 19 53.5t55 41.5q-35 23 -53 57.5t-18 78.5q0 77 56 124.5t147 47.5q27 0 56 -6.5t48 -16.5l157 8v-51l-107 4q49 -45 49 -110q0 -78 -55.5 -125t-147.5 -47q-53 0 -95 17
q-27 -13 -41 -30t-14 -36q0 -31 25.5 -44t89.5 -13h50q222 0 222 -148q0 -76 -63 -119t-174 -43zM283 -207q82 0 127.5 29t45.5 82q0 54 -40 78t-128 24h-25q-79 0 -120.5 -27.5t-41.5 -80.5q0 -51 47 -78t135 -27zM277 210q68 0 107 33t39 90q0 56 -39.5 89.5t-106.5 33.5
t-106.5 -33t-39.5 -90q0 -56 39.5 -89.5t106.5 -33.5zM289 639q-20 0 -31.5 12t-11.5 32q0 19 12 31t31 12q20 0 32 -12t12 -31t-12 -31.5t-32 -12.5z" />
    <glyph glyph-name="glyph526" horiz-adv-x="0" 
d="M0 818q-54 0 -90 34.5t-36 86.5q0 53 35.5 87t90.5 34t91 -34.5t36 -86.5t-36 -86.5t-91 -34.5zM0 858q37 0 60 22.5t23 58.5t-23 58.5t-60 22.5t-59.5 -22t-22.5 -59q0 -36 22.5 -58.5t59.5 -22.5z" />
    <glyph glyph-name="aring.ss03" horiz-adv-x="558" 
d="M232 -16q-78 0 -127 42t-49 109q0 76 54 120t147 44q40 0 80.5 -8.5t71.5 -22.5v20q0 82 -40.5 124t-119.5 42q-88 0 -159 -54l-7 50q31 25 77.5 40t94.5 15q100 0 155 -55t55 -154v-296h-54l-1 80q-25 -46 -71.5 -71t-106.5 -25zM240 34q47 0 85.5 23t61 65.5t22.5 97.5
q-64 30 -148 30q-70 0 -109.5 -29t-39.5 -82q0 -48 34.5 -76.5t93.5 -28.5zM259 588q-54 0 -90 34.5t-36 86.5q0 53 35.5 87t90.5 34t91 -34.5t36 -86.5t-36 -86.5t-91 -34.5zM259 628q37 0 60 22.5t23 58.5t-23 58.5t-60 22.5t-59.5 -22t-22.5 -59q0 -36 22.5 -58.5
t59.5 -22.5z" />
    <glyph glyph-name="uring.ss01" horiz-adv-x="598" 
d="M299 -16q-99 0 -152.5 55t-53.5 155v295h58v-295q0 -78 37.5 -118t110.5 -40t110.5 40t37.5 118v295h58v-295q0 -100 -53.5 -155t-152.5 -55zM299 588q-54 0 -90 34.5t-36 86.5q0 53 35.5 87t90.5 34t91 -34.5t36 -86.5t-36 -86.5t-91 -34.5zM299 628q37 0 60 22.5
t23 58.5t-23 58.5t-60 22.5t-59.5 -22t-22.5 -59q0 -36 22.5 -58.5t59.5 -22.5z" />
    </font>
</defs>
</svg>
