<?xml version="1.0" standalone="no"?>
<!DOCTYPE svg PUBLIC "-//W3C//DTD SVG 1.1//EN" "http://www.w3.org/Graphics/SVG/1.1/DTD/svg11.dtd" >
<svg xmlns="http://www.w3.org/2000/svg" xmlns:xlink="http://www.w3.org/1999/xlink" version="1.1">
<metadata>
Created by FontForge 20170731 at Sat Aug 22 20:17:49 2015
 By Aleksey,,,
Copyright 2015 Dalton Maag Ltd. Modification of this file requires prior written permission from Dalton Maag Ltd.
</metadata>
<defs>
<font id="ObjektivMk2W03-Bold" horiz-adv-x="386" >
  <font-face 
    font-family="ObjektivMk2W03-Bold"
    font-weight="700"
    font-stretch="normal"
    units-per-em="1000"
    panose-1="2 11 7 2 2 2 4 2 2 3"
    ascent="800"
    descent="-200"
    x-height="509"
    cap-height="760"
    bbox="-244 -290 1362 1083"
    underline-thickness="50"
    underline-position="-225"
    unicode-range="U+0008-FEFF"
  />
<missing-glyph horiz-adv-x="500" 
d="M50 750h400v-750h-400v750zM400 50v650h-300v-650h300z" />
    <glyph glyph-name=".notdef" horiz-adv-x="500" 
d="M50 750h400v-750h-400v750zM400 50v650h-300v-650h300z" />
    <glyph glyph-name=".null" horiz-adv-x="0" 
 />
    <glyph glyph-name="nonmarkingreturn" horiz-adv-x="333" 
 />
    <glyph glyph-name="uni0008" horiz-adv-x="0" 
 />
    <glyph glyph-name="uni0008" horiz-adv-x="0" 
 />
    <glyph glyph-name="uni0008" horiz-adv-x="0" 
 />
    <glyph glyph-name="uni0009" unicode="&#x9;" horiz-adv-x="220" 
 />
    <glyph glyph-name="uni0009" unicode="&#xd;" horiz-adv-x="220" 
 />
    <glyph glyph-name="space" unicode=" " horiz-adv-x="220" 
 />
    <glyph glyph-name="exclam" unicode="!" horiz-adv-x="351" 
d="M100 790h150l-12 -536h-125zM175 -6q-37 0 -61 23.5t-24 59.5q0 35 24 58t61 23t61.5 -22.5t24.5 -58.5t-24 -59.5t-62 -23.5z" />
    <glyph glyph-name="quotedbl" unicode="&#x22;" horiz-adv-x="426" 
d="M44 760h136l-14 -305h-109zM246 760h136l-14 -305h-109z" />
    <glyph glyph-name="numbersign" unicode="#" horiz-adv-x="689" 
d="M132 160h-91v93h111l37 171h-107v93h127l36 160h106l-34 -160h132l36 160h106l-35 -160h93v-93h-113l-38 -171h109v-93h-128l-36 -160h-110l36 160h-131l-34 -160h-107zM390 253l39 171h-133l-38 -171h132z" />
    <glyph glyph-name="dollar" unicode="$" horiz-adv-x="620" 
d="M268 -132v120q-131 5 -211 56l15 120q92 -59 196 -65v227q-109 40 -159 94t-50 132q0 82 56.5 137.5t152.5 66.5v122h75v-120q49 -4 96 -17.5t82 -34.5l-20 -113q-70 41 -158 50v-207q112 -40 164.5 -97.5t52.5 -139.5q0 -83 -59 -140t-158 -69v-122h-75zM343 104
q41 10 63.5 34.5t22.5 57.5q0 35 -19.5 59t-66.5 44v-195zM268 642q-39 -7 -61 -29t-22 -55q0 -35 19 -57t64 -40v181z" />
    <glyph glyph-name="percent" unicode="%" horiz-adv-x="978" 
d="M251 475q38 0 61.5 25.5t23.5 67.5q0 41 -23.5 67t-61.5 26t-61.5 -26t-23.5 -67q0 -42 23.5 -67.5t61.5 -25.5zM251 376q-54 0 -98.5 24t-71 68t-26.5 100q0 52 24.5 95.5t70 70t101.5 26.5q53 0 98 -24t71.5 -68.5t26.5 -99.5q0 -53 -24.5 -96.5t-69.5 -69.5t-102 -26z
M691 744h123l-530 -744h-123zM727 87q38 0 61.5 25.5t23.5 67.5q0 41 -23.5 67t-61.5 26t-61.5 -26t-23.5 -67q0 -42 23.5 -67.5t61.5 -25.5zM727 -12q-54 0 -98.5 24t-71 68t-26.5 100q0 52 24.5 95.5t70 70t101.5 26.5q53 0 98 -24t71.5 -68.5t26.5 -99.5
q0 -53 -24.5 -96.5t-69.5 -69.5t-102 -26z" />
    <glyph glyph-name="ampersand" unicode="&#x26;" horiz-adv-x="757" 
d="M313 -16q-78 0 -137.5 26t-93.5 74.5t-34 113.5q0 134 155 217q-43 52 -61 94t-18 89q0 79 58.5 129.5t150.5 50.5q91 0 149.5 -49.5t58.5 -126.5q0 -129 -154 -210l143 -164q37 69 42 166l122 -13q-8 -144 -83 -246l119 -135h-168l-41 47q-92 -63 -208 -63zM323 101
q70 0 122 33l-170 197q-87 -51 -87 -124q0 -47 38 -76.5t97 -29.5zM315 475q50 28 72 57.5t22 66.5q0 35 -21 56t-55 21q-35 0 -56 -21t-21 -56q0 -29 13.5 -57t45.5 -67z" />
    <glyph glyph-name="quotesingle" unicode="'" horiz-adv-x="224" 
d="M44 760h136l-14 -305h-109z" />
    <glyph glyph-name="parenleft" unicode="(" horiz-adv-x="427" 
d="M266 -133q-85 78 -136 208t-51 268q0 90 22.5 179.5t65 167.5t99.5 130h152q-100 -91 -154 -214t-54 -263t53.5 -263t154.5 -213h-152z" />
    <glyph glyph-name="parenright" unicode=")" horiz-adv-x="427" 
d="M9 -133q100 91 154 214t54 263t-53.5 263t-154.5 213h152q85 -78 136 -208t51 -268q0 -90 -22.5 -179.5t-65 -167.5t-99.5 -130h-152z" />
    <glyph glyph-name="asterisk" unicode="*" horiz-adv-x="474" 
d="M70 424l97 111l-138 36l40 107l125 -60l-15 142h116l-16 -142l126 60l39 -107l-137 -36l99 -111l-93 -64l-76 124l-74 -124z" />
    <glyph glyph-name="plus" unicode="+" horiz-adv-x="620" 
d="M248 277h-172v116h172v185h124v-185h173v-116h-173v-185h-124v185z" />
    <glyph glyph-name="comma" unicode="," horiz-adv-x="299" 
d="M0 -174q42 67 65.5 151.5t24.5 171.5h135q0 -57 -14 -118t-40.5 -115.5t-60.5 -89.5h-110z" />
    <glyph glyph-name="hyphen" unicode="-" horiz-adv-x="429" 
d="M61 348h307v-121h-307v121z" />
    <glyph glyph-name="period" unicode="." horiz-adv-x="299" 
d="M150 -6q-38 0 -62 23.5t-24 59.5t24.5 58.5t61.5 22.5t61 -23t24 -58q0 -36 -24 -59.5t-61 -23.5z" />
    <glyph glyph-name="slash" unicode="/" horiz-adv-x="550" 
d="M405 810h133l-393 -943h-134z" />
    <glyph glyph-name="zero" unicode="0" horiz-adv-x="620" 
d="M310 111q122 0 122 261t-122 261q-121 0 -121 -261t121 -261zM310 -16q-129 0 -201 102.5t-72 285.5t72 285.5t201 102.5t201.5 -103t72.5 -285t-72.5 -285t-201.5 -103z" />
    <glyph glyph-name="one" unicode="1" horiz-adv-x="620" 
d="M288 599l-193 -86l-23 123l245 108h112v-744h-141v599z" />
    <glyph glyph-name="two" unicode="2" horiz-adv-x="620" 
d="M62 0v110q121 109 193 192t99 132.5t27 97.5q0 49 -30 77.5t-80 28.5q-48 0 -94 -22.5t-84 -63.5l-25 121q41 41 101 64t125 23q107 0 170.5 -57t63.5 -153q0 -72 -36.5 -145.5t-116.5 -163.5q-34 -38 -115 -115h290v-126h-488z" />
    <glyph glyph-name="three" unicode="3" horiz-adv-x="620" 
d="M267 -16q-62 0 -116 13t-90 36l12 120q87 -49 187 -49q69 0 107.5 32t38.5 88q0 55 -37 86t-104 31q-27 0 -67 -8l-35 80l194 208h-283v123h454v-106l-185 -199q64 -5 111 -32.5t72.5 -74t25.5 -108.5q0 -111 -76.5 -175.5t-208.5 -64.5z" />
    <glyph glyph-name="four" unicode="4" horiz-adv-x="620" 
d="M364 167h-335v114l325 463h145v-461h91v-116h-91v-167h-135v167zM364 283v284l-200 -284h200z" />
    <glyph glyph-name="five" unicode="5" horiz-adv-x="620" 
d="M267 -16q-58 0 -116.5 13t-92.5 33l12 122q40 -23 89 -35.5t95 -12.5q73 0 114.5 34t41.5 95q0 56 -46.5 90t-123.5 34q-31 0 -73 -5.5t-78 -13.5l16 406h403v-124h-280l-6 -155q33 6 65 6q123 0 195.5 -64t72.5 -171q0 -115 -78 -183.5t-210 -68.5z" />
    <glyph glyph-name="six" unicode="6" horiz-adv-x="620" 
d="M314 -16q-122 0 -194 71t-72 191q0 121 75.5 257t201.5 243l172 -5q-189 -155 -265 -311q44 35 120 35q62 0 114 -29t83 -82t31 -121q0 -70 -32.5 -126.5t-93 -89.5t-140.5 -33zM314 101q54 0 89.5 35.5t35.5 91.5q0 57 -34.5 92.5t-90.5 35.5q-54 0 -90 -36t-36 -92
q0 -55 35.5 -91t90.5 -36z" />
    <glyph glyph-name="seven" unicode="7" horiz-adv-x="620" 
d="M136 3l270 609h-347v132h500v-118l-274 -628z" />
    <glyph glyph-name="eight" unicode="8" horiz-adv-x="620" 
d="M310 -16q-80 0 -141.5 26.5t-96 76t-34.5 116.5q0 64 32.5 114t87.5 72q-49 23 -75 66.5t-26 100.5q0 59 31 105t88.5 72.5t133.5 26.5q72 0 129.5 -25t90.5 -71.5t33 -107.5q0 -57 -26.5 -100.5t-75.5 -66.5q56 -22 88.5 -71.5t32.5 -114.5t-32.5 -114.5t-94.5 -77
t-145 -27.5zM310 101q59 0 93.5 30.5t34.5 82.5t-35 83t-93 31t-93 -31t-35 -83t34.5 -82.5t93.5 -30.5zM310 441q54 0 85.5 28t31.5 75t-32 75.5t-85 28.5t-85 -28.5t-32 -75.5t31.5 -75t85.5 -28z" />
    <glyph glyph-name="nine" unicode="9" horiz-adv-x="620" 
d="M123 3q190 157 264 310q-44 -34 -119 -34q-62 0 -114 29t-83 82t-31 121q0 70 32.5 126.5t93 89.5t140.5 33q122 0 194 -71t72 -191q0 -121 -75.5 -257t-201.5 -243zM306 388q54 0 90 36t36 92q0 55 -35.5 91t-90.5 36q-54 0 -89.5 -35.5t-35.5 -91.5q0 -57 34.5 -92.5
t90.5 -35.5z" />
    <glyph glyph-name="colon" unicode=":" horiz-adv-x="299" 
d="M150 -6q-38 0 -62 23.5t-24 59.5t24.5 58.5t61.5 22.5t61 -23t24 -58q0 -36 -24 -59.5t-61 -23.5zM150 350q-38 0 -62 23.5t-24 59.5t24.5 58.5t61.5 22.5t61 -23t24 -58q0 -36 -24 -59.5t-61 -23.5z" />
    <glyph glyph-name="semicolon" unicode=";" horiz-adv-x="299" 
d="M0 -174q42 67 65.5 151.5t24.5 171.5h135q0 -57 -14 -118t-40.5 -115.5t-60.5 -89.5h-110zM150 350q-38 0 -62 23.5t-24 59.5t24.5 58.5t61.5 22.5t61 -23t24 -58q0 -36 -24 -59.5t-61 -23.5z" />
    <glyph glyph-name="less" unicode="&#x3c;" horiz-adv-x="620" 
d="M85 275v128l450 183v-128l-301 -117l301 -118v-130z" />
    <glyph glyph-name="equal" unicode="=" horiz-adv-x="620" 
d="M94 508h433v-114h-433v114zM94 271h433v-114h-433v114z" />
    <glyph glyph-name="greater" unicode="&#x3e;" horiz-adv-x="620" 
d="M85 221l301 117l-301 118v130l450 -182v-128l-450 -183v128z" />
    <glyph glyph-name="question" unicode="?" horiz-adv-x="510" 
d="M165 254q-3 14 -3 31q0 45 12.5 78.5t31.5 58.5t40.5 45.5t40.5 39.5t31.5 39.5t12.5 46.5q0 39 -27.5 61.5t-76.5 22.5q-46 0 -93 -23t-82 -64l-33 115q37 44 99 69t133 25q66 0 117 -24t80.5 -68.5t29.5 -103.5q0 -43 -13.5 -75t-35 -57t-45.5 -47.5t-45.5 -46.5
t-35 -53.5t-13.5 -69.5h-125zM227 -6q-38 0 -62 23.5t-24 59.5t24.5 58.5t61.5 22.5t61 -23t24 -58q0 -36 -24 -59.5t-61 -23.5z" />
    <glyph glyph-name="at" unicode="@" horiz-adv-x="1025" 
d="M501 -230q-131 0 -233.5 50.5t-161 146t-58.5 223.5q0 133 65 244t183 178.5t266 67.5q120 0 214.5 -46.5t149 -133.5t54.5 -202q0 -85 -30 -153.5t-86.5 -109t-128.5 -40.5q-50 0 -85 17.5t-50 49.5q-22 -31 -60.5 -48.5t-84.5 -17.5q-79 0 -127.5 55.5t-48.5 145.5
q0 67 27.5 124t77.5 92t111 35q43 0 78 -17.5t55 -49.5l12 52h111l-43 -257q-3 -18 -3 -34q0 -54 47 -54q32 0 59 26t44 73t17 105q0 134 -85 212t-231 78q-111 0 -202 -48.5t-144.5 -137.5t-53.5 -204q0 -97 41.5 -169.5t120 -113t187.5 -40.5q121 0 229 48l9 -99
q-118 -48 -242 -48zM492 102q50 0 81.5 38t31.5 97q0 50 -24 77t-68 27q-50 0 -82 -37t-32 -96q0 -51 24 -78.5t69 -27.5z" />
    <glyph glyph-name="A" unicode="A" horiz-adv-x="812" 
d="M325 760h162l302 -760h-162l-72 200h-306l-73 -200h-153zM513 318l-112 306l-111 -306h223z" />
    <glyph glyph-name="B" unicode="B" horiz-adv-x="715" 
d="M91 760h283q120 0 184.5 -50.5t64.5 -143.5q0 -52 -25.5 -95t-69.5 -66q62 -17 98 -67t36 -118q0 -107 -69.5 -163.5t-200.5 -56.5h-301v760zM236 119h145q61 0 94 28.5t33 80.5q0 104 -135 104h-137v-213zM236 449h116q62 0 93 24t31 74q0 46 -30.5 70t-91.5 24h-118
v-192z" />
    <glyph glyph-name="C" unicode="C" horiz-adv-x="762" 
d="M454 -11q-118 0 -209 46.5t-143 134.5t-52 206q0 112 50.5 201.5t144.5 141.5t217 52q62 0 126.5 -16.5t110.5 -44.5l-25 -129q-109 54 -210 54q-74 0 -132 -31t-91 -89t-33 -136q0 -117 70 -185.5t189 -68.5q52 0 111 15t111 42l16 -132q-51 -29 -117 -45t-134 -16z" />
    <glyph glyph-name="D" unicode="D" horiz-adv-x="849" 
d="M91 760h291q198 0 307.5 -99.5t109.5 -279.5q0 -181 -112.5 -281t-315.5 -100h-280v760zM243 123h125q273 0 273 257t-272 257h-126v-514z" />
    <glyph glyph-name="E" unicode="E" horiz-adv-x="672" 
d="M91 760h502v-128h-354v-182h313v-127h-313v-195h368v-128h-516v760z" />
    <glyph glyph-name="F" unicode="F" horiz-adv-x="626" 
d="M91 760h489v-128h-338v-203h292v-127h-292v-302h-151v760z" />
    <glyph glyph-name="G" unicode="G" horiz-adv-x="824" 
d="M464 -11q-122 0 -215.5 46t-146 133t-52.5 204t52 207t149.5 141t227.5 51q69 0 137 -15.5t123 -44.5l-25 -132q-53 27 -115.5 41.5t-125.5 14.5q-78 0 -138.5 -31t-94.5 -89.5t-34 -136.5q0 -119 71.5 -187t195.5 -68q65 0 140 19v162h-152v122h294v-381
q-130 -56 -291 -56z" />
    <glyph glyph-name="H" unicode="H" horiz-adv-x="853" 
d="M91 760h153v-305h365v305h153v-760h-153v329h-365v-329h-153v760z" />
    <glyph glyph-name="I" unicode="I" horiz-adv-x="335" 
d="M91 760h153v-760h-153v760z" />
    <glyph glyph-name="J" unicode="J" horiz-adv-x="566" 
d="M218 -16q-51 0 -101 11.5t-82 31.5l15 124q65 -38 144 -38q71 0 102 38t31 126v483h153v-495q0 -142 -64.5 -211.5t-197.5 -69.5z" />
    <glyph glyph-name="K" unicode="K" horiz-adv-x="780" 
d="M91 760h152v-321l306 321h190l-356 -362l390 -398h-206l-324 339v-339h-152v760z" />
    <glyph glyph-name="L" unicode="L" horiz-adv-x="623" 
d="M91 760h153v-634h344v-126h-497v760z" />
    <glyph glyph-name="M" unicode="M" horiz-adv-x="1020" 
d="M116 760h141l256 -484l249 484h141l42 -760h-147l-20 526l-209 -399h-118l-209 388l-20 -515h-147z" />
    <glyph glyph-name="N" unicode="N" horiz-adv-x="861" 
d="M91 760h136l398 -528v528h145v-760h-136l-398 526v-526h-145v760z" />
    <glyph glyph-name="O" unicode="O" horiz-adv-x="903" 
d="M451 120q68 0 123.5 32t88 92t32.5 136q0 72 -30 131t-86 94t-128 35q-68 0 -123 -32t-87.5 -91.5t-32.5 -136.5q0 -72 30 -131t85.5 -94t127.5 -35zM451 -16q-110 0 -201 49.5t-145.5 140t-54.5 206.5q0 107 50.5 197t142.5 144.5t208 54.5q111 0 202 -49.5t145.5 -140
t54.5 -206.5q0 -107 -50.5 -197t-143 -144.5t-208.5 -54.5z" />
    <glyph glyph-name="P" unicode="P" horiz-adv-x="655" 
d="M91 760h248q83 0 146 -30t98.5 -86t35.5 -132q0 -115 -76.5 -183.5t-204.5 -68.5h-99v-260h-148v760zM239 383h79q75 0 114.5 33t39.5 95t-39 94t-115 32h-79v-254z" />
    <glyph glyph-name="Q" unicode="Q" horiz-adv-x="903" 
d="M626 -182l-141 168q-32 -2 -37 -2q-81 0 -152.5 27.5t-126.5 79.5t-87 126t-32 163q0 107 50.5 197t142.5 144.5t208 54.5q111 0 202 -49.5t145.5 -140t54.5 -206.5q0 -117 -60 -212.5t-164 -144.5l185 -205h-188zM451 120q68 0 123.5 32t88 92t32.5 136q0 72 -30 131
t-86 94t-128 35q-68 0 -123 -32t-87.5 -91.5t-32.5 -136.5q0 -72 30 -131t85.5 -94t127.5 -35z" />
    <glyph glyph-name="R" unicode="R" horiz-adv-x="720" 
d="M91 760h247q131 0 206 -64.5t75 -177.5q0 -67 -33 -120.5t-94 -86.5l203 -311h-172l-163 273q-17 -1 -28.5 -1.5t-21.5 -0.5h-73v-271h-146v760zM237 394h75q157 0 157 123q0 59 -38.5 89.5t-113.5 30.5h-80v-243z" />
    <glyph glyph-name="S" unicode="S" horiz-adv-x="662" 
d="M312 -16q-71 0 -143 17.5t-113 45.5l15 131q48 -31 112 -49t123 -18q69 0 106.5 25.5t37.5 71.5q0 39 -31.5 63t-119.5 52q-124 39 -177 93t-53 143q0 64 32.5 113t94.5 76.5t145 27.5q59 0 120 -15t107 -41l-21 -127q-43 25 -97.5 40.5t-103.5 15.5q-64 0 -96.5 -23
t-32.5 -66q0 -27 12.5 -44.5t41 -31.5t81.5 -31q136 -43 193 -98.5t57 -144.5q0 -105 -77.5 -165.5t-212.5 -60.5z" />
    <glyph glyph-name="T" unicode="T" horiz-adv-x="711" 
d="M279 634h-244v126h641v-126h-244v-634h-153v634z" />
    <glyph glyph-name="U" unicode="U" horiz-adv-x="845" 
d="M421 -16q-159 0 -247 88t-88 249v439h153v-427q0 -213 183 -213q184 0 184 213v427h153v-439q0 -161 -88 -249t-250 -88z" />
    <glyph glyph-name="V" unicode="V" horiz-adv-x="778" 
d="M20 760h169l203 -594l202 594h164l-289 -760h-161z" />
    <glyph glyph-name="W" unicode="W" horiz-adv-x="1124" 
d="M23 760h161l146 -567l166 557h133l166 -550l145 560h161l-229 -760h-145l-167 546l-164 -546h-146z" />
    <glyph glyph-name="X" unicode="X" horiz-adv-x="760" 
d="M291 395l-253 365h178l171 -261l166 261h175l-256 -367l273 -393h-181l-188 289l-186 -289h-175z" />
    <glyph glyph-name="Y" unicode="Y" horiz-adv-x="733" 
d="M290 317l-279 443h170l188 -324l189 324h164l-280 -443v-317h-152v317z" />
    <glyph glyph-name="Z" unicode="Z" horiz-adv-x="731" 
d="M53 110l419 525h-395v125h586v-110l-419 -525h426v-125h-617v110z" />
    <glyph glyph-name="bracketleft" unicode="[" horiz-adv-x="424" 
d="M106 820h279v-114h-150v-725h150v-114h-279v953z" />
    <glyph glyph-name="backslash" unicode="\" horiz-adv-x="550" 
d="M11 810h133l394 -943h-134z" />
    <glyph glyph-name="bracketright" unicode="]" horiz-adv-x="424" 
d="M39 -19h150v725h-150v114h279v-953h-279v114z" />
    <glyph glyph-name="asciicircum" unicode="^" horiz-adv-x="620" 
d="M250 705h118l206 -398h-137l-129 263l-129 -263h-133z" />
    <glyph glyph-name="underscore" unicode="_" horiz-adv-x="500" 
d="M0 -38h500v-108h-500v108z" />
    <glyph glyph-name="grave" unicode="`" horiz-adv-x="500" 
d="M120 777h154l106 -167h-119z" />
    <glyph glyph-name="a" unicode="a" horiz-adv-x="659" 
d="M281 -16q-67 0 -120.5 33t-84.5 94.5t-31 141.5q0 74 30.5 135.5t86.5 99t126 37.5q52 0 94.5 -21.5t67.5 -60.5l2 66h133v-509h-133l-2 65q-26 -40 -69 -60.5t-100 -20.5zM319 108q59 0 97 41t38 106q0 64 -37.5 105t-97.5 41t-97.5 -41t-37.5 -105q0 -65 38 -106
t97 -41z" />
    <glyph glyph-name="b" unicode="b" horiz-adv-x="659" 
d="M371 -16q-53 0 -95.5 21.5t-66.5 60.5l-2 -66h-133v810h139v-361q55 76 165 76q67 0 120.5 -33t84.5 -94.5t31 -141.5q0 -74 -30.5 -135.5t-86.5 -99t-126 -37.5zM340 108q60 0 97.5 41t37.5 105q0 65 -38 106t-97 41t-97 -41t-38 -106q0 -64 37.5 -105t97.5 -41z" />
    <glyph glyph-name="c" unicode="c" horiz-adv-x="541" 
d="M325 -13q-83 0 -146.5 32t-98.5 92t-35 141q0 78 34 139t97.5 96t147.5 35q45 0 89.5 -10t74.5 -27l-17 -118q-67 32 -134 32q-70 0 -111.5 -39t-41.5 -105q0 -68 42 -106.5t115 -38.5q64 0 139 31l14 -114q-32 -19 -77 -29.5t-92 -10.5z" />
    <glyph glyph-name="d" unicode="d" horiz-adv-x="659" 
d="M281 -16q-67 0 -120.5 33t-84.5 94.5t-31 141.5q0 74 30.5 135.5t86.5 99t126 37.5q50 0 91.5 -20t66.5 -56v361h139v-810h-133l-2 65q-26 -40 -69 -60.5t-100 -20.5zM319 108q59 0 97 41t38 106q0 64 -37.5 105t-97.5 41t-97.5 -41t-37.5 -105q0 -65 38 -106t97 -41z
" />
    <glyph glyph-name="e" unicode="e" horiz-adv-x="599" 
d="M341 -16q-89 0 -155.5 32t-103.5 93.5t-37 144.5q0 77 32 138.5t91 97t137 35.5q72 0 126.5 -30.5t85 -87.5t30.5 -135q0 -33 -5 -60h-359q26 -114 173 -114q46 0 89.5 9.5t78.5 27.5l14 -109q-36 -20 -88 -31t-109 -11zM414 309q-5 53 -34.5 81.5t-78.5 28.5
q-48 0 -79 -28.5t-40 -81.5h232z" />
    <glyph glyph-name="f" unicode="f" horiz-adv-x="428" 
d="M118 394h-92v115h92v63q0 116 56 179.5t159 63.5q30 0 62.5 -6t54.5 -16l-15 -114q-42 15 -81 15q-50 0 -73.5 -32.5t-23.5 -101.5v-51h137v-115h-137v-394h-139v394z" />
    <glyph glyph-name="g" unicode="g" horiz-adv-x="659" 
d="M299 -254q-52 0 -108 11.5t-88 29.5l15 126q31 -19 77 -31t89 -12q85 0 125.5 38.5t40.5 120.5v36q-26 -40 -69 -60.5t-100 -20.5q-67 0 -120.5 33t-84.5 94.5t-31 141.5q0 74 30.5 135.5t86.5 99t126 37.5q52 0 94.5 -21.5t67.5 -60.5l2 66h133v-473q0 -143 -72 -216.5
t-214 -73.5zM319 108q59 0 97 41t38 106q0 64 -37.5 105t-97.5 41t-97.5 -41t-37.5 -105q0 -65 38 -106t97 -41z" />
    <glyph glyph-name="h" unicode="h" horiz-adv-x="619" 
d="M74 810h139v-357q22 35 60.5 53.5t89.5 18.5q90 0 137.5 -55.5t47.5 -160.5v-309h-139v283q0 119 -91 119q-50 0 -77.5 -33.5t-27.5 -94.5v-274h-139v810z" />
    <glyph glyph-name="i" unicode="i" horiz-adv-x="287" 
d="M74 509h139v-509h-139v509zM143 613q-36 0 -59.5 23.5t-23.5 57.5t23.5 57t59.5 23t59.5 -23t23.5 -57q0 -35 -23.5 -58t-59.5 -23z" />
    <glyph glyph-name="j" unicode="j" horiz-adv-x="287" 
d="M11 -254q-38 0 -70 6.5t-50 17.5l14 116q36 -18 83 -18q44 0 65 25t21 79v537h139v-544q0 -108 -51 -163.5t-151 -55.5zM143 613q-36 0 -59.5 23.5t-23.5 57.5t23.5 57t59.5 23t59.5 -23t23.5 -57q0 -35 -23.5 -58t-59.5 -23z" />
    <glyph glyph-name="k" unicode="k" horiz-adv-x="609" 
d="M74 810h139v-491l183 190h172l-229 -228l266 -281h-179l-213 232v-232h-139v810z" />
    <glyph glyph-name="l" unicode="l" horiz-adv-x="287" 
d="M74 810h139v-810h-139v810z" />
    <glyph glyph-name="m" unicode="m" horiz-adv-x="941" 
d="M74 509h134l1 -63q23 39 62.5 59t92.5 20q111 0 156 -91q21 41 65.5 66t97.5 25q91 0 139 -55t48 -161v-309h-139v283q0 61 -22 90t-68 29t-72.5 -34t-26.5 -94v-274h-139v283q0 61 -21.5 90t-68.5 29t-73.5 -34t-26.5 -93v-275h-139v509z" />
    <glyph glyph-name="n" unicode="n" horiz-adv-x="619" 
d="M74 509h134l1 -63q22 38 61.5 58.5t92.5 20.5q90 0 137.5 -55.5t47.5 -160.5v-309h-139v283q0 119 -91 119q-50 0 -77.5 -33.5t-27.5 -94.5v-274h-139v509z" />
    <glyph glyph-name="o" unicode="o" horiz-adv-x="638" 
d="M319 -16q-75 0 -137.5 34t-99.5 96t-37 141q0 73 34.5 134.5t97.5 98.5t142 37q75 0 137.5 -33.5t99.5 -95.5t37 -141q0 -74 -34.5 -135.5t-97.5 -98.5t-142 -37zM319 108q59 0 97 41t38 106q0 64 -37.5 105t-97.5 41t-97.5 -41t-37.5 -105q0 -65 38 -106t97 -41z" />
    <glyph glyph-name="p" unicode="p" horiz-adv-x="659" 
d="M74 509h133l2 -66q52 82 169 82q67 0 120.5 -33t84.5 -94.5t31 -141.5q0 -74 -30.5 -135.5t-86.5 -99t-126 -37.5q-51 0 -92 19.5t-66 55.5v-304h-139v754zM340 108q60 0 97.5 41t37.5 105q0 65 -38 106t-97 41t-97 -41t-38 -106q0 -64 37.5 -105t97.5 -41z" />
    <glyph glyph-name="q" unicode="q" horiz-adv-x="659" 
d="M446 -245v305q-53 -76 -165 -76q-67 0 -120.5 33t-84.5 94.5t-31 141.5q0 74 30.5 135.5t86.5 99t126 37.5q52 0 94.5 -21.5t67.5 -60.5l2 66h133v-754h-139zM319 108q59 0 97 41t38 106q0 64 -37.5 105t-97.5 41t-97.5 -41t-37.5 -105q0 -65 38 -106t97 -41z" />
    <glyph glyph-name="r" unicode="r" horiz-adv-x="435" 
d="M74 509h134l1 -84q21 45 56.5 69t82.5 24q32 0 59 -11l-12 -131q-31 12 -62 12q-57 0 -88.5 -41t-31.5 -115v-232h-139v509z" />
    <glyph glyph-name="s" unicode="s" horiz-adv-x="493" 
d="M231 -16q-58 0 -110 13.5t-80 35.5l17 113q34 -23 79.5 -37t87.5 -14q85 0 85 43q0 23 -18 35t-75 28q-90 25 -128.5 63.5t-38.5 103.5q0 73 55 115t151 42q47 0 94 -11t77 -29l-16 -110q-31 18 -71.5 28.5t-77.5 10.5q-73 0 -73 -39q0 -22 17.5 -34.5t69.5 -27.5
q96 -28 135.5 -66t39.5 -105q0 -74 -58.5 -116t-161.5 -42z" />
    <glyph glyph-name="t" unicode="t" horiz-adv-x="461" 
d="M298 -16q-95 0 -141 48.5t-46 148.5v213h-99v115h99v138h139v-138h159v-115h-159v-188q0 -53 18 -76t61 -23q49 0 90 22l15 -116q-23 -13 -59.5 -21t-76.5 -8z" />
    <glyph glyph-name="u" unicode="u" horiz-adv-x="618" 
d="M256 -16q-90 0 -137.5 55.5t-47.5 160.5v309h139v-283q0 -119 91 -119q50 0 77 33.5t27 94.5v274h139v-509h-134l-1 62q-22 -38 -61.5 -58t-91.5 -20z" />
    <glyph glyph-name="v" unicode="v" horiz-adv-x="570" 
d="M16 509h153l118 -363l122 363h145l-197 -509h-144z" />
    <glyph glyph-name="w" unicode="w" horiz-adv-x="855" 
d="M21 509h145l93 -349l108 349h117l113 -350l94 350h143l-169 -509h-126l-115 336l-110 -336h-124z" />
    <glyph glyph-name="x" unicode="x" horiz-adv-x="590" 
d="M215 263l-181 246h159l105 -156l101 156h153l-179 -248l193 -261h-159l-117 174l-113 -174h-153z" />
    <glyph glyph-name="y" unicode="y" horiz-adv-x="590" 
d="M228 35l-212 474h151l132 -327l126 327h149l-337 -754h-144z" />
    <glyph glyph-name="z" unicode="z" horiz-adv-x="542" 
d="M44 99l260 295h-249v115h431v-99l-261 -295h268v-115h-449v99z" />
    <glyph glyph-name="braceleft" unicode="{" horiz-adv-x="443" 
d="M335 -144q-104 0 -153 39.5t-49 121.5q0 29 6.5 60t13 62.5t6.5 64.5q0 44 -19 60.5t-68 16.5h-26v115h26q49 0 68 16.5t19 60.5q0 33 -6.5 64.5t-13 62.5t-6.5 60q0 82 49 121.5t153 39.5q10 0 26.5 -0.5t36.5 -1.5v-112q-5 1 -46 1q-47 0 -68.5 -17.5t-21.5 -54.5
q0 -23 6.5 -53t12.5 -62.5t6 -65.5q0 -41 -19.5 -72t-52.5 -45q34 -14 53 -44.5t19 -71.5q0 -33 -6 -65.5t-12.5 -62.5t-6.5 -53q0 -37 21.5 -54.5t68.5 -17.5q40 0 46 1v-112q-20 -1 -36.5 -1.5t-26.5 -0.5z" />
    <glyph glyph-name="bar" unicode="|" horiz-adv-x="329" 
d="M101 866h128v-1093h-128v1093z" />
    <glyph glyph-name="braceright" unicode="}" horiz-adv-x="443" 
d="M108 -144q-10 0 -26.5 0.5t-36.5 1.5v112q5 -1 46 -1q47 0 68.5 17.5t21.5 54.5q0 23 -6 53l-12.5 62.5t-6.5 65.5q0 41 19.5 72t52.5 45q-34 13 -53 44t-19 72q0 33 6.5 65.5l12.5 62.5t6 53q0 37 -21.5 54.5t-68.5 17.5q-40 0 -46 -1v112q20 1 36.5 1.5t26.5 0.5
q104 0 153 -39.5t49 -121.5q0 -29 -6.5 -60t-13 -62.5t-6.5 -64.5q0 -44 19 -60.5t68 -16.5h26v-115h-26q-49 0 -68 -16.5t-19 -60.5q0 -33 6.5 -64.5t13 -62.5t6.5 -60q0 -82 -49 -121.5t-153 -39.5z" />
    <glyph glyph-name="asciitilde" unicode="~" horiz-adv-x="620" 
d="M421 232q-67 0 -124 45q-41 32 -56 40.5t-29 8.5q-53 0 -53 -93h-115v15q0 97 40.5 150t114.5 53q67 0 124 -45q41 -32 56 -40.5t29 -8.5q53 0 53 93h115v-15q0 -97 -40.5 -150t-114.5 -53z" />
    <glyph glyph-name="uni00A0" unicode="&#xa0;" horiz-adv-x="220" 
 />
    <glyph glyph-name="exclamdown" unicode="&#xa1;" horiz-adv-x="351" 
d="M113 255h125l13 -536h-150zM176 515q37 0 61 -23.5t24 -59.5q0 -35 -24 -58t-61 -23t-61.5 22.5t-24.5 58.5t24 59.5t62 23.5z" />
    <glyph glyph-name="cent" unicode="&#xa2;" horiz-adv-x="620" 
d="M307 -132v124q-67 9 -117 43t-78 89t-28 126q0 106 61 179t162 88v125h75v-122q78 -4 138 -37l-18 -113q-56 29 -120 32v-295h8q54 1 121 31l14 -110q-58 -35 -143 -38v-122h-75zM307 393q-45 -14 -69 -49.5t-24 -88.5t24 -89t69 -50v277z" />
    <glyph glyph-name="sterling" unicode="&#xa3;" horiz-adv-x="620" 
d="M56 118h96v193h-91v110h91v47q0 140 69.5 216t197.5 76q89 0 159 -35l-21 -117q-67 32 -130 32q-69 0 -104 -45t-35 -133v-41h199v-110h-199v-193h295v-118h-527v118z" />
    <glyph glyph-name="currency" unicode="&#xa4;" horiz-adv-x="620" 
d="M27 215l86 92q-27 47 -27 110q0 61 27 110l-86 92l86 77l79 -89q27 17 58 26.5t60 9.5t60 -9.5t58 -26.5l80 89l86 -77l-87 -92q27 -48 27 -110q0 -63 -27 -110l87 -92l-86 -77l-80 88q-55 -35 -118 -35q-62 0 -118 35l-79 -88zM310 293q51 0 82.5 34.5t31.5 89.5
t-31.5 89.5t-82.5 34.5t-82.5 -34.5t-31.5 -89.5t31.5 -89.5t82.5 -34.5z" />
    <glyph glyph-name="yen" unicode="&#xa5;" horiz-adv-x="620" 
d="M244 142h-199v90h199v78h-199v90h151l-191 344h156l152 -309l151 309h152l-193 -344h150v-90h-193v-78h193v-90h-193v-142h-136v142z" />
    <glyph glyph-name="brokenbar" unicode="&#xa6;" horiz-adv-x="329" 
d="M101 218h128v-445h-128v445zM101 866h128v-445h-128v445z" />
    <glyph glyph-name="section" unicode="&#xa7;" horiz-adv-x="533" 
d="M248 -122q-57 0 -112 14.5t-87 37.5l16 107q86 -55 181 -55q41 0 64.5 16.5t23.5 45.5q0 26 -22.5 43t-78.5 33q-98 28 -141.5 69.5t-43.5 108.5q0 55 27.5 97t76.5 62q-42 23 -62.5 56t-20.5 79q0 73 55.5 115t150.5 42q47 0 94 -10.5t84 -29.5l-17 -103
q-36 18 -77 28.5t-79 10.5q-39 0 -59.5 -13t-20.5 -37q0 -23 22 -39t83 -35q95 -31 137 -74t42 -110q0 -53 -25.5 -93t-71.5 -62q42 -24 62 -56t20 -75q0 -80 -59 -126.5t-162 -46.5zM267 231q40 0 66 26t26 66q0 38 -26.5 62t-67.5 24q-40 0 -65.5 -26t-25.5 -66
q0 -38 26 -62t67 -24z" />
    <glyph glyph-name="dieresis" unicode="&#xa8;" horiz-adv-x="500" 
d="M141 616q-33 0 -52.5 19.5t-19.5 50.5q0 30 20.5 49.5t51.5 19.5q32 0 52 -19.5t20 -49.5q0 -31 -20 -50.5t-52 -19.5zM359 616q-33 0 -52.5 19.5t-19.5 50.5q0 30 20.5 49.5t51.5 19.5q32 0 52 -19.5t20 -49.5q0 -31 -20 -50.5t-52 -19.5z" />
    <glyph glyph-name="copyright" unicode="&#xa9;" horiz-adv-x="795" 
d="M414 194q-91 0 -144.5 50t-53.5 136t55.5 139.5t144.5 53.5q30 0 61.5 -7.5t50.5 -18.5l-14 -94q-21 9 -46 15t-45 6q-42 0 -68.5 -25t-26.5 -66q0 -43 27.5 -67t74.5 -24q37 0 91 21l14 -93q-55 -26 -121 -26zM398 25q-100 0 -182 44.5t-131 126t-49 184.5
q0 98 45.5 178.5t128 128.5t188.5 48q99 0 181 -44t131 -125.5t49 -185.5q0 -98 -45 -178.5t-128 -128.5t-188 -48zM398 104q78 0 140.5 34t99 97t36.5 145q0 78 -34 140.5t-97 99t-145 36.5q-78 0 -140.5 -34t-99 -97t-36.5 -145q0 -78 34 -140.5t97 -99t145 -36.5z" />
    <glyph glyph-name="ordfeminine" unicode="&#xaa;" horiz-adv-x="469" 
d="M209 388q-45 0 -82.5 23.5t-60 66.5t-22.5 98q0 48 21 89.5t59 68t85 26.5q33 0 61 -13t47 -37l1 40h101v-350h-100l-2 41q-17 -25 -45.5 -39t-62.5 -14zM63 320h356v-94h-356v94zM234 485q37 0 59.5 25t22.5 65t-22.5 64.5t-58.5 24.5q-37 0 -59.5 -24.5t-22.5 -64.5
t22.5 -65t58.5 -25z" />
    <glyph glyph-name="guillemotleft" unicode="&#xab;" horiz-adv-x="604" 
d="M28 257l148 219h152l-153 -219l153 -219h-152zM269 257l148 219h152l-153 -219l153 -219h-152z" />
    <glyph glyph-name="logicalnot" unicode="&#xac;" horiz-adv-x="620" 
d="M411 307h-329v119h455v-268h-126v149z" />
    <glyph glyph-name="uni00AD" unicode="&#xad;" horiz-adv-x="429" 
d="M61 348h307v-121h-307v121z" />
    <glyph glyph-name="registered" unicode="&#xae;" horiz-adv-x="509" 
d="M254 386q-60 0 -110.5 28t-81.5 78.5t-31 113.5q0 60 28 109.5t79.5 80t115.5 30.5q61 0 111.5 -27.5t81 -78t30.5 -114.5q0 -60 -28 -110t-79 -80t-116 -30zM254 442q71 0 116.5 46t45.5 118t-45.5 118t-116.5 46q-45 0 -81.5 -20.5t-58 -58t-21.5 -85.5q0 -46 20 -83
t56.5 -59t84.5 -22zM170 715h83q43 0 67 -19t24 -53q0 -41 -32 -61l43 -76h-67l-30 59h-28v-59h-60v209zM230 616h19q17 0 25 6t8 19q0 24 -33 24h-19v-49z" />
    <glyph glyph-name="macron" unicode="&#xaf;" horiz-adv-x="500" 
d="M88 731h324v-99h-324v99z" />
    <glyph glyph-name="degree" unicode="&#xb0;" horiz-adv-x="491" 
d="M246 416q-50 0 -92 22.5t-67 63.5t-25 93q0 49 23 89.5t65.5 65.5t95.5 25q50 0 91.5 -22.5t66.5 -64t25 -93.5q0 -48 -23 -88.5t-65.5 -65.5t-94.5 -25zM246 511q36 0 58.5 23.5t22.5 60.5q0 38 -22.5 62t-58.5 24q-35 0 -57.5 -24t-22.5 -62q0 -37 22.5 -60.5
t57.5 -23.5z" />
    <glyph glyph-name="plusminus" unicode="&#xb1;" horiz-adv-x="620" 
d="M76 119h469v-118h-469v118zM248 363h-172v116h172v185h124v-185h173v-116h-173v-185h-124v185z" />
    <glyph glyph-name="uni00B2" unicode="&#xb2;" 
d="M41 456v86q61 45 115 94q37 34 52.5 58t15.5 48q0 20 -16 32.5t-42 12.5q-55 0 -105 -49l-18 83q22 24 60.5 38.5t80.5 14.5q65 0 104.5 -33t39.5 -88q0 -81 -101 -170q-18 -16 -29 -24.5t-18 -14.5h162v-88h-301z" />
    <glyph glyph-name="uni00B3" unicode="&#xb3;" 
d="M163 446q-37 0 -69.5 7t-53.5 20l9 89q22 -13 51 -20t59 -7q36 0 56 13.5t20 37.5q0 23 -19 36t-52 13q-21 0 -41 -6l-22 52l104 98h-155v85h273v-79l-91 -83q49 -7 77.5 -39t28.5 -80q0 -62 -47.5 -99.5t-127.5 -37.5z" />
    <glyph glyph-name="acute" unicode="&#xb4;" horiz-adv-x="500" 
d="M246 777h154l-140 -167h-119z" />
    <glyph glyph-name="mu" unicode="&#xb5;" horiz-adv-x="619" 
d="M73 509h139v-286q0 -61 21.5 -88.5t69.5 -27.5q49 0 76.5 34t27.5 94v274h139v-509h-134l-1 56q-19 -32 -54 -52t-73 -20q-49 0 -72 24v-253h-139v754z" />
    <glyph glyph-name="paragraph" unicode="&#xb6;" horiz-adv-x="641" 
d="M234 -130v465q-98 11 -152 66t-54 144q0 102 68.5 158.5t190.5 56.5h277v-890h-121v779h-88v-779h-121z" />
    <glyph glyph-name="periodcentered" unicode="&#xb7;" horiz-adv-x="299" 
d="M150 296q-38 0 -62 23.5t-24 59.5t24.5 58.5t61.5 22.5t61 -23t24 -58q0 -36 -24 -59.5t-61 -23.5z" />
    <glyph glyph-name="cedilla" unicode="&#xb8;" horiz-adv-x="500" 
d="M230 -262q-26 0 -55.5 5.5t-42.5 13.5l16 73q28 -14 69 -14q55 0 55 36q0 33 -58 33q-21 0 -35 -2l35 127h80l-20 -66q47 -4 74.5 -30.5t27.5 -66.5q0 -50 -39.5 -79.5t-106.5 -29.5z" />
    <glyph glyph-name="uni00B9" unicode="&#xb9;" 
d="M173 757l-106 -48l-15 94l133 61h94v-408h-106v301z" />
    <glyph glyph-name="ordmasculine" unicode="&#xba;" horiz-adv-x="469" 
d="M234 389q-53 0 -96 23t-68.5 65.5t-25.5 97.5q0 51 23.5 93t67 67t99.5 25q53 0 96 -23t69 -65.5t26 -96.5q0 -80 -54.5 -133t-136.5 -53zM234 485q37 0 59.5 25t22.5 65t-22.5 64.5t-58.5 24.5q-37 0 -59.5 -24.5t-22.5 -64.5t22.5 -65t58.5 -25zM56 320h356v-94h-356
v94z" />
    <glyph glyph-name="guillemotright" unicode="&#xbb;" horiz-adv-x="604" 
d="M188 257l-153 219h152l148 -219l-148 -219h-152zM429 257l-153 219h152l148 -219l-148 -219h-152z" />
    <glyph glyph-name="onequarter" unicode="&#xbc;" horiz-adv-x="937" 
d="M697 744h123l-530 -744h-123zM766 83h-193v82l181 243h107v-245h48v-80h-48v-83h-95v83zM766 163v130l-98 -130h98zM173 637l-106 -48l-15 94l133 61h94v-408h-106v301z" />
    <glyph glyph-name="onehalf" unicode="&#xbd;" horiz-adv-x="937" 
d="M654 744h123l-530 -744h-123zM592 0v86q61 45 115 94q37 34 52.5 58t15.5 48q0 20 -16 32.5t-42 12.5q-55 0 -105 -49l-18 83q22 24 60.5 38.5t80.5 14.5q65 0 104.5 -33t39.5 -88q0 -81 -101 -170q-18 -16 -29 -24.5t-18 -14.5h162v-88h-301zM173 637l-106 -48l-15 94
l133 61h94v-408h-106v301z" />
    <glyph glyph-name="threequarters" unicode="&#xbe;" horiz-adv-x="937" 
d="M696 744h123l-530 -744h-123zM766 83h-193v82l181 243h107v-245h48v-80h-48v-83h-95v83zM766 163v130l-98 -130h98zM163 326q-37 0 -69.5 7t-53.5 20l9 89q22 -13 51 -20t59 -7q36 0 56 13.5t20 37.5q0 23 -19 36t-52 13q-21 0 -41 -6l-22 52l104 98h-155v85h273v-79
l-91 -83q49 -7 77.5 -39t28.5 -80q0 -62 -47.5 -99.5t-127.5 -37.5z" />
    <glyph glyph-name="questiondown" unicode="&#xbf;" horiz-adv-x="510" 
d="M259 -290q-66 0 -117 24t-80.5 68.5t-29.5 103.5q0 43 13.5 75t35 57t45.5 47.5t45.5 46.5t35 53.5t13.5 69.5h125q3 -13 3 -31q0 -45 -12.5 -78.5t-31.5 -58.5t-40.5 -45.5t-40.5 -39.5t-31.5 -39.5t-12.5 -46.5q0 -39 27.5 -61.5t76.5 -22.5q46 0 93 23t82 64l33 -115
q-37 -44 -99 -69t-133 -25zM283 515q38 0 62 -23.5t24 -59.5t-24.5 -58.5t-61.5 -22.5t-61 23t-24 58q0 36 24 59.5t61 23.5z" />
    <glyph glyph-name="Agrave" unicode="&#xc0;" horiz-adv-x="812" 
d="M325 760h162l302 -760h-162l-72 200h-306l-73 -200h-153zM513 318l-112 306l-111 -306h223zM223 978h168l115 -143h-131z" />
    <glyph glyph-name="Aacute" unicode="&#xc1;" horiz-adv-x="812" 
d="M325 760h162l302 -760h-162l-72 200h-306l-73 -200h-153zM513 318l-112 306l-111 -306h223zM418 978h168l-150 -143h-132z" />
    <glyph glyph-name="Acircumflex" unicode="&#xc2;" horiz-adv-x="812" 
d="M325 760h162l302 -760h-162l-72 200h-306l-73 -200h-153zM513 318l-112 306l-111 -306h223zM338 986h136l142 -151h-139l-71 76l-71 -76h-139z" />
    <glyph glyph-name="Atilde" unicode="&#xc3;" horiz-adv-x="812" 
d="M325 760h162l302 -760h-162l-72 200h-306l-73 -200h-153zM513 318l-112 306l-111 -306h223zM483 832q-27 0 -47 9t-35 20t-28.5 20t-27.5 9q-16 0 -23.5 -13.5t-7.5 -42.5h-95v7q2 149 111 149q27 0 47 -9t35 -20t28.5 -20t27.5 -9q16 0 23 13t7 43h96v-7
q-1 -73 -29.5 -111t-81.5 -38z" />
    <glyph glyph-name="Adieresis" unicode="&#xc4;" horiz-adv-x="812" 
d="M325 760h162l302 -760h-162l-72 200h-306l-73 -200h-153zM513 318l-112 306l-111 -306h223zM295 833q-33 0 -53 19.5t-20 50.5t20 51t53 20t53.5 -19.5t20.5 -51.5q0 -31 -21 -50.5t-53 -19.5zM516 833q-32 0 -52.5 19.5t-20.5 50.5t20.5 51t52.5 20q33 0 53.5 -19.5
t20.5 -51.5q0 -31 -21 -50.5t-53 -19.5z" />
    <glyph glyph-name="Aring" unicode="&#xc5;" horiz-adv-x="812" 
d="M325 760h162l302 -760h-162l-72 200h-306l-73 -200h-153zM513 318l-112 306l-111 -306h223zM406 817q-61 0 -101 38t-40 95t40 95t101 38t101 -38t40 -95t-40 -95t-101 -38zM406 892q27 0 42.5 16t15.5 42q0 27 -15.5 42.5t-42.5 15.5t-42.5 -15.5t-15.5 -42.5
q0 -26 15.5 -42t42.5 -16z" />
    <glyph glyph-name="AE" unicode="&#xc6;" horiz-adv-x="1110" 
d="M529 318v315l-182 -315h182zM468 760h563v-128h-354v-182h313v-127h-313v-195h368v-128h-516v200h-247l-114 -200h-160z" />
    <glyph glyph-name="Ccedilla" unicode="&#xc7;" horiz-adv-x="762" 
d="M454 -11q-118 0 -209 46.5t-143 134.5t-52 206q0 112 50.5 201.5t144.5 141.5t217 52q62 0 126.5 -16.5t110.5 -44.5l-25 -129q-109 54 -210 54q-74 0 -132 -31t-91 -89t-33 -136q0 -117 70 -185.5t189 -68.5q52 0 111 15t111 42l16 -132q-51 -29 -117 -45t-134 -16z
M387 -262q-23 0 -50.5 5.5t-42.5 13.5l16 76q28 -14 66 -14q54 0 54 33q0 31 -55 31q-26 0 -36 -3l36 130h84l-20 -65q46 -4 74 -30.5t28 -66.5q0 -53 -40 -81.5t-114 -28.5z" />
    <glyph glyph-name="Egrave" unicode="&#xc8;" horiz-adv-x="672" 
d="M91 760h502v-128h-354v-182h313v-127h-313v-195h368v-128h-516v760zM166 978h168l115 -143h-131z" />
    <glyph glyph-name="Eacute" unicode="&#xc9;" horiz-adv-x="672" 
d="M91 760h502v-128h-354v-182h313v-127h-313v-195h368v-128h-516v760zM361 978h168l-150 -143h-132z" />
    <glyph glyph-name="Ecircumflex" unicode="&#xca;" horiz-adv-x="672" 
d="M91 760h502v-128h-354v-182h313v-127h-313v-195h368v-128h-516v760zM281 986h136l142 -151h-139l-71 76l-71 -76h-139z" />
    <glyph glyph-name="Edieresis" unicode="&#xcb;" horiz-adv-x="672" 
d="M91 760h502v-128h-354v-182h313v-127h-313v-195h368v-128h-516v760zM238 833q-33 0 -53 19.5t-20 50.5t20 51t53 20t53.5 -19.5t20.5 -51.5q0 -31 -21 -50.5t-53 -19.5zM459 833q-32 0 -52.5 19.5t-20.5 50.5t20.5 51t52.5 20q33 0 53.5 -19.5t20.5 -51.5
q0 -31 -21 -50.5t-53 -19.5z" />
    <glyph glyph-name="Igrave" unicode="&#xcc;" horiz-adv-x="335" 
d="M91 760h153v-760h-153v760zM-15 978h168l115 -143h-131z" />
    <glyph glyph-name="Iacute" unicode="&#xcd;" horiz-adv-x="335" 
d="M91 760h153v-760h-153v760zM180 978h168l-150 -143h-132z" />
    <glyph glyph-name="Icircumflex" unicode="&#xce;" horiz-adv-x="335" 
d="M91 760h153v-760h-153v760zM100 986h136l142 -151h-139l-71 76l-71 -76h-139z" />
    <glyph glyph-name="Idieresis" unicode="&#xcf;" horiz-adv-x="335" 
d="M91 760h153v-760h-153v760zM57 833q-33 0 -53 19.5t-20 50.5t20 51t53 20t53.5 -19.5t20.5 -51.5q0 -31 -21 -50.5t-53 -19.5zM278 833q-32 0 -52.5 19.5t-20.5 50.5t20.5 51t52.5 20q33 0 53.5 -19.5t20.5 -51.5q0 -31 -21 -50.5t-53 -19.5z" />
    <glyph glyph-name="Eth" unicode="&#xd0;" horiz-adv-x="859" 
d="M101 329h-91v107h91v324h291q198 0 307.5 -99.5t109.5 -279.5q0 -181 -112.5 -281t-315.5 -100h-280v329zM253 123h125q273 0 273 257t-272 257h-126v-201h163v-107h-163v-206z" />
    <glyph glyph-name="Ntilde" unicode="&#xd1;" horiz-adv-x="861" 
d="M91 760h136l398 -528v528h145v-760h-136l-398 526v-526h-145v760zM499 832q-27 0 -47 9t-35 20t-28.5 20t-27.5 9q-16 0 -23.5 -13.5t-7.5 -42.5h-95v7q2 149 111 149q27 0 47 -9t35 -20t28.5 -20t27.5 -9q16 0 23 13t7 43h96v-7q-1 -73 -29.5 -111t-81.5 -38z" />
    <glyph glyph-name="Ograve" unicode="&#xd2;" horiz-adv-x="903" 
d="M451 120q68 0 123.5 32t88 92t32.5 136q0 72 -30 131t-86 94t-128 35q-68 0 -123 -32t-87.5 -91.5t-32.5 -136.5q0 -72 30 -131t85.5 -94t127.5 -35zM451 -16q-110 0 -201 49.5t-145.5 140t-54.5 206.5q0 107 50.5 197t142.5 144.5t208 54.5q111 0 202 -49.5t145.5 -140
t54.5 -206.5q0 -107 -50.5 -197t-143 -144.5t-208.5 -54.5zM268 978h168l115 -143h-131z" />
    <glyph glyph-name="Oacute" unicode="&#xd3;" horiz-adv-x="903" 
d="M451 120q68 0 123.5 32t88 92t32.5 136q0 72 -30 131t-86 94t-128 35q-68 0 -123 -32t-87.5 -91.5t-32.5 -136.5q0 -72 30 -131t85.5 -94t127.5 -35zM451 -16q-110 0 -201 49.5t-145.5 140t-54.5 206.5q0 107 50.5 197t142.5 144.5t208 54.5q111 0 202 -49.5t145.5 -140
t54.5 -206.5q0 -107 -50.5 -197t-143 -144.5t-208.5 -54.5zM463 978h168l-150 -143h-132z" />
    <glyph glyph-name="Ocircumflex" unicode="&#xd4;" horiz-adv-x="903" 
d="M451 120q68 0 123.5 32t88 92t32.5 136q0 72 -30 131t-86 94t-128 35q-68 0 -123 -32t-87.5 -91.5t-32.5 -136.5q0 -72 30 -131t85.5 -94t127.5 -35zM451 -16q-110 0 -201 49.5t-145.5 140t-54.5 206.5q0 107 50.5 197t142.5 144.5t208 54.5q111 0 202 -49.5t145.5 -140
t54.5 -206.5q0 -107 -50.5 -197t-143 -144.5t-208.5 -54.5zM383 986h136l142 -151h-139l-71 76l-71 -76h-139z" />
    <glyph glyph-name="Otilde" unicode="&#xd5;" horiz-adv-x="903" 
d="M451 120q68 0 123.5 32t88 92t32.5 136q0 72 -30 131t-86 94t-128 35q-68 0 -123 -32t-87.5 -91.5t-32.5 -136.5q0 -72 30 -131t85.5 -94t127.5 -35zM451 -16q-110 0 -201 49.5t-145.5 140t-54.5 206.5q0 107 50.5 197t142.5 144.5t208 54.5q111 0 202 -49.5t145.5 -140
t54.5 -206.5q0 -107 -50.5 -197t-143 -144.5t-208.5 -54.5zM528 832q-27 0 -47 9t-35 20t-28.5 20t-27.5 9q-16 0 -23.5 -13.5t-7.5 -42.5h-95v7q2 149 111 149q27 0 47 -9t35 -20t28.5 -20t27.5 -9q16 0 23 13t7 43h96v-7q-1 -73 -29.5 -111t-81.5 -38z" />
    <glyph glyph-name="Odieresis" unicode="&#xd6;" horiz-adv-x="903" 
d="M451 120q68 0 123.5 32t88 92t32.5 136q0 72 -30 131t-86 94t-128 35q-68 0 -123 -32t-87.5 -91.5t-32.5 -136.5q0 -72 30 -131t85.5 -94t127.5 -35zM451 -16q-110 0 -201 49.5t-145.5 140t-54.5 206.5q0 107 50.5 197t142.5 144.5t208 54.5q111 0 202 -49.5t145.5 -140
t54.5 -206.5q0 -107 -50.5 -197t-143 -144.5t-208.5 -54.5zM340 833q-33 0 -53 19.5t-20 50.5t20 51t53 20t53.5 -19.5t20.5 -51.5q0 -31 -21 -50.5t-53 -19.5zM561 833q-32 0 -52.5 19.5t-20.5 50.5t20.5 51t52.5 20q33 0 53.5 -19.5t20.5 -51.5q0 -31 -21 -50.5t-53 -19.5
z" />
    <glyph glyph-name="multiply" unicode="&#xd7;" horiz-adv-x="620" 
d="M89 198l139 139l-139 139l83 82l139 -139l138 139l80 -79l-139 -139l140 -139l-83 -83l-140 139l-138 -138z" />
    <glyph glyph-name="Oslash" unicode="&#xd8;" horiz-adv-x="903" 
d="M451 -16q-69 0 -132.5 20.5t-116.5 59.5l-86 -86l-70 70l85 85q-40 51 -60.5 114t-20.5 133q0 107 50.5 197t142.5 144.5t208 54.5q69 0 132.5 -20.5t115.5 -58.5l87 86l70 -69l-86 -86q40 -51 61.5 -114.5t21.5 -133.5q0 -107 -50.5 -197t-143 -144.5t-208.5 -54.5z
M451 120q68 0 123.5 32t88 92t32.5 136q0 77 -35 139l-355 -353q61 -46 146 -46zM208 380q0 -79 33 -138l355 352q-63 46 -145 46q-68 0 -123 -32t-87.5 -91.5t-32.5 -136.5z" />
    <glyph glyph-name="Ugrave" unicode="&#xd9;" horiz-adv-x="845" 
d="M421 -16q-159 0 -247 88t-88 249v439h153v-427q0 -213 183 -213q184 0 184 213v427h153v-439q0 -161 -88 -249t-250 -88zM239 978h168l115 -143h-131z" />
    <glyph glyph-name="Uacute" unicode="&#xda;" horiz-adv-x="845" 
d="M421 -16q-159 0 -247 88t-88 249v439h153v-427q0 -213 183 -213q184 0 184 213v427h153v-439q0 -161 -88 -249t-250 -88zM434 978h168l-150 -143h-132z" />
    <glyph glyph-name="Ucircumflex" unicode="&#xdb;" horiz-adv-x="845" 
d="M421 -16q-159 0 -247 88t-88 249v439h153v-427q0 -213 183 -213q184 0 184 213v427h153v-439q0 -161 -88 -249t-250 -88zM354 986h136l142 -151h-139l-71 76l-71 -76h-139z" />
    <glyph glyph-name="Udieresis" unicode="&#xdc;" horiz-adv-x="845" 
d="M421 -16q-159 0 -247 88t-88 249v439h153v-427q0 -213 183 -213q184 0 184 213v427h153v-439q0 -161 -88 -249t-250 -88zM311 833q-33 0 -53 19.5t-20 50.5t20 51t53 20t53.5 -19.5t20.5 -51.5q0 -31 -21 -50.5t-53 -19.5zM532 833q-32 0 -52.5 19.5t-20.5 50.5t20.5 51
t52.5 20q33 0 53.5 -19.5t20.5 -51.5q0 -31 -21 -50.5t-53 -19.5z" />
    <glyph glyph-name="Yacute" unicode="&#xdd;" horiz-adv-x="733" 
d="M290 317l-279 443h170l188 -324l189 324h164l-280 -443v-317h-152v317zM378 978h168l-150 -143h-132z" />
    <glyph glyph-name="Thorn" unicode="&#xde;" horiz-adv-x="655" 
d="M91 760h144v-120h104q83 0 146 -30t98.5 -86t35.5 -132q0 -115 -76.5 -183.5t-204.5 -68.5h-99v-140h-148v760zM239 263h79q75 0 114.5 33t39.5 95t-39 94t-115 32h-79v-254z" />
    <glyph glyph-name="germandbls" unicode="&#xdf;" horiz-adv-x="672" 
d="M388 -16q-77 0 -131 30l15 113q19 -11 46 -18t52 -7q55 0 88.5 35t33.5 92q0 59 -39.5 93.5t-107.5 34.5h-44v112h27q54 0 85 32t31 87q0 50 -29.5 79.5t-80.5 29.5q-58 0 -89.5 -42.5t-31.5 -121.5v-533h-139v541q0 129 69 201.5t192 72.5q72 0 128 -25.5t87.5 -73.5
t31.5 -113q0 -58 -28.5 -105t-76.5 -67q71 -18 114 -76t43 -135q0 -69 -29.5 -122.5t-85.5 -83.5t-131 -30z" />
    <glyph glyph-name="agrave" unicode="&#xe0;" horiz-adv-x="659" 
d="M281 -16q-67 0 -120.5 33t-84.5 94.5t-31 141.5q0 74 30.5 135.5t86.5 99t126 37.5q52 0 94.5 -21.5t67.5 -60.5l2 66h133v-509h-133l-2 65q-26 -40 -69 -60.5t-100 -20.5zM319 108q59 0 97 41t38 106q0 64 -37.5 105t-97.5 41t-97.5 -41t-37.5 -105q0 -65 38 -106
t97 -41zM168 777h154l106 -167h-119z" />
    <glyph glyph-name="aacute" unicode="&#xe1;" horiz-adv-x="659" 
d="M281 -16q-67 0 -120.5 33t-84.5 94.5t-31 141.5q0 74 30.5 135.5t86.5 99t126 37.5q52 0 94.5 -21.5t67.5 -60.5l2 66h133v-509h-133l-2 65q-26 -40 -69 -60.5t-100 -20.5zM319 108q59 0 97 41t38 106q0 64 -37.5 105t-97.5 41t-97.5 -41t-37.5 -105q0 -65 38 -106
t97 -41zM348 777h154l-140 -167h-119z" />
    <glyph glyph-name="acircumflex" unicode="&#xe2;" horiz-adv-x="659" 
d="M281 -16q-67 0 -120.5 33t-84.5 94.5t-31 141.5q0 74 30.5 135.5t86.5 99t126 37.5q52 0 94.5 -21.5t67.5 -60.5l2 66h133v-509h-133l-2 65q-26 -40 -69 -60.5t-100 -20.5zM319 108q59 0 97 41t38 106q0 64 -37.5 105t-97.5 41t-97.5 -41t-37.5 -105q0 -65 38 -106
t97 -41zM275 777h120l138 -167h-124l-74 89l-74 -89h-124z" />
    <glyph glyph-name="atilde" unicode="&#xe3;" horiz-adv-x="659" 
d="M281 -16q-67 0 -120.5 33t-84.5 94.5t-31 141.5q0 74 30.5 135.5t86.5 99t126 37.5q52 0 94.5 -21.5t67.5 -60.5l2 66h133v-509h-133l-2 65q-26 -40 -69 -60.5t-100 -20.5zM319 108q59 0 97 41t38 106q0 64 -37.5 105t-97.5 41t-97.5 -41t-37.5 -105q0 -65 38 -106
t97 -41zM415 613q-29 0 -49.5 9t-36 20t-28.5 20t-28 9q-17 0 -24 -13.5t-7 -42.5h-93v10q2 69 29.5 106.5t77.5 37.5q29 0 49.5 -9t36 -20t28.5 -20t28 -9q17 0 24 13.5t7 42.5h92v-10q-1 -69 -28.5 -106.5t-77.5 -37.5z" />
    <glyph glyph-name="adieresis" unicode="&#xe4;" horiz-adv-x="659" 
d="M281 -16q-67 0 -120.5 33t-84.5 94.5t-31 141.5q0 74 30.5 135.5t86.5 99t126 37.5q52 0 94.5 -21.5t67.5 -60.5l2 66h133v-509h-133l-2 65q-26 -40 -69 -60.5t-100 -20.5zM319 108q59 0 97 41t38 106q0 64 -37.5 105t-97.5 41t-97.5 -41t-37.5 -105q0 -65 38 -106
t97 -41zM226 616q-33 0 -52.5 19.5t-19.5 50.5q0 30 20.5 49.5t51.5 19.5q32 0 52 -19.5t20 -49.5q0 -31 -20 -50.5t-52 -19.5zM444 616q-33 0 -52.5 19.5t-19.5 50.5q0 30 20.5 49.5t51.5 19.5q32 0 52 -19.5t20 -49.5q0 -31 -20 -50.5t-52 -19.5z" />
    <glyph glyph-name="aring" unicode="&#xe5;" horiz-adv-x="659" 
d="M281 -16q-67 0 -120.5 33t-84.5 94.5t-31 141.5q0 74 30.5 135.5t86.5 99t126 37.5q52 0 94.5 -21.5t67.5 -60.5l2 66h133v-509h-133l-2 65q-26 -40 -69 -60.5t-100 -20.5zM319 108q59 0 97 41t38 106q0 64 -37.5 105t-97.5 41t-97.5 -41t-37.5 -105q0 -65 38 -106
t97 -41zM335 579q-61 0 -101 38t-40 95t40 95t101 38t101 -38t40 -95t-40 -95t-101 -38zM335 654q27 0 42.5 16t15.5 42q0 27 -15.5 42.5t-42.5 15.5t-42.5 -15.5t-15.5 -42.5q0 -26 15.5 -42t42.5 -16z" />
    <glyph glyph-name="ae" unicode="&#xe6;" horiz-adv-x="1012" 
d="M281 -16q-67 0 -120.5 33t-84.5 94.5t-31 141.5q0 74 30.5 135.5t86.5 99t126 37.5q52 0 94.5 -21.5t67.5 -60.5l2 66h127l1 -41q62 57 148 57q106 0 169 -69t63 -184q0 -35 -5 -60h-359q26 -114 173 -114q94 0 168 37l14 -109q-37 -20 -89 -31t-108 -11q-106 0 -174 60
l-1 -44h-127l-2 65q-26 -40 -69 -60.5t-100 -20.5zM319 108q59 0 97 41t38 106q0 64 -37.5 105t-97.5 41t-97.5 -41t-37.5 -105q0 -65 38 -106t97 -41zM826 309q-6 54 -34.5 82t-77.5 28t-79.5 -28.5t-39.5 -81.5h231z" />
    <glyph glyph-name="ccedilla" unicode="&#xe7;" horiz-adv-x="541" 
d="M325 -13q-83 0 -146.5 32t-98.5 92t-35 141q0 78 34 139t97.5 96t147.5 35q45 0 89.5 -10t74.5 -27l-17 -118q-67 32 -134 32q-70 0 -111.5 -39t-41.5 -105q0 -68 42 -106.5t115 -38.5q64 0 139 31l14 -114q-32 -19 -77 -29.5t-92 -10.5zM278 -262q-26 0 -55.5 5.5
t-42.5 13.5l16 73q28 -14 69 -14q55 0 55 36q0 33 -58 33q-21 0 -35 -2l35 127h80l-20 -66q47 -4 74.5 -30.5t27.5 -66.5q0 -50 -39.5 -79.5t-106.5 -29.5z" />
    <glyph glyph-name="egrave" unicode="&#xe8;" horiz-adv-x="599" 
d="M341 -16q-89 0 -155.5 32t-103.5 93.5t-37 144.5q0 77 32 138.5t91 97t137 35.5q72 0 126.5 -30.5t85 -87.5t30.5 -135q0 -33 -5 -60h-359q26 -114 173 -114q46 0 89.5 9.5t78.5 27.5l14 -109q-36 -20 -88 -31t-109 -11zM414 309q-5 53 -34.5 81.5t-78.5 28.5
q-48 0 -79 -28.5t-40 -81.5h232zM133 777h154l106 -167h-119z" />
    <glyph glyph-name="eacute" unicode="&#xe9;" horiz-adv-x="599" 
d="M341 -16q-89 0 -155.5 32t-103.5 93.5t-37 144.5q0 77 32 138.5t91 97t137 35.5q72 0 126.5 -30.5t85 -87.5t30.5 -135q0 -33 -5 -60h-359q26 -114 173 -114q46 0 89.5 9.5t78.5 27.5l14 -109q-36 -20 -88 -31t-109 -11zM414 309q-5 53 -34.5 81.5t-78.5 28.5
q-48 0 -79 -28.5t-40 -81.5h232zM313 777h154l-140 -167h-119z" />
    <glyph glyph-name="ecircumflex" unicode="&#xea;" horiz-adv-x="599" 
d="M341 -16q-89 0 -155.5 32t-103.5 93.5t-37 144.5q0 77 32 138.5t91 97t137 35.5q72 0 126.5 -30.5t85 -87.5t30.5 -135q0 -33 -5 -60h-359q26 -114 173 -114q46 0 89.5 9.5t78.5 27.5l14 -109q-36 -20 -88 -31t-109 -11zM414 309q-5 53 -34.5 81.5t-78.5 28.5
q-48 0 -79 -28.5t-40 -81.5h232zM240 777h120l138 -167h-124l-74 89l-74 -89h-124z" />
    <glyph glyph-name="edieresis" unicode="&#xeb;" horiz-adv-x="599" 
d="M341 -16q-89 0 -155.5 32t-103.5 93.5t-37 144.5q0 77 32 138.5t91 97t137 35.5q72 0 126.5 -30.5t85 -87.5t30.5 -135q0 -33 -5 -60h-359q26 -114 173 -114q46 0 89.5 9.5t78.5 27.5l14 -109q-36 -20 -88 -31t-109 -11zM414 309q-5 53 -34.5 81.5t-78.5 28.5
q-48 0 -79 -28.5t-40 -81.5h232zM191 616q-33 0 -52.5 19.5t-19.5 50.5q0 30 20.5 49.5t51.5 19.5q32 0 52 -19.5t20 -49.5q0 -31 -20 -50.5t-52 -19.5zM409 616q-33 0 -52.5 19.5t-19.5 50.5q0 30 20.5 49.5t51.5 19.5q32 0 52 -19.5t20 -49.5q0 -31 -20 -50.5t-52 -19.5z
" />
    <glyph glyph-name="igrave" unicode="&#xec;" horiz-adv-x="287" 
d="M74 509h139v-509h-139v509zM-24 777h154l106 -167h-119z" />
    <glyph glyph-name="iacute" unicode="&#xed;" horiz-adv-x="287" 
d="M74 509h139v-509h-139v509zM156 777h154l-140 -167h-119z" />
    <glyph glyph-name="icircumflex" unicode="&#xee;" horiz-adv-x="287" 
d="M74 509h139v-509h-139v509zM83 777h120l138 -167h-124l-74 89l-74 -89h-124z" />
    <glyph glyph-name="idieresis" unicode="&#xef;" horiz-adv-x="287" 
d="M74 509h139v-509h-139v509zM34 616q-33 0 -52.5 19.5t-19.5 50.5q0 30 20.5 49.5t51.5 19.5q32 0 52 -19.5t20 -49.5q0 -31 -20 -50.5t-52 -19.5zM252 616q-33 0 -52.5 19.5t-19.5 50.5q0 30 20.5 49.5t51.5 19.5q32 0 52 -19.5t20 -49.5q0 -31 -20 -50.5t-52 -19.5z" />
    <glyph glyph-name="eth" unicode="&#xf0;" horiz-adv-x="638" 
d="M316 -16q-57 0 -106 18t-86 53t-58 85t-21 111q0 71 32 132.5t90 99.5t129 38q32 0 62.5 -10t52.5 -28q-31 71 -86 142l-162 -73l-35 79l137 63q-49 51 -119 105l168 10q30 -23 70 -64l118 53l35 -79l-95 -43q73 -95 110.5 -194.5t37.5 -197.5q0 -140 -73.5 -220
t-200.5 -80zM319 107q60 0 98 40.5t38 104.5t-38 105t-98 41t-98 -41t-38 -105t38 -104.5t98 -40.5z" />
    <glyph glyph-name="ntilde" unicode="&#xf1;" horiz-adv-x="619" 
d="M74 509h134l1 -63q22 38 61.5 58.5t92.5 20.5q90 0 137.5 -55.5t47.5 -160.5v-309h-139v283q0 119 -91 119q-50 0 -77.5 -33.5t-27.5 -94.5v-274h-139v509zM392 613q-29 0 -49.5 9t-36 20t-28.5 20t-28 9q-17 0 -24 -13.5t-7 -42.5h-93v10q2 69 29.5 106.5t77.5 37.5
q29 0 49.5 -9t36 -20t28.5 -20t28 -9q17 0 24 13.5t7 42.5h92v-10q-1 -69 -28.5 -106.5t-77.5 -37.5z" />
    <glyph glyph-name="ograve" unicode="&#xf2;" horiz-adv-x="638" 
d="M319 -16q-75 0 -137.5 34t-99.5 96t-37 141q0 73 34.5 134.5t97.5 98.5t142 37q75 0 137.5 -33.5t99.5 -95.5t37 -141q0 -74 -34.5 -135.5t-97.5 -98.5t-142 -37zM319 108q59 0 97 41t38 106q0 64 -37.5 105t-97.5 41t-97.5 -41t-37.5 -105q0 -65 38 -106t97 -41z
M152 777h154l106 -167h-119z" />
    <glyph glyph-name="oacute" unicode="&#xf3;" horiz-adv-x="638" 
d="M319 -16q-75 0 -137.5 34t-99.5 96t-37 141q0 73 34.5 134.5t97.5 98.5t142 37q75 0 137.5 -33.5t99.5 -95.5t37 -141q0 -74 -34.5 -135.5t-97.5 -98.5t-142 -37zM319 108q59 0 97 41t38 106q0 64 -37.5 105t-97.5 41t-97.5 -41t-37.5 -105q0 -65 38 -106t97 -41z
M332 777h154l-140 -167h-119z" />
    <glyph glyph-name="ocircumflex" unicode="&#xf4;" horiz-adv-x="638" 
d="M319 -16q-75 0 -137.5 34t-99.5 96t-37 141q0 73 34.5 134.5t97.5 98.5t142 37q75 0 137.5 -33.5t99.5 -95.5t37 -141q0 -74 -34.5 -135.5t-97.5 -98.5t-142 -37zM319 108q59 0 97 41t38 106q0 64 -37.5 105t-97.5 41t-97.5 -41t-37.5 -105q0 -65 38 -106t97 -41z
M259 777h120l138 -167h-124l-74 89l-74 -89h-124z" />
    <glyph glyph-name="otilde" unicode="&#xf5;" horiz-adv-x="638" 
d="M319 -16q-75 0 -137.5 34t-99.5 96t-37 141q0 73 34.5 134.5t97.5 98.5t142 37q75 0 137.5 -33.5t99.5 -95.5t37 -141q0 -74 -34.5 -135.5t-97.5 -98.5t-142 -37zM319 108q59 0 97 41t38 106q0 64 -37.5 105t-97.5 41t-97.5 -41t-37.5 -105q0 -65 38 -106t97 -41z
M399 613q-29 0 -49.5 9t-36 20t-28.5 20t-28 9q-17 0 -24 -13.5t-7 -42.5h-93v10q2 69 29.5 106.5t77.5 37.5q29 0 49.5 -9t36 -20t28.5 -20t28 -9q17 0 24 13.5t7 42.5h92v-10q-1 -69 -28.5 -106.5t-77.5 -37.5z" />
    <glyph glyph-name="odieresis" unicode="&#xf6;" horiz-adv-x="638" 
d="M319 -16q-75 0 -137.5 34t-99.5 96t-37 141q0 73 34.5 134.5t97.5 98.5t142 37q75 0 137.5 -33.5t99.5 -95.5t37 -141q0 -74 -34.5 -135.5t-97.5 -98.5t-142 -37zM319 108q59 0 97 41t38 106q0 64 -37.5 105t-97.5 41t-97.5 -41t-37.5 -105q0 -65 38 -106t97 -41z
M210 616q-33 0 -52.5 19.5t-19.5 50.5q0 30 20.5 49.5t51.5 19.5q32 0 52 -19.5t20 -49.5q0 -31 -20 -50.5t-52 -19.5zM428 616q-33 0 -52.5 19.5t-19.5 50.5q0 30 20.5 49.5t51.5 19.5q32 0 52 -19.5t20 -49.5q0 -31 -20 -50.5t-52 -19.5z" />
    <glyph glyph-name="divide" unicode="&#xf7;" horiz-adv-x="620" 
d="M76 391h469v-112h-469v112zM310 71q-33 0 -53.5 20t-20.5 51q0 30 21 50.5t53 20.5q31 0 52 -20.5t21 -50.5q0 -31 -20.5 -51t-52.5 -20zM310 457q-33 0 -53.5 20t-20.5 51q0 30 21 50.5t53 20.5q31 0 52 -20.5t21 -50.5q0 -31 -20.5 -51t-52.5 -20z" />
    <glyph glyph-name="oslash" unicode="&#xf8;" horiz-adv-x="638" 
d="M319 -16q-93 0 -162 48l-56 -56l-61 60l56 56q-51 70 -51 163q0 73 34.5 134.5t97.5 98.5t142 37q90 0 162 -49l56 56l61 -60l-56 -56q51 -71 51 -161q0 -74 -34.5 -135.5t-97.5 -98.5t-142 -37zM394 390q-32 20 -75 20q-63 0 -103 -43t-40 -112q0 -43 13 -70zM319 99
q64 0 103.5 43.5t39.5 112.5q0 40 -13 69l-205 -205q32 -20 75 -20z" />
    <glyph glyph-name="ugrave" unicode="&#xf9;" horiz-adv-x="618" 
d="M256 -16q-90 0 -137.5 55.5t-47.5 160.5v309h139v-283q0 -119 91 -119q50 0 77 33.5t27 94.5v274h139v-509h-134l-1 62q-22 -38 -61.5 -58t-91.5 -20zM138 777h154l106 -167h-119z" />
    <glyph glyph-name="uacute" unicode="&#xfa;" horiz-adv-x="618" 
d="M256 -16q-90 0 -137.5 55.5t-47.5 160.5v309h139v-283q0 -119 91 -119q50 0 77 33.5t27 94.5v274h139v-509h-134l-1 62q-22 -38 -61.5 -58t-91.5 -20zM318 777h154l-140 -167h-119z" />
    <glyph glyph-name="ucircumflex" unicode="&#xfb;" horiz-adv-x="618" 
d="M256 -16q-90 0 -137.5 55.5t-47.5 160.5v309h139v-283q0 -119 91 -119q50 0 77 33.5t27 94.5v274h139v-509h-134l-1 62q-22 -38 -61.5 -58t-91.5 -20zM245 777h120l138 -167h-124l-74 89l-74 -89h-124z" />
    <glyph glyph-name="udieresis" unicode="&#xfc;" horiz-adv-x="618" 
d="M256 -16q-90 0 -137.5 55.5t-47.5 160.5v309h139v-283q0 -119 91 -119q50 0 77 33.5t27 94.5v274h139v-509h-134l-1 62q-22 -38 -61.5 -58t-91.5 -20zM196 616q-33 0 -52.5 19.5t-19.5 50.5q0 30 20.5 49.5t51.5 19.5q32 0 52 -19.5t20 -49.5q0 -31 -20 -50.5t-52 -19.5z
M414 616q-33 0 -52.5 19.5t-19.5 50.5q0 30 20.5 49.5t51.5 19.5q32 0 52 -19.5t20 -49.5q0 -31 -20 -50.5t-52 -19.5z" />
    <glyph glyph-name="yacute" unicode="&#xfd;" horiz-adv-x="590" 
d="M228 35l-212 474h151l132 -327l126 327h149l-337 -754h-144zM312 777h154l-140 -167h-119z" />
    <glyph glyph-name="thorn" unicode="&#xfe;" horiz-adv-x="659" 
d="M74 -245v1055h139v-361q52 76 165 76q67 0 120.5 -33t84.5 -94.5t31 -141.5q0 -74 -30.5 -135.5t-86.5 -99t-126 -37.5q-51 0 -92 19.5t-66 55.5v-304h-139zM340 108q60 0 97.5 41t37.5 105q0 65 -38 106t-97 41t-97 -41t-38 -106q0 -64 37.5 -105t97.5 -41z" />
    <glyph glyph-name="ydieresis" unicode="&#xff;" horiz-adv-x="590" 
d="M228 35l-212 474h151l132 -327l126 327h149l-337 -754h-144zM190 616q-33 0 -52.5 19.5t-19.5 50.5q0 30 20.5 49.5t51.5 19.5q32 0 52 -19.5t20 -49.5q0 -31 -20 -50.5t-52 -19.5zM408 616q-33 0 -52.5 19.5t-19.5 50.5q0 30 20.5 49.5t51.5 19.5q32 0 52 -19.5
t20 -49.5q0 -31 -20 -50.5t-52 -19.5z" />
    <glyph glyph-name="Amacron" unicode="&#x100;" horiz-adv-x="812" 
d="M325 760h162l302 -760h-162l-72 200h-306l-73 -200h-153zM513 318l-112 306l-111 -306h223zM243 947h327v-101h-327v101z" />
    <glyph glyph-name="amacron" unicode="&#x101;" horiz-adv-x="659" 
d="M281 -16q-67 0 -120.5 33t-84.5 94.5t-31 141.5q0 74 30.5 135.5t86.5 99t126 37.5q52 0 94.5 -21.5t67.5 -60.5l2 66h133v-509h-133l-2 65q-26 -40 -69 -60.5t-100 -20.5zM319 108q59 0 97 41t38 106q0 64 -37.5 105t-97.5 41t-97.5 -41t-37.5 -105q0 -65 38 -106
t97 -41zM173 731h324v-99h-324v99z" />
    <glyph glyph-name="Abreve" unicode="&#x102;" horiz-adv-x="812" 
d="M325 760h162l302 -760h-162l-72 200h-306l-73 -200h-153zM513 318l-112 306l-111 -306h223zM406 820q-83 0 -130.5 40.5t-47.5 110.5q0 6 1 11h100q0 -36 20 -55.5t57 -19.5t57 19.5t20 55.5h100q1 -5 1 -11q0 -70 -47.5 -110.5t-130.5 -40.5z" />
    <glyph glyph-name="abreve" unicode="&#x103;" horiz-adv-x="659" 
d="M281 -16q-67 0 -120.5 33t-84.5 94.5t-31 141.5q0 74 30.5 135.5t86.5 99t126 37.5q52 0 94.5 -21.5t67.5 -60.5l2 66h133v-509h-133l-2 65q-26 -40 -69 -60.5t-100 -20.5zM319 108q59 0 97 41t38 106q0 64 -37.5 105t-97.5 41t-97.5 -41t-37.5 -105q0 -65 38 -106
t97 -41zM335 592q-80 0 -126.5 41.5t-46.5 113.5q0 7 1 13h95q0 -83 77 -83t77 83h95q1 -6 1 -13q0 -72 -46.5 -113.5t-126.5 -41.5z" />
    <glyph glyph-name="Aogonek" unicode="&#x104;" horiz-adv-x="812" 
d="M325 760h162l302 -760h-162l-72 200h-306l-73 -200h-153zM513 318l-112 306l-111 -306h223zM710 -259q-59 0 -92 27.5t-33 76.5q0 52 39.5 102t111.5 89l53 -36q-91 -68 -91 -122q0 -34 41 -34q24 0 48 12l9 -95q-14 -9 -37.5 -14.5t-48.5 -5.5z" />
    <glyph glyph-name="aogonek" unicode="&#x105;" horiz-adv-x="659" 
d="M281 -16q-67 0 -120.5 33t-84.5 94.5t-31 141.5q0 74 30.5 135.5t86.5 99t126 37.5q52 0 94.5 -21.5t67.5 -60.5l2 66h133v-509h-133l-2 65q-26 -40 -69 -60.5t-100 -20.5zM319 108q59 0 97 41t38 106q0 64 -37.5 105t-97.5 41t-97.5 -41t-37.5 -105q0 -65 38 -106
t97 -41zM506 -259q-58 0 -91 27.5t-33 76.5q0 52 40 102.5t111 88.5l52 -36q-94 -68 -94 -122q0 -17 11 -26.5t31 -9.5q30 0 51 11l9 -92q-14 -9 -38 -14.5t-49 -5.5z" />
    <glyph glyph-name="Cacute" unicode="&#x106;" horiz-adv-x="762" 
d="M454 -11q-118 0 -209 46.5t-143 134.5t-52 206q0 112 50.5 201.5t144.5 141.5t217 52q62 0 126.5 -16.5t110.5 -44.5l-25 -129q-109 54 -210 54q-74 0 -132 -31t-91 -89t-33 -136q0 -117 70 -185.5t189 -68.5q52 0 111 15t111 42l16 -132q-51 -29 -117 -45t-134 -16z
M433 978h168l-150 -143h-132z" />
    <glyph glyph-name="cacute" unicode="&#x107;" horiz-adv-x="541" 
d="M325 -13q-83 0 -146.5 32t-98.5 92t-35 141q0 78 34 139t97.5 96t147.5 35q45 0 89.5 -10t74.5 -27l-17 -118q-67 32 -134 32q-70 0 -111.5 -39t-41.5 -105q0 -68 42 -106.5t115 -38.5q64 0 139 31l14 -114q-32 -19 -77 -29.5t-92 -10.5zM309 777h154l-140 -167h-119z
" />
    <glyph glyph-name="Cdotaccent" unicode="&#x10a;" horiz-adv-x="762" 
d="M454 -11q-118 0 -209 46.5t-143 134.5t-52 206q0 112 50.5 201.5t144.5 141.5t217 52q62 0 126.5 -16.5t110.5 -44.5l-25 -129q-109 54 -210 54q-74 0 -132 -31t-91 -89t-33 -136q0 -117 70 -185.5t189 -68.5q52 0 111 15t111 42l16 -132q-51 -29 -117 -45t-134 -16z
M421 829q-37 0 -59.5 22t-22.5 57t23 57t59 22q37 0 59.5 -22t22.5 -57t-23 -57t-59 -22z" />
    <glyph glyph-name="cdotaccent" unicode="&#x10b;" horiz-adv-x="541" 
d="M325 -13q-83 0 -146.5 32t-98.5 92t-35 141q0 78 34 139t97.5 96t147.5 35q45 0 89.5 -10t74.5 -27l-17 -118q-67 32 -134 32q-70 0 -111.5 -39t-41.5 -105q0 -68 42 -106.5t115 -38.5q64 0 139 31l14 -114q-32 -19 -77 -29.5t-92 -10.5zM296 613q-35 0 -56.5 21
t-21.5 55t21.5 55t56.5 21t57 -21t22 -55t-22 -55t-57 -21z" />
    <glyph glyph-name="Ccaron" unicode="&#x10c;" horiz-adv-x="762" 
d="M454 -11q-118 0 -209 46.5t-143 134.5t-52 206q0 112 50.5 201.5t144.5 141.5t217 52q62 0 126.5 -16.5t110.5 -44.5l-25 -129q-109 54 -210 54q-74 0 -132 -31t-91 -89t-33 -136q0 -117 70 -185.5t189 -68.5q52 0 111 15t111 42l16 -132q-51 -29 -117 -45t-134 -16z
M211 986h139l71 -78l71 78h139l-142 -151h-136z" />
    <glyph glyph-name="ccaron" unicode="&#x10d;" horiz-adv-x="541" 
d="M325 -13q-83 0 -146.5 32t-98.5 92t-35 141q0 78 34 139t97.5 96t147.5 35q45 0 89.5 -10t74.5 -27l-17 -118q-67 32 -134 32q-70 0 -111.5 -39t-41.5 -105q0 -68 42 -106.5t115 -38.5q64 0 139 31l14 -114q-32 -19 -77 -29.5t-92 -10.5zM98 777h124l74 -90l74 90h124
l-138 -167h-120z" />
    <glyph glyph-name="Dcaron" unicode="&#x10e;" horiz-adv-x="849" 
d="M91 760h291q198 0 307.5 -99.5t109.5 -279.5q0 -181 -112.5 -281t-315.5 -100h-280v760zM243 123h125q273 0 273 257t-272 257h-126v-514zM186 986h139l71 -78l71 78h139l-142 -151h-136z" />
    <glyph glyph-name="dcaron" unicode="&#x10f;" horiz-adv-x="659" 
d="M281 -16q-67 0 -120.5 33t-84.5 94.5t-31 141.5q0 74 30.5 135.5t86.5 99t126 37.5q50 0 91.5 -20t66.5 -56v361h139v-810h-133l-2 65q-26 -40 -69 -60.5t-100 -20.5zM319 108q59 0 97 41t38 106q0 64 -37.5 105t-97.5 41t-97.5 -41t-37.5 -105q0 -65 38 -106t97 -41z
M662 810h133l-54 -239h-91z" />
    <glyph glyph-name="Dcroat" unicode="&#x110;" horiz-adv-x="859" 
d="M101 329h-91v107h91v324h291q198 0 307.5 -99.5t109.5 -279.5q0 -181 -112.5 -281t-315.5 -100h-280v329zM253 123h125q273 0 273 257t-272 257h-126v-201h163v-107h-163v-206z" />
    <glyph glyph-name="dcroat" unicode="&#x111;" horiz-adv-x="659" 
d="M281 -16q-67 0 -120.5 33t-84.5 94.5t-31 141.5q0 74 30.5 135.5t86.5 99t126 37.5q50 0 91.5 -20t66.5 -56v160h-150v90h150v111h139v-111h79v-90h-79v-609h-133l-2 65q-26 -40 -69 -60.5t-100 -20.5zM319 108q59 0 97 41t38 106q0 64 -37.5 105t-97.5 41t-97.5 -41
t-37.5 -105q0 -65 38 -106t97 -41z" />
    <glyph glyph-name="Emacron" unicode="&#x112;" horiz-adv-x="672" 
d="M91 760h502v-128h-354v-182h313v-127h-313v-195h368v-128h-516v760zM186 947h327v-101h-327v101z" />
    <glyph glyph-name="emacron" unicode="&#x113;" horiz-adv-x="599" 
d="M341 -16q-89 0 -155.5 32t-103.5 93.5t-37 144.5q0 77 32 138.5t91 97t137 35.5q72 0 126.5 -30.5t85 -87.5t30.5 -135q0 -33 -5 -60h-359q26 -114 173 -114q46 0 89.5 9.5t78.5 27.5l14 -109q-36 -20 -88 -31t-109 -11zM414 309q-5 53 -34.5 81.5t-78.5 28.5
q-48 0 -79 -28.5t-40 -81.5h232zM138 731h324v-99h-324v99z" />
    <glyph glyph-name="Edotaccent" unicode="&#x116;" horiz-adv-x="672" 
d="M91 760h502v-128h-354v-182h313v-127h-313v-195h368v-128h-516v760zM349 829q-37 0 -59.5 22t-22.5 57t23 57t59 22q37 0 59.5 -22t22.5 -57t-23 -57t-59 -22z" />
    <glyph glyph-name="edotaccent" unicode="&#x117;" horiz-adv-x="599" 
d="M341 -16q-89 0 -155.5 32t-103.5 93.5t-37 144.5q0 77 32 138.5t91 97t137 35.5q72 0 126.5 -30.5t85 -87.5t30.5 -135q0 -33 -5 -60h-359q26 -114 173 -114q46 0 89.5 9.5t78.5 27.5l14 -109q-36 -20 -88 -31t-109 -11zM414 309q-5 53 -34.5 81.5t-78.5 28.5
q-48 0 -79 -28.5t-40 -81.5h232zM300 613q-35 0 -56.5 21t-21.5 55t21.5 55t56.5 21t57 -21t22 -55t-22 -55t-57 -21z" />
    <glyph glyph-name="Eogonek" unicode="&#x118;" horiz-adv-x="672" 
d="M91 760h502v-128h-354v-182h313v-127h-313v-195h368v-128h-516v760zM528 -259q-59 0 -92 27.5t-33 76.5q0 52 39.5 102t111.5 89l53 -36q-91 -68 -91 -122q0 -34 41 -34q24 0 48 12l9 -95q-14 -9 -37.5 -14.5t-48.5 -5.5z" />
    <glyph glyph-name="eogonek" unicode="&#x119;" horiz-adv-x="599" 
d="M341 -16q-89 0 -155.5 32t-103.5 93.5t-37 144.5q0 77 32 138.5t91 97t137 35.5q72 0 126.5 -30.5t85 -87.5t30.5 -135q0 -33 -5 -60h-359q26 -114 173 -114q46 0 89.5 9.5t78.5 27.5l14 -109q-36 -20 -88 -31t-109 -11zM414 309q-5 53 -34.5 81.5t-78.5 28.5
q-48 0 -79 -28.5t-40 -81.5h232zM434 -259q-59 0 -92 27t-33 76q0 56 42.5 107.5t114.5 81.5l72 -7q-120 -82 -120 -147q0 -37 43 -37q31 0 50 12l10 -93q-37 -20 -87 -20z" />
    <glyph glyph-name="Ecaron" unicode="&#x11a;" horiz-adv-x="672" 
d="M91 760h502v-128h-354v-182h313v-127h-313v-195h368v-128h-516v760zM139 986h139l71 -78l71 78h139l-142 -151h-136z" />
    <glyph glyph-name="ecaron" unicode="&#x11b;" horiz-adv-x="599" 
d="M341 -16q-89 0 -155.5 32t-103.5 93.5t-37 144.5q0 77 32 138.5t91 97t137 35.5q72 0 126.5 -30.5t85 -87.5t30.5 -135q0 -33 -5 -60h-359q26 -114 173 -114q46 0 89.5 9.5t78.5 27.5l14 -109q-36 -20 -88 -31t-109 -11zM414 309q-5 53 -34.5 81.5t-78.5 28.5
q-48 0 -79 -28.5t-40 -81.5h232zM102 777h124l74 -90l74 90h124l-138 -167h-120z" />
    <glyph glyph-name="Gbreve" unicode="&#x11e;" horiz-adv-x="824" 
d="M464 -11q-122 0 -215.5 46t-146 133t-52.5 204t52 207t149.5 141t227.5 51q69 0 137 -15.5t123 -44.5l-25 -132q-53 27 -115.5 41.5t-125.5 14.5q-78 0 -138.5 -31t-94.5 -89.5t-34 -136.5q0 -119 71.5 -187t195.5 -68q65 0 140 19v162h-152v122h294v-381
q-130 -56 -291 -56zM430 820q-83 0 -130.5 40.5t-47.5 110.5q0 6 1 11h100q0 -36 20 -55.5t57 -19.5t57 19.5t20 55.5h100q1 -5 1 -11q0 -70 -47.5 -110.5t-130.5 -40.5z" />
    <glyph glyph-name="gbreve" unicode="&#x11f;" horiz-adv-x="659" 
d="M299 -254q-52 0 -108 11.5t-88 29.5l15 126q31 -19 77 -31t89 -12q85 0 125.5 38.5t40.5 120.5v36q-26 -40 -69 -60.5t-100 -20.5q-67 0 -120.5 33t-84.5 94.5t-31 141.5q0 74 30.5 135.5t86.5 99t126 37.5q52 0 94.5 -21.5t67.5 -60.5l2 66h133v-473q0 -143 -72 -216.5
t-214 -73.5zM319 108q59 0 97 41t38 106q0 64 -37.5 105t-97.5 41t-97.5 -41t-37.5 -105q0 -65 38 -106t97 -41zM335 592q-80 0 -126.5 41.5t-46.5 113.5q0 7 1 13h95q0 -83 77 -83t77 83h95q1 -6 1 -13q0 -72 -46.5 -113.5t-126.5 -41.5z" />
    <glyph glyph-name="Gdotaccent" unicode="&#x120;" horiz-adv-x="824" 
d="M464 -11q-122 0 -215.5 46t-146 133t-52.5 204t52 207t149.5 141t227.5 51q69 0 137 -15.5t123 -44.5l-25 -132q-53 27 -115.5 41.5t-125.5 14.5q-78 0 -138.5 -31t-94.5 -89.5t-34 -136.5q0 -119 71.5 -187t195.5 -68q65 0 140 19v162h-152v122h294v-381
q-130 -56 -291 -56zM430 829q-37 0 -59.5 22t-22.5 57t23 57t59 22q37 0 59.5 -22t22.5 -57t-23 -57t-59 -22z" />
    <glyph glyph-name="gdotaccent" unicode="&#x121;" horiz-adv-x="659" 
d="M299 -254q-52 0 -108 11.5t-88 29.5l15 126q31 -19 77 -31t89 -12q85 0 125.5 38.5t40.5 120.5v36q-26 -40 -69 -60.5t-100 -20.5q-67 0 -120.5 33t-84.5 94.5t-31 141.5q0 74 30.5 135.5t86.5 99t126 37.5q52 0 94.5 -21.5t67.5 -60.5l2 66h133v-473q0 -143 -72 -216.5
t-214 -73.5zM319 108q59 0 97 41t38 106q0 64 -37.5 105t-97.5 41t-97.5 -41t-37.5 -105q0 -65 38 -106t97 -41zM335 613q-35 0 -56.5 21t-21.5 55t21.5 55t56.5 21t57 -21t22 -55t-22 -55t-57 -21z" />
    <glyph glyph-name="uni0122" unicode="&#x122;" horiz-adv-x="824" 
d="M464 -11q-122 0 -215.5 46t-146 133t-52.5 204t52 207t149.5 141t227.5 51q69 0 137 -15.5t123 -44.5l-25 -132q-53 27 -115.5 41.5t-125.5 14.5q-78 0 -138.5 -31t-94.5 -89.5t-34 -136.5q0 -119 71.5 -187t195.5 -68q65 0 140 19v162h-152v122h294v-381
q-130 -56 -291 -56zM326 -247q19 37 30.5 86.5t11.5 97.5h130q-1 -46 -20.5 -99t-47.5 -85h-104z" />
    <glyph glyph-name="uni0123" unicode="&#x123;" horiz-adv-x="659" 
d="M299 -254q-52 0 -108 11.5t-88 29.5l15 126q31 -19 77 -31t89 -12q85 0 125.5 38.5t40.5 120.5v36q-26 -40 -69 -60.5t-100 -20.5q-67 0 -120.5 33t-84.5 94.5t-31 141.5q0 74 30.5 135.5t86.5 99t126 37.5q52 0 94.5 -21.5t67.5 -60.5l2 66h133v-473q0 -143 -72 -216.5
t-214 -73.5zM319 108q59 0 97 41t38 106q0 64 -37.5 105t-97.5 41t-97.5 -41t-37.5 -105q0 -65 38 -106t97 -41zM259 610q1 46 20 93.5t48 80.5h99q-39 -76 -40 -174h-127z" />
    <glyph glyph-name="Hbar" unicode="&#x126;" horiz-adv-x="887" 
d="M108 545h-91v101h91v114h153v-114h365v114h153v-114h91v-101h-91v-545h-153v318h-365v-318h-153v545zM626 444v101h-365v-101h365z" />
    <glyph glyph-name="hbar" unicode="&#x127;" horiz-adv-x="619" 
d="M74 609h-79v90h79v111h139v-111h150v-90h-150v-150q24 32 62.5 49t87.5 17q90 0 137.5 -55.5t47.5 -160.5v-309h-139v283q0 119 -91 119q-50 0 -77.5 -33.5t-27.5 -94.5v-274h-139v609z" />
    <glyph glyph-name="Itilde" unicode="&#x128;" horiz-adv-x="335" 
d="M91 760h153v-760h-153v760zM245 832q-27 0 -47 9t-35 20t-28.5 20t-27.5 9q-16 0 -23.5 -13.5t-7.5 -42.5h-95v7q2 149 111 149q27 0 47 -9t35 -20t28.5 -20t27.5 -9q16 0 23 13t7 43h96v-7q-1 -73 -29.5 -111t-81.5 -38z" />
    <glyph glyph-name="itilde" unicode="&#x129;" horiz-adv-x="287" 
d="M74 509h139v-509h-139v509zM223 613q-29 0 -49.5 9t-36 20t-28.5 20t-28 9q-17 0 -24 -13.5t-7 -42.5h-93v10q2 69 29.5 106.5t77.5 37.5q29 0 49.5 -9t36 -20t28.5 -20t28 -9q17 0 24 13.5t7 42.5h92v-10q-1 -69 -28.5 -106.5t-77.5 -37.5z" />
    <glyph glyph-name="Imacron" unicode="&#x12a;" horiz-adv-x="335" 
d="M91 760h153v-760h-153v760zM5 947h327v-101h-327v101z" />
    <glyph glyph-name="imacron" unicode="&#x12b;" horiz-adv-x="287" 
d="M74 509h139v-509h-139v509zM-19 731h324v-99h-324v99z" />
    <glyph glyph-name="Iogonek" unicode="&#x12e;" horiz-adv-x="335" 
d="M91 760h153v-760h-153v760zM165 -259q-59 0 -92 27.5t-33 76.5q0 52 39.5 102t111.5 89l53 -36q-91 -68 -91 -122q0 -34 41 -34q24 0 48 12l9 -95q-14 -9 -37.5 -14.5t-48.5 -5.5z" />
    <glyph glyph-name="iogonek" unicode="&#x12f;" horiz-adv-x="287" 
d="M74 509h139v-509h-139v509zM143 613q-36 0 -59.5 23.5t-23.5 57.5t23.5 57t59.5 23t59.5 -23t23.5 -57q0 -35 -23.5 -58t-59.5 -23zM134 -259q-58 0 -91 27.5t-33 76.5q0 52 40 102.5t111 88.5l52 -36q-94 -68 -94 -122q0 -17 11 -26.5t31 -9.5q30 0 51 11l9 -92
q-14 -9 -38 -14.5t-49 -5.5z" />
    <glyph glyph-name="Idotaccent" unicode="&#x130;" horiz-adv-x="335" 
d="M91 760h153v-760h-153v760zM168 829q-37 0 -59.5 22t-22.5 57t23 57t59 22q37 0 59.5 -22t22.5 -57t-23 -57t-59 -22z" />
    <glyph glyph-name="dotlessi" unicode="&#x131;" horiz-adv-x="287" 
d="M74 509h139v-509h-139v509z" />
    <glyph glyph-name="IJ" unicode="&#x132;" horiz-adv-x="901" 
d="M91 760h153v-760h-153v760zM553 -16q-51 0 -101 11.5t-82 31.5l15 124q65 -38 144 -38q71 0 102 38t31 126v483h153v-495q0 -142 -64.5 -211.5t-197.5 -69.5z" />
    <glyph glyph-name="ij" unicode="&#x133;" horiz-adv-x="573" 
d="M74 509h139v-509h-139v509zM143 613q-36 0 -59.5 23.5t-23.5 57.5t23.5 57t59.5 23t59.5 -23t23.5 -57q0 -35 -23.5 -58t-59.5 -23zM297 -254q-38 0 -70 6.5t-50 17.5l14 116q36 -18 83 -18q44 0 65 25t21 79v537h139v-544q0 -108 -51 -163.5t-151 -55.5zM429 613
q-36 0 -59.5 23.5t-23.5 57.5t23.5 57t59.5 23t59.5 -23t23.5 -57q0 -35 -23.5 -58t-59.5 -23z" />
    <glyph glyph-name="uni0136" unicode="&#x136;" horiz-adv-x="780" 
d="M91 760h152v-321l306 321h190l-356 -362l390 -398h-206l-324 339v-339h-152v760zM307 -247q19 37 30.5 86.5t11.5 97.5h130q-1 -46 -20.5 -99t-47.5 -85h-104z" />
    <glyph glyph-name="uni0137" unicode="&#x137;" horiz-adv-x="609" 
d="M74 810h139v-491l183 190h172l-229 -228l266 -281h-179l-213 232v-232h-139v810zM204 -247q19 37 30.5 87t12.5 97h127q-1 -46 -20.5 -99t-47.5 -85h-102z" />
    <glyph glyph-name="kgreenlandic" unicode="&#x138;" horiz-adv-x="610" 
d="M74 509h139v-201l186 201h169l-231 -237l269 -272h-184l-209 218v-218h-139v509z" />
    <glyph glyph-name="Lacute" unicode="&#x139;" horiz-adv-x="623" 
d="M91 760h153v-634h344v-126h-497v760zM180 978h168l-150 -143h-132z" />
    <glyph glyph-name="lacute" unicode="&#x13a;" horiz-adv-x="287" 
d="M74 810h139v-810h-139v810zM155 993h168l-150 -143h-132z" />
    <glyph glyph-name="uni013B" unicode="&#x13b;" horiz-adv-x="623" 
d="M91 760h153v-634h344v-126h-497v760zM235 -247q19 37 30.5 86.5t11.5 97.5h130q-1 -46 -20.5 -99t-47.5 -85h-104z" />
    <glyph glyph-name="uni013C" unicode="&#x13c;" horiz-adv-x="287" 
d="M74 810h139v-810h-139v810zM43 -247q19 37 30.5 87t12.5 97h127q-1 -46 -20.5 -99t-47.5 -85h-102z" />
    <glyph glyph-name="Lcaron" unicode="&#x13d;" horiz-adv-x="623" 
d="M91 760h153v-634h344v-126h-497v760zM345 810h133l-54 -239h-91z" />
    <glyph glyph-name="lcaron" unicode="&#x13e;" horiz-adv-x="287" 
d="M74 810h139v-810h-139v810zM290 810h133l-54 -239h-91z" />
    <glyph glyph-name="Lslash" unicode="&#x141;" horiz-adv-x="652" 
d="M120 240l-91 -56l-4 123l95 59v394h153v-300l190 118l4 -124l-194 -120v-208h344v-126h-497v240z" />
    <glyph glyph-name="lslash" unicode="&#x142;" horiz-adv-x="347" 
d="M104 295l-86 -42l-3 111l89 44v402h139v-333l86 42l3 -111l-89 -44v-364h-139v295z" />
    <glyph glyph-name="Nacute" unicode="&#x143;" horiz-adv-x="861" 
d="M91 760h136l398 -528v528h145v-760h-136l-398 526v-526h-145v760zM434 978h168l-150 -143h-132z" />
    <glyph glyph-name="nacute" unicode="&#x144;" horiz-adv-x="619" 
d="M74 509h134l1 -63q22 38 61.5 58.5t92.5 20.5q90 0 137.5 -55.5t47.5 -160.5v-309h-139v283q0 119 -91 119q-50 0 -77.5 -33.5t-27.5 -94.5v-274h-139v509zM325 777h154l-140 -167h-119z" />
    <glyph glyph-name="uni0145" unicode="&#x145;" horiz-adv-x="861" 
d="M91 760h136l398 -528v528h145v-760h-136l-398 526v-526h-145v760zM326 -247q19 37 30.5 86.5t11.5 97.5h130q-1 -46 -20.5 -99t-47.5 -85h-104z" />
    <glyph glyph-name="uni0146" unicode="&#x146;" horiz-adv-x="619" 
d="M74 509h134l1 -63q22 38 61.5 58.5t92.5 20.5q90 0 137.5 -55.5t47.5 -160.5v-309h-139v283q0 119 -91 119q-50 0 -77.5 -33.5t-27.5 -94.5v-274h-139v509zM199 -247q19 37 30.5 87t12.5 97h127q-1 -46 -20.5 -99t-47.5 -85h-102z" />
    <glyph glyph-name="Ncaron" unicode="&#x147;" horiz-adv-x="861" 
d="M91 760h136l398 -528v528h145v-760h-136l-398 526v-526h-145v760zM212 986h139l71 -78l71 78h139l-142 -151h-136z" />
    <glyph glyph-name="ncaron" unicode="&#x148;" horiz-adv-x="619" 
d="M74 509h134l1 -63q22 38 61.5 58.5t92.5 20.5q90 0 137.5 -55.5t47.5 -160.5v-309h-139v283q0 119 -91 119q-50 0 -77.5 -33.5t-27.5 -94.5v-274h-139v509zM114 777h124l74 -90l74 90h124l-138 -167h-120z" />
    <glyph glyph-name="Omacron" unicode="&#x14c;" horiz-adv-x="903" 
d="M451 120q68 0 123.5 32t88 92t32.5 136q0 72 -30 131t-86 94t-128 35q-68 0 -123 -32t-87.5 -91.5t-32.5 -136.5q0 -72 30 -131t85.5 -94t127.5 -35zM451 -16q-110 0 -201 49.5t-145.5 140t-54.5 206.5q0 107 50.5 197t142.5 144.5t208 54.5q111 0 202 -49.5t145.5 -140
t54.5 -206.5q0 -107 -50.5 -197t-143 -144.5t-208.5 -54.5zM288 947h327v-101h-327v101z" />
    <glyph glyph-name="omacron" unicode="&#x14d;" horiz-adv-x="638" 
d="M319 -16q-75 0 -137.5 34t-99.5 96t-37 141q0 73 34.5 134.5t97.5 98.5t142 37q75 0 137.5 -33.5t99.5 -95.5t37 -141q0 -74 -34.5 -135.5t-97.5 -98.5t-142 -37zM319 108q59 0 97 41t38 106q0 64 -37.5 105t-97.5 41t-97.5 -41t-37.5 -105q0 -65 38 -106t97 -41z
M157 731h324v-99h-324v99z" />
    <glyph glyph-name="Ohungarumlaut" unicode="&#x150;" horiz-adv-x="903" 
d="M451 120q68 0 123.5 32t88 92t32.5 136q0 72 -30 131t-86 94t-128 35q-68 0 -123 -32t-87.5 -91.5t-32.5 -136.5q0 -72 30 -131t85.5 -94t127.5 -35zM451 -16q-110 0 -201 49.5t-145.5 140t-54.5 206.5q0 107 50.5 197t142.5 144.5t208 54.5q111 0 202 -49.5t145.5 -140
t54.5 -206.5q0 -107 -50.5 -197t-143 -144.5t-208.5 -54.5zM349 977h155l-114 -142h-127zM562 977h155l-113 -142h-129z" />
    <glyph glyph-name="ohungarumlaut" unicode="&#x151;" horiz-adv-x="638" 
d="M319 -16q-75 0 -137.5 34t-99.5 96t-37 141q0 73 34.5 134.5t97.5 98.5t142 37q75 0 137.5 -33.5t99.5 -95.5t37 -141q0 -74 -34.5 -135.5t-97.5 -98.5t-142 -37zM319 108q59 0 97 41t38 106q0 64 -37.5 105t-97.5 41t-97.5 -41t-37.5 -105q0 -65 38 -106t97 -41z
M238 777h139l-114 -167h-111zM430 777h138l-114 -167h-111z" />
    <glyph glyph-name="OE" unicode="&#x152;" horiz-adv-x="1264" 
d="M435 -16q-105 0 -192.5 49.5t-140 140.5t-52.5 206q0 107 48.5 197t137.5 144.5t200 54.5q80 0 143.5 -27.5t103.5 -77.5v89h502v-128h-354v-182h313v-127h-313v-195h368v-128h-516v87q-42 -50 -105.5 -76.5t-142.5 -26.5zM452 120q68 0 123.5 32t88 92t32.5 136
q0 72 -30 131t-86 94t-128 35q-68 0 -123 -32t-87.5 -91.5t-32.5 -136.5q0 -72 30 -131t85.5 -94t127.5 -35z" />
    <glyph glyph-name="oe" unicode="&#x153;" horiz-adv-x="1007" 
d="M319 108q59 0 97 41t38 106q0 64 -37.5 105t-97.5 41t-97.5 -41t-37.5 -105q0 -65 38 -106t97 -41zM319 -16q-75 0 -137.5 34t-99.5 96t-37 141q0 73 34.5 134.5t97.5 98.5t142 37q62 0 114.5 -26t87.5 -75q32 49 82 75t110 26q72 0 126.5 -30.5t85 -87.5t30.5 -135
q0 -33 -5 -60h-359q26 -114 173 -114q46 0 89.5 9.5t78.5 27.5l14 -109q-36 -20 -88 -31t-109 -11q-76 0 -134 26.5t-94 76.5q-35 -49 -87.5 -76t-114.5 -27zM822 309q-5 53 -34.5 81.5t-78.5 28.5q-48 0 -79 -28.5t-40 -81.5h232z" />
    <glyph glyph-name="Racute" unicode="&#x154;" horiz-adv-x="720" 
d="M91 760h247q131 0 206 -64.5t75 -177.5q0 -67 -33 -120.5t-94 -86.5l203 -311h-172l-163 273q-17 -1 -28.5 -1.5t-21.5 -0.5h-73v-271h-146v760zM237 394h75q157 0 157 123q0 59 -38.5 89.5t-113.5 30.5h-80v-243zM344 978h168l-150 -143h-132z" />
    <glyph glyph-name="racute" unicode="&#x155;" horiz-adv-x="435" 
d="M74 509h134l1 -84q21 45 56.5 69t82.5 24q32 0 59 -11l-12 -131q-31 12 -62 12q-57 0 -88.5 -41t-31.5 -115v-232h-139v509zM244 777h154l-140 -167h-119z" />
    <glyph glyph-name="Rcaron" unicode="&#x158;" horiz-adv-x="720" 
d="M91 760h247q131 0 206 -64.5t75 -177.5q0 -67 -33 -120.5t-94 -86.5l203 -311h-172l-163 273q-17 -1 -28.5 -1.5t-21.5 -0.5h-73v-271h-146v760zM237 394h75q157 0 157 123q0 59 -38.5 89.5t-113.5 30.5h-80v-243zM122 986h139l71 -78l71 78h139l-142 -151h-136z" />
    <glyph glyph-name="rcaron" unicode="&#x159;" horiz-adv-x="435" 
d="M74 509h134l1 -84q21 45 56.5 69t82.5 24q32 0 59 -11l-12 -131q-31 12 -62 12q-57 0 -88.5 -41t-31.5 -115v-232h-139v509zM33 777h124l74 -90l74 90h124l-138 -167h-120z" />
    <glyph glyph-name="Sacute" unicode="&#x15a;" horiz-adv-x="662" 
d="M312 -16q-71 0 -143 17.5t-113 45.5l15 131q48 -31 112 -49t123 -18q69 0 106.5 25.5t37.5 71.5q0 39 -31.5 63t-119.5 52q-124 39 -177 93t-53 143q0 64 32.5 113t94.5 76.5t145 27.5q59 0 120 -15t107 -41l-21 -127q-43 25 -97.5 40.5t-103.5 15.5q-64 0 -96.5 -23
t-32.5 -66q0 -27 12.5 -44.5t41 -31.5t81.5 -31q136 -43 193 -98.5t57 -144.5q0 -105 -77.5 -165.5t-212.5 -60.5zM341 978h168l-150 -143h-132z" />
    <glyph glyph-name="sacute" unicode="&#x15b;" horiz-adv-x="493" 
d="M231 -16q-58 0 -110 13.5t-80 35.5l17 113q34 -23 79.5 -37t87.5 -14q85 0 85 43q0 23 -18 35t-75 28q-90 25 -128.5 63.5t-38.5 103.5q0 73 55 115t151 42q47 0 94 -11t77 -29l-16 -110q-31 18 -71.5 28.5t-77.5 10.5q-73 0 -73 -39q0 -22 17.5 -34.5t69.5 -27.5
q96 -28 135.5 -66t39.5 -105q0 -74 -58.5 -116t-161.5 -42zM266 777h154l-140 -167h-119z" />
    <glyph glyph-name="Scedilla" unicode="&#x15e;" horiz-adv-x="662" 
d="M312 -16q-71 0 -143 17.5t-113 45.5l15 131q48 -31 112 -49t123 -18q69 0 106.5 25.5t37.5 71.5q0 39 -31.5 63t-119.5 52q-124 39 -177 93t-53 143q0 64 32.5 113t94.5 76.5t145 27.5q59 0 120 -15t107 -41l-21 -127q-43 25 -97.5 40.5t-103.5 15.5q-64 0 -96.5 -23
t-32.5 -66q0 -27 12.5 -44.5t41 -31.5t81.5 -31q136 -43 193 -98.5t57 -144.5q0 -105 -77.5 -165.5t-212.5 -60.5zM294 -262q-23 0 -50.5 5.5t-42.5 13.5l16 76q28 -14 66 -14q54 0 54 33q0 31 -55 31q-26 0 -36 -3l36 130h84l-20 -65q46 -4 74 -30.5t28 -66.5
q0 -53 -40 -81.5t-114 -28.5z" />
    <glyph glyph-name="scedilla" unicode="&#x15f;" horiz-adv-x="493" 
d="M231 -16q-58 0 -110 13.5t-80 35.5l17 113q34 -23 79.5 -37t87.5 -14q85 0 85 43q0 23 -18 35t-75 28q-90 25 -128.5 63.5t-38.5 103.5q0 73 55 115t151 42q47 0 94 -11t77 -29l-16 -110q-31 18 -71.5 28.5t-77.5 10.5q-73 0 -73 -39q0 -22 17.5 -34.5t69.5 -27.5
q96 -28 135.5 -66t39.5 -105q0 -74 -58.5 -116t-161.5 -42zM218 -262q-26 0 -55.5 5.5t-42.5 13.5l16 73q28 -14 69 -14q55 0 55 36q0 33 -58 33q-21 0 -35 -2l35 127h80l-20 -66q47 -4 74.5 -30.5t27.5 -66.5q0 -50 -39.5 -79.5t-106.5 -29.5z" />
    <glyph glyph-name="Scaron" unicode="&#x160;" horiz-adv-x="662" 
d="M312 -16q-71 0 -143 17.5t-113 45.5l15 131q48 -31 112 -49t123 -18q69 0 106.5 25.5t37.5 71.5q0 39 -31.5 63t-119.5 52q-124 39 -177 93t-53 143q0 64 32.5 113t94.5 76.5t145 27.5q59 0 120 -15t107 -41l-21 -127q-43 25 -97.5 40.5t-103.5 15.5q-64 0 -96.5 -23
t-32.5 -66q0 -27 12.5 -44.5t41 -31.5t81.5 -31q136 -43 193 -98.5t57 -144.5q0 -105 -77.5 -165.5t-212.5 -60.5zM119 986h139l71 -78l71 78h139l-142 -151h-136z" />
    <glyph glyph-name="scaron" unicode="&#x161;" horiz-adv-x="493" 
d="M231 -16q-58 0 -110 13.5t-80 35.5l17 113q34 -23 79.5 -37t87.5 -14q85 0 85 43q0 23 -18 35t-75 28q-90 25 -128.5 63.5t-38.5 103.5q0 73 55 115t151 42q47 0 94 -11t77 -29l-16 -110q-31 18 -71.5 28.5t-77.5 10.5q-73 0 -73 -39q0 -22 17.5 -34.5t69.5 -27.5
q96 -28 135.5 -66t39.5 -105q0 -74 -58.5 -116t-161.5 -42zM55 777h124l74 -90l74 90h124l-138 -167h-120z" />
    <glyph glyph-name="uni0162" unicode="&#x162;" horiz-adv-x="711" 
d="M279 634h-244v126h641v-126h-244v-634h-153v634zM327 -262q-23 0 -50.5 5.5t-42.5 13.5l16 76q28 -14 66 -14q54 0 54 33q0 31 -55 31q-26 0 -36 -3l36 130h84l-20 -65q46 -4 74 -30.5t28 -66.5q0 -53 -40 -81.5t-114 -28.5z" />
    <glyph glyph-name="uni0163" unicode="&#x163;" horiz-adv-x="461" 
d="M298 -16q-95 0 -141 48.5t-46 148.5v213h-99v115h99v138h139v-138h159v-115h-159v-188q0 -53 18 -76t61 -23q49 0 90 22l15 -116q-23 -13 -59.5 -21t-76.5 -8zM237 -262q-26 0 -55.5 5.5t-42.5 13.5l16 73q28 -14 69 -14q55 0 55 36q0 33 -58 33q-21 0 -35 -2l35 127h80
l-20 -66q47 -4 74.5 -30.5t27.5 -66.5q0 -50 -39.5 -79.5t-106.5 -29.5z" />
    <glyph glyph-name="Tcaron" unicode="&#x164;" horiz-adv-x="711" 
d="M279 634h-244v126h641v-126h-244v-634h-153v634zM146 986h139l71 -78l71 78h139l-142 -151h-136z" />
    <glyph glyph-name="tcaron" unicode="&#x165;" horiz-adv-x="461" 
d="M298 -16q-95 0 -141 48.5t-46 148.5v213h-99v115h99v138h139v-138h159v-115h-159v-188q0 -53 18 -76t61 -23q49 0 90 22l15 -116q-23 -13 -59.5 -21t-76.5 -8zM329 810h128l-51 -215h-89z" />
    <glyph glyph-name="Utilde" unicode="&#x168;" horiz-adv-x="845" 
d="M421 -16q-159 0 -247 88t-88 249v439h153v-427q0 -213 183 -213q184 0 184 213v427h153v-439q0 -161 -88 -249t-250 -88zM499 832q-27 0 -47 9t-35 20t-28.5 20t-27.5 9q-16 0 -23.5 -13.5t-7.5 -42.5h-95v7q2 149 111 149q27 0 47 -9t35 -20t28.5 -20t27.5 -9
q16 0 23 13t7 43h96v-7q-1 -73 -29.5 -111t-81.5 -38z" />
    <glyph glyph-name="utilde" unicode="&#x169;" horiz-adv-x="618" 
d="M256 -16q-90 0 -137.5 55.5t-47.5 160.5v309h139v-283q0 -119 91 -119q50 0 77 33.5t27 94.5v274h139v-509h-134l-1 62q-22 -38 -61.5 -58t-91.5 -20zM385 613q-29 0 -49.5 9t-36 20t-28.5 20t-28 9q-17 0 -24 -13.5t-7 -42.5h-93v10q2 69 29.5 106.5t77.5 37.5
q29 0 49.5 -9t36 -20t28.5 -20t28 -9q17 0 24 13.5t7 42.5h92v-10q-1 -69 -28.5 -106.5t-77.5 -37.5z" />
    <glyph glyph-name="Umacron" unicode="&#x16a;" horiz-adv-x="845" 
d="M421 -16q-159 0 -247 88t-88 249v439h153v-427q0 -213 183 -213q184 0 184 213v427h153v-439q0 -161 -88 -249t-250 -88zM259 947h327v-101h-327v101z" />
    <glyph glyph-name="umacron" unicode="&#x16b;" horiz-adv-x="618" 
d="M256 -16q-90 0 -137.5 55.5t-47.5 160.5v309h139v-283q0 -119 91 -119q50 0 77 33.5t27 94.5v274h139v-509h-134l-1 62q-22 -38 -61.5 -58t-91.5 -20zM143 731h324v-99h-324v99z" />
    <glyph glyph-name="Uring" unicode="&#x16e;" horiz-adv-x="845" 
d="M421 -16q-159 0 -247 88t-88 249v439h153v-427q0 -213 183 -213q184 0 184 213v427h153v-439q0 -161 -88 -249t-250 -88zM422 817q-61 0 -101 38t-40 95t40 95t101 38t101 -38t40 -95t-40 -95t-101 -38zM422 892q27 0 42.5 16t15.5 42q0 27 -15.5 42.5t-42.5 15.5
t-42.5 -15.5t-15.5 -42.5q0 -26 15.5 -42t42.5 -16z" />
    <glyph glyph-name="uring" unicode="&#x16f;" horiz-adv-x="618" 
d="M256 -16q-90 0 -137.5 55.5t-47.5 160.5v309h139v-283q0 -119 91 -119q50 0 77 33.5t27 94.5v274h139v-509h-134l-1 62q-22 -38 -61.5 -58t-91.5 -20zM305 579q-61 0 -101 38t-40 95t40 95t101 38t101 -38t40 -95t-40 -95t-101 -38zM305 654q27 0 42.5 16t15.5 42
q0 27 -15.5 42.5t-42.5 15.5t-42.5 -15.5t-15.5 -42.5q0 -26 15.5 -42t42.5 -16z" />
    <glyph glyph-name="Uhungarumlaut" unicode="&#x170;" horiz-adv-x="845" 
d="M421 -16q-159 0 -247 88t-88 249v439h153v-427q0 -213 183 -213q184 0 184 213v427h153v-439q0 -161 -88 -249t-250 -88zM320 977h155l-114 -142h-127zM533 977h155l-113 -142h-129z" />
    <glyph glyph-name="uhungarumlaut" unicode="&#x171;" horiz-adv-x="618" 
d="M256 -16q-90 0 -137.5 55.5t-47.5 160.5v309h139v-283q0 -119 91 -119q50 0 77 33.5t27 94.5v274h139v-509h-134l-1 62q-22 -38 -61.5 -58t-91.5 -20zM224 777h139l-114 -167h-111zM416 777h138l-114 -167h-111z" />
    <glyph glyph-name="Uogonek" unicode="&#x172;" horiz-adv-x="845" 
d="M421 -16q-159 0 -247 88t-88 249v439h153v-427q0 -213 183 -213q184 0 184 213v427h153v-439q0 -161 -88 -249t-250 -88zM517 -259q-58 0 -92 27.5t-34 74.5q0 57 46 113t120 89l65 -11q-56 -38 -87 -78t-31 -74q0 -38 44 -38q27 0 53 13l10 -95q-13 -9 -40 -15t-54 -6z
" />
    <glyph glyph-name="uogonek" unicode="&#x173;" horiz-adv-x="618" 
d="M256 -16q-90 0 -137.5 55.5t-47.5 160.5v309h139v-283q0 -119 91 -119q50 0 77 33.5t27 94.5v274h139v-509h-134l-1 62q-22 -38 -61.5 -58t-91.5 -20zM465 -259q-58 0 -91 27.5t-33 76.5q0 52 40 102.5t111 88.5l52 -36q-94 -68 -94 -122q0 -17 11 -26.5t31 -9.5
q30 0 51 11l9 -92q-14 -9 -38 -14.5t-49 -5.5z" />
    <glyph glyph-name="Wcircumflex" unicode="&#x174;" horiz-adv-x="1124" 
d="M23 760h161l146 -567l166 557h133l166 -550l145 560h161l-229 -760h-145l-167 546l-164 -546h-146zM494 986h136l142 -151h-139l-71 76l-71 -76h-139z" />
    <glyph glyph-name="wcircumflex" unicode="&#x175;" horiz-adv-x="855" 
d="M21 509h145l93 -349l108 349h117l113 -350l94 350h143l-169 -509h-126l-115 336l-110 -336h-124zM367 777h120l138 -167h-124l-74 89l-74 -89h-124z" />
    <glyph glyph-name="Ycircumflex" unicode="&#x176;" horiz-adv-x="733" 
d="M290 317l-279 443h170l188 -324l189 324h164l-280 -443v-317h-152v317zM298 986h136l142 -151h-139l-71 76l-71 -76h-139z" />
    <glyph glyph-name="ycircumflex" unicode="&#x177;" horiz-adv-x="590" 
d="M228 35l-212 474h151l132 -327l126 327h149l-337 -754h-144zM239 777h120l138 -167h-124l-74 89l-74 -89h-124z" />
    <glyph glyph-name="Ydieresis" unicode="&#x178;" horiz-adv-x="733" 
d="M290 317l-279 443h170l188 -324l189 324h164l-280 -443v-317h-152v317zM255 833q-33 0 -53 19.5t-20 50.5t20 51t53 20t53.5 -19.5t20.5 -51.5q0 -31 -21 -50.5t-53 -19.5zM476 833q-32 0 -52.5 19.5t-20.5 50.5t20.5 51t52.5 20q33 0 53.5 -19.5t20.5 -51.5
q0 -31 -21 -50.5t-53 -19.5z" />
    <glyph glyph-name="Zacute" unicode="&#x179;" horiz-adv-x="731" 
d="M53 110l419 525h-395v125h586v-110l-419 -525h426v-125h-617v110zM373 978h168l-150 -143h-132z" />
    <glyph glyph-name="zacute" unicode="&#x17a;" horiz-adv-x="542" 
d="M44 99l260 295h-249v115h431v-99l-261 -295h268v-115h-449v99zM280 777h154l-140 -167h-119z" />
    <glyph glyph-name="Zdotaccent" unicode="&#x17b;" horiz-adv-x="731" 
d="M53 110l419 525h-395v125h586v-110l-419 -525h426v-125h-617v110zM361 829q-37 0 -59.5 22t-22.5 57t23 57t59 22q37 0 59.5 -22t22.5 -57t-23 -57t-59 -22z" />
    <glyph glyph-name="zdotaccent" unicode="&#x17c;" horiz-adv-x="542" 
d="M44 99l260 295h-249v115h431v-99l-261 -295h268v-115h-449v99zM267 613q-35 0 -56.5 21t-21.5 55t21.5 55t56.5 21t57 -21t22 -55t-22 -55t-57 -21z" />
    <glyph glyph-name="Zcaron" unicode="&#x17d;" horiz-adv-x="731" 
d="M53 110l419 525h-395v125h586v-110l-419 -525h426v-125h-617v110zM151 986h139l71 -78l71 78h139l-142 -151h-136z" />
    <glyph glyph-name="zcaron" unicode="&#x17e;" horiz-adv-x="542" 
d="M44 99l260 295h-249v115h431v-99l-261 -295h268v-115h-449v99zM69 777h124l74 -90l74 90h124l-138 -167h-120z" />
    <glyph glyph-name="florin" unicode="&#x192;" horiz-adv-x="428" 
d="M55 -254q-38 0 -70.5 6.5t-49.5 17.5l14 116q36 -18 83 -18q44 0 65 25t21 79v422h-92v115h92v63q0 116 56 179.5t159 63.5q30 0 62.5 -6t54.5 -16l-15 -114q-42 15 -81 15q-50 0 -73.5 -32.5t-23.5 -101.5v-51h137v-115h-137v-429q0 -108 -51 -163.5t-151 -55.5z" />
    <glyph glyph-name="uni0218" unicode="&#x218;" horiz-adv-x="662" 
d="M312 -16q-71 0 -143 17.5t-113 45.5l15 131q48 -31 112 -49t123 -18q69 0 106.5 25.5t37.5 71.5q0 39 -31.5 63t-119.5 52q-124 39 -177 93t-53 143q0 64 32.5 113t94.5 76.5t145 27.5q59 0 120 -15t107 -41l-21 -127q-43 25 -97.5 40.5t-103.5 15.5q-64 0 -96.5 -23
t-32.5 -66q0 -27 12.5 -44.5t41 -31.5t81.5 -31q136 -43 193 -98.5t57 -144.5q0 -105 -77.5 -165.5t-212.5 -60.5zM218 -247q19 37 30.5 86.5t11.5 97.5h130q-1 -46 -20.5 -99t-47.5 -85h-104z" />
    <glyph glyph-name="uni0219" unicode="&#x219;" horiz-adv-x="493" 
d="M231 -16q-58 0 -110 13.5t-80 35.5l17 113q34 -23 79.5 -37t87.5 -14q85 0 85 43q0 23 -18 35t-75 28q-90 25 -128.5 63.5t-38.5 103.5q0 73 55 115t151 42q47 0 94 -11t77 -29l-16 -110q-31 18 -71.5 28.5t-77.5 10.5q-73 0 -73 -39q0 -22 17.5 -34.5t69.5 -27.5
q96 -28 135.5 -66t39.5 -105q0 -74 -58.5 -116t-161.5 -42zM140 -247q19 37 30.5 87t12.5 97h127q-1 -46 -20.5 -99t-47.5 -85h-102z" />
    <glyph glyph-name="uni021A" unicode="&#x21a;" horiz-adv-x="711" 
d="M279 634h-244v126h641v-126h-244v-634h-153v634zM250 -247q19 37 30.5 86.5t11.5 97.5h130q-1 -46 -20.5 -99t-47.5 -85h-104z" />
    <glyph glyph-name="uni021B" unicode="&#x21b;" horiz-adv-x="461" 
d="M298 -16q-95 0 -141 48.5t-46 148.5v213h-99v115h99v138h139v-138h159v-115h-159v-188q0 -53 18 -76t61 -23q49 0 90 22l15 -116q-23 -13 -59.5 -21t-76.5 -8zM155 -247q19 37 30.5 87t12.5 97h127q-1 -46 -20.5 -99t-47.5 -85h-102z" />
    <glyph glyph-name="uni0237" unicode="&#x237;" horiz-adv-x="287" 
d="M11 -254q-38 0 -70 6.5t-50 17.5l14 116q36 -18 83 -18q44 0 65 25t21 79v537h139v-544q0 -108 -51 -163.5t-151 -55.5z" />
    <glyph glyph-name="circumflex" unicode="&#x2c6;" horiz-adv-x="500" 
d="M190 777h120l138 -167h-124l-74 89l-74 -89h-124z" />
    <glyph glyph-name="caron" unicode="&#x2c7;" horiz-adv-x="500" 
d="M52 777h124l74 -90l74 90h124l-138 -167h-120z" />
    <glyph glyph-name="uni02C9" unicode="&#x2c9;" horiz-adv-x="500" 
d="M88 731h324v-99h-324v99z" />
    <glyph glyph-name="uni02CB" unicode="&#x2cb;" horiz-adv-x="500" 
d="M120 777h154l106 -167h-119z" />
    <glyph glyph-name="breve" unicode="&#x2d8;" horiz-adv-x="500" 
d="M250 592q-80 0 -126.5 41.5t-46.5 113.5q0 7 1 13h95q0 -83 77 -83t77 83h95q1 -6 1 -13q0 -72 -46.5 -113.5t-126.5 -41.5z" />
    <glyph glyph-name="dotaccent" unicode="&#x2d9;" horiz-adv-x="500" 
d="M249 613q-35 0 -56.5 21t-21.5 55t21.5 55t56.5 21t57 -21t22 -55t-22 -55t-57 -21z" />
    <glyph glyph-name="ring" unicode="&#x2da;" horiz-adv-x="500" 
d="M250 579q-61 0 -101 38t-40 95t40 95t101 38t101 -38t40 -95t-40 -95t-101 -38zM250 654q27 0 42.5 16t15.5 42q0 27 -15.5 42.5t-42.5 15.5t-42.5 -15.5t-15.5 -42.5q0 -26 15.5 -42t42.5 -16z" />
    <glyph glyph-name="ogonek" unicode="&#x2db;" horiz-adv-x="500" 
d="M288 -259q-58 0 -91 27.5t-33 76.5q0 52 40 102.5t111 88.5l52 -36q-94 -68 -94 -122q0 -17 11 -26.5t31 -9.5q30 0 51 11l9 -92q-14 -9 -38 -14.5t-49 -5.5z" />
    <glyph glyph-name="tilde" unicode="&#x2dc;" horiz-adv-x="500" 
d="M330 613q-29 0 -49.5 9t-36 20t-28.5 20t-28 9q-17 0 -24 -13.5t-7 -42.5h-93v10q2 69 29.5 106.5t77.5 37.5q29 0 49.5 -9t36 -20t28.5 -20t28 -9q17 0 24 13.5t7 42.5h92v-10q-1 -69 -28.5 -106.5t-77.5 -37.5z" />
    <glyph glyph-name="hungarumlaut" unicode="&#x2dd;" horiz-adv-x="500" 
d="M144 777h139l-114 -167h-111zM336 777h138l-114 -167h-111z" />
    <glyph glyph-name="gravecomb" unicode="&#x300;" horiz-adv-x="0" 
d="M-167 777h154l106 -167h-119z" />
    <glyph glyph-name="acutecomb" unicode="&#x301;" horiz-adv-x="0" 
d="M13 777h154l-140 -167h-119z" />
    <glyph glyph-name="uni0302" unicode="&#x302;" horiz-adv-x="0" 
d="M-60 777h120l138 -167h-124l-74 89l-74 -89h-124z" />
    <glyph glyph-name="tildecomb" unicode="&#x303;" horiz-adv-x="0" 
d="M80 613q-29 0 -49.5 9t-36 20t-28.5 20t-28 9q-17 0 -24 -13.5t-7 -42.5h-93v10q2 69 29.5 106.5t77.5 37.5q29 0 49.5 -9t36 -20t28.5 -20t28 -9q17 0 24 13.5t7 42.5h92v-10q-1 -69 -28.5 -106.5t-77.5 -37.5z" />
    <glyph glyph-name="uni0304" unicode="&#x304;" horiz-adv-x="0" 
d="M-162 731h324v-99h-324v99z" />
    <glyph glyph-name="uni0306" unicode="&#x306;" horiz-adv-x="0" 
d="M0 592q-80 0 -126.5 41.5t-46.5 113.5q0 7 1 13h95q0 -83 77 -83t77 83h95q1 -6 1 -13q0 -72 -46.5 -113.5t-126.5 -41.5z" />
    <glyph glyph-name="uni0307" unicode="&#x307;" horiz-adv-x="0" 
d="M0 613q-35 0 -56.5 21t-21.5 55t21.5 55t56.5 21t57 -21t22 -55t-22 -55t-57 -21z" />
    <glyph glyph-name="uni0308" unicode="&#x308;" horiz-adv-x="0" 
d="M-109 616q-33 0 -52.5 19.5t-19.5 50.5q0 30 20.5 49.5t51.5 19.5q32 0 52 -19.5t20 -49.5q0 -31 -20 -50.5t-52 -19.5zM109 616q-33 0 -52.5 19.5t-19.5 50.5q0 30 20.5 49.5t51.5 19.5q32 0 52 -19.5t20 -49.5q0 -31 -20 -50.5t-52 -19.5z" />
    <glyph glyph-name="uni030A" unicode="&#x30a;" horiz-adv-x="0" 
d="M0 579q-61 0 -101 38t-40 95t40 95t101 38t101 -38t40 -95t-40 -95t-101 -38zM0 654q27 0 42.5 16t15.5 42q0 27 -15.5 42.5t-42.5 15.5t-42.5 -15.5t-15.5 -42.5q0 -26 15.5 -42t42.5 -16z" />
    <glyph glyph-name="uni030B" unicode="&#x30b;" horiz-adv-x="0" 
d="M-81 777h139l-114 -167h-111zM111 777h138l-114 -167h-111z" />
    <glyph glyph-name="uni030C" unicode="&#x30c;" horiz-adv-x="0" 
d="M-198 777h124l74 -90l74 90h124l-138 -167h-120z" />
    <glyph glyph-name="uni0312" unicode="&#x312;" horiz-adv-x="0" 
d="M-76 610q1 46 20 93.5t48 80.5h99q-39 -76 -40 -174h-127z" />
    <glyph glyph-name="uni0315" unicode="&#x315;" horiz-adv-x="0" 
d="M-55 810h133l-54 -239h-91z" />
    <glyph glyph-name="uni0326" unicode="&#x326;" horiz-adv-x="0" 
d="M-100 -247q19 37 30.5 87t12.5 97h127q-1 -46 -20.5 -99t-47.5 -85h-102z" />
    <glyph glyph-name="uni0327" unicode="&#x327;" horiz-adv-x="0" 
d="M-27 -262q-26 0 -55.5 5.5t-42.5 13.5l16 73q28 -14 69 -14q55 0 55 36q0 33 -58 33q-21 0 -35 -2l35 127h80l-20 -66q47 -4 74.5 -30.5t27.5 -66.5q0 -50 -39.5 -79.5t-106.5 -29.5z" />
    <glyph glyph-name="uni0328" unicode="&#x328;" horiz-adv-x="0" 
d="M-9 -259q-58 0 -91 27.5t-33 76.5q0 52 40 102.5t111 88.5l52 -36q-94 -68 -94 -122q0 -17 11 -26.5t31 -9.5q30 0 51 11l9 -92q-14 -9 -38 -14.5t-49 -5.5z" />
    <glyph glyph-name="pi" unicode="&#x3c0;" horiz-adv-x="693" 
d="M560 -10q-54 0 -83 15.5t-41 49t-12 90.5v250h-167v-395h-137v395h-82v114h607v-114h-87v-230q0 -32 9 -43.5t35 -11.5q16 0 33 5l5 -113q-38 -12 -80 -12z" />
    <glyph glyph-name="Wgrave" unicode="&#x1e80;" horiz-adv-x="1124" 
d="M23 760h161l146 -567l166 557h133l166 -550l145 560h161l-229 -760h-145l-167 546l-164 -546h-146zM379 978h168l115 -143h-131z" />
    <glyph glyph-name="wgrave" unicode="&#x1e81;" horiz-adv-x="855" 
d="M21 509h145l93 -349l108 349h117l113 -350l94 350h143l-169 -509h-126l-115 336l-110 -336h-124zM260 777h154l106 -167h-119z" />
    <glyph glyph-name="Wacute" unicode="&#x1e82;" horiz-adv-x="1124" 
d="M23 760h161l146 -567l166 557h133l166 -550l145 560h161l-229 -760h-145l-167 546l-164 -546h-146zM574 978h168l-150 -143h-132z" />
    <glyph glyph-name="wacute" unicode="&#x1e83;" horiz-adv-x="855" 
d="M21 509h145l93 -349l108 349h117l113 -350l94 350h143l-169 -509h-126l-115 336l-110 -336h-124zM440 777h154l-140 -167h-119z" />
    <glyph glyph-name="Wdieresis" unicode="&#x1e84;" horiz-adv-x="1124" 
d="M23 760h161l146 -567l166 557h133l166 -550l145 560h161l-229 -760h-145l-167 546l-164 -546h-146zM451 833q-33 0 -53 19.5t-20 50.5t20 51t53 20t53.5 -19.5t20.5 -51.5q0 -31 -21 -50.5t-53 -19.5zM672 833q-32 0 -52.5 19.5t-20.5 50.5t20.5 51t52.5 20
q33 0 53.5 -19.5t20.5 -51.5q0 -31 -21 -50.5t-53 -19.5z" />
    <glyph glyph-name="wdieresis" unicode="&#x1e85;" horiz-adv-x="855" 
d="M21 509h145l93 -349l108 349h117l113 -350l94 350h143l-169 -509h-126l-115 336l-110 -336h-124zM318 616q-33 0 -52.5 19.5t-19.5 50.5q0 30 20.5 49.5t51.5 19.5q32 0 52 -19.5t20 -49.5q0 -31 -20 -50.5t-52 -19.5zM536 616q-33 0 -52.5 19.5t-19.5 50.5
q0 30 20.5 49.5t51.5 19.5q32 0 52 -19.5t20 -49.5q0 -31 -20 -50.5t-52 -19.5z" />
    <glyph glyph-name="uni1E9E" unicode="&#x1e9e;" horiz-adv-x="798" 
d="M489 -16q-46 0 -92.5 11.5t-78.5 31.5l14 121q60 -40 142 -40q60 0 93.5 31.5t33.5 89.5q0 53 -33.5 83.5t-91.5 30.5q-17 0 -44 -5l-30 78l148 190q-59 37 -130 37q-88 0 -135 -58.5t-47 -168.5v-416h-152v430q0 163 87.5 254.5t244.5 91.5q75 0 149 -27.5t124 -74.5
v-90l-116 -145q84 -20 129.5 -77.5t45.5 -142.5q0 -106 -71.5 -170.5t-189.5 -64.5z" />
    <glyph glyph-name="Ygrave" unicode="&#x1ef2;" horiz-adv-x="733" 
d="M290 317l-279 443h170l188 -324l189 324h164l-280 -443v-317h-152v317zM183 978h168l115 -143h-131z" />
    <glyph glyph-name="ygrave" unicode="&#x1ef3;" horiz-adv-x="590" 
d="M228 35l-212 474h151l132 -327l126 327h149l-337 -754h-144zM132 777h154l106 -167h-119z" />
    <glyph glyph-name="uni2000" unicode="&#x2000;" horiz-adv-x="500" 
 />
    <glyph glyph-name="uni2001" unicode="&#x2001;" horiz-adv-x="1000" 
 />
    <glyph glyph-name="uni2002" unicode="&#x2002;" horiz-adv-x="500" 
 />
    <glyph glyph-name="uni2003" unicode="&#x2003;" horiz-adv-x="1000" 
 />
    <glyph glyph-name="uni2004" unicode="&#x2004;" horiz-adv-x="333" 
 />
    <glyph glyph-name="uni2005" unicode="&#x2005;" horiz-adv-x="250" 
 />
    <glyph glyph-name="uni2006" unicode="&#x2006;" horiz-adv-x="166" 
 />
    <glyph glyph-name="uni2007" unicode="&#x2007;" horiz-adv-x="620" 
 />
    <glyph glyph-name="uni2008" unicode="&#x2008;" horiz-adv-x="299" 
 />
    <glyph glyph-name="uni2009" unicode="&#x2009;" horiz-adv-x="200" 
 />
    <glyph glyph-name="uni200A" unicode="&#x200a;" horiz-adv-x="55" 
 />
    <glyph glyph-name="uni200B" unicode="&#x200b;" horiz-adv-x="0" 
 />
    <glyph glyph-name="uni2010" unicode="&#x2010;" horiz-adv-x="429" 
d="M61 348h307v-121h-307v121z" />
    <glyph glyph-name="figuredash" unicode="&#x2012;" horiz-adv-x="500" 
d="M0 342h500v-108h-500v108z" />
    <glyph glyph-name="endash" unicode="&#x2013;" horiz-adv-x="500" 
d="M0 342h500v-108h-500v108z" />
    <glyph glyph-name="emdash" unicode="&#x2014;" horiz-adv-x="1000" 
d="M0 342h1000v-108h-1000v108z" />
    <glyph glyph-name="uni2015" unicode="&#x2015;" horiz-adv-x="1000" 
d="M0 342h1000v-108h-1000v108z" />
    <glyph glyph-name="quoteleft" unicode="&#x2018;" horiz-adv-x="226" 
d="M35 512q1 64 19.5 130t48.5 118h103q-41 -117 -41 -248h-130z" />
    <glyph glyph-name="quoteright" unicode="&#x2019;" horiz-adv-x="226" 
d="M20 512q41 117 41 248h130q-1 -64 -19.5 -130t-48.5 -118h-103z" />
    <glyph glyph-name="quotesinglbase" unicode="&#x201a;" horiz-adv-x="226" 
d="M20 -126q41 117 41 248h130q-1 -64 -19.5 -130t-48.5 -118h-103z" />
    <glyph glyph-name="quotedblleft" unicode="&#x201c;" horiz-adv-x="424" 
d="M35 512q1 64 19.5 130t48.5 118h103q-41 -117 -41 -248h-130zM233 512q1 64 19.5 130t48.5 118h103q-41 -117 -41 -248h-130z" />
    <glyph glyph-name="quotedblright" unicode="&#x201d;" horiz-adv-x="424" 
d="M20 512q41 117 41 248h130q-1 -64 -19.5 -130t-48.5 -118h-103zM218 512q41 117 41 248h130q-1 -64 -19.5 -130t-48.5 -118h-103z" />
    <glyph glyph-name="quotedblbase" unicode="&#x201e;" horiz-adv-x="424" 
d="M20 -126q41 117 41 248h130q-1 -64 -19.5 -130t-48.5 -118h-103zM218 -126q41 117 41 248h130q-1 -64 -19.5 -130t-48.5 -118h-103z" />
    <glyph glyph-name="dagger" unicode="&#x2020;" horiz-adv-x="525" 
d="M193 427h-157v112h157v221h139v-221h156v-112h-156v-557h-139v557z" />
    <glyph glyph-name="daggerdbl" unicode="&#x2021;" horiz-adv-x="525" 
d="M193 79h-157v112h157v247h-157v111h157v211h139v-211h156v-111h-156v-247h156v-112h-156v-209h-139v209z" />
    <glyph glyph-name="bullet" unicode="&#x2022;" horiz-adv-x="357" 
d="M178 142q-54 0 -92 38.5t-38 92.5q0 35 16.5 64.5t46.5 47.5t67 18q55 0 93 -38t38 -92q0 -34 -16.5 -64t-47 -48.5t-67.5 -18.5z" />
    <glyph glyph-name="ellipsis" unicode="&#x2026;" horiz-adv-x="1000" 
d="M167 -6q-38 0 -62 23.5t-24 59.5t24.5 58.5t61.5 22.5t61 -23t24 -58q0 -36 -24 -59.5t-61 -23.5zM499 -6q-38 0 -62 23.5t-24 59.5t24.5 58.5t61.5 22.5t61 -23t24 -58q0 -36 -24 -59.5t-61 -23.5zM833 -6q-38 0 -62 23.5t-24 59.5t24.5 58.5t61.5 22.5t61 -23t24 -58
q0 -36 -24 -59.5t-61 -23.5z" />
    <glyph glyph-name="perthousand" unicode="&#x2030;" horiz-adv-x="1417" 
d="M251 475q38 0 61.5 25.5t23.5 67.5q0 41 -23.5 67t-61.5 26t-61.5 -26t-23.5 -67q0 -42 23.5 -67.5t61.5 -25.5zM251 376q-54 0 -98.5 24t-71 68t-26.5 100q0 52 24.5 95.5t70 70t101.5 26.5q53 0 98 -24t71.5 -68.5t26.5 -99.5q0 -53 -24.5 -96.5t-69.5 -69.5t-102 -26z
M691 744h123l-530 -744h-123zM727 87q38 0 61.5 25.5t23.5 67.5q0 41 -23.5 67t-61.5 26t-61.5 -26t-23.5 -67q0 -42 23.5 -67.5t61.5 -25.5zM727 -12q-54 0 -98.5 24t-71 68t-26.5 100q0 52 24.5 95.5t70 70t101.5 26.5q53 0 98 -24t71.5 -68.5t26.5 -99.5
q0 -53 -24.5 -96.5t-69.5 -69.5t-102 -26zM1166 87q38 0 61.5 25.5t23.5 67.5q0 41 -23.5 67t-61.5 26t-61.5 -26t-23.5 -67q0 -42 23.5 -67.5t61.5 -25.5zM1166 -12q-54 0 -98.5 24t-71 68t-26.5 100q0 52 24.5 95.5t70 70t101.5 26.5q53 0 98 -24t71.5 -68.5t26.5 -99.5
q0 -53 -24.5 -96.5t-69.5 -69.5t-102 -26z" />
    <glyph glyph-name="minute" unicode="&#x2032;" horiz-adv-x="274" 
d="M93 760h136l-69 -291h-110z" />
    <glyph glyph-name="second" unicode="&#x2033;" horiz-adv-x="468" 
d="M93 760h136l-69 -291h-110zM287 760h136l-69 -291h-110z" />
    <glyph glyph-name="guilsinglleft" unicode="&#x2039;" horiz-adv-x="363" 
d="M28 257l148 219h152l-153 -219l153 -219h-152z" />
    <glyph glyph-name="guilsinglright" unicode="&#x203a;" horiz-adv-x="363" 
d="M188 257l-153 219h152l148 -219l-148 -219h-152z" />
    <glyph glyph-name="fraction" unicode="&#x2044;" horiz-adv-x="165" 
d="M286 744h123l-530 -744h-123z" />
    <glyph glyph-name="uni2070" unicode="&#x2070;" 
d="M194 446q-82 0 -130 57.5t-48 156.5t48 156.5t130 57.5t129.5 -57.5t47.5 -156.5t-47.5 -156.5t-129.5 -57.5zM194 536q34 0 51.5 31.5t17.5 92.5t-17.5 92.5t-51.5 31.5q-35 0 -53 -31.5t-18 -92.5t18 -92.5t53 -31.5z" />
    <glyph glyph-name="uni2074" unicode="&#x2074;" 
d="M215 539h-193v82l181 243h107v-245h48v-80h-48v-83h-95v83zM215 619v130l-98 -130h98z" />
    <glyph glyph-name="uni2075" unicode="&#x2075;" 
d="M171 446q-37 0 -72.5 8t-51.5 20l9 89q35 -28 106 -28q38 0 59 13t21 38q0 49 -79 49q-58 0 -99 -10l9 239h247v-85h-160l-3 -60q11 1 19 1.5t13 0.5q75 0 116 -35.5t41 -99.5q0 -65 -46.5 -102.5t-128.5 -37.5z" />
    <glyph glyph-name="uni2076" unicode="&#x2076;" 
d="M193 446q-72 0 -117.5 42.5t-45.5 109.5q0 65 42 137t114 130l125 -3q-43 -31 -83 -72t-65 -81q21 15 58 15q58 0 96.5 -38t38.5 -94q0 -64 -45.5 -105t-117.5 -41zM193 528q28 0 46 17t18 43q0 27 -18 44.5t-46 17.5q-29 0 -47 -17.5t-18 -44.5t18 -43.5t47 -16.5z" />
    <glyph glyph-name="uni2077" unicode="&#x2077;" 
d="M74 458l157 313h-188v93h301v-84l-157 -325z" />
    <glyph glyph-name="uni2078" unicode="&#x2078;" 
d="M193 446q-77 0 -121 33.5t-44 92.5q0 32 16 58.5t44 39.5q-48 27 -48 87q0 52 42.5 84.5t110.5 32.5t110 -32.5t42 -84.5q0 -60 -48 -87q29 -14 45 -40t16 -58q0 -59 -44 -92.5t-121 -33.5zM193 526q26 0 43 14.5t17 37.5q0 22 -17 36.5t-43 14.5q-27 0 -43.5 -14
t-16.5 -37t16.5 -37.5t43.5 -14.5zM193 703q23 0 37.5 13t14.5 33q0 21 -14.5 33.5t-37.5 12.5q-24 0 -38.5 -12.5t-14.5 -33.5q0 -20 15 -33t38 -13z" />
    <glyph glyph-name="uni2079" unicode="&#x2079;" 
d="M75 458q44 32 84 73t64 79q-21 -14 -58 -14q-58 0 -96.5 37.5t-38.5 94.5q0 64 45.5 105t117.5 41t117.5 -42.5t45.5 -109.5q0 -65 -42 -137t-114 -130zM193 670q29 0 47 17.5t18 44.5t-18 43.5t-47 16.5q-28 0 -46.5 -17t-18.5 -43q0 -27 18.5 -44.5t46.5 -17.5z" />
    <glyph glyph-name="uni2080" unicode="&#x2080;" 
d="M194 -135q-82 0 -130 57.5t-48 156.5t48 156.5t130 57.5t129.5 -57.5t47.5 -156.5t-47.5 -156.5t-129.5 -57.5zM194 -45q34 0 51.5 31.5t17.5 92.5t-17.5 92.5t-51.5 31.5q-35 0 -53 -31.5t-18 -92.5t18 -92.5t53 -31.5z" />
    <glyph glyph-name="uni2081" unicode="&#x2081;" 
d="M173 176l-106 -48l-15 94l133 61h94v-408h-106v301z" />
    <glyph glyph-name="uni2082" unicode="&#x2082;" 
d="M41 -125v86q61 45 115 94q37 34 52.5 58t15.5 48q0 20 -16 32.5t-42 12.5q-55 0 -105 -49l-18 83q22 24 60.5 38.5t80.5 14.5q65 0 104.5 -33t39.5 -88q0 -81 -101 -170q-18 -16 -29 -24.5t-18 -14.5h162v-88h-301z" />
    <glyph glyph-name="uni2083" unicode="&#x2083;" 
d="M163 -135q-37 0 -69.5 7t-53.5 20l9 89q22 -13 51 -20t59 -7q36 0 56 13.5t20 37.5q0 23 -19 36t-52 13q-21 0 -41 -6l-22 52l104 98h-155v85h273v-79l-91 -83q49 -7 77.5 -39t28.5 -80q0 -62 -47.5 -99.5t-127.5 -37.5z" />
    <glyph glyph-name="uni2084" unicode="&#x2084;" 
d="M215 -42h-193v82l181 243h107v-245h48v-80h-48v-83h-95v83zM215 38v130l-98 -130h98z" />
    <glyph glyph-name="uni2085" unicode="&#x2085;" 
d="M171 -135q-37 0 -72.5 8t-51.5 20l9 89q35 -28 106 -28q38 0 59 13t21 38q0 49 -79 49q-58 0 -99 -10l9 239h247v-85h-160l-3 -60q11 1 19 1.5t13 0.5q75 0 116 -35.5t41 -99.5q0 -65 -46.5 -102.5t-128.5 -37.5z" />
    <glyph glyph-name="uni2086" unicode="&#x2086;" 
d="M193 -135q-72 0 -117.5 42.5t-45.5 109.5q0 65 42 137t114 130l125 -3q-43 -31 -83 -72t-65 -81q21 15 58 15q58 0 96.5 -38t38.5 -94q0 -64 -45.5 -105t-117.5 -41zM193 -53q28 0 46 17t18 43q0 27 -18 44.5t-46 17.5q-29 0 -47 -17.5t-18 -44.5t18 -43.5t47 -16.5z" />
    <glyph glyph-name="uni2087" unicode="&#x2087;" 
d="M74 -123l157 313h-188v93h301v-84l-157 -325z" />
    <glyph glyph-name="uni2088" unicode="&#x2088;" 
d="M193 -135q-77 0 -121 33.5t-44 92.5q0 32 16 58.5t44 39.5q-48 27 -48 87q0 52 42.5 84.5t110.5 32.5t110 -32.5t42 -84.5q0 -60 -48 -87q29 -14 45 -40t16 -58q0 -59 -44 -92.5t-121 -33.5zM193 -55q26 0 43 14.5t17 37.5q0 22 -17 36.5t-43 14.5q-27 0 -43.5 -14
t-16.5 -37t16.5 -37.5t43.5 -14.5zM193 122q23 0 37.5 13t14.5 33q0 21 -14.5 33.5t-37.5 12.5q-24 0 -38.5 -12.5t-14.5 -33.5q0 -20 15 -33t38 -13z" />
    <glyph glyph-name="uni2089" unicode="&#x2089;" 
d="M75 -123q44 32 84 73t64 79q-21 -14 -58 -14q-58 0 -96.5 37.5t-38.5 94.5q0 64 45.5 105t117.5 41t117.5 -42.5t45.5 -109.5q0 -65 -42 -137t-114 -130zM193 89q29 0 47 17.5t18 44.5t-18 43.5t-47 16.5q-28 0 -46.5 -17t-18.5 -43q0 -27 18.5 -44.5t46.5 -17.5z" />
    <glyph glyph-name="Euro" unicode="&#x20ac;" horiz-adv-x="620" 
d="M447 -16q-127 0 -207.5 66.5t-106.5 191.5h-104v90h94q-1 4 -1 35q0 37 1 45h-94v90h107q28 121 110 189.5t200 68.5q97 0 168 -37l-20 -112q-61 32 -140 32q-65 0 -111 -36.5t-67 -104.5h247v-90h-262q-1 -7 -1 -42q0 -31 1 -38h262v-90h-246q21 -69 68.5 -105
t118.5 -36q35 0 72.5 9t68.5 24l16 -112q-74 -38 -174 -38z" />
    <glyph glyph-name="uni20BA" unicode="&#x20ba;" horiz-adv-x="620" 
d="M216 -16q-60 0 -102 9v266l-87 -38v91l87 38v80l-87 -38v91l87 38v223h135v-162l177 78v-91l-177 -78v-80l177 78v-91l-177 -78v-211q91 0 147.5 59t68.5 165l124 -7q-7 -112 -51.5 -188t-125.5 -115t-196 -39z" />
    <glyph glyph-name="trademark" unicode="&#x2122;" horiz-adv-x="855" 
d="M398 760h105l92 -199l94 199h104l23 -370h-95l-12 229l-77 -166h-74l-78 164l-10 -227h-95zM117 676h-106v84h315v-84h-106v-286h-103v286z" />
    <glyph glyph-name="Omega" unicode="&#x2126;" horiz-adv-x="927" 
d="M76 126h139q-69 48 -105.5 122.5t-36.5 167.5q0 99 49 180.5t138.5 130.5t203.5 49q109 0 197.5 -44.5t140.5 -127t52 -188.5q0 -93 -36 -167t-106 -123h140v-126h-325v120q78 41 121 114t43 165q0 70 -27.5 124.5t-79 85.5t-120.5 31q-66 0 -117.5 -29t-81 -84
t-29.5 -128q0 -91 43 -164t121 -115v-120h-324v126z" />
    <glyph glyph-name="uni2150" unicode="&#x2150;" horiz-adv-x="937" 
d="M639 744h123l-530 -744h-123zM625 2l157 313h-188v93h301v-84l-157 -325zM173 637l-106 -48l-15 94l133 61h94v-408h-106v301z" />
    <glyph glyph-name="uni2151" unicode="&#x2151;" horiz-adv-x="937" 
d="M663 744h123l-530 -744h-123zM626 2q44 32 84 73t64 79q-21 -14 -58 -14q-58 0 -96.5 37.5t-38.5 94.5q0 64 45.5 105t117.5 41t117.5 -42.5t45.5 -109.5q0 -65 -42 -137t-114 -130zM744 214q29 0 47 17.5t18 44.5t-18 43.5t-47 16.5q-28 0 -46.5 -17t-18.5 -43
q0 -27 18.5 -44.5t46.5 -17.5zM173 637l-106 -48l-15 94l133 61h94v-408h-106v301z" />
    <glyph glyph-name="onethird" unicode="&#x2153;" horiz-adv-x="937" 
d="M648 744h123l-530 -744h-123zM714 -10q-37 0 -69.5 7t-53.5 20l9 89q22 -13 51 -20t59 -7q36 0 56 13.5t20 37.5q0 23 -19 36t-52 13q-21 0 -41 -6l-22 52l104 98h-155v85h273v-79l-91 -83q49 -7 77.5 -39t28.5 -80q0 -62 -47.5 -99.5t-127.5 -37.5zM173 637l-106 -48
l-15 94l133 61h94v-408h-106v301z" />
    <glyph glyph-name="twothirds" unicode="&#x2154;" horiz-adv-x="937" 
d="M675 744h123l-530 -744h-123zM714 -10q-37 0 -69.5 7t-53.5 20l9 89q22 -13 51 -20t59 -7q36 0 56 13.5t20 37.5q0 23 -19 36t-52 13q-21 0 -41 -6l-22 52l104 98h-155v85h273v-79l-91 -83q49 -7 77.5 -39t28.5 -80q0 -62 -47.5 -99.5t-127.5 -37.5zM41 336v86
q61 45 115 94q37 34 52.5 58t15.5 48q0 20 -16 32.5t-42 12.5q-55 0 -105 -49l-18 83q22 24 60.5 38.5t80.5 14.5q65 0 104.5 -33t39.5 -88q0 -81 -101 -170q-18 -16 -29 -24.5t-18 -14.5h162v-88h-301z" />
    <glyph glyph-name="uni2155" unicode="&#x2155;" horiz-adv-x="937" 
d="M661 744h123l-530 -744h-123zM722 -10q-37 0 -72.5 8t-51.5 20l9 89q35 -28 106 -28q38 0 59 13t21 38q0 49 -79 49q-58 0 -99 -10l9 239h247v-85h-160l-3 -60q11 1 19 1.5t13 0.5q75 0 116 -35.5t41 -99.5q0 -65 -46.5 -102.5t-128.5 -37.5zM173 637l-106 -48l-15 94
l133 61h94v-408h-106v301z" />
    <glyph glyph-name="uni2156" unicode="&#x2156;" horiz-adv-x="937" 
d="M685 744h123l-530 -744h-123zM722 -10q-37 0 -72.5 8t-51.5 20l9 89q35 -28 106 -28q38 0 59 13t21 38q0 49 -79 49q-58 0 -99 -10l9 239h247v-85h-160l-3 -60q11 1 19 1.5t13 0.5q75 0 116 -35.5t41 -99.5q0 -65 -46.5 -102.5t-128.5 -37.5zM41 336v86q61 45 115 94
q37 34 52.5 58t15.5 48q0 20 -16 32.5t-42 12.5q-55 0 -105 -49l-18 83q22 24 60.5 38.5t80.5 14.5q65 0 104.5 -33t39.5 -88q0 -81 -101 -170q-18 -16 -29 -24.5t-18 -14.5h162v-88h-301z" />
    <glyph glyph-name="uni2157" unicode="&#x2157;" horiz-adv-x="937" 
d="M659 744h123l-530 -744h-123zM722 -10q-37 0 -72.5 8t-51.5 20l9 89q35 -28 106 -28q38 0 59 13t21 38q0 49 -79 49q-58 0 -99 -10l9 239h247v-85h-160l-3 -60q11 1 19 1.5t13 0.5q75 0 116 -35.5t41 -99.5q0 -65 -46.5 -102.5t-128.5 -37.5zM163 326q-37 0 -69.5 7
t-53.5 20l9 89q22 -13 51 -20t59 -7q36 0 56 13.5t20 37.5q0 23 -19 36t-52 13q-21 0 -41 -6l-22 52l104 98h-155v85h273v-79l-91 -83q49 -7 77.5 -39t28.5 -80q0 -62 -47.5 -99.5t-127.5 -37.5z" />
    <glyph glyph-name="uni2158" unicode="&#x2158;" horiz-adv-x="937" 
d="M671 744h123l-530 -744h-123zM722 -10q-37 0 -72.5 8t-51.5 20l9 89q35 -28 106 -28q38 0 59 13t21 38q0 49 -79 49q-58 0 -99 -10l9 239h247v-85h-160l-3 -60q11 1 19 1.5t13 0.5q75 0 116 -35.5t41 -99.5q0 -65 -46.5 -102.5t-128.5 -37.5zM215 419h-193v82l181 243
h107v-245h48v-80h-48v-83h-95v83zM215 499v130l-98 -130h98z" />
    <glyph glyph-name="uni2159" unicode="&#x2159;" horiz-adv-x="937" 
d="M686 744h123l-530 -744h-123zM744 -10q-72 0 -117.5 42.5t-45.5 109.5q0 65 42 137t114 130l125 -3q-43 -31 -83 -72t-65 -81q21 15 58 15q58 0 96.5 -38t38.5 -94q0 -64 -45.5 -105t-117.5 -41zM744 72q28 0 46 17t18 43q0 27 -18 44.5t-46 17.5q-29 0 -47 -17.5
t-18 -44.5t18 -43.5t47 -16.5zM173 637l-106 -48l-15 94l133 61h94v-408h-106v301z" />
    <glyph glyph-name="uni215A" unicode="&#x215a;" horiz-adv-x="937" 
d="M694 744h123l-530 -744h-123zM744 -10q-72 0 -117.5 42.5t-45.5 109.5q0 65 42 137t114 130l125 -3q-43 -31 -83 -72t-65 -81q21 15 58 15q58 0 96.5 -38t38.5 -94q0 -64 -45.5 -105t-117.5 -41zM744 72q28 0 46 17t18 43q0 27 -18 44.5t-46 17.5q-29 0 -47 -17.5
t-18 -44.5t18 -43.5t47 -16.5zM171 326q-37 0 -72.5 8t-51.5 20l9 89q35 -28 106 -28q38 0 59 13t21 38q0 49 -79 49q-58 0 -99 -10l9 239h247v-85h-160l-3 -60q11 1 19 1.5t13 0.5q75 0 116 -35.5t41 -99.5q0 -65 -46.5 -102.5t-128.5 -37.5z" />
    <glyph glyph-name="oneeighth" unicode="&#x215b;" horiz-adv-x="937" 
d="M657 744h123l-530 -744h-123zM744 -10q-77 0 -121 33.5t-44 92.5q0 32 16 58.5t44 39.5q-48 27 -48 87q0 52 42.5 84.5t110.5 32.5t110 -32.5t42 -84.5q0 -60 -48 -87q29 -14 45 -40t16 -58q0 -59 -44 -92.5t-121 -33.5zM744 70q26 0 43 14.5t17 37.5q0 22 -17 36.5
t-43 14.5q-27 0 -43.5 -14t-16.5 -37t16.5 -37.5t43.5 -14.5zM744 247q23 0 37.5 13t14.5 33q0 21 -14.5 33.5t-37.5 12.5q-24 0 -38.5 -12.5t-14.5 -33.5q0 -20 15 -33t38 -13zM173 637l-106 -48l-15 94l133 61h94v-408h-106v301z" />
    <glyph glyph-name="threeeighths" unicode="&#x215c;" horiz-adv-x="937" 
d="M660 744h123l-530 -744h-123zM744 -10q-77 0 -121 33.5t-44 92.5q0 32 16 58.5t44 39.5q-48 27 -48 87q0 52 42.5 84.5t110.5 32.5t110 -32.5t42 -84.5q0 -60 -48 -87q29 -14 45 -40t16 -58q0 -59 -44 -92.5t-121 -33.5zM744 70q26 0 43 14.5t17 37.5q0 22 -17 36.5
t-43 14.5q-27 0 -43.5 -14t-16.5 -37t16.5 -37.5t43.5 -14.5zM744 247q23 0 37.5 13t14.5 33q0 21 -14.5 33.5t-37.5 12.5q-24 0 -38.5 -12.5t-14.5 -33.5q0 -20 15 -33t38 -13zM163 326q-37 0 -69.5 7t-53.5 20l9 89q22 -13 51 -20t59 -7q36 0 56 13.5t20 37.5q0 23 -19 36
t-52 13q-21 0 -41 -6l-22 52l104 98h-155v85h273v-79l-91 -83q49 -7 77.5 -39t28.5 -80q0 -62 -47.5 -99.5t-127.5 -37.5z" />
    <glyph glyph-name="fiveeighths" unicode="&#x215d;" horiz-adv-x="937" 
d="M667 744h123l-530 -744h-123zM744 -10q-77 0 -121 33.5t-44 92.5q0 32 16 58.5t44 39.5q-48 27 -48 87q0 52 42.5 84.5t110.5 32.5t110 -32.5t42 -84.5q0 -60 -48 -87q29 -14 45 -40t16 -58q0 -59 -44 -92.5t-121 -33.5zM744 70q26 0 43 14.5t17 37.5q0 22 -17 36.5
t-43 14.5q-27 0 -43.5 -14t-16.5 -37t16.5 -37.5t43.5 -14.5zM744 247q23 0 37.5 13t14.5 33q0 21 -14.5 33.5t-37.5 12.5q-24 0 -38.5 -12.5t-14.5 -33.5q0 -20 15 -33t38 -13zM171 326q-37 0 -72.5 8t-51.5 20l9 89q35 -28 106 -28q38 0 59 13t21 38q0 49 -79 49
q-58 0 -99 -10l9 239h247v-85h-160l-3 -60q11 1 19 1.5t13 0.5q75 0 116 -35.5t41 -99.5q0 -65 -46.5 -102.5t-128.5 -37.5z" />
    <glyph glyph-name="seveneighths" unicode="&#x215e;" horiz-adv-x="937" 
d="M620 744h123l-530 -744h-123zM744 -10q-77 0 -121 33.5t-44 92.5q0 32 16 58.5t44 39.5q-48 27 -48 87q0 52 42.5 84.5t110.5 32.5t110 -32.5t42 -84.5q0 -60 -48 -87q29 -14 45 -40t16 -58q0 -59 -44 -92.5t-121 -33.5zM744 70q26 0 43 14.5t17 37.5q0 22 -17 36.5
t-43 14.5q-27 0 -43.5 -14t-16.5 -37t16.5 -37.5t43.5 -14.5zM744 247q23 0 37.5 13t14.5 33q0 21 -14.5 33.5t-37.5 12.5q-24 0 -38.5 -12.5t-14.5 -33.5q0 -20 15 -33t38 -13zM74 338l157 313h-188v93h301v-84l-157 -325z" />
    <glyph glyph-name="partialdiff" unicode="&#x2202;" horiz-adv-x="620" 
d="M259 -16q-69 0 -122.5 27t-84 78t-30.5 119q0 69 31.5 127.5t89 94.5t129.5 36q57 0 99 -19.5t64 -54.5q1 11 1 37q0 103 -42 156.5t-121 53.5q-42 0 -83 -15.5t-70 -42.5l-16 116q32 29 82.5 46t106.5 17q135 0 209.5 -89.5t74.5 -251.5q0 -128 -38.5 -226.5
t-110.5 -153.5t-169 -55zM272 104q56 0 96.5 40.5t40.5 97.5q0 50 -31.5 79.5t-83.5 29.5q-58 0 -96.5 -39t-38.5 -97q0 -51 30 -81t83 -30z" />
    <glyph glyph-name="Delta" unicode="&#x2206;" horiz-adv-x="812" 
d="M326 760h160l303 -760h-766zM585 118l-184 505l-185 -505h369z" />
    <glyph glyph-name="product" unicode="&#x220f;" horiz-adv-x="756" 
d="M91 760h574v-840h-152v714h-270v-714h-152v840z" />
    <glyph glyph-name="summation" unicode="&#x2211;" horiz-adv-x="618" 
d="M35 27l216 321l-206 306v106h522v-125h-339l188 -281l-207 -308h363v-125h-537v106z" />
    <glyph glyph-name="minus" unicode="&#x2212;" horiz-adv-x="620" 
d="M76 394h469v-118h-469v118z" />
    <glyph glyph-name="uni2215" unicode="&#x2215;" horiz-adv-x="165" 
d="M286 744h123l-530 -744h-123z" />
    <glyph glyph-name="uni2219" unicode="&#x2219;" horiz-adv-x="299" 
d="M150 296q-38 0 -62 23.5t-24 59.5t24.5 58.5t61.5 22.5t61 -23t24 -58q0 -36 -24 -59.5t-61 -23.5z" />
    <glyph glyph-name="radical" unicode="&#x221a;" horiz-adv-x="720" 
d="M151 352h-118v114h223l114 -311l252 667h136l-325 -822h-135z" />
    <glyph glyph-name="infinity" unicode="&#x221e;" horiz-adv-x="728" 
d="M209 160q-80 0 -128.5 51t-48.5 136t48.5 136.5t128.5 51.5q49 0 89 -22t66 -62q25 41 65 62.5t89 21.5q80 0 128.5 -51.5t48.5 -136.5t-48.5 -136t-128.5 -51q-50 0 -90 21t-64 61q-26 -40 -66 -61t-89 -21zM510 268q34 0 53 21t19 58t-19 58t-53 21q-58 0 -91 -79
q15 -38 38.5 -58.5t52.5 -20.5zM218 268q29 0 52.5 20.5t37.5 57.5q-15 39 -38.5 59.5t-51.5 20.5q-34 0 -53 -21t-19 -58t19 -58t53 -21z" />
    <glyph glyph-name="integral" unicode="&#x222b;" horiz-adv-x="442" 
d="M81 -254q-29 0 -59.5 6t-48.5 16l13 114q13 -7 35 -11.5t40 -4.5q43 0 62.5 27t19.5 87q0 32 -1 43l-33 523q-1 12 -1 49q0 109 51 167.5t146 58.5q29 0 60 -6t48 -16l-13 -114q-14 7 -36 11.5t-39 4.5q-43 0 -62.5 -27.5t-19.5 -86.5q0 -30 1 -43l33 -523q1 -9 1 -49
q0 -110 -50.5 -168t-146.5 -58z" />
    <glyph glyph-name="approxequal" unicode="&#x2248;" horiz-adv-x="620" 
d="M421 102q-67 0 -124 45q-41 32 -56 40.5t-29 8.5q-53 0 -53 -93h-115v15q0 97 40.5 150t114.5 53q67 0 124 -45q41 -32 56 -40.5t29 -8.5q53 0 53 93h115v-15q0 -97 -40.5 -150t-114.5 -53zM421 370q-67 0 -124 45q-41 32 -56 40.5t-29 8.5q-53 0 -53 -93h-115v15
q0 97 40.5 150t114.5 53q67 0 124 -45q41 -32 56 -40.5t29 -8.5q53 0 53 93h115v-15q0 -97 -40.5 -150t-114.5 -53z" />
    <glyph glyph-name="notequal" unicode="&#x2260;" horiz-adv-x="620" 
d="M180 157h-86v114h139l58 123h-197v114h250l54 114h95l-54 -114h88v-114h-140l-59 -123h199v-114h-252l-53 -114h-95z" />
    <glyph glyph-name="lessequal" unicode="&#x2264;" horiz-adv-x="620" 
d="M76 119h469v-118h-469v118zM85 340v128l450 183v-128l-301 -117l301 -118v-130z" />
    <glyph glyph-name="greaterequal" unicode="&#x2265;" horiz-adv-x="620" 
d="M76 119h469v-118h-469v118zM85 286l301 117l-301 118v130l450 -182v-128l-450 -183v128z" />
    <glyph glyph-name="lozenge" unicode="&#x25ca;" horiz-adv-x="668" 
d="M43 405l231 406h121l230 -406l-230 -405h-121zM481 405l-148 268l-146 -268l146 -266z" />
    <glyph glyph-name="uniF507" unicode="&#xf507;" horiz-adv-x="937" 
d="M670 744h123l-530 -744h-123zM625 2l157 313h-188v93h301v-84l-157 -325zM41 336v86q61 45 115 94q37 34 52.5 58t15.5 48q0 20 -16 32.5t-42 12.5q-55 0 -105 -49l-18 83q22 24 60.5 38.5t80.5 14.5q65 0 104.5 -33t39.5 -88q0 -81 -101 -170q-18 -16 -29 -24.5
t-18 -14.5h162v-88h-301z" />
    <glyph glyph-name="uniF508" unicode="&#xf508;" horiz-adv-x="937" 
d="M645 744h123l-530 -744h-123zM625 2l157 313h-188v93h301v-84l-157 -325zM163 326q-37 0 -69.5 7t-53.5 20l9 89q22 -13 51 -20t59 -7q36 0 56 13.5t20 37.5q0 23 -19 36t-52 13q-21 0 -41 -6l-22 52l104 98h-155v85h273v-79l-91 -83q49 -7 77.5 -39t28.5 -80
q0 -62 -47.5 -99.5t-127.5 -37.5z" />
    <glyph glyph-name="uniF509" unicode="&#xf509;" horiz-adv-x="937" 
d="M655 744h123l-530 -744h-123zM625 2l157 313h-188v93h301v-84l-157 -325zM215 419h-193v82l181 243h107v-245h48v-80h-48v-83h-95v83zM215 499v130l-98 -130h98z" />
    <glyph glyph-name="uniF50A" unicode="&#xf50a;" horiz-adv-x="937" 
d="M652 744h123l-530 -744h-123zM625 2l157 313h-188v93h301v-84l-157 -325zM171 326q-37 0 -72.5 8t-51.5 20l9 89q35 -28 106 -28q38 0 59 13t21 38q0 49 -79 49q-58 0 -99 -10l9 239h247v-85h-160l-3 -60q11 1 19 1.5t13 0.5q75 0 116 -35.5t41 -99.5q0 -65 -46.5 -102.5
t-128.5 -37.5z" />
    <glyph glyph-name="uniF50B" unicode="&#xf50b;" horiz-adv-x="937" 
d="M648 744h123l-530 -744h-123zM625 2l157 313h-188v93h301v-84l-157 -325zM193 326q-72 0 -117.5 42.5t-45.5 109.5q0 65 42 137t114 130l125 -3q-43 -31 -83 -72t-65 -81q21 15 58 15q58 0 96.5 -38t38.5 -94q0 -64 -45.5 -105t-117.5 -41zM193 408q28 0 46 17t18 43
q0 27 -18 44.5t-46 17.5q-29 0 -47 -17.5t-18 -44.5t18 -43.5t47 -16.5z" />
    <glyph glyph-name="uniF50D" unicode="&#xf50d;" horiz-adv-x="937" 
d="M685 744h123l-530 -744h-123zM626 2q44 32 84 73t64 79q-21 -14 -58 -14q-58 0 -96.5 37.5t-38.5 94.5q0 64 45.5 105t117.5 41t117.5 -42.5t45.5 -109.5q0 -65 -42 -137t-114 -130zM744 214q29 0 47 17.5t18 44.5t-18 43.5t-47 16.5q-28 0 -46.5 -17t-18.5 -43
q0 -27 18.5 -44.5t46.5 -17.5zM41 336v86q61 45 115 94q37 34 52.5 58t15.5 48q0 20 -16 32.5t-42 12.5q-55 0 -105 -49l-18 83q22 24 60.5 38.5t80.5 14.5q65 0 104.5 -33t39.5 -88q0 -81 -101 -170q-18 -16 -29 -24.5t-18 -14.5h162v-88h-301z" />
    <glyph glyph-name="uniF50E" unicode="&#xf50e;" horiz-adv-x="937" 
d="M680 744h123l-530 -744h-123zM626 2q44 32 84 73t64 79q-21 -14 -58 -14q-58 0 -96.5 37.5t-38.5 94.5q0 64 45.5 105t117.5 41t117.5 -42.5t45.5 -109.5q0 -65 -42 -137t-114 -130zM744 214q29 0 47 17.5t18 44.5t-18 43.5t-47 16.5q-28 0 -46.5 -17t-18.5 -43
q0 -27 18.5 -44.5t46.5 -17.5zM215 419h-193v82l181 243h107v-245h48v-80h-48v-83h-95v83zM215 499v130l-98 -130h98z" />
    <glyph glyph-name="uniF50F" unicode="&#xf50f;" horiz-adv-x="937" 
d="M667 744h123l-530 -744h-123zM626 2q44 32 84 73t64 79q-21 -14 -58 -14q-58 0 -96.5 37.5t-38.5 94.5q0 64 45.5 105t117.5 41t117.5 -42.5t45.5 -109.5q0 -65 -42 -137t-114 -130zM744 214q29 0 47 17.5t18 44.5t-18 43.5t-47 16.5q-28 0 -46.5 -17t-18.5 -43
q0 -27 18.5 -44.5t46.5 -17.5zM171 326q-37 0 -72.5 8t-51.5 20l9 89q35 -28 106 -28q38 0 59 13t21 38q0 49 -79 49q-58 0 -99 -10l9 239h247v-85h-160l-3 -60q11 1 19 1.5t13 0.5q75 0 116 -35.5t41 -99.5q0 -65 -46.5 -102.5t-128.5 -37.5z" />
    <glyph glyph-name="uniF510" unicode="&#xf510;" horiz-adv-x="937" 
d="M620 744h123l-530 -744h-123zM626 2q44 32 84 73t64 79q-21 -14 -58 -14q-58 0 -96.5 37.5t-38.5 94.5q0 64 45.5 105t117.5 41t117.5 -42.5t45.5 -109.5q0 -65 -42 -137t-114 -130zM744 214q29 0 47 17.5t18 44.5t-18 43.5t-47 16.5q-28 0 -46.5 -17t-18.5 -43
q0 -27 18.5 -44.5t46.5 -17.5zM74 338l157 313h-188v93h301v-84l-157 -325z" />
    <glyph glyph-name="uniF511" unicode="&#xf511;" horiz-adv-x="937" 
d="M676 744h123l-530 -744h-123zM626 2q44 32 84 73t64 79q-21 -14 -58 -14q-58 0 -96.5 37.5t-38.5 94.5q0 64 45.5 105t117.5 41t117.5 -42.5t45.5 -109.5q0 -65 -42 -137t-114 -130zM744 214q29 0 47 17.5t18 44.5t-18 43.5t-47 16.5q-28 0 -46.5 -17t-18.5 -43
q0 -27 18.5 -44.5t46.5 -17.5zM193 326q-77 0 -121 33.5t-44 92.5q0 32 16 58.5t44 39.5q-48 27 -48 87q0 52 42.5 84.5t110.5 32.5t110 -32.5t42 -84.5q0 -60 -48 -87q29 -14 45 -40t16 -58q0 -59 -44 -92.5t-121 -33.5zM193 406q26 0 43 14.5t17 37.5q0 22 -17 36.5
t-43 14.5q-27 0 -43.5 -14t-16.5 -37t16.5 -37.5t43.5 -14.5zM193 583q23 0 37.5 13t14.5 33q0 21 -14.5 33.5t-37.5 12.5q-24 0 -38.5 -12.5t-14.5 -33.5q0 -20 15 -33t38 -13z" />
    <glyph glyph-name="uniFB01" unicode="&#xfb01;" horiz-adv-x="707" 
d="M118 394h-92v115h92v63q0 117 54.5 180t156.5 63q53 0 98 -16l-9 -117q-27 12 -63 12q-52 0 -75 -31.5t-23 -101.5v-52h137v-115h-137v-394h-139v394zM494 509h139v-509h-139v509zM563 613q-36 0 -59.5 23.5t-23.5 57.5t23.5 57t59.5 23t59.5 -23t23.5 -57
q0 -35 -23.5 -58t-59.5 -23z" />
    <glyph glyph-name="uniFB02" unicode="&#xfb02;" horiz-adv-x="707" 
d="M118 394h-92v115h92v63q0 117 54.5 180t156.5 63q53 0 98 -16l-9 -117q-27 12 -63 12q-52 0 -75 -31.5t-23 -101.5v-52h137v-115h-137v-394h-139v394zM494 810h139v-810h-139v810z" />
    <glyph glyph-name="uniFEFF" unicode="&#xfeff;" horiz-adv-x="0" 
 />
    <glyph glyph-name="zero.pnum" horiz-adv-x="645" 
d="M322 111q65 0 98.5 66t33.5 195t-33.5 195t-98.5 66q-131 0 -131 -261t131 -261zM322 -16q-133 0 -208 102.5t-75 285.5t75 285.5t208 102.5t208.5 -103t75.5 -285t-75.5 -285t-208.5 -103z" />
    <glyph glyph-name="one.pnum" horiz-adv-x="510" 
d="M253 599l-193 -86l-23 123l245 108h112v-744h-141v599z" />
    <glyph glyph-name="two.pnum" horiz-adv-x="620" 
d="M61 0v110q121 109 193 192t99 132.5t27 97.5q0 49 -30 77.5t-80 28.5q-48 0 -94 -22.5t-84 -63.5l-25 121q41 41 101 64t125 23q107 0 170.5 -57t63.5 -153q0 -72 -36.5 -145.5t-116.5 -163.5q-34 -38 -115 -115h290v-126h-488z" />
    <glyph glyph-name="three.pnum" horiz-adv-x="600" 
d="M251 -16q-62 0 -116 13t-90 36l12 120q87 -49 187 -49q69 0 107.5 32t38.5 88q0 55 -37 86t-104 31q-27 0 -67 -8l-35 80l194 208h-283v123h454v-106l-185 -199q64 -5 111 -32.5t72.5 -74t25.5 -108.5q0 -111 -76.5 -175.5t-208.5 -64.5z" />
    <glyph glyph-name="four.pnum" horiz-adv-x="643" 
d="M372 167h-335v114l325 463h145v-461h91v-116h-91v-167h-135v167zM372 283v284l-200 -284h200z" />
    <glyph glyph-name="five.pnum" horiz-adv-x="606" 
d="M262 -16q-58 0 -116.5 13t-92.5 33l12 122q40 -23 89 -35.5t95 -12.5q73 0 114.5 34t41.5 95q0 56 -46.5 90t-123.5 34q-31 0 -73 -5.5t-78 -13.5l16 406h403v-124h-280l-6 -155q33 6 65 6q123 0 195.5 -64t72.5 -171q0 -115 -78 -183.5t-210 -68.5z" />
    <glyph glyph-name="six.pnum" horiz-adv-x="629" 
d="M318 -16q-122 0 -194 71t-72 191q0 121 75.5 257t201.5 243l172 -5q-189 -155 -265 -311q44 35 120 35q62 0 114 -29t83 -82t31 -121q0 -70 -32.5 -126.5t-93 -89.5t-140.5 -33zM318 101q54 0 89.5 35.5t35.5 91.5q0 57 -34.5 92.5t-90.5 35.5q-54 0 -90 -36t-36 -92
q0 -55 35.5 -91t90.5 -36z" />
    <glyph glyph-name="seven.pnum" horiz-adv-x="588" 
d="M124 3l270 609h-347v132h500v-118l-274 -628z" />
    <glyph glyph-name="eight.pnum" horiz-adv-x="636" 
d="M318 -16q-80 0 -141.5 26.5t-96 76t-34.5 116.5q0 64 32.5 114t87.5 72q-49 23 -75 66.5t-26 100.5q0 59 31 105t88.5 72.5t133.5 26.5q72 0 129.5 -25t90.5 -71.5t33 -107.5q0 -57 -26.5 -100.5t-75.5 -66.5q56 -22 88.5 -71.5t32.5 -114.5t-32.5 -114.5t-94.5 -77
t-145 -27.5zM318 101q59 0 93.5 30.5t34.5 82.5t-35 83t-93 31t-93 -31t-35 -83t34.5 -82.5t93.5 -30.5zM318 441q54 0 85.5 28t31.5 75t-32 75.5t-85 28.5t-85 -28.5t-32 -75.5t31.5 -75t85.5 -28z" />
    <glyph glyph-name="nine.pnum" horiz-adv-x="629" 
d="M128 3q190 157 264 310q-44 -34 -119 -34q-62 0 -114 29t-83 82t-31 121q0 70 32.5 126.5t93 89.5t140.5 33q122 0 194 -71t72 -191q0 -121 -75.5 -257t-201.5 -243zM311 388q54 0 90 36t36 92q0 55 -35.5 91t-90.5 36q-54 0 -89.5 -35.5t-35.5 -91.5q0 -57 34.5 -92.5
t90.5 -35.5z" />
    <glyph glyph-name="zero.dnom" 
d="M194 -10q-82 0 -130 57.5t-48 156.5t48 156.5t130 57.5t129.5 -57.5t47.5 -156.5t-47.5 -156.5t-129.5 -57.5zM194 80q34 0 51.5 31.5t17.5 92.5t-17.5 92.5t-51.5 31.5q-35 0 -53 -31.5t-18 -92.5t18 -92.5t53 -31.5z" />
    <glyph glyph-name="one.dnom" 
d="M173 301l-106 -48l-15 94l133 61h94v-408h-106v301z" />
    <glyph glyph-name="two.dnom" 
d="M41 0v86q61 45 115 94q37 34 52.5 58t15.5 48q0 20 -16 32.5t-42 12.5q-55 0 -105 -49l-18 83q22 24 60.5 38.5t80.5 14.5q65 0 104.5 -33t39.5 -88q0 -81 -101 -170q-18 -16 -29 -24.5t-18 -14.5h162v-88h-301z" />
    <glyph glyph-name="three.dnom" 
d="M163 -10q-37 0 -69.5 7t-53.5 20l9 89q22 -13 51 -20t59 -7q36 0 56 13.5t20 37.5q0 23 -19 36t-52 13q-21 0 -41 -6l-22 52l104 98h-155v85h273v-79l-91 -83q49 -7 77.5 -39t28.5 -80q0 -62 -47.5 -99.5t-127.5 -37.5z" />
    <glyph glyph-name="four.dnom" 
d="M215 83h-193v82l181 243h107v-245h48v-80h-48v-83h-95v83zM215 163v130l-98 -130h98z" />
    <glyph glyph-name="five.dnom" 
d="M171 -10q-37 0 -72.5 8t-51.5 20l9 89q35 -28 106 -28q38 0 59 13t21 38q0 49 -79 49q-58 0 -99 -10l9 239h247v-85h-160l-3 -60q11 1 19 1.5t13 0.5q75 0 116 -35.5t41 -99.5q0 -65 -46.5 -102.5t-128.5 -37.5z" />
    <glyph glyph-name="six.dnom" 
d="M193 -10q-72 0 -117.5 42.5t-45.5 109.5q0 65 42 137t114 130l125 -3q-43 -31 -83 -72t-65 -81q21 15 58 15q58 0 96.5 -38t38.5 -94q0 -64 -45.5 -105t-117.5 -41zM193 72q28 0 46 17t18 43q0 27 -18 44.5t-46 17.5q-29 0 -47 -17.5t-18 -44.5t18 -43.5t47 -16.5z" />
    <glyph glyph-name="seven.dnom" 
d="M74 2l157 313h-188v93h301v-84l-157 -325z" />
    <glyph glyph-name="eight.dnom" 
d="M193 -10q-77 0 -121 33.5t-44 92.5q0 32 16 58.5t44 39.5q-48 27 -48 87q0 52 42.5 84.5t110.5 32.5t110 -32.5t42 -84.5q0 -60 -48 -87q29 -14 45 -40t16 -58q0 -59 -44 -92.5t-121 -33.5zM193 70q26 0 43 14.5t17 37.5q0 22 -17 36.5t-43 14.5q-27 0 -43.5 -14
t-16.5 -37t16.5 -37.5t43.5 -14.5zM193 247q23 0 37.5 13t14.5 33q0 21 -14.5 33.5t-37.5 12.5q-24 0 -38.5 -12.5t-14.5 -33.5q0 -20 15 -33t38 -13z" />
    <glyph glyph-name="nine.dnom" 
d="M75 2q44 32 84 73t64 79q-21 -14 -58 -14q-58 0 -96.5 37.5t-38.5 94.5q0 64 45.5 105t117.5 41t117.5 -42.5t45.5 -109.5q0 -65 -42 -137t-114 -130zM193 214q29 0 47 17.5t18 44.5t-18 43.5t-47 16.5q-28 0 -46.5 -17t-18.5 -43q0 -27 18.5 -44.5t46.5 -17.5z" />
    <glyph glyph-name="zero.numr" 
d="M194 326q-82 0 -130 57.5t-48 156.5t48 156.5t130 57.5t129.5 -57.5t47.5 -156.5t-47.5 -156.5t-129.5 -57.5zM194 416q34 0 51.5 31.5t17.5 92.5t-17.5 92.5t-51.5 31.5q-35 0 -53 -31.5t-18 -92.5t18 -92.5t53 -31.5z" />
    <glyph glyph-name="one.numr" 
d="M173 637l-106 -48l-15 94l133 61h94v-408h-106v301z" />
    <glyph glyph-name="two.numr" 
d="M41 336v86q61 45 115 94q37 34 52.5 58t15.5 48q0 20 -16 32.5t-42 12.5q-55 0 -105 -49l-18 83q22 24 60.5 38.5t80.5 14.5q65 0 104.5 -33t39.5 -88q0 -81 -101 -170q-18 -16 -29 -24.5t-18 -14.5h162v-88h-301z" />
    <glyph glyph-name="three.numr" 
d="M163 326q-37 0 -69.5 7t-53.5 20l9 89q22 -13 51 -20t59 -7q36 0 56 13.5t20 37.5q0 23 -19 36t-52 13q-21 0 -41 -6l-22 52l104 98h-155v85h273v-79l-91 -83q49 -7 77.5 -39t28.5 -80q0 -62 -47.5 -99.5t-127.5 -37.5z" />
    <glyph glyph-name="four.numr" 
d="M215 419h-193v82l181 243h107v-245h48v-80h-48v-83h-95v83zM215 499v130l-98 -130h98z" />
    <glyph glyph-name="five.numr" 
d="M171 326q-37 0 -72.5 8t-51.5 20l9 89q35 -28 106 -28q38 0 59 13t21 38q0 49 -79 49q-58 0 -99 -10l9 239h247v-85h-160l-3 -60q11 1 19 1.5t13 0.5q75 0 116 -35.5t41 -99.5q0 -65 -46.5 -102.5t-128.5 -37.5z" />
    <glyph glyph-name="six.numr" 
d="M193 326q-72 0 -117.5 42.5t-45.5 109.5q0 65 42 137t114 130l125 -3q-43 -31 -83 -72t-65 -81q21 15 58 15q58 0 96.5 -38t38.5 -94q0 -64 -45.5 -105t-117.5 -41zM193 408q28 0 46 17t18 43q0 27 -18 44.5t-46 17.5q-29 0 -47 -17.5t-18 -44.5t18 -43.5t47 -16.5z" />
    <glyph glyph-name="seven.numr" 
d="M74 338l157 313h-188v93h301v-84l-157 -325z" />
    <glyph glyph-name="eight.numr" 
d="M193 326q-77 0 -121 33.5t-44 92.5q0 32 16 58.5t44 39.5q-48 27 -48 87q0 52 42.5 84.5t110.5 32.5t110 -32.5t42 -84.5q0 -60 -48 -87q29 -14 45 -40t16 -58q0 -59 -44 -92.5t-121 -33.5zM193 406q26 0 43 14.5t17 37.5q0 22 -17 36.5t-43 14.5q-27 0 -43.5 -14
t-16.5 -37t16.5 -37.5t43.5 -14.5zM193 583q23 0 37.5 13t14.5 33q0 21 -14.5 33.5t-37.5 12.5q-24 0 -38.5 -12.5t-14.5 -33.5q0 -20 15 -33t38 -13z" />
    <glyph glyph-name="nine.numr" 
d="M75 338q44 32 84 73t64 79q-21 -14 -58 -14q-58 0 -96.5 37.5t-38.5 94.5q0 64 45.5 105t117.5 41t117.5 -42.5t45.5 -109.5q0 -65 -42 -137t-114 -130zM193 550q29 0 47 17.5t18 44.5t-18 43.5t-47 16.5q-28 0 -46.5 -17t-18.5 -43q0 -27 18.5 -44.5t46.5 -17.5z" />
    <glyph glyph-name="hyphen.case" horiz-adv-x="429" 
d="M61 440h307v-121h-307v121z" />
    <glyph glyph-name="endash.case" horiz-adv-x="500" 
d="M0 434h500v-108h-500v108z" />
    <glyph glyph-name="emdash.case" horiz-adv-x="1000" 
d="M0 434h1000v-108h-1000v108z" />
    <glyph glyph-name="parenleft.case" horiz-adv-x="427" 
d="M266 -60q-85 78 -136 208t-51 268q0 90 22.5 179.5t65 167.5t99.5 130h152q-100 -91 -154 -214t-54 -263t53.5 -263t154.5 -213h-152z" />
    <glyph glyph-name="parenright.case" horiz-adv-x="427" 
d="M9 -60q100 91 154 214t54 263t-53.5 263t-154.5 213h152q85 -78 136 -208t51 -268q0 -90 -22.5 -179.5t-65 -167.5t-99.5 -130h-152z" />
    <glyph glyph-name="slash.case" horiz-adv-x="550" 
d="M405 851h133l-393 -943h-134z" />
    <glyph glyph-name="backslash.case" horiz-adv-x="550" 
d="M11 851h133l394 -943h-134z" />
    <glyph glyph-name="bracketleft.case" horiz-adv-x="424" 
d="M106 892h279v-114h-150v-725h150v-114h-279v953z" />
    <glyph glyph-name="bracketright.case" horiz-adv-x="424" 
d="M39 53h150v725h-150v114h279v-953h-279v114z" />
    <glyph glyph-name="braceleft.case" horiz-adv-x="443" 
d="M335 -70q-104 0 -153 39.5t-49 121.5q0 29 6.5 60t13 62.5t6.5 64.5q0 44 -19 60.5t-68 16.5h-26v115h26q49 0 68 16.5t19 60.5q0 33 -6.5 64.5t-13 62.5t-6.5 60q0 82 49 121.5t153 39.5q10 0 26.5 -0.5t36.5 -1.5v-112q-5 1 -46 1q-47 0 -68.5 -17.5t-21.5 -54.5
q0 -23 6.5 -53t12.5 -62.5t6 -65.5q0 -41 -19.5 -72t-52.5 -45q34 -14 53 -44.5t19 -71.5q0 -33 -6 -65.5t-12.5 -62.5t-6.5 -53q0 -37 21.5 -54.5t68.5 -17.5q40 0 46 1v-112q-20 -1 -36.5 -1.5t-26.5 -0.5z" />
    <glyph glyph-name="braceright.case" horiz-adv-x="443" 
d="M108 -70q-10 0 -26.5 0.5t-36.5 1.5v112q5 -1 46 -1q47 0 68.5 17.5t21.5 54.5q0 23 -6 53l-12.5 62.5t-6.5 65.5q0 41 19.5 72t52.5 45q-34 13 -53 44t-19 72q0 33 6.5 65.5l12.5 62.5t6 53q0 37 -21.5 54.5t-68.5 17.5q-40 0 -46 -1v112q20 1 36.5 1.5t26.5 0.5
q104 0 153 -39.5t49 -121.5q0 -29 -6.5 -60t-13 -62.5t-6.5 -64.5q0 -44 19 -60.5t68 -16.5h26v-115h-26q-49 0 -68 -16.5t-19 -60.5q0 -33 6.5 -64.5t13 -62.5t6.5 -60q0 -82 -49 -121.5t-153 -39.5z" />
    <glyph glyph-name="bullet.case" horiz-adv-x="357" 
d="M178 196q-54 0 -92 38.5t-38 92.5q0 35 16.5 64.5t46.5 47.5t67 18q55 0 93 -38t38 -92q0 -34 -16.5 -64t-47 -48.5t-67.5 -18.5z" />
    <glyph glyph-name="guilsinglleft.case" horiz-adv-x="363" 
d="M28 380l148 219h152l-153 -219l153 -219h-152z" />
    <glyph glyph-name="guilsinglright.case" horiz-adv-x="363" 
d="M188 380l-153 219h152l148 -219l-148 -219h-152z" />
    <glyph glyph-name="guillemotleft.case" horiz-adv-x="604" 
d="M28 380l148 219h152l-153 -219l153 -219h-152zM269 380l148 219h152l-153 -219l153 -219h-152z" />
    <glyph glyph-name="guillemotright.case" horiz-adv-x="604" 
d="M188 380l-153 219h152l148 -219l-148 -219h-152zM429 380l-153 219h152l148 -219l-148 -219h-152z" />
    <glyph glyph-name="at.case" horiz-adv-x="1025" 
d="M501 -79q-131 0 -233.5 50.5t-161 146t-58.5 223.5q0 133 65 244t183 178.5t266 67.5q120 0 214.5 -46.5t149 -133.5t54.5 -202q0 -85 -30 -153.5t-86.5 -109t-128.5 -40.5q-50 0 -85 17.5t-50 49.5q-22 -31 -60.5 -48.5t-84.5 -17.5q-79 0 -127.5 55.5t-48.5 145.5
q0 67 27.5 124t77.5 92t111 35q43 0 78 -17.5t55 -49.5l12 52h111l-43 -257q-3 -18 -3 -34q0 -54 47 -54q32 0 59 26t44 73t17 105q0 134 -85 212t-231 78q-111 0 -202 -48.5t-144.5 -137.5t-53.5 -204q0 -97 41.5 -169.5t120 -113t187.5 -40.5q121 0 229 48l9 -99
q-118 -48 -242 -48zM492 253q50 0 81.5 38t31.5 97q0 50 -24 77t-68 27q-50 0 -82 -37t-32 -96q0 -51 24 -78.5t69 -27.5z" />
    <glyph glyph-name="periodcentered.case" horiz-adv-x="299" 
d="M150 316q-38 0 -62 23.5t-24 59.5t24.5 58.5t61.5 22.5t61 -23t24 -58q0 -36 -24 -59.5t-61 -23.5z" />
    <glyph glyph-name="a.ss03" horiz-adv-x="572" 
d="M224 -16q-83 0 -131.5 43t-48.5 117q0 78 56.5 126t147.5 48q32 0 66.5 -6.5t60.5 -16.5q0 117 -130 117q-85 0 -159 -54l-11 112q33 25 85 40t104 15q117 0 179.5 -59.5t62.5 -171.5v-294h-125l-2 50q-54 -66 -155 -66zM255 83q54 0 85.5 32t34.5 90q-47 19 -102 19
q-46 0 -71.5 -18.5t-25.5 -52.5q0 -33 21 -51.5t58 -18.5z" />
    <glyph glyph-name="g.ss03" horiz-adv-x="592" 
d="M273 -254q-117 0 -182 38.5t-65 108.5q0 44 22 76.5t63 49.5q-26 12 -41 34t-15 50q0 63 73 103q-72 49 -72 139q0 81 62 130.5t163 49.5q64 0 113 -21l179 12v-104l-84 6q23 -37 23 -80q0 -50 -27 -89.5t-77.5 -62t-118.5 -22.5q-45 0 -74 7q-19 -10 -27.5 -20.5
t-8.5 -24.5q0 -18 20 -25.5t68 -7.5h40q123 0 182.5 -40.5t59.5 -125.5q0 -87 -72 -134t-204 -47zM287 -145q61 0 93 16.5t32 48.5q0 31 -27 44.5t-89 13.5h-23q-59 0 -86 -15t-27 -47q0 -29 33 -45t94 -16zM284 264q45 0 71 21.5t26 59.5q0 37 -26.5 58.5t-70.5 21.5
t-70 -21.5t-26 -58.5t26 -59t70 -22z" />
    <glyph glyph-name="j.ss01" horiz-adv-x="287" 
d="M74 509h139v-754h-139v754zM143 613q-36 0 -59.5 23.5t-23.5 57.5t23.5 57t59.5 23t59.5 -23t23.5 -57q0 -35 -23.5 -58t-59.5 -23z" />
    <glyph glyph-name="M.ss01" horiz-adv-x="983" 
d="M91 760h158l246 -465l248 465h149v-760h-140v534l-198 -371h-125l-198 371v-534h-140v760z" />
    <glyph glyph-name="t.ss01" horiz-adv-x="415" 
d="M121 394h-99v115h99v138h139v-138h121v-115h-121v-394h-139v394z" />
    <glyph glyph-name="u.ss01" horiz-adv-x="611" 
d="M306 -16q-114 0 -174.5 59t-60.5 168v298h139v-295q0 -107 97 -107q94 0 94 107v295h139v-298q0 -110 -60.5 -168.5t-173.5 -58.5z" />
    <glyph glyph-name="y.ss03" horiz-adv-x="592" 
d="M115 -254q-30 0 -57.5 6t-42.5 16l18 119q30 -15 66 -15q38 0 61.5 23.5t50.5 88.5l18 43l-213 482h151l135 -343l125 343h149l-223 -536q-37 -89 -71.5 -137.5t-73.5 -69t-93 -20.5z" />
    <glyph glyph-name="glyph274" horiz-adv-x="299" 
d="M150 297q-38 0 -62 23.5t-24 59.5t24.5 58.5t61.5 22.5t61 -23t24 -58q0 -36 -24 -59.5t-61 -23.5z" />
    <glyph glyph-name="glyph275" horiz-adv-x="299" 
d="M150 326q-38 0 -62 23.5t-24 59.5t24.5 58.5t61.5 22.5t61 -23t24 -58q0 -36 -24 -59.5t-61 -23.5z" />
    <glyph glyph-name="uni0237.ss01" horiz-adv-x="287" 
d="M74 509h139v-754h-139v754z" />
    <glyph glyph-name="ij.ss01" horiz-adv-x="571" 
d="M74 509h139v-509h-139v509zM143 613q-36 0 -59.5 23.5t-23.5 57.5t23.5 57t59.5 23t59.5 -23t23.5 -57q0 -35 -23.5 -58t-59.5 -23zM358 509h139v-754h-139v754zM427 613q-36 0 -59.5 23.5t-23.5 57.5t23.5 57t59.5 23t59.5 -23t23.5 -57q0 -35 -23.5 -58t-59.5 -23z" />
    <glyph glyph-name="ae.ss03" horiz-adv-x="922" 
d="M224 -16q-83 0 -131.5 43t-48.5 117q0 78 56.5 126t147.5 48q32 0 66.5 -6.5t60.5 -16.5q0 117 -130 117q-85 0 -159 -54l-11 112q33 25 85 40t104 15q123 0 179 -73q35 35 82.5 54t102.5 19q72 0 126.5 -30.5t85 -87.5t30.5 -135q0 -33 -5 -60h-359q26 -114 173 -114
q46 0 89.5 9.5t78.5 27.5l14 -109q-36 -20 -88 -31t-109 -11q-79 0 -140.5 25t-100.5 73q-59 -98 -199 -98zM255 83q54 0 85.5 32t34.5 90q-47 19 -102 19q-46 0 -71.5 -18.5t-25.5 -52.5q0 -33 21 -51.5t58 -18.5zM737 309q-5 53 -34.5 81.5t-78.5 28.5q-48 0 -79 -28.5
t-40 -81.5h232z" />
    <glyph glyph-name="glyph306" horiz-adv-x="0" 
d="M-29 -262q-23 0 -50.5 5.5t-42.5 13.5l16 76q28 -14 66 -14q54 0 54 33q0 31 -55 31q-26 0 -36 -3l36 130h84l-20 -65q46 -4 74 -30.5t28 -66.5q0 -53 -40 -81.5t-114 -28.5z" />
    <glyph glyph-name="glyph309" horiz-adv-x="0" 
d="M-106 -247q19 37 30.5 86.5t11.5 97.5h130q-1 -46 -20.5 -99t-47.5 -85h-104z" />
    <glyph glyph-name="glyph312" horiz-adv-x="0" 
d="M-3 -259q-59 0 -92 27.5t-33 76.5q0 52 39.5 102t111.5 89l53 -36q-91 -68 -91 -122q0 -34 41 -34q24 0 48 12l9 -95q-14 -9 -37.5 -14.5t-48.5 -5.5z" />
    <glyph glyph-name="glyph313" horiz-adv-x="0" 
d="M13 -259q-59 0 -92 27t-33 76q0 56 42.5 107.5t114.5 81.5l72 -7q-120 -82 -120 -147q0 -37 43 -37q31 0 50 12l10 -93q-37 -20 -87 -20z" />
    <glyph glyph-name="glyph314" horiz-adv-x="0" 
d="M13 -259q-58 0 -92 27.5t-34 74.5q0 57 46 113t120 89l65 -11q-56 -38 -87 -78t-31 -74q0 -38 44 -38q27 0 53 13l10 -95q-13 -9 -40 -15t-54 -6z" />
    <glyph glyph-name="uni0163.ss01" horiz-adv-x="415" 
d="M121 394h-99v115h99v138h139v-138h121v-115h-121v-394h-139v394zM163 -262q-26 0 -55.5 5.5t-42.5 13.5l16 73q28 -14 69 -14q55 0 55 36q0 33 -58 33q-21 0 -35 -2l35 127h80l-20 -66q47 -4 74.5 -30.5t27.5 -66.5q0 -50 -39.5 -79.5t-106.5 -29.5z" />
    <glyph glyph-name="uni0123.ss03" horiz-adv-x="592" 
d="M273 -254q-117 0 -182 38.5t-65 108.5q0 44 22 76.5t63 49.5q-26 12 -41 34t-15 50q0 63 73 103q-72 49 -72 139q0 81 62 130.5t163 49.5q64 0 113 -21l179 12v-104l-84 6q23 -37 23 -80q0 -50 -27 -89.5t-77.5 -62t-118.5 -22.5q-45 0 -74 7q-19 -10 -27.5 -20.5
t-8.5 -24.5q0 -18 20 -25.5t68 -7.5h40q123 0 182.5 -40.5t59.5 -125.5q0 -87 -72 -134t-204 -47zM287 -145q61 0 93 16.5t32 48.5q0 31 -27 44.5t-89 13.5h-23q-59 0 -86 -15t-27 -47q0 -29 33 -45t94 -16zM284 264q45 0 71 21.5t26 59.5q0 37 -26.5 58.5t-70.5 21.5
t-70 -21.5t-26 -58.5t26 -59t70 -22zM224 610q1 46 20 93.5t48 80.5h99q-39 -76 -40 -174h-127z" />
    <glyph glyph-name="uni021B.ss01" horiz-adv-x="415" 
d="M121 394h-99v115h99v138h139v-138h121v-115h-121v-394h-139v394zM90 -247q19 37 30.5 87t12.5 97h127q-1 -46 -20.5 -99t-47.5 -85h-102z" />
    <glyph glyph-name="aogonek.ss03" horiz-adv-x="572" 
d="M224 -16q-83 0 -131.5 43t-48.5 117q0 78 56.5 126t147.5 48q32 0 66.5 -6.5t60.5 -16.5q0 117 -130 117q-85 0 -159 -54l-11 112q33 25 85 40t104 15q117 0 179.5 -59.5t62.5 -171.5v-294h-125l-2 50q-54 -66 -155 -66zM255 83q54 0 85.5 32t34.5 90q-47 19 -102 19
q-46 0 -71.5 -18.5t-25.5 -52.5q0 -33 21 -51.5t58 -18.5zM427 -259q-58 0 -91 27.5t-33 76.5q0 52 40 102.5t111 88.5l52 -36q-94 -68 -94 -122q0 -17 11 -26.5t31 -9.5q30 0 51 11l9 -92q-14 -9 -38 -14.5t-49 -5.5z" />
    <glyph glyph-name="uogonek.ss01" horiz-adv-x="611" 
d="M306 -16q-114 0 -174.5 59t-60.5 168v298h139v-295q0 -107 97 -107q94 0 94 107v295h139v-298q0 -110 -60.5 -168.5t-173.5 -58.5zM355 -259q-59 0 -92 27t-33 76q0 56 42.5 107.5t114.5 81.5l72 -7q-120 -82 -120 -147q0 -37 43 -37q31 0 50 12l10 -93q-37 -20 -87 -20z
" />
    <glyph glyph-name="glyph348" horiz-adv-x="0" 
d="M12 978h168l-150 -143h-132z" />
    <glyph glyph-name="glyph351" horiz-adv-x="0" 
d="M-102 977h155l-114 -142h-127zM111 977h155l-113 -142h-129z" />
    <glyph glyph-name="aacute.ss03" horiz-adv-x="572" 
d="M224 -16q-83 0 -131.5 43t-48.5 117q0 78 56.5 126t147.5 48q32 0 66.5 -6.5t60.5 -16.5q0 117 -130 117q-85 0 -159 -54l-11 112q33 25 85 40t104 15q117 0 179.5 -59.5t62.5 -171.5v-294h-125l-2 50q-54 -66 -155 -66zM255 83q54 0 85.5 32t34.5 90q-47 19 -102 19
q-46 0 -71.5 -18.5t-25.5 -52.5q0 -33 21 -51.5t58 -18.5zM285 777h154l-140 -167h-119z" />
    <glyph glyph-name="uacute.ss01" horiz-adv-x="611" 
d="M306 -16q-114 0 -174.5 59t-60.5 168v298h139v-295q0 -107 97 -107q94 0 94 107v295h139v-298q0 -110 -60.5 -168.5t-173.5 -58.5zM319 777h154l-140 -167h-119z" />
    <glyph glyph-name="yacute.ss03" horiz-adv-x="592" 
d="M115 -254q-30 0 -57.5 6t-42.5 16l18 119q30 -15 66 -15q38 0 61.5 23.5t50.5 88.5l18 43l-213 482h151l135 -343l125 343h149l-223 -536q-37 -89 -71.5 -137.5t-73.5 -69t-93 -20.5zM310 777h154l-140 -167h-119z" />
    <glyph glyph-name="uhungarumlaut.ss01" horiz-adv-x="611" 
d="M306 -16q-114 0 -174.5 59t-60.5 168v298h139v-295q0 -107 97 -107q94 0 94 107v295h139v-298q0 -110 -60.5 -168.5t-173.5 -58.5zM225 777h139l-114 -167h-111zM417 777h138l-114 -167h-111z" />
    <glyph glyph-name="glyph388" horiz-adv-x="0" 
d="M-183 978h168l115 -143h-131z" />
    <glyph glyph-name="agrave.ss03" horiz-adv-x="572" 
d="M224 -16q-83 0 -131.5 43t-48.5 117q0 78 56.5 126t147.5 48q32 0 66.5 -6.5t60.5 -16.5q0 117 -130 117q-85 0 -159 -54l-11 112q33 25 85 40t104 15q117 0 179.5 -59.5t62.5 -171.5v-294h-125l-2 50q-54 -66 -155 -66zM255 83q54 0 85.5 32t34.5 90q-47 19 -102 19
q-46 0 -71.5 -18.5t-25.5 -52.5q0 -33 21 -51.5t58 -18.5zM105 777h154l106 -167h-119z" />
    <glyph glyph-name="ugrave.ss01" horiz-adv-x="611" 
d="M306 -16q-114 0 -174.5 59t-60.5 168v298h139v-295q0 -107 97 -107q94 0 94 107v295h139v-298q0 -110 -60.5 -168.5t-173.5 -58.5zM139 777h154l106 -167h-119z" />
    <glyph glyph-name="ygrave.ss03" horiz-adv-x="592" 
d="M115 -254q-30 0 -57.5 6t-42.5 16l18 119q30 -15 66 -15q38 0 61.5 23.5t50.5 88.5l18 43l-213 482h151l135 -343l125 343h149l-223 -536q-37 -89 -71.5 -137.5t-73.5 -69t-93 -20.5zM130 777h154l106 -167h-119z" />
    <glyph glyph-name="glyph409" horiz-adv-x="0" 
d="M-68 986h136l142 -151h-139l-71 76l-71 -76h-139z" />
    <glyph glyph-name="glyph412" horiz-adv-x="0" 
d="M77 832q-27 0 -47 9t-35 20t-28.5 20t-27.5 9q-16 0 -23.5 -13.5t-7.5 -42.5h-95v7q2 149 111 149q27 0 47 -9t35 -20t28.5 -20t27.5 -9q16 0 23 13t7 43h96v-7q-1 -73 -29.5 -111t-81.5 -38z" />
    <glyph glyph-name="acircumflex.ss03" horiz-adv-x="572" 
d="M224 -16q-83 0 -131.5 43t-48.5 117q0 78 56.5 126t147.5 48q32 0 66.5 -6.5t60.5 -16.5q0 117 -130 117q-85 0 -159 -54l-11 112q33 25 85 40t104 15q117 0 179.5 -59.5t62.5 -171.5v-294h-125l-2 50q-54 -66 -155 -66zM255 83q54 0 85.5 32t34.5 90q-47 19 -102 19
q-46 0 -71.5 -18.5t-25.5 -52.5q0 -33 21 -51.5t58 -18.5zM212 777h120l138 -167h-124l-74 89l-74 -89h-124z" />
    <glyph glyph-name="ucircumflex.ss01" horiz-adv-x="611" 
d="M306 -16q-114 0 -174.5 59t-60.5 168v298h139v-295q0 -107 97 -107q94 0 94 107v295h139v-298q0 -110 -60.5 -168.5t-173.5 -58.5zM246 777h120l138 -167h-124l-74 89l-74 -89h-124z" />
    <glyph glyph-name="ycircumflex.ss03" horiz-adv-x="592" 
d="M115 -254q-30 0 -57.5 6t-42.5 16l18 119q30 -15 66 -15q38 0 61.5 23.5t50.5 88.5l18 43l-213 482h151l135 -343l125 343h149l-223 -536q-37 -89 -71.5 -137.5t-73.5 -69t-93 -20.5zM237 777h120l138 -167h-124l-74 89l-74 -89h-124z" />
    <glyph glyph-name="atilde.ss03" horiz-adv-x="572" 
d="M224 -16q-83 0 -131.5 43t-48.5 117q0 78 56.5 126t147.5 48q32 0 66.5 -6.5t60.5 -16.5q0 117 -130 117q-85 0 -159 -54l-11 112q33 25 85 40t104 15q117 0 179.5 -59.5t62.5 -171.5v-294h-125l-2 50q-54 -66 -155 -66zM255 83q54 0 85.5 32t34.5 90q-47 19 -102 19
q-46 0 -71.5 -18.5t-25.5 -52.5q0 -33 21 -51.5t58 -18.5zM352 613q-29 0 -49.5 9t-36 20t-28.5 20t-28 9q-17 0 -24 -13.5t-7 -42.5h-93v10q2 69 29.5 106.5t77.5 37.5q29 0 49.5 -9t36 -20t28.5 -20t28 -9q17 0 24 13.5t7 42.5h92v-10q-1 -69 -28.5 -106.5t-77.5 -37.5z
" />
    <glyph glyph-name="utilde.ss01" horiz-adv-x="611" 
d="M306 -16q-114 0 -174.5 59t-60.5 168v298h139v-295q0 -107 97 -107q94 0 94 107v295h139v-298q0 -110 -60.5 -168.5t-173.5 -58.5zM386 613q-29 0 -49.5 9t-36 20t-28.5 20t-28 9q-17 0 -24 -13.5t-7 -42.5h-93v10q2 69 29.5 106.5t77.5 37.5q29 0 49.5 -9t36 -20
t28.5 -20t28 -9q17 0 24 13.5t7 42.5h92v-10q-1 -69 -28.5 -106.5t-77.5 -37.5z" />
    <glyph glyph-name="glyph444" horiz-adv-x="0" 
d="M-210 986h139l71 -78l71 78h139l-142 -151h-136z" />
    <glyph glyph-name="glyph447" horiz-adv-x="0" 
d="M-52 810h128l-51 -215h-89z" />
    <glyph glyph-name="glyph449" horiz-adv-x="0" 
d="M-163 947h327v-101h-327v101z" />
    <glyph glyph-name="tcaron.ss01" horiz-adv-x="415" 
d="M121 394h-99v115h99v138h139v-138h121v-115h-121v-394h-139v394zM339 810h128l-51 -215h-89z" />
    <glyph glyph-name="amacron.ss03" horiz-adv-x="572" 
d="M224 -16q-83 0 -131.5 43t-48.5 117q0 78 56.5 126t147.5 48q32 0 66.5 -6.5t60.5 -16.5q0 117 -130 117q-85 0 -159 -54l-11 112q33 25 85 40t104 15q117 0 179.5 -59.5t62.5 -171.5v-294h-125l-2 50q-54 -66 -155 -66zM255 83q54 0 85.5 32t34.5 90q-47 19 -102 19
q-46 0 -71.5 -18.5t-25.5 -52.5q0 -33 21 -51.5t58 -18.5zM110 731h324v-99h-324v99z" />
    <glyph glyph-name="umacron.ss01" horiz-adv-x="611" 
d="M306 -16q-114 0 -174.5 59t-60.5 168v298h139v-295q0 -107 97 -107q94 0 94 107v295h139v-298q0 -110 -60.5 -168.5t-173.5 -58.5zM144 731h324v-99h-324v99z" />
    <glyph glyph-name="glyph484" horiz-adv-x="0" 
d="M-111 833q-33 0 -53 19.5t-20 50.5t20 51t53 20t53.5 -19.5t20.5 -51.5q0 -31 -21 -50.5t-53 -19.5zM110 833q-32 0 -52.5 19.5t-20.5 50.5t20.5 51t52.5 20q33 0 53.5 -19.5t20.5 -51.5q0 -31 -21 -50.5t-53 -19.5z" />
    <glyph glyph-name="glyph487" horiz-adv-x="0" 
d="M0 820q-83 0 -130.5 40.5t-47.5 110.5q0 6 1 11h100q0 -36 20 -55.5t57 -19.5t57 19.5t20 55.5h100q1 -5 1 -11q0 -70 -47.5 -110.5t-130.5 -40.5z" />
    <glyph glyph-name="adieresis.ss03" horiz-adv-x="572" 
d="M224 -16q-83 0 -131.5 43t-48.5 117q0 78 56.5 126t147.5 48q32 0 66.5 -6.5t60.5 -16.5q0 117 -130 117q-85 0 -159 -54l-11 112q33 25 85 40t104 15q117 0 179.5 -59.5t62.5 -171.5v-294h-125l-2 50q-54 -66 -155 -66zM255 83q54 0 85.5 32t34.5 90q-47 19 -102 19
q-46 0 -71.5 -18.5t-25.5 -52.5q0 -33 21 -51.5t58 -18.5zM163 616q-33 0 -52.5 19.5t-19.5 50.5q0 30 20.5 49.5t51.5 19.5q32 0 52 -19.5t20 -49.5q0 -31 -20 -50.5t-52 -19.5zM381 616q-33 0 -52.5 19.5t-19.5 50.5q0 30 20.5 49.5t51.5 19.5q32 0 52 -19.5t20 -49.5
q0 -31 -20 -50.5t-52 -19.5z" />
    <glyph glyph-name="udieresis.ss01" horiz-adv-x="611" 
d="M306 -16q-114 0 -174.5 59t-60.5 168v298h139v-295q0 -107 97 -107q94 0 94 107v295h139v-298q0 -110 -60.5 -168.5t-173.5 -58.5zM197 616q-33 0 -52.5 19.5t-19.5 50.5q0 30 20.5 49.5t51.5 19.5q32 0 52 -19.5t20 -49.5q0 -31 -20 -50.5t-52 -19.5zM415 616
q-33 0 -52.5 19.5t-19.5 50.5q0 30 20.5 49.5t51.5 19.5q32 0 52 -19.5t20 -49.5q0 -31 -20 -50.5t-52 -19.5z" />
    <glyph glyph-name="ydieresis.ss03" horiz-adv-x="592" 
d="M115 -254q-30 0 -57.5 6t-42.5 16l18 119q30 -15 66 -15q38 0 61.5 23.5t50.5 88.5l18 43l-213 482h151l135 -343l125 343h149l-223 -536q-37 -89 -71.5 -137.5t-73.5 -69t-93 -20.5zM188 616q-33 0 -52.5 19.5t-19.5 50.5q0 30 20.5 49.5t51.5 19.5q32 0 52 -19.5
t20 -49.5q0 -31 -20 -50.5t-52 -19.5zM406 616q-33 0 -52.5 19.5t-19.5 50.5q0 30 20.5 49.5t51.5 19.5q32 0 52 -19.5t20 -49.5q0 -31 -20 -50.5t-52 -19.5z" />
    <glyph glyph-name="abreve.ss03" horiz-adv-x="572" 
d="M224 -16q-83 0 -131.5 43t-48.5 117q0 78 56.5 126t147.5 48q32 0 66.5 -6.5t60.5 -16.5q0 117 -130 117q-85 0 -159 -54l-11 112q33 25 85 40t104 15q117 0 179.5 -59.5t62.5 -171.5v-294h-125l-2 50q-54 -66 -155 -66zM255 83q54 0 85.5 32t34.5 90q-47 19 -102 19
q-46 0 -71.5 -18.5t-25.5 -52.5q0 -33 21 -51.5t58 -18.5zM272 592q-80 0 -126.5 41.5t-46.5 113.5q0 7 1 13h95q0 -83 77 -83t77 83h95q1 -6 1 -13q0 -72 -46.5 -113.5t-126.5 -41.5z" />
    <glyph glyph-name="gbreve.ss03" horiz-adv-x="592" 
d="M273 -254q-117 0 -182 38.5t-65 108.5q0 44 22 76.5t63 49.5q-26 12 -41 34t-15 50q0 63 73 103q-72 49 -72 139q0 81 62 130.5t163 49.5q64 0 113 -21l179 12v-104l-84 6q23 -37 23 -80q0 -50 -27 -89.5t-77.5 -62t-118.5 -22.5q-45 0 -74 7q-19 -10 -27.5 -20.5
t-8.5 -24.5q0 -18 20 -25.5t68 -7.5h40q123 0 182.5 -40.5t59.5 -125.5q0 -87 -72 -134t-204 -47zM287 -145q61 0 93 16.5t32 48.5q0 31 -27 44.5t-89 13.5h-23q-59 0 -86 -15t-27 -47q0 -29 33 -45t94 -16zM284 264q45 0 71 21.5t26 59.5q0 37 -26.5 58.5t-70.5 21.5
t-70 -21.5t-26 -58.5t26 -59t70 -22zM300 592q-80 0 -126.5 41.5t-46.5 113.5q0 7 1 13h95q0 -83 77 -83t77 83h95q1 -6 1 -13q0 -72 -46.5 -113.5t-126.5 -41.5z" />
    <glyph glyph-name="glyph513" horiz-adv-x="0" 
d="M0 829q-37 0 -59.5 22t-22.5 57t23 57t59 22q37 0 59.5 -22t22.5 -57t-23 -57t-59 -22z" />
    <glyph glyph-name="gdotaccent.ss03" horiz-adv-x="592" 
d="M273 -254q-117 0 -182 38.5t-65 108.5q0 44 22 76.5t63 49.5q-26 12 -41 34t-15 50q0 63 73 103q-72 49 -72 139q0 81 62 130.5t163 49.5q64 0 113 -21l179 12v-104l-84 6q23 -37 23 -80q0 -50 -27 -89.5t-77.5 -62t-118.5 -22.5q-45 0 -74 7q-19 -10 -27.5 -20.5
t-8.5 -24.5q0 -18 20 -25.5t68 -7.5h40q123 0 182.5 -40.5t59.5 -125.5q0 -87 -72 -134t-204 -47zM287 -145q61 0 93 16.5t32 48.5q0 31 -27 44.5t-89 13.5h-23q-59 0 -86 -15t-27 -47q0 -29 33 -45t94 -16zM284 264q45 0 71 21.5t26 59.5q0 37 -26.5 58.5t-70.5 21.5
t-70 -21.5t-26 -58.5t26 -59t70 -22zM300 613q-35 0 -56.5 21t-21.5 55t21.5 55t56.5 21t57 -21t22 -55t-22 -55t-57 -21z" />
    <glyph glyph-name="glyph526" horiz-adv-x="0" 
d="M0 817q-61 0 -101 38t-40 95t40 95t101 38t101 -38t40 -95t-40 -95t-101 -38zM0 892q27 0 42.5 16t15.5 42q0 27 -15.5 42.5t-42.5 15.5t-42.5 -15.5t-15.5 -42.5q0 -26 15.5 -42t42.5 -16z" />
    <glyph glyph-name="aring.ss03" horiz-adv-x="572" 
d="M224 -16q-83 0 -131.5 43t-48.5 117q0 78 56.5 126t147.5 48q32 0 66.5 -6.5t60.5 -16.5q0 117 -130 117q-85 0 -159 -54l-11 112q33 25 85 40t104 15q117 0 179.5 -59.5t62.5 -171.5v-294h-125l-2 50q-54 -66 -155 -66zM255 83q54 0 85.5 32t34.5 90q-47 19 -102 19
q-46 0 -71.5 -18.5t-25.5 -52.5q0 -33 21 -51.5t58 -18.5zM272 579q-61 0 -101 38t-40 95t40 95t101 38t101 -38t40 -95t-40 -95t-101 -38zM272 654q27 0 42.5 16t15.5 42q0 27 -15.5 42.5t-42.5 15.5t-42.5 -15.5t-15.5 -42.5q0 -26 15.5 -42t42.5 -16z" />
    <glyph glyph-name="uring.ss01" horiz-adv-x="611" 
d="M306 -16q-114 0 -174.5 59t-60.5 168v298h139v-295q0 -107 97 -107q94 0 94 107v295h139v-298q0 -110 -60.5 -168.5t-173.5 -58.5zM306 579q-61 0 -101 38t-40 95t40 95t101 38t101 -38t40 -95t-40 -95t-101 -38zM306 654q27 0 42.5 16t15.5 42q0 27 -15.5 42.5
t-42.5 15.5t-42.5 -15.5t-15.5 -42.5q0 -26 15.5 -42t42.5 -16z" />
    </font>
</defs>
</svg>
