<?xml version="1.0" standalone="no"?>
<!DOCTYPE svg PUBLIC "-//W3C//DTD SVG 1.1//EN" "http://www.w3.org/Graphics/SVG/1.1/DTD/svg11.dtd" >
<svg>
<metadata>
Created by FontForge 20090914 at Fri Dec 30 12:54:06 2011
 By www-data
&#194;&#169; Apostrophic Labs. All rights reserved. apostrofe@mail.com. Some of the uppercase letters are loosely based on Disney's Hercules titling.
</metadata>
<defs>
<font id="Diogenes" horiz-adv-x="505" >
  <font-face 
    font-family="Diogenes"
    font-weight="400"
    font-stretch="normal"
    units-per-em="1000"
    panose-1="2 0 6 5 4 0 0 2 0 4"
    ascent="800"
    descent="-200"
    x-height="505.999"
    cap-height="800"
    bbox="-121.001 -509 1005 1055"
    underline-thickness="20"
    underline-position="-123"
    unicode-range="U+0020-U+FB02"
  />
<missing-glyph horiz-adv-x="500" 
 />
    <glyph glyph-name=".notdef" horiz-adv-x="500" 
 />
    <glyph glyph-name="space" unicode=" " horiz-adv-x="300" 
 />
    <glyph glyph-name="space" unicode="&#xa0;" horiz-adv-x="300" 
 />
    <glyph glyph-name="exclam" unicode="!" horiz-adv-x="216" 
d="M167 809c-30 -16.667 -51.334 -31.5 -64.001 -44.5s-20.667 -23.167 -24 -30.5v8h-4c-10.667 0 -18.334 -11.333 -23.001 -34c4.66699 -5.33301 7.5 -11.166 8.5 -17.499s1.5 -14.5 1.5 -24.5v-36c0 -20.667 -1 -40.834 -3 -60.501s-3 -39.834 -3 -60.501
c4 -21.333 8.33301 -35.666 13 -42.999l-1 -23c-0.666992 -2 -1 -4.66699 -1 -8v-7c0 -2 0.333008 -4 1 -6c0 -7.33301 -0.166992 -13 -0.5 -17s-0.5 -7.33301 -0.5 -10v-14c0 -31.333 1.33301 -62.5 4 -93.5s4.66699 -57.833 6 -80.5l77 -47v38c0 30 2 69.667 6 119l6.5 60
l4 37c1 9.33301 1.66699 16.166 2 20.499s0.5 7.5 0.5 9.5v25c1.33301 12.667 3 24.5 5 35.5s3 24.5 3 40.5c0 7.33301 -0.666992 13 -2 17s-2.66602 7.5 -3.99902 10.5s-2.66602 5.83301 -3.99902 8.5s-2 6 -2 10c0 11.333 3.16699 27.333 9.5 48s10.5 45 12.5 73
c-0.666992 0.666992 -1 2.33398 -1 5.00098c0 1.33301 0.333008 4 1 8s1 8.66699 1 14v28c0 26 -6.66699 40 -20 42h-5zM133.999 134c-18 -6.66699 -34.333 -10 -49 -10l-7 4c-7.33301 -1.33301 -13.5 -3.66602 -18.5 -6.99902s-7.5 -9 -7.5 -17s1.16699 -17.667 3.5 -29
s4.83301 -21.666 7.5 -30.999v1c2 -8.66699 4 -16.167 6 -22.5s5 -11.5 9 -15.5s9.33301 -7 16 -9s15.667 -3 27 -3c3.33301 0 7 0.333008 11 1s7.66699 1 11 1h6c13.333 11.333 20.333 26.666 21 45.999l2 50c0.666992 1.33301 1 3.33301 1 6l1 19l-5 -6l-2 4
c-0.666992 1.33301 -1.66699 2.66602 -3 3.99902h-1c-3.33301 3.33301 -7.5 6 -12.5 8s-10.5 4 -16.5 6z" />
    <glyph glyph-name="quotedbl" unicode="&#x22;" horiz-adv-x="450" 
d="M242 769c-2 -0.666992 -5.66797 -1.16992 -11.001 -1.50293s-13 -0.5 -23 -0.5c2.66699 -17.333 4.16699 -29.666 4.5 -36.999s0.5 -14 0.5 -20l9 -43v-89c0 -5.33301 1 -9.33301 3 -12s5.33301 -6 10 -10v1c1.33301 -1.33301 4.33301 -4.16602 9 -8.49902l14 -12.5
l17 -17l21 -20c8.66699 -8 15.667 -13 21 -15l4 -4c5.33301 -4.66699 11.833 -9.83398 19.5 -15.501s14.167 -8.5 19.5 -8.5h10l56 96c-9.33301 5.33301 -19.666 12.833 -30.999 22.5l-34 30.5l-4 2c0 2.66699 -0.333008 5.33398 -1 8.00098s-1.66699 5.66699 -3 9
c-2.66699 28.667 -4.66699 53.167 -6 73.5s-2 36.5 -2 48.5v17c-5.33301 4 -10.5 7.33301 -15.5 10s-10.167 4.66699 -15.5 6c-4 -0.666992 -7.66699 -1.16699 -11 -1.5s-6.33301 -1.16602 -9 -2.49902h-22c-2 -2 -11.667 -4 -29 -6h-1zM44.999 760.997
c-2.66699 0 -4.83398 -0.167969 -6.50098 -0.500977s-3.66699 -0.833008 -6 -1.5s-6 -1.16699 -11 -1.5s-12.167 -0.5 -21.5 -0.5c0 -10 0.333008 -21.333 1 -34s1 -24.667 1 -36l9 -30v-94h-7l20.5 -18c3 -2.66699 5.83301 -4.66699 8.5 -6l4 -3
c0.666992 -0.666992 3.83398 -3.66699 9.50098 -9s8.83398 -8.33301 9.50098 -9v2c19.333 -19.333 37.666 -36.166 54.999 -50.499s30.333 -21.5 39 -21.5h9l56 93c-4 3.33301 -9.33301 7.5 -16 12.5s-13.834 10.833 -21.501 17.5s-14.834 13.834 -21.501 21.501
s-11.667 16.167 -15 25.5c-2.66699 25.333 -4.66699 47.333 -6 66s-2 34 -2 46c0 2 0.166992 3.83301 0.5 5.5s0.5 3.5 0.5 5.5v11c-13.333 11.333 -23.333 17.333 -30 18c-5.33301 -1.33301 -10.166 -3.5 -14.499 -6.5s-7.5 -5.83301 -9.5 -8.5h-9
c-3.33301 3.33301 -6.16602 5.16602 -8.49902 5.49902s-6.83301 0.5 -13.5 0.5h-4z" />
    <glyph glyph-name="numbersign" unicode="#" horiz-adv-x="905" 
d="M569 53c32.667 0 49.001 6.67285 49.001 20.0059c0 4 -1.66699 7.66699 -5 11c-6 48 -9 83.333 -9 106c0 10 0.333008 20.167 1 30.5s2 20.166 4 29.499c6.66699 -0.666992 13.334 -1 20.001 -1h25c8.66699 0 19.167 0.333008 31.5 1l36 2
c11.667 0.666992 22.167 1.5 31.5 2.5s15.666 1.5 18.999 1.5c0 21.333 2.33301 42.666 7 63.999s10 42.333 16 63c-8.66699 0 -17.667 0.5 -27 1.5s-18 1.5 -26 1.5c-6 0 -14.833 -0.333008 -26.5 -1s-24 -1.33398 -37 -2.00098l-37.5 -2c-12 -0.666992 -21 -1 -27 -1
c0 6.66699 0.166992 16 0.5 28l1 37.5c0.333008 13 0.833008 25.5 1.5 37.5s1.33398 21.667 2.00098 29c9.33301 0 21.166 0.5 35.499 1.5s28.833 2.33301 43.5 4s28.5 3.5 41.5 5.5s22.833 3.66699 29.5 5h3c2 0 5.33301 2.83301 10 8.5s9.16699 12.5 13.5 20.5
s8.16602 16.5 11.499 25.5s5 16.833 5 23.5c0 20.667 -10.333 31 -31 31l-155 -1v138l6 4c-2.66699 4 -5.66699 8 -9 12s-7.66602 6 -12.999 6c-4.66699 0 -10.667 -0.833008 -18 -2.5s-15.166 -3.66699 -23.499 -6s-16.833 -4.33301 -25.5 -6s-16.667 -2.5 -24 -2.5
l-21 -160c-48 -2.66699 -89.333 -4.83398 -124 -6.50098s-63.667 -2.5 -87 -2.5c2 29.333 4.33301 57.666 7 84.999s4.33398 51.666 5.00098 72.999v1c0 21.333 -20.667 32 -62 32c-15.333 0 -26.833 -2.66699 -34.5 -8s-11.5 -12.666 -11.5 -21.999v-14
c0 -8 -0.666992 -18.833 -2 -32.5l-4 -42.5c-1.33301 -14.667 -2.83301 -28.834 -4.5 -42.501s-2.83398 -24.5 -3.50098 -32.5c-6 0 -14.167 0.166992 -24.5 0.5s-21.333 0.666016 -33 0.999023l-33.5 1c-10.667 0.333008 -19 0.5 -25 0.5h-20
c-21.333 -19.333 -32 -37.333 -32 -54c0 -12.667 10.333 -31 31 -55c2.66699 -0.666992 9.83398 -2 21.501 -4l39 -6.5c14.333 -2.33301 29 -4.5 44 -6.5s27.167 -3.33301 36.5 -4c-1.33301 -29.333 -3 -54.666 -5 -75.999s-4.33301 -38.666 -7 -51.999h-3
c-4 0 -11.667 0.666992 -23 2s-23.333 2.66602 -36 3.99902s-24.5 2.66602 -35.5 3.99902s-17.833 2 -20.5 2v-17c0 -3.33301 1 -9.33301 3 -18l6.5 -27c2.33301 -9.33301 4.66602 -17.666 6.99902 -24.999s3.83301 -11.333 4.5 -12c6 -8.66699 23.333 -13 52 -13
c9.33301 0 19.666 0.166992 30.999 0.5s23.333 1.16602 36 2.49902l12 -157c-0.666992 -2 -1 -4.33301 -1 -7c0 -20.667 23.333 -31 70 -31c23.333 0 38 4.16699 44 12.5s9 18.166 9 29.499v15c0 6 -1 15 -3 27l-6.5 37.5l-6.5 37c-2 11.667 -3 20.167 -3 25.5v8l192 5
c0.666992 -2.66699 1 -6 1 -10s-0.5 -12 -1.5 -24s-2.16699 -24.667 -3.5 -38s-2.5 -26.166 -3.5 -38.499s-1.5 -20.833 -1.5 -25.5c0 -9.33301 -0.166992 -18.166 -0.5 -26.499s1.66699 -15.5 6 -21.5s12.166 -10.833 23.499 -14.5s28.333 -5.5 51 -5.5zM301.001 358.006
c-3.33301 4.66699 -6.49902 19.001 -9.49902 43.001s-4.5 54.333 -4.5 91c41.333 5.33301 77.166 9.16602 107.499 11.499s55.166 3.5 74.499 3.5h7c12.667 0 20.5 -1.33301 23.5 -4s4.5 -12 4.5 -28c0 -13.333 -0.833008 -28.5 -2.5 -45.5s-4.5 -36.833 -8.5 -59.5
c-26 -6 -51.667 -10 -77 -12s-50.666 -3 -75.999 -3s-38.333 1 -39 3z" />
    <glyph glyph-name="dollar" unicode="$" horiz-adv-x="324" 
d="M200 786l-8.00488 1.00293h-11l3 -1c-2.66699 0.666992 -5.16699 1.33398 -7.5 2.00098s-4.5 1 -6.5 1c-8 0 -17 -0.5 -27 -1.5s-19.667 -2.66699 -29 -5s-17.166 -5.5 -23.499 -9.5s-9.5 -9.33301 -9.5 -16c0 -3.33301 0.166992 -5.83301 0.5 -7.5
s0.833008 -3.83398 1.5 -6.50098l2 -10c0 -0.666992 -0.666992 -3 -2 -7c0 0.666992 0.333008 -3.5 1 -12.5s1.5 -19 2.5 -30s2.16699 -21.333 3.5 -31s2.33301 -15.167 3 -16.5v-26c0 -15.333 3 -27.666 9 -36.999c-18.667 -16.667 -35.667 -33.334 -51 -50.001
s-23 -30.667 -23 -42c0 -9.33301 5.5 -19.833 16.5 -31.5s24.833 -23.834 41.5 -36.501s34.334 -25.167 53.001 -37.5l52 -34.5l6 -26c-7.33301 -12.667 -14.5 -23.334 -21.5 -32.001s-14.833 -16.334 -23.5 -23.001s-18.5 -13 -29.5 -19s-23.5 -12.333 -37.5 -19
c-26 -12.667 -44.833 -27.834 -56.5 -45.501s-18.167 -33.834 -19.5 -48.501v-19c8.66699 -2.66699 16 -4.33398 22 -5.00098s11.667 -1 17 -1c9.33301 0 19.833 2.5 31.5 7.5s23.167 10.5 34.5 16.5c0.666992 -13.333 1.83398 -27 3.50098 -41s3.66699 -27 6 -39
s5.16602 -22.167 8.49902 -30.5s7 -12.833 11 -13.5c2.66699 0 6 0.333008 10 1s7 1 9 1c2 -2 4.66699 -3.33301 8 -4s6 -1 8 -1h3c1.33301 0 3.66602 0.666992 6.99902 2l-1 -1c2 0.666992 4.83301 1.33398 8.5 2.00098s7.16699 1 10.5 1h13c9.33301 0 16.5 3.5 21.5 10.5
s7.5 16.167 7.5 27.5l1 25c-2 2 -4.33301 8 -7 18s-5.16699 21 -7.5 33s-4.16602 23.333 -5.49902 34s-2 17 -2 19l4 19l4 18.5c1.33301 6.33301 2 10.833 2 13.5v1c6.66699 8.66699 14.834 16.5 24.501 23.5s19 14.333 28 22s16.667 16 23 25s10.166 19.5 11.499 31.5
c-20 30.667 -43.5 60 -70.5 88s-55.5 52 -85.5 72l4 4c6.66699 7.33301 14.334 15.333 23.001 24l25.5 26l23 24.5c7 7.66699 12.833 14.5 17.5 20.5h7c40 10 63 43.667 69 101c-15.333 2.66699 -29.166 5.33398 -41.499 8.00098s-24.166 6 -35.499 10l-25.5 -21.5
c-11.667 -9.66699 -21.5 -18.167 -29.5 -25.5c-0.666992 11.333 -1.5 23.5 -2.5 36.5s-1.5 23.833 -1.5 32.5c0 9.33301 0.833008 16.833 2.5 22.5s2.5 10.5 2.5 14.5v6c0 2.66699 -0.666992 6.33398 -2 11.001l-4 2v5z" />
    <glyph glyph-name="percent" unicode="%" horiz-adv-x="632" 
d="M316 574c0 30 -3 58.168 -9 84.501s-15 49.166 -27 68.499s-27.167 34.5 -45.5 45.5s-39.833 16.5 -64.5 16.5c-43.333 0 -80.333 -31.333 -111 -94h2c-8.66699 -20.667 -15 -42 -19 -64s-6 -44.333 -6 -67c0 -17.333 1.66699 -36 5 -56s7.83301 -38.667 13.5 -56
s12.167 -31.833 19.5 -43.5s15 -17.5 23 -17.5c0.666992 0 4 -1.83301 10 -5.5s13 -7.66699 21 -12s16.167 -8.33301 24.5 -12s15.166 -5.5 20.499 -5.5c48.667 0 89 33 121 99h-2c8.66699 19.333 14.834 39 18.501 59s5.5 40 5.5 60zM490 442.001
c-17.333 0 -35.0029 -7.33594 -53.0029 -22.0029s-34.5 -33.5 -49.5 -56.5s-27.333 -48.333 -37 -76s-14.5 -54.167 -14.5 -79.5c0 -87.333 46.333 -153.333 139 -198c22 0 42.167 6.33301 60.5 19s34 29.167 47 49.5s23.167 43.5 30.5 69.5s11 52.333 11 79
c0 50 -6.33301 94 -19 132c-5.33301 16.667 -10.666 28.834 -15.999 36.501s-11.166 13.334 -17.499 17.001s-13.166 6.33398 -20.499 8.00098s-16 4.5 -26 8.5l1 -1c-13.333 9.33301 -25.333 14 -36 14zM176.997 59.998l-0.00195312 -31.0049
c0.666992 -10.667 3.5 -18.667 8.5 -24s10.5 -8 16.5 -8c10 0 18.667 2.33301 26 7s15 13.834 23 27.501s16.667 32.834 26 57.501s21 57.334 35 98.001l51 149l74 209c10.667 29.333 19.667 52 27 68s13.5 27.833 18.5 35.5s9 12.334 12 14.001s5.16699 3 6.5 4
s2.16602 2.83301 2.49902 5.5s0.5 9 0.5 19v25c0 7.33301 -0.666992 12.666 -2 15.999l-7 50c-7.33301 16 -18 24 -32 24c-10 0 -19.167 -4 -27.5 -12s-16.166 -18.833 -23.499 -32.5s-14.166 -29.5 -20.499 -47.5l-19.5 -56c-11.333 -34 -21.166 -62 -29.499 -84l-21 -55
l-14.5 -37c-4 -10 -7.33301 -19.833 -10 -29.5s-5 -20.5 -7 -32.5s-4.33301 -27 -7 -45c-2 -16 -7.16699 -33.667 -15.5 -53s-17.5 -39.166 -27.5 -59.499s-19.5 -41.166 -28.5 -62.499s-15.5 -42 -19.5 -62l-8 -40c-2.66699 -13.333 -5 -26 -7 -38zM105.995 560.993
c0 42 22.332 80.666 66.999 115.999c45.333 -6.66699 68 -36.667 68 -90c0 -14.667 -2 -29.667 -6 -45s-9 -29.166 -15 -41.499s-12.833 -22.5 -20.5 -30.5s-15.5 -12 -23.5 -12h-4c-0.666992 0 -1.66699 0.166992 -3 0.5s-2.33301 0.5 -3 0.5l-4 -3
c-5.33301 1.33301 -11.166 5.5 -17.499 12.5s-12.333 15.5 -18 25.5s-10.5 21 -14.5 33s-6 23.333 -6 34zM494.994 343.992c6 -4 12.165 -10.6689 18.498 -20.002s11.833 -20.333 16.5 -33s8.5 -26 11.5 -40s4.5 -27.333 4.5 -40c0 -57.333 -21.667 -87.666 -65 -90.999h-4
c-17.333 0 -30.166 9.16699 -38.499 27.5s-12.5 41.5 -12.5 69.5c0 16.667 1.5 32.834 4.5 48.501s7 29.667 12 42s10.833 22.333 17.5 30s13.334 11.5 20.001 11.5c2 0 4.16699 -0.5 6.5 -1.5z" />
    <glyph glyph-name="ampersand" unicode="&#x26;" horiz-adv-x="674" 
d="M580 496c-20.667 28.667 -42.3281 42.9971 -64.9951 42.9971c-9.33301 0 -17 -2 -23 -6s-10.5 -9 -13.5 -15s-5 -12.5 -6 -19.5s-1.5 -13.5 -1.5 -19.5c0 -3.33301 0.166992 -5.83301 0.5 -7.5s0.5 -3.16699 0.5 -4.5v-42h-3v-27c-2.66699 0 -5.16699 0.166992 -7.5 0.5
s-4.83301 1.16602 -7.5 2.49902c-5.33301 -4 -11 -6 -17 -6c-12.667 -4.66699 -22.167 -8.33398 -28.5 -11.001s-10.833 -4.66699 -13.5 -6l1 1c-3.33301 -1.33301 -6.33301 -2.66602 -9 -3.99902s-9 -3 -19 -5v-13l-9 -8c-4 -4 -7.33301 -7.83301 -10 -11.5
s-4 -7.5 -4 -11.5v-3c0.666992 -1.33301 1 -3.33301 1 -6c0 -2 0.333008 -3.66699 1 -5l-1 1c3.33301 -21.333 7.16602 -36.833 11.499 -46.5s14.166 -14.5 29.499 -14.5c6 0 11 0.5 15 1.5s9.66699 3.16699 17 6.5h-2h1c0 0.666992 0.333008 1 1 1l1 -1l9 4
c1.33301 0 2.83301 0.333008 4.5 1s3.16699 1 4.5 1h2c2.66699 -2 8 -3 16 -3c5.33301 8.66699 10.333 15.334 15 20.001c0 -20.667 0.333008 -38.667 1 -54s1 -27.666 1 -36.999v-48c0 -11.333 -0.333008 -19.833 -1 -25.5s-1.33398 -9.5 -2.00098 -11.5s-1.66699 -4 -3 -6
v1l-5 -9c-14.667 0 -27.5 0.166992 -38.5 0.5s-20.667 1.5 -29 3.5s-15.666 5.5 -21.999 10.5s-12.166 12.167 -17.499 21.5c-5.33301 11.333 -12.5 18.5 -21.5 21.5s-17.5 4.5 -25.5 4.5c-2.66699 0 -5.16699 -0.166992 -7.5 -0.5s-4.5 -0.5 -6.5 -0.5h-8
c-8.66699 10 -17.334 22.5 -26.001 37.5s-17.5 31.333 -26.5 49s-17.667 36.167 -26 55.5l-24.5 57c3.33301 -5.33301 8.33301 -9.5 15 -12.5s13.667 -5.5 21 -7.5s14.333 -3.33301 21 -4s11.667 -1 15 -1c7.33301 2 13 5.66699 17 11s7.5 11 10.5 17l8 16.5
c2.33301 5 5.5 8.5 9.5 10.5c24.667 20 46.834 36 66.501 48s36.334 23 50.001 33s24.167 20.667 31.5 32s11 26.666 11 45.999h-19c0 0.666992 0.333008 3.5 1 8.5s1.83398 10.333 3.50098 16s3.16699 8.83398 4.5 9.50098c-7.33301 10.667 -15.5 24.167 -24.5 40.5
s-21.833 37.166 -38.5 62.499h1c-6 10.667 -14.5 20.667 -25.5 30s-22.333 17.333 -34 24s-23.167 12 -34.5 16s-20.333 6 -27 6c-9.33301 0 -16.5 -1.33301 -21.5 -4s-9 -6.33398 -12 -11.001s-5.66699 -9.66699 -8 -15s-5.5 -10.333 -9.5 -15l-67 -42
c-22.667 -14.667 -43.334 -30.167 -62.001 -46.5s-34 -33.5 -46 -51.5s-18 -36.667 -18 -56c0 -14.667 1 -28.167 3 -40.5s5.66699 -25.833 11 -40.5s12.833 -31 22.5 -49s22.167 -40 37.5 -66c2 -7.33301 6.66699 -19.333 14 -36l25.5 -55.5l31 -63.5l32 -61.5
c10.333 -19 19.5 -34.833 27.5 -47.5s13.667 -20.334 17 -23.001l-4 6c1.33301 -2 6.66602 -4.16699 15.999 -6.5s20.666 -4.5 33.999 -6.5s27.666 -3.83301 42.999 -5.5l43 -4.5c13.333 -1.33301 24.833 -2.33301 34.5 -3s15.5 -1 17.5 -1
c5.33301 0 9.66602 0.666992 12.999 2s6 2 8 2c4 0 8.33301 -1.16699 13 -3.5s16 -4.16602 34 -5.49902v2c4 -1.33301 7.33301 -2.16602 10 -2.49902s5.33398 -0.833008 8.00098 -1.5h11v12l4 -9c-1.33301 -1.33301 -2.33301 -2 -3 -2c13.333 0 25.333 3.16699 36 9.5
s16 16.166 16 29.499v7c0 9.33301 -0.5 17 -1.5 23s-2.33301 11 -4 15s-3.83398 7.5 -6.50098 10.5s-5.66699 6.16699 -9 9.5l-3 2c0.666992 10 1.33398 17.833 2.00098 23.5s1.16699 10.834 1.5 15.501l1 14c0.333008 4.66699 0.5 10.667 0.5 18v33
c0 14.667 1.16699 29.834 3.5 45.501s6.16602 30 11.499 43s12.333 24.167 21 33.5s19.667 15.333 33 18h-1c9.33301 0.666992 17.5 1.66699 24.5 3s12.667 3.33301 17 6s7.66602 6.33398 9.99902 11.001s3.5 11.334 3.5 20.001c0 4 -0.666992 8.66699 -2 14
s-3 11.333 -5 18h1c-6 20 -16 30 -30 30c-2 0 -6.33301 -1.66699 -13 -5v1l-58 -17zM138.006 486.997l12.999 3.99707c-12 14.667 -18.667 24.334 -20 29.001l17 17l28 27l28.5 26c9 8 15.167 13.333 18.5 16h-1c12.667 6 26 9 40 9h8c12 -9.33301 21.667 -16.5 29 -21.5
s13.333 -9.66699 18 -14s8.33398 -9.33301 11.001 -15s5 -13.834 7 -24.501c-5.33301 -11.333 -13.333 -22.166 -24 -32.499s-23 -19.666 -37 -27.999s-29.167 -15.5 -45.5 -21.5s-32.833 -10.333 -49.5 -13c-4.66699 -5.33301 -8.5 -11.166 -11.5 -17.499
s-4.5 -12.833 -4.5 -19.5c-6 16.667 -11 31.667 -15 45zM567.005 351.994l8.99902 -10.001l-9 -9l-9 10c0 4.66699 0.333008 7.33398 1 8.00098s3.33398 1 8.00098 1zM480.004 428.993h5c0.666992 0 1 -0.333008 1 -1l-9 -2zM454.004 566.993c-2 6 -3.66504 9 -4.99805 9
c1.33301 -1.33301 2.16602 -2.83301 2.49902 -4.5s1.16602 -3.16699 2.49902 -4.5zM456.006 560.993v5h-1c0 0.666992 -0.333008 1 -1 1c0.666992 -1.33301 1 -2.33301 1 -3s0.333008 -1.66699 1 -3zM456.006 558.993c0 -1.33301 0.333008 -2.33301 1 -3
c0 0.666992 -0.166992 1.16699 -0.5 1.5s-0.5 0.833008 -0.5 1.5z" />
    <glyph glyph-name="quotesingle" unicode="'" horiz-adv-x="289" 
d="M184 744l0.00195312 2c0 18 -20.333 27 -61 27c-30 0 -51 -7.66699 -63 -23v-11c0 -1.33301 0.166992 -3 0.5 -5s0.5 -4 0.5 -6c0 -12.667 -0.833008 -30.5 -2.5 -53.5s-5.16699 -48.833 -10.5 -77.5l-1 -1l-36 -32c-12 -10.667 -20.667 -18.667 -26 -24l51 -94h9
c2 0 3.66699 0.166992 5 0.5s3.16602 1.33301 5.49902 3l11 8c5 3.66699 11.833 9.16699 20.5 16.5l50 48c6.66699 2.66699 12 6.83398 16 12.501s7.66699 11.167 11 16.5c-0.666992 -0.666992 -1.33398 -1 -2.00098 -1c-1.33301 0 -2.83301 1.66699 -4.5 5s-2.5 7 -2.5 11
h18c0 2.66699 0.166992 7.16699 0.5 13.5s0.5 13.166 0.5 20.499s0.166992 14.833 0.5 22.5s0.5 14.167 0.5 19.5c0 1.33301 -0.166992 2.83301 -0.5 4.5s-0.5 3.16699 -0.5 4.5v7z" />
    <glyph glyph-name="parenleft" unicode="(" horiz-adv-x="292" 
d="M266 801l-53.9971 -0.000976562c-4 -3.33301 -12.167 -11.333 -24.5 -24s-26.5 -29 -42.5 -49s-32.833 -42.833 -50.5 -68.5s-33.834 -53.167 -48.501 -82.5s-26.834 -59.5 -36.501 -90.5s-14.5 -61.833 -14.5 -92.5c0 -28.667 3.16699 -56 9.5 -82
s15.333 -51.667 27 -77s26.167 -51.5 43.5 -78.5s37 -55.833 59 -86.5c7.33301 -11.333 18.5 -26.833 33.5 -46.5s35.167 -37.834 60.5 -54.501h5c20.667 0 31 15 31 45c0 5.33301 -0.333008 11.833 -1 19.5s-1.5 15.334 -2.5 23.001s-1.83301 14.667 -2.5 21
s-1 10.833 -1 13.5c-18 10 -35.667 25.167 -53 45.5s-33 43.833 -47 70.5s-25.333 55.334 -34 86.001s-13.334 60.667 -14.001 90v4c0 90 29.667 180 89 270c5.33301 5.33301 14.333 18.333 27 39s29 50.667 49 90z" />
    <glyph glyph-name="parenright" unicode=")" horiz-adv-x="312" 
d="M129 777c-8.66699 10.667 -17.166 18.166 -25.499 22.499s-17.5 6.5 -27.5 6.5h-57l-17 -62c53.333 -67.333 93.166 -132.333 119.499 -195s39.5 -124.667 39.5 -186c0 -26 -1 -47.667 -3 -65s-5.5 -33 -10.5 -47s-11.5 -27.667 -19.5 -41l-29.5 -47l-41 -65
c-15.667 -25.333 -33.5 -57 -53.5 -95l70 -1c124 127.333 186 257.333 186 390c0 99.333 -33.333 203 -100 311c-4.66699 30.667 -15 55.334 -31 74.001z" />
    <glyph glyph-name="asterisk" unicode="*" horiz-adv-x="328" 
d="M54 446c0 -12 3.50391 -20.833 10.5039 -26.5s15 -9.5 24 -11.5s17.667 -2.83301 26 -2.5s14.166 0.5 17.499 0.5l8 34.5c2.66699 11.667 5.66699 22.167 9 31.5c8.66699 -14.667 19 -29.5 31 -44.5s22 -26.5 30 -34.5l47 50l-45 59c2 -0.666992 4 -1.16699 6 -1.5
s6 -0.5 12 -0.5c20 0 35 5 45 15s15 24 15 42c0 16 -4.33301 25.5 -13 28.5s-17.667 4.5 -27 4.5c-3.33301 0 -6.66602 -0.333008 -9.99902 -1s-7 -1.66699 -11 -3c7.33301 7.33301 13.166 14.166 17.499 20.499s6.5 13.166 6.5 20.499c0 8 -1.83301 14.833 -5.5 20.5
s-8 10.334 -13 14.001s-9.83301 6.5 -14.5 8.5s-8 3 -10 3c-4 0 -8.16699 -1.5 -12.5 -4.5s-8.5 -6.16699 -12.5 -9.5s-7.66699 -6.66602 -11 -9.99902s-6 -5.33301 -8 -6c-8 -1.33301 -17 -8.66602 -27 -21.999c0 4 -3.5 12.667 -10.5 26s-13.833 25.666 -20.5 36.999h-10
c-8.66699 0 -20.334 -5.66699 -35.001 -17v1l-5 -5l-6 -6c-2 -2 -4 -3.66699 -6 -5h4c-2.66699 -5.33301 -4 -10.666 -4 -15.999v-10c1.33301 -1.33301 3 -3.83301 5 -7.5l7 -12.5c2.66699 -4.66699 5.5 -9.33398 8.5 -14.001s5.83301 -8.33398 8.5 -11.001
c-3.33301 0.666992 -6 1 -8 1h-7c-14.667 0 -26 -1.33301 -34 -4s-13.833 -6 -17.5 -10s-5.83398 -8 -6.50098 -12s-1 -7.33301 -1 -10c0 -9.33301 2.33301 -16.666 7 -21.999s10.5 -9.33301 17.5 -12s14.667 -4.16699 23 -4.5s16.166 -0.5 23.499 -0.5h8l-26 -53v-8z" />
    <glyph glyph-name="plus" unicode="+" horiz-adv-x="462" 
d="M358 443c-36 2 -64.8311 3.66992 -86.498 5.00293s-36.834 2.66602 -45.501 3.99902c0.666992 3.33301 1.16699 6.66602 1.5 9.99902s0.5 7.33301 0.5 12s-0.333008 12.834 -1 24.501s-1.33398 24 -2.00098 37s-1.33398 25.167 -2.00098 36.5s-1 18.666 -1 21.999
l-78 -17c0 -11.333 -2 -19.666 -6 -24.999s-6 -10 -6 -14v-2v-38c0 -11.333 -1.5 -21 -4.5 -29s-8.33301 -14.333 -16 -19s-19.5 -7 -35.5 -7c-5.33301 2 -10.666 3.66699 -15.999 5s-10 2 -14 2c-8 0 -15.333 -2.16699 -22 -6.5s-12.167 -9.66602 -16.5 -15.999
s-7.83301 -12.833 -10.5 -19.5s-4 -12.334 -4 -17.001c0 -6 1.5 -12.167 4.5 -18.5s6.83301 -12 11.5 -17s9.83398 -9 15.501 -12s10.834 -4.5 15.501 -4.5c11.333 0 22.166 1.5 32.499 4.5s18.166 4.5 23.499 4.5c7.33301 -1.33301 13 -2 17 -2s7.66699 -0.333008 11 -1
v-22c0 -6.66699 1 -15.5 3 -26.5l6 -33c2 -11 4 -21 6 -30s3 -14.833 3 -17.5c0 -1.33301 -0.166992 -2.5 -0.5 -3.5s-0.5 -2.16699 -0.5 -3.5v-14h77v19c0 12 0.333008 24.333 1 37v23c2 3.33301 3.16699 8.16602 3.5 14.499s0.5 14.166 0.5 23.499
c-0.666992 7.33301 -1 13.333 -1 18v13c4 0 10.833 0.166992 20.5 0.5s19.667 0.833008 30 1.5s19.833 1.5 28.5 2.5s14.334 2.16699 17.001 3.5c2.66699 -1.33301 7.66699 -2.33301 15 -3s13.666 -1 18.999 -1c8.66699 0 15.334 3 20.001 9s7 14 7 24
c0 6 -0.833008 13.5 -2.5 22.5s-4.83398 20.167 -9.50098 33.5z" />
    <glyph glyph-name="comma" unicode="," horiz-adv-x="247" 
d="M70 -37c-3.33301 -9.33301 -5.83008 -19.1689 -7.49707 -29.502s-2.5 -21.833 -2.5 -34.5c1.33301 -1.33301 2.66602 -3.33301 3.99902 -6l-1 1c1.33301 -2.66699 2.33301 -4 3 -4l14 1l-13 -4c0.666992 -1.33301 1.66699 -3 3 -5s3 -4 5 -6l3 -3
c2 -3.33301 4.33301 -6.16602 7 -8.49902s4.66699 -4.16602 6 -5.49902v6c1.33301 0 2.66602 -0.166992 3.99902 -0.5s2.66602 -0.5 3.99902 -0.5c13.333 0 23.333 4.33301 30 13s13 18.667 19 30l18 33c18.667 33.333 28 58.666 28 75.999
c0 0.666992 -0.166992 1.83398 -0.5 3.50098s-1.66602 5.16699 -3.99902 10.5l-11 25l-21.5 48v8c-11.333 6.66699 -21.333 10 -30 10c-11.333 0 -24 -4.33301 -38 -13l-2 3c-27.333 -27.333 -41 -51 -41 -71c0 -9.33301 2 -17.833 6 -25.5s9.33301 -12.167 16 -13.5l13 -15
c-4.66699 -5.33301 -8.33398 -13 -11.001 -23z" />
    <glyph glyph-name="hyphen" unicode="-" horiz-adv-x="497" 
d="M389 372h-49c-4.66699 0 -9.66699 0.166992 -15 0.5s-10.666 0.5 -15.999 0.5c-28 0 -48.5 -0.5 -61.5 -1.5s-23.5 -2 -31.5 -3s-15.5 -2 -22.5 -3s-18.167 -1.5 -33.5 -1.5c-12.667 0 -22.334 2 -29.001 6c-20.667 0 -39 -0.666992 -55 -2s-30.333 -2 -43 -2h-28v-15
c0 -1.33301 0.166992 -2.5 0.5 -3.5s0.5 -2.16699 0.5 -3.5c0 -7.33301 -0.166992 -12.333 -0.5 -15l-2.5 -21c0 -18.667 4.16699 -30.334 12.5 -35.001s19.166 -7 32.499 -7c3.33301 0 7.5 0.333008 12.5 1s9.16699 1 12.5 1h5c3.33301 0 9.33301 -2.33301 18 -7
c30.667 22 64.334 33 101.001 33c12 0 27.167 -1.83301 45.5 -5.5s34.833 -5.5 49.5 -5.5c12 0 23.667 1 35 3s23 4.66699 35 8c2.66699 2 5.33398 3 8.00098 3l14 -2c4 -0.666992 9.66699 -1.16699 17 -1.5s10.666 -0.5 9.99902 -0.5c26 0 39 12.667 39 38
c0 12.667 -2 22.834 -6 30.501s-12 11.5 -24 11.5c-8.66699 0 -14 -0.333008 -16 -1s-4.33301 -1 -7 -1h-4z" />
    <glyph glyph-name="hyphen" unicode="&#xad;" horiz-adv-x="497" 
d="M389 372h-49c-4.66699 0 -9.66699 0.166992 -15 0.5s-10.666 0.5 -15.999 0.5c-28 0 -48.5 -0.5 -61.5 -1.5s-23.5 -2 -31.5 -3s-15.5 -2 -22.5 -3s-18.167 -1.5 -33.5 -1.5c-12.667 0 -22.334 2 -29.001 6c-20.667 0 -39 -0.666992 -55 -2s-30.333 -2 -43 -2h-28v-15
c0 -1.33301 0.166992 -2.5 0.5 -3.5s0.5 -2.16699 0.5 -3.5c0 -7.33301 -0.166992 -12.333 -0.5 -15l-2.5 -21c0 -18.667 4.16699 -30.334 12.5 -35.001s19.166 -7 32.499 -7c3.33301 0 7.5 0.333008 12.5 1s9.16699 1 12.5 1h5c3.33301 0 9.33301 -2.33301 18 -7
c30.667 22 64.334 33 101.001 33c12 0 27.167 -1.83301 45.5 -5.5s34.833 -5.5 49.5 -5.5c12 0 23.667 1 35 3s23 4.66699 35 8c2.66699 2 5.33398 3 8.00098 3l14 -2c4 -0.666992 9.66699 -1.16699 17 -1.5s10.666 -0.5 9.99902 -0.5c26 0 39 12.667 39 38
c0 12.667 -2 22.834 -6 30.501s-12 11.5 -24 11.5c-8.66699 0 -14 -0.333008 -16 -1s-4.33301 -1 -7 -1h-4z" />
    <glyph glyph-name="period" unicode="." horiz-adv-x="198" 
d="M134 91l-29 4.99805c-6 3.33301 -12 6.16602 -18 8.49902s-9.66699 3.5 -11 3.5c-3.33301 0 -8 -1.5 -14 -4.5s-9 -9.83301 -9 -20.5c0 -6.66699 0.333008 -11.334 1 -14.001c-0.666992 -3.33301 -1.16699 -6.66602 -1.5 -9.99902s-0.5 -6.66602 -0.5 -9.99902l1 -11
c0 -1.33301 -0.166992 -2.66602 -0.5 -3.99902s-0.5 -3 -0.5 -5v-4c0 -10.667 1.5 -17.834 4.5 -21.501s11.833 -5.5 26.5 -5.5h14c6.66699 0 12.667 -1 18 -3l9 -2h6c14.667 0 22 14 22 42c0 4.66699 -0.166992 9.33398 -0.5 14.001s-0.833008 9.33398 -1.5 14.001v3
c-1.33301 7.33301 -3.5 13 -6.5 17s-5.83301 6.33301 -8.5 7z" />
    <glyph glyph-name="slash" unicode="/" horiz-adv-x="374" 
d="M31 130c-1.33301 -1.33301 -4.00195 -6.32715 -8.00195 -14.9941s-8.16699 -18.334 -12.5 -29.001s-8.16602 -20.834 -11.499 -30.501s-5 -15.834 -5 -18.501c0 -6 1.83301 -11.5 5.5 -16.5s8 -9.33301 13 -13s9.83301 -6.5 14.5 -8.5s8.33398 -3.33301 11.001 -4
c2 -0.666992 4 -1 6 -1h7c7.33301 0 14.5 1.66699 21.5 5s13.333 7.16602 19 11.499s10.334 8.83301 14.001 13.5s5.83398 8.66699 6.50098 12c0 5.33301 -1 9.66602 -3 12.999l85 167v15c0 16 1.16699 31.5 3.5 46.5s6.16602 30.5 11.499 46.5s11.833 32.667 19.5 50
s17.167 36.333 28.5 57l39 75.5c10 19.667 17.667 35.5 23 47.5l-2 3c17.333 43.333 32.833 87.666 46.5 132.999s21.167 91.666 22.5 138.999l-16 2c-6 0 -14.167 -3.66699 -24.5 -11s-20.833 -16 -31.5 -26s-20.167 -20 -28.5 -30s-12.833 -17.667 -13.5 -23v-5
c-6.66699 -23.333 -16.834 -53.166 -30.501 -89.499l-46 -118l-52.5 -129l-50.5 -121.5l-40.5 -96c-11.333 -26.667 -18.333 -44 -21 -52z" />
    <glyph glyph-name="zero" unicode="0" horiz-adv-x="591" 
d="M549 599l-0.00292969 1.00293h-1c-0.666992 1.33301 -1.66699 4 -3 8l-5 15c-2.66699 5.33301 -4 11.666 -4 18.999c0 2 0.333008 3.66699 1 5c-1.33301 13.333 -6.5 23.5 -15.5 30.5s-16.167 11.833 -21.5 14.5c-10.667 16 -23 31 -37 45h5
c-6 4.66699 -11.833 8.66699 -17.5 12l-18.5 11l-23.5 14.5l-33.5 21.5l-61 -15c-12.667 12.667 -25 19 -37 19c-5.33301 0 -12 -2.33301 -20 -7s-16.333 -10.667 -25 -18l-26 -23c-8.66699 -8 -16.167 -15.5 -22.5 -22.5l-15.5 -17
c-4 -4.33301 -5.66699 -6.16602 -5 -5.49902l-3 -3c-0.666992 -0.666992 -2 -2.66699 -4 -6c-21.333 -29.333 -38.833 -54.5 -52.5 -75.5s-24.667 -41 -33 -60s-14.166 -39.167 -17.499 -60.5s-5 -47 -5 -77c0 -60.667 7.83301 -116.834 23.5 -168.501
s35.834 -96.5 60.501 -134.5s52.5 -67.833 83.5 -89.5s62.167 -32.5 93.5 -32.5h7c76.667 28 133 72 169 132c8.66699 28 17.5 50.833 26.5 68.5l25 49.5c7.66699 15.333 13.834 31.333 18.501 48s7 37.667 7 63c0 8 -0.5 19.833 -1.5 35.5s-2.33301 32.167 -4 49.5
s-3 33.666 -4 48.999s-1.5 26.333 -1.5 33c0 19.333 1 37 3 53c-1.33301 3.33301 -2.5 6.66602 -3.5 9.99902s-1.83301 6 -2.5 8h1zM319.997 159.003l-15.501 -13.499c-4.33301 -3.66699 -7.16602 -6.83398 -8.49902 -9.50098c-3.33301 0 -6.66602 1.33301 -9.99902 4
c-17.333 4 -33.666 12.167 -48.999 24.5s-28.666 29.5 -39.999 51.5s-20.166 48.833 -26.499 80.5s-9.5 68.834 -9.5 111.501c0 24 7 44.667 21 62c2 10.667 4.16699 20 6.5 28s5.33301 16.5 9 25.5s8.5 19.167 14.5 30.5l22 42l74 70
c5.33301 -4 12.666 -8.33301 21.999 -13s16.666 -7 21.999 -7h7c1.33301 0 2.5 0.166992 3.5 0.5s2.16699 0.5 3.5 0.5s2.33301 -0.333008 3 -1l15 -16h9c8 0 15.333 -6.33301 22 -19s12.167 -28.334 16.5 -47.001s7.66602 -39.167 9.99902 -61.5s3.5 -42.833 3.5 -61.5
c0 -38 -3.33301 -74.5 -10 -109.5s-16.334 -69.167 -29.001 -102.5l-57 -58c-2.66699 -2.66699 -7 -4.16699 -13 -4.5s-11.333 -2.83301 -16 -7.5zM496.996 694.004c0.666992 0 1 -0.333008 1 -1z" />
    <glyph glyph-name="one" unicode="1" horiz-adv-x="229" 
d="M201 100v153.999c0 8 0.166992 16.333 0.5 25s0.5 17 0.5 25c0 59.333 -2 109.5 -6 150.5s-6 74.833 -6 101.5c0 11.333 0.666992 21 2 29s3 15 5 21c-1.33301 32 -2.16602 60.833 -2.49902 86.5s-0.5 47.834 -0.5 66.501v48c-9.33301 -2 -15.5 -3.16699 -18.5 -3.5
s-5.5 -0.5 -7.5 -0.5s-5.5 0.333008 -10.5 1s-10.5 1.33398 -16.5 2.00098s-11.5 1.33398 -16.5 2.00098s-7.83301 1 -8.5 1c-20.667 0 -37.834 -5.5 -51.501 -16.5s-20.5 -25.5 -20.5 -43.5c0 -4 0.333008 -9 1 -15s1.5 -12 2.5 -18s1.83301 -11.5 2.5 -16.5
s1 -8.16699 1 -9.5c0 -2 -0.166992 -4.5 -0.5 -7.5s-1.5 -6.83301 -3.5 -11.5c31.333 -52.667 47 -121.334 47 -206.001c0 -8 -0.333008 -20.5 -1 -37.5l-2 -53l-2 -52.5c-0.666992 -16.667 -1 -29 -1 -37c0 -51.333 4 -94.333 12 -129c4.66699 -6.66699 7 -15 7 -25
c0 -2 -0.333008 -6 -1 -12s-1.16699 -12.667 -1.5 -20s-0.833008 -14.5 -1.5 -21.5s-1 -11.833 -1 -14.5c0 -36 15.333 -54 46 -54c16.667 0 29.667 2.16699 39 6.5s14 14.833 14 31.5v4c0 1.33301 -0.666992 3.66602 -2 6.99902h1c-2 10.667 -3 19 -3 25
c0 5.33301 1 9 3 11z" />
    <glyph glyph-name="two" unicode="2" horiz-adv-x="576" 
d="M547 23l0.00292969 103.998c-14 6.66699 -27.833 11.334 -41.5 14.001s-27.167 4 -40.5 4c-9.33301 0 -21.666 -1.16699 -36.999 -3.5l-48 -7c-16.667 -2.33301 -32.334 -4.66602 -47.001 -6.99902s-25.667 -3.5 -33 -3.5c-15.333 0 -31 2 -47 6l25.5 41l37 57.5l42.5 66
l42.5 67l37 60.5c11 18.667 19.167 34.334 24.5 47.001c21.333 19.333 32 41.333 32 66c0 22 -7.66699 47.667 -23 77s-35.666 59 -60.999 89l-27.5 32.5c-9.66699 11.667 -20 22.5 -31 32.5s-22.167 18.167 -33.5 24.5s-23 9.5 -35 9.5c-8 0 -15.667 -2 -23 -6
s-14.666 -8.83301 -21.999 -14.5s-14.166 -11.5 -20.499 -17.5s-12.5 -11 -18.5 -15l-4 -4c-6 -10 -15.667 -21.667 -29 -35l-42.5 -41l-43.5 -41.5c-14 -13.667 -24.667 -26.167 -32 -37.5c6.66699 -49.333 20.667 -82 42 -98h8c11.333 0 24.166 6.66699 38.499 20
s29.666 29.5 45.999 48.5l50 60c17 21 33.5 39.167 49.5 54.5l8 -5.5c3.33301 -2.33301 6.5 -5 9.5 -8s5.66699 -5.83301 8 -8.5s4.16602 -4.33398 5.49902 -5.00098h-4c21.333 -13.333 36.666 -26.333 45.999 -39s14 -24.667 14 -36c0 -8 -1.66699 -18.5 -5 -31.5
s-6.33301 -26.167 -9 -39.5l-12 -39l-83 -123.5l-73 -109.5c-21.333 -33.333 -38.666 -63 -51.999 -89s-20 -46.333 -20 -61c0 -23.333 6 -49.333 18 -78c14 0 30.333 1 49 3s37.667 4.16699 57 6.5l55.5 6.5c17.667 2 32.167 3 43.5 3
c9.33301 0 18.166 -0.833008 26.499 -2.5s16.166 -3.5 23.499 -5.5h-1c7.33301 -2 15 -3.66699 23 -5s16.667 -2 26 -2c11.333 0 26.666 1.5 45.999 4.5s37.333 4.5 54 4.5z" />
    <glyph glyph-name="three" unicode="3" horiz-adv-x="482" 
d="M393 212c40.667 20 61.0049 43.6641 61.0049 70.9971c0 12.667 -0.833008 22.834 -2.5 30.501s-7.16699 16.167 -16.5 25.5s-24 20.833 -44 34.5l-85 56.5l-4 20h1l12 10l12 10h-1c20 16.667 38 34.5 54 53.5s24.667 41.167 26 66.5c-11.333 18 -25.833 33.5 -43.5 46.5
s-37.834 22.5 -60.501 28.5c-30 32 -62.833 59.5 -98.5 82.5s-74.834 41.167 -117.501 54.5c-7.33301 -3.33301 -13 -8.5 -17 -15.5s-7.5 -14.833 -10.5 -23.5l-9 -27c-3 -9.33301 -7.16699 -18 -12.5 -26c26.667 -16.667 52 -31 76 -43l66.5 -33
c20.333 -10 38.666 -19.667 54.999 -29s30.5 -20 42.5 -32l7 -16c-9.33301 -10.667 -21.666 -21 -36.999 -31s-30.833 -19 -46.5 -27l-42 -21c-12.333 -6 -19.833 -10.333 -22.5 -13c-4 -11.333 -6 -21.666 -6 -30.999c0 -24.667 10 -37 30 -37h8
c2.66699 -1.33301 5.16699 -2.83301 7.5 -4.5s5.16602 -3.16699 8.49902 -4.5h-1l74.5 -42.5c24.333 -14.333 42.166 -31.166 53.499 -50.499c-9.33301 -7.33301 -18.5 -16.5 -27.5 -27.5l-27 -34c-9 -11.667 -18 -22.667 -27 -33s-18.5 -18.166 -28.5 -23.499
c-24.667 -7.33301 -48 -22 -70 -44s-40.667 -48 -56 -78c3.33301 -14 10.833 -25.5 22.5 -34.5s28.167 -15.833 49.5 -20.5c11.333 4 21.5 9.16699 30.5 15.5s17.167 14.166 24.5 23.499l28.5 31.5c6.33301 7 12.666 13.5 18.999 19.5l23.5 21.5l41 38.5
c30 30 56.333 50.667 79 62z" />
    <glyph glyph-name="four" unicode="4" horiz-adv-x="654" 
d="M508 191c7.33301 0 16.002 -0.666016 26.002 -1.99902s20.667 -2 32 -2c33.333 0 53 14.333 59 43c-4 34 -21.333 51 -52 51c-14.667 0 -28.667 -1.33301 -42 -4s-22 -4 -26 -4c-6 0 -10.333 0.333008 -13 1l-1 1c-1.33301 13.333 -2.83301 33.166 -4.5 59.499l-5.5 85.5
c-2 30.667 -3.66699 60.667 -5 90s-2 53.666 -2 72.999v20c0 4 -0.166992 8.16699 -0.5 12.5s-0.5 8.5 -0.5 12.5c0 12 1.33301 26.333 4 43s4 31.334 4 44.001c0 6.66699 -1 15.167 -3 25.5s-5 20.166 -9 29.499s-9.16699 17.333 -15.5 24s-14.166 10 -23.499 10
c-6.66699 0 -13.334 -3.5 -20.001 -10.5s-12.334 -12.167 -17.001 -15.5c-5.33301 -14.667 -13.833 -32.5 -25.5 -53.5s-25 -43.167 -40 -66.5l-47.5 -71l-47.5 -67.5l-40.5 -56.5c-12 -16.667 -20.667 -29 -26 -37c-7.33301 -10 -13.833 -19.333 -19.5 -28l-17.5 -25.5
c-6 -8.33301 -12.833 -17.333 -20.5 -27l-26.5 -33.5v1c-22.667 -25.333 -34 -52.333 -34 -81c18.667 -32 53 -48 103 -48c27.333 7.33301 56.333 11 87 11c6.66699 0 16 -0.5 28 -1.5s25 -2 39 -3s27.833 -1.83301 41.5 -2.5s25.5 -1 35.5 -1l-4 -104
c-2 -5.33301 -3.16699 -10.166 -3.5 -14.499s-0.5 -8.16602 -0.5 -11.499c0 -32 24.333 -51 73 -57c10 7.33301 17.667 14 23 20s9.16602 12 11.499 18s3.83301 12.5 4.5 19.5s1 15.167 1 24.5v58c0 5.33301 -0.333008 10.833 -1 16.5s-1 11.167 -1 16.5
s1.5 9.66602 4.5 12.999s9.16699 5 18.5 5zM361.002 536.001c-2.66699 -11.333 -5.33496 -22 -8.00195 -32s-4 -18.667 -4 -26c0 -8 1.33301 -15.5 4 -22.5s5.83398 -13.833 9.50098 -20.5s6.83398 -13 9.50098 -19s4 -12 4 -18c0 -3.33301 -1 -9.5 -3 -18.5l-6.5 -29
c-2.33301 -10.333 -4.83301 -20.833 -7.5 -31.5s-4.33398 -19.667 -5.00098 -27c-5.33301 -1.33301 -10.666 -2 -15.999 -2h-15c-5.33301 0 -13.333 0.5 -24 1.5s-22 2 -34 3l-34.5 3c-11 1 -18.833 1.5 -23.5 1.5h-11l86 140h-1l46.5 72c15 22.667 29.833 43.667 44.5 63
l-5 -17z" />
    <glyph glyph-name="five" unicode="5" horiz-adv-x="522" 
d="M493 368c0 13.333 -8.33105 26.1719 -24.998 38.5049s-37.167 24.166 -61.5 35.499s-50.666 22 -78.999 32l-77.5 28c-4 4.66699 -9.16699 10 -15.5 16l-23.5 22l-3 3c-9.33301 9.33301 -16 16.833 -20 22.5s-6 12.5 -6 20.5c0 19.333 0.833008 39.833 2.5 61.5
s6.5 39.167 14.5 52.5h15c38 0 76.167 -1.33301 114.5 -4s74.166 -12.334 107.499 -29.001c0 8 2.66699 14 8 18s11 7.66699 17 11s11.667 7.33301 17 12s8 11.667 8 21c0 0.666992 -1 3.5 -3 8.5s-9 17.167 -21 36.5v-2c-5.33301 6.66699 -12.666 10 -21.999 10h-8
c-1.33301 0 -2.83301 -0.166992 -4.5 -0.5s-3.5 -0.5 -5.5 -0.5c-70.667 2.66699 -129.334 6.5 -176.001 11.5s-82.667 7.5 -108 7.5h-19c-28.667 -18 -43 -40 -43 -66c0 -4.66699 0.666992 -10.5 2 -17.5s2.83301 -14.333 4.5 -22s3.5 -14.667 5.5 -21l5 -15.5
c-8 -12.667 -13.5 -27.834 -16.5 -45.501s-4.5 -32.834 -4.5 -45.501c8.66699 -8.66699 13.667 -18 15 -28c0 -0.666992 -0.333008 -3.5 -1 -8.5s-1.33398 -10.5 -2.00098 -16.5s-1.33398 -11.667 -2.00098 -17s-1 -8.66602 -1 -9.99902c0 -28 15 -48.667 45 -62h16
c24.667 0 49.834 -7.33301 75.501 -22s53.167 -36.667 82.5 -66c-6.66699 -30.667 -24.334 -62 -53.001 -94s-65.667 -69 -111 -111c-46.667 -30.667 -77 -65 -91 -103l57.5 -21.5c13.667 -5 22.834 -7.5 27.501 -7.5c9.33301 0 19.166 3.16699 29.499 9.5s20 13.5 29 21.5
s16.833 15.833 23.5 23.5s11 13.167 13 16.5l188 198c2 5.33301 7.33301 12.166 16 20.499l27.5 26.5c9.66699 9.33301 18.167 18.666 25.5 27.999s11 17.333 11 24z" />
    <glyph glyph-name="six" unicode="6" horiz-adv-x="537" 
d="M374 15c42 62.667 74.835 114.669 98.502 156.002s35.5 73.666 35.5 96.999c0 21.333 -6.83301 39.833 -20.5 55.5s-31.167 33.167 -52.5 52.5v-1c-2 2 -4.33301 3.83301 -7 5.5s-4.66699 3.5 -6 5.5l-14 11c-10.667 24 -25 44.333 -43 61s-41 25 -69 25
c-6 0 -10.667 -0.333008 -14 -1s-6.66602 -3 -9.99902 -7c18 26.667 31 47.334 39 62.001l20.5 38.5c5.66699 11 12.334 22.167 20.001 33.5s20.5 26.666 38.5 45.999c39.333 43.333 66 82 80 116c-10 8 -20 14.167 -30 18.5s-19.167 7.16602 -27.5 8.49902
s-15.833 2 -22.5 2h-14c-8 -5.33301 -15.833 -12.333 -23.5 -21s-14.834 -17.5 -21.501 -26.5s-12.667 -17.5 -18 -25.5s-10 -13.333 -14 -16c-4.66699 -11.333 -13.334 -27.333 -26.001 -48s-27.5 -43.667 -44.5 -69l-54 -80.5l-54.5 -83
c-17.333 -27 -32.5 -52.5 -45.5 -76.5s-21.833 -44 -26.5 -60c0.666992 -7.33301 1.5 -14 2.5 -20s3.33301 -12.167 7 -18.5s9.16699 -13.833 16.5 -22.5s17.666 -19.667 30.999 -33c13.333 -24.667 33 -51 59 -79s61 -57.667 105 -89l35.5 -21
c12.333 -7.33301 23.166 -11 32.499 -11c10.667 0 21.667 3.66699 33 11zM235.002 413.002c5.33301 -13.333 15.335 -25.333 30.002 -36s30.167 -20.5 46.5 -29.5s31.166 -18 44.499 -27s21 -18.5 23 -28.5c8 -15.333 12 -30.666 12 -45.999c0 -36 -19.333 -80.333 -58 -133
c-30 13.333 -51.667 34 -65 62c-10 6 -17.833 11 -23.5 15s-11.334 9.66699 -17.001 17s-12.167 17.666 -19.5 30.999l-30 56c1.33301 33.333 19.666 75.333 54.999 126c3.33301 3.33301 6 7.33301 8 12c-1.33301 -4 -2.66602 -7.5 -3.99902 -10.5s-2 -5.83301 -2 -8.5z" />
    <glyph glyph-name="seven" unicode="7" horiz-adv-x="510" 
d="M482 775c-15.333 7.33301 -30.1699 12.668 -44.5029 16.001s-28.166 5 -41.499 5c-4 0 -7 -0.333008 -9 -1s-4.66699 -1.66699 -8 -3s-8 -3 -14 -5s-14.667 -4 -26 -6h-1c-7.33301 0 -15 1.33301 -23 4s-15.667 4 -23 4c-8.66699 0 -19 0.5 -31 1.5
s-24.5 2.33301 -37.5 4s-26.333 3 -40 4s-26.167 1.5 -37.5 1.5c-13.333 0 -25.833 -2.5 -37.5 -7.5s-22 -11 -31 -18s-16.167 -14.167 -21.5 -21.5s-8 -13.333 -8 -18c0 -10.667 2.83301 -18.5 8.5 -23.5s12.5 -8.33301 20.5 -10s16.5 -2.33398 25.5 -2.00098
s16.833 0.5 23.5 0.5c8.66699 0 20.334 0.166992 35.001 0.5s29.834 0.833008 45.501 1.5s30.667 1.16699 45 1.5s25.166 0.5 32.499 0.5c1.33301 0 4.33301 -0.333008 9 -1s10.334 -1.66699 17.001 -3c-9.33301 -40 -18.5 -77.333 -27.5 -112s-21.167 -70 -36.5 -106
c-8.66699 -10 -17.834 -25.167 -27.501 -45.5l-29.5 -65l-29 -66.5c-9.33301 -21.333 -18 -37.666 -26 -48.999c-1.33301 -4.66699 -2.16602 -11.167 -2.49902 -19.5s-1.16602 -17.5 -2.49902 -27.5s-3.33301 -20.167 -6 -30.5s-6.33398 -19.833 -11.001 -28.5h-9
c-11.333 -19.333 -18.333 -37.333 -21 -54s-4 -32 -4 -46c0 -13.333 0.5 -23.5 1.5 -30.5s2.83301 -12 5.5 -15s6.16699 -4.66699 10.5 -5s9.5 -0.5 15.5 -0.5c17.333 0 32 4.66699 44 14s23.333 22.666 34 39.999l49 142.5l55 151c19.333 51 39.833 102 61.5 153
s44.167 100.167 67.5 147.5c-3.33301 2 -2 7.83301 4 17.5l21 34c8 13 15.667 26.5 23 40.5s11.333 26 12 36z" />
    <glyph glyph-name="eight" unicode="8" horiz-adv-x="550" 
d="M331 33l58.5039 51.998c19.667 18 38.167 36.167 55.5 54.5s32.666 36.5 45.999 54.5s23.666 35 30.999 51c-30.667 62.667 -87.334 126.667 -170.001 192c1.33301 1.33301 2.83301 3 4.5 5s3.5 4 5.5 6l4 4h-1c9.33301 10 19.333 21.667 30 35l32.5 41l33 41.5
c11 13.667 21.5 25.834 31.5 36.501c-2 12.667 -5.16699 23.167 -9.5 31.5s-10.333 16.666 -18 24.999s-17.167 18.166 -28.5 29.499s-25 26.333 -41 45c-11.333 14 -21.833 25.333 -31.5 34s-19.167 15.5 -28.5 20.5s-18.833 8.5 -28.5 10.5s-20.167 3 -31.5 3h-8
c-18 -8.66699 -33.833 -17.5 -47.5 -26.5s-27.5 -20.667 -41.5 -35s-29.667 -32.5 -47 -54.5l-63 -84c-1.33301 -4 -2.33301 -8.16699 -3 -12.5s-1 -9.83301 -1 -16.5c0 -25.333 11.833 -49.333 35.5 -72s57.5 -47 101.5 -73c-4.66699 -4 -9.16699 -8.33301 -13.5 -13
s-8.5 -9.66699 -12.5 -15l1 -1l-37 -41c-14.667 -16 -28.667 -32.833 -42 -50.5s-24.833 -34.667 -34.5 -51s-14.5 -30.5 -14.5 -42.5v-7c5.33301 -18.667 14.666 -37.667 27.999 -57s31.333 -38 54 -56v-1c2.66699 -1.33301 13.667 -9.16602 33 -23.499
s47.666 -34.166 84.999 -59.499c8.66699 -5.33301 16.334 -8 23.001 -8c4 0 9 1.33301 15 4s12 5.66699 18 9l16 9c4.66699 2.66699 7.66699 4.33398 9 5.00098zM296.004 136.998c-12 -2 -20.666 -5.66895 -25.999 -11.002c-13.333 8.66699 -28.5 20 -45.5 34
s-33.833 28.667 -50.5 44l-19 16c8 15.333 20.667 32.333 38 51s43 41.667 77 69l2 -2c10.667 -13.333 22.167 -26.333 34.5 -39s25.833 -19 40.5 -19c5.33301 -5.33301 12.666 -13.5 21.999 -24.5s15.666 -21.167 18.999 -30.5l-71 -83
c-2 -1.33301 -4.66699 -2.16602 -8 -2.49902s-7.66602 -1.16602 -12.999 -2.49902zM189.005 580.996c1.33301 2.66699 2.66797 4.99902 4.00098 6.99902s2.66602 4.66699 3.99902 8v-1l18.5 34.5c7 13 14.667 25 23 36s17.333 20.333 27 28s19.5 11.5 29.5 11.5
c6 0 12.5 -3 19.5 -9s13.833 -13.167 20.5 -21.5s12.5 -16.666 17.5 -24.999s9.16699 -14.833 12.5 -19.5c-9.33301 -17.333 -21.5 -36.833 -36.5 -58.5s-33.5 -45.5 -55.5 -71.5c-38.667 24.667 -66.667 51.667 -84 81z" />
    <glyph glyph-name="nine" unicode="9" horiz-adv-x="531" 
d="M408 345l52.9961 81.0039c12.667 20 22 36.667 28 50s9.66699 25.333 11 36s2 23.667 2 39s-4.5 30.666 -13.5 45.999s-20.833 30.666 -35.5 45.999s-31.334 30.833 -50.001 46.5l-57 47.5c-11.333 4.66699 -18.666 10.667 -21.999 18s-6.16602 14.166 -8.49902 20.499
s-6.16602 11.833 -11.499 16.5s-15.666 7 -30.999 7c-23.333 0 -45.666 -10 -66.999 -30s-46.666 -50 -75.999 -90c-46.667 -64 -72 -98 -76 -102c-4 -14 -6 -26.667 -6 -38c0 -10 1 -19.167 3 -27.5s5.83301 -16.833 11.5 -25.5s14 -17.834 25 -27.501
s25.5 -21.167 43.5 -34.5l24.5 -18c7 -5.33301 13.167 -10.666 18.5 -15.999s9.83301 -11.166 13.5 -17.499s7.16699 -13.833 10.5 -22.5c4 -7.33301 8.66699 -14 14 -20s11.666 -10.667 18.999 -14h32c5.33301 0 11.333 1.66699 18 5l-51.5 -85l-47.5 -78l-38 -63.5
c-10.667 -18.333 -18.334 -32.5 -23.001 -42.5c5.33301 -8.66699 9.33301 -16.5 12 -23.5s5.33398 -12.833 8.00098 -17.5s6.16699 -8.33398 10.5 -11.001s10.5 -4 18.5 -4c20.667 0 38.5 7.83301 53.5 23.5s24.5 37.5 28.5 65.5c24.667 33.333 45.5 64.166 62.5 92.499
s31.5 53.5 43.5 75.5s22 41 30 57s14.667 28 20 36v-1zM312.996 426.004c-15.333 4 -30.667 9.66504 -46 16.998s-29.5 15.833 -42.5 25.5s-24.5 20.167 -34.5 31.5s-17.333 23 -22 35c5.33301 24.667 16.333 47.334 33 68.001s38 39.667 64 57h2c9.33301 0 17 -1 23 -3
s12.333 -5.83301 19 -11.5s14.667 -13.667 24 -24s22.333 -23.833 39 -40.5l15.5 -16c4.33301 -4.66699 6.5 -8.66699 6.5 -12c0 -4 -6.33301 -11.667 -19 -23l10 -9c-5.33301 -15.333 -13.333 -33.5 -24 -54.5l-36 -67.5c-0.666992 4 -2 8.33301 -4 13
s-4.66699 9.33398 -8 14.001z" />
    <glyph glyph-name="colon" unicode=":" horiz-adv-x="241" 
d="M168 471l-7.00098 0.998047h-10l3 -1c-2.66699 0.666992 -5 1.33398 -7 2.00098s-4 1 -6 1c-6.66699 0 -14.667 -0.5 -24 -1.5s-18.166 -2.66699 -26.499 -5s-15.333 -5.5 -21 -9.5s-8.5 -9.33301 -8.5 -16c0 -4.66699 0.333008 -8.33398 1 -11.001v-2
c0 -5.33301 0.666992 -9 2 -11l-1 4c0 -0.666992 0.166992 -1.16699 0.5 -1.5s0.5 -0.833008 0.5 -1.5s-0.666992 -3 -2 -7v-39c0 -13.333 2.16699 -23.833 6.5 -31.5s9.16602 -12.167 14.499 -13.5h6c2.66699 0 5.33398 0.333008 8.00098 1h3
c3.33301 0 5.83301 -0.666992 7.5 -2s3.83398 -2 6.50098 -2s5.66699 0.666992 9 2l-1 -1c2 0.666992 4.66699 1.33398 8 2.00098s6.66602 1 9.99902 1h11c8 0 14.5 3.5 19.5 10.5s7.5 16.167 7.5 27.5v12c-8 6.66699 -12 12.334 -12 17.001l3 19c1.33301 6 2.5 12 3.5 18
s1.5 10.667 1.5 14v7c0 2.66699 -0.666992 6 -2 10l-4 2v5zM95.999 136.998c-9.33301 0 -15.667 -2.66797 -19 -8.00098s-5 -12.666 -5 -21.999v-10c0 -3.33301 0.333008 -6.66602 1 -9.99902c-0.666992 -3.33301 -1.16699 -6.5 -1.5 -9.5s-0.5 -6.5 -0.5 -10.5v-25
c0 -13.333 2 -22.5 6 -27.5s12.333 -7.5 25 -7.5h15c6 0 12 -2 18 -6c2.66699 1.33301 5 2 7 2c0 -0.666992 0.666992 -1.66699 2 -3h7c16 0 24 13.667 24 41v9c0 25.333 -2.33301 42.166 -7 50.499s-9 13.833 -13 16.5l-28 6c-18.667 9.33301 -29 14 -31 14z" />
    <glyph glyph-name="semicolon" unicode=";" horiz-adv-x="289" 
d="M118 152l-13.999 -0.00195312v-4h-6c-5.33301 0 -15 -4.33301 -29 -13v-14c0 -7.33301 -0.666992 -19.666 -2 -36.999s-3 -40.333 -5 -69h2c-2 -3.33301 -3.66699 -6.66602 -5 -9.99902l-10 -7c-13.333 -11.333 -25 -20.666 -35 -27.999s-17.667 -12.333 -23 -15l55 -85
h9c4 0 8 1.16699 12 3.5s7.83301 5 11.5 8l10 8c3 2.33301 5.16699 3.5 6.5 3.5c0.666992 0.666992 3 2.33398 7 5.00098s8.33301 6 13 10l13.5 12c4.33301 4 7.83301 7.66699 10.5 11l6 4c1.33301 1.33301 3 2.66602 5 3.99902c4.66699 3.33301 11.5 8.66602 20.5 15.999
s13.5 14.333 13.5 21c-0.666992 8 -1 16 -1 24v21v26l8 28c0 9.33301 0.333008 19.833 1 31.5s1 22.167 1 31.5c-16 0 -28.333 0.666992 -37 2s-15.334 3 -20.001 5s-8.16699 3.66699 -10.5 5s-4.83301 2 -7.5 2zM71.001 425.998
c-1.33301 -1.33301 -2.33691 -2.66992 -3.00391 -4.00293v-6c0 -1.33301 0.166992 -2.5 0.5 -3.5s0.5 -2.5 0.5 -4.5v-9c0 -2 -0.166992 -4 -0.5 -6s-0.5 -4.66699 -0.5 -8v-5c0 -11.333 2.5 -21.333 7.5 -30s10.833 -14.334 17.5 -17.001c2.66699 0 6 0.333008 10 1
s7.33301 1 10 1h2l1.5 -0.5c1 -0.333008 2.16699 -0.833008 3.5 -1.5h-1c1.33301 -1.33301 2.83301 -2.16602 4.5 -2.49902l2.5 -0.5h2c1.33301 0 3.66602 0.666992 6.99902 2l-1 -1c2.66699 0.666992 5.83398 1.33398 9.50098 2.00098s7.16699 1 10.5 1h13
c9.33301 0 16.333 3.66699 21 11s7 16.666 7 27.999v12c-8 6.66699 -12 12.667 -12 18c0 0.666992 0.5 3.33398 1.5 8.00098s2 9.83398 3 15.501l3 17c1 5.66699 1.5 9.5 1.5 11.5s-0.166992 4.33301 -0.5 7s-1.16602 6.33398 -2.49902 11.001l-4 1v5l-7 1h-12l3 -1l-6 2
c-2 0.666992 -4.66699 1 -8 1s-6.66602 -0.5 -9.99902 -1.5l-12 -3.5h-4c-6 0 -12.667 -0.166992 -20 -0.5s-14.166 -1.33301 -20.499 -3s-11.666 -4.5 -15.999 -8.5s-6.5 -9.33301 -6.5 -16c0 -1.33301 0.5 -5 1.5 -11s2.16699 -10 3.5 -12zM70.9971 425.994l-1 4
c0 -0.666992 0.166992 -1.16699 0.5 -1.5s0.5 -0.833008 0.5 -1.5v-1z" />
    <glyph glyph-name="semicolon" unicode="&#x37e;" horiz-adv-x="289" 
d="M118 152l-13.999 -0.00195312v-4h-6c-5.33301 0 -15 -4.33301 -29 -13v-14c0 -7.33301 -0.666992 -19.666 -2 -36.999s-3 -40.333 -5 -69h2c-2 -3.33301 -3.66699 -6.66602 -5 -9.99902l-10 -7c-13.333 -11.333 -25 -20.666 -35 -27.999s-17.667 -12.333 -23 -15l55 -85
h9c4 0 8 1.16699 12 3.5s7.83301 5 11.5 8l10 8c3 2.33301 5.16699 3.5 6.5 3.5c0.666992 0.666992 3 2.33398 7 5.00098s8.33301 6 13 10l13.5 12c4.33301 4 7.83301 7.66699 10.5 11l6 4c1.33301 1.33301 3 2.66602 5 3.99902c4.66699 3.33301 11.5 8.66602 20.5 15.999
s13.5 14.333 13.5 21c-0.666992 8 -1 16 -1 24v21v26l8 28c0 9.33301 0.333008 19.833 1 31.5s1 22.167 1 31.5c-16 0 -28.333 0.666992 -37 2s-15.334 3 -20.001 5s-8.16699 3.66699 -10.5 5s-4.83301 2 -7.5 2zM71.001 425.998
c-1.33301 -1.33301 -2.33691 -2.66992 -3.00391 -4.00293v-6c0 -1.33301 0.166992 -2.5 0.5 -3.5s0.5 -2.5 0.5 -4.5v-9c0 -2 -0.166992 -4 -0.5 -6s-0.5 -4.66699 -0.5 -8v-5c0 -11.333 2.5 -21.333 7.5 -30s10.833 -14.334 17.5 -17.001c2.66699 0 6 0.333008 10 1
s7.33301 1 10 1h2l1.5 -0.5c1 -0.333008 2.16699 -0.833008 3.5 -1.5h-1c1.33301 -1.33301 2.83301 -2.16602 4.5 -2.49902l2.5 -0.5h2c1.33301 0 3.66602 0.666992 6.99902 2l-1 -1c2.66699 0.666992 5.83398 1.33398 9.50098 2.00098s7.16699 1 10.5 1h13
c9.33301 0 16.333 3.66699 21 11s7 16.666 7 27.999v12c-8 6.66699 -12 12.667 -12 18c0 0.666992 0.5 3.33398 1.5 8.00098s2 9.83398 3 15.501l3 17c1 5.66699 1.5 9.5 1.5 11.5s-0.166992 4.33301 -0.5 7s-1.16602 6.33398 -2.49902 11.001l-4 1v5l-7 1h-12l3 -1l-6 2
c-2 0.666992 -4.66699 1 -8 1s-6.66602 -0.5 -9.99902 -1.5l-12 -3.5h-4c-6 0 -12.667 -0.166992 -20 -0.5s-14.166 -1.33301 -20.499 -3s-11.666 -4.5 -15.999 -8.5s-6.5 -9.33301 -6.5 -16c0 -1.33301 0.5 -5 1.5 -11s2.16699 -10 3.5 -12zM70.9971 425.994l-1 4
c0 -0.666992 0.166992 -1.16699 0.5 -1.5s0.5 -0.833008 0.5 -1.5v-1z" />
    <glyph glyph-name="less" unicode="&#x3c;" horiz-adv-x="598" 
d="M-12 375c148 -72.667 301.331 -127.332 459.998 -163.999c12 -10.667 31.333 -16 58 -16h14c37.333 20.667 56 39.667 56 57c0 6.66699 -8.33301 13.667 -25 21s-35.334 14.333 -56.001 21s-40 12.334 -58 17.001s-28.333 7.66699 -31 9
c-49.333 15.333 -92.5 28.166 -129.5 38.499l-95.5 26.5c10.667 3.33301 22.334 6.66602 35.001 9.99902s25.5 7 38.5 11s25.667 8.16699 38 12.5s23.5 9.5 33.5 15.5l1 -1c4 2 16 5.66699 36 11s42.5 12.333 67.5 21s49.833 18.5 74.5 29.5s43.334 22.833 56.001 35.5v8
c0 8.66699 -4 18.167 -12 28.5s-20.333 15.5 -37 15.5c-26.667 0 -54 -3.83301 -82 -11.5s-56 -17.167 -84 -28.5s-56 -23.333 -84 -36s-55.333 -23.667 -82 -33c-38 -4.66699 -72.667 -15.167 -104 -31.5s-60.666 -38.5 -87.999 -66.5z" />
    <glyph glyph-name="equal" unicode="=" horiz-adv-x="580" 
d="M433 544c-4 -0.666992 -8.66895 -1.00293 -14.002 -1.00293h-17c-12.667 0 -28.5 0.333008 -47.5 1s-34.833 1 -47.5 1c-32 0 -59.833 -2 -83.5 -6s-44.5 -6 -62.5 -6c-10 0 -19 2.33301 -27 7c-20.667 0 -39 -0.5 -55 -1.5s-30.333 -1.5 -43 -1.5h-28v-17
c0 -1.33301 0.166992 -2.83301 0.5 -4.5s0.5 -3.16699 0.5 -4.5c0 -8.66699 -0.666992 -16.5 -2 -23.5s-2 -14.167 -2 -21.5c0 -13.333 2.33301 -24.333 7 -33h1c7.33301 -19.333 17 -29 29 -29c2 0 5.16699 0.666992 9.5 2s9 3 14 5s10 3.83301 15 5.5
s8.83301 2.83398 11.5 3.50098c2.66699 -1.33301 4.33398 -2 5.00098 -2c1.33301 0 3.66602 -0.333008 6.99902 -1c19.333 6 38.833 10.333 58.5 13s38.834 4 57.501 4c5.33301 0 12.833 -0.166992 22.5 -0.5s19.834 -0.666016 30.501 -0.999023
s20.834 -0.666016 30.501 -0.999023s17.5 -0.5 23.5 -0.5c15.333 0 28.833 0.666992 40.5 2s22.834 3.33301 33.501 6c1.33301 0 4.16602 -0.333008 8.49902 -1s9 -1.5 14 -2.5s10 -1.83301 15 -2.5s8.83301 -1 11.5 -1c28.667 0 43 22 43 66c0 26 -11.667 39 -35 39h-9
c-2.66699 0 -4.33398 1 -5.00098 3zM345.998 259.997c21.333 0.666992 40.835 1.49805 58.502 2.49805s33 3.33301 46 7s23.167 9.16699 30.5 16.5s11 17.666 11 30.999c0 8 -1.83301 14.833 -5.5 20.5s-7.66699 10.334 -12 14.001s-8.66602 6.33398 -12.999 8.00098
s-7.16602 2.5 -8.49902 2.5h-6c-2 0 -4.33301 -0.666992 -7 -2h-1c-2 0 -4.83301 1 -8.5 3s-9.16699 6 -16.5 12c-12.667 -4 -26 -6.66699 -40 -8s-28.667 -2 -44 -2c-19.333 0 -40.833 0.833008 -64.5 2.5s-45.167 2.5 -64.5 2.5c-41.333 0 -74.666 -3.66699 -99.999 -11
c-3.33301 -3.33301 -6.66602 -5 -9.99902 -5c-1.33301 0 -4 0.333008 -8 1s-8.66699 1.5 -14 2.5s-10.5 1.83301 -15.5 2.5s-8.83301 1 -11.5 1c-26 0 -39 -15.667 -39 -47c0 -21.333 2.16699 -37.166 6.5 -47.499s12.166 -15.5 23.499 -15.5
c3.33301 0 9.66602 1.16699 18.999 3.5s15.666 3.5 18.999 3.5c6.66699 0 17.667 -0.166992 33 -0.5s31.666 -0.833008 48.999 -1.5s33.666 -1.16699 48.999 -1.5s26 -0.5 32 -0.5c25.333 0 46.666 1 63.999 3s33.333 3 48 3z" />
    <glyph glyph-name="greater" unicode="&#x3e;" horiz-adv-x="626" 
d="M77 578l-5.00195 -0.000976562c-1.33301 0 -2.33301 0.166992 -3 0.5s-1.33398 0.5 -2.00098 0.5c-15.333 0 -27.166 -5.16699 -35.499 -15.5s-12.5 -20.166 -12.5 -29.499v-8c12 -12 30.333 -23.5 55 -34.5s49.667 -20.833 75 -29.5s48 -16 68 -22s32 -9.33301 36 -10v1
c10 -6 21.333 -11.167 34 -15.5s25.5 -8.33301 38.5 -12l38.5 -10.5c12.667 -3.33301 24.334 -7 35.001 -11l-156 -45l-239 -73c0 -0.666992 -0.166992 -2.5 -0.5 -5.5s-0.5 -5.16699 -0.5 -6.5v-3c0 -18.667 19 -37.667 57 -57h14c13.333 0 24.5 1.33301 33.5 4
s16.5 6.33398 22.5 11.001c79.333 19.333 157.5 42.666 234.5 69.999s152.833 59 227.5 95c-28 28 -57.833 50.167 -89.5 66.5s-65.5 26.833 -101.5 31.5c-57.333 24.667 -112.666 47 -165.999 67s-106 33.667 -158 41z" />
    <glyph glyph-name="question" unicode="?" horiz-adv-x="418" 
d="M140 242c-14 14 -21.0049 23.6699 -21.0049 29.0029c0 0.666992 2.66699 3.33398 8 8.00098l17.5 15l17.5 14.5l8 6.5c8.66699 8 19.834 15.667 33.501 23s30.834 14.333 51.501 21c12 4 23.667 8.66699 35 14s22 11 32 17s18.833 11.667 26.5 17
s13.5 9.66602 17.5 12.999c8 6.66699 15.5 17.5 22.5 32.5s13.333 31.5 19 49.5s10.167 36 13.5 54s5 33.667 5 47c0 58 -48.667 110 -146 156c-37.333 18 -71.833 31.333 -103.5 40s-60.5 13 -86.5 13h-16c-6.66699 5.33301 -13.334 8 -20.001 8
c-12.667 0 -19 -7.33301 -19 -22s7.33301 -40 22 -76c24.667 -6 48.834 -12.667 72.501 -20l52.5 -16c2.66699 7.33301 4.33398 11 5.00098 11c11.333 0 23.666 -3.5 36.999 -10.5s25.833 -15.833 37.5 -26.5s21.334 -22.334 29.001 -35.001s11.5 -24.334 11.5 -35.001
c0 -18 -1.83301 -34.833 -5.5 -50.5s-11.167 -30.5 -22.5 -44.5s-27.666 -27.833 -48.999 -41.5s-49.666 -27.834 -84.999 -42.501c-28.667 -12 -49.334 -24 -62.001 -36v7c-9.33301 -14.667 -17.333 -26.5 -24 -35.5l-17 -23c-4.66699 -6.33301 -8.16699 -12.333 -10.5 -18
s-3.5 -12.5 -3.5 -20.5c0 -2.66699 2.16699 -10.167 6.5 -22.5s9.83301 -25.5 16.5 -39.5s14.334 -26.667 23.001 -38s17.667 -17 27 -17c14.667 0 39.667 12 75 36l-1 2c0.666992 0.666992 1 1.33398 1 2.00098c0 3.33301 -3 7.66602 -9 12.999s-13.333 12.333 -22 21z
M186.995 102.003c1.33301 1.33301 2.99902 3.49805 4.99902 6.49805s3 6.5 3 10.5c0 15.333 -30.333 23 -91 23h-28c-18 -7.33301 -27 -23 -27 -47c0 -10 1 -20.333 3 -31s6 -22 12 -34v-7c6 -5.33301 11.5 -9.16602 16.5 -11.499s10.167 -4.16602 15.5 -5.49902v1
c6.66699 -2 12.834 -3.66699 18.501 -5s11.167 -2 16.5 -2c22 0 40.667 10 56 30c-2 14 -3 28.667 -3 44c0 16.667 0.666992 26 2 28h1zM187.994 104.001l-1 -1c0 0.666992 0.333008 1 1 1z" />
    <glyph glyph-name="at" unicode="@" horiz-adv-x="779" 
d="M290 154c12 -8 24.3301 -15.3379 36.9971 -22.0049s24.667 -10 36 -10c8.66699 0 15.334 1.5 20.001 4.5s8.33398 6.5 11.001 10.5s5.16699 8.5 7.5 13.5s5.83301 9.5 10.5 13.5l18 12l63.5 41c21 14 40 28.667 57 44s30.667 31.333 41 48s15.5 34.334 15.5 53.001
c0 14 -1 27.333 -3 40s-5.66699 26.334 -11 41.001s-12.833 31.334 -22.5 50.001s-22.5 41 -38.5 67l-1 -1c-6 16.667 -11.667 30.5 -17 41.5s-10.5 20.333 -15.5 28s-9.5 14.167 -13.5 19.5s-7.66699 10 -11 14l-10 10c-3.33301 7.33301 -9 12.333 -17 15s-17.333 4 -28 4
h-11c-2 0 -4 -0.166992 -6 -0.5s-3.66699 -0.5 -5 -0.5h-18c-10.667 0 -18.167 0.833008 -22.5 2.5s-8 3.66699 -11 6s-6.16699 4.33301 -9.5 6s-9 2.5 -17 2.5s-16 -0.666992 -24 -2s-15.333 -2 -22 -2h-11c-9.33301 0 -22 -4 -38 -12s-33.333 -19.333 -52 -34
s-37.5 -32.667 -56.5 -54s-36.167 -45.166 -51.5 -71.499s-27.833 -55 -37.5 -86s-14.5 -63.833 -14.5 -98.5c0 -106 34.333 -197 103 -273c92 -64.667 180.667 -97 266 -97c44 0 87.167 8.66699 129.5 26s81 40.833 116 70.5s65.167 64.167 90.5 103.5
s43 80.666 53 123.999c-0.666992 3.33301 -1.5 24.666 -2.5 63.999s-6.16699 95 -15.5 167h-10c-4 0 -9 2.33301 -15 7l-19 15.5c-6.66699 5.66699 -13.667 10.834 -21 15.501s-14 7 -20 7c-7.33301 0 -12.666 -2.66699 -15.999 -8s-5 -14.666 -5 -27.999
c0 -10 1.5 -18.833 4.5 -26.5s4.5 -14.167 4.5 -19.5c0 -8 -3 -18 -9 -30c10.667 -18.667 18 -33.834 22 -45.501s6 -21.167 6 -28.5c0 -8 -1.66699 -14.667 -5 -20s-7 -10.5 -11 -15.5s-7.66699 -10.5 -11 -16.5s-5 -13.667 -5 -23c0 -52.667 -30.667 -107.667 -92 -165
c-1.33301 -1.33301 -3.5 -3.33301 -6.5 -6s-6.5 -5.33398 -10.5 -8.00098l-11.5 -7.5c-3.66699 -2.33301 -6.5 -3.5 -8.5 -3.5s-4 0.333008 -6 1h-9c-20 0 -30.667 -8.66699 -32 -26c-15.333 -7.33301 -29.5 -12.333 -42.5 -15s-30.833 -4 -53.5 -4
c-16.667 0 -33.167 0.833008 -49.5 2.5s-32.166 5 -47.499 10s-29.666 12.333 -42.999 22s-25.333 22.167 -36 37.5l-9 9c-4.66699 4 -9.5 9.83301 -14.5 17.5s-10.167 20.167 -15.5 37.5c-14 5.33301 -23.5 12.5 -28.5 21.5s-7.5 18.167 -7.5 27.5s1.16699 17.833 3.5 25.5
s3.5 17.834 3.5 30.501c0 8.66699 -0.5 19 -1.5 31s-2.16699 23.833 -3.5 35.5s-2.5 22.5 -3.5 32.5s-1.5 17.667 -1.5 23c0.666992 2.66699 3.16699 9.83398 7.5 21.501s11.166 25 20.499 40s21.666 30.5 36.999 46.5s34.666 30 57.999 42h5c16 0 32 1.5 48 4.5
s31.333 4.5 46 4.5c20.667 0 37.167 -4.16699 49.5 -12.5s25.166 -25.833 38.499 -52.5c-8 2.66699 -17 4.83398 -27 6.50098s-17.333 2.5 -22 2.5c-9.33301 -3.33301 -17.666 -8.83301 -24.999 -16.5s-13.666 -16.5 -18.999 -26.5
c-10.667 -18.667 -25.167 -35.167 -43.5 -49.5l-54.5 -43.5c-18 -14.667 -33.5 -30.667 -46.5 -48s-19.5 -38 -19.5 -62zM491.997 387.995l-13.002 -2.99707c6 -7.33301 10.333 -13.333 13 -18s4.66699 -8.66699 6 -12c-9.33301 -11.333 -19.833 -22.5 -31.5 -33.5
s-23.5 -21 -35.5 -30s-23.5 -16.167 -34.5 -21.5s-20.833 -8 -29.5 -8c-2.66699 0 -6.16699 1 -10.5 3s-8.5 4.16699 -12.5 6.5s-7.5 4.66602 -10.5 6.99902l-4.5 3.5h1c-13.333 7.33301 -22.166 14.166 -26.499 20.499s-8.16602 17.166 -11.499 32.499
c6 11.333 14.167 22.166 24.5 32.499s22.5 19.833 36.5 28.5s29.333 16 46 22s34 10.333 52 13c8 8.66699 13 18.667 15 30c6 -12.667 11 -24.667 15 -36s7.66699 -23.666 11 -36.999z" />
    <glyph glyph-name="A" unicode="A" horiz-adv-x="637" 
d="M27 8c8.66699 -5.33301 17.0049 -8 25.0049 -8c19.333 0 35.666 8.66699 48.999 26l47.5 137.5l68.5 190.5c4.66699 3.33301 10.667 5 18 5s17.666 -1.83301 30.999 -5.5s27.666 -5.5 42.999 -5.5c2.66699 0 6.33398 0.166992 11.001 0.5s9.66699 0.5 15 0.5
s10.666 0.166992 15.999 0.5s10 0.5 14 0.5c7.33301 0 14.166 -0.666992 20.499 -2s12.5 -3 18.5 -5l43 -96l57 -128c-0.666992 -4 -1 -7.66699 -1 -11v-9c0 -8.66699 1.33301 -18.167 4 -28.5s6.66699 -20.833 12 -31.5v1l8 -23c11.333 -2 22.166 -3.33301 32.499 -4
s20.166 -1 29.499 -1c7.33301 0 16.5 0.333008 27.5 1s23.5 2.33398 37.5 5.00098v22c0 15.333 -4.5 34.166 -13.5 56.499s-18.667 43.833 -29 64.5s-20 38.667 -29 54s-13.5 24 -13.5 26c-1.33301 5.33301 -3 10.166 -5 14.499s-3.66699 8.5 -5 12.5l-36 100.5
c-10 28.333 -19.5 54 -28.5 77s-18 44.333 -27 64s-19.167 40.5 -30.5 62.5c-10 22.667 -21 49 -33 79s-23.667 61 -35 93v2c0 3.33301 -2 8.16602 -6 14.499s-8.66699 12.833 -14 19.5s-11 12.334 -17 17.001s-11 7 -15 7s-8 -0.333008 -12 -1s-8 -2.66699 -12 -6h1
c-10.667 -6.66699 -19 -15.334 -25 -26.001s-10.5 -21.667 -13.5 -33s-5 -22.166 -6 -32.499s-1.5 -18.5 -1.5 -24.5c0 -1.33301 0.666992 -2 2 -2c-6 -11.333 -13 -26.333 -21 -45l-25.5 -58.5c-9 -20.333 -18.333 -40 -28 -59s-19.167 -34.5 -28.5 -46.5
c-8.66699 -32 -20 -68.167 -34 -108.5s-31.667 -86.166 -53 -137.499l-20 -48.5c-6.66699 -16.333 -12.667 -32 -18 -47s-9.66602 -29 -12.999 -42s-5 -23.5 -5 -31.5c0 -19.333 7.66699 -35 23 -47zM340.005 519c3.33301 -12.667 6.83301 -24.333 10.5 -35
s7.5 -20.334 11.5 -29.001l-23.5 -2.5c-9.66699 -1 -19.5 -2.16699 -29.5 -3.5s-19.5 -2.5 -28.5 -3.5s-15.833 -1.5 -20.5 -1.5h-3c9.33301 25.333 19.5 50.5 30.5 75.5s22.833 45.5 35.5 61.5l7.5 -26.5c3 -10.333 6.16699 -22.166 9.5 -35.499z" />
    <glyph glyph-name="B" unicode="B" horiz-adv-x="513" 
d="M495 232c20.667 11.333 30.998 26.001 30.998 44.001c0 8 -3 15.667 -9 23s-17.167 16.166 -33.5 26.499s-38.5 23.666 -66.5 39.999l-108 65.5c0 -0.666992 6 3.33301 18 12s31.667 23.667 59 45c32 23.333 48.333 47.333 49 72c-8 15.333 -21.5 31.333 -40.5 48
s-38.833 32.5 -59.5 47.5s-39.667 28 -57 39s-27.666 18.167 -30.999 21.5c-8 0.666992 -17.333 4 -28 10s-21 12.833 -31 20.5s-18.667 15 -26 22s-11.666 11.5 -12.999 13.5c-4 0.666992 -9.16699 2 -15.5 4s-13.166 4 -20.499 6s-14.5 3.83301 -21.5 5.5
s-12.833 2.5 -17.5 2.5c-2 0 -4.5 -0.166992 -7.5 -0.5s-8.16699 -1.83301 -15.5 -4.5c-8 -53.333 -12 -110.666 -12 -171.999c0 -11.333 0.5 -29 1.5 -53s2 -50.167 3 -78.5l3 -84c1 -27.667 1.5 -50.5 1.5 -68.5c0 -32.667 -1 -64 -3 -94c0 -3.33301 0.5 -8 1.5 -14
s2.83301 -11 5.5 -15l1 -8c-0.666992 -0.666992 -4.33398 -2 -11.001 -4l-5 -204h30l250 136zM156.998 212.001c0 8.66699 -0.329102 21.167 -0.996094 37.5s-1.33398 34.5 -2.00098 54.5s-1.66699 40.833 -3 62.5s-2.33301 42.334 -3 62.001s-1.33398 37.667 -2.00098 54
s-1 29.166 -1 38.499c0 49.333 3 94 9 134c8.66699 -6 19.167 -13.667 31.5 -23l38 -29.5l38 -30c12.333 -9.66699 23.166 -17.5 32.499 -23.5c-40.667 -30.667 -71.5 -57.5 -92.5 -80.5s-31.5 -36.833 -31.5 -41.5c0 -1.33301 0.166992 -3 0.5 -5
s2.16602 -5.66699 5.49902 -11l59 -31c10 -6 19 -12.5 27 -19.5s14.667 -14.167 20 -21.5c49.333 -22.667 83.333 -40.334 102 -53.001l-228 -127c0 8.66699 0.166992 17.334 0.5 26.001s0.5 17.667 0.5 27z" />
    <glyph glyph-name="C" unicode="C" horiz-adv-x="517" 
d="M464 3c45.333 18 68.6641 42.6699 69.9971 74.0029c-30 19.333 -56.667 37.666 -80 54.999l-62.5 47.5l-48.5 39c-14 11.667 -26.667 21.5 -38 29.5c-38 25.333 -68 48.166 -90 68.499s-36.667 42.166 -44 65.499c4.66699 8 11.334 16 20.001 24s18.667 16 30 24l35 26
c2.66699 8 8.83398 17.5 18.501 28.5s19.834 21.833 30.501 32.5l23 22c0 6 4.16699 13.5 12.5 22.5s18.833 19 31.5 30l43 36c16 13 31.333 26.333 46 40s28.167 27.667 40.5 42s21.5 28.5 27.5 42.5c-0.666992 2.66699 -1.66699 6 -3 10h2l-2 2c-2 2.66699 -4 5 -6 7
s-4.66699 4.33301 -8 7l-5 5l-12.5 12.5c-4.33301 4.33301 -9.83301 6.5 -16.5 6.5c-5.33301 0 -13 -2.33301 -23 -7v1c-50 -26 -98.667 -63.667 -146 -113l-122 -124c-27.333 -14.667 -54 -35 -80 -61c-6 -20.667 -19 -41 -39 -61l-66 -68
c58.667 -64.667 120.667 -124 186 -178s134.333 -103.667 207 -149c10 -21.333 31.333 -34.333 64 -39h5z" />
    <glyph glyph-name="D" unicode="D" horiz-adv-x="669" 
d="M643 320c7.33301 7.33301 15.001 14.0039 23.001 20.0039l19 21h-4c2.66699 6.66699 4 12.334 4 17.001c0 3.33301 -2.66699 11 -8 23c-42 43.333 -82 80.666 -120 111.999s-74.667 58.666 -110 81.999c-10 17.333 -22.167 32.166 -36.5 44.499
s-31.166 23.833 -50.499 34.5s-41.833 21.334 -67.5 32.001l-86.5 37c-21.333 9.33301 -37.333 17.5 -48 24.5s-18.667 13 -24 18l-12 11c-2.66699 2.33301 -7 3.5 -13 3.5c-4 0 -10.667 -1.33301 -20 -4s-22.666 -7 -39.999 -13c-4.66699 -22.667 -7 -44.667 -7 -66
c0 -8.66699 0.833008 -21.5 2.5 -38.5s3.66699 -34.5 6 -52.5s4.33301 -35.167 6 -51.5s2.5 -28.5 2.5 -36.5c0 -20 -0.833008 -43 -2.5 -69l-5.5 -83l-6.5 -92.5c-2.33301 -32.333 -3.83301 -65.5 -4.5 -99.5c-1.33301 -30 -2.5 -62.167 -3.5 -96.5
s-2.16699 -66.833 -3.5 -97.5h77c7.33301 9.33301 16.166 16.666 26.499 21.999s22.166 9.66602 35.499 12.999l80 17c30.667 27.333 59.667 50.666 87 69.999s55.166 38 83.499 56l90.5 56.5c32 19.667 68 43.167 108 70.5c3.33301 3.33301 6.83301 6.33301 10.5 9
s6.16699 4.66699 7.5 6h4zM492.001 341.004c-6 -3.33301 -11.333 -6.66602 -16 -9.99902l-16 -11l-250 -172l-47 -11c-4.66699 18 -7 38.333 -7 61c0 17.333 1.83301 34.666 5.5 51.999s9.5 34 17.5 50c-4.66699 10 -7 19.333 -7 28c0 7.33301 2.5 17.833 7.5 31.5
s8.83301 31.167 11.5 52.5c-15.333 51.333 -23 104.333 -23 159c0 12 0.333008 24.167 1 36.5s2 24.166 4 35.499c50 -32.667 100.667 -56 152 -70c10 -8 24.5 -21.167 43.5 -39.5l59.5 -58l59.5 -58.5c19 -18.667 33.833 -32.667 44.5 -42
c-9.33301 -11.333 -22.333 -22.666 -39 -33.999h-1z" />
    <glyph glyph-name="E" unicode="E" horiz-adv-x="555" 
d="M484 3c44 18 66.6641 42.666 67.9971 73.999c-65.333 42 -116.166 78.333 -152.499 109s-64.833 54 -85.5 70l-45.5 31c-15 10.667 -28.167 21.667 -39.5 33c18 2.66699 41.167 5.83398 69.5 9.50098s57.166 7.83398 86.499 12.501s57 10.167 83 16.5s45 13.833 57 22.5
v41c0 20.667 -8.66699 34.667 -26 42l-4 1c-6 -0.666992 -16.667 -1.66699 -32 -3s-32.166 -3.16602 -50.499 -5.49902s-37 -5.16602 -56 -8.49902s-35.167 -7 -48.5 -11c-14.667 -5.33301 -28.334 -9 -41.001 -11s-24.667 -3 -36 -3c2 1.33301 4.66699 3.66602 8 6.99902
l36 25c2 7.33301 7.83301 16.666 17.5 27.999s20.167 22.666 31.5 33.999l22 22c9.33301 12 18.833 22.5 28.5 31.5l29.5 26.5h-1l40 35.5c14.667 13 28.834 26.333 42.501 40s26 27.334 37 41.001s19.167 26.5 24.5 38.5c-0.666992 2.66699 -1.66699 6 -3 10h3
c-1.33301 1.33301 -3 3.33301 -5 6s-4 4.66699 -6 6l-9 9c-4 4.66699 -8.5 9 -13.5 13s-10.833 6 -17.5 6c-4.66699 0 -12 -2.33301 -22 -7v1c-25.333 -13.333 -50 -29.333 -74 -48s-48 -40.334 -72 -65.001l-123 -125c-14 -7.33301 -27.5 -16 -40.5 -26
s-25.833 -21 -38.5 -33c-4.66699 -20 -17.667 -40.667 -39 -62l-67 -68c58.667 -64.667 120.834 -124 186.501 -178s134.834 -103.667 207.501 -149c10 -20 31.333 -33 64 -39h6z" />
    <glyph glyph-name="F" unicode="F" horiz-adv-x="548" 
d="M517 692l6.00293 3.99707l6 4h-1c9.33301 6 18.166 12.667 26.499 20s12.5 16.333 12.5 27v6c-17.333 31.333 -48.666 47 -93.999 47c-10 0 -24.167 -0.666992 -42.5 -2s-38.166 -5.66602 -59.499 -12.999c-3.33301 -1.33301 -6.66602 -2.33301 -9.99902 -3
s-6.33301 -1 -9 -1c-22 0 -43.333 1.16699 -64 3.5s-42.334 3.5 -65.001 3.5h-14c-58 -2 -110.667 -11.333 -158 -28c7.33301 -16 11 -30.333 11 -43v-16c-0.666992 -3.33301 -1 -6.66602 -1 -9.99902v-8c0 -14 1.83301 -26.5 5.5 -37.5s9.5 -20.167 17.5 -27.5
c-2 -6 -5 -15.833 -9 -29.5s-8 -28.5 -12 -44.5s-7.5 -31.833 -10.5 -47.5s-4.5 -28.167 -4.5 -37.5c0 -13.333 1.16699 -26.333 3.5 -39s4.83301 -25.167 7.5 -37.5s5.16699 -24.666 7.5 -36.999s3.5 -25.5 3.5 -39.5c0 -4 -0.833008 -12.5 -2.5 -25.5
s-3.33398 -29.333 -5.00098 -49s-3.33398 -42 -5.00098 -67s-2.5 -51.5 -2.5 -79.5c0 -12.667 0.5 -25.834 1.5 -39.501s3.16699 -29.167 6.5 -46.5c27.333 1.33301 54 5 80 11s52 13.667 78 23c-8.66699 15.333 -13 28.333 -13 39c0 11.333 -2.33301 22 -7 32v5v4
c0 2 0.333008 4.66699 1 8v6c0 8 -3 15.667 -9 23c-6 44 -11 84.667 -15 122s-7 72 -9 104l27 5l66.5 20.5c16.333 5 30 9 41 12s21 5.33301 30 7s20.5 3.5 34.5 5.5c12 1.33301 23.333 3 34 5s20.5 5.33301 29.5 10s17 11.334 24 20.001s13.167 20.667 18.5 36
c-3.33301 11.333 -10.833 20.5 -22.5 27.5s-28.167 11.167 -49.5 12.5c-41.333 -13.333 -83.5 -25.833 -126.5 -37.5s-80.833 -20.167 -113.5 -25.5c5.33301 33.333 9.33301 64.5 12 93.5s4 56.5 4 82.5c0 8 -0.166992 16 -0.5 24s-0.833008 15.667 -1.5 23
c7.33301 -1.33301 14.666 -2 21.999 -2h23c12 0 26.833 1 44.5 3s35.5 4.5 53.5 7.5l50 8.5l35 6c19.333 -12 36 -20.667 50 -26s25.667 -8 35 -8c5.33301 0 9.66602 0.166992 12.999 0.5s6 0.833008 8 1.5z" />
    <glyph glyph-name="G" unicode="G" horiz-adv-x="627" 
d="M508 668c22.667 7.33301 42.667 17.665 60 30.998s28.333 27.666 33 42.999l-15.5 25c-6.33301 10 -13.666 19.333 -21.999 28s-17.166 16.167 -26.499 22.5s-18.666 9.5 -27.999 9.5h-7l-46.5 -35l-32.5 -25.5l-25.5 -21c-7.66699 -6.33301 -15.5 -13.166 -23.5 -20.499
h1c-2 -1.33301 -3.83301 -2.66602 -5.5 -3.99902s-3.5 -2.66602 -5.5 -3.99902l-84 -85c-14 -14 -34 -31.167 -60 -51.5l-80 -64c-27.333 -22.333 -53.5 -44.833 -78.5 -67.5s-43.5 -43.667 -55.5 -63c22.667 -36 54.667 -71.833 96 -107.5s94 -74.5 158 -116.5l79.5 -52
c21.667 -14.667 38.5 -27 50.5 -37c10 -2 21.333 -6.83301 34 -14.5l40 -24c14 -8.33301 27.667 -16 41 -23s25.333 -10.5 36 -10.5c6.66699 0 13.5 0.666992 20.5 2s15.167 3.33301 24.5 6c2 57.333 8.33301 106.666 19 147.999c-4 5.33301 -6.66699 10 -8 14
s-2 7.66699 -2 11c0 6.66699 1.33301 13.834 4 21.501s5.5 15.334 8.5 23.001s5.83301 15.5 8.5 23.5s4 16 4 24c0 6 -1.33301 14.667 -4 26s-5.83398 23 -9.50098 35s-6.83398 23.167 -9.50098 33.5s-4 17.5 -4 21.5c0 6.66699 2 14.5 6 23.5s10.667 18.833 20 29.5
c-23.333 11.333 -45 17 -65 17c-11.333 0 -23 -1 -35 -3l-15 4c-6.66699 4 -11.667 6.66699 -15 8s-5.66602 2 -6.99902 2c-2.66699 0 -3.66699 -1.16699 -3 -3.5s-0.333008 -3.5 -3 -3.5h-1c-7.33301 0.666992 -12.833 1.5 -16.5 2.5s-6.5 1.83301 -8.5 2.5
s-3.83301 1.33398 -5.5 2.00098s-3.5 1 -5.5 1c-4.66699 0 -10.334 -1.83301 -17.001 -5.5s-10 -11.834 -10 -24.501c0 -6.66699 0.333008 -11.667 1 -15c-0.666992 -3.33301 -1.16699 -7.16602 -1.5 -11.499s-0.5 -8.16602 -0.5 -11.499l1 -12
c0 -1.33301 -0.166992 -2.83301 -0.5 -4.5s-0.5 -3.83398 -0.5 -6.50098v-5c0 -12 1.66699 -20 5 -24s13.333 -6 30 -6h57c0 -18.667 1.33301 -35.834 4 -51.501s4 -33.167 4 -52.5c0 -15.333 -0.833008 -28.333 -2.5 -39s-3.66699 -20 -6 -28s-4.83301 -15.333 -7.5 -22
l-8 -21c-148 75.333 -262 158 -342 248c7.33301 10.667 13 19.667 17 27s8.66699 14.333 14 21c36 34 80.667 70.5 134 109.5s116.666 81.167 189.999 126.5h-1c2.66699 1.33301 4.5 2.16602 5.5 2.49902s2.16699 0.833008 3.5 1.5z" />
    <glyph glyph-name="H" unicode="H" horiz-adv-x="555" 
d="M61 537c0 -8 0.165039 -19.332 0.498047 -33.999s0.5 -30 0.5 -46s0.166992 -31.167 0.5 -45.5s0.5 -25.166 0.5 -32.499c0 -98.667 -8 -180.334 -24 -245.001c1.33301 -6.66699 2 -11.334 2 -14.001c0.666992 -0.666992 0.333984 -4.33398 -0.999023 -11.001l-4.5 -22.5
l-5 -24.5c-1.66699 -8 -2.5 -13.333 -2.5 -16c0 -6.66699 1 -13.334 3 -20.001s4.66699 -13.667 8 -21c2 0.666992 5.5 1.33398 10.5 2.00098s8.5 1.33398 10.5 2.00098h-1c19.333 2.66699 36 6 50 10s27.667 13 41 27c-4 34.667 -6 70 -6 106c0 18.667 0.5 39 1.5 61
s2.83301 45.667 5.5 71l6 67c0.666992 8.66699 1.5 17.334 2.5 26.001s1.83301 17.667 2.5 27c16 -1.33301 34.167 -5 54.5 -11s39.333 -12.333 57 -19s32.667 -12.667 45 -18s19.166 -8 20.499 -8c7.33301 -4 15.333 -7.83301 24 -11.5s17.667 -7.16699 27 -10.5h-1l18 -7
c5.33301 -2 9.66602 -4 12.999 -6c4 -27.333 6 -56 6 -86c0 -4 -0.333008 -11.5 -1 -22.5s-1.16699 -23.5 -1.5 -37.5s-0.833008 -28.833 -1.5 -44.5s-1 -30.834 -1 -45.501c0 -7.33301 0.166992 -13.5 0.5 -18.5s0.833008 -10 1.5 -15s1.83398 -10.667 3.50098 -17
s3.5 -14.5 5.5 -24.5c10.667 -2.66699 20.167 -4.33398 28.5 -5.00098s15.833 -1 22.5 -1c27.333 0 45 5.83301 53 17.5s12 27.5 12 47.5c0 10.667 -1 20.667 -3 30c-7.33301 38 -13.166 77.5 -17.499 118.5s-6.5 84.167 -6.5 129.5c0 39.333 2 85.166 6 137.499
s8.66699 107.833 14 166.5l12 119c-20 12 -50 24.667 -90 38c-17.333 -3.33301 -28.666 -8.83301 -33.999 -16.5s-8 -18.834 -8 -33.501v-17c0.666992 -4.66699 1 -8.33398 1 -11.001v-8c0 -2 -0.166992 -4.16699 -0.5 -6.5s-1.16602 -6.5 -2.49902 -12.5l3 -9
c0 -8 2.66699 -15.667 8 -23s9 -12.666 11 -15.999c-2.66699 -24.667 -6.33398 -53.667 -11.001 -87s-7 -71 -7 -113c-10 0.666992 -23.167 3.33398 -39.5 8.00098l-50.5 14.5c-17.333 5 -34.333 9.66699 -51 14s-31 7.16602 -43 8.49902
c-6.66699 2.66699 -15 5.16699 -25 7.5l-29.5 7c-9.66699 2.33301 -17.834 5.16602 -24.501 8.49902s-10 8 -10 14v8c-1.33301 10 -2.33301 19 -3 27s-1 14.667 -1 20c0 36.667 13.667 63 41 79c0 20.667 -1.16699 37.834 -3.5 51.501s-3.5 25.167 -3.5 34.5
c0 1.33301 0.166992 3 0.5 5s0.5 4 0.5 6v15c-10.667 4.66699 -21.334 7.83398 -32.001 9.50098s-21.667 2.5 -33 2.5c-15.333 0 -34 -1 -56 -3c-5.33301 -12 -8.16602 -24.5 -8.49902 -37.5s-3.16602 -26.167 -8.49902 -39.5l22 -48
c-1.33301 -17.333 -2.33301 -36.166 -3 -56.499s-1 -42.166 -1 -65.499z" />
    <glyph glyph-name="I" unicode="I" horiz-adv-x="169" 
d="M39 398c0 -32 0.669922 -63.332 2.00293 -93.999s3.33301 -61 6 -91l-4 -170c8.66699 -14.667 17.667 -25.5 27 -32.5s18.666 -10.5 27.999 -10.5c8.66699 0 15.5 2.16699 20.5 6.5s8.83301 9.5 11.5 15.5s4.5 12.5 5.5 19.5s1.5 13.167 1.5 18.5
c0 3.33301 -0.166992 6 -0.5 8s-0.5 3.66699 -0.5 5v40c0 22 -0.166992 48.5 -0.5 79.5s-0.833008 61.833 -1.5 92.5s-1.16699 58.667 -1.5 84s-0.5 43.333 -0.5 54c0 130.667 9 240 27 328c1.33301 2.66699 2.16602 5 2.49902 7s0.5 4.66699 0.5 8
c0 21.333 -13.667 32.666 -41 33.999c-4.66699 -2.66699 -10.334 -4 -17.001 -4c-2.66699 0 -7.5 0.333008 -14.5 1s-11.833 1 -14.5 1c-16 0 -27.333 -4 -34 -12s-10 -21.333 -10 -40c0 -32 6.66699 -58.333 20 -79c-8 -100 -12 -189.667 -12 -269z" />
    <glyph glyph-name="J" unicode="J" horiz-adv-x="429" 
d="M420 406c0 22 -8.33301 46.668 -25 74.001l-10 112c0 1.33301 0.166992 2.5 0.5 3.5s0.5 2.16699 0.5 3.5c0 8 -0.5 17 -1.5 27s-1.5 17.667 -1.5 23c0 10 1.33301 18.667 4 26s5.83398 14 9.50098 20s6.83398 11.833 9.50098 17.5s4 12.167 4 19.5
c0 21.333 -7.5 38 -22.5 50s-37.5 18 -67.5 18c-20.667 0 -37.334 -5.16699 -50.001 -15.5s-19 -26.5 -19 -48.5s5.66699 -41 17 -57v-14c0 -19.333 0.333008 -43.166 1 -71.499s1.5 -59.166 2.5 -92.499s2.16699 -67.833 3.5 -103.5l4 -102.5
c1.33301 -32.667 2.5 -63 3.5 -91l2.5 -69c-5.33301 2 -10.333 3 -15 3h-14c-4 0 -8.16699 0.833008 -12.5 2.5s-9.5 5.5 -15.5 11.5c-8.66699 8.66699 -17 14.5 -25 17.5s-16 4.5 -24 4.5c-5.33301 0 -9.83301 -0.166992 -13.5 -0.5s-7.16699 -0.833008 -10.5 -1.5l-7 -2
l-2 6v-1c-4 5.33301 -9.33301 12 -16 20s-14.667 14 -24 18l-61 18c-9.33301 -3.33301 -16.5 -9 -21.5 -17s-8.5 -14.333 -10.5 -19l-2 -5c-3.33301 -6.66699 -5 -11.334 -5 -14.001c4.66699 -14.667 9.33398 -26.667 14.001 -36s10.167 -16.833 16.5 -22.5
s14 -9.83398 23 -12.501s20.5 -4.33398 34.5 -5.00098c15.333 -0.666992 30.666 -2.66699 45.999 -6s29.666 -11.666 42.999 -24.999s24.5 -22.5 33.5 -27.5s17.5 -8.5 25.5 -10.5s15.833 -3.5 23.5 -4.5s16.5 -3.83301 26.5 -8.5l10 14l3 -4
c2 -2.66699 3 -5.33398 3 -8.00098c0 -2 -1.66699 -3 -5 -3h-3c0.666992 -0.666992 2.33398 -1 5.00098 -1c3.33301 0 6.5 -0.5 9.5 -1.5s6 -2.5 9 -4.5s5.5 -5.33301 7.5 -10h16c19.333 0 33.333 4.16699 42 12.5s13 24.166 13 47.499
c1.33301 9.33301 2.83301 16.333 4.5 21s3.16699 8.66699 4.5 12v-1c3.33301 4.66699 5 11.334 5 20.001c0 4.66699 -1.16699 9.16699 -3.5 13.5s-5 9 -8 14s-5.66699 11.333 -8 19s-3.5 17.5 -3.5 29.5c0 21.333 1.16699 47.5 3.5 78.5s4.16602 60.5 5.49902 88.5
c12 12.667 18 29.667 18 51z" />
    <glyph glyph-name="K" unicode="K" horiz-adv-x="542" 
d="M527 798l-5.99609 0.00195312c-2 0.666992 -3.83301 1.16699 -5.5 1.5s-4.16699 0.5 -7.5 0.5c-10 0 -18.333 -2.83301 -25 -8.5s-12.834 -12.5 -18.501 -20.5s-11 -16 -16 -24s-10.5 -14.333 -16.5 -19c-11.333 -9.33301 -26 -24.333 -44 -45l-56.5 -65l-57 -64
c-18.333 -20 -33.166 -34 -44.499 -42l-6 -12c-7.33301 -2 -17.333 -5.16699 -30 -9.5s-24 -11.833 -34 -22.5l-31 -29c-1.33301 3.33301 -2 7 -2 11v13v24c1.33301 6 2 11.333 2 16v13v9c0 2.66699 -0.333008 5.66699 -1 9c5.33301 23.333 9.5 45.666 12.5 66.999
s4.5 42 4.5 62c0 10 -0.333008 19.667 -1 29s-1.66699 18.666 -3 27.999l4 3v7c6 10.667 9 18 9 22c0 12 -8.66699 21 -26 27h-5c-14.667 0 -38.667 -6.33301 -72 -19c-2.66699 -10.667 -5 -25.334 -7 -44.001s-3.83301 -38 -5.5 -58s-3.33398 -39 -5.00098 -57
s-3.5 -32 -5.5 -42c1.33301 -18.667 2.5 -40.167 3.5 -64.5s1.5 -50.833 1.5 -79.5c0 -17.333 -0.166992 -36.666 -0.5 -57.999s-0.833008 -43.333 -1.5 -66s-1.16699 -44.667 -1.5 -66s-0.5 -40.666 -0.5 -57.999c0 -25.333 0.333008 -49.333 1 -72s2 -43.667 4 -63
c8 0 14 -1.66699 18 -5s7.5 -7 10.5 -11s6.16699 -7.66699 9.5 -11s8 -5 14 -5c3.33301 0 6.66602 0.333008 9.99902 1s7.33301 2.33398 12 5.00098l25 26v265l55.5 -50l72.5 -63.5l74 -61.5c24 -19.333 43.667 -33.666 59 -42.999
c4.66699 -2.66699 10.667 -7.83398 18 -15.501l23.5 -23.5c8.33301 -8 17.166 -15.167 26.499 -21.5s18.666 -9.5 27.999 -9.5c4 0 9.33301 0.333008 16 1s13.5 2.66699 20.5 6s13 8.16602 18 14.499s7.5 15.5 7.5 27.5c0 27.333 -19.667 49.666 -59 66.999h-8
c-4.66699 0 -7.66699 0.333008 -9 1v3c0 5.33301 -2.66699 10.666 -8 15.999v-5l-12 -5c-6 6.66699 -18 18.834 -36 36.501l-63 59.5l-77 67.5c-27.333 23 -53.333 43.5 -78 61.5c14 10.667 28.833 24.5 44.5 41.5s32.167 36.5 49.5 58.5
c17.333 23.333 35.333 43.666 54 60.999l57 51h-1l35 31c12 10.667 24.167 22.5 36.5 35.5s24.833 27.333 37.5 43s26 33.834 40 54.501v8c-1.33301 11.333 -3.33301 21.333 -6 30s-10 16.667 -22 24zM463.004 149.002c0.666992 -1.33301 2.33398 -2.66699 5.00098 -4
c-0.666992 2.66699 -2.33398 4 -5.00098 4z" />
    <glyph glyph-name="L" unicode="L" horiz-adv-x="471" 
d="M426 4l36 21.0049c0 0.666992 0.333008 3.83398 1 9.50098s2.5 12.167 5.5 19.5s7.83301 12.666 14.5 15.999l-17 9.5c-6.66699 3.66699 -13.5 7 -20.5 10s-14 5.5 -21 7.5s-12.833 3 -17.5 3c-4 0 -10.667 -0.5 -20 -1.5s-19.5 -2 -30.5 -3l-32.5 -3
c-10.667 -1 -19.667 -1.5 -27 -1.5h-6c-14.667 7.33301 -35.667 12 -63 14l-56 4c-3.33301 28 -5.66602 53.333 -6.99902 76s-2.5 46.5 -3.5 71.5s-2.33301 52.833 -4 83.5s-3.83398 68 -6.50098 112c-2.66699 41.333 -4.66699 77.666 -6 108.999s-2 58.666 -2 81.999v12
c13.333 13.333 20 31.333 20 54v7c0 4 -0.5 10.167 -1.5 18.5s-1.5 14.833 -1.5 19.5s0.833008 10 2.5 16s3.83398 12.667 6.50098 20c-9.33301 3.33301 -17.333 6 -24 8s-12 3 -16 3c-6 0 -13.5 -1.83301 -22.5 -5.5s-17.833 -7.83398 -26.5 -12.501
s-16.667 -9.33398 -24 -14.001l-14 -9c-4 -9.33301 -7.33301 -16.833 -10 -22.5s-4 -10.167 -4 -13.5l21 -316c-3.33301 -14.667 -5.83301 -30 -7.5 -46s-2.5 -33.667 -2.5 -53c0 -8.66699 0.5 -19.834 1.5 -33.501s2.16699 -28.5 3.5 -44.5s2.83301 -32.667 4.5 -50
l4.5 -48l3.5 -39c1 -11.333 1.5 -19 1.5 -23c0 -9.33301 -0.666992 -20 -2 -32s-3.33301 -25 -6 -39c61.333 1.33301 119.166 2.33301 173.499 3s100.5 1 138.5 1h64z" />
    <glyph glyph-name="M" unicode="M" horiz-adv-x="931" 
d="M885 8c32 0 48.0049 17.0068 48.0049 51.0068c0 1.33301 -0.166992 3.33301 -0.5 6s-1.16602 7.66699 -2.49902 15c-11.333 35.333 -23.5 76.333 -36.5 123l-40.5 149l-43 164l-43 168c16.667 30 25 50.667 25 62c0 10.667 -4.33301 22.667 -13 36h-12
c-4 0 -7.66699 -0.666992 -11 -2h-8c-6 0 -13.667 3 -23 9v-1c-5.33301 3.33301 -10.333 6.16602 -15 8.49902s-11 3.5 -19 3.5l-48 -104l-47.5 -104c-15 -34 -28.167 -66.667 -39.5 -98s-19 -60 -23 -86l-11.5 -22l-16 -29l-17 -30l-14.5 -25l-9 21
c-11.333 10 -22 23.833 -32 41.5s-19.5 36 -28.5 55s-17.167 37 -24.5 54s-14.333 29.5 -21 37.5c-5.33301 6.66699 -11 19.667 -17 39l-20 63.5c-7.33301 23 -15.833 45.833 -25.5 68.5s-20.834 40.334 -33.501 53.001c-1.33301 11.333 -5.16602 21.666 -11.499 30.999
s-11.5 15.666 -15.5 18.999c0 -4 -0.333008 -6.33301 -1 -7s-3.33398 -1 -8.00098 -1v19h-10c-48 0 -72 -20 -72 -60c0 -4 0.5 -10.333 1.5 -19s2.33301 -17.667 4 -27s3 -18 4 -26s1.5 -13.667 1.5 -17c0 -11.333 -2.66699 -21.333 -8 -30
c-8 -77.333 -18.5 -147.5 -31.5 -210.5s-25.5 -117.167 -37.5 -162.5s-22.667 -80.833 -32 -106.5s-14.333 -39.834 -15 -42.501v1c-6 -15.333 -10.5 -30 -13.5 -44s-4.5 -28.333 -4.5 -43c7.33301 0 14.666 -0.333008 21.999 -1s14.666 -1.66699 21.999 -3l39 -5
c6 0 11.5 0.5 16.5 1.5s10.5 3.16699 16.5 6.5c6.66699 18 13.167 40.333 19.5 67s12.166 54.167 17.499 82.5l16 81.5c5.33301 26 10.666 46.667 15.999 62l3 20c2 13.333 4.66699 30.166 8 50.499s7.83301 42.666 13.5 66.999s12.167 47.5 19.5 69.5l45 -56
c28 -74.667 53.667 -139.5 77 -194.5s45.666 -100.833 66.999 -137.5l4 -24c1.33301 -8 3.5 -15.167 6.5 -21.5s7 -11.333 12 -15s12.167 -5.5 21.5 -5.5h10c7.33301 8.66699 14.333 19.5 21 32.5l20 39.5c6.66699 13.333 13.167 25.666 19.5 36.999
s13.166 19.666 20.499 24.999c2 20 6.66699 41.167 14 63.5s16 45.166 26 68.499s21.167 47.333 33.5 72l38.5 75l14 29c21.333 -53.333 40.333 -117.666 57 -192.999l50 -234l20 -26c8.66699 -12 17.834 -20.833 27.501 -26.5s22.167 -8.5 37.5 -8.5z" />
    <glyph glyph-name="N" unicode="N" horiz-adv-x="570" 
d="M46 321l-1 -140.001c-6 -11.333 -10.167 -23.833 -12.5 -37.5s-3.5 -28.167 -3.5 -43.5c0 -18 3 -50.333 9 -97c10 -1.33301 19.167 -2.33301 27.5 -3s16.5 -1 24.5 -1c24.667 0 46.334 4.66699 65.001 14v42c0 6 -1 11 -3 15s-4.16699 8 -6.5 12s-4.5 8.33301 -6.5 13
s-3 10 -3 16c0 7.33301 0.666992 15.833 2 25.5s2.83301 19.334 4.5 29.001s3.16699 19.167 4.5 28.5s2.33301 17.333 3 24c-4.66699 4 -7.16699 9.33301 -7.5 16s0.166992 13.834 1.5 21.501s2.83301 15.334 4.5 23.001s2.5 14.167 2.5 19.5
c0 15.333 2.16699 32.333 6.5 51s6.5 38 6.5 58v18c0 1.33301 -0.166992 2.66602 -0.5 3.99902s-0.5 2.66602 -0.5 3.99902v10c0 7.33301 -0.833008 13.833 -2.5 19.5s-3.16699 12.5 -4.5 20.5l49 -64l54.5 -75c17.667 -25.333 33.834 -49.833 48.501 -73.5
s25 -42.834 31 -57.501l56.5 -52.5c14.333 -13.667 25.333 -25.834 33 -36.501s12.667 -20.667 15 -30s3.5 -20.333 3.5 -33c0 -21.333 7.16699 -36.666 21.5 -45.999s34.166 -14 59.499 -14h10c8 0 13.667 2.66699 17 8s5.66602 11.833 6.99902 19.5
s1.83301 15.834 1.5 24.501s-0.5 16 -0.5 22c0 22.667 -0.666992 48.167 -2 76.5s-3 57.333 -5 87s-3.66699 59.334 -5 89.001s-2 57.167 -2 82.5c0 34.667 1.33301 66 4 94s7 53 13 75c-7.33301 20 -11 44.667 -11 74c0 4 0.333008 10 1 18s1.33398 17.167 2.00098 27.5
s1.33398 21.333 2.00098 33s1 23.167 1 34.5v17l-19 20c-14 -5.33301 -27.833 -8.33301 -41.5 -9s-25.667 -2.33398 -36 -5.00098s-18.833 -7.5 -25.5 -14.5s-10 -19.167 -10 -36.5c0 -18.667 6.33301 -33 19 -43l-4 -384l-24 22c-4 17.333 -12.833 33.5 -26.5 48.5
s-28.5 26.167 -44.5 33.5c-8.66699 16.667 -19.834 33.834 -33.501 51.501l-44.5 56l-50 62.5c-17.333 22 -33.333 45.333 -48 70v1c-13.333 24 -28.333 48 -45 72s-40.334 44.667 -71.001 62c0 -16.667 0.5 -32.334 1.5 -47.001l3 -43.5l3 -43.5
c1 -14.667 1.5 -30.334 1.5 -47.001c0 -10 -0.333008 -20.833 -1 -32.5s-1.66699 -23.5 -3 -35.5c-5.33301 -49.333 -9.33301 -92.166 -12 -128.499s-4 -66.833 -4 -91.5z" />
    <glyph glyph-name="O" unicode="O" horiz-adv-x="795" 
d="M469 6c36.667 8 72.1689 22.001 106.502 42.001s65.666 44.333 93.999 73s52.666 60.334 72.999 95.001s34.833 70.667 43.5 108c-0.666992 3.33301 -2 17.666 -4 42.999s-4 62.666 -6 111.999c-2.66699 60.667 -13.5 111.167 -32.5 151.5s-44.167 72.833 -75.5 97.5
s-68 42.167 -110 52.5s-87.333 15.5 -136 15.5c-34 0 -67.333 -3.83301 -100 -11.5s-64.334 -18.834 -95.001 -33.501c-4.66699 -10 -13.667 -19.833 -27 -29.5s-27.333 -19 -42 -28l-41 -26c-12.667 -8.33301 -20.334 -16.5 -23.001 -24.5
c-21.333 -46.667 -37.666 -92.667 -48.999 -138s-17 -90 -17 -134c0 -107.333 34.667 -198.666 104 -273.999c90.667 -65.333 179.334 -98 266.001 -98c26 0 49.667 2.33301 71 7zM663.002 492.001c-0.666992 -11.333 -3.50293 -24.3291 -8.50293 -38.9961
s-10.167 -28.334 -15.5 -41.001c13.333 -24 20 -48.333 20 -73c0 -26.667 -8 -53.834 -24 -81.501s-39 -55.5 -69 -83.5c-3.33301 -3.33301 -8.66602 -5 -15.999 -5c-2.66699 0 -5 0.333008 -7 1h-9c-20 0 -30.667 -8.66699 -32 -26
c-16.667 -7.33301 -34.834 -13 -54.501 -17s-41.167 -6 -64.5 -6c-14 0 -29.167 0.666992 -45.5 2s-32.5 4 -48.5 8s-31 9.66699 -45 17s-25.333 17 -34 29v-1c-3.33301 6 -7.33301 15.5 -12 28.5l-16 42.5c-6 15.333 -12.5 30.333 -19.5 45s-14.167 26.667 -21.5 36
c8 18 12 39.333 12 64c0 6 -0.666992 15.167 -2 27.5s-2 25.833 -2 40.5v19c11.333 28.667 25 56 41 82s34 51.667 54 77c6.66699 0.666992 15.834 2.33398 27.501 5.00098l36 8.5l35 8.5c11 2.66699 19.167 4 24.5 4c6.66699 0 15 -1.33301 25 -4
c20.667 9.33301 43.334 14 68.001 14c18.667 0 36.167 -1.83301 52.5 -5.5s31.833 -9.5 46.5 -17.5s29.334 -18.833 44.001 -32.5s30 -30.5 46 -50.5c7.33301 -10.667 12.833 -19.834 16.5 -27.501s5.5 -14.834 5.5 -21.501c0 -4.66699 -0.666992 -8.83398 -2 -12.501
l-4 -10.5z" />
    <glyph glyph-name="P" unicode="P" horiz-adv-x="440" 
d="M455 524c-36 40 -71.834 74.999 -107.501 104.999s-71.5 54.333 -107.5 73c-2.66699 -0.666992 -4.83398 -1.33398 -6.50098 -2.00098s-3.16699 -1.33398 -4.5 -2.00098v1c0 11.333 -2.16699 20 -6.5 26s-10.666 11 -18.999 15s-18.5 8 -30.5 12s-25.667 10 -41 18
c-15.333 7.33301 -30.5 14.166 -45.5 20.499s-30.167 9.5 -45.5 9.5l-2 -97c6.66699 -37.333 12.334 -77.166 17.001 -119.499s7 -87.166 7 -134.499v-129v-62c0 -20.667 0.333008 -41 1 -61c-6.66699 -6 -11.334 -12.833 -14.001 -20.5s-4.5 -15.834 -5.5 -24.501l-3 -25
c-1 -8 -2.83301 -15 -5.5 -21v-6c0 -7.33301 -1.5 -16 -4.5 -26s-4.5 -21 -4.5 -33c0 -6 0.833008 -12.167 2.5 -18.5s5.16699 -13.166 10.5 -20.499c3.33301 0 8.5 0.166992 15.5 0.5s14.5 0.5 22.5 0.5s15.833 0.166992 23.5 0.5s13.834 0.5 18.501 0.5c8 0 16 -1 24 -3
l-1 1c4 -2 9.66699 -3 17 -3c4.66699 8 7.5 13.5 8.5 16.5l2.5 7.5v26c0 6 1.83301 13.833 5.5 23.5s5.5 18.834 5.5 27.501c0 6 -1.5 10.667 -4.5 14l-10 11c-3.66699 4 -7 9 -10 15s-4.5 14.333 -4.5 25c0 6 1.33301 15.333 4 28l9 41
c3.33301 14.667 6.33301 28.834 9 42.501s4 24.167 4 31.5c0 10.667 -1 20.667 -3 30c63.333 22 118 47.5 164 76.5s84.333 61.167 115 96.5v13zM174.999 480.999c0 7.33301 -0.999023 18.333 -2.99902 33l-6.5 46l-6.5 46c-2 14.667 -3 25.667 -3 33v7l8 -1
c11.333 -7.33301 22.166 -14.833 32.499 -22.5s21.5 -16.5 33.5 -26.5l40 -34l52 -46c-47.333 -33.333 -97.333 -57 -150 -71c2 12 3 24 3 36z" />
    <glyph glyph-name="Q" unicode="Q" horiz-adv-x="655" 
d="M628 284l0.00195312 13.999c0 2 0.666992 4 2 6l1 2c2 3.33301 4 6.16602 6 8.49902s5 5.5 9 9.5c-1.33301 19.333 -3.5 39.166 -6.5 59.499s-6.5 40.833 -10.5 61.5l-12 47c-1.33301 4 -2.5 8 -3.5 12s-2.16699 8 -3.5 12l-8 29c1.33301 5.33301 2.33301 11 3 17
s1 12 1 18c0 22 -4.5 41.167 -13.5 57.5s-21.833 32.333 -38.5 48s-37.167 32.334 -61.5 50.001s-51.5 38.5 -81.5 62.5c-4 0.666992 -8.16699 1.16699 -12.5 1.5s-10.166 0.5 -17.499 0.5c-12 0 -26.833 -2.33301 -44.5 -7s-35.834 -9.83398 -54.501 -15.501l-53.5 -16.5
c-17 -5.33301 -30.5 -8.66602 -40.5 -9.99902c-26.667 -25.333 -52.834 -57 -78.501 -95s-50.5 -83 -74.5 -135c-1.33301 -17.333 -2.33301 -34.166 -3 -50.499s-1 -32.166 -1 -47.499c0 -23.333 1 -49.166 3 -77.499s5.83301 -55.166 11.5 -80.499s13.5 -47 23.5 -65
s23 -28.333 39 -31l21.5 -3l7.5 -1c12.667 -13.333 27.167 -23.833 43.5 -31.5s34 -13.834 53 -18.501s38.667 -8.5 59 -11.5s40.833 -6.5 61.5 -10.5c8.66699 0 17.5 1 26.5 3s17.5 4.16699 25.5 6.5s15 4.5 21 6.5s10.333 3 13 3c5.33301 0 12.166 -3.83301 20.499 -11.5
s15.833 -21.167 22.5 -40.5v1l7.5 -18.5c2.33301 -5.66699 4.83301 -10.834 7.5 -15.501h-4c8 -9.33301 15.667 -16.166 23 -20.499s13.666 -6.5 18.999 -6.5c4.66699 0 9.16699 1.66699 13.5 5s8.5 7 12.5 11s8.5 7.83301 13.5 11.5s11.167 6.16699 18.5 7.5v14
c0 1.33301 0.166992 2.33301 0.5 3s0.5 1.66699 0.5 3c0 19.333 -8.66699 41.666 -26 66.999c-19.333 13.333 -29 26.333 -29 39c0 5.33301 3.33301 13.333 10 24s14.334 22 23.001 34l26.5 35c9 11.333 15.5 20.333 19.5 27zM443.002 270.999l-27.4961 28.502
c-9 9.66699 -20.167 20.167 -33.5 31.5l-66 -67c0 -1.33301 1.16699 -4.83301 3.5 -10.5s5.66602 -12.5 9.99902 -20.5s9.33301 -16.667 15 -26s11.834 -18 18.501 -26h-8c-32.667 0 -62.5 3.83301 -89.5 11.5s-50.333 20.834 -70 39.501s-35.334 43.667 -47.001 75
s-17.834 70.666 -18.501 117.999h-28c4 1.33301 9.66699 7.16602 17 17.499s11.666 26.5 12.999 48.5c16.667 52 38.5 95.167 65.5 129.5s59.5 60.5 97.5 78.5h6c1.33301 0 2.83301 0.166992 4.5 0.5s3.16699 0.5 4.5 0.5c20 0 40.333 -2.83301 61 -8.5
s40 -14.334 58 -26.001s33.667 -26.5 47 -44.5s23 -39 29 -63c1.33301 -7.33301 3 -13.666 5 -18.999s3.66699 -10 5 -14l-5 -3c0 -6 0.166992 -10.333 0.5 -13s0.833008 -5.66699 1.5 -9l9 -61c0 -5.33301 -3 -17.333 -9 -36c17.333 -6 26 -11 26 -15
c0 -2 -1.33301 -7.5 -4 -16.5s-4 -17.167 -4 -24.5v-2c-7.33301 -19.333 -15.833 -37.5 -25.5 -54.5s-20.834 -33.5 -33.501 -49.5c-4 4 -8.33301 8.66699 -13 14s-9.66699 10.666 -15 15.999z" />
    <glyph glyph-name="R" unicode="R" horiz-adv-x="558" 
d="M539 9c9.33301 6 16.001 12.0088 20.001 18.0088s7 12.667 9 20h-1l6 15c-38 32 -71.833 63.5 -101.5 94.5s-56 60.667 -79 89s-43 54.833 -60 79.5l-45.5 66l1 -1c-1.33301 2 -2.5 4 -3.5 6s-2.16699 4 -3.5 6v10c7.33301 4 18.166 8.5 32.499 13.5s29.5 10 45.5 15
s31.5 10.333 46.5 16s26.833 11.167 35.5 16.5c36 26 65.333 54 88 84c-9.33301 29.333 -21.666 55.166 -36.999 77.499s-35.666 42.166 -60.999 59.499s-57 32.666 -95 45.999s-84.333 26 -139 38c-17.333 3.33301 -35 7 -53 11s-34.333 8 -49 12
c-22 -6.66699 -35.667 -17.834 -41 -33.501s-8 -33.167 -8 -52.5v-37c6 -16 9 -39 9 -69c0 -8 -0.5 -17.333 -1.5 -28l-3 -33.5c-1 -11.667 -1.83301 -23.5 -2.5 -35.5s-1 -23.333 -1 -34c0 -18 1.16699 -34.667 3.5 -50s6.16602 -29 11.499 -41
c-13.333 -22.667 -20 -47.334 -20 -74.001c0 -7.33301 1.16699 -18 3.5 -32l7.5 -44.5l7.5 -45c2.33301 -14.333 3.5 -25.5 3.5 -33.5c-20.667 -14 -31 -34.667 -31 -62v-18c0.666992 -3.33301 1 -6.33301 1 -9v-5c0 -10.667 -2.33301 -22 -7 -34l25 -29
c6.66699 -2 13.334 -3.33301 20.001 -4s14 -1 22 -1c13.333 0 26 1.83301 38 5.5s24.333 9.16699 37 16.5c0.666992 8.66699 1 18.667 1 30v34c0 10 -0.333008 25.667 -1 47s-1.33398 43.833 -2.00098 67.5s-1.33398 46.167 -2.00098 67.5s-1 37 -1 47v36
c9.33301 -1.33301 17.833 -3.83301 25.5 -7.5s15.5 -8.83398 23.5 -15.501s16.5 -15.5 25.5 -26.5s19.5 -24.833 31.5 -41.5c23.333 -34.667 44 -58.667 62 -72c7.33301 -1.33301 13 -6.33301 17 -15s8.33301 -19.334 13 -32.001s10.5 -25.834 17.5 -39.501
s17.5 -26.167 31.5 -37.5c9.33301 -7.33301 17.5 -14.833 24.5 -22.5l19.5 -20.5c6 -6 11.833 -11 17.5 -15s11.5 -6 17.5 -6c2.66699 0 6 0.666992 10 2s8.66699 3 14 5h-1c4 1.33301 7.66699 2.66602 11 3.99902s6 2 8 2h7zM172.001 464.009l-9.00098 -3.00098
c0.666992 4.66699 1 10 1 16v20c0 12 -0.5 25.833 -1.5 41.5s-1.5 32.167 -1.5 49.5c0 32.667 4.66699 58.334 14 77.001c21.333 -2.66699 40.833 -4.66699 58.5 -6s35.334 -5 53.001 -11s36.667 -15.333 57 -28s43.833 -31.667 70.5 -57
c-64.667 -29.333 -116 -51.5 -154 -66.5s-67.333 -25.833 -88 -32.5z" />
    <glyph glyph-name="S" unicode="S" horiz-adv-x="413" 
d="M344 660c20.667 6 36.6709 19.166 48.0039 39.499s19.666 47.166 24.999 80.499c-7.33301 1.33301 -15 3.16602 -23 5.49902s-16 4.5 -24 6.5s-15.167 4 -21.5 6l-15.5 5l-115 -108c-16.667 -16 -30.167 -30 -40.5 -42l-28.5 -34.5l-27 -33
c-9.33301 -11 -21.333 -23.167 -36 -36.5c-8 -8 -14 -15.667 -18 -23s-6 -15.666 -6 -24.999c0 -11.333 5.5 -23.666 16.5 -36.999s24 -26.666 39 -39.999s30.333 -25.833 46 -37.5l37.5 -28.5l33 -24.5c10.667 -7.66699 20.334 -15.167 29.001 -22.5l6 -38
c-8 -16 -18.333 -30.167 -31 -42.5s-26.667 -23.666 -42 -33.999s-31.5 -20 -48.5 -29l-50.5 -25.5c-26.667 -18.667 -46.334 -37.834 -59.001 -57.501s-19 -39.167 -19 -58.5v-17c9.33301 -3.33301 17.166 -5.66602 23.499 -6.99902s11.833 -2 16.5 -2
c21.333 0 40.5 5.83301 57.5 17.5s37.167 27.5 60.5 47.5l21 18c4 4 8.33301 7.16699 13 9.5s9.16699 4.83301 13.5 7.5s8.5 5.66699 12.5 9s7.66699 8.66602 11 15.999s8.16602 13.666 14.499 18.999s13.166 10 20.499 14c1.33301 6.66699 7.33301 13.667 18 21
s22.167 15.833 34.5 25.5s23.5 20.834 33.5 33.501s15.333 27 16 43c-11.333 20 -24.5 39.667 -39.5 59s-30.833 38 -47.5 56s-34 35 -52 51s-35.667 30.333 -53 43c6.66699 6.66699 16.167 17 28.5 31l39 46l40.5 50c13.333 16.667 24.333 31 33 43h10z" />
    <glyph glyph-name="T" unicode="T" horiz-adv-x="673" 
d="M662 694c0 4 0.336914 6.32617 1.00391 6.99316l5 23c2 9.33301 3 16 3 20c0 10 -2.33301 17.833 -7 23.5s-10.667 9.83398 -18 12.501s-15.833 4.33398 -25.5 5.00098s-19.5 1 -29.5 1c-6.66699 0 -17.834 -0.666992 -33.501 -2s-32.5 -3 -50.5 -5
s-35.667 -3.66699 -53 -5s-30.666 -2 -39.999 -2h-8c-18.667 5.33301 -41.5 7.83301 -68.5 7.5s-60.5 0.166992 -100.5 1.5c-36 1.33301 -67.167 3.33301 -93.5 6s-48.166 5.66699 -65.499 9h1c-5.33301 1.33301 -11.333 2.33301 -18 3s-11.667 1.33398 -15 2.00098
c-16.667 -36 -25 -63.333 -25 -82c0 -19.333 4 -31.333 12 -36s17 -7 27 -7h11c9.33301 -3.33301 17.333 -3.16602 24 0.500977s10.667 5.5 12 5.5c0.666992 0 1.5 -0.166992 2.5 -0.5s2.16699 -0.5 3.5 -0.5c14 -2 25.333 -3.33301 34 -4l19.5 -1.5
c4.33301 -0.333008 7.16602 -0.333008 8.49902 0l2 0.5h25c27.333 0 50.666 -2.66699 69.999 -8c-1.33301 -4.66699 -2.66602 -9.83398 -3.99902 -15.501l-4 -16.5c-1.33301 -3.33301 -2.16602 -7 -2.49902 -11s-0.833008 -6.66699 -1.5 -8c16 -36 24 -75.667 24 -119
c0 -10.667 -0.666992 -25.167 -2 -43.5s-2.83301 -37.166 -4.5 -56.499l-4.5 -54c-1.33301 -16.667 -2.33301 -28.334 -3 -35.001c1.33301 -9.33301 2.33301 -19.833 3 -31.5s1 -24.5 1 -38.5c0 -9.33301 -0.166992 -20.166 -0.5 -32.499s-0.833008 -25 -1.5 -38
s-1.16699 -25.667 -1.5 -38s-0.5 -23.166 -0.5 -32.499v-24c0 -22.667 1.83301 -40.667 5.5 -54s15.167 -20 34.5 -20l21 3c3.33301 0.666992 6.5 1.16699 9.5 1.5s5.16699 0.5 6.5 0.5s3.16602 -0.166992 5.49902 -0.5s5.83301 -1.16602 10.5 -2.49902
c17.333 24.667 28 52.5 32 83.5s6.66699 64.5 8 100.5c3.33301 10 5.83301 20.167 7.5 30.5s2.5 21.166 2.5 32.499c0 7.33301 -0.833008 18.333 -2.5 33s-3.5 29.667 -5.5 45v-1l-6 42.5c-2 13.667 -3 23.167 -3 28.5c0 17.333 2.33301 33.166 7 47.499s7 30.5 7 48.5
c0 6.66699 -0.833008 16.167 -2.5 28.5l-5 38c-1.66699 13 -3.33398 25.333 -5.00098 37s-2.5 19.834 -2.5 24.501c0 18.667 3.66699 35.334 11 50.001l63 5c14.667 5.33301 32.667 8 54 8c5.33301 0 11.666 -0.333008 18.999 -1s15 -1.16699 23 -1.5
s15.667 -0.833008 23 -1.5s14 -1 20 -1c9.33301 0 17.666 0.333008 24.999 1s14.666 2.33398 21.999 5.00098z" />
    <glyph glyph-name="U" unicode="U" horiz-adv-x="593" 
d="M558 380l-0.00390625 26.002c0 1.33301 -0.166992 3 -0.5 5s-0.5 4 -0.5 6c0 18.667 2.33301 44.334 7 77.001l15 103l15 104.5c4.66699 33.667 7 60.834 7 81.501c-17.333 6 -34.666 10.333 -51.999 13s-34.666 4 -51.999 4h-13c-14.667 -2 -26.334 -4 -35.001 -6
s-15.167 -4.33301 -19.5 -7s-7.16602 -6 -8.49902 -10s-2 -9 -2 -15c0 -5.33301 0.333008 -9.33301 1 -12c-1.33301 -3.33301 -2 -8.33301 -2 -15c0 -5.33301 2 -12 6 -20s10.667 -17 20 -27c5.33301 -7.33301 8 -13 8 -17c0 -12 -0.666992 -24.833 -2 -38.5
s-2 -27.167 -2 -40.5c0 -10 0.333008 -25.333 1 -46s1.16699 -42.334 1.5 -65.001s0.833008 -44.334 1.5 -65.001s1 -36 1 -46c0 -19.333 -0.666992 -39.833 -2 -61.5s-3 -44.167 -5 -67.5c-18 -32 -32.167 -55.833 -42.5 -71.5s-20.333 -26.834 -30 -33.501
s-21 -10.667 -34 -12l-56.5 -6c-26 1.33301 -47.833 5.66602 -65.5 12.999s-30.5 17.666 -38.5 30.999c-4 19.333 -7.83301 43.833 -11.5 73.5s-7 61.334 -10 95.001s-5.5 67.834 -7.5 102.501s-4 66.834 -6 96.501l-5 76.5c-1.33301 21.333 -2.33301 35.666 -3 42.999v6
c0 4 0.666992 10 2 18s2.83301 16.333 4.5 25s3.16699 17.167 4.5 25.5s2 14.5 2 18.5c0 6 -0.666992 12 -2 18s-4 13.667 -8 23l-96 -22c-6.66699 -48.667 -11.5 -90.667 -14.5 -126s-4.5 -64.666 -4.5 -87.999v-12c12.667 -32 19 -72.667 19 -122
c0 -6 -0.166992 -15.667 -0.5 -29s-0.833008 -27.5 -1.5 -42.5s-1.16699 -29.833 -1.5 -44.5s-0.5 -26.334 -0.5 -35.001c0 -36.667 4 -71 12 -103s21.667 -59.667 41 -83s45.333 -41.833 78 -55.5s73.667 -20.5 123 -20.5c24.667 0 46.5 1.16699 65.5 3.5
s36 7.16602 51 14.499s28.5 17.5 40.5 30.5s23.667 30.167 35 51.5c6 12 11.333 21 16 27s8.83398 12.333 12.501 19s7 15.334 10 26.001s6.5 26.667 10.5 48c2 12.667 4.5 26 7.5 40s5.83301 28.167 8.5 42.5s4.83398 28.166 6.50098 41.499s2.16699 25.333 1.5 36z" />
    <glyph glyph-name="V" unicode="V" horiz-adv-x="619" 
d="M570 656c0.666992 1.33301 3.65918 5.33008 8.99219 11.9971l17.5 23c6.33301 8.66699 12.333 17.667 18 27s9.16699 17.333 10.5 24c-17.333 31.333 -38.666 47 -63.999 47h-8c-18.667 -7.33301 -33.667 -16.666 -45 -27.999s-20.666 -24.666 -27.999 -39.999
s-13.833 -32.833 -19.5 -52.5l-18.5 -64.5h1c-3.33301 -8.66699 -6.16602 -18 -8.49902 -28s-5.16602 -20 -8.49902 -30s-7 -19 -11 -27s-9 -14.333 -15 -19c-4 -15.333 -8.83301 -29.166 -14.5 -41.499l-17 -38c-5.66699 -13 -11 -27.5 -16 -43.5
s-8.83301 -35.667 -11.5 -59v1c-6 -26 -14.333 -47 -25 -63c-20 40 -35.167 75.333 -45.5 106s-19.333 60.5 -27 89.5l-24 89c-8.33301 30.333 -20.166 64.833 -35.499 103.5l-31 79c-10 25.333 -15 47.333 -15 66c-10 0 -16.5 -0.5 -19.5 -1.5s-4.83301 -2.16699 -5.5 -3.5
c-7.33301 7.33301 -16.166 11.833 -26.499 13.5s-19.166 2.5 -26.499 2.5c-20.667 0 -37.667 -8.66699 -51 -26c6.66699 -14.667 10.5 -30 11.5 -46s2.5 -30.833 4.5 -44.5s6.66699 -25.334 14 -35.001s21.333 -15.167 42 -16.5c64 -149.333 118 -321.666 162 -516.999
c6 -11.333 9.33301 -23.166 10 -35.499s2.33398 -24 5.00098 -35s8.16699 -20.833 16.5 -29.5s23.5 -14.334 45.5 -17.001l55.5 139.5l63 165.5l66 177l64.5 173z" />
    <glyph glyph-name="W" unicode="W" horiz-adv-x="894" 
d="M750 688l-38.0039 -66.999c-7.33301 -13.333 -15.166 -30.833 -23.499 -52.5s-16.166 -43.834 -23.499 -66.501l-19.5 -62.5c-5.66699 -19 -9.83398 -31.833 -12.501 -38.5c-9.33301 -12 -17.333 -25.167 -24 -39.5s-12.667 -28.5 -18 -42.5l-15.5 -40.5
c-5 -13 -10.833 -24.5 -17.5 -34.5c-2.66699 14.667 -6.83398 33.334 -12.501 56.001l-17.5 71l-17.5 72.5c-5.66699 23.667 -9.83398 43.834 -12.501 60.501c4 5.33301 8 12.833 12 22.5l12 30l11.5 29c3.66699 9 7.5 15.833 11.5 20.5c10.667 12.667 20 25.667 28 39
l23 40l22.5 39.5c7.66699 13 16.834 25.833 27.501 38.5c-17.333 0 -29.833 0.333008 -37.5 1s-14.167 1.5 -19.5 2.5s-10.833 1.83301 -16.5 2.5s-14.5 1 -26.5 1c-10 0 -20.167 -6 -30.5 -18s-20.166 -26.333 -29.499 -43s-17.833 -34 -25.5 -52s-13.834 -33 -18.501 -45
c-7.33301 12.667 -14.166 27.5 -20.499 44.5l-19.5 52c-6.66699 17.667 -13.834 34.667 -21.501 51s-16.167 30.5 -25.5 42.5c-19.333 -4 -38.666 -9.66699 -57.999 -17s-38.666 -17.333 -57.999 -30c4.66699 -16.667 13.167 -36.167 25.5 -58.5s25.833 -44.333 40.5 -66
l42.5 -60c13.667 -18.333 24.167 -31.5 31.5 -39.5l-10 -3c8 -15.333 12 -30.666 12 -45.999c0 -9.33301 -2.83301 -22 -8.5 -38s-12 -32.333 -19 -49l-20.5 -47.5c-6.66699 -15 -11 -26.5 -13 -34.5c-6.66699 -13.333 -12.167 -24.833 -16.5 -34.5
s-8.16602 -17.834 -11.499 -24.501l-18.5 50.5c-6.33301 17.667 -12.166 35.167 -17.499 52.5s-10.166 33.833 -14.499 49.5s-7.5 29.5 -9.5 41.5l-12 64c-3.33301 17.333 -8.16602 33.666 -14.499 48.999s-12.833 29.833 -19.5 43.5s-12.334 27 -17.001 40
s-7.33398 25.833 -8.00098 38.5c-0.666992 16.667 -2 30.667 -4 42s-5.16699 20.666 -9.5 27.999s-9.66602 13.5 -15.999 18.5s-14.5 9.5 -24.5 13.5l-26.5 -5.5c-8.33301 -1.66699 -16.333 -3.83398 -24 -6.50098s-15 -6 -22 -10s-13.5 -10 -19.5 -18
c4.66699 -37.333 13 -71.333 25 -102s25.667 -62.834 41 -96.501s31.333 -71.667 48 -114s32.667 -93.833 48 -154.5c15.333 -62.667 30.166 -117.5 44.499 -164.5s29.166 -87.5 44.499 -121.5l93 193.5l71 148.5c4.66699 -10 10 -22.167 16 -36.5l17.5 -42l14.5 -36
c4 -10.333 6.33301 -16.166 7 -17.499c4 -13.333 6.66699 -23.666 8 -30.999s2 -14.666 2 -21.999c0 -6.66699 -0.333008 -14.167 -1 -22.5s-1 -19.833 -1 -34.5c0 -19.333 1.16699 -35 3.5 -47s6.33301 -21.333 12 -28s13 -11.167 22 -13.5s20.5 -3.5 34.5 -3.5
c14.667 25.333 26.5 48.833 35.5 70.5s17.5 43.5 25.5 65.5l24.5 69c8.33301 24 19.5 51 33.5 81c9.33301 22 16.833 42 22.5 60s9.5 33.667 11.5 47c46 51.333 80.333 116.333 103 195c36.667 30.667 55 63.334 55 98.001c0 4.66699 -0.666992 9.66699 -2 15l19 28
c-9.33301 15.333 -18.666 25.666 -27.999 30.999s-18 8 -26 8c-11.333 0 -20.5 -2.83301 -27.5 -8.5s-10.833 -8.83398 -11.5 -9.50098zM421.996 351.001l-2 3c0 0.666992 0.666992 -0.333008 2 -3z" />
    <glyph glyph-name="X" unicode="X" horiz-adv-x="549" 
d="M524 725l-2.99902 -0.000976562c1.33301 4.66699 2.66602 9.83398 3.99902 15.501s2.66602 12.167 3.99902 19.5l-16 22l-88 1c-10.667 -10 -20 -22.833 -28 -38.5s-15.833 -32 -23.5 -49s-15.834 -33.667 -24.501 -50s-19 -30.166 -31 -41.499c14 -10 21 -17.333 21 -22
c0 -2 -1.83301 -7.5 -5.5 -16.5l-13 -30.5l-16 -35.5c-5.66699 -12.333 -10.834 -22.833 -15.501 -31.5c-9.33301 17.333 -17.666 34.666 -24.999 51.999l-21.5 50c-7 16 -14 31 -21 45s-14.833 26 -23.5 36c-14 16.667 -24.5 31.834 -31.5 45.501l-18.5 35
c-5.33301 9.66699 -11 17.167 -17 22.5s-15 8 -27 8c-13.333 0 -28.5 -3.16699 -45.5 -9.5s-33.833 -9.5 -50.5 -9.5c6.66699 -40.667 28.667 -82.667 66 -126c11.333 -2 21.333 -7.66699 30 -17s16 -19.333 22 -30s11 -20.667 15 -30s6.66699 -15 8 -17
c1.33301 -6 6.66602 -15.167 15.999 -27.5l30.5 -40c11 -14.333 20.833 -28.666 29.5 -42.999s13 -26.166 13 -35.499c0 -4 -3.66699 -12.667 -11 -26l-25.5 -44.5l-29.5 -49.5c-10 -16.667 -17.667 -30.334 -23 -41.001l-17 -36c0 -5.33301 -2.33301 -10.666 -7 -15.999
s-10.167 -10.5 -16.5 -15.5s-12.666 -9.33301 -18.999 -13s-11.166 -6.83398 -14.499 -9.50098c0 -16.667 -3 -35.834 -9 -57.501s-9 -42.834 -9 -63.501c14.667 0 28.5 -1.16699 41.5 -3.5s24.833 -3.5 35.5 -3.5c25.333 0 43.333 12 54 36v6
c0 1.33301 1.33301 3.83301 4 7.5s5.66699 7.5 9 11.5s6.33301 8.33301 9 13s4 8.66699 4 12c0 6 -2 11.667 -6 17l82 152l39.5 -65.5l45 -77.5l43 -73.5c13.667 -23 25.167 -40.833 34.5 -53.5c29.333 0 52.5 0.333008 69.5 1s31.167 3 42.5 7
c-52.667 72 -97.167 139.667 -133.5 203s-64.833 124 -85.5 182c27.333 56 52 108.667 74 158l61 142c18.667 8 33.334 24.333 44.001 49z" />
    <glyph glyph-name="Y" unicode="Y" horiz-adv-x="576" 
d="M255 30c0 -19.333 3.49316 -32.834 10.4932 -40.501s20.167 -11.5 39.5 -11.5h7c4 0 7.66699 0.333008 11 1h16c4.66699 0 8.5 -0.166992 11.5 -0.5s6.16699 -1.16602 9.5 -2.49902c31.333 1.33301 47 12.666 47 33.999c0 2.66699 -0.166992 4.33398 -0.5 5.00098l-1.5 3
v3c-22 88 -33 199.333 -33 334l-1 4v32c0 11.333 -0.333008 21.666 -1 30.999c14.667 24 28.834 49.667 42.501 77l39.5 78.5c12.667 25 24.667 47.167 36 66.5s21.666 32.666 30.999 39.999h4c11.333 0 20.166 1.83301 26.499 5.5s11.166 9 14.499 16
s5.66602 15.5 6.99902 25.5s2.66602 21.667 3.99902 35v-1c0 3.33301 0.333008 8.16602 1 14.499s1.33398 11.166 2.00098 14.499c-20.667 2 -37.167 3.33301 -49.5 4s-19.166 1 -20.499 1c-28 0 -49.667 -5.66699 -65 -17l-69 -142v1l-32.5 -61l-29.5 -53
c-2 4.66699 -3.16699 7.83398 -3.5 9.50098s-1.16602 4.16699 -2.49902 7.5s-3.66602 8.5 -6.99902 15.5s-9.33301 17.5 -18 31.5l-29 49.5c-11.333 19 -23.833 38.167 -37.5 57.5s-28 38 -43 56s-30.167 33 -45.5 45c-7.33301 -2 -13 -3 -17 -3
c-8.66699 0 -19 0.833008 -31 2.5s-19.333 2.5 -22 2.5c-5.33301 0 -10.666 -0.666992 -15.999 -2s-12.666 -4 -21.999 -8v-12c0 -3.33301 0.666992 -6.33301 2 -9v1c0.666992 -2.66699 1 -5 1 -7c0 -2.66699 -0.666992 -7.5 -2 -14.5l-5 -27.5
c16.667 -8.66699 30.834 -16.667 42.501 -24s22.834 -16.666 33.501 -27.999s21.834 -25.666 33.501 -42.999l44.5 -69c8.66699 -14.667 17.834 -27.5 27.501 -38.5l27.5 -30l23.5 -25c7 -7.66699 12.167 -15.5 15.5 -23.5l2 -141
c0.666992 -31.333 2.33398 -62.666 5.00098 -93.999s5.66699 -64 9 -98c-15.333 -18.667 -23 -44.667 -23 -78z" />
    <glyph glyph-name="Z" unicode="Z" horiz-adv-x="687" 
d="M668 19l6.49414 31c2.33301 11.333 4.5 22.5 6.5 33.5l5.5 30c1.66699 9 2.83398 16.167 3.50098 21.5l-73 2c-59.333 -16 -124.666 -24 -195.999 -24c-6.66699 0 -27.5 0.833008 -62.5 2.5s-85.167 4.5 -150.5 8.5c9.33301 11.333 19 24.833 29 40.5
s18.667 34.167 26 55.5h1c25.333 45.333 59.5 101 102.5 167l157.5 233c20.667 11.333 38.334 30.333 53.001 57s31.334 58.667 50.001 96c-67.333 14.667 -120.333 22 -159 22h-17c-5.33301 0 -10.333 -0.333008 -15 -1l-21 -10h-20c-12 0 -27 0.166992 -45 0.5
s-37.833 0.833008 -59.5 1.5s-43.167 1.66699 -64.5 3s-41.333 2.83301 -60 4.5s-33.667 3.83398 -45 6.50098c-7.33301 -2.66699 -13.5 -6.16699 -18.5 -10.5s-12.167 -7.16602 -21.5 -8.49902h-8c-3.33301 0 -6.16602 0.166992 -8.49902 0.5s-4.5 0.5 -6.5 0.5h-8
c-10.667 0 -16.834 -2.16699 -18.501 -6.5s-2.5 -10.5 -2.5 -18.5v-3c0 -4 0.666992 -9.5 2 -16.5s2.83301 -14 4.5 -21l4.5 -19.5c1.33301 -6 2 -9.66699 2 -11c0 -4 -2.33301 -10.333 -7 -19l20 -20l40 3c30 3.33301 58.5 7 85.5 11s49.167 12.667 66.5 26
c10 3.33301 19 5 27 5s14.5 -0.833008 19.5 -2.5l15 -5c5 -1.66699 10.5 -3.33398 16.5 -5.00098s13.333 -2.5 22 -2.5c2 0 5.5 0.166992 10.5 0.5s10.5 0.5 16.5 0.5s11.833 0.166992 17.5 0.5s10.5 0.5 14.5 0.5c4.66699 0 10.334 -0.666992 17.001 -2l-10 -29
c-9.33301 -8.66699 -20 -21.5 -32 -38.5l-37 -53.5c-12.667 -18.667 -25.167 -36.167 -37.5 -52.5s-23.166 -28.5 -32.499 -36.5c-10.667 -14.667 -23.667 -34.334 -39 -59.001l-48.5 -80.5l-52 -90l-50 -87l-41.5 -71.5l-26 -44l48 -35c1.33301 0 6 0.166992 14 0.5
s18 1.5 30 3.5s22 4.66699 30 8c14 -1.33301 29.167 -2.5 45.5 -3.5s34.166 -1.5 53.499 -1.5c12.667 0 31.167 0.666992 55.5 2s49.333 2.83301 75 4.5s50 3.16699 73 4.5s39.5 2 49.5 2c18 -7.33301 37 -11 57 -11c4.66699 0 11.334 0.5 20.001 1.5s18 2.16699 28 3.5
s19.667 2.5 29 3.5s17.333 1.5 24 1.5h19z" />
    <glyph glyph-name="bracketleft" unicode="[" horiz-adv-x="314" 
d="M280 16l9.00098 125c-18.667 -8.66699 -36.834 -15.167 -54.501 -19.5s-36.167 -6.5 -55.5 -6.5h-15c2 6 3 13.667 3 23c0 25.333 -8.66699 57.333 -26 96c0 4 1.16699 12.5 3.5 25.5l7.5 43.5c2.66699 16 5.16699 32 7.5 48s3.5 29.667 3.5 41
c0 5.33301 -0.166992 10.166 -0.5 14.499s-0.833008 8.83301 -1.5 13.5l-16 88v-1c-0.666992 3.33301 -1 8.33301 -1 15v23c0 10 0.166992 19.333 0.5 28s0.666016 18.5 0.999023 29.5s0.833008 23.833 1.5 38.5s1.33398 32.667 2.00098 54l88 -11l39 46v71l-238 -23v-30
c0 -3.33301 0.166992 -6.83301 0.5 -10.5s0.5 -7.16699 0.5 -10.5c0 -20 -0.5 -37 -1.5 -51s-2.5 -29.167 -4.5 -45.5s-4.16699 -36 -6.5 -59s-4.83301 -53.5 -7.5 -91.5c3.33301 -12 8 -22.667 14 -32s9 -17 9 -23c0 -12 0.333008 -30.167 1 -54.5s1.5 -49.5 2.5 -75.5
s1.83301 -50.667 2.5 -74s1 -40.333 1 -51c0 -26.667 -1 -52.667 -3 -78s-5.66699 -50.666 -11 -75.999c45.333 -6.66699 80.5 -11.5 105.5 -14.5s41.167 -4.5 48.5 -4.5c28 0 55.667 3 83 9z" />
    <glyph glyph-name="backslash" unicode="\" horiz-adv-x="374" 
d="M122 431c10.667 -20.667 20 -39.6709 28 -57.0039s14.667 -34 20 -50s9.16602 -31.5 11.499 -46.5s3.5 -30.5 3.5 -46.5v-15l84 -167c-2 -2 -3 -6.33301 -3 -13c0.666992 -3.33301 3 -7.33301 7 -12s8.83301 -9.16699 14.5 -13.5s11.834 -8.16602 18.501 -11.499
s13.667 -5 21 -5c-2 0 0 0.166992 6 0.5s12.667 1.83301 20 4.5s14.333 6.83398 21 12.501s10 14.167 10 25.5c0 4.66699 -1.66699 11 -5 19s-7.16602 16.5 -11.499 25.5l-12.5 26c-4 8.33301 -6.66699 15.5 -8 21.5c-2 3.33301 -8.33301 17.5 -19 42.5l-39.5 93.5
l-51 123.5l-53.5 133l-47 122.5c-14 38 -24.333 68.667 -31 92c0.666992 1.33301 1 3 1 5c-1.33301 5.33301 -6 13 -14 23s-17.333 20 -28 30s-21.334 18.667 -32.001 26s-18.667 11 -24 11l-17 -2c1.33301 -47.333 8.83301 -93.666 22.5 -138.999
s29.5 -89.666 47.5 -132.999l-2 -3c4.66699 -12 12 -27.833 22 -47.5z" />
    <glyph glyph-name="bracketright" unicode="]" horiz-adv-x="314" 
d="M25 769l-8.00293 -126.008c34.667 17.333 71.334 26 110.001 26h14c-1.33301 -3.33301 -2 -6.66602 -2 -9.99902v-12c0 -12.667 1.83301 -27.167 5.5 -43.5s10.167 -34.166 19.5 -53.499c0 -4 -1.16699 -12.333 -3.5 -25s-4.83301 -27 -7.5 -43
s-5.16699 -32.167 -7.5 -48.5s-3.5 -30.166 -3.5 -41.499c0 -5.33301 0.166992 -10 0.5 -14s0.833008 -8.33301 1.5 -13l16 -89v1c0.666992 -3.33301 1 -8.33301 1 -15v-23c0 -9.33301 -0.166992 -18.666 -0.5 -27.999s-0.666016 -19.833 -0.999023 -31.5
s-0.833008 -24.667 -1.5 -39s-1.33398 -31.166 -2.00098 -50.499l-88 10l-39 -45v-72l238 24v29c0 4 -0.166992 7.83301 -0.5 11.5s-0.5 7.16699 -0.5 10.5c0 20 0.5 37.167 1.5 51.5s2.33301 29.833 4 46.5s3.83398 36.334 6.50098 59.001s5.66699 52.334 9 89.001
c-8 17.333 -14 38.5 -18 63.5s-7 51.667 -9 80s-3.16699 57 -3.5 86s-0.5 56.167 -0.5 81.5c0 26 1.16699 51.833 3.5 77.5s5.83301 51.167 10.5 76.5c-44.667 6.66699 -79.667 11.334 -105 14.001s-41.666 4 -48.999 4c-14 0 -27.833 -0.666992 -41.5 -2
s-27.167 -3.33301 -40.5 -6z" />
    <glyph glyph-name="asciicircum" unicode="^" horiz-adv-x="479" 
d="M414 346l-3.00195 2.99707c-15.333 32 -29.833 64.667 -43.5 98l-42.5 99c-44 96.667 -89 160.667 -135 192c-13.333 -4 -23.666 -10 -30.999 -18s-13.166 -16.167 -17.499 -24.5s-7.83301 -15.833 -10.5 -22.5s-5.33398 -10.667 -8.00098 -12l-11 -21
c-4.66699 -8.66699 -9.33398 -16.667 -14.001 -24h1c-7.33301 -11.333 -13.666 -22.166 -18.999 -32.499s-8 -20.5 -8 -30.5c-8 -13.333 -17.667 -36.666 -29 -69.999s-23.666 -77.333 -36.999 -132h1c-1.33301 -3.33301 -2 -6.66602 -2 -9.99902
c0 -19.333 11.667 -29 35 -29l35 7c10 11.333 19.667 24.166 29 38.499s17.666 28.166 24.999 41.499s13.333 25.5 18 36.5s7 18.5 7 22.5l5 29c0 8.66699 1.33301 18.334 4 29.001s10.667 25.667 24 45c2 9.33301 3.83301 17.5 5.5 24.5s3.16699 13.833 4.5 20.5
c15.333 -25.333 32.333 -61.166 51 -107.499l64 -163.5l2 -4c13.333 -13.333 27.666 -20 42.999 -20c4 0 9 2.16699 15 6.5s13.667 6.5 23 6.5h10l13 16v0c0.666992 0 1.33398 0.333008 2.00098 1h-3c-1.33301 0.666992 -2.16602 1.16699 -2.49902 1.5l-0.5 0.5v3z" />
    <glyph glyph-name="underscore" unicode="_" horiz-adv-x="587" 
d="M20 14c38 -6 71.834 -10.6689 101.501 -14.002s55.167 -5 76.5 -5c6.66699 0 11.667 0.666992 15 2l112 10c4.66699 0 10.167 0.166992 16.5 0.5s14.166 0.5 23.499 0.5c15.333 0 30.833 -0.166992 46.5 -0.5s30 -0.666016 43 -0.999023s23.833 -0.666016 32.5 -0.999023
s14 -0.5 16 -0.5c22.667 8 34 19.667 34 35c0 13.333 -9.33301 27.333 -28 42h-7c-0.666992 0 -1.66699 -0.166992 -3 -0.5s-3.83301 -0.666016 -7.5 -0.999023s-9.83398 -0.833008 -18.501 -1.5h-10c-6 -0.666992 -11.333 -1 -16 -1h-15c-16 7.33301 -39.333 11 -70 11h-15
c-4 0 -8.33301 -0.333008 -13 -1l-126 -8h1c-2 0 -6.16699 0.166992 -12.5 0.5s-13.166 0.666016 -20.499 0.999023l-21.5 1c-7 0.333008 -12.5 0.5 -16.5 0.5c-10.667 0 -20.667 -0.166992 -30 -0.5s-18 -0.5 -26 -0.5h-61c-16.667 -19.333 -25 -33 -25 -41
c0 -10.667 6.33301 -19 19 -25z" />
    <glyph glyph-name="grave" unicode="`" horiz-adv-x="265" 
d="M74 707c-24.667 -5.33301 -42.9971 -12.333 -54.9971 -21s-18 -20.667 -18 -36c0 -6.66699 1.66699 -12.834 5 -18.501s7.66602 -10.667 12.999 -15s11.166 -7.66602 17.499 -9.99902s12.166 -3.5 17.499 -3.5h7l96 -47l35 47z" />
    <glyph glyph-name="a" unicode="a" 
d="M283 369c-2.66699 0 -4.33594 0.330078 -5.00293 0.99707h1c-2 0.666992 -4.16699 0 -6.5 -2s-4.66602 -4.33301 -6.99902 -7s-4.83301 -5.16699 -7.5 -7.5s-5.33398 -3.5 -8.00098 -3.5c-9.33301 -3.33301 -17.333 -5 -24 -5s-12.667 -4.66699 -18 -14
c-11.333 -18 -26.166 -32.833 -44.499 -44.5l-53 -34c-17 -11 -31.667 -23.333 -44 -37s-18.5 -32.167 -18.5 -55.5l14 -36c1.33301 -6 5.16602 -15.5 11.499 -28.5s14 -26.667 23 -41s18.667 -27.833 29 -40.5s20.166 -21 29.499 -25h-1l7 -4.5
c2.66699 -1.66699 4.33398 -2.5 5.00098 -2.5v1l-1 1c12 -8 24.333 -15.667 37 -23s24.667 -11 36 -11c3.33301 0 6.33301 0.333008 9 1s5.66699 1.66699 9 3v1c6 2 10.167 5 12.5 9l7.5 13c2.66699 4.66699 5.83398 9.33398 9.50098 14.001s9.5 9 17.5 13l62.5 41
c21 14 39.667 28.5 56 43.5s29.666 30.833 39.999 47.5s15.5 34.334 15.5 53.001c0 14 -1 27 -3 39s-5.66699 25.333 -11 40s-12.833 31.334 -22.5 50.001s-22.167 41 -37.5 67l-1 -1c-6 16.667 -11.667 30.5 -17 41.5s-10.333 20.333 -15 28s-9 14 -13 19l-11 13.5l-10 10
c-2.66699 7.33301 -8 12.333 -16 15s-17.333 4 -28 4h-10c-2 0 -4 -0.166992 -6 -0.5s-4 -0.5 -6 -0.5h-17c-10.667 0 -18.167 0.833008 -22.5 2.5s-7.83301 3.66699 -10.5 6s-5.66699 4.33301 -9 6s-9 2.5 -17 2.5s-16 -0.666992 -24 -2s-15 -2 -21 -2h-10
c-28.667 0 -54 -14 -76 -42c1.33301 -27.333 6.83301 -45 16.5 -53s23.167 -12 40.5 -12c16.667 0 32.667 1.5 48 4.5s30.333 4.5 45 4.5c10 0 18.833 -0.833008 26.5 -2.5s14.834 -5 21.501 -10s12.834 -11.667 18.501 -20s11.834 -18.833 18.501 -31.5
c-4 2 -9 3.33301 -15 4zM363.998 214.997l3.99902 -15.001c2.66699 -4 4.16699 -6.83301 4.5 -8.5s0.333008 -3 0 -4s-1 -1.83301 -2 -2.5s-1.16699 -1.66699 -0.5 -3c-9.33301 -12 -19.833 -23.667 -31.5 -35s-23.334 -21.166 -35.001 -29.499s-23 -15.166 -34 -20.499
s-20.167 -8 -27.5 -8c-3.33301 0 -7 1 -11 3s-8 4.16699 -12 6.5s-7.5 4.66602 -10.5 6.99902l-4.5 3.5h1l-15.5 10.5c-4.33301 3 -7.83301 6.33301 -10.5 10s-4.83398 8 -6.50098 13s-3.16699 11.167 -4.5 18.5c5.33301 11.333 13.333 23 24 35s22.834 23.167 36.501 33.5
s28.834 19.333 45.501 27s33.667 12.834 51 15.501c3.33301 4 6 6.16699 8 6.5s3.66699 3.16602 5 8.49902c6.66699 -12.667 11.834 -24.5 15.501 -35.5s7.16699 -23.167 10.5 -36.5z" />
    <glyph glyph-name="b" unicode="b" horiz-adv-x="451" 
d="M455 270c-30 35.333 -68 67.1641 -114 95.4971s-101 54.166 -165 77.499c2 8 3 17.667 3 29c0 9.33301 -1.33301 21.5 -4 36.5l-8.5 46l-8.5 45c-2.66699 14.333 -4 25.166 -4 32.499c0 11.333 1.5 19.833 4.5 25.5s6.16699 10.334 9.5 14.001l9.5 10.5
c3 3.33301 4.5 8.33301 4.5 15c0 8 -2 17 -6 27h1c-1.33301 5.33301 -2.66602 10 -3.99902 14s-2 7.66699 -2 11v24c-0.666992 2 -1.5 4.66699 -2.5 8s-3.83301 9 -8.5 17c-8 -1.33301 -14.167 -3 -18.5 -5s-7.5 -3.83301 -9.5 -5.5s-3.83301 -3 -5.5 -4
s-3.83398 -1.5 -6.50098 -1.5l-3.5 1c-2.33301 0.666992 -4.83301 1.66699 -7.5 3h1c-11.333 4 -24.333 6.5 -39 7.5s-25 1.5 -31 1.5c-5.33301 -7.33301 -8.83301 -14.166 -10.5 -20.499s-2.5 -12.5 -2.5 -18.5l5 -29c1.33301 -6 2.33301 -11.667 3 -17
s1 -9.66602 1 -12.999v-7c3.33301 -7.33301 6.83301 -19 10.5 -35s5.5 -30.333 5.5 -43l2 -8c0.666992 -2.66699 1.83398 -6 3.50098 -10s4.16699 -7.66699 7.5 -11c-0.666992 -20.667 -1 -41 -1 -61v-61v-129c0 -48 -2.33301 -93.167 -7 -135.5
s-10.667 -82.166 -18 -119.499l2 -97c14 0 28.333 3 43 9s29 12.5 43 19.5l39.5 19.5c12.333 6 23.5 9.33301 33.5 10c9.33301 2.66699 16.666 8.5 21.999 17.5s8 17.5 8 25.5v1c4 -1.33301 7.66699 -2.66602 11 -3.99902c70 38 141.333 97.667 214 179v13zM259 206.998
c-2 -2 -3.66895 -3.33301 -5.00195 -4l-3 -3c-16.667 -15.333 -32.167 -28.333 -46.5 -39s-27.166 -18.667 -38.499 -24l-9 -2v7c0 6.66699 1 17.334 3 32.001l6 46l6 46.5c2 15 3 26.167 3 33.5c0 5.33301 -0.333008 11 -1 17s-1.66699 12 -3 18
c27.333 -6.66699 53.333 -15.834 78 -27.501s49 -26.167 73 -43.5l-38.5 -34.5c-10.333 -9 -18.166 -16.167 -23.499 -21.5z" />
    <glyph glyph-name="c" unicode="c" horiz-adv-x="419" 
d="M367 69l-0.999023 1.00293c-18.667 10 -37.834 21 -57.501 33s-37.167 25.333 -52.5 40c-2.66699 3.33301 -6.33398 7 -11.001 11l-14 12c-4.66699 4 -9.16699 7.5 -13.5 10.5s-7.16602 4.83301 -8.49902 5.5l5 -1c-15.333 11.333 -29.166 22.166 -41.499 32.499
s-18.5 19.166 -18.5 26.499v4c2.66699 4.66699 7.16699 10.334 13.5 17.001s16.333 15.5 30 26.5s32 25 55 42l88.5 63.5c15.333 7.33301 29.333 18 42 32s21.667 27.667 27 41c-1.33301 14.667 -6.83301 26.334 -16.5 35.001s-21.167 13 -34.5 13
c-4.66699 0 -12 -2.33301 -22 -7v1c-32.667 -16.667 -69.334 -43.334 -110.001 -80.001c-12 -6.66699 -25 -14.5 -39 -23.5s-25.667 -18.167 -35 -27.5c-1.33301 -5.33301 -6.33301 -12.166 -15 -20.499s-17.667 -16.333 -27 -24s-18 -14.334 -26 -20.001l-12 -8.5
c-2 -2.66699 -4.16699 -5.16699 -6.5 -7.5l-8.5 -8.5l-47 -47l81.5 -88c27 -28.667 50.833 -51.334 71.5 -68.001l1 3l8 -12c2 -0.666992 3.83301 -1.33398 5.5 -2.00098s4 -1.83398 7 -3.50098s7 -4.16699 12 -7.5l21.5 -14l59 -35c28 -9.33301 48 -19 60 -29v1l54 -49
c21.333 8 32 22.667 32 44c0 2 -0.333008 5.66699 -1 11s-1.16699 11 -1.5 17s-0.833008 11.667 -1.5 17s-1 9 -1 11l-16 -9c-2 1.33301 -5 4.33301 -9 9s-8.33301 9.33398 -13 14.001h14c-2.66699 1.33301 -6.66699 3.83301 -12 7.5zM168.001 97.0029l1 3v-3h-1z
M367.001 69.0029v-1h-1v1h1z" />
    <glyph glyph-name="d" unicode="d" horiz-adv-x="443" 
d="M19 257c36 -40 71.8359 -75.001 107.503 -105.001s71.5 -54.667 107.5 -74c1.33301 1.33301 2.66602 2 3.99902 2s2.66602 0.333008 3.99902 1c0 -10.667 2.33301 -19 7 -25s11.167 -11 19.5 -15s18.333 -8 30 -12s24.834 -9.33301 39.501 -16l46 -22
c15.333 -7.33301 31.666 -11 48.999 -11l2 97c-9.33301 54 -15.833 113 -19.5 177s-5.5 133 -5.5 207v123c3.33301 4 6.33301 9.5 9 16.5s5 12.833 7 17.5h-4c0 12 1.83301 25.5 5.5 40.5s7.16699 25.5 10.5 31.5v7c0 3.33301 0.333008 7.66602 1 12.999s1.66699 11 3 17
l5 29c0 6 -0.833008 12.167 -2.5 18.5s-5.16699 13.166 -10.5 20.499h-12c-5.33301 0 -11.333 -0.166992 -18 -0.5s-13.667 -1.16602 -21 -2.49902s-13.666 -3.33301 -18.999 -6c-2.66699 -1.33301 -4.83398 -2.33301 -6.50098 -3s-3.16699 -1 -4.5 -1
c-3.33301 0 -7.33301 2.16699 -12 6.5s-13.334 7.5 -26.001 9.5c-5.33301 -8.66699 -8.5 -14.5 -9.5 -17.5l-2.5 -7.5v-24c0 -7.33301 -1.83301 -15.666 -5.5 -24.999s-5.5 -18.333 -5.5 -27c0 -6 1.5 -11 4.5 -15s6.33301 -8 10 -12s7 -8.83301 10 -14.5
s4.5 -13.5 4.5 -23.5c0 -7.33301 -1.33301 -18.166 -4 -32.499s-5.66699 -29.5 -9 -45.5s-6.33301 -31.5 -9 -46.5s-4 -26.833 -4 -35.5v-16c0 -4.66699 0.666992 -9 2 -13c-64 -23.333 -119.167 -49.333 -165.5 -78s-83.833 -60 -112.5 -94v-14zM299.003 299.999
c0 -8 1.00098 -19.502 3.00098 -34.502l6.5 -46.5l6.5 -45.5c2 -14.333 3 -24.833 3 -31.5v-7l-9 1c-25.333 14 -54 35.333 -86 64v-1l-16 15.5l-15 13.5l-18 15.5c-6.66699 5.66699 -14.334 12.834 -23.001 21.501c24.667 17.333 49.167 31.833 73.5 43.5
s50.166 20.834 77.499 27.501c-1.33301 -6.66699 -2.16602 -13 -2.49902 -19s-0.5 -11.667 -0.5 -17z" />
    <glyph glyph-name="e" unicode="e" horiz-adv-x="450" 
d="M221 487c-1.33301 -2.66699 -2.66211 -5.16895 -3.99512 -7.50195s-3.33301 -5.16602 -6 -8.49902l-66 -42c-22.667 -14.667 -43.167 -30 -61.5 -46s-33.333 -32.833 -45 -50.5s-17.5 -36.167 -17.5 -55.5c0 -14.667 1 -28.167 3 -40.5s5.66699 -25.833 11 -40.5
s12.666 -31 21.999 -49s21.666 -40 36.999 -66c4 -16.667 10.5 -32.834 19.5 -48.501s18.5 -29.5 28.5 -41.5s19.333 -21.667 28 -29s14.667 -11 18 -11c6.66699 0 13.334 -2.16699 20.001 -6.5s11.667 -6.5 15 -6.5c2.66699 0 9.33398 -3 20.001 -9s23 -9.66699 37 -11h8
c14.667 0 28.5 3.5 41.5 10.5s25.167 18.167 36.5 33.5c-4.66699 13.333 -10.334 22.833 -17.001 28.5s-14.167 9.66699 -22.5 12s-17.333 4.33301 -27 6s-19.834 5.16699 -30.501 10.5s-21.5 13.5 -32.5 24.5s-21.833 27.5 -32.5 49.5
c-1.33301 1.33301 -2.66602 4 -3.99902 8c9.33301 -3.33301 19.166 -5.66602 29.499 -6.99902s17.166 -2 20.499 -2c6.66699 2 12 5.5 16 10.5s7.33301 10.333 10 16s5.33398 11 8.00098 16s6 8.83301 10 11.5c24 20 45.667 36 65 48s35.833 23 49.5 33
s24.167 20.667 31.5 32s11 26.333 11 45c0 2.66699 -0.833008 5.83398 -2.5 9.50098l-5 11c-1.66699 3.66699 -2.83398 6.66699 -3.50098 9s-0.333984 3.83301 0.999023 4.5c-4.66699 9.33301 -12 22.166 -22 38.499l-40 63.5h1c-6 10.667 -14.333 20.667 -25 30
s-21.834 17.333 -33.501 24s-23 12 -34 16s-19.833 6 -26.5 6c-5.33301 0 -10 -1 -14 -3v1c-7.33301 -1.33301 -13 -4.66602 -17 -9.99902s-7 -11 -9 -17zM135.004 249.998c0.666992 9.33301 -0.00292969 16.334 -2.00293 21.001l-5 12l16.5 16.5l27.5 26.5l28 26
c8.66699 8 15 13.333 19 16h-1c10.667 5.33301 23.667 8 39 8h8l28 -19.5c7.33301 -5 13.333 -9.83301 18 -14.5s8.33398 -10 11.001 -16s5 -14 7 -24c-11.333 -23.333 -27.166 -44.833 -47.499 -64.5s-47.5 -32.167 -81.5 -37.5c-2 -2 -5.16699 -3.83301 -9.5 -5.5
s-8.66602 -3.16699 -12.999 -4.5s-8.33301 -3 -12 -5s-5.5 -4.33301 -5.5 -7c-6 12 -11 23.667 -15 35s-7.33301 23.666 -10 36.999z" />
    <glyph glyph-name="f" unicode="f" horiz-adv-x="350" 
d="M30 4c13.333 -1.33301 25.333 -2 36 -2h28c9.33301 0 16.666 0.333008 21.999 1s10.333 3.66699 15 9c0 21.333 -1 38.333 -3 51s-3 25.667 -3 39v7c0 6 2.66699 13.167 8 21.5s8 19.166 8 32.499v30c0 1.33301 0.166992 3 0.5 5s0.5 4 0.5 6c0 6 -2 11.333 -6 16
s-8.33301 7.66699 -13 9c0 4 2 8 6 12s6 10.667 6 20c0 3.33301 -0.833008 9 -2.5 17s-2.5 13.667 -2.5 17c0 -0.666992 0.333008 0.333008 1 3s1.16699 5.83398 1.5 9.50098s0.833008 7.33398 1.5 11.001s1 6.5 1 8.5l4 86c3.33301 0 7.16602 -0.166992 11.499 -0.5
s9.16602 -0.5 14.499 -0.5h13c10 -0.666992 19.667 -1 29 -1h25h18c15.333 0.666992 29.166 2.16699 41.499 4.5s22.166 5.16602 29.499 8.49902c-3.33301 11.333 -5 18 -5 20c0 0.666992 0.166992 3 0.5 7s0.833008 8.33301 1.5 13l2 13.5
c0.666992 4.33301 1 7.16602 1 8.49902c0 19.333 -8 29.333 -24 30c-2.66699 0 -7.16699 -0.666992 -13.5 -2l-20.5 -4.5l-20.5 -4.5c-6.33301 -1.33301 -10.5 -2 -12.5 -2c-2.66699 0 -6 -0.5 -10 -1.5s-10.667 -1.5 -20 -1.5c-4 0 -10.167 2 -18.5 6
s-17.166 5.33301 -26.499 4c5.33301 30.667 9.33301 56.334 12 77.001s8.33398 37.167 17.001 49.5s22 21.166 40 26.499s45.333 8 82 8h26c20 26 30 48.667 30 68c0 34 -21.667 56.667 -65 68h-7c-7.33301 0 -18.5 -2.5 -33.5 -7.5s-30.333 -10.667 -46 -17l-41 -17
l-17.5 -7.5l2 -1c-3.33301 1.33301 -6 2.33301 -8 3s-3.33301 1 -4 1h-1c-13.333 0 -25.833 -7.66699 -37.5 -23s-21.667 -33.166 -30 -53.499s-15.166 -40.833 -20.499 -61.5s-8.66602 -36.334 -9.99902 -47.001c0 -22 -2 -43.667 -6 -65s-6 -43 -6 -65
c0 -7.33301 1.33301 -16.333 4 -27s4 -24 4 -40c0 -9.33301 -1.5 -20.5 -4.5 -33.5s-4.5 -26.833 -4.5 -41.5v-59c0 -19.333 -0.333008 -37.666 -1 -54.999c0 -14.667 0.833008 -24.167 2.5 -28.5s2.5 -8.83301 2.5 -13.5c0 -8 -0.666992 -18.5 -2 -31.5l-4 -39.5
c-1.33301 -13.333 -2.66602 -25.5 -3.99902 -36.5s-2.33301 -18.833 -3 -23.5z" />
    <glyph glyph-name="g" unicode="g" horiz-adv-x="465" 
d="M18 -326c5.33301 -8 13.501 -21.168 24.501 -39.501s23.167 -40.166 36.5 -65.499c6.66699 -14 15.834 -25.833 27.501 -35.5s23.5 -17.667 35.5 -24s23.333 -11 34 -14s18.667 -4.5 24 -4.5c4 0 8.66699 1 14 3v-1c7.33301 2 12.5 5.16699 15.5 9.5
s5.83301 9.16602 8.5 14.499s6 10.833 10 16.5s11 11.167 21 16.5l64 43c20.667 14 38.834 28.5 54.501 43.5s28.334 30.5 38.001 46.5s14.5 33.667 14.5 53v26c0 8.66699 -0.666992 17 -2 25s-4.5 18.333 -9.5 31s-12.5 28.334 -22.5 47.001l-40 72
c-13.333 35.333 -25.166 60.166 -35.499 74.499s-18.833 25.166 -25.5 32.499l66 47.5c19.333 13.667 35.833 27 49.5 40s24 26.667 31 41s10.5 30.833 10.5 49.5v9c0 12 -0.333008 22.333 -1 31s-3.33398 19 -8.00098 31s-11.834 27.667 -21.501 47l-41.5 80
c-9.33301 30 -19.166 55.333 -29.499 76s-21 37.334 -32 50.001s-22.167 21.834 -33.5 27.501s-22.333 8.5 -33 8.5c-12 0 -23 -2.83301 -33 -8.5s-18.833 -13 -26.5 -22s-13.667 -19 -18 -30s-6.5 -21.833 -6.5 -32.5c0 -18.667 6.33301 -35 19 -49s34 -21 64 -21h13
c12 -22 21.833 -40.667 29.5 -56s14.334 -29.333 20.001 -42s10.334 -24.667 14.001 -36s7.16699 -23.333 10.5 -36c0 -9.33301 0.666992 -16.5 2 -21.5s2.66602 -9.16699 3.99902 -12.5l-1 -2c-3.33301 -6 -9.33301 -12.167 -18 -18.5s-19.334 -15.833 -32.001 -28.5
c-9.33301 -10 -17.333 -18.167 -24 -24.5s-13 -11 -19 -14s-11.667 -5 -17 -6s-11.333 -1.5 -18 -1.5h-9c-12 10 -21.667 17.5 -29 22.5s-13.5 9.5 -18.5 13.5s-8.66699 8.5 -11 13.5s-4.5 13.167 -6.5 24.5c12 23.333 33 45 63 65h-1c4 4 10.667 6.16699 20 6.5
s18.833 1.33301 28.5 3s18.167 5.33398 25.5 11.001s11 15.5 11 29.5c0 9.33301 -1.83301 18.5 -5.5 27.5s-8.33398 17 -14.001 24s-11.834 12.833 -18.501 17.5s-13 7.33398 -19 8.00098c-6.66699 0 -12 0.666992 -16 2s-9 2 -15 2c-10 -4 -18.333 -9.5 -25 -16.5
s-12.834 -14.333 -18.501 -22l-17 -22c-5.66699 -7 -12.834 -12.5 -21.501 -16.5c-20 -12.667 -36.167 -23.667 -48.5 -33s-22.166 -18.333 -29.499 -27s-12.333 -17.667 -15 -27s-4 -20.333 -4 -33c-1.33301 -4 -2.5 -7.83301 -3.5 -11.5s-2.16699 -7.5 -3.5 -11.5
c6.66699 -17.333 14.667 -32.333 24 -45s19.166 -24.5 29.499 -35.5l31 -32.5c10.333 -10.667 19.5 -22.667 27.5 -36c3.33301 -1.33301 6.66602 -4 9.99902 -8s7.16602 -8.16699 11.499 -12.5s9.83301 -8.5 16.5 -12.5s15 -7 25 -9v-1c13.333 -2 22.833 -5.5 28.5 -10.5
s10.5 -11.167 14.5 -18.5l8 -12l33 -62c8.66699 -16.667 15.834 -31.834 21.501 -45.501s10.334 -26.667 14.001 -39s7.16699 -26.166 10.5 -41.499v-6c1.33301 -6.66699 2.33301 -11.334 3 -14.001h-1v-1v-1c-3.33301 -5.33301 -9.16602 -11.333 -17.499 -18
s-18.833 -16.667 -31.5 -30c-10 -10.667 -18.5 -19 -25.5 -25s-13.333 -10.5 -19 -13.5s-11 -4.83301 -16 -5.5s-10.833 -1 -17.5 -1c-8.66699 0 -17.167 2.33301 -25.5 7s-15.833 10.5 -22.5 17.5s-12.334 15 -17.001 24s-7.66699 17.833 -9 26.5
c5.33301 11.333 13.333 22.166 24 32.499s23.334 20.5 38.001 30.5l-1 -1c7.33301 4 16 7.16699 26 9.5s19.5 5.16602 28.5 8.49902s16.5 8 22.5 14s9 14.667 9 26c0 5.33301 -1 10.333 -3 15s-4.66699 10 -8 16c-3.33301 4.66699 -5.83301 9 -7.5 13
s-3.16699 7.33301 -4.5 10v-1c-4 8 -8.33301 14.167 -13 18.5s-14.334 6.5 -29.001 6.5h-1l1 2c0 0.666992 -1.66699 1 -5 1h-21c-8 -3.33301 -14.167 -8.16602 -18.5 -14.499l-14 -21c-5 -7.66699 -11.167 -15.667 -18.5 -24s-17.666 -16.5 -30.999 -24.5
c-18.667 -11.333 -34 -21.5 -46 -30.5s-21.5 -18 -28.5 -27s-12 -18.333 -15 -28s-4.5 -20.5 -4.5 -32.5c-3.33301 -5.33301 -4.33301 -10 -3 -14s3 -7.66699 5 -11l2 -2c1.33301 -4.66699 2.66602 -7 3.99902 -7zM18.001 -326.001
c-0.666992 1.33301 -1.33105 2.5 -1.99805 3.5s-1.33398 2.16699 -2.00098 3.5c3.33301 -4.66699 4.66602 -7 3.99902 -7z" />
    <glyph glyph-name="h" unicode="h" horiz-adv-x="478" 
d="M27 757l10.998 -113.996c5.33301 -58.667 10 -114.167 14 -166.5s6 -98.166 6 -137.499c0 -90.667 -8.33301 -173.334 -25 -248.001c-0.666992 -4.66699 -1.16699 -9.5 -1.5 -14.5s-0.5 -10.167 -0.5 -15.5c0 -10 0.833008 -19 2.5 -27s4.83398 -14.833 9.50098 -20.5
s11.334 -10 20.001 -13s19.667 -4.5 33 -4.5h21c7.33301 0 14 2.16699 20 6.5s10.833 12.166 14.5 23.499s5.5 28.333 5.5 51c0 14.667 -0.333008 30 -1 46s-1.16699 31 -1.5 45s-0.833008 26.333 -1.5 37s-1 18 -1 22c0 15.333 0.333008 30 1 44s2 27.667 4 41l19.5 7.5
c7.66699 3 15.667 6.33301 24 10l23.5 10.5c7.33301 3.33301 13.666 6.66602 18.999 9.99902l-4 7c1.33301 0 2.33301 0.166992 3 0.5s1.33398 0.5 2.00098 0.5h1c3.33301 1.33301 7 3.33301 11 6h-1c32 11.333 59.333 18 82 20l6 -53c4 -38.667 7 -75.167 9 -109.5
s3.33301 -64.166 4 -89.499c0 -16 -0.5 -33 -1.5 -51s-2.83301 -36.667 -5.5 -56c8 -8.66699 16.167 -15.667 24.5 -21s18.166 -9 29.499 -11l24 -3c2 0 6.83301 -0.666992 14.5 -2s14.167 -2.66602 19.5 -3.99902c6.66699 14 10 27.667 10 41c0 6 -0.666992 12.667 -2 20
s-2.83301 14.666 -4.5 21.999l-4.5 19.5c-1.33301 5.66699 -2 9.83398 -2 12.501c0 3.33301 0.666992 8.33301 2 15c-7.33301 32.667 -13 69.167 -17 109.5s-6 85.5 -6 135.5c0 4 2.5 11.833 7.5 23.5s7.5 22.5 7.5 32.5c0 2 -2.5 6.83301 -7.5 14.5
s-11.5 16.167 -19.5 25.5s-17 18.166 -27 26.499s-20 13.5 -30 15.5c0.666992 -0.666992 1 -1.33398 1 -2.00098c0 -2.66699 -2 -6.33398 -6 -11.001l-12 15c-3.33301 -2 -8.33301 -4.16699 -15 -6.5s-14 -4.66602 -22 -6.99902l-24.5 -7.5l-21.5 -7v7l-27 -9
c-15.333 -8 -31.166 -13.667 -47.499 -17s-29.5 -5 -39.5 -5c-4.66699 40 -7.83398 77 -9.50098 111s-4.16699 63.333 -7.5 88l11 17.5c5.33301 8.33301 8 15.833 8 22.5v1c1.33301 0 2.5 0.166992 3.5 0.5s1.83301 0.5 2.5 0.5c-2 5.33301 -3.66699 10.5 -5 15.5
s-2 8.5 -2 10.5s0.5 6.83301 1.5 14.5s1.5 15.167 1.5 22.5c0 13.333 -3 24.166 -9 32.499s-17.667 14.166 -35 17.499c-14.667 -4 -29.167 -9.33301 -43.5 -16s-27.166 -13 -38.499 -19zM367.998 497.004h-1c0 0.666992 -0.333008 1 -1 1l0.5 -0.5
c0.333008 -0.333008 0.833008 -0.5 1.5 -0.5z" />
    <glyph glyph-name="i" unicode="i" horiz-adv-x="176" 
d="M161 468c0 18.667 -3.16406 31.998 -9.49707 39.998s-17.5 12 -33.5 12c-3.33301 0 -8.33301 -0.333008 -15 -1s-11.667 -1 -15 -1c-6.66699 0 -12.334 1.33301 -17.001 4c-27.333 -1.33301 -41 -12.666 -41 -33.999c0 -4.66699 1 -9 3 -13
c9.33301 -44 16.166 -93.5 20.499 -148.5s6.83301 -115.833 7.5 -182.5l1 -99c0 -6 0.5 -12.5 1.5 -19.5s2.83301 -13.5 5.5 -19.5s6.5 -11.167 11.5 -15.5s11.5 -6.5 19.5 -6.5c19.333 0 37.666 14.667 54.999 44l-1 152c0 34 -2.16699 67.833 -6.5 101.5
s-6.5 69.167 -6.5 106.5c13.333 20.667 20 47.334 20 80.001zM133.003 690.998l-32.998 5.00098c-16.667 10 -27 15 -31 15c-16.667 0 -25 -10.333 -25 -31v-18c-0.666992 -3.33301 -1 -7 -1 -11v-12l1 -6c-0.666992 -2 -1 -4.66699 -1 -8v-11
c0 -14.667 2.5 -24.334 7.5 -29.001s13.167 -7 24.5 -7h15c7.33301 0 13.666 -1.66699 18.999 -5c1.33301 0.666992 3.66602 1 6.99902 1c-1.33301 -1.33301 -2 -2.33301 -2 -3h12c16 0 24 14 24 42v9c0 24 -1.83301 40.667 -5.5 50s-7.5 15 -11.5 17v2z" />
    <glyph glyph-name="j" unicode="j" horiz-adv-x="218" 
d="M205 124c0 12 -1.83398 24.3408 -5.50098 37.0078s-9.83398 25.334 -18.501 38.001l-10 112c0 1.33301 0.166992 2.66602 0.5 3.99902s0.5 2.66602 0.5 3.99902c0 2 -0.166992 4.66699 -0.5 8s-0.5 6.66602 -0.5 9.99902v31c0 10.667 1.33301 19.834 4 27.501
s5.66699 14.5 9 20.5s6.33301 11.667 9 17s4 11.666 4 18.999c0 21.333 -8 38.166 -24 50.499s-38 18.5 -66 18.5c-19.333 0 -35.333 -5.33301 -48 -16s-19 -27.334 -19 -50.001c0 -10 1.16699 -19.5 3.5 -28.5s6.83301 -17.833 13.5 -26.5v-16
c0 -18.667 0.333008 -41.834 1 -69.501s1.66699 -57.667 3 -90l4 -101l4 -101c1.33301 -32.333 2.33301 -62.333 3 -90s1 -50.834 1 -69.501c-12.667 -15.333 -21.667 -23 -27 -23c-3.33301 0 -6.83301 2 -10.5 6l-13 14c-5 5.33301 -10.833 10.833 -17.5 16.5
s-14.667 10.167 -24 13.5l-64 22c-5.33301 -3.33301 -10.166 -7.5 -14.499 -12.5s-8 -10 -11 -15s-5.33301 -9.33301 -7 -13l-2.5 -5.5c-2 -4 -3 -7.66699 -3 -11c8.66699 -24 18.167 -41.333 28.5 -52s21.833 -19.167 34.5 -25.5s26.334 -12.833 41.001 -19.5
s30.334 -18.334 47.001 -35.001l38 10c5.33301 -2.66699 8.66602 -4 9.99902 -4c6 0 10.333 2.66699 13 8l1 -1c0.666992 -1.33301 4 -2.83301 10 -4.5s11.333 -7.16699 16 -16.5h16c18.667 0 32.167 4.5 40.5 13.5s12.833 24.167 13.5 45.5
c2 11.333 3.83301 19.666 5.5 24.999s3.16699 9.5 4.5 12.5s2.33301 5.33301 3 7s1 4.5 1 8.5c0 4.66699 -1.16699 9.33398 -3.5 14.001l-8 15.5c-3 5.66699 -5.66699 12.334 -8 20.001s-3.5 16.834 -3.5 27.501c0 23.333 1 50.166 3 80.499s4 59.166 6 86.499v1
c11.333 13.333 17 30.666 17 51.999zM76.999 719.008c-8.66699 0 -15.332 -3 -19.999 -9s-7 -14 -7 -24v-8c0 -2 0.333008 -4.66699 1 -8c-1.33301 -4 -2 -8.33301 -2 -13v-11v-25c0 -15.333 2.66699 -25.5 8 -30.5s14.666 -7.5 27.999 -7.5h18c7.33301 0 14 -2 20 -6
c3.33301 0.666992 5.5 1.16699 6.5 1.5s1.83301 0.5 2.5 0.5v-1c0 -0.666992 0.333008 -1 1 -1h9c18.667 0 28 14.333 28 43v8c0 25.333 -2.83301 42.5 -8.5 51.5s-10.5 14.833 -14.5 17.5l-35 6c-19.333 10.667 -31 16 -35 16z" />
    <glyph glyph-name="k" unicode="k" horiz-adv-x="492" 
d="M275 83l59.999 -37.001c28 -9.33301 48 -18.333 60 -27l53 -50c22.667 8 34 22.667 34 44c0 -0.666992 -0.333008 2 -1 8s-1.16699 12.667 -1.5 20s-0.833008 13.833 -1.5 19.5s-1 7.83398 -1 6.50098c-6.66699 4 -11.5 7.5 -14.5 10.5s-6 5.66699 -9 8l-10.5 8
c-4 3 -10.333 6.5 -19 10.5l-1 -3c-7.33301 7.33301 -15.833 14.166 -25.5 20.499l-29.5 18.5l-29 17.5c-9.33301 5.66699 -17.333 11.5 -24 17.5c0 2.66699 -0.5 5.16699 -1.5 7.5s-3.16699 4.83301 -6.5 7.5s-8 6 -14 10l-25 17h1c-15.333 10.667 -29 21.5 -41 32.5
s-18 19.833 -18 26.5v3c2.66699 6 7 11.833 13 17.5s16 13.834 30 24.501l55.5 42.5l89.5 70.5c16 10.667 30 21.5 42 32.5s21 24.167 27 39.5c-1.33301 14.667 -6.66602 26.5 -15.999 35.5s-20.666 13.5 -33.999 13.5c-6 0 -13.667 -2.33301 -23 -7v1
c-16.667 -8.66699 -34.167 -19.667 -52.5 -33s-37.833 -29.666 -58.5 -48.999c-13.333 -6.66699 -26.833 -14.5 -40.5 -23.5s-24.834 -18.5 -33.501 -28.5c-2.66699 -6 -7.5 -13.167 -14.5 -21.5s-15.167 -16.166 -24.5 -23.499v32c0 32.667 -0.666992 64.334 -2 95.001
s-3.66602 61 -6.99902 91l5 171c-20 28 -41.333 42 -64 42c-10 0 -17.833 -1.83301 -23.5 -5.5s-10.167 -8.33398 -13.5 -14.001s-5.5 -11.834 -6.5 -18.501s-1.5 -13 -1.5 -19c0 -3.33301 0.166992 -6.5 0.5 -9.5s0.5 -5.16699 0.5 -6.5v-40
c0 -20.667 0.333008 -46.334 1 -77.001s1.16699 -61.5 1.5 -92.5s0.833008 -59.5 1.5 -85.5s1 -44.667 1 -56c0 -130 -10.667 -240.333 -32 -331c-2 -3.33301 -3 -7.33301 -3 -12c0 -10 3.83301 -18 11.5 -24s19.5 -9.33301 35.5 -10c4.66699 2.66699 11.334 4 20.001 4
c3.33301 0 9 -0.333008 17 -1s13.667 -1 17 -1c18.667 0 31.667 4 39 12s11 21.333 11 40c0 32.667 -8.33301 59.334 -25 80.001c1.33301 6.66699 2.16602 13.334 2.49902 20.001s1.16602 13.667 2.49902 21l34 -35c11.333 -11.333 21.666 -19.333 30.999 -24l4 -6
c2.66699 -0.666992 4.83398 -1.33398 6.50098 -2.00098s4 -1.83398 7 -3.50098s7 -4.16699 12 -7.5z" />
    <glyph glyph-name="l" unicode="l" horiz-adv-x="154" 
d="M141 402c0 32 -0.500977 63.332 -1.50098 93.999s-3.16699 61 -6.5 91l4 170c-16.667 28.667 -35 43 -55 43c-8.66699 0 -15.5 -2 -20.5 -6s-8.83301 -9 -11.5 -15s-4.5 -12.5 -5.5 -19.5s-1.5 -13.5 -1.5 -19.5v-53c0 -22 0.333008 -48.5 1 -79.5
s1.16699 -61.833 1.5 -92.5s0.833008 -58.667 1.5 -84s1 -43.333 1 -54c0 -66.667 -2.33301 -127.5 -7 -182.5s-11.667 -104.5 -21 -148.5c-2 -3.33301 -3 -7.33301 -3 -12c0 -21.333 13.667 -32.666 41 -33.999c4.66699 2.66699 10.334 4 17.001 4
c3.33301 0 8.33301 -0.333008 15 -1s11.667 -1 15 -1c16 0 27.167 4 33.5 12s9.5 21.333 9.5 40c0 31.333 -6.66699 57.333 -20 78c4 50 7.16699 97.5 9.5 142.5s3.5 87.5 3.5 127.5z" />
    <glyph glyph-name="m" unicode="m" horiz-adv-x="811" 
d="M483 116c0 5.33301 -1.16113 11.5049 -3.49414 18.5049s-4.5 14.167 -6.5 21.5v-1c-4.66699 10.667 -7 19.667 -7 27h3c3.33301 1.33301 6 3 8 5s3 6.66699 3 14v2c0 13.333 1.5 30.666 4.5 51.999s4.5 40.666 4.5 57.999v8c-0.666992 7.33301 -1.66699 12.833 -3 16.5
s-3 7.16699 -5 10.5c4.66699 9.33301 9.16699 17.666 13.5 24.999s10.166 13.666 17.499 18.999h3l8 1c5.33301 0.666992 11.166 1.5 17.499 2.5s12.666 1.83301 18.999 2.5s10.833 1 13.5 1c65.333 0 98 -57.667 98 -173c0 -19.333 -1.83301 -38.833 -5.5 -58.5
s-5.5 -40.834 -5.5 -63.501c0 -16.667 1.66699 -32.334 5 -47.001s8.16602 -27.667 14.499 -39s13.833 -20.333 22.5 -27s18.334 -10 29.001 -10c22 0 43 14.667 63 44c-8 16 -12 34.333 -12 55c0 8.66699 2.33301 27.334 7 56.001s7 62.667 7 102
c0 20.667 -3.16699 44.334 -9.5 71.001s-15 52.334 -26 77.001s-24.167 46.667 -39.5 66s-32 32.666 -50 39.999h1c-14 7.33301 -29.833 12.333 -47.5 15s-35.834 4 -54.501 4c-10.667 0 -22.667 -1.66699 -36 -5s-26.833 -8 -40.5 -14s-27.167 -13.167 -40.5 -21.5
s-25.333 -17.5 -36 -27.5c-13.333 6.66699 -24.166 14 -32.499 22s-17.333 15.5 -27 22.5s-21.334 12.833 -35.001 17.5s-32.5 7 -56.5 7c-21.333 0 -41.5 -1.66699 -60.5 -5s-37.5 -13.666 -55.5 -30.999v6c-24 22 -44 33 -60 33c-14 0 -25 -6.16699 -33 -18.5
s-13.667 -27.333 -17 -45s-5.33301 -36.667 -6 -57s-1 -38.5 -1 -54.5c0 -14 0.333008 -30 1 -48s1.83398 -36.667 3.50098 -56s3.5 -39 5.5 -59s4.33301 -39.333 7 -58c1.33301 -12 2.33301 -21.5 3 -28.5s1 -12.833 1 -17.5c0 -20 -4 -38.333 -12 -55
c20 -29.333 41 -44 63 -44c10 0 18.667 3.5 26 10.5s13.333 16.167 18 27.5s8.16699 24.666 10.5 39.999s3.5 31.333 3.5 48c0 24 -1.5 46.833 -4.5 68.5s-5.16699 42.167 -6.5 61.5c-4 43.333 -4.16699 76.5 -0.5 99.5s10.5 39.833 20.5 50.5s22.667 16.667 38 18
s33 2 53 2c2.66699 0 7.16699 -0.333008 13.5 -1s12.666 -1.5 18.999 -2.5s12.166 -1.83301 17.499 -2.5s8.33301 -1 9 -1h2c7.33301 -5.33301 13.5 -11 18.5 -17s9.16699 -15.5 12.5 -28.5s5.66602 -30.333 6.99902 -52s2 -50.5 2 -86.5v-200c6 -2 11 -4.83301 15 -8.5
l12 -11c4 -3.66699 8.16699 -6.83398 12.5 -9.50098s9.16602 -4 14.499 -4c16.667 0 36.334 12.667 59.001 38c0.666992 4 1 8.33301 1 13c0 5.33301 0.333008 10 1 14l3 29c0 4 0.166992 7.5 0.5 10.5s0.5 5.83301 0.5 8.5v11v16z" />
    <glyph glyph-name="n" unicode="n" horiz-adv-x="490" 
d="M469 106c0 11.333 -1.16602 22 -3.49902 32s-3.5 18.667 -3.5 26v-1h1l1 1c2.66699 1.33301 3.66699 4.5 3 9.5s-1 11.167 -1 18.5v1c0 14 1.5 31.5 4.5 52.5s4.5 40.5 4.5 58.5v7c-0.666992 8.66699 -1.83398 15.167 -3.50098 19.5s-3.66699 8 -6 11l-7 9
c-2.33301 3 -4.5 7.83301 -6.5 14.5c-6.66699 16 -12.667 28.5 -18 37.5s-10.833 16 -16.5 21s-11.667 8.83301 -18 11.5s-13.5 6 -21.5 10c-16 38 -56.333 57 -121 57c-20 0 -39.5 -1.5 -58.5 -4.5s-36.833 -12.833 -53.5 -29.5v5c-24 22 -43.667 33 -59 33
c-13.333 0 -23.666 -6.16699 -30.999 -18.5s-12.833 -27.5 -16.5 -45.5s-5.83398 -37 -6.50098 -57s-1 -38 -1 -54c0 -29.333 1.5 -64.166 4.5 -104.499s7.16699 -79.5 12.5 -117.5c1.33301 -11.333 2.33301 -20.666 3 -27.999s1 -13 1 -17c0 -24 -3.66699 -42.333 -11 -55
c19.333 -29.333 39.333 -44 60 -44c20 0 36.5 11.5 49.5 34.5s19.5 52.5 19.5 88.5c0 22.667 -1.83301 45.167 -5.5 67.5s-5.5 42.833 -5.5 61.5c0 116.667 32 175 96 175c2.66699 0 7 -0.333008 13 -1s12.167 -1.5 18.5 -2.5s12 -1.83301 17 -2.5s7.83301 -1 8.5 -1h2
c7.33301 -6 13.5 -12.333 18.5 -19s9 -16.5 12 -29.5s5.16699 -30.167 6.5 -51.5s2 -49.666 2 -84.999v-201c5.33301 -1.33301 9.33301 -3.33301 12 -6s5.66699 -5.33398 9 -8.00098v1c5.33301 -5.33301 10.5 -9.83301 15.5 -13.5s10.5 -5.5 16.5 -5.5c4 0 9.16699 1 15.5 3
s12.5 5.66699 18.5 11s11.333 12.166 16 20.499s7.66699 19.166 9 32.499l3 27c0.666992 7.33301 1 13.333 1 18v27z" />
    <glyph glyph-name="o" unicode="o" horiz-adv-x="523" 
d="M90 449c-9.33301 -11.333 -17.833 -26.1699 -25.5 -44.5029s-13.167 -39.166 -16.5 -62.499v1l-19 -88c-3.33301 -13.333 -5 -26.666 -5 -39.999c0 -25.333 6 -51.333 18 -78s28.833 -51 50.5 -73s47.5 -40.167 77.5 -54.5s63 -21.5 99 -21.5c14 0 30.667 3.66699 50 11
s37.833 15.333 55.5 24s32.5 16.5 44.5 23.5l18 10.5h-1c23.333 8 38.833 24.667 46.5 50s14.167 56.333 19.5 93v-1c0.666992 2.66699 1 5 1 7c0 2.66699 0.333008 5.33398 1 8.00098l6 41c1.33301 6 2.33301 12 3 18s1 12.667 1 20v10
c-1.33301 16.667 -5.16602 29.834 -11.499 39.501s-13.166 18 -20.499 25s-14.833 13.5 -22.5 19.5s-13.834 14 -18.501 24c-8 24 -21.167 43 -39.5 57s-37.5 24.667 -57.5 32s-38.833 12.166 -56.5 14.499s-29.834 3.5 -36.501 3.5c-62.667 0 -116 -23 -160 -69h-1z
M395 257.996c0 -54 -11.499 -96.3301 -34.499 -126.997s-53.5 -46 -91.5 -46c-5.33301 0 -12.333 2.16699 -21 6.5s-17.667 9.16602 -27 14.499l-27.5 15c-9 4.66699 -16.5 7.66699 -22.5 9c-5.33301 0.666992 -9.83301 3.16699 -13.5 7.5s-6.66699 11.166 -9 20.499
s-4 21.5 -5 36.5s-1.5 33.833 -1.5 56.5c0 39.333 5.16699 73 15.5 101s27.833 44.333 52.5 49c8.66699 2 16.167 4.16699 22.5 6.5s12 4.66602 17 6.99902s9.83301 4.33301 14.5 6s9.66699 2.5 15 2.5c16 0 31 -3.66699 45 -11s26.167 -18 36.5 -32
s18.666 -31.333 24.999 -52s9.5 -44 9.5 -70z" />
    <glyph glyph-name="p" unicode="p" horiz-adv-x="437" 
d="M452 252c-36.667 40 -72.6699 74.8301 -108.003 104.497s-71 54.167 -107 73.5c-2.66699 -0.666992 -4.83398 -1.33398 -6.50098 -2.00098s-3.16699 -1.33398 -4.5 -2.00098v1c0 10.667 -2 18.834 -6 24.501s-10 10.5 -18 14.5s-18 8 -30 12s-25.667 10 -41 18
l-45.5 21.5c-15 7 -31.167 10.5 -48.5 10.5l-2 -97c7.33301 -37.333 13.333 -77.166 18 -119.499s7 -87.166 7 -134.499v-129v-61c0 -20 0.333008 -40.333 1 -61c-3.33301 -3.33301 -5.66602 -7.5 -6.99902 -12.5s-2.66602 -9.5 -3.99902 -13.5l-8 -42
c-2 -18 -5.33301 -31.667 -10 -41v-5c0 -1.33301 -0.5 -4.5 -1.5 -9.5s-2 -10.833 -3 -17.5s-1.83301 -13 -2.5 -19s-1 -10.667 -1 -14c0 -5.33301 0.833008 -11.166 2.5 -17.499s4.83398 -13.166 9.50098 -20.499c3.33301 0 8.66602 0.166992 15.999 0.5s15 0.5 23 0.5
c8.66699 0 16.834 0.166992 24.501 0.5s13.834 0.5 18.501 0.5c7.33301 0 15 -1 23 -3l-1 1c4 -2 9.66699 -3 17 -3c4.66699 7.33301 7.5 12.5 8.5 15.5l2.5 7.5v26c0 5.33301 0.833008 11.333 2.5 18l4.5 18l-1 -1c1.33301 3.33301 2.33301 6.5 3 9.5s1 5.16699 1 6.5
c0 6.66699 -1.5 11.667 -4.5 15l-9.5 10.5c-3.33301 3.66699 -6.5 8.5 -9.5 14.5s-4.5 14.667 -4.5 26c0 7.33301 1.33301 18.166 4 32.499l8.5 45.5l8.5 46c2.66699 14.667 4 26.334 4 35.001c0 10.667 -1 20 -3 28c64 23.333 119 49.5 165 78.5s84.333 60.833 115 95.5v14
zM170.997 208.997c0 7.33301 -0.999023 18.333 -2.99902 33l-6 46l-6 46c-2 14.667 -3 25.667 -3 33v6l7 -1c22 -12 45.167 -28.333 69.5 -49l88.5 -79c-24 -17.333 -48.333 -32 -73 -44s-50.334 -21.333 -77.001 -28c2 12 3 24.333 3 37z" />
    <glyph glyph-name="q" unicode="q" horiz-adv-x="430" 
d="M6 237c28.667 -34.667 66.335 -66.3369 113.002 -95.0039s101.667 -54.667 165 -78c-1.33301 -4 -2 -8.33301 -2 -13v-15c0 -8.66699 1.33301 -20.5 4 -35.5s5.66699 -30.333 9 -46s6.33301 -30.667 9 -45s4 -25.166 4 -32.499c0 -9.33301 -1.5 -17 -4.5 -23
s-6.33301 -11.167 -10 -15.5s-7 -8.5 -10 -12.5s-4.5 -9 -4.5 -15c0 -15.333 1.66699 -25.833 5 -31.5s5 -12.167 5 -19.5v-26l2.5 -7.5c1 -3 4.16699 -8.16699 9.5 -15.5c7.33301 0 14.333 0.833008 21 2.5s12.667 2.5 18 2.5c4 0 9.83301 -0.166992 17.5 -0.5
s15.5 -0.5 23.5 -0.5c8.66699 0 16.5 -0.166992 23.5 -0.5s12.167 -0.5 15.5 -0.5c5.33301 7.33301 9 14 11 20s3 12 3 18c0 2.66699 -0.5 6.66699 -1.5 12s-2.16699 11 -3.5 17s-2.5 11.833 -3.5 17.5s-1.5 9.83398 -1.5 12.501v6
c-2.66699 5.33301 -4.5 11.166 -5.5 17.499l-3.5 22.5l-6 33h2l-7 18c-2.66699 6.66699 -5.33398 12.334 -8.00098 17.001v123c0 70.667 1.83301 138.834 5.5 204.501s10.167 125.167 19.5 178.5l-2 97c-14.667 0 -29.5 -3 -44.5 -9s-29.333 -12.5 -43 -19.5l-39 -19.5
c-12.333 -6 -22.833 -9.33301 -31.5 -10c-4 -0.666992 -8 -2.5 -12 -5.5s-7.5 -6.5 -10.5 -10.5s-5.33301 -8.33301 -7 -13s-2.5 -9 -2.5 -13v-1c-2.66699 1.33301 -5.33398 2.33301 -8.00098 3c-73.333 -39.333 -145 -98.666 -215 -177.999v-15zM201.001 301.997
c2 2 3.66797 3.33105 5.00098 3.99805l5 4c16.667 15.333 32 27.833 46 37.5s26.667 17.834 38 24.501l10 1v-6c0 -7.33301 -1 -18.166 -3 -32.499l-6.5 -45.5l-6.5 -46c-2 -14.667 -3 -26 -3 -34v-19c0 -6 0.666992 -12 2 -18c-26.667 6.66699 -52.334 16 -77.001 28
s-48.667 26.333 -72 43c14 14 26.5 26 37.5 36s19.167 17.667 24.5 23z" />
    <glyph glyph-name="r" unicode="r" horiz-adv-x="347" 
d="M314 497l-19.001 -0.000976562c-44 0 -80.333 -3.33301 -109 -10s-50.334 -10 -65.001 -10c-3.33301 0 -12.5 -0.833008 -27.5 -2.5s-32.167 -2.5 -51.5 -2.5c-3.33301 -42.667 -5.83301 -79 -7.5 -109s-2.5 -54.667 -2.5 -74c0 -15.333 0.333008 -30.166 1 -44.499
s1 -31.166 1 -50.499c0 -32.667 -0.5 -67.667 -1.5 -105s-2.83301 -71.666 -5.5 -102.999c0 -8.66699 4.33301 -17.667 13 -27s20 -14 34 -14c8.66699 0 16.667 1.16699 24 3.5s13.833 7.33301 19.5 15s10.167 18.667 13.5 33s5 33.5 5 57.5
c0 9.33301 -0.166992 22.666 -0.5 39.999s-0.833008 36.333 -1.5 57s-1.5 41.5 -2.5 62.5s-1.83301 39.833 -2.5 56.5s-1.16699 30 -1.5 40s-0.5 14 -0.5 12c-1.33301 10.667 -1.66602 20.167 -0.999023 28.5s-1.33301 13.166 -6 14.499c8 0.666992 15.833 2.5 23.5 5.5
s14.5 6.33301 20.5 10l16 10c4.66699 3 8.33398 5.16699 11.001 6.5l122 -7c15.333 1.33301 26 6 32 14s9 19 9 33c0 26 -12 45.667 -36 59z" />
    <glyph glyph-name="s" unicode="s" horiz-adv-x="323" 
d="M246 442c40 10 62.998 43.333 68.998 100c-15.333 3.33301 -29.166 6.16602 -41.499 8.49902s-24.166 5.5 -35.499 9.5l-65.5 -51c-24.333 -18.667 -47.166 -37.167 -68.499 -55.5s-39.333 -35.833 -54 -52.5s-22 -30.334 -22 -41.001c0 -9.33301 5.5 -19.833 16.5 -31.5
s24.667 -23.667 41 -36s34 -24.666 53 -36.999l51.5 -33.5l6 -26c-8 -12.667 -15 -22.5 -21 -29.5s-12.333 -13 -19 -18s-14.667 -9.83301 -24 -14.5s-21 -11 -35 -19c-24.667 -14 -43.5 -29.167 -56.5 -45.5s-19.167 -32.5 -18.5 -48.5v-18
c8 -2.66699 15 -4.33398 21 -5.00098s11.667 -1 17 -1c12 0 22.167 1.5 30.5 4.5s17.166 7.16699 26.499 12.5h-1l5 4.5c3.33301 3 7.5 6 12.5 9s10.5 5.83301 16.5 8.5s11.667 4 17 4h1c7.33301 2.66699 14.333 6.66699 21 12s15.667 15.666 27 30.999l3 2
c2.66699 6.66699 9.66699 14.334 21 23.001s23 18.167 35 28.5s22.833 21.333 32.5 33s14.834 23.834 15.501 36.501c-20.667 30.667 -44.334 59.667 -71.001 87s-55 51 -85 71l41 43c12 12.667 22.333 24.334 31 35.001h7z" />
    <glyph glyph-name="t" unicode="t" horiz-adv-x="438" 
d="M362 650c-5.33301 -1.33301 -12.666 -3.33496 -21.999 -6.00195l-29.5 -8.5l-31 -9c-10.333 -3 -19.166 -5.83301 -26.499 -8.5l5 139c-20.667 28.667 -42 43 -64 43c-9.33301 0 -17 -2 -23 -6s-10.5 -9 -13.5 -15s-5 -12.5 -6 -19.5s-1.5 -13.5 -1.5 -19.5
c0 -2.66699 0.166992 -5 0.5 -7s0.5 -3.66699 0.5 -5v-37v-48c0 -16.667 0.333008 -34.667 1 -54v-6c-2.66699 0 -5 0.166992 -7 0.5s-4.33301 1.16602 -7 2.49902c-6 -4 -14.667 -7.83301 -26 -11.5s-23.333 -7.33398 -36 -11.001s-24.667 -6.66699 -36 -9
s-19.666 -3.83301 -24.999 -4.5c9.33301 -20 15.333 -37.167 18 -51.5s5 -26 7 -35s5 -15.667 9 -20s11.667 -6.5 23 -6.5c5.33301 0 10 0.5 14 1.5s9.66699 3.16699 17 6.5h-2h1c0 0.666992 0.333008 1 1 1v-1h1c0 0.666992 0.333008 1 1 1l-2 -1l10 4
c1.33301 0 2.66602 0.333008 3.99902 1s2.66602 1 3.99902 1h2c1.33301 -1.33301 3.5 -2.16602 6.5 -2.49902s6.16699 -0.5 9.5 -0.5c2.66699 4 5.16699 7.5 7.5 10.5l7.5 9.5c0 -20.667 0.333008 -38.667 1 -54s1 -27.666 1 -36.999c0 -66.667 -2.83301 -127.5 -8.5 -182.5
s-14.167 -104.5 -25.5 -148.5c-1.33301 -2.66699 -2 -6.66699 -2 -12c0 -10 3.83301 -18 11.5 -24s19.834 -9.33301 36.501 -10c4.66699 2.66699 11 4 19 4c3.33301 0 8.83301 -0.333008 16.5 -1s13.167 -1 16.5 -1c19.333 0 32.5 4 39.5 12s10.5 21.333 10.5 40
c0 32 -8 58 -24 78c5.33301 50 9.16602 97.5 11.499 142.5s3.5 87.5 3.5 127.5c0 19.333 -0.333008 38.833 -1 58.5l-2 58.5c2.66699 0 5.66699 0.166992 9 0.5s6.66602 0.833008 9.99902 1.5l1 -4h9c10 0 19.5 1.83301 28.5 5.5s17.5 7.66699 25.5 12
s15.333 8.66602 22 12.999s12.667 7.5 18 9.5c18 2.66699 31.333 5.83398 40 9.50098s13 13.834 13 30.501c0 8.66699 -2.66699 19.334 -8 32.001h1c-4.66699 20.667 -14 31 -28 31c-3.33301 0 -8.33301 -2 -15 -6v1c-8 -4 -13.667 -6 -17 -6z" />
    <glyph glyph-name="u" unicode="u" horiz-adv-x="462" 
d="M28 414c0 -12.667 0.836914 -24.832 2.50391 -36.499s3.66699 -24.167 6 -37.5s4.33301 -27.833 6 -43.5s2.5 -33.834 2.5 -54.501c0 -14 -1 -27.833 -3 -41.5s-3 -29.834 -3 -48.501c0 -24 7.16699 -46.5 21.5 -67.5s31.666 -39 51.999 -54s42 -26.833 65 -35.5
s43.5 -13 61.5 -13c12.667 0 26 0.833008 40 2.5s27.667 4.5 41 8.5s25.666 9.83301 36.999 17.5s21 17.5 29 29.5c10 14.667 19.333 31 28 49s16.167 36.5 22.5 55.5s11.333 37.833 15 56.5s5.5 36.334 5.5 53.001c0 40 -2.16699 74 -6.5 102s-6.5 46.667 -6.5 56
c0 20.667 4 39 12 55c-20 29.333 -40.333 44 -61 44c-10.667 0 -20.334 -3.5 -29.001 -10.5s-16 -16.167 -22 -27.5s-10.667 -24.333 -14 -39s-5 -30 -5 -46c0 -22 1.83301 -42.833 5.5 -62.5s5.5 -39.167 5.5 -58.5c0 -116 -31.667 -174 -95 -174
c-2 0 -5.66699 0.333008 -11 1l-16.5 2l-17 2c-5.66699 0.666992 -9.83398 1 -12.501 1h-2c-7.33301 5.33301 -13.666 11.5 -18.999 18.5s-9.5 17 -12.5 30s-5.16699 30.333 -6.5 52s-2 49.834 -2 84.501v194c-5.33301 1.33301 -9.5 3.16602 -12.5 5.49902l-9.5 7.5v-1
c-4.66699 4.66699 -9.33398 9 -14.001 13s-10 6 -16 6c-14.667 0 -34 -12.333 -58 -37v-14c0 -4.66699 -0.333008 -9 -1 -13l-3 -29v-2z" />
    <glyph glyph-name="v" unicode="v" horiz-adv-x="495" 
d="M440 405c2 4.66699 5.83105 10.6631 11.498 17.9961l17.5 23.5c6 8.33301 11.5 16.666 16.5 24.999s8.16699 15.5 9.5 21.5c-16 31.333 -37 47 -63 47h-8c-54 -21.333 -82.333 -63.666 -85 -126.999c-9.33301 -11.333 -16.833 -25.666 -22.5 -42.999
s-11.167 -40 -16.5 -68c-1.33301 -12 -3.66602 -21.833 -6.99902 -29.5s-7.16602 -15.5 -11.499 -23.5l-13.5 -26c-4.66699 -9.33301 -9 -21.333 -13 -36c-4 20.667 -7 38.167 -9 52.5s-4.83301 28.5 -8.5 42.5s-8.5 29.333 -14.5 46s-15 37.334 -27 62.001
c-27.333 58 -43 106.667 -47 146c-14 0 -26.333 1.66699 -37 5s-23.667 5 -39 5c-9.33301 0 -18.5 -2 -27.5 -6s-16.833 -10.667 -23.5 -20c8 -13.333 12.167 -27.666 12.5 -42.999s1.33301 -29.666 3 -42.999s6 -24.833 13 -34.5s21.5 -15.834 43.5 -18.501l24.5 -55
l16.5 -37.5c4.66699 -11 8.5 -21.667 11.5 -32s6.16699 -22.5 9.5 -36.5s7.16602 -31.5 11.499 -52.5s10.166 -47.5 17.499 -79.5c4.66699 -11.333 7.33398 -23.166 8.00098 -35.499s2.5 -24 5.5 -35s8.83301 -20.667 17.5 -29s23.334 -13.833 44.001 -16.5l11 28
c2 5.33301 3 9 3 11c0 0.666992 -0.166992 1.16699 -0.5 1.5l-0.5 0.5h4c4.66699 0 11.667 9.33301 21 28s19.833 42.334 31.5 71.001l37.5 95.5l38 102.5v-1l18.5 51.5c5.66699 16.333 11.167 31.166 16.5 44.499z" />
    <glyph glyph-name="w" unicode="w" horiz-adv-x="685" 
d="M426 361c0.666992 2.66699 3.83789 7.50488 9.50488 14.5049s11.667 14.833 18 23.5s12.333 17.5 18 26.5s9.16699 16.5 10.5 22.5c-17.333 31.333 -39 47 -65 47h-6c-14.667 -5.33301 -24.667 -11.166 -30 -17.499s-9 -13.166 -11 -20.499s-3.83301 -14.833 -5.5 -22.5
s-5.83398 -15.167 -12.501 -22.5c-8 10.667 -12.5 19.667 -13.5 27s-2 13.833 -3 19.5s-3.66699 11.167 -8 16.5s-13.833 11 -28.5 17h-7c-26.667 0 -48 -15.667 -64 -47c1.33301 -7.33301 5 -15.666 11 -24.999s12.167 -18.166 18.5 -26.499l17.5 -22.5
c5.33301 -6.66699 8 -10.667 8 -12c2.66699 -10.667 5.83398 -20.5 9.50098 -29.5s7.16699 -18.167 10.5 -27.5c-0.666992 -10 -2.5 -18.5 -5.5 -25.5s-6.66699 -14.333 -11 -22l-15 -27c-5.66699 -10.333 -11.167 -23.833 -16.5 -40.5
c-5.33301 21.333 -9 39.166 -11 53.499s-4.5 28.166 -7.5 41.499s-7.5 28.166 -13.5 44.499s-15.333 37.166 -28 62.499c-6.66699 14.667 -12.667 29 -18 43s-10 27 -14 39h1c-7.33301 20.667 -14.333 36.167 -21 46.5s-13.834 17.666 -21.501 21.999
s-15.834 6.5 -24.501 6.5h-27c-20.667 0 -38 -8.66699 -52 -26c7.33301 -14 11.166 -28.5 11.499 -43.5s1.5 -29.333 3.5 -43s6.66699 -25.334 14 -35.001s22 -15.834 44 -18.501l22 -51.5l15.5 -36l11.5 -28.5c3.33301 -8.66699 6.5 -18.5 9.5 -29.5
s6.33301 -24.167 10 -39.5l13.5 -58c2.66699 -13.333 6.16699 -27.833 10.5 -43.5s7.5 -31.167 9.5 -46.5c1.33301 -8.66699 2.83301 -17 4.5 -25s4.66699 -15.5 9 -22.5s10.666 -13 18.999 -18s19.833 -8.5 34.5 -10.5c6 13.333 10.167 23 12.5 29s3.5 9.66699 3.5 11l3 1
c4 0 7.66699 1.33301 11 4s7.33301 9.16699 12 19.5s10.834 25.666 18.501 45.999l30.5 82.5c9.33301 -28 18.5 -51.5 27.5 -70.5s17 -34.5 24 -46.5s12.833 -20.667 17.5 -26l7 -8l2 -1c0 -1.33301 1.16699 -4.83301 3.5 -10.5s6.83301 -15.5 13.5 -29.5
c19.333 2.66699 33.666 9.33398 42.999 20.001s16.166 23.167 20.499 37.5s7.33301 29.666 9 45.999s4.83398 31.5 9.50098 45.5l-1 -1c4.66699 11.333 8 21.666 10 30.999s3.66699 18 5 26c4.66699 24 8.83398 43 12.501 57s7.66699 27.5 12 40.5
s10.166 27.167 17.499 42.5l30 64c21.333 2.66699 36.833 10.167 46.5 22.5s15.167 34.166 16.5 65.499c0.666992 20 4.33398 37.333 11.001 52c-7.33301 8.66699 -15.5 15 -24.5 19s-18.167 6 -27.5 6c-12 0 -24.333 -1.66699 -37 -5s-26.334 -5 -41.001 -5
c-2 -18 -8 -39.833 -18 -65.5l-31.5 -77.5l-30 -73c-9 -22.667 -13.5 -40 -13.5 -52v1c-0.666992 -2.66699 -1.83398 -7 -3.50098 -13s-3.16699 -12.667 -4.5 -20s-2.83301 -15.166 -4.5 -23.499s-2.83398 -16.166 -3.50098 -23.499
c-5.33301 14.667 -10.666 28.167 -15.999 40.5s-10.333 21.833 -15 28.5c0.666992 2 1.33398 3.83301 2.00098 5.5s1 3.5 1 5.5s-0.166992 4.33301 -0.5 7s-1.5 7 -3.5 13l-3 12v-1c-0.666992 1.33301 -1.33398 3.16602 -2.00098 5.49902s-1.66699 5.5 -3 9.5l9 26l2.5 5
c1 2 1.83301 4 2.5 6l-1 -1c0.666992 1.33301 1 2.33301 1 3s1 2.66699 3 6v1zM398.004 258.005l2 -6l-3 2c0 2 0.333008 3.33301 1 4z" />
    <glyph glyph-name="x" unicode="x" horiz-adv-x="436" 
d="M413 490l-11.0049 16.9961h-92c-7.33301 -7.33301 -13.5 -16.166 -18.5 -26.499l-15 -32c-5 -11 -10.667 -22.167 -17 -33.5s-14.166 -21.666 -23.499 -30.999c12 -6 18 -9.66699 18 -11c0 -2 -1 -5.5 -3 -10.5s-4.33301 -10.5 -7 -16.5s-5.66699 -12.333 -9 -19
s-6.33301 -12.334 -9 -17.001c-7.33301 14 -14.166 28.833 -20.499 44.5s-11.166 30.5 -14.499 44.5c-17.333 20 -29.666 36.167 -36.999 48.5s-12.833 22 -16.5 29s-7.16699 11.667 -10.5 14s-9.66602 3.5 -18.999 3.5c-5.33301 0 -12.166 -0.666992 -20.499 -2l-26 -4
l-26.5 -4c-8.66699 -1.33301 -16.334 -2 -23.001 -2c3.33301 -16.667 9 -32.5 17 -47.5s18.667 -30.167 32 -45.5c6.66699 -1.33301 12.667 -4.83301 18 -10.5s9.83301 -11.834 13.5 -18.501s6.66699 -12.667 9 -18s3.5 -8.33301 3.5 -9c1.33301 -3.33301 5 -9 11 -17
l19.5 -25.5c7 -9 13.167 -18 18.5 -27s8 -16.5 8 -22.5c0 -7.33301 -4.83301 -16.666 -14.5 -27.999s-18.167 -24 -25.5 -38c-9.33301 -21.333 -16.333 -35.833 -21 -43.5s-7 -13.167 -7 -16.5v-2c0 -3.33301 -1.66699 -6.33301 -5 -9l-9 -6l1 1
c-10 -6 -17.5 -13.5 -22.5 -22.5s-8.5 -18.333 -10.5 -28s-2.83301 -19.167 -2.5 -28.5s0.5 -17 0.5 -23c15.333 0 29.5 -0.666992 42.5 -2s25.833 -2 38.5 -2c18.667 0 31.667 9.33301 39 28v4l8.5 10c5.66699 6.66699 8.5 12.667 8.5 18c0 4 -1 8 -3 12l48 87
c4.66699 -9.33301 11.167 -20.666 19.5 -33.999l24.5 -41h1l32 -54l23 -39h30c10.667 0 21 0.333008 31 1s19.333 1.83398 28 3.50098s16 3.83398 22 6.50098c-35.333 46 -64.5 89.333 -87.5 130s-41.167 79 -54.5 115c17.333 35.333 33 68.833 47 100.5l38 89.5
c9.33301 2.66699 16.333 8.16699 21 16.5s8 22.833 10 43.5z" />
    <glyph glyph-name="y" unicode="y" horiz-adv-x="581" 
d="M530 403c14 0 24.165 2.66504 30.498 7.99805s10.833 12.666 13.5 21.999s4.33398 20.833 5.00098 34.5s2.33398 28.834 5.00098 45.501c-20.667 2 -37 3.33301 -49 4s-18.667 1 -20 1c-29.333 0 -51.333 -6 -66 -18l-69 -139c-6 -10.667 -12.667 -24.5 -20 -41.5
l-23 -52.5l-23 -52.5l-18 -41.5c-3.33301 5.33301 -6.33301 13.333 -9 24s-6.33398 27 -11.001 49c-10 51.333 -27.167 99.833 -51.5 145.5s-56.5 84.5 -96.5 116.5c-3.33301 -1.33301 -6.66602 -2 -9.99902 -2h-8l-42 3h1c-3.33301 0.666992 -7.33301 1 -12 1
c-5.33301 0 -10.5 -0.666992 -15.5 -2s-12.167 -3.66602 -21.5 -6.99902c0 -11.333 0.5 -18.333 1.5 -21s1.5 -5 1.5 -7c0 -5.33301 -2.66699 -19.333 -8 -42c12.667 -6.66699 24.5 -13.334 35.5 -20.001s21 -14.167 30 -22.5s17.5 -18.166 25.5 -29.499s15.667 -25 23 -41
c12.667 -26.667 26.667 -52.834 42 -78.501s25.333 -49.5 30 -71.5c2 -12 5.83301 -22.5 11.5 -31.5s11.334 -17.333 17.001 -25s10.667 -15.167 15 -22.5s6.5 -15.333 6.5 -24v-7c-11.333 -23.333 -19 -42.166 -23 -56.499s-8.16699 -27.333 -12.5 -39
s-10.833 -23.667 -19.5 -36s-23 -27.833 -43 -46.5c-49.333 -45.333 -74 -86.666 -74 -123.999c0 -6.66699 0.666992 -13.5 2 -20.5s3.33301 -15.167 6 -24.5l112 -2c21.333 52 47.166 111.833 77.499 179.5l95.5 204.5l58 118c2.66699 4 6.83398 14.333 12.501 31
s12.667 35 21 55s17.666 39.833 27.999 59.5s21.5 35.167 33.5 46.5h5z" />
    <glyph glyph-name="z" unicode="z" horiz-adv-x="430" 
d="M283 -10c4.66699 0 11.168 0.498047 19.501 1.49805s17.333 2.16699 27 3.5s19.167 2.5 28.5 3.5s17.666 1.5 24.999 1.5h18l7 27.5c2 7.66699 3.66699 15 5 22l4.5 22.5c1.66699 8 3.16699 18.333 4.5 31l-70 4c-78.667 -15.333 -130.667 -23 -156 -23h-16
c3.33301 5.33301 9.33301 13.333 18 24s15.667 20.667 21 30l6 8c13.333 20.667 23 38.334 29 53.001s11.667 25.667 17 33l-3 2c4 2.66699 11.5 10.667 22.5 24s29.167 37.666 54.5 72.999c19.333 11.333 36.5 30.333 51.5 57s31.167 58 48.5 94
c-34 7.33301 -60.5 12.833 -79.5 16.5s-37.5 5.5 -55.5 5.5h-17c-5.33301 0 -10 -0.333008 -14 -1l-26 -11c-6.66699 0.666992 -16.334 1.5 -29.001 2.5s-25.667 2.16699 -39 3.5h-5c-12.667 0 -23 -2.33301 -31 -7s-12.333 -7.66699 -13 -9v20h-6
c-2 0.666992 -4.33301 1.33398 -7 2.00098l-8 2c-4 0 -10.833 -0.5 -20.5 -1.5s-19.5 -3.16699 -29.5 -6.5s-18.833 -8 -26.5 -14s-11.5 -13.667 -11.5 -23c0 -10 1.66699 -18.167 5 -24.5s5.66602 -10.5 6.99902 -12.5v-2c0 -5.33301 -2 -12 -6 -20l21 -22
c22 3.33301 38.5 6.66602 49.5 9.99902s17.667 6 20 8l3.5 3c3.33301 1.33301 13 2 29 2h15c3.33301 -0.666992 6.5 -1.16699 9.5 -1.5s6.83301 -0.5 11.5 -0.5c2.66699 0 6.66699 0.166992 12 0.5s11 0.5 17 0.5s11.5 0.166992 16.5 0.5s8.83301 0.5 11.5 0.5
c4.66699 0 10.334 -0.666992 17.001 -2l-11 -42l-7 -7c-7.33301 -5.33301 -14.5 -11.833 -21.5 -19.5s-15.833 -20.167 -26.5 -37.5l-1 1l-3 -7c-2.66699 -1.33301 -4 -3 -4 -5c0 -1.33301 0.166992 -3 0.5 -5s0.333008 -4.16699 0 -6.5
s-2.16602 -4.16602 -5.49902 -5.49902c-0.666992 -4 -2 -8.83301 -4 -14.5s-5.66699 -12.167 -11 -19.5c-38 -46 -69.667 -88 -95 -126s-44 -67 -56 -87l48 -34l8.5 0.5c5.66699 0.333008 12.167 0.833008 19.5 1.5s15 1.83398 23 3.50098s14.667 3.83398 20 6.50098
c7.33301 -2.66699 13.833 -4.16699 19.5 -4.5l24.5 -1.5h50v6c0 0.666992 0.666992 1 2 1c7.33301 -2.66699 15 -4.83398 23 -6.50098s16 -2.5 24 -2.5zM261.001 245.998c2.66699 0 4.5 -0.166992 5.5 -0.5l1.5 -0.5h-8z" />
    <glyph glyph-name="braceleft" unicode="{" horiz-adv-x="318" 
d="M283 750c1.33301 4.66699 2.16602 8.16895 2.49902 10.502s0.5 4.5 0.5 6.5c0 6.66699 -1.33301 13.667 -4 21h3c-17.333 37.333 -43.333 59 -78 65c-18 -14 -33 -32 -45 -54s-22.333 -47.167 -31 -75.5s-16.5 -59.5 -23.5 -93.5l-23.5 -109
c-5.33301 -22 -13 -38 -23 -48s-20 -18.167 -30 -24.5s-18.833 -12.666 -26.5 -18.999s-11.5 -16.5 -11.5 -30.5c0 -9.33301 4.66699 -23.333 14 -42c16.667 -0.666992 30.334 -2.66699 41.001 -6s19.334 -8.83301 26.001 -16.5s11.334 -18.167 14.001 -31.5s4 -30 4 -50
v-25c0 -34 2.33301 -64.833 7 -92.5s12.334 -52.334 23.001 -74.001s24.667 -40.834 42 -57.501s39 -31.334 65 -44.001c40 6 60 23 60 51c0 10 -3.66699 21.333 -11 34c-16 6.66699 -29.667 15.834 -41 27.501s-21.166 27 -29.499 46s-15.5 42.167 -21.5 69.5
s-11.667 60.666 -17 99.999c-7.33301 47.333 -15 81.333 -23 102c6.66699 5.33301 12.667 11.833 18 19.5s10.666 18.334 15.999 32.001s11.166 31.334 17.499 53.001s13.833 49.167 22.5 82.5c-2.66699 3.33301 -4.83398 7 -6.50098 11s-2.5 8.66699 -2.5 14
c0 13.333 2 27.666 6 42.999s9.16699 29.833 15.5 43.5s13.666 25.667 21.999 36s16.833 17.166 25.5 20.499z" />
    <glyph glyph-name="bar" unicode="|" horiz-adv-x="204" 
d="M108 726c1.33301 10 2.49609 19.4961 3.49609 28.4961s1.5 16.5 1.5 22.5v12c-2.66699 4 -4.5 10.333 -5.5 19s-2.5 17.667 -4.5 27s-4.83301 18.333 -8.5 27s-9.5 14.667 -17.5 18c-7.33301 -0.666992 -15 -2.16699 -23 -4.5s-15.667 -5.5 -23 -9.5
s-13.333 -8.5 -18 -13.5s-7 -10.167 -7 -15.5s1 -9.33301 3 -12c12.667 -62.667 19 -140 19 -232c0 -13.333 -0.5 -32.333 -1.5 -57l-3.5 -83l-4 -96.5l-4 -97.5c-1.33301 -31.333 -2.5 -60.166 -3.5 -86.499s-1.5 -47.166 -1.5 -62.499v-27
c0 -3.33301 -0.333008 -8.33301 -1 -15s-1.16699 -13.5 -1.5 -20.5s-0.833008 -13.5 -1.5 -19.5s-1 -10.333 -1 -13c0 -16 2.5 -28.5 7.5 -37.5s14.5 -13.5 28.5 -13.5c8.66699 0 18.167 1.66699 28.5 5s19.833 7.83301 28.5 13.5s15.834 12.5 21.501 20.5
s8.5 16.667 8.5 26c-5.33301 18.667 -9.66602 36 -12.999 52s-5 31.333 -5 46c0 4 0.333008 9.5 1 16.5s1.33398 14.5 2.00098 22.5l2 23.5c0.666992 7.66699 1 13.834 1 18.501c0 5.33301 -0.166992 10.333 -0.5 15s-0.833008 9.33398 -1.5 14.001c4 48.667 6 97.667 6 147
c0 31.333 -1.33301 70.833 -4 118.5s-6.66699 104.167 -12 169.5v1c0 0.666992 0.333008 4 1 10s1.33398 13.333 2.00098 22s1 15.667 1 21z" />
    <glyph glyph-name="braceright" unicode="}" horiz-adv-x="318" 
d="M132 326c-7.33301 -20.667 -12.8359 -40.8359 -16.5029 -60.5029s-5.83398 -39.167 -6.50098 -58.5c-1.33301 -47.333 -8.16602 -87.333 -20.499 -120s-31.166 -58 -56.499 -76l-4.5 -1.5c-3 -1 -4.5 -2.5 -4.5 -4.5v-1c0 -0.666992 -0.666992 -3 -2 -7h-4
c0 -3.33301 1.83301 -7.5 5.5 -12.5s9 -9.66699 16 -14s15.667 -8.16602 26 -11.499s22.166 -5 35.499 -5c21.333 0 41.666 20.333 60.999 61s38.666 99.334 57.999 176.001l16.5 61c5 18.667 10.5 35 16.5 49s13 24.833 21 32.5s17.667 11.5 29 11.5
c4.66699 13.333 7.83398 25.166 9.50098 35.499s2.5 19.166 2.5 26.499c0 18 -8.33301 42.667 -25 74c-22 4.66699 -39.667 15.334 -53 32.001s-23.833 36.667 -31.5 60s-13.334 49 -17.001 77s-6.83398 55.333 -9.50098 82c-16 65.333 -52 105 -108 119
c-19.333 -3.33301 -35.166 -12.166 -47.499 -26.499s-18.5 -31.166 -18.5 -50.499c0 -16.667 6.33301 -31.5 19 -44.5s31.667 -29.167 57 -48.5l8 14c2.66699 -0.666992 4.83398 -4.16699 6.50098 -10.5s3.33398 -17 5.00098 -32s3.33398 -35.333 5.00098 -61l6.5 -96.5
c8.66699 -12 13 -20.667 13 -26c0 -1.33301 -0.333008 -3 -1 -5v-9c0 -18.667 15.667 -36.667 47 -54c-7.33301 -8.66699 -14.166 -19 -20.499 -31s-12.166 -26.667 -17.499 -44z" />
    <glyph glyph-name="asciitilde" unicode="~" horiz-adv-x="567" 
d="M116 289l16 4.50195c6 1.66699 12.667 2.5 20 2.5c22.667 0 48.667 -5.83301 78 -17.5s64 -26.834 104 -45.501c8.66699 -4 17.334 -6 26.001 -6c28 0 50.667 1 68 3s31.5 4.66699 42.5 8s19.833 7.5 26.5 12.5l20 15.5l7 6c19.333 23.333 29 39.666 29 48.999
c0 4 -1.33301 8.66699 -4 14s-5.83398 10.666 -9.50098 15.999s-7.5 10.5 -11.5 15.5l-9 11.5l4 30c-15.333 -13.333 -31.5 -25.166 -48.5 -35.499s-33.333 -19.166 -49 -26.499s-30 -12.833 -43 -16.5s-23.5 -5.5 -31.5 -5.5l0.5 -1
c0.333008 -0.666992 0.5 -1.33398 0.5 -2.00098c-8 12 -21.333 22.333 -40 31s-38.167 15.834 -58.5 21.501s-39.666 10 -57.999 13s-31.5 4.83301 -39.5 5.5c-26.667 0 -49.667 -3 -69 -9s-35.333 -13.833 -48 -23.5s-22 -20.5 -28 -32.5s-9 -23.667 -9 -35
c0 -14.667 5.66699 -36 17 -64c20 6 36.667 14.167 50 24.5s22.333 17.833 27 22.5l4 4c1.33301 0.666992 3.16602 1.66699 5.49902 3s5.83301 3.66602 10.5 6.99902zM518 380.002v-1.00098c0.666992 0 1 -0.333008 1 -1c-0.666992 0.666992 -1 1.33398 -1 2.00098z" />
    <glyph glyph-name="quotesinglbase" horiz-adv-x="130" 
d="M9 -59c8.66699 -10.667 16.998 -16.001 24.998 -16.001c2.66699 0 4.66699 0.666992 6 2c0.666992 -3.33301 6.66699 -11.333 18 -24c5.33301 19.333 9.83301 34 13.5 44s7 17.833 10 23.5s6 10.334 9 14.001s6.83301 8.83398 11.5 15.501s10.334 16.167 17.001 28.5
s15.334 30.166 26.001 53.499c-10 30.667 -34.667 46 -74 46h-15c-4 -19.333 -8.16699 -38 -12.5 -56s-7.83301 -31.667 -10.5 -41h1c-6 -15.333 -11.333 -30.833 -16 -46.5s-8 -27.167 -10 -34.5z" />
    <glyph glyph-name="quotesinglbase" unicode="&#x201a;" horiz-adv-x="130" 
d="M9 -59c8.66699 -10.667 16.998 -16.001 24.998 -16.001c2.66699 0 4.66699 0.666992 6 2c0.666992 -3.33301 6.66699 -11.333 18 -24c5.33301 19.333 9.83301 34 13.5 44s7 17.833 10 23.5s6 10.334 9 14.001s6.83301 8.83398 11.5 15.501s10.334 16.167 17.001 28.5
s15.334 30.166 26.001 53.499c-10 30.667 -34.667 46 -74 46h-15c-4 -19.333 -8.16699 -38 -12.5 -56s-7.83301 -31.667 -10.5 -41h1c-6 -15.333 -11.333 -30.833 -16 -46.5s-8 -27.167 -10 -34.5z" />
    <glyph glyph-name="florin" horiz-adv-x="472" 
d="M141 -160c-4 0 -7.83496 2.00098 -11.502 6.00098l-13 14c-5 5.33301 -11 10.833 -18 16.5s-15.167 10.167 -24.5 13.5l-65 21c-7.33301 -4 -13.833 -9.83301 -19.5 -17.5s-9.66699 -14.167 -12 -19.5s-3.83301 -8.33301 -4.5 -9c-2 -4 -3 -7.66699 -3 -11
c8 -24 17.333 -41.167 28 -51.5s22.334 -18.666 35.001 -24.999l42 -20c15.333 -7 31.666 -18.833 48.999 -35.5l39 10c5.33301 -2.66699 9 -4 11 -4c4.66699 0 9 2.66699 13 8l1 -1c0.666992 -1.33301 4 -2.83301 10 -4.5s11.333 -7.16699 16 -16.5h16
c19.333 0 33.333 4.5 42 13.5s13.334 24.167 14.001 45.5c2 11.333 3.83301 19.833 5.5 25.5s3.16699 10 4.5 13s2.33301 5.33301 3 7s1 4.5 1 8.5c0 4.66699 -1.16699 9.33398 -3.5 14.001l-8 15.5c-3 5.66699 -5.66699 12.334 -8 20.001s-3.5 16.834 -3.5 27.501
c0 19.333 1 41.666 3 66.999v5c0 6 -0.833008 11.833 -2.5 17.5s-3.5 11.167 -5.5 16.5l2 2c0 20 -1.16699 36.833 -3.5 50.5s-3.5 27.167 -3.5 40.5v7c0 5.33301 2.66699 12.333 8 21s8 19.667 8 33v31c0 1.33301 0.166992 3 0.5 5s0.5 4 0.5 6
c0 5.33301 -1.83301 10.5 -5.5 15.5s-8.16699 8.16699 -13.5 9.5c0 4.66699 2.16699 8.83398 6.5 12.501s6.5 10.167 6.5 19.5c0 3.33301 -0.833008 9 -2.5 17s-2.5 13.667 -2.5 17c0 0.666992 0.333008 3 1 7l2.5 14.5c1 5.66699 1.5 9.5 1.5 11.5l3 86
c3.33301 0 7.33301 -0.166992 12 -0.5s9.66699 -0.5 15 -0.5h13c10.667 -0.666992 20.667 -1 30 -1h26h18c32 0.666992 56.333 5.33398 73 14.001c-3.33301 11.333 -5 18 -5 20c0 0.666992 0.333008 3.16699 1 7.5s1.16699 9 1.5 14s0.833008 9.5 1.5 13.5s1 6.33301 1 7
c0 19.333 -8.66699 29.333 -26 30c-1.33301 0 -5.33301 -0.666992 -12 -2l-21 -4l-21 -4c-6.66699 -1.33301 -11 -2 -13 -2c-3.33301 0 -7.16602 2 -11.499 6s-11.166 6 -20.499 6c-1.33301 0 -7.33301 -1.16699 -18 -3.5s-20.334 -3.5 -29.001 -3.5v89
c0 42 2.16699 75.333 6.5 100s12.166 43.167 23.499 55.5s26.833 20.333 46.5 24s44.834 5.5 75.501 5.5h27c20 26 30 48.667 30 68c0 34.667 -22 57.667 -66 69h-7c-8 0 -19.667 -2.5 -35 -7.5s-30.833 -10.667 -46.5 -17l-41.5 -17l-18 -7.5l2 -1
c-3.33301 1.33301 -6.16602 2.16602 -8.49902 2.49902l-3.5 0.5h-1c-14 0 -26.833 -7.66699 -38.5 -23s-21.834 -33.333 -30.501 -54s-15.667 -41.334 -21 -62.001s-8.66602 -36.334 -9.99902 -47.001l-5 -174c-3.33301 1.33301 -7 2 -11 2h-9c-9.33301 0 -16.333 -2 -21 -6
s-8.33398 -6 -11.001 -6c-2 0 -6.16699 0.666992 -12.5 2s-13.333 2.66602 -21 3.99902s-14.667 2.66602 -21 3.99902s-10.5 2 -12.5 2c-16.667 -0.666992 -25 -10.667 -25 -30c0 -1.33301 0.333008 -4.16602 1 -8.49902s1.16699 -9 1.5 -14s0.833008 -9.5 1.5 -13.5l1 -6
c0 -2 -1.66699 -8.66699 -5 -20c16.667 -8.66699 40.667 -13.334 72 -14.001h18h25c9.33301 0 19.333 0.333008 30 1c2 -10 3 -20.667 3 -32c0 -9.33301 -1.33301 -20.666 -4 -33.999s-4 -27 -4 -41v-59c0 -20 -0.333008 -38.667 -1 -56
c0 -14.667 0.666992 -24.334 2 -29.001s2 -9 2 -13c0 -9.33301 -1.33301 -19.333 -4 -30s-4 -20.667 -4 -30l-3 -5v-21c0 -6 0.333008 -11 1 -15c-0.666992 -5.33301 -1.16699 -11 -1.5 -17s-0.833008 -11 -1.5 -15l4 -6c0.666992 -29.333 1.5 -56.333 2.5 -81
s1.5 -47.334 1.5 -68.001c-14 -14.667 -23.333 -22 -28 -22z" />
    <glyph glyph-name="florin" unicode="&#x192;" horiz-adv-x="472" 
d="M141 -160c-4 0 -7.83496 2.00098 -11.502 6.00098l-13 14c-5 5.33301 -11 10.833 -18 16.5s-15.167 10.167 -24.5 13.5l-65 21c-7.33301 -4 -13.833 -9.83301 -19.5 -17.5s-9.66699 -14.167 -12 -19.5s-3.83301 -8.33301 -4.5 -9c-2 -4 -3 -7.66699 -3 -11
c8 -24 17.333 -41.167 28 -51.5s22.334 -18.666 35.001 -24.999l42 -20c15.333 -7 31.666 -18.833 48.999 -35.5l39 10c5.33301 -2.66699 9 -4 11 -4c4.66699 0 9 2.66699 13 8l1 -1c0.666992 -1.33301 4 -2.83301 10 -4.5s11.333 -7.16699 16 -16.5h16
c19.333 0 33.333 4.5 42 13.5s13.334 24.167 14.001 45.5c2 11.333 3.83301 19.833 5.5 25.5s3.16699 10 4.5 13s2.33301 5.33301 3 7s1 4.5 1 8.5c0 4.66699 -1.16699 9.33398 -3.5 14.001l-8 15.5c-3 5.66699 -5.66699 12.334 -8 20.001s-3.5 16.834 -3.5 27.501
c0 19.333 1 41.666 3 66.999v5c0 6 -0.833008 11.833 -2.5 17.5s-3.5 11.167 -5.5 16.5l2 2c0 20 -1.16699 36.833 -3.5 50.5s-3.5 27.167 -3.5 40.5v7c0 5.33301 2.66699 12.333 8 21s8 19.667 8 33v31c0 1.33301 0.166992 3 0.5 5s0.5 4 0.5 6
c0 5.33301 -1.83301 10.5 -5.5 15.5s-8.16699 8.16699 -13.5 9.5c0 4.66699 2.16699 8.83398 6.5 12.501s6.5 10.167 6.5 19.5c0 3.33301 -0.833008 9 -2.5 17s-2.5 13.667 -2.5 17c0 0.666992 0.333008 3 1 7l2.5 14.5c1 5.66699 1.5 9.5 1.5 11.5l3 86
c3.33301 0 7.33301 -0.166992 12 -0.5s9.66699 -0.5 15 -0.5h13c10.667 -0.666992 20.667 -1 30 -1h26h18c32 0.666992 56.333 5.33398 73 14.001c-3.33301 11.333 -5 18 -5 20c0 0.666992 0.333008 3.16699 1 7.5s1.16699 9 1.5 14s0.833008 9.5 1.5 13.5s1 6.33301 1 7
c0 19.333 -8.66699 29.333 -26 30c-1.33301 0 -5.33301 -0.666992 -12 -2l-21 -4l-21 -4c-6.66699 -1.33301 -11 -2 -13 -2c-3.33301 0 -7.16602 2 -11.499 6s-11.166 6 -20.499 6c-1.33301 0 -7.33301 -1.16699 -18 -3.5s-20.334 -3.5 -29.001 -3.5v89
c0 42 2.16699 75.333 6.5 100s12.166 43.167 23.499 55.5s26.833 20.333 46.5 24s44.834 5.5 75.501 5.5h27c20 26 30 48.667 30 68c0 34.667 -22 57.667 -66 69h-7c-8 0 -19.667 -2.5 -35 -7.5s-30.833 -10.667 -46.5 -17l-41.5 -17l-18 -7.5l2 -1
c-3.33301 1.33301 -6.16602 2.16602 -8.49902 2.49902l-3.5 0.5h-1c-14 0 -26.833 -7.66699 -38.5 -23s-21.834 -33.333 -30.501 -54s-15.667 -41.334 -21 -62.001s-8.66602 -36.334 -9.99902 -47.001l-5 -174c-3.33301 1.33301 -7 2 -11 2h-9c-9.33301 0 -16.333 -2 -21 -6
s-8.33398 -6 -11.001 -6c-2 0 -6.16699 0.666992 -12.5 2s-13.333 2.66602 -21 3.99902s-14.667 2.66602 -21 3.99902s-10.5 2 -12.5 2c-16.667 -0.666992 -25 -10.667 -25 -30c0 -1.33301 0.333008 -4.16602 1 -8.49902s1.16699 -9 1.5 -14s0.833008 -9.5 1.5 -13.5l1 -6
c0 -2 -1.66699 -8.66699 -5 -20c16.667 -8.66699 40.667 -13.334 72 -14.001h18h25c9.33301 0 19.333 0.333008 30 1c2 -10 3 -20.667 3 -32c0 -9.33301 -1.33301 -20.666 -4 -33.999s-4 -27 -4 -41v-59c0 -20 -0.333008 -38.667 -1 -56
c0 -14.667 0.666992 -24.334 2 -29.001s2 -9 2 -13c0 -9.33301 -1.33301 -19.333 -4 -30s-4 -20.667 -4 -30l-3 -5v-21c0 -6 0.333008 -11 1 -15c-0.666992 -5.33301 -1.16699 -11 -1.5 -17s-0.833008 -11 -1.5 -15l4 -6c0.666992 -29.333 1.5 -56.333 2.5 -81
s1.5 -47.334 1.5 -68.001c-14 -14.667 -23.333 -22 -28 -22z" />
    <glyph glyph-name="quotedblbase" horiz-adv-x="274" 
d="M126 -33c13.333 -17.333 27.667 -25.999 43 -25.999h10l60 69.5l55 60.5c-26 30 -55.333 49.333 -88 58c-17.333 -24.667 -32.5 -49.334 -45.5 -74.001s-24.833 -51 -35.5 -79zM164.001 82.001c-3.33301 8 -6.5 14.5 -9.5 19.5s-7.5 9 -13.5 12s-14.333 5.5 -25 7.5
s-25.667 4 -45 6c-15.333 -67.333 -23.333 -101 -24 -101c-20.667 0 -31 -15.333 -31 -46v-16l60 -16l43.5 62.5l43.5 65.5z" />
    <glyph glyph-name="quotedblbase" unicode="&#x201e;" horiz-adv-x="274" 
d="M126 -33c13.333 -17.333 27.667 -25.999 43 -25.999h10l60 69.5l55 60.5c-26 30 -55.333 49.333 -88 58c-17.333 -24.667 -32.5 -49.334 -45.5 -74.001s-24.833 -51 -35.5 -79zM164.001 82.001c-3.33301 8 -6.5 14.5 -9.5 19.5s-7.5 9 -13.5 12s-14.333 5.5 -25 7.5
s-25.667 4 -45 6c-15.333 -67.333 -23.333 -101 -24 -101c-20.667 0 -31 -15.333 -31 -46v-16l60 -16l43.5 62.5l43.5 65.5z" />
    <glyph glyph-name="ellipsis" unicode="&#x85;" horiz-adv-x="816" 
d="M546 73l-3.00098 -3.00098v-32c0 -22 5.33301 -35.667 16 -41l-9 -8c10 1.33301 18 2.66602 24 3.99902s11 2.33301 15 3l-6 -6c17.333 2.66699 29.333 4.16699 36 4.5s12.334 0.5 17.001 0.5h14c9.33301 0 16.833 3.16699 22.5 9.5s8.5 14.166 8.5 23.499v12
c-9.33301 5.33301 -14 10 -14 14c0 0.666992 0.5 2.83398 1.5 6.50098s2.33301 7.83398 4 12.501s3 9.33398 4 14.001s1.5 8.33398 1.5 11.001c0 1.33301 -0.166992 2.83301 -0.5 4.5s-1.5 5.16699 -3.5 10.5l-9 6h-13c-2.66699 0 -5 0.333008 -7 1s-4.66699 1 -8 1
c-8 0 -17.5 -0.166992 -28.5 -0.5s-21.5 -1.5 -31.5 -3.5s-18.5 -4.83301 -25.5 -8.5s-10.5 -8.83398 -10.5 -15.501c0 -1.33301 0.5 -4.5 1.5 -9.5s2.16699 -8.5 3.5 -10.5zM142.999 125.999h-1.00293c-2 0.666992 -4.33301 1 -7 1h-5h-3l3 -1
c-2.66699 0.666992 -5.16699 1.33398 -7.5 2.00098s-4.83301 1 -7.5 1c-7.33301 0 -16.5 -0.333008 -27.5 -1s-21.667 -2.16699 -32 -4.5s-19.166 -5.33301 -26.499 -9s-11 -8.5 -11 -14.5c0 -2.66699 1.66699 -8 5 -16v-3c0 -0.666992 -1 -2 -3 -4v-31
c0 -10 1.16699 -18.667 3.5 -26s6.83301 -12.333 13.5 -15l-9 -8c10 1.33301 17.667 2.5 23 3.5s9.33301 1.66699 12 2s4.33398 0.5 5.00098 0.5h1l14 -4c4.66699 0 8.66699 1.33301 12 4h33c8.66699 0 16 2.66699 22 8s9 13.666 9 24.999v10
c-9.33301 4.66699 -14 9.33398 -14 14.001c0 0.666992 0.833008 3.66699 2.5 9s3.33398 11.666 5.00098 18.999s2.5 13 2.5 17c0 1.33301 -0.166992 2.83301 -0.5 4.5s-1.5 5.16699 -3.5 10.5zM285.996 117.999c-2 -3.33301 -3.1709 -6.33105 -3.50391 -8.99805
s-0.5 -5 -0.5 -7s0.5 -5.66699 1.5 -11l3 -15.5c1 -5 2 -9.5 3 -13.5s1.83301 -6 2.5 -6c-0.666992 -2.66699 -2.16699 -4.83398 -4.5 -6.50098s-5.16602 -3.83398 -8.49902 -6.50098v-11c0 -8 2.33301 -15.5 7 -22.5s12.334 -10.5 23.001 -10.5h33c4 -2 8 -3 12 -3
c5.33301 0 9.66602 1.33301 12.999 4h1c2.66699 0 6.5 -0.333008 11.5 -1s9.16699 -1 12.5 -1c6 1.33301 11.667 5.33301 17 12s8 16 8 28v5c-0.666992 4 -1 7.33301 -1 10v9c0 4.66699 0.666992 8 2 10l-3 4.5l-1 1.5v2c3.33301 10 5 16 5 18
c0 5.33301 -2.16699 9.5 -6.5 12.5s-9.66602 5.33301 -15.999 7s-13.5 2.66699 -21.5 3s-15.667 0.5 -23 0.5h-5c-11.333 3.33301 -19.666 5 -24.999 5c-3.33301 0 -7.66602 -0.666992 -12.999 -2l-1 5zM545.992 73.001l-1 4c0 -0.666992 0.166992 -1.16699 0.5 -1.5
s0.5 -0.833008 0.5 -1.5v-1z" />
    <glyph glyph-name="ellipsis" unicode="&#x2026;" horiz-adv-x="816" 
d="M546 73l-3.00098 -3.00098v-32c0 -22 5.33301 -35.667 16 -41l-9 -8c10 1.33301 18 2.66602 24 3.99902s11 2.33301 15 3l-6 -6c17.333 2.66699 29.333 4.16699 36 4.5s12.334 0.5 17.001 0.5h14c9.33301 0 16.833 3.16699 22.5 9.5s8.5 14.166 8.5 23.499v12
c-9.33301 5.33301 -14 10 -14 14c0 0.666992 0.5 2.83398 1.5 6.50098s2.33301 7.83398 4 12.501s3 9.33398 4 14.001s1.5 8.33398 1.5 11.001c0 1.33301 -0.166992 2.83301 -0.5 4.5s-1.5 5.16699 -3.5 10.5l-9 6h-13c-2.66699 0 -5 0.333008 -7 1s-4.66699 1 -8 1
c-8 0 -17.5 -0.166992 -28.5 -0.5s-21.5 -1.5 -31.5 -3.5s-18.5 -4.83301 -25.5 -8.5s-10.5 -8.83398 -10.5 -15.501c0 -1.33301 0.5 -4.5 1.5 -9.5s2.16699 -8.5 3.5 -10.5zM142.999 125.999h-1.00293c-2 0.666992 -4.33301 1 -7 1h-5h-3l3 -1
c-2.66699 0.666992 -5.16699 1.33398 -7.5 2.00098s-4.83301 1 -7.5 1c-7.33301 0 -16.5 -0.333008 -27.5 -1s-21.667 -2.16699 -32 -4.5s-19.166 -5.33301 -26.499 -9s-11 -8.5 -11 -14.5c0 -2.66699 1.66699 -8 5 -16v-3c0 -0.666992 -1 -2 -3 -4v-31
c0 -10 1.16699 -18.667 3.5 -26s6.83301 -12.333 13.5 -15l-9 -8c10 1.33301 17.667 2.5 23 3.5s9.33301 1.66699 12 2s4.33398 0.5 5.00098 0.5h1l14 -4c4.66699 0 8.66699 1.33301 12 4h33c8.66699 0 16 2.66699 22 8s9 13.666 9 24.999v10
c-9.33301 4.66699 -14 9.33398 -14 14.001c0 0.666992 0.833008 3.66699 2.5 9s3.33398 11.666 5.00098 18.999s2.5 13 2.5 17c0 1.33301 -0.166992 2.83301 -0.5 4.5s-1.5 5.16699 -3.5 10.5zM285.996 117.999c-2 -3.33301 -3.1709 -6.33105 -3.50391 -8.99805
s-0.5 -5 -0.5 -7s0.5 -5.66699 1.5 -11l3 -15.5c1 -5 2 -9.5 3 -13.5s1.83301 -6 2.5 -6c-0.666992 -2.66699 -2.16699 -4.83398 -4.5 -6.50098s-5.16602 -3.83398 -8.49902 -6.50098v-11c0 -8 2.33301 -15.5 7 -22.5s12.334 -10.5 23.001 -10.5h33c4 -2 8 -3 12 -3
c5.33301 0 9.66602 1.33301 12.999 4h1c2.66699 0 6.5 -0.333008 11.5 -1s9.16699 -1 12.5 -1c6 1.33301 11.667 5.33301 17 12s8 16 8 28v5c-0.666992 4 -1 7.33301 -1 10v9c0 4.66699 0.666992 8 2 10l-3 4.5l-1 1.5v2c3.33301 10 5 16 5 18
c0 5.33301 -2.16699 9.5 -6.5 12.5s-9.66602 5.33301 -15.999 7s-13.5 2.66699 -21.5 3s-15.667 0.5 -23 0.5h-5c-11.333 3.33301 -19.666 5 -24.999 5c-3.33301 0 -7.66602 -0.666992 -12.999 -2l-1 5zM545.992 73.001l-1 4c0 -0.666992 0.166992 -1.16699 0.5 -1.5
s0.5 -0.833008 0.5 -1.5v-1z" />
    <glyph glyph-name="dagger" horiz-adv-x="512" 
d="M259 470l33.002 -5.00195h-1c7.33301 -1.33301 14.166 -2.33301 20.499 -3s12.166 -1 17.499 -1c34.667 0 61.167 6.16699 79.5 18.5s27.5 27.5 27.5 45.5c0 3.33301 -0.666992 8.33301 -2 15h2c-4 8 -8.66699 16.167 -14 24.5s-10.333 14.833 -15 19.5l-9 -8
c-11.333 -0.666992 -20.333 -1.66699 -27 -3l-22 -4.5c-8 -1.66699 -17.833 -3 -29.5 -4s-27.834 -1.5 -48.501 -1.5h-23c0 6 0.333008 13.167 1 21.5l2 25.5l2 26c0.666992 8.66699 1 16 1 22v5c4 6.66699 7.33301 17.167 10 31.5s4.66699 31.833 6 52.5l-6 -6v1
c0 6 -0.5 12.5 -1.5 19.5s-3.33301 13.167 -7 18.5s-9 9.83301 -16 13.5s-16.167 5.5 -27.5 5.5h-5c-5.33301 -0.666992 -10.333 -1 -15 -1h-13c-6.66699 0 -11 0.666992 -13 2c-26 -0.666992 -39 -13 -39 -37c0 -13.333 1.83301 -27.666 5.5 -42.999
s6.16699 -30.333 7.5 -45c0.666992 -12 1 -24.333 1 -37v-39v-27c-10 -2.66699 -20.333 -4 -31 -4c-14 0 -26 4 -36 12h-58c-16.667 0 -31 0.666992 -43 2l-1 -35c-0.666992 -2.66699 -1 -5.33398 -1 -8.00098v-9c0 -6 0.166992 -12.667 0.5 -20s2.83301 -14.333 7.5 -21
s12 -12.167 22 -16.5s25 -6.5 45 -6.5c4.66699 0 12.5 0.166992 23.5 0.5s22.167 0.833008 33.5 1.5s22 1.33398 32 2.00098s17 1.33398 21 2.00098v-135v-151c0 -44 -0.333008 -82.667 -1 -116c0.666992 -1.33301 1 -3 1 -5c0 -3.33301 -1.66699 -9 -5 -17
s-4.66602 -12.667 -3.99902 -14c0 -8 1.83301 -14.167 5.5 -18.5s8.16699 -7.83301 13.5 -10.5s11 -4.33398 17 -5.00098s11.667 -1 17 -1c22.667 0 40.667 9.66699 54 29l-10 187c1.33301 18.667 2.5 39.334 3.5 62.001s1.5 48 1.5 76c0 35.333 -1 74 -3 116
c2.66699 0.666992 5 1 7 1h6z" />
    <glyph glyph-name="dagger" unicode="&#x2020;" horiz-adv-x="512" 
d="M259 470l33.002 -5.00195h-1c7.33301 -1.33301 14.166 -2.33301 20.499 -3s12.166 -1 17.499 -1c34.667 0 61.167 6.16699 79.5 18.5s27.5 27.5 27.5 45.5c0 3.33301 -0.666992 8.33301 -2 15h2c-4 8 -8.66699 16.167 -14 24.5s-10.333 14.833 -15 19.5l-9 -8
c-11.333 -0.666992 -20.333 -1.66699 -27 -3l-22 -4.5c-8 -1.66699 -17.833 -3 -29.5 -4s-27.834 -1.5 -48.501 -1.5h-23c0 6 0.333008 13.167 1 21.5l2 25.5l2 26c0.666992 8.66699 1 16 1 22v5c4 6.66699 7.33301 17.167 10 31.5s4.66699 31.833 6 52.5l-6 -6v1
c0 6 -0.5 12.5 -1.5 19.5s-3.33301 13.167 -7 18.5s-9 9.83301 -16 13.5s-16.167 5.5 -27.5 5.5h-5c-5.33301 -0.666992 -10.333 -1 -15 -1h-13c-6.66699 0 -11 0.666992 -13 2c-26 -0.666992 -39 -13 -39 -37c0 -13.333 1.83301 -27.666 5.5 -42.999
s6.16699 -30.333 7.5 -45c0.666992 -12 1 -24.333 1 -37v-39v-27c-10 -2.66699 -20.333 -4 -31 -4c-14 0 -26 4 -36 12h-58c-16.667 0 -31 0.666992 -43 2l-1 -35c-0.666992 -2.66699 -1 -5.33398 -1 -8.00098v-9c0 -6 0.166992 -12.667 0.5 -20s2.83301 -14.333 7.5 -21
s12 -12.167 22 -16.5s25 -6.5 45 -6.5c4.66699 0 12.5 0.166992 23.5 0.5s22.167 0.833008 33.5 1.5s22 1.33398 32 2.00098s17 1.33398 21 2.00098v-135v-151c0 -44 -0.333008 -82.667 -1 -116c0.666992 -1.33301 1 -3 1 -5c0 -3.33301 -1.66699 -9 -5 -17
s-4.66602 -12.667 -3.99902 -14c0 -8 1.83301 -14.167 5.5 -18.5s8.16699 -7.83301 13.5 -10.5s11 -4.33398 17 -5.00098s11.667 -1 17 -1c22.667 0 40.667 9.66699 54 29l-10 187c1.33301 18.667 2.5 39.334 3.5 62.001s1.5 48 1.5 76c0 35.333 -1 74 -3 116
c2.66699 0.666992 5 1 7 1h6z" />
    <glyph glyph-name="daggerdbl" horiz-adv-x="554" 
d="M262 466l1.00098 1.00488c2.66699 0 4.33398 1.33301 5.00098 4c16.667 6 31 9 43 9c7.33301 0 16 -0.833008 26 -2.5s20.667 -4.83398 32 -9.50098c3.33301 1.33301 6.16602 2.83301 8.49902 4.5s4.16602 2.5 5.49902 2.5c0.666992 0 2.83398 -0.5 6.50098 -1.5
s7.83398 -2 12.501 -3s9.33398 -1.83301 14.001 -2.5s8.33398 -1 11.001 -1c19.333 0 29 11 29 33c0 10.667 -2 23.667 -6 39v8c0 20.667 -8.33301 31 -25 31h-3c-2.66699 0 -4.83398 -0.333008 -6.50098 -1s-3.5 -1 -5.5 -1h-5c-3.33301 -0.666992 -5.66602 -1 -6.99902 -1
h-3h-4c-10 0 -17.167 -0.166992 -21.5 -0.5s-8.33301 -0.833008 -12 -1.5s-7.83398 -1.16699 -12.501 -1.5s-12.334 -0.5 -23.001 -0.5h-61c-1.33301 11.333 -3.16602 24.833 -5.49902 40.5s-4.83301 34.167 -7.5 55.5c16 18 24 44 24 78c0 13.333 -2.5 25.166 -7.5 35.499
s-14.167 15.5 -27.5 15.5c-3.33301 0 -8.16602 -0.333008 -14.499 -1s-9.83301 -1 -10.5 -1c-8.66699 0 -18.334 2 -29.001 6c-5.33301 -1.33301 -10.833 -4.33301 -16.5 -9l-15.5 -13h2c1.33301 0 2.33301 -1 3 -3s1 -6.33301 1 -13h-19c0 -14 2 -30.167 6 -48.5
s6.66699 -36.5 8 -54.5c0.666992 -26.667 1 -47 1 -61v-28c-14 -4 -26.333 -6 -37 -6c-6 0 -12.333 1 -19 3s-12.667 5 -18 9c-3.33301 -1.33301 -6.33301 -2 -9 -2h-5c0.666992 0 -0.333008 0.166992 -3 0.5s-6 0.666016 -10 0.999023l-12.5 1
c-4.33301 0.333008 -7.5 0.5 -9.5 0.5h1c-13.333 2 -29.333 3 -48 3c0 -27.333 0.333008 -49 1 -65s3.16699 -28.167 7.5 -36.5s11.166 -13.666 20.499 -15.999s22.666 -3.5 39.999 -3.5c4.66699 0 12.167 0.333008 22.5 1s20.833 1.5 31.5 2.5s20.667 2 30 3
s15.333 1.5 18 1.5c3.33301 0 5.33301 -8.5 6 -25.5s1 -41.5 1 -73.5v-40l-78 -9c-3.33301 0 -7.83301 0.833008 -13.5 2.5s-11.5 3.66699 -17.5 6s-12 4.33301 -18 6s-10.333 2.5 -13 2.5c-17.333 0 -27.5 -3.16699 -30.5 -9.5s-4.5 -17.166 -4.5 -32.499v-27
c0 -6.66699 -0.333008 -13.834 -1 -21.501l-2 -22.5c18 -1.33301 42.333 -3 73 -5s63.334 -3 98.001 -3c-0.666992 -18.667 -1.16699 -37.334 -1.5 -56.001s-0.5 -37.334 -0.5 -56.001v-28c-0.666992 -2.66699 -1 -4.66699 -1 -6v-9c0 -5.33301 0.5 -11.5 1.5 -18.5
s3 -13.5 6 -19.5s7.33301 -11.167 13 -15.5s13.5 -6.5 23.5 -6.5c22 0 44.333 15.667 67 47c-6 8.66699 -9 25.667 -9 51c0 14 0.333008 31.167 1 51.5s2.66699 42.833 6 67.5c24 4 44.667 7.16699 62 9.5s31.666 3.5 42.999 3.5c10 0 17.333 -0.833008 22 -2.5
s8 -3.16699 10 -4.5s3.33301 -2.5 4 -3.5s2 -0.833008 4 0.5c31.333 0 47 17.667 47 53c0 38 -15.667 60 -47 66h-5c-30 -11.333 -52.667 -17 -68 -17c-7.33301 0 -14 1.66699 -20 5v3c-9.33301 0 -16.333 -2 -21 -6l-29 4
c-0.666992 15.333 -1.33398 34.666 -2.00098 57.999s-1.66699 50 -3 80h5z" />
    <glyph glyph-name="daggerdbl" unicode="&#x2021;" horiz-adv-x="554" 
d="M262 466l1.00098 1.00488c2.66699 0 4.33398 1.33301 5.00098 4c16.667 6 31 9 43 9c7.33301 0 16 -0.833008 26 -2.5s20.667 -4.83398 32 -9.50098c3.33301 1.33301 6.16602 2.83301 8.49902 4.5s4.16602 2.5 5.49902 2.5c0.666992 0 2.83398 -0.5 6.50098 -1.5
s7.83398 -2 12.501 -3s9.33398 -1.83301 14.001 -2.5s8.33398 -1 11.001 -1c19.333 0 29 11 29 33c0 10.667 -2 23.667 -6 39v8c0 20.667 -8.33301 31 -25 31h-3c-2.66699 0 -4.83398 -0.333008 -6.50098 -1s-3.5 -1 -5.5 -1h-5c-3.33301 -0.666992 -5.66602 -1 -6.99902 -1
h-3h-4c-10 0 -17.167 -0.166992 -21.5 -0.5s-8.33301 -0.833008 -12 -1.5s-7.83398 -1.16699 -12.501 -1.5s-12.334 -0.5 -23.001 -0.5h-61c-1.33301 11.333 -3.16602 24.833 -5.49902 40.5s-4.83301 34.167 -7.5 55.5c16 18 24 44 24 78c0 13.333 -2.5 25.166 -7.5 35.499
s-14.167 15.5 -27.5 15.5c-3.33301 0 -8.16602 -0.333008 -14.499 -1s-9.83301 -1 -10.5 -1c-8.66699 0 -18.334 2 -29.001 6c-5.33301 -1.33301 -10.833 -4.33301 -16.5 -9l-15.5 -13h2c1.33301 0 2.33301 -1 3 -3s1 -6.33301 1 -13h-19c0 -14 2 -30.167 6 -48.5
s6.66699 -36.5 8 -54.5c0.666992 -26.667 1 -47 1 -61v-28c-14 -4 -26.333 -6 -37 -6c-6 0 -12.333 1 -19 3s-12.667 5 -18 9c-3.33301 -1.33301 -6.33301 -2 -9 -2h-5c0.666992 0 -0.333008 0.166992 -3 0.5s-6 0.666016 -10 0.999023l-12.5 1
c-4.33301 0.333008 -7.5 0.5 -9.5 0.5h1c-13.333 2 -29.333 3 -48 3c0 -27.333 0.333008 -49 1 -65s3.16699 -28.167 7.5 -36.5s11.166 -13.666 20.499 -15.999s22.666 -3.5 39.999 -3.5c4.66699 0 12.167 0.333008 22.5 1s20.833 1.5 31.5 2.5s20.667 2 30 3
s15.333 1.5 18 1.5c3.33301 0 5.33301 -8.5 6 -25.5s1 -41.5 1 -73.5v-40l-78 -9c-3.33301 0 -7.83301 0.833008 -13.5 2.5s-11.5 3.66699 -17.5 6s-12 4.33301 -18 6s-10.333 2.5 -13 2.5c-17.333 0 -27.5 -3.16699 -30.5 -9.5s-4.5 -17.166 -4.5 -32.499v-27
c0 -6.66699 -0.333008 -13.834 -1 -21.501l-2 -22.5c18 -1.33301 42.333 -3 73 -5s63.334 -3 98.001 -3c-0.666992 -18.667 -1.16699 -37.334 -1.5 -56.001s-0.5 -37.334 -0.5 -56.001v-28c-0.666992 -2.66699 -1 -4.66699 -1 -6v-9c0 -5.33301 0.5 -11.5 1.5 -18.5
s3 -13.5 6 -19.5s7.33301 -11.167 13 -15.5s13.5 -6.5 23.5 -6.5c22 0 44.333 15.667 67 47c-6 8.66699 -9 25.667 -9 51c0 14 0.333008 31.167 1 51.5s2.66699 42.833 6 67.5c24 4 44.667 7.16699 62 9.5s31.666 3.5 42.999 3.5c10 0 17.333 -0.833008 22 -2.5
s8 -3.16699 10 -4.5s3.33301 -2.5 4 -3.5s2 -0.833008 4 0.5c31.333 0 47 17.667 47 53c0 38 -15.667 60 -47 66h-5c-30 -11.333 -52.667 -17 -68 -17c-7.33301 0 -14 1.66699 -20 5v3c-9.33301 0 -16.333 -2 -21 -6l-29 4
c-0.666992 15.333 -1.33398 34.666 -2.00098 57.999s-1.66699 50 -3 80h5z" />
    <glyph glyph-name="circumflex" horiz-adv-x="447" 
d="M349 642l-155 116c-12.667 -3.33301 -28 -9.5 -46 -18.5s-36.167 -19.5 -54.5 -31.5s-35.5 -24.833 -51.5 -38.5s-28.333 -26.5 -37 -38.5c4.66699 -32 21.667 -48 51 -48c8.66699 0 18.5 2.66699 29.5 8s22.333 11.833 34 19.5s22.667 15.667 33 24
s18.833 15.5 25.5 21.5v-1c2 1.33301 4 3 6 5c17.333 -10 34.5 -22.833 51.5 -38.5s34.167 -33.167 51.5 -52.5c40.667 8 63 30.333 67 67z" />
    <glyph glyph-name="circumflex" unicode="&#x2c6;" horiz-adv-x="447" 
d="M349 642l-155 116c-12.667 -3.33301 -28 -9.5 -46 -18.5s-36.167 -19.5 -54.5 -31.5s-35.5 -24.833 -51.5 -38.5s-28.333 -26.5 -37 -38.5c4.66699 -32 21.667 -48 51 -48c8.66699 0 18.5 2.66699 29.5 8s22.333 11.833 34 19.5s22.667 15.667 33 24
s18.833 15.5 25.5 21.5v-1c2 1.33301 4 3 6 5c17.333 -10 34.5 -22.833 51.5 -38.5s34.167 -33.167 51.5 -52.5c40.667 8 63 30.333 67 67z" />
    <glyph glyph-name="perthousand" horiz-adv-x="909" 
d="M153 60l0.000976562 -30.998c0.666992 -10.667 3.33398 -18.667 8.00098 -24s10.334 -8 17.001 -8h1c8 0 16.167 3.16699 24.5 9.5s17.666 19.166 27.999 38.499s22.833 47 37.5 83s32.667 84 54 144c-3.33301 -10.667 -5.83301 -21.5 -7.5 -32.5s-2.5 -21.5 -2.5 -31.5
c0 -88 47.667 -154 143 -198c22.667 0 43.167 6.16699 61.5 18.5s34 28.666 47 48.999s23.167 43.5 30.5 69.5s11 52.667 11 80c0 56.667 -6.83301 101.667 -20.5 135s-30.834 52.666 -51.501 57.999c-9.33301 2.66699 -20.333 7 -33 13s-22.667 9 -30 9
c-11.333 0 -23.666 -3.83301 -36.999 -11.5s-26.5 -17.834 -39.5 -30.501s-24.833 -27.5 -35.5 -44.5s-19.334 -34.833 -26.001 -53.5l30 87c9.33301 28.667 19.333 57.834 30 87.501l30 81c9.33301 24.333 17.666 44.833 24.999 61.5s12.666 26 15.999 28
c14 10 21 24.667 21 44v24c0 7.33301 -0.666992 12.666 -2 15.999l-7 51c-7.33301 16 -18.333 24 -33 24c-10 0 -18.667 -3 -26 -9s-14 -14.333 -20 -25s-11.667 -23 -17 -37l-17 -46v1l-38 -94.5l-25.5 -63.5c-7 -17.333 -12.667 -31.833 -17 -43.5
s-7.66602 -23 -9.99902 -34s-4.5 -22.5 -6.5 -34.5s-4 -27 -6 -45c-2 -16 -7.16699 -33.5 -15.5 -52.5s-17.5 -38.667 -27.5 -59s-19.667 -41.166 -29 -62.499s-16 -42.333 -20 -63c-3.33301 -13.333 -6.33301 -26.666 -9 -39.999s-4.66699 -26 -6 -38zM294.001 574.002
c0 30.667 -3.16699 59.1689 -9.5 85.502s-15.666 49.166 -27.999 68.499s-27.833 34.5 -46.5 45.5s-40.334 16.5 -65.001 16.5c-17.333 0 -34 -5.66699 -50 -17s-30.5 -27 -43.5 -47s-23.333 -43.833 -31 -71.5s-11.5 -57.834 -11.5 -90.501c0 -17.333 1.83301 -36 5.5 -56
s8.33398 -38.667 14.001 -56s12.167 -31.833 19.5 -43.5s14.666 -17.5 21.999 -17.5c0.666992 0 4.16699 -1.83301 10.5 -5.5l21.5 -12c8 -4.33301 16.167 -8.33301 24.5 -12s15.5 -5.5 21.5 -5.5c50 0 91 33 123 99h-2c9.33301 19.333 15.833 39 19.5 59s5.5 40 5.5 60z
M751.001 -2.99609c21.333 0 41 6.33203 59 18.999s33.5 29.334 46.5 50.001s23.167 44 30.5 70s11 52.333 11 79c0 39.333 -3.66699 72.666 -11 99.999s-17.333 49.5 -30 66.5s-27.167 29.333 -43.5 37s-33.5 11.5 -51.5 11.5c-21.333 0 -41.166 -6.5 -59.499 -19.5
s-34.166 -30 -47.499 -51s-23.833 -44.833 -31.5 -71.5s-11.5 -54 -11.5 -82c0 -13.333 1.66699 -28.5 5 -45.5s8.66602 -35.5 15.999 -55.5c2.66699 -11.333 6.83398 -23.166 12.501 -35.499s13.167 -24 22.5 -35s20.666 -20 33.999 -27s29.666 -10.5 48.999 -10.5z
M476.001 344.003c6.66699 -4 13.001 -10.667 19.001 -20s11.5 -20.166 16.5 -32.499s9 -25.5 12 -39.5s4.5 -27.667 4.5 -41c0 -58 -22 -88.333 -66 -91h-4c-18 0 -31 9 -39 27s-12 41.333 -12 70c0 16.667 1.5 33 4.5 49s7 30.167 12 42.5s10.667 22.166 17 29.499
s13.166 11 20.499 11c2 0 4.16699 -0.5 6.5 -1.5zM147.002 459.003c-4.66699 0.666992 -10 4.83203 -16 12.499s-11.667 16.834 -17 27.501s-9.83301 22.167 -13.5 34.5s-5.5 24.166 -5.5 35.499c0 40.667 18 76.667 54 108c45.333 -6.66699 68 -36.667 68 -90
c0 -14.667 -1.83301 -29.667 -5.5 -45s-8.5 -29.166 -14.5 -41.499s-13 -22.5 -21 -30.5s-16.333 -12 -25 -12h-3c-0.666992 0 -1.16699 0.166992 -1.5 0.5s-0.833008 0.5 -1.5 0.5h2zM805.002 217.001c0 -12.667 -1.33105 -25.666 -3.99805 -38.999s-6.5 -25.5 -11.5 -36.5
s-10.833 -20 -17.5 -27s-14.334 -10.5 -23.001 -10.5c-12 0 -21.167 8.33301 -27.5 25s-9.5 40.667 -9.5 72c0 18 1.66699 35 5 51s7.16602 29.833 11.499 41.5s9.16602 21 14.499 28s10 10.5 14 10.5c6.66699 0 12.834 -3.66699 18.501 -11s10.667 -16.5 15 -27.5
s7.83301 -23.333 10.5 -37s4 -26.834 4 -39.501z" />
    <glyph glyph-name="perthousand" unicode="&#x2030;" horiz-adv-x="909" 
d="M153 60l0.000976562 -30.998c0.666992 -10.667 3.33398 -18.667 8.00098 -24s10.334 -8 17.001 -8h1c8 0 16.167 3.16699 24.5 9.5s17.666 19.166 27.999 38.499s22.833 47 37.5 83s32.667 84 54 144c-3.33301 -10.667 -5.83301 -21.5 -7.5 -32.5s-2.5 -21.5 -2.5 -31.5
c0 -88 47.667 -154 143 -198c22.667 0 43.167 6.16699 61.5 18.5s34 28.666 47 48.999s23.167 43.5 30.5 69.5s11 52.667 11 80c0 56.667 -6.83301 101.667 -20.5 135s-30.834 52.666 -51.501 57.999c-9.33301 2.66699 -20.333 7 -33 13s-22.667 9 -30 9
c-11.333 0 -23.666 -3.83301 -36.999 -11.5s-26.5 -17.834 -39.5 -30.501s-24.833 -27.5 -35.5 -44.5s-19.334 -34.833 -26.001 -53.5l30 87c9.33301 28.667 19.333 57.834 30 87.501l30 81c9.33301 24.333 17.666 44.833 24.999 61.5s12.666 26 15.999 28
c14 10 21 24.667 21 44v24c0 7.33301 -0.666992 12.666 -2 15.999l-7 51c-7.33301 16 -18.333 24 -33 24c-10 0 -18.667 -3 -26 -9s-14 -14.333 -20 -25s-11.667 -23 -17 -37l-17 -46v1l-38 -94.5l-25.5 -63.5c-7 -17.333 -12.667 -31.833 -17 -43.5
s-7.66602 -23 -9.99902 -34s-4.5 -22.5 -6.5 -34.5s-4 -27 -6 -45c-2 -16 -7.16699 -33.5 -15.5 -52.5s-17.5 -38.667 -27.5 -59s-19.667 -41.166 -29 -62.499s-16 -42.333 -20 -63c-3.33301 -13.333 -6.33301 -26.666 -9 -39.999s-4.66699 -26 -6 -38zM294.001 574.002
c0 30.667 -3.16699 59.1689 -9.5 85.502s-15.666 49.166 -27.999 68.499s-27.833 34.5 -46.5 45.5s-40.334 16.5 -65.001 16.5c-17.333 0 -34 -5.66699 -50 -17s-30.5 -27 -43.5 -47s-23.333 -43.833 -31 -71.5s-11.5 -57.834 -11.5 -90.501c0 -17.333 1.83301 -36 5.5 -56
s8.33398 -38.667 14.001 -56s12.167 -31.833 19.5 -43.5s14.666 -17.5 21.999 -17.5c0.666992 0 4.16699 -1.83301 10.5 -5.5l21.5 -12c8 -4.33301 16.167 -8.33301 24.5 -12s15.5 -5.5 21.5 -5.5c50 0 91 33 123 99h-2c9.33301 19.333 15.833 39 19.5 59s5.5 40 5.5 60z
M751.001 -2.99609c21.333 0 41 6.33203 59 18.999s33.5 29.334 46.5 50.001s23.167 44 30.5 70s11 52.333 11 79c0 39.333 -3.66699 72.666 -11 99.999s-17.333 49.5 -30 66.5s-27.167 29.333 -43.5 37s-33.5 11.5 -51.5 11.5c-21.333 0 -41.166 -6.5 -59.499 -19.5
s-34.166 -30 -47.499 -51s-23.833 -44.833 -31.5 -71.5s-11.5 -54 -11.5 -82c0 -13.333 1.66699 -28.5 5 -45.5s8.66602 -35.5 15.999 -55.5c2.66699 -11.333 6.83398 -23.166 12.501 -35.499s13.167 -24 22.5 -35s20.666 -20 33.999 -27s29.666 -10.5 48.999 -10.5z
M476.001 344.003c6.66699 -4 13.001 -10.667 19.001 -20s11.5 -20.166 16.5 -32.499s9 -25.5 12 -39.5s4.5 -27.667 4.5 -41c0 -58 -22 -88.333 -66 -91h-4c-18 0 -31 9 -39 27s-12 41.333 -12 70c0 16.667 1.5 33 4.5 49s7 30.167 12 42.5s10.667 22.166 17 29.499
s13.166 11 20.499 11c2 0 4.16699 -0.5 6.5 -1.5zM147.002 459.003c-4.66699 0.666992 -10 4.83203 -16 12.499s-11.667 16.834 -17 27.501s-9.83301 22.167 -13.5 34.5s-5.5 24.166 -5.5 35.499c0 40.667 18 76.667 54 108c45.333 -6.66699 68 -36.667 68 -90
c0 -14.667 -1.83301 -29.667 -5.5 -45s-8.5 -29.166 -14.5 -41.499s-13 -22.5 -21 -30.5s-16.333 -12 -25 -12h-3c-0.666992 0 -1.16699 0.166992 -1.5 0.5s-0.833008 0.5 -1.5 0.5h2zM805.002 217.001c0 -12.667 -1.33105 -25.666 -3.99805 -38.999s-6.5 -25.5 -11.5 -36.5
s-10.833 -20 -17.5 -27s-14.334 -10.5 -23.001 -10.5c-12 0 -21.167 8.33301 -27.5 25s-9.5 40.667 -9.5 72c0 18 1.66699 35 5 51s7.16602 29.833 11.499 41.5s9.16602 21 14.499 28s10 10.5 14 10.5c6.66699 0 12.834 -3.66699 18.501 -11s10.667 -16.5 15 -27.5
s7.83301 -23.333 10.5 -37s4 -26.834 4 -39.501z" />
    <glyph glyph-name="Scaron" horiz-adv-x="413" 
d="M344 660c20.667 6 36.6709 19.166 48.0039 39.499s19.666 47.166 24.999 80.499c-7.33301 1.33301 -15 3.16602 -23 5.49902s-16 4.5 -24 6.5s-15.167 4 -21.5 6l-15.5 5l-115 -108c-16.667 -16 -30.167 -30 -40.5 -42l-28.5 -34.5l-27 -33
c-9.33301 -11 -21.333 -23.167 -36 -36.5c-8 -8 -14 -15.667 -18 -23s-6 -15.666 -6 -24.999c0 -11.333 5.5 -23.666 16.5 -36.999s24 -26.666 39 -39.999s30.333 -25.833 46 -37.5l37.5 -28.5l33 -24.5c10.667 -7.66699 20.334 -15.167 29.001 -22.5l6 -38
c-8 -16 -18.333 -30.167 -31 -42.5s-26.667 -23.666 -42 -33.999s-31.5 -20 -48.5 -29l-50.5 -25.5c-26.667 -18.667 -46.334 -37.834 -59.001 -57.501s-19 -39.167 -19 -58.5v-17c9.33301 -3.33301 17.166 -5.66602 23.499 -6.99902s11.833 -2 16.5 -2
c21.333 0 40.5 5.83301 57.5 17.5s37.167 27.5 60.5 47.5l21 18c4 4 8.33301 7.16699 13 9.5s9.16699 4.83301 13.5 7.5s8.5 5.66699 12.5 9s7.66699 8.66602 11 15.999s8.16602 13.666 14.499 18.999s13.166 10 20.499 14c1.33301 6.66699 7.33301 13.667 18 21
s22.167 15.833 34.5 25.5s23.5 20.834 33.5 33.501s15.333 27 16 43c-11.333 20 -24.5 39.667 -39.5 59s-30.833 38 -47.5 56s-34 35 -52 51s-35.667 30.333 -53 43c6.66699 6.66699 16.167 17 28.5 31l39 46l40.5 50c13.333 16.667 24.333 31 33 43h10zM236.004 898.999
c6.66699 4 13.001 7.50293 19.001 10.5029l19 9.5l22.5 11.5c8.33301 4.33301 18.166 10.166 29.499 17.499l44 10v23c0 20 -16 42 -48 66l-90 -67c-6 5.33301 -11.833 10.166 -17.5 14.499s-12.167 9 -19.5 14s-16 10.333 -26 16l-36 20.5c-36.667 -12.667 -55 -27 -55 -43
c0 -6 4.66699 -12.833 14 -20.5s19.5 -14.834 30.5 -21.501s20.833 -12 29.5 -16s12.667 -5.33301 12 -4c7.33301 -11.333 28 -25 62 -41h10z" />
    <glyph glyph-name="Scaron" unicode="&#x160;" horiz-adv-x="413" 
d="M344 660c20.667 6 36.6709 19.166 48.0039 39.499s19.666 47.166 24.999 80.499c-7.33301 1.33301 -15 3.16602 -23 5.49902s-16 4.5 -24 6.5s-15.167 4 -21.5 6l-15.5 5l-115 -108c-16.667 -16 -30.167 -30 -40.5 -42l-28.5 -34.5l-27 -33
c-9.33301 -11 -21.333 -23.167 -36 -36.5c-8 -8 -14 -15.667 -18 -23s-6 -15.666 -6 -24.999c0 -11.333 5.5 -23.666 16.5 -36.999s24 -26.666 39 -39.999s30.333 -25.833 46 -37.5l37.5 -28.5l33 -24.5c10.667 -7.66699 20.334 -15.167 29.001 -22.5l6 -38
c-8 -16 -18.333 -30.167 -31 -42.5s-26.667 -23.666 -42 -33.999s-31.5 -20 -48.5 -29l-50.5 -25.5c-26.667 -18.667 -46.334 -37.834 -59.001 -57.501s-19 -39.167 -19 -58.5v-17c9.33301 -3.33301 17.166 -5.66602 23.499 -6.99902s11.833 -2 16.5 -2
c21.333 0 40.5 5.83301 57.5 17.5s37.167 27.5 60.5 47.5l21 18c4 4 8.33301 7.16699 13 9.5s9.16699 4.83301 13.5 7.5s8.5 5.66699 12.5 9s7.66699 8.66602 11 15.999s8.16602 13.666 14.499 18.999s13.166 10 20.499 14c1.33301 6.66699 7.33301 13.667 18 21
s22.167 15.833 34.5 25.5s23.5 20.834 33.5 33.501s15.333 27 16 43c-11.333 20 -24.5 39.667 -39.5 59s-30.833 38 -47.5 56s-34 35 -52 51s-35.667 30.333 -53 43c6.66699 6.66699 16.167 17 28.5 31l39 46l40.5 50c13.333 16.667 24.333 31 33 43h10zM236.004 898.999
c6.66699 4 13.001 7.50293 19.001 10.5029l19 9.5l22.5 11.5c8.33301 4.33301 18.166 10.166 29.499 17.499l44 10v23c0 20 -16 42 -48 66l-90 -67c-6 5.33301 -11.833 10.166 -17.5 14.499s-12.167 9 -19.5 14s-16 10.333 -26 16l-36 20.5c-36.667 -12.667 -55 -27 -55 -43
c0 -6 4.66699 -12.833 14 -20.5s19.5 -14.834 30.5 -21.501s20.833 -12 29.5 -16s12.667 -5.33301 12 -4c7.33301 -11.333 28 -25 62 -41h10z" />
    <glyph glyph-name="guilsinglleft" horiz-adv-x="281" 
d="M119 190c6.66699 -12 14.666 -24.501 23.999 -37.501s20.666 -19.5 33.999 -19.5c12.667 0 22.834 5.5 30.501 16.5s11.5 23.5 11.5 37.5c0 8.66699 -2.33301 17.334 -7 26.001l-70.5 74c-18.333 20 -31.5 35.333 -39.5 46c6 8 15 18.5 27 31.5l36.5 40
c12.333 13.667 23.5 26.667 33.5 39s16 21.5 18 27.5c-1.33301 22 -5.83301 38 -13.5 48s-18.5 15 -32.5 15h-9c-2.66699 0 -6 -0.666992 -10 -2l-88 -114c-27.333 -35.333 -50.666 -64.333 -69.999 -87l22 -41c5.33301 -8 10.5 -14.333 15.5 -19s14.5 -9 28.5 -13l-1 1
c7.33301 -3.33301 15.833 -10.5 25.5 -21.5s21.167 -26.833 34.5 -47.5z" />
    <glyph glyph-name="guilsinglleft" unicode="&#x2039;" horiz-adv-x="281" 
d="M119 190c6.66699 -12 14.666 -24.501 23.999 -37.501s20.666 -19.5 33.999 -19.5c12.667 0 22.834 5.5 30.501 16.5s11.5 23.5 11.5 37.5c0 8.66699 -2.33301 17.334 -7 26.001l-70.5 74c-18.333 20 -31.5 35.333 -39.5 46c6 8 15 18.5 27 31.5l36.5 40
c12.333 13.667 23.5 26.667 33.5 39s16 21.5 18 27.5c-1.33301 22 -5.83301 38 -13.5 48s-18.5 15 -32.5 15h-9c-2.66699 0 -6 -0.666992 -10 -2l-88 -114c-27.333 -35.333 -50.666 -64.333 -69.999 -87l22 -41c5.33301 -8 10.5 -14.333 15.5 -19s14.5 -9 28.5 -13l-1 1
c7.33301 -3.33301 15.833 -10.5 25.5 -21.5s21.167 -26.833 34.5 -47.5z" />
    <glyph glyph-name="OE" horiz-adv-x="968" 
d="M905 -6c45.333 18.667 68.332 43.333 68.999 74c-65.333 42 -117.833 78.333 -157.5 109s-67.5 54 -83.5 70c-16 10 -31.5 20.333 -46.5 31s-28.5 21.667 -40.5 33c18.667 2.66699 42.5 5.83398 71.5 9.50098s58.5 7.83398 88.5 12.501s57.833 10.334 83.5 17.001
s44.834 14.334 57.501 23.001v41c0 20 -8.66699 34 -26 42l-3 -15l-1 16c-6 -0.666992 -16.833 -1.66699 -32.5 -3s-32.834 -3.33301 -51.501 -6s-37.667 -5.66699 -57 -9s-35.666 -7 -48.999 -11c-15.333 -5.33301 -29.5 -8.83301 -42.5 -10.5s-25.167 -2.5 -36.5 -2.5
c1.33301 1.33301 2.66602 2.33301 3.99902 3s2.66602 1.66699 3.99902 3l36 25c2.66699 7.33301 8.83398 16.666 18.501 27.999s20.167 22.666 31.5 33.999l23 23c8.66699 11.333 18.167 21.666 28.5 30.999s20.5 18 30.5 26h-1l41 35.5c14.667 13 29 26.5 43 40.5
s26.667 27.833 38 41.5s19.666 26.167 24.999 37.5c-0.666992 3.33301 -1.33398 6.5 -2.00098 9.5s-1.66699 6.16699 -3 9.5h5c-3.33301 3.33301 -6.83301 6.33301 -10.5 9s-6.16699 5.33398 -7.5 8.00098v-1c-14 10 -25.333 15 -34 15c-5.33301 0 -13 -2.33301 -23 -7v1
c-25.333 -13.333 -50.333 -29.333 -75 -48s-49.334 -40.334 -74.001 -65.001l-12 -12c-15.333 24 -34.666 44.333 -57.999 61s-48.833 30.5 -76.5 41.5s-56.667 19 -87 24s-60.166 7.5 -89.499 7.5c-68.667 0 -134 -15 -196 -45c-4 -10 -12.667 -19.833 -26 -29.5
s-27.333 -19 -42 -28l-41 -26c-12.667 -8.33301 -21 -16.5 -25 -24.5c-21.333 -46.667 -37.666 -92.667 -48.999 -138s-17 -90 -17 -134c0 -54 8.83301 -103.667 26.5 -149s43.5 -87 77.5 -125c91.333 -65.333 180.666 -98 267.999 -98c28.667 0 55.834 3.16699 81.501 9.5
s50 15.166 73 26.499s45.333 25.333 67 42s43.167 35.667 64.5 57l74 -52.5c24.667 -17 49.667 -33.167 75 -48.5c10.667 -20 32.334 -33 65.001 -39h6zM567.999 173.999c-3.33301 -3.33301 -8.99707 -4.99902 -16.9971 -4.99902c-2.66699 0 -4.66699 0.333008 -6 1h-9
c-20.667 0 -31.667 -8.66699 -33 -26c-16.667 -7.33301 -34.834 -13 -54.501 -17s-41.167 -6 -64.5 -6c-14 0 -29.333 0.666992 -46 2s-33 4 -49 8s-30.833 9.66699 -44.5 17s-24.834 17 -33.501 29v-1c-3.33301 5.33301 -7.5 14.5 -12.5 27.5l-16.5 42.5
c-6 15.333 -12.333 30.5 -19 45.5s-14 27.167 -22 36.5c8 18 12 39.333 12 64c0 5.33301 -0.666992 14.333 -2 27s-2 26.667 -2 42v18c11.333 28.667 25 56 41 82s34 51.667 54 77c6.66699 0.666992 15.834 2.33398 27.501 5.00098l36 8.5l35 8.5c11 2.66699 19.5 4 25.5 4
c5.33301 0 13.666 -1 24.999 -3c11.333 4.66699 22.666 8 33.999 10s22.666 3 33.999 3c18.667 0 35.834 -1.66699 51.501 -5s30.834 -9 45.501 -17s29 -18.333 43 -31s28.667 -28.334 44 -47.001l-23 -25c-14.667 -6.66699 -28.5 -15.167 -41.5 -25.5
s-25.833 -21.5 -38.5 -33.5c-4.66699 -20 -18.334 -40.667 -41.001 -62l-67 -68c26 -28.667 52.667 -55.834 80 -81.501l83 -74.5c-8 -10 -17.667 -20 -29 -30z" />
    <glyph glyph-name="OE" unicode="&#x152;" horiz-adv-x="968" 
d="M905 -6c45.333 18.667 68.332 43.333 68.999 74c-65.333 42 -117.833 78.333 -157.5 109s-67.5 54 -83.5 70c-16 10 -31.5 20.333 -46.5 31s-28.5 21.667 -40.5 33c18.667 2.66699 42.5 5.83398 71.5 9.50098s58.5 7.83398 88.5 12.501s57.833 10.334 83.5 17.001
s44.834 14.334 57.501 23.001v41c0 20 -8.66699 34 -26 42l-3 -15l-1 16c-6 -0.666992 -16.833 -1.66699 -32.5 -3s-32.834 -3.33301 -51.501 -6s-37.667 -5.66699 -57 -9s-35.666 -7 -48.999 -11c-15.333 -5.33301 -29.5 -8.83301 -42.5 -10.5s-25.167 -2.5 -36.5 -2.5
c1.33301 1.33301 2.66602 2.33301 3.99902 3s2.66602 1.66699 3.99902 3l36 25c2.66699 7.33301 8.83398 16.666 18.501 27.999s20.167 22.666 31.5 33.999l23 23c8.66699 11.333 18.167 21.666 28.5 30.999s20.5 18 30.5 26h-1l41 35.5c14.667 13 29 26.5 43 40.5
s26.667 27.833 38 41.5s19.666 26.167 24.999 37.5c-0.666992 3.33301 -1.33398 6.5 -2.00098 9.5s-1.66699 6.16699 -3 9.5h5c-3.33301 3.33301 -6.83301 6.33301 -10.5 9s-6.16699 5.33398 -7.5 8.00098v-1c-14 10 -25.333 15 -34 15c-5.33301 0 -13 -2.33301 -23 -7v1
c-25.333 -13.333 -50.333 -29.333 -75 -48s-49.334 -40.334 -74.001 -65.001l-12 -12c-15.333 24 -34.666 44.333 -57.999 61s-48.833 30.5 -76.5 41.5s-56.667 19 -87 24s-60.166 7.5 -89.499 7.5c-68.667 0 -134 -15 -196 -45c-4 -10 -12.667 -19.833 -26 -29.5
s-27.333 -19 -42 -28l-41 -26c-12.667 -8.33301 -21 -16.5 -25 -24.5c-21.333 -46.667 -37.666 -92.667 -48.999 -138s-17 -90 -17 -134c0 -54 8.83301 -103.667 26.5 -149s43.5 -87 77.5 -125c91.333 -65.333 180.666 -98 267.999 -98c28.667 0 55.834 3.16699 81.501 9.5
s50 15.166 73 26.499s45.333 25.333 67 42s43.167 35.667 64.5 57l74 -52.5c24.667 -17 49.667 -33.167 75 -48.5c10.667 -20 32.334 -33 65.001 -39h6zM567.999 173.999c-3.33301 -3.33301 -8.99707 -4.99902 -16.9971 -4.99902c-2.66699 0 -4.66699 0.333008 -6 1h-9
c-20.667 0 -31.667 -8.66699 -33 -26c-16.667 -7.33301 -34.834 -13 -54.501 -17s-41.167 -6 -64.5 -6c-14 0 -29.333 0.666992 -46 2s-33 4 -49 8s-30.833 9.66699 -44.5 17s-24.834 17 -33.501 29v-1c-3.33301 5.33301 -7.5 14.5 -12.5 27.5l-16.5 42.5
c-6 15.333 -12.333 30.5 -19 45.5s-14 27.167 -22 36.5c8 18 12 39.333 12 64c0 5.33301 -0.666992 14.333 -2 27s-2 26.667 -2 42v18c11.333 28.667 25 56 41 82s34 51.667 54 77c6.66699 0.666992 15.834 2.33398 27.501 5.00098l36 8.5l35 8.5c11 2.66699 19.5 4 25.5 4
c5.33301 0 13.666 -1 24.999 -3c11.333 4.66699 22.666 8 33.999 10s22.666 3 33.999 3c18.667 0 35.834 -1.66699 51.501 -5s30.834 -9 45.501 -17s29 -18.333 43 -31s28.667 -28.334 44 -47.001l-23 -25c-14.667 -6.66699 -28.5 -15.167 -41.5 -25.5
s-25.833 -21.5 -38.5 -33.5c-4.66699 -20 -18.334 -40.667 -41.001 -62l-67 -68c26 -28.667 52.667 -55.834 80 -81.501l83 -74.5c-8 -10 -17.667 -20 -29 -30z" />
    <glyph glyph-name="quoteleft" horiz-adv-x="169" 
d="M86 653c-51.333 -2.66699 -81.001 -17.666 -89.001 -44.999c8 -25.333 19.333 -51.833 34 -79.5s32.334 -56.834 53.001 -87.501c14 4.66699 25.167 9.5 33.5 14.5s14.5 9.5 18.5 13.5z" />
    <glyph glyph-name="quoteleft" unicode="&#x2018;" horiz-adv-x="169" 
d="M86 653c-51.333 -2.66699 -81.001 -17.666 -89.001 -44.999c8 -25.333 19.333 -51.833 34 -79.5s32.334 -56.834 53.001 -87.501c14 4.66699 25.167 9.5 33.5 14.5s14.5 9.5 18.5 13.5z" />
    <glyph glyph-name="quoteright" horiz-adv-x="156" 
d="M0 473c4 -10 8.83398 -17.501 14.501 -22.501s13.167 -7.5 22.5 -7.5s19 7 29 21s19.5 30.333 28.5 49s17.5 37.334 25.5 56.001s15 33 21 43c-10 9.33301 -22.333 17.833 -37 25.5s-32.334 14.5 -53.001 20.5z" />
    <glyph glyph-name="quoteright" unicode="&#x2019;" horiz-adv-x="156" 
d="M0 473c4 -10 8.83398 -17.501 14.501 -22.501s13.167 -7.5 22.5 -7.5s19 7 29 21s19.5 30.333 28.5 49s17.5 37.334 25.5 56.001s15 33 21 43c-10 9.33301 -22.333 17.833 -37 25.5s-32.334 14.5 -53.001 20.5z" />
    <glyph glyph-name="quotedblleft" horiz-adv-x="392" 
d="M187 514l-109.999 126.008c-11.333 -2.66699 -21.333 -4.33398 -30 -5.00098s-16 -2.33398 -22 -5.00098s-11 -6.83398 -15 -12.501s-6.33301 -14.834 -7 -27.501c6.66699 -13.333 14 -24.333 22 -33s16.333 -16.334 25 -23.001s17.167 -12.834 25.5 -18.501
s15.833 -11.834 22.5 -18.501v1c17.333 -13.333 31.666 -20 42.999 -20c5.33301 0 11 1.16699 17 3.5s11.667 6.16602 17 11.499l9 7zM305.001 510.008l-87.999 123.999c-6.66699 4 -14.334 6.66699 -23.001 8s-17 0.166016 -25 -3.50098s-14.833 -10.667 -20.5 -21
s-8.5 -24.833 -8.5 -43.5c23.333 -13.333 44.333 -29.166 63 -47.499s35.667 -37.5 51 -57.5c14 0.666992 25 3.83398 33 9.50098s14.667 13.5 20 23.5z" />
    <glyph glyph-name="quotedblleft" unicode="&#x201c;" horiz-adv-x="392" 
d="M187 514l-109.999 126.008c-11.333 -2.66699 -21.333 -4.33398 -30 -5.00098s-16 -2.33398 -22 -5.00098s-11 -6.83398 -15 -12.501s-6.33301 -14.834 -7 -27.501c6.66699 -13.333 14 -24.333 22 -33s16.333 -16.334 25 -23.001s17.167 -12.834 25.5 -18.501
s15.833 -11.834 22.5 -18.501v1c17.333 -13.333 31.666 -20 42.999 -20c5.33301 0 11 1.16699 17 3.5s11.667 6.16602 17 11.499l9 7zM305.001 510.008l-87.999 123.999c-6.66699 4 -14.334 6.66699 -23.001 8s-17 0.166016 -25 -3.50098s-14.833 -10.667 -20.5 -21
s-8.5 -24.833 -8.5 -43.5c23.333 -13.333 44.333 -29.166 63 -47.499s35.667 -37.5 51 -57.5c14 0.666992 25 3.83398 33 9.50098s14.667 13.5 20 23.5z" />
    <glyph glyph-name="quotedblright" horiz-adv-x="360" 
d="M114 509c5.33301 -5.33301 13.002 -11.502 23.002 -18.502s19 -10.5 27 -10.5c8.66699 0 18.334 3.33301 29.001 10s21.167 14.167 31.5 22.5s19.666 16.5 27.999 24.5s14.166 13.333 17.499 16l-1 -1c12 4.66699 23 18.334 33 41.001c-0.666992 8 -1.66699 14.5 -3 19.5
s-4.5 9.33301 -9.5 13s-12.333 6.83398 -22 9.50098s-22.834 5 -39.501 7zM-2.99805 507.998c5.33301 -11.333 12.167 -20.166 20.5 -26.499s19.5 -9.5 33.5 -9.5l10 10.5c4 4.33301 6.66699 8.16602 8 11.499l19 22l-1 -1c10.667 11.333 22.5 22 35.5 32
s27.167 19.667 42.5 29c-9.33301 17.333 -20.5 31 -33.5 41s-27.5 16.667 -43.5 20z" />
    <glyph glyph-name="quotedblright" unicode="&#x201d;" horiz-adv-x="360" 
d="M114 509c5.33301 -5.33301 13.002 -11.502 23.002 -18.502s19 -10.5 27 -10.5c8.66699 0 18.334 3.33301 29.001 10s21.167 14.167 31.5 22.5s19.666 16.5 27.999 24.5s14.166 13.333 17.499 16l-1 -1c12 4.66699 23 18.334 33 41.001c-0.666992 8 -1.66699 14.5 -3 19.5
s-4.5 9.33301 -9.5 13s-12.333 6.83398 -22 9.50098s-22.834 5 -39.501 7zM-2.99805 507.998c5.33301 -11.333 12.167 -20.166 20.5 -26.499s19.5 -9.5 33.5 -9.5l10 10.5c4 4.33301 6.66699 8.16602 8 11.499l19 22l-1 -1c10.667 11.333 22.5 22 35.5 32
s27.167 19.667 42.5 29c-9.33301 17.333 -20.5 31 -33.5 41s-27.5 16.667 -43.5 20z" />
    <glyph glyph-name="bullet" horiz-adv-x="193" 
d="M187 421l-12.9971 -4.00586c-2 2 -4 3.16699 -6 3.5s-4 0.5 -6 0.5h-3c-3.33301 1.33301 -6 2 -8 2h-8c-8.66699 0 -18.334 -2 -29.001 -6h-5c-8.66699 0 -17.667 -0.166992 -27 -0.5s-18 -1.5 -26 -3.5s-14.667 -5 -20 -9s-8 -9.33301 -8 -16
c0 -3.33301 1 -8.66602 3 -15.999s3 -11.666 3 -12.999c0 -2 -1.33301 -4.33301 -4 -7v-7c0 -1.33301 0.166992 -2.83301 0.5 -4.5s0.5 -3.5 0.5 -5.5v-11c0 -3.33301 -0.166992 -6.16602 -0.5 -8.49902s-0.5 -5.16602 -0.5 -8.49902v-8c0 -16 3.16699 -28.833 9.5 -38.5
s14.833 -14.5 25.5 -14.5c3.33301 0 7.16602 0.333008 11.499 1s7.83301 1.33398 10.5 2.00098h3c2 0 4 -0.833008 6 -2.5s4.66699 -2.5 8 -2.5c7.33301 0 13.333 0.666992 18 2s11.667 2 21 2h17c11.333 0 19.666 4.16699 24.999 12.5s8 18.833 8 31.5v12
c-10 6.66699 -15 17 -15 31c0 2 0.5 5.66699 1.5 11s2 11.5 3 18.5l3 20.5c1 6.66699 1.5 12.334 1.5 17.001v19z" />
    <glyph glyph-name="bullet" unicode="&#x2022;" horiz-adv-x="193" 
d="M187 421l-12.9971 -4.00586c-2 2 -4 3.16699 -6 3.5s-4 0.5 -6 0.5h-3c-3.33301 1.33301 -6 2 -8 2h-8c-8.66699 0 -18.334 -2 -29.001 -6h-5c-8.66699 0 -17.667 -0.166992 -27 -0.5s-18 -1.5 -26 -3.5s-14.667 -5 -20 -9s-8 -9.33301 -8 -16
c0 -3.33301 1 -8.66602 3 -15.999s3 -11.666 3 -12.999c0 -2 -1.33301 -4.33301 -4 -7v-7c0 -1.33301 0.166992 -2.83301 0.5 -4.5s0.5 -3.5 0.5 -5.5v-11c0 -3.33301 -0.166992 -6.16602 -0.5 -8.49902s-0.5 -5.16602 -0.5 -8.49902v-8c0 -16 3.16699 -28.833 9.5 -38.5
s14.833 -14.5 25.5 -14.5c3.33301 0 7.16602 0.333008 11.499 1s7.83301 1.33398 10.5 2.00098h3c2 0 4 -0.833008 6 -2.5s4.66699 -2.5 8 -2.5c7.33301 0 13.333 0.666992 18 2s11.667 2 21 2h17c11.333 0 19.666 4.16699 24.999 12.5s8 18.833 8 31.5v12
c-10 6.66699 -15 17 -15 31c0 2 0.5 5.66699 1.5 11s2 11.5 3 18.5l3 20.5c1 6.66699 1.5 12.334 1.5 17.001v19z" />
    <glyph glyph-name="endash" horiz-adv-x="607" 
d="M197 217c6.66699 0 11.3281 0.333984 13.9951 1.00098l113 10c4 0.666992 9.33301 1.16699 16 1.5s14.667 0.5 24 0.5c14.667 0 29.834 -0.166992 45.501 -0.5s29.834 -0.5 42.501 -0.5c13.333 0 24.5 -0.166992 33.5 -0.5s14.5 -0.5 16.5 -0.5c22.667 8 34 19 34 33
s-9.33301 28 -28 42h-14c1.33301 0 -0.666992 -0.166992 -6 -0.5s-10.666 -0.833008 -15.999 -1.5h-10c-6 -0.666992 -11.333 -1.16699 -16 -1.5s-9.66699 -0.5 -15 -0.5c-15.333 8 -38.666 12 -69.999 12h-15c-4 0 -8.33301 -0.333008 -13 -1l-126 -8
c-2.66699 0 -7.16699 0.166992 -13.5 0.5s-13.166 0.833008 -20.499 1.5s-14.333 1.16699 -21 1.5s-11.667 0.5 -15 0.5c-24.667 -0.666992 -47.5 -1.16699 -68.5 -1.5s-37.167 -0.833008 -48.5 -1.5c-16.667 -18.667 -25 -32 -25 -40c0 -10.667 7.33301 -19.334 22 -26.001
h2c38 -7.33301 71.833 -12.5 101.5 -15.5s55.167 -4.5 76.5 -4.5z" />
    <glyph glyph-name="endash" unicode="&#x2013;" horiz-adv-x="607" 
d="M197 217c6.66699 0 11.3281 0.333984 13.9951 1.00098l113 10c4 0.666992 9.33301 1.16699 16 1.5s14.667 0.5 24 0.5c14.667 0 29.834 -0.166992 45.501 -0.5s29.834 -0.5 42.501 -0.5c13.333 0 24.5 -0.166992 33.5 -0.5s14.5 -0.5 16.5 -0.5c22.667 8 34 19 34 33
s-9.33301 28 -28 42h-14c1.33301 0 -0.666992 -0.166992 -6 -0.5s-10.666 -0.833008 -15.999 -1.5h-10c-6 -0.666992 -11.333 -1.16699 -16 -1.5s-9.66699 -0.5 -15 -0.5c-15.333 8 -38.666 12 -69.999 12h-15c-4 0 -8.33301 -0.333008 -13 -1l-126 -8
c-2.66699 0 -7.16699 0.166992 -13.5 0.5s-13.166 0.833008 -20.499 1.5s-14.333 1.16699 -21 1.5s-11.667 0.5 -15 0.5c-24.667 -0.666992 -47.5 -1.16699 -68.5 -1.5s-37.167 -0.833008 -48.5 -1.5c-16.667 -18.667 -25 -32 -25 -40c0 -10.667 7.33301 -19.334 22 -26.001
h2c38 -7.33301 71.833 -12.5 101.5 -15.5s55.167 -4.5 76.5 -4.5z" />
    <glyph glyph-name="emdash" horiz-adv-x="913" 
d="M735 296c-33.333 0 -49.998 1 -49.998 3v1c0 4.66699 -3.16699 8.66699 -9.5 12s-16.166 5 -29.499 5c-4.66699 0 -11.5 -0.166992 -20.5 -0.5l-27.5 -1c-9.33301 -0.333008 -18 -0.666016 -26 -0.999023s-13.333 -0.5 -16 -0.5l-229 -2c-16 0 -31 -0.5 -45 -1.5
s-28.667 -1.5 -44 -1.5h-21c-12 0 -21 0.333008 -27 1s-11.333 1.5 -16 2.5s-10.167 1.83301 -16.5 2.5s-15.5 1 -27.5 1h-20c-18 -1.33301 -31.667 -2 -41 -2h-24l-2 5l-10 -5v-4c-9.33301 -9.33301 -14 -19 -14 -29c0 -15.333 10.333 -32.333 31 -51h14
c8 0 24.5 -0.333008 49.5 -1s52 -1.5 81 -2.5s57.167 -1.83301 84.5 -2.5s47.666 -1 60.999 -1c22.667 0 39.667 0.5 51 1.5l35 3c12 1 27 1.66699 45 2s44.667 -0.5 80 -2.5h5c30 1.33301 58 2 84 2h71c31.333 0 57.666 -0.333008 78.999 -1s38 -1.66699 50 -3
c18.667 10.667 28 23.667 28 39c0 2 -0.666992 5.16699 -2 9.5s-3.5 8.66602 -6.5 12.999s-6.83301 8.16602 -11.5 11.499s-10.334 5 -17.001 5l-4 -4c-9.33301 -1.33301 -19.5 -2.16602 -30.5 -2.49902s-21.833 -0.5 -32.5 -0.5h-29z" />
    <glyph glyph-name="emdash" unicode="&#x2014;" horiz-adv-x="913" 
d="M735 296c-33.333 0 -49.998 1 -49.998 3v1c0 4.66699 -3.16699 8.66699 -9.5 12s-16.166 5 -29.499 5c-4.66699 0 -11.5 -0.166992 -20.5 -0.5l-27.5 -1c-9.33301 -0.333008 -18 -0.666016 -26 -0.999023s-13.333 -0.5 -16 -0.5l-229 -2c-16 0 -31 -0.5 -45 -1.5
s-28.667 -1.5 -44 -1.5h-21c-12 0 -21 0.333008 -27 1s-11.333 1.5 -16 2.5s-10.167 1.83301 -16.5 2.5s-15.5 1 -27.5 1h-20c-18 -1.33301 -31.667 -2 -41 -2h-24l-2 5l-10 -5v-4c-9.33301 -9.33301 -14 -19 -14 -29c0 -15.333 10.333 -32.333 31 -51h14
c8 0 24.5 -0.333008 49.5 -1s52 -1.5 81 -2.5s57.167 -1.83301 84.5 -2.5s47.666 -1 60.999 -1c22.667 0 39.667 0.5 51 1.5l35 3c12 1 27 1.66699 45 2s44.667 -0.5 80 -2.5h5c30 1.33301 58 2 84 2h71c31.333 0 57.666 -0.333008 78.999 -1s38 -1.66699 50 -3
c18.667 10.667 28 23.667 28 39c0 2 -0.666992 5.16699 -2 9.5s-3.5 8.66602 -6.5 12.999s-6.83301 8.16602 -11.5 11.499s-10.334 5 -17.001 5l-4 -4c-9.33301 -1.33301 -19.5 -2.16602 -30.5 -2.49902s-21.833 -0.5 -32.5 -0.5h-29z" />
    <glyph glyph-name="tilde" horiz-adv-x="385" 
d="M162 613c2 -1.33301 4.16797 -2.16895 6.50098 -2.50195s4.16602 -1.16602 5.49902 -2.49902v2c9.33301 -5.33301 18.166 -8.83301 26.499 -10.5s15.166 -2.5 20.499 -2.5c15.333 0 33.5 3.5 54.5 10.5s40.5 21.833 58.5 44.5c-4 32 -25.333 49.667 -64 53
c-6 -9.33301 -15 -17.166 -27 -23.499s-23 -9.5 -33 -9.5c-8.66699 0 -17.667 3 -27 9c-15.333 7.33301 -29.666 12.666 -42.999 15.999s-25.333 5 -36 5c-32 0 -64.667 -23.667 -98 -71v-6c0 -22 10.667 -33 32 -33c12.667 0 27 4.66699 43 14l10 24
c1.33301 0 3.33301 0.333008 6 1s5.66699 1.66699 9 3c14.667 -5.33301 27.334 -10.166 38.001 -14.499s16.667 -6.5 18 -6.5z" />
    <glyph glyph-name="tilde" unicode="&#x2dc;" horiz-adv-x="385" 
d="M162 613c2 -1.33301 4.16797 -2.16895 6.50098 -2.50195s4.16602 -1.16602 5.49902 -2.49902v2c9.33301 -5.33301 18.166 -8.83301 26.499 -10.5s15.166 -2.5 20.499 -2.5c15.333 0 33.5 3.5 54.5 10.5s40.5 21.833 58.5 44.5c-4 32 -25.333 49.667 -64 53
c-6 -9.33301 -15 -17.166 -27 -23.499s-23 -9.5 -33 -9.5c-8.66699 0 -17.667 3 -27 9c-15.333 7.33301 -29.666 12.666 -42.999 15.999s-25.333 5 -36 5c-32 0 -64.667 -23.667 -98 -71v-6c0 -22 10.667 -33 32 -33c12.667 0 27 4.66699 43 14l10 24
c1.33301 0 3.33301 0.333008 6 1s5.66699 1.66699 9 3c14.667 -5.33301 27.334 -10.166 38.001 -14.499s16.667 -6.5 18 -6.5z" />
    </font>
</defs>
</svg>
