<?xml version="1.0" standalone="no"?>
<!DOCTYPE svg PUBLIC "-//W3C//DTD SVG 1.1//EN" "http://www.w3.org/Graphics/SVG/1.1/DTD/svg11.dtd" >
<svg xmlns="http://www.w3.org/2000/svg" xmlns:xlink="http://www.w3.org/1999/xlink" version="1.1">
<metadata>
Created by FontForge 20170731 at Thu Aug 12 11:46:31 2021
 By Aleksey,,,
Copyright (c) 2020 by Horizon Type Foundry. All rights reserved.
</metadata>
<defs>
<font id="AcherusFeral-Light" horiz-adv-x="1327" >
  <font-face 
    font-family="Acherus Feral Light"
    font-weight="300"
    font-stretch="normal"
    units-per-em="2048"
    panose-1="0 0 0 0 0 0 0 0 0 0"
    ascent="1638"
    descent="-410"
    x-height="1057"
    cap-height="1434"
    bbox="-84 -483 2687 2030"
    underline-thickness="102"
    underline-position="-307"
    unicode-range="U+000D-FB03"
  />
<missing-glyph horiz-adv-x="518" 
 />
    <glyph glyph-name="f_f" unicode="ff" horiz-adv-x="1492" 
d="M352 0h-116v948h-175v109h175v190q0 153 77 235.5t217 82.5q117 0 226 -49l-39 -105q-107 41 -187 41q-178 0 -178 -207v-188h613v190q0 153 77.5 235.5t219.5 82.5q116 0 225 -49l-41 -105q-105 41 -186 41q-177 0 -177 -207v-188h367v-109h-367v-948h-118v948h-613
v-948z" />
    <glyph glyph-name="fi" unicode="fi" horiz-adv-x="1286" 
d="M352 0h-116v948h-175v109h175v190q0 153 77 235.5t217 82.5q110 0 209 -41l-39 -107q-87 35 -170 35q-178 0 -178 -207v-188h725v-1057h-116v948h-609v-948zM924 1456q0 40 27 68t67 28t68 -28t28 -68q0 -38 -28 -66t-68 -28q-39 0 -66.5 27.5t-27.5 66.5z" />
    <glyph glyph-name="f_f_i" unicode="ffi" horiz-adv-x="2017" 
d="M352 0h-116v948h-175v109h175v190q0 153 77 235.5t217 82.5q117 0 226 -49l-39 -105q-107 41 -187 41q-178 0 -178 -207v-188h613v190q0 153 77.5 235.5t219.5 82.5q109 0 208 -41l-38 -107q-90 35 -172 35q-177 0 -177 -207v-188h725v-1057h-116v948h-609v-948h-118v948
h-613v-948zM1655 1456q0 40 26.5 68t67.5 28q40 0 67 -28t27 -68q0 -39 -27.5 -66.5t-66.5 -27.5q-41 0 -67.5 27.5t-26.5 66.5z" />
    <glyph glyph-name="f_t.dlig" unicode="ft" horiz-adv-x="1579" 
d="M352 0h-116v948h-175v109h175v190q0 153 77 235.5t217 82.5q117 0 226 -49l-39 -105q-107 41 -187 41q-178 0 -178 -207v-188h602v239h117v-239h387v-109h-387v-626q0 -117 46 -174.5t143 -57.5q89 0 186 43l43 -102q-102 -54 -229 -54q-152 0 -230 88.5t-78 256.5v626
h-600v-948z" />
    <glyph glyph-name="f_f_j.dlig" unicode="ffj" horiz-adv-x="2148" 
d="M352 0h-116v948h-175v109h175v190q0 153 77 235.5t217 82.5q117 0 226 -49l-39 -105q-107 41 -187 41q-178 0 -178 -207v-188h613v190q0 153 77.5 235.5t219.5 82.5q116 0 225 -49l-41 -105q-105 41 -186 41q-177 0 -177 -207v-188h863v-1026q0 -228 -75 -337.5
t-253 -109.5q-132 0 -244 56l49 104q89 -47 195 -47q117 0 164 75t47 261v915h-746v-948h-118v948h-613v-948zM1876 1362q-41 0 -67.5 27.5t-26.5 66.5q0 40 26.5 68t67.5 28q38 0 66 -28t28 -68q0 -38 -28 -66t-66 -28z" />
    <glyph glyph-name="f_j.dlig" unicode="fj" horiz-adv-x="1476" 
d="M352 0h-116v948h-175v109h175v190q0 153 77 235.5t217 82.5q117 0 226 -49l-39 -105q-107 41 -187 41q-178 0 -178 -207v-188h920v-1028q0 -226 -75 -335.5t-253 -109.5q-132 0 -244 56l50 104q89 -47 194 -47q117 0 164 75t47 261v915h-803v-948zM1110 1456
q0 40 26.5 68t67.5 28q40 0 67 -28t27 -68q0 -39 -27.5 -66.5t-66.5 -27.5q-41 0 -67.5 27.5t-26.5 66.5z" />
    <glyph glyph-name=".notdef" horiz-adv-x="518" 
 />
    <glyph glyph-name="uni0000" horiz-adv-x="0" 
 />
    <glyph glyph-name="uni0000" horiz-adv-x="0" 
 />
    <glyph glyph-name="uni000D" unicode="&#xd;" horiz-adv-x="518" 
 />
    <glyph glyph-name="space" unicode=" " horiz-adv-x="409" 
 />
    <glyph glyph-name="exclam" unicode="!" horiz-adv-x="571" 
d="M342 479h-111l-10 955h131zM188 72q0 41 28.5 69.5t68.5 28.5q43 0 71.5 -28.5t28.5 -69.5q0 -40 -29 -69.5t-71 -29.5q-40 0 -68.5 29.5t-28.5 69.5z" />
    <glyph glyph-name="quotedbl" unicode="&#x22;" horiz-adv-x="798" 
d="M616 907h-94v527h129zM254 907h-94v518h129z" />
    <glyph glyph-name="numbersign" unicode="#" horiz-adv-x="1583" 
d="M440 0h-112l98 391h-307v107h336l112 436h-342v106h369l100 394h111l-98 -394h333l101 394h112l-100 -394h330v-106h-359l-108 -436h342v-107h-371l-100 -391h-111l98 391h-337zM680 934l-113 -436h336l111 436h-334z" />
    <glyph glyph-name="dollar" unicode="$" horiz-adv-x="1333" 
d="M731 -193h-104v195q-290 16 -500 174l63 105q208 -148 437 -164v555q-49 8 -79 13t-74.5 15t-72.5 19.5t-64.5 25t-59 33.5t-47 43.5t-38 55t-22 68.5t-8.5 85q0 182 127 287.5t338 114.5v194h104v-194q115 -4 213 -36.5t221 -105.5l-59 -106q-187 121 -375 133v-533
q58 -9 100 -17.5t95 -24t90 -33.5t75.5 -47t61.5 -64.5t38 -85t15 -109.5q0 -181 -127 -286.5t-348 -114.5v-195zM627 799v520q-161 -9 -253.5 -78.5t-92.5 -200.5q0 -39 10 -70t24.5 -53t42.5 -40t52 -29t66 -21t71.5 -15t79.5 -13zM731 655v-538q168 9 262 82t94 200
q0 53 -20 93.5t-49.5 65.5t-81 45t-95 30t-110.5 22z" />
    <glyph glyph-name="percent" unicode="%" horiz-adv-x="1884" 
d="M471 727q-145 0 -242.5 100t-97.5 267t97.5 266.5t242.5 99.5t242.5 -99.5t97.5 -266.5t-97.5 -267t-242.5 -100zM651 0h-121l701 1434h123zM471 831q99 0 163 74.5t64 188.5q0 115 -63 188.5t-164 73.5q-102 0 -163.5 -73.5t-61.5 -188.5t61.5 -189t163.5 -74zM1411 -23
q-145 0 -242.5 100t-97.5 267t97.5 267t242.5 100q144 0 242 -100t98 -267t-98 -267t-242 -100zM1411 82q100 0 163.5 74t63.5 188q0 115 -63 188.5t-164 73.5q-102 0 -163.5 -73.5t-61.5 -188.5t61.5 -188.5t163.5 -73.5z" />
    <glyph glyph-name="ampersand" unicode="&#x26;" horiz-adv-x="1441" 
d="M401 721l93 41l-25 26q-82 86 -126 166t-44 176q0 142 97.5 236t256.5 94q155 0 257 -96t102 -244q0 -137 -79.5 -224t-244.5 -165l303 -315l230 289l153 2l-301 -375l320 -332h-166l-234 242q-51 -62 -98 -107t-105.5 -83.5t-127.5 -58.5t-148 -20q-103 0 -193.5 43.5
t-149 129.5t-58.5 196q0 140 74 228.5t214 150.5zM580 844l34 -37q156 71 216.5 139.5t60.5 169.5q0 100 -67 165t-171 65q-103 0 -168 -61.5t-65 -154.5q0 -71 39.5 -136.5t120.5 -149.5zM915 324l-344 356l-88 -39q-61 -28 -101.5 -52.5t-77 -58t-54 -77.5t-17.5 -99
q0 -65 26 -117.5t68 -84t91.5 -48t101.5 -16.5q123 0 215 62t180 174z" />
    <glyph glyph-name="quotesingle" unicode="'" horiz-adv-x="434" 
d="M254 907h-94v527h129z" />
    <glyph glyph-name="parenleft" unicode="(" horiz-adv-x="815" 
d="M733 -115l-55 -96q-253 132 -400 374t-147 554t148.5 556.5t400.5 371.5l51 -97q-229 -132 -354 -345.5t-125 -485.5q0 -273 123 -483.5t358 -348.5z" />
    <glyph glyph-name="parenright" unicode=")" horiz-adv-x="815" 
d="M137 -211l-55 96q235 138 358 348.5t123 483.5q0 272 -125.5 485.5t-355.5 345.5l53 97q251 -127 399 -371.5t148 -556.5t-146 -554t-399 -374z" />
    <glyph glyph-name="asterisk" unicode="*" horiz-adv-x="978" 
d="M446 1073l-284 -149l-43 86l280 137l-278 131l43 86l282 -145l-6 313h97l-5 -311l279 147l43 -86l-272 -135l278 -131l-43 -88l-285 147l5 -323h-97z" />
    <glyph glyph-name="plus" unicode="+" horiz-adv-x="1210" 
d="M662 281h-115v387h-379v114h379v387h115v-387h382v-114h-382v-387z" />
    <glyph glyph-name="comma" unicode="," horiz-adv-x="540" 
d="M104 -422l-38 78q121 52 170 132t49 189h-15q-42 0 -72 30.5t-30 72.5q0 43 29 72.5t73 29.5q46 0 76.5 -32t30.5 -82v-39q0 -175 -64.5 -279.5t-208.5 -171.5z" />
    <glyph glyph-name="hyphen" unicode="-" horiz-adv-x="1181" 
d="M934 668h-686v114h686v-114z" />
    <glyph glyph-name="period" unicode="." horiz-adv-x="540" 
d="M168 80q0 43 29 72.5t73 29.5q43 0 73 -29.5t30 -72.5q0 -42 -30.5 -72.5t-72.5 -30.5q-43 0 -72.5 30.5t-29.5 72.5z" />
    <glyph glyph-name="slash" unicode="/" horiz-adv-x="782" 
d="M207 0h-123l494 1434h120z" />
    <glyph glyph-name="zero" unicode="0" horiz-adv-x="1335" 
d="M668 -27q-113 0 -206.5 38.5t-159 106t-110 161.5t-65.5 204t-21 234t21 234t65.5 204t110 161.5t159 105.5t206.5 38q141 0 250 -58t176 -161t101 -235.5t34 -288.5t-34 -289t-101 -235.5t-176 -161t-250 -58.5zM668 88q96 0 172.5 36t125.5 95.5t82 142t46.5 170.5
t13.5 185t-14 185t-47 170.5t-82 142t-125.5 95.5t-171.5 36q-96 0 -172.5 -36t-126.5 -95.5t-83 -142t-47 -170.5t-14 -185t14 -185t47 -170.5t83 -142t126.5 -95.5t172.5 -36z" />
    <glyph glyph-name="one" unicode="1" horiz-adv-x="751" 
d="M528 0h-118v1292l-283 -106l-41 108l365 140h77v-1434z" />
    <glyph glyph-name="two" unicode="2" horiz-adv-x="1185" 
d="M1067 0h-946l2 94l608 641q83 86 123.5 159t40.5 159q0 139 -85 216t-222 77q-98 0 -189.5 -43.5t-193.5 -143.5l-76 86q208 215 465 215q188 0 305 -110.5t117 -290.5q0 -113 -46 -202t-143 -191l-524 -551h764v-115z" />
    <glyph glyph-name="three" unicode="3" horiz-adv-x="1187" 
d="M88 184l76 88q181 -184 411 -184q184 0 282.5 79.5t98.5 217.5q0 131 -103 210t-263 79h-242v110h250q70 0 126 18t90.5 45.5t57.5 65t32 73.5t9 73q0 137 -94 212t-241 75q-106 0 -200 -42t-192 -143l-75 88q199 211 467 211q88 0 168 -24t144.5 -70.5t103 -123
t38.5 -171.5q0 -71 -21.5 -132t-57 -101.5t-75.5 -66.5t-81 -38v-2q34 -7 70 -23t74.5 -45.5t68 -67.5t48.5 -94.5t19 -121.5q0 -189 -139 -297.5t-363 -108.5q-288 0 -487 211z" />
    <glyph glyph-name="four" unicode="4" horiz-adv-x="1193" 
d="M817 360h-754v105l734 969h139v-961h223v-113h-223v-360h-119v360zM817 1264l-600 -791h600v791z" />
    <glyph glyph-name="five" unicode="5" horiz-adv-x="1202" 
d="M72 199l78 84q79 -84 189.5 -139.5t248.5 -55.5q174 0 278.5 90.5t104.5 243.5q0 165 -102.5 235t-290.5 70h-410l96 707h756v-115h-653l-66 -477h285q112 0 201 -22t158.5 -69t107 -127.5t37.5 -191.5q0 -217 -136.5 -338t-365.5 -121q-309 0 -516 226z" />
    <glyph glyph-name="six" unicode="6" horiz-adv-x="1202" 
d="M111 438q0 70 16 134.5t49 124.5t59 98t70 94l426 545h148l-426 -545q-3 -4 -9.5 -11.5t-9.5 -11.5q81 35 168 35q216 0 353 -129t137 -334t-137 -335t-353 -130q-217 0 -354 130t-137 335zM231 438q0 -161 101 -255.5t270 -94.5q168 0 269.5 95t101.5 255
q0 159 -101.5 254.5t-269.5 95.5q-166 0 -268.5 -96t-102.5 -254z" />
    <glyph glyph-name="seven" unicode="7" horiz-adv-x="1191" 
d="M324 0h-140l781 1319h-871v115h1020v-99z" />
    <glyph glyph-name="eight" unicode="8" horiz-adv-x="1239" 
d="M422 733v4q-25 8 -48.5 17.5t-68 37t-75.5 61t-55.5 91.5t-24.5 127q0 173 127 281t344 108q215 0 343 -108t128 -281q0 -69 -25 -127t-56 -91.5t-76 -61t-68.5 -37t-49.5 -17.5v-4q26 -6 55 -16.5t78 -39t85.5 -65t64.5 -100t28 -139.5q0 -83 -30 -154t-90 -127
t-159 -87.5t-228 -31.5t-229 31.5t-160 87.5t-90.5 127t-30.5 154q0 76 28 139.5t64.5 100t85.5 65t78 39t55 16.5zM268 1067q0 -89 49.5 -152.5t128 -93.5t175.5 -30q96 0 173.5 30t127 93.5t49.5 152.5q0 126 -95.5 202.5t-254.5 76.5q-161 0 -257 -76.5t-96 -202.5z
M231 377q0 -128 95.5 -208.5t294.5 -80.5q198 0 292.5 80.5t94.5 208.5q0 143 -110 221t-277 78q-168 0 -279 -78t-111 -221z" />
    <glyph glyph-name="nine" unicode="9" horiz-adv-x="1202" 
d="M471 0h-147l426 545q3 4 9 11t9 11q-81 -35 -166 -35q-217 0 -354 129t-137 334t137 335t354 130q216 0 353 -130t137 -335q0 -70 -16 -134.5t-49.5 -124.5t-59.5 -97t-70 -94zM231 995q0 -160 101 -255t270 -95q165 0 268 96.5t103 253.5q0 161 -101.5 256t-269.5 95
q-169 0 -270 -95t-101 -256z" />
    <glyph glyph-name="colon" unicode=":" horiz-adv-x="540" 
d="M168 967q0 42 29 72t73 30q42 0 72.5 -30.5t30.5 -71.5q0 -43 -30 -74t-73 -31q-44 0 -73 31t-29 74zM168 80q0 43 29 72.5t73 29.5q43 0 73 -29.5t30 -72.5q0 -42 -30.5 -72.5t-72.5 -30.5q-43 0 -72.5 30.5t-29.5 72.5z" />
    <glyph glyph-name="semicolon" unicode=";" horiz-adv-x="540" 
d="M168 967q0 42 29 72t73 30t73.5 -30t29.5 -72q0 -43 -29.5 -74t-73.5 -31t-73 31t-29 74zM104 -422l-38 78q122 52 170.5 131.5t48.5 189.5h-15q-42 0 -72 30.5t-30 72.5q0 43 29.5 72.5t72.5 29.5q46 0 76.5 -32t30.5 -82v-39q0 -176 -63.5 -280.5t-209.5 -170.5z" />
    <glyph glyph-name="less" unicode="&#x3c;" horiz-adv-x="1032" 
d="M874 281l-770 391v98l770 391v-131l-600 -309l600 -309v-131z" />
    <glyph glyph-name="equal" unicode="=" horiz-adv-x="1054" 
d="M889 864h-721v115h721v-115zM889 473h-721v113h721v-113z" />
    <glyph glyph-name="greater" unicode="&#x3e;" horiz-adv-x="1032" 
d="M928 672l-768 -391v131l600 309l-600 309v131l768 -391v-98z" />
    <glyph glyph-name="question" unicode="?" horiz-adv-x="974" 
d="M465 479h-98l-7 258q201 45 287 131.5t86 218.5q0 120 -68 189.5t-194 69.5q-164 0 -319 -93l-58 103q181 104 377 104q97 0 172 -31.5t119 -84.5t66 -116.5t22 -133.5q0 -318 -383 -430zM309 82q0 42 29.5 71t73.5 29q42 0 71 -29t29 -71t-29 -72t-71 -30
q-44 0 -73.5 30t-29.5 72z" />
    <glyph glyph-name="at" unicode="@" horiz-adv-x="2080" 
d="M1358 -268l33 -109q-142 -65 -330 -65q-192 0 -368 77t-303.5 206.5t-203 308t-75.5 372.5t75.5 372.5t203 308.5t303.5 207t368 77q129 0 249 -32t219.5 -89.5t181.5 -139.5t138.5 -180t87.5 -213.5t31 -238.5q0 -112 -20 -202.5t-61.5 -161t-111.5 -109.5t-163 -39
q-106 0 -180.5 57t-92.5 140l-4 14q-18 -35 -42 -65.5t-65 -66.5t-102 -57.5t-135 -21.5q-113 0 -205 60t-143 160.5t-51 219.5t51 220t143 161t205 60q55 0 103.5 -14.5t79.5 -33.5t61 -50.5t43.5 -51t32.5 -49.5v180h106v-555q0 -89 54.5 -141.5t142.5 -52.5
q121 0 178 100t57 299q0 160 -58.5 303.5t-161 248t-250.5 165.5t-318 61q-168 0 -322 -68t-265 -182t-177 -271.5t-66 -328.5t66 -328.5t177 -271.5t265 -182t322 -68q159 0 297 60zM1008 195q127 0 213 98t86 229q0 132 -85.5 230t-213.5 98q-132 0 -216.5 -94.5
t-84.5 -233.5t84.5 -233t216.5 -94z" />
    <glyph glyph-name="A" unicode="A" horiz-adv-x="1437" 
d="M164 0h-133l639 1434h98l639 -1434h-135l-170 381h-768zM717 1239l-330 -737h662l-330 737h-2z" />
    <glyph glyph-name="B" unicode="B" horiz-adv-x="1394" 
d="M782 0h-559v1434h508q73 0 141.5 -12t134.5 -40.5t114.5 -71.5t78 -109.5t29.5 -149.5q0 -52 -12 -97t-34 -77.5t-46.5 -58t-54.5 -43.5t-54 -28.5t-49 -17.5v-2q30 -7 60 -18.5t76.5 -39.5t80.5 -64t59 -96.5t25 -133.5q0 -97 -39.5 -170.5t-109 -117.5t-157.5 -65.5
t-192 -21.5zM342 1319v-537h438q146 0 237 66.5t91 195.5q0 140 -102.5 207.5t-284.5 67.5h-379zM342 668v-553h428q198 0 293.5 69.5t95.5 196.5q0 133 -103 210t-263 77h-451z" />
    <glyph glyph-name="C" unicode="C" horiz-adv-x="1484" 
d="M1309 303l80 -88q-98 -112 -244.5 -177t-300.5 -65q-151 0 -287 58.5t-233.5 158t-155 237t-57.5 290.5t57.5 290.5t155 236.5t233.5 157.5t287 58.5q156 0 301 -64.5t248 -176.5l-86 -91q-80 94 -200 156t-263 62q-126 0 -240.5 -51t-195.5 -136t-129 -200.5t-48 -241.5
t48 -241.5t129 -200.5t195.5 -136t240.5 -51q144 0 261.5 59t203.5 156z" />
    <glyph glyph-name="D" unicode="D" horiz-adv-x="1564" 
d="M748 0h-525v1434h525q201 0 362.5 -92.5t252.5 -256.5t91 -368t-91 -368t-252.5 -256.5t-362.5 -92.5zM342 1319v-1204h403q171 0 306 80t208.5 217t73.5 305t-73.5 305t-208.5 217t-306 80h-403z" />
    <glyph glyph-name="E" unicode="E" horiz-adv-x="1331" 
d="M1194 0h-971v1434h959v-115h-840v-537h801v-114h-801v-553h852v-115z" />
    <glyph glyph-name="F" unicode="F" horiz-adv-x="1302" 
d="M342 0h-119v1434h957v-115h-838v-537h821v-114h-821v-668z" />
    <glyph glyph-name="G" unicode="G" horiz-adv-x="1589" 
d="M1309 633h-467v115h585v-529q-106 -117 -266 -181.5t-317 -64.5q-151 0 -287 58.5t-233.5 158t-155 237t-57.5 290.5t57.5 290.5t155 236.5t233.5 157.5t287 58.5q158 0 302 -64.5t245 -176.5l-84 -89q-82 95 -200 155.5t-263 60.5q-126 0 -240.5 -51t-195.5 -136
t-129 -200.5t-48 -241.5t48 -241.5t129 -200.5t195.5 -136t240.5 -51q272 0 465 178v367z" />
    <glyph glyph-name="H" unicode="H" horiz-adv-x="1546" 
d="M342 0h-119v1434h119v-652h864v652h119v-1434h-119v668h-864v-668z" />
    <glyph glyph-name="I" unicode="I" horiz-adv-x="565" 
d="M342 0h-119v1434h119v-1434z" />
    <glyph glyph-name="J" unicode="J" horiz-adv-x="999" 
d="M82 37l45 106q108 -55 242 -55q147 0 228 101.5t81 314.5v815h-438v115h557v-932q0 -249 -110.5 -389t-311.5 -140q-78 0 -158 17.5t-135 46.5z" />
    <glyph glyph-name="K" unicode="K" 
d="M342 0h-119v1434h119v-736l717 736h164l-582 -598l629 -836h-148l-565 750l-215 -222v-528z" />
    <glyph glyph-name="L" unicode="L" horiz-adv-x="1189" 
d="M1108 0h-885v1434h119v-1319h766v-115z" />
    <glyph glyph-name="M" unicode="M" horiz-adv-x="1800" 
d="M342 0h-119v1434h119l555 -920h6l553 920h121v-1434h-119v1202h-2l-543 -899h-26l-543 899h-2v-1202z" />
    <glyph glyph-name="N" unicode="N" horiz-adv-x="1591" 
d="M342 0h-119v1434h107l917 -1225h2v1225h119v-1434h-113l-911 1219h-2v-1219z" />
    <glyph glyph-name="O" unicode="O" horiz-adv-x="1687" 
d="M844 -27q-151 0 -286.5 58.5t-233 158t-154.5 237t-57 290.5t57 290.5t154.5 236.5t233 157.5t286.5 58.5t287 -58.5t233.5 -157.5t155 -236.5t57.5 -290.5t-57.5 -290.5t-155 -237t-233.5 -158t-287 -58.5zM844 88q169 0 310.5 86t221.5 230.5t80 312.5t-80 312.5
t-221.5 230.5t-310.5 86q-126 0 -240.5 -51t-195.5 -136t-129 -200.5t-48 -241.5t48 -241.5t129 -200.5t195.5 -136t240.5 -51z" />
    <glyph glyph-name="P" unicode="P" horiz-adv-x="1318" 
d="M342 0h-119v1434h502q78 0 148 -14.5t134 -48.5t110 -84.5t73 -127.5t27 -174q0 -120 -41 -210.5t-111.5 -142.5t-155.5 -77t-184 -25h-383v-530zM342 1319v-674h367q91 0 161 20t112 51.5t68.5 77.5t36 91.5t9.5 99.5q0 334 -387 334h-367z" />
    <glyph glyph-name="Q" unicode="Q" horiz-adv-x="1687" 
d="M844 -27q-151 0 -287 58.5t-233.5 158t-155 237t-57.5 290.5t57.5 290.5t155 236.5t233.5 157.5t287 58.5t287 -58.5t233.5 -157.5t155 -236.5t57.5 -290.5q0 -174 -71.5 -324.5t-198.5 -255.5l223 -323l-146 -2l-176 258q-169 -97 -364 -97zM844 88q160 0 297 78
l-234 340h146l186 -270q101 89 159 215t58 266q0 168 -80.5 312.5t-222 230.5t-309.5 86q-126 0 -240.5 -51t-195.5 -136t-129 -200.5t-48 -241.5t48 -241.5t129 -200.5t195.5 -136t240.5 -51z" />
    <glyph glyph-name="R" unicode="R" horiz-adv-x="1380" 
d="M342 0h-119v1434h582q67 0 127 -11t118 -38t100 -69.5t67.5 -110t25.5 -154.5q0 -101 -36.5 -177.5t-99.5 -120t-139 -64.5t-163 -21h-49l504 -668h-148l-508 668h-262v-668zM342 1319v-537h446q79 0 139 15t96.5 39.5t59 60t31 72.5t8.5 82q0 59 -14.5 104t-50 84
t-103.5 59.5t-166 20.5h-446z" />
    <glyph glyph-name="S" unicode="S" horiz-adv-x="1333" 
d="M125 147l68 105q113 -78 239 -121t246 -43q190 0 299.5 82.5t109.5 222.5q0 41 -12 74.5t-30.5 58t-50 45t-61.5 33.5t-75.5 24.5t-80.5 18.5t-87 15q-188 32 -220 39q-179 42 -249 135q-59 79 -59 206q0 187 142.5 302.5t365.5 115.5q140 0 252.5 -31.5t244.5 -111.5
l-61 -105q-115 71 -218.5 102.5t-213.5 31.5q-178 0 -285.5 -81t-107.5 -223q0 -56 23 -97.5t46.5 -64.5t88.5 -42.5t94.5 -25t119.5 -18.5q8 -2 12.5 -2.5t11.5 -1.5t13 -2q49 -7 83 -13t81 -16.5t79.5 -21t72.5 -28t66.5 -37t54 -47.5t43.5 -60.5t26 -75.5t10 -92
q0 -192 -142.5 -308t-379.5 -116q-315 0 -559 174z" />
    <glyph glyph-name="T" unicode="T" horiz-adv-x="1198" 
d="M659 0h-118v1319h-500v115h1116v-115h-498v-1319z" />
    <glyph glyph-name="U" unicode="U" horiz-adv-x="1544" 
d="M203 590v844h119v-834q0 -133 34 -233.5t96 -160t142 -89t178 -29.5t178 29.5t142 89t96.5 160t34.5 233.5v834h118v-844q0 -298 -155.5 -457.5t-413.5 -159.5t-413.5 159.5t-155.5 457.5z" />
    <glyph glyph-name="V" unicode="V" horiz-adv-x="1404" 
d="M760 0h-117l-612 1434h129l540 -1262h2l541 1262h131z" />
    <glyph glyph-name="W" unicode="W" horiz-adv-x="2027" 
d="M618 0h-116l-475 1434h123l407 -1233h2l397 1233h117l395 -1233h2l408 1233h125l-475 -1434h-117l-395 1247h-2z" />
    <glyph glyph-name="X" unicode="X" horiz-adv-x="1425" 
d="M217 0h-156l582 715l-580 719h156l494 -611l491 611h156l-580 -719l584 -715h-156l-495 606z" />
    <glyph glyph-name="Y" unicode="Y" horiz-adv-x="1265" 
d="M692 0h-119v573l-559 861h146l473 -729l475 729h143l-559 -861v-573z" />
    <glyph glyph-name="Z" unicode="Z" horiz-adv-x="1304" 
d="M1243 0h-1145v104l967 1215h-922v115h1082v-107l-969 -1212h987v-115z" />
    <glyph glyph-name="bracketleft" unicode="[" horiz-adv-x="747" 
d="M635 -201h-412v1835h412v-114h-295v-1606h295v-115z" />
    <glyph glyph-name="backslash" unicode="\" horiz-adv-x="700" 
d="M657 0h-122l-492 1434h121z" />
    <glyph glyph-name="bracketright" unicode="]" horiz-adv-x="747" 
d="M524 -201h-413v115h295v1606h-295v114h413v-1835z" />
    <glyph glyph-name="asciicircum" unicode="^" horiz-adv-x="681" 
d="M188 1219h-120l223 335h100l223 -335h-118l-154 229h-2z" />
    <glyph glyph-name="underscore" unicode="_" horiz-adv-x="1058" 
d="M967 -393h-873v114h873v-114z" />
    <glyph glyph-name="grave" unicode="`" horiz-adv-x="483" 
d="M365 1616h-115l-207 309h117z" />
    <glyph glyph-name="a" unicode="a" horiz-adv-x="1187" 
d="M907 0l-16 215q-51 -114 -153.5 -176t-241.5 -62q-164 0 -273.5 94t-109.5 244q0 157 118.5 240.5t309.5 83.5q166 0 342 -57q0 97 -9 160.5t-29 109t-57.5 69.5t-88.5 34t-128 10q-170 0 -342 -43l-26 110q38 15 156.5 31t224.5 16q103 0 175 -18t119.5 -53t74.5 -96.5
t37.5 -138.5t10.5 -189v-584h-94zM883 446v27q-169 59 -334 59q-146 0 -232 -56t-86 -161q0 -104 76 -164.5t201 -60.5q95 0 168.5 29.5t117.5 80.5t66.5 113.5t22.5 132.5z" />
    <glyph glyph-name="b" unicode="b" horiz-adv-x="1363" 
d="M301 0h-92v1542h117v-711q164 248 426 248q108 0 203.5 -44.5t162.5 -119.5t105.5 -176.5t38.5 -212.5t-38.5 -212t-105.5 -175t-162.5 -118t-203.5 -44q-74 0 -141 19t-114 47t-87 65.5t-63 69.5t-40 64zM731 90q179 0 295.5 126t116.5 310q0 185 -116.5 312t-295.5 127
q-170 0 -287.5 -130.5t-117.5 -306.5q0 -115 52.5 -215.5t146.5 -161.5t206 -61z" />
    <glyph glyph-name="c" unicode="c" horiz-adv-x="1122" 
d="M952 225l82 -82q-172 -166 -391 -166q-150 0 -274.5 73.5t-195.5 199.5t-71 276q0 113 42 215t114 176t172.5 118t212.5 44q223 0 389 -166l-80 -82q-137 134 -309 134q-179 0 -300.5 -127.5t-121.5 -311.5q0 -183 121.5 -309.5t300.5 -126.5q174 0 309 135z" />
    <glyph glyph-name="d" unicode="d" horiz-adv-x="1363" 
d="M1061 0l-6 242q-17 -32 -40 -64t-63 -69.5t-87 -65.5t-114 -47t-141 -19q-108 0 -203.5 44t-162.5 118t-105.5 175t-38.5 212t38.5 212.5t105.5 176.5t162.5 119.5t203.5 44.5q262 0 426 -248v711h117v-1542h-92zM631 90q170 0 288.5 131t118.5 307q0 115 -53 215
t-147 161t-207 61q-179 0 -295.5 -127t-116.5 -312q0 -184 116.5 -310t295.5 -126z" />
    <glyph glyph-name="e" unicode="e" horiz-adv-x="1228" 
d="M1126 471h-903q19 -163 137.5 -272t282.5 -109q111 0 183.5 29t168.5 102l64 -94q-107 -79 -200.5 -114.5t-215.5 -35.5q-113 0 -214 43.5t-173 117t-114 175t-42 213.5q0 150 72 277.5t196.5 201.5t272.5 74q113 0 205.5 -44.5t153 -121t93.5 -177.5t33 -214v-51z
M223 580h787q-6 104 -50 191t-127 141.5t-190 54.5q-164 0 -282.5 -110.5t-137.5 -276.5z" />
    <glyph glyph-name="f" unicode="f" horiz-adv-x="761" 
d="M352 0h-116v944h-175v109h175v194q0 153 77 235.5t217 82.5q117 0 226 -49l-39 -105q-107 41 -187 41q-178 0 -178 -207v-192h369v-109h-369v-944z" />
    <glyph glyph-name="g" unicode="g" horiz-adv-x="1363" 
d="M252 -342l37 113q168 -74 342 -74q100 0 174 24t117.5 62.5t69.5 98.5t35 121t9 140v107q-20 -31 -43 -59.5t-62.5 -63.5t-83.5 -60t-106 -42t-131 -17q-145 0 -262 70.5t-182.5 192.5t-65.5 270q0 226 145.5 382t364.5 156q74 0 141 -19t114 -47t87 -66t63 -70t40 -64
l6 244h92v-905q0 -287 -122 -427.5t-396 -140.5q-199 0 -383 74zM631 121q172 0 289.5 123.5t117.5 296.5q0 170 -118.5 297t-288.5 127q-180 0 -296 -120.5t-116 -303.5t115.5 -301.5t296.5 -118.5z" />
    <glyph glyph-name="h" unicode="h" horiz-adv-x="1273" 
d="M328 0h-119v1542h119v-698q10 25 27 52.5t49 61t70.5 59.5t95.5 44t120 18q83 0 153 -27t125.5 -80.5t87 -141.5t31.5 -203v-627h-116v602q0 186 -84 274.5t-225 88.5q-144 0 -239 -116t-95 -274v-575z" />
    <glyph glyph-name="i" unicode="i" horiz-adv-x="534" 
d="M172 1456q0 40 26.5 68t67.5 28q38 0 66 -28t28 -68q0 -38 -28 -66t-66 -28q-41 0 -67.5 27.5t-26.5 66.5zM326 0h-119v1057h119v-1057z" />
    <glyph glyph-name="j" unicode="j" horiz-adv-x="757" 
d="M389 1456q0 40 26.5 68t67.5 28q40 0 67.5 -28t27.5 -68q0 -38 -28 -66t-67 -28q-41 0 -67.5 27.5t-26.5 66.5zM-12 -367l43 107q91 -43 194 -43q117 0 164 75t47 261v915h-336v109h453v-1028q0 -226 -75 -335.5t-253 -109.5q-125 0 -237 49z" />
    <glyph glyph-name="k" unicode="k" horiz-adv-x="1122" 
d="M326 0h-117v1542h117v-1026l551 541h159l-450 -443l479 -614h-145l-416 535l-178 -179v-356z" />
    <glyph glyph-name="l" unicode="l" horiz-adv-x="534" 
d="M326 0h-119v1542h119v-1542z" />
    <glyph glyph-name="m" unicode="m" horiz-adv-x="1914" 
d="M326 0h-117v1057h92l10 -240q12 32 28 62.5t47 68t68 65.5t94 47t122 19q130 0 217.5 -67.5t118.5 -206.5q15 47 41 90.5t68.5 87t108.5 70t146 26.5q166 0 261 -112t95 -340v-627h-118v602q0 191 -67 277t-202 86q-127 0 -211 -94.5t-102 -235.5v-635h-117v602
q0 191 -67.5 277t-202.5 86q-142 0 -227.5 -114.5t-85.5 -275.5v-575z" />
    <glyph glyph-name="n" unicode="n" horiz-adv-x="1273" 
d="M326 0h-117v1057h90l14 -240q13 39 41 80t72.5 84t113.5 70.5t150 27.5q82 0 152.5 -27t126 -80.5t87 -142t31.5 -202.5v-627h-118v602q0 186 -84.5 274.5t-225.5 88.5q-144 0 -238.5 -116t-94.5 -274v-575z" />
    <glyph glyph-name="o" unicode="o" horiz-adv-x="1286" 
d="M100 526q0 113 42 215t114 176t172.5 118t212.5 44q113 0 214 -44t173 -118t114 -176t42 -215q0 -112 -42 -213.5t-114 -175t-173 -117t-214 -43.5q-150 0 -274.5 73.5t-195.5 199.5t-71 276zM641 90q179 0 301.5 127t122.5 309q0 184 -122.5 311.5t-301.5 127.5
t-300.5 -127.5t-121.5 -311.5q0 -183 121.5 -309.5t300.5 -126.5z" />
    <glyph glyph-name="p" unicode="p" horiz-adv-x="1363" 
d="M326 -393h-117v1450h92l6 -242q17 32 40 63.5t63 69t87 65.5t114 47t141 19q108 0 203.5 -44t162.5 -119t105.5 -176t38.5 -212t-38.5 -212t-105.5 -176t-162.5 -119t-203.5 -44q-265 0 -426 248v-618zM731 90q179 0 295.5 126.5t116.5 311.5q0 184 -116.5 310.5
t-295.5 126.5q-170 0 -287.5 -130.5t-117.5 -306.5q0 -115 52.5 -215.5t146.5 -161.5t206 -61z" />
    <glyph glyph-name="q" unicode="q" horiz-adv-x="1363" 
d="M1155 -393h-119v618q-20 -31 -42.5 -60t-62 -65t-83.5 -61.5t-106.5 -43.5t-131.5 -18q-143 0 -261 75t-183.5 201.5t-65.5 274.5t65.5 274.5t183.5 201.5t261 75q75 0 142 -19t113.5 -47t86.5 -66t63 -69t40 -63l8 242h92v-1450zM631 90q113 0 207.5 61t147 161.5
t52.5 215.5t-52.5 215t-147 161t-207.5 61q-179 0 -295.5 -126.5t-116.5 -310.5q0 -185 116.5 -311.5t295.5 -126.5z" />
    <glyph glyph-name="r" unicode="r" horiz-adv-x="847" 
d="M326 0h-117v1057h92l12 -256q17 36 33.5 65t55 73t84 72.5t120.5 49t164 18.5l-16 -125q-102 4 -185.5 -32t-135.5 -99.5t-79.5 -144.5t-27.5 -170v-508z" />
    <glyph glyph-name="s" unicode="s" horiz-adv-x="1077" 
d="M109 119l59 106q192 -135 385 -135q153 0 225 56t72 145q0 87 -69 123.5t-238 60.5q-43 6 -74 11t-70.5 14t-67.5 19.5t-59.5 26t-52 36t-38 46t-26 59.5t-8.5 75q0 142 105 229.5t283 87.5q218 0 403 -123l-57 -106q-163 115 -346 115q-135 0 -203 -51.5t-68 -145.5
q0 -38 13 -65t34.5 -45t62 -31.5t83 -21.5t110.5 -17q50 -7 85 -13.5t80 -18.5t76 -26t63 -36t51.5 -49t32 -64.5t12.5 -83.5q0 -141 -109.5 -230.5t-306.5 -89.5q-241 0 -442 142z" />
    <glyph glyph-name="t" unicode="t" horiz-adv-x="847" 
d="M715 133l43 -102q-102 -54 -230 -54q-151 0 -229 88.5t-78 256.5v622h-149v109h151v243h117v-243h387v-109h-387v-622q0 -117 45.5 -174.5t142.5 -57.5q90 0 187 43z" />
    <glyph glyph-name="u" unicode="u" horiz-adv-x="1267" 
d="M969 0l-11 225q-11 -29 -30.5 -60t-53 -65.5t-75 -61t-100.5 -44t-124 -17.5q-82 0 -150.5 25t-122.5 76.5t-84 138t-30 201.5v639h117v-613q0 -354 301 -354q144 0 240 116.5t96 274.5v576h119v-1057h-92z" />
    <glyph glyph-name="v" unicode="v" horiz-adv-x="1050" 
d="M586 0h-119l-436 1057h127l366 -901h4l367 901h125z" />
    <glyph glyph-name="w" unicode="w" horiz-adv-x="1568" 
d="M475 0h-117l-323 1057h123l262 -879l305 879h119l303 -879l262 879h123l-324 -1057h-116l-308 891z" />
    <glyph glyph-name="x" unicode="x" horiz-adv-x="1064" 
d="M193 0h-150l410 530l-406 527h150l335 -434l336 434h148l-404 -527l410 -530h-150l-340 438z" />
    <glyph glyph-name="y" unicode="y" horiz-adv-x="1048" 
d="M422 -393h-125l164 401l-430 1049h125l366 -901h4l367 901h125z" />
    <glyph glyph-name="z" unicode="z" horiz-adv-x="1081" 
d="M969 0h-860v94l682 854h-641v109h800v-96l-680 -852h699v-109z" />
    <glyph glyph-name="braceleft" unicode="{" horiz-adv-x="870" 
d="M768 -92v-109h-133q-311 0 -311 320v323q0 105 -53.5 160t-143.5 55h-27v119h27q90 0 143.5 55t53.5 158v326q0 319 311 319h133v-108h-133q-195 0 -195 -211v-326q0 -119 -52 -189t-130 -83v-2q78 -11 130 -81.5t52 -191.5v-323q0 -211 195 -211h133z" />
    <glyph glyph-name="bar" unicode="|" horiz-adv-x="565" 
d="M342 -147h-119v1728h119v-1728z" />
    <glyph glyph-name="braceright" unicode="}" horiz-adv-x="870" 
d="M236 -201h-134v109h134q194 0 194 211v323q0 121 52 191.5t130 81.5v2q-78 13 -130 83t-52 189v326q0 211 -194 211h-134v108h134q311 0 311 -319v-326q0 -103 53 -158t143 -55h27v-119h-27q-90 0 -143 -55t-53 -160v-323q0 -320 -311 -320z" />
    <glyph glyph-name="asciitilde" unicode="~" horiz-adv-x="913" 
d="M195 600l-89 39q31 104 76.5 155.5t118.5 51.5q49 0 94 -22.5t73 -49.5t65 -49.5t71 -22.5q42 0 65.5 32t51.5 116l88 -37q-34 -106 -79.5 -157.5t-119.5 -51.5q-42 0 -79.5 15t-64 36t-51 42t-52 36t-54.5 15q-42 0 -64.5 -32t-49.5 -116z" />
    <glyph glyph-name="uni00A0" unicode="&#xa0;" horiz-adv-x="739" 
 />
    <glyph glyph-name="exclamdown" unicode="&#xa1;" horiz-adv-x="571" 
d="M285 870q-40 0 -68.5 29t-28.5 70q0 40 28.5 69t68.5 29q42 0 71 -29t29 -69q0 -41 -28.5 -70t-71.5 -29zM354 -393h-133l10 954h111z" />
    <glyph glyph-name="cent" unicode="&#xa2;" horiz-adv-x="1163" 
d="M967 422l84 -82q-172 -166 -392 -166q-33 0 -49 2l-28 -190h-105l33 209q-173 48 -283 194t-110 334q0 150 71 276.5t195.5 200.5t275.5 74h23l29 174h104l-31 -188q154 -37 263 -152l-80 -80q-92 92 -201 119l-137 -860q110 0 186.5 29.5t151.5 105.5zM528 307l136 854
q-182 3 -305 -125.5t-123 -312.5q0 -147 81 -260.5t211 -155.5z" />
    <glyph glyph-name="sterling" unicode="&#xa3;" horiz-adv-x="1171" 
d="M1036 0h-923v78l182 28v533h-182v106h182v324q0 189 105 290t280 101q165 0 336 -82l-43 -108q-141 78 -293 78q-115 0 -191.5 -68.5t-76.5 -210.5v-324h538v-106h-538v-533h624v-106z" />
    <glyph glyph-name="currency" unicode="&#xa4;" horiz-adv-x="1120" 
d="M195 272l-80 86l157 158q-63 91 -63 205t63 207l-157 159l78 80l161 -159q89 63 205 63q114 0 205 -65l162 161l80 -80l-162 -163q65 -85 65 -203q0 -111 -65 -203l162 -164l-80 -80l-162 162q-92 -65 -205 -65q-112 0 -205 65zM559 479q108 0 174 69t66 173
q0 103 -66.5 173.5t-173.5 70.5q-109 0 -174.5 -70.5t-65.5 -173.5q0 -104 65 -173t175 -69z" />
    <glyph glyph-name="yen" unicode="&#xa5;" horiz-adv-x="1077" 
d="M479 395h-391v101h391v161h-391v101h358l-434 676h146l381 -594l381 594h143l-434 -676h360v-101h-391v-161h391v-101h-391v-395h-119v395z" />
    <glyph glyph-name="brokenbar" unicode="&#xa6;" horiz-adv-x="565" 
d="M342 852h-119v729h119v-729zM342 -147h-119v729h119v-729z" />
    <glyph glyph-name="section" unicode="&#xa7;" horiz-adv-x="1333" 
d="M1163 526v-65q-61 83 -167 132.5t-308 80.5q-51 8 -85.5 14t-83 16.5t-81 21.5t-73 28t-67 37t-53.5 48t-43 60.5t-26 75.5t-10 92q0 189 139.5 291t368.5 102q135 0 253.5 -36t241.5 -109l-59 -107q-222 138 -432 138q-88 0 -158 -15t-123.5 -46t-82.5 -84t-29 -124
q0 -43 11.5 -78t30 -60.5t49.5 -46t62 -34t76 -24.5t83 -17.5t91 -13.5q475 -67 475 -277zM125 -240l65 105q233 -166 488 -166q195 0 302 79.5t107 213.5q0 41 -12.5 74.5t-30.5 57.5t-51 44.5t-62 33t-76.5 24.5t-80.5 18.5t-88 15.5q-95 16 -146.5 26.5t-122.5 29.5
t-108 40t-75.5 52t-54 73t-15.5 97v40q19 -27 41 -49.5t40.5 -39.5t50 -33t49 -26t59.5 -21.5t59.5 -17t70 -15.5t71 -13t81.5 -14q70 -12 107 -19t101 -23.5t100.5 -33.5t82.5 -47t70 -66t41.5 -88t17.5 -116q0 -186 -138.5 -299t-383.5 -113q-323 0 -559 176z" />
    <glyph glyph-name="dieresis" unicode="&#xa8;" horiz-adv-x="747" 
d="M102 1837q0 39 27 66.5t68 27.5q38 0 66 -28t28 -66q0 -40 -28 -68t-66 -28q-41 0 -68 28t-27 68zM455 1837q0 39 27.5 66.5t66.5 27.5q40 0 68 -28t28 -66q0 -40 -28 -68t-68 -28t-67 28t-27 68z" />
    <glyph glyph-name="copyright" unicode="&#xa9;" horiz-adv-x="1689" 
d="M844 -27q-148 0 -284 59.5t-234 159t-156.5 237.5t-58.5 288t58.5 287.5t156.5 237.5t234 159t284 59q199 0 368 -100t267 -271t98 -372q0 -150 -58 -287.5t-156 -237.5t-234 -159.5t-285 -59.5zM844 63q131 0 250.5 53t206 141.5t137.5 209t51 250.5t-51 250.5
t-137.5 208.5t-206 141t-250.5 53t-250.5 -53t-205 -141.5t-136.5 -208.5t-51 -250t51 -250.5t136.5 -209t205 -141.5t250.5 -53zM1047 518l61 -61q-51 -56 -120.5 -85.5t-143.5 -29.5q-152 0 -259.5 111t-107.5 264t107.5 264t259.5 111q156 0 262 -117l-59 -60
q-87 93 -203 93q-121 0 -200 -83.5t-79 -207.5t79 -207.5t200 -83.5q123 0 203 92z" />
    <glyph glyph-name="ordfeminine" unicode="&#xaa;" horiz-adv-x="860" 
d="M600 797l-10 133q-52 -146 -225 -146q-106 0 -170 54t-64 151q0 99 69.5 151t186.5 52q96 0 199 -39q0 91 -18 139t-52 64t-98 16q-108 0 -207 -31l-23 91q23 10 95 19t139 9q152 0 204 -67t52 -238v-358h-78zM586 1061v8q-115 35 -195 35q-168 0 -168 -115
q0 -57 39.5 -87t108.5 -30q102 0 158.5 58.5t56.5 130.5z" />
    <glyph glyph-name="guillemotleft" unicode="&#xab;" horiz-adv-x="1245" 
d="M633 315l-84 -86l-459 461v62l459 458l84 -84l-406 -405zM1094 313l-84 -84l-459 461v62l459 458l84 -84l-406 -405z" />
    <glyph glyph-name="logicalnot" unicode="&#xac;" horiz-adv-x="1085" 
d="M823 678h-655v96h752v-430h-97v334z" />
    <glyph glyph-name="uni00AD" unicode="&#xad;" horiz-adv-x="911" 
d="M801 668h-690v114h690v-114z" />
    <glyph glyph-name="registered" unicode="&#xae;" horiz-adv-x="1689" 
d="M844 -27q-148 0 -284 59.5t-234 159t-156.5 237.5t-58.5 288t58.5 287.5t156.5 237.5t234 159t284 59q199 0 368 -100t267 -271t98 -372q0 -150 -58 -287.5t-156 -237.5t-234 -159.5t-285 -59.5zM844 63q131 0 250.5 53t206 141.5t137.5 209t51 250.5t-51 250.5
t-137.5 208.5t-206 141t-250.5 53t-250.5 -53t-205 -141.5t-136.5 -208.5t-51 -250t51 -250.5t136.5 -209t205 -141.5t250.5 -53zM698 365h-82v704h248q104 0 173 -52t69 -163q0 -98 -55 -150.5t-142 -64.5l203 -274h-98l-201 272h-115v-272zM698 989v-272h144
q105 0 144.5 35.5t39.5 101.5q0 65 -39.5 100t-144.5 35h-144z" />
    <glyph glyph-name="macron" unicode="&#xaf;" horiz-adv-x="718" 
d="M627 1712h-533v109h533v-109z" />
    <glyph glyph-name="degree" unicode="&#xb0;" horiz-adv-x="686" 
d="M100 1214q0 101 72 173.5t172 72.5q98 0 169 -72.5t71 -173.5q0 -100 -71 -171.5t-169 -71.5q-100 0 -172 71.5t-72 171.5zM344 1040q70 0 119 52t49 122q0 71 -49 124t-119 53q-71 0 -120.5 -52.5t-49.5 -124.5q0 -70 49.5 -122t120.5 -52z" />
    <glyph glyph-name="plusminus" unicode="&#xb1;" horiz-adv-x="1181" 
d="M532 764h-364v115h364v364h115v-364h367v-115h-367v-369h-115v369zM1014 0h-846v115h846v-115z" />
    <glyph glyph-name="twosuperior" unicode="&#xb2;" horiz-adv-x="786" 
d="M707 977h-627v82l416 401q88 85 88 189q0 75 -49.5 123.5t-139.5 48.5q-144 0 -256 -140l-67 68q141 166 319 166q136 0 213.5 -74t77.5 -190q-3 -145 -113 -252l-342 -332h480v-90z" />
    <glyph glyph-name="threesuperior" unicode="&#xb3;" horiz-adv-x="798" 
d="M70 1100l61 69q69 -66 129.5 -95.5t140.5 -29.5q103 0 163.5 47t60.5 130q0 29 -8.5 55t-31 54t-70.5 44.5t-118 16.5h-147v90h158q50 0 88 13.5t57 31.5t30.5 43t14 42t2.5 34q0 73 -47 124.5t-141 51.5q-129 0 -262 -123l-62 71q135 146 324 146q138 0 211 -74.5
t73 -187.5q0 -158 -137 -217v-2q164 -52 164 -217q0 -123 -90.5 -195t-233.5 -72q-196 0 -329 150z" />
    <glyph glyph-name="acute" unicode="&#xb4;" horiz-adv-x="430" 
d="M172 1616h-117l207 309h115z" />
    <glyph glyph-name="uni00B5" unicode="&#xb5;" horiz-adv-x="1288" 
d="M326 -393h-117v1450h117v-613q0 -354 301 -354q144 0 240 116.5t96 274.5v576h118v-1057h-92l-12 225q-10 -29 -29 -60t-52.5 -65.5t-75 -61t-100.5 -44t-124 -17.5q-179 0 -270 113v-483z" />
    <glyph glyph-name="paragraph" unicode="&#xb6;" horiz-adv-x="1226" 
d="M688 1434v-1006q-273 0 -422 132.5t-149 369.5q0 238 149 371t422 133zM1006 -393h-119v1827h119v-1827z" />
    <glyph glyph-name="periodcentered" unicode="&#xb7;" horiz-adv-x="530" 
d="M154 721q0 46 32.5 78t79.5 32q46 0 78.5 -32t32.5 -78q0 -47 -32.5 -80t-78.5 -33q-47 0 -79.5 33t-32.5 80z" />
    <glyph glyph-name="cedilla" unicode="&#xb8;" horiz-adv-x="460" 
d="M201 -393h-123l143 440l119 -4z" />
    <glyph glyph-name="onesuperior" unicode="&#xb9;" horiz-adv-x="557" 
d="M377 977h-96v801l-183 -72l-35 94l232 88h82v-911z" />
    <glyph glyph-name="ordmasculine" unicode="&#xba;" horiz-adv-x="768" 
d="M51 1122q0 141 96.5 239.5t237.5 98.5q139 0 235.5 -99t96.5 -239t-96.5 -239t-235.5 -99q-141 0 -237.5 98.5t-96.5 239.5zM385 872q99 0 169.5 73.5t70.5 176.5t-70.5 176.5t-169.5 73.5q-102 0 -172 -73t-70 -177t70 -177t172 -73z" />
    <glyph glyph-name="guillemotright" unicode="&#xbb;" horiz-adv-x="1243" 
d="M1157 690l-459 -461l-84 86l406 406l-406 405l84 84l459 -458v-62zM238 229l-84 84l405 408l-407 405l86 84l458 -458v-62z" />
    <glyph glyph-name="onequarter" unicode="&#xbc;" horiz-adv-x="1574" 
d="M365 522h-97v801l-184 -72l-35 95l232 88h84v-912zM444 0h-108l713 1434h108zM1264 225h-461v76l446 610h109v-596h158v-90h-158v-225h-94v225zM1264 768l-334 -453h334v453z" />
    <glyph glyph-name="onehalf" unicode="&#xbd;" horiz-adv-x="1646" 
d="M365 522h-97v801l-184 -72l-35 95l232 88h84v-912zM426 0h-109l732 1434h108zM1597 0h-626v82l415 403q87 82 87 187q0 75 -49.5 123.5t-139.5 48.5q-143 0 -254 -139l-67 67q141 166 317 166q137 0 214 -74t77 -190q0 -145 -113 -252l-342 -332h481v-90z" />
    <glyph glyph-name="threequarters" unicode="&#xbe;" horiz-adv-x="1769" 
d="M43 645l63 70q69 -66 130 -95.5t141 -29.5q103 0 163 46.5t60 129.5q0 29 -8.5 55t-30.5 54t-70 44.5t-118 16.5h-148v90h156q51 0 89 13.5t57.5 31.5t31 43t14 42t2.5 34q0 73 -47 124.5t-141 51.5q-129 0 -262 -123l-62 72q134 145 324 145q138 0 211.5 -74.5
t73.5 -187.5q0 -72 -34 -129t-106 -88v-2q166 -52 166 -217q0 -123 -90 -194.5t-233 -71.5q-197 0 -332 149zM641 0h-111l732 1434h110zM1462 225h-461v76l447 610h108v-596h158v-90h-158v-225h-94v225zM1462 768l-334 -453h334v453z" />
    <glyph glyph-name="questiondown" unicode="&#xbf;" horiz-adv-x="974" 
d="M563 862q-43 0 -72.5 30t-29.5 71q0 42 30 72t72 30q43 0 73 -30.5t30 -71.5t-30 -71t-73 -30zM823 -209l58 -100q-182 -107 -377 -107q-78 0 -142 21t-107.5 56.5t-73 83t-43 100t-13.5 108.5q0 316 383 428l2 184h98l6 -258q-201 -45 -286.5 -131.5t-85.5 -218.5
q0 -119 69 -188.5t193 -69.5q166 0 319 92z" />
    <glyph glyph-name="Agrave" unicode="&#xc0;" horiz-adv-x="1437" 
d="M795 1616h-115l-207 309h117zM164 0h-133l639 1434h98l639 -1434h-135l-170 381h-768zM717 1239l-330 -737h662l-330 737h-2z" />
    <glyph glyph-name="Aacute" unicode="&#xc1;" horiz-adv-x="1437" 
d="M758 1616h-117l207 309h115zM164 0h-133l639 1434h98l639 -1434h-135l-170 381h-768zM717 1239l-330 -737h662l-330 737h-2z" />
    <glyph glyph-name="Acircumflex" unicode="&#xc2;" horiz-adv-x="1437" 
d="M565 1589h-119l222 336h102l223 -336h-121l-151 230h-2zM164 0h-133l639 1434h98l639 -1434h-135l-170 381h-768zM717 1239l-330 -737h662l-330 737h-2z" />
    <glyph glyph-name="Atilde" unicode="&#xc3;" horiz-adv-x="1437" 
d="M459 1679l-88 39q35 107 80 158t122 51q40 0 75.5 -15t62 -36.5t51 -42.5t53 -36t57.5 -15q41 0 65 33t50 116l88 -39q-33 -105 -79 -157t-124 -52q-49 0 -93.5 23t-72 50t-63.5 50t-70 23q-41 0 -64.5 -33t-49.5 -117zM164 0h-133l639 1434h98l639 -1434h-135l-170 381
h-768zM717 1239l-330 -737h662l-330 737h-2z" />
    <glyph glyph-name="Adieresis" unicode="&#xc4;" horiz-adv-x="1437" 
d="M444 1837q0 39 27 66.5t68 27.5q38 0 66 -28t28 -66q0 -40 -28 -68t-66 -28q-41 0 -68 28t-27 68zM797 1837q0 39 27.5 66.5t66.5 27.5q40 0 68 -28t28 -66q0 -40 -28 -68t-68 -28t-67 28t-27 68zM164 0h-133l639 1434h98l639 -1434h-135l-170 381h-768zM717 1239
l-330 -737h662l-330 737h-2z" />
    <glyph glyph-name="Aring" unicode="&#xc5;" horiz-adv-x="1437" 
d="M719 1583q-72 0 -124 51.5t-52 124.5t52 124.5t124 51.5t124 -51.5t52 -124.5t-52 -124.5t-124 -51.5zM719 1661q41 0 67.5 28t26.5 70q0 41 -27 70t-67 29q-39 0 -67.5 -29.5t-28.5 -69.5q0 -41 28 -69.5t68 -28.5zM164 0h-133l639 1434h98l639 -1434h-135l-170 381
h-768zM717 1239l-330 -737h662l-330 737h-2z" />
    <glyph glyph-name="AE" unicode="&#xc6;" horiz-adv-x="1755" 
d="M164 0h-133l637 1434h938v-115h-662v-537h623v-114h-623v-553h672v-115h-791v381h-491zM750 1319l-365 -817h440v817h-75z" />
    <glyph glyph-name="Ccedilla" unicode="&#xc7;" horiz-adv-x="1484" 
d="M1309 303l80 -88q-89 -101 -218.5 -164.5t-269.5 -75.5l-119 -368h-123l119 368q-139 12 -263 75t-212.5 161t-140 230t-51.5 276q0 153 57.5 290.5t155 236.5t233.5 157.5t287 58.5q156 0 301 -64.5t248 -176.5l-86 -91q-80 94 -200 156t-263 62q-126 0 -240.5 -51
t-195.5 -136t-129 -200.5t-48 -241.5t48 -241.5t129 -200.5t195.5 -136t240.5 -51q144 0 261.5 59t203.5 156z" />
    <glyph glyph-name="Egrave" unicode="&#xc8;" horiz-adv-x="1331" 
d="M793 1616h-115l-207 309h117zM1194 0h-971v1434h959v-115h-840v-537h801v-114h-801v-553h852v-115z" />
    <glyph glyph-name="Eacute" unicode="&#xc9;" horiz-adv-x="1331" 
d="M723 1616h-117l207 309h115zM1194 0h-971v1434h959v-115h-840v-537h801v-114h-801v-553h852v-115z" />
    <glyph glyph-name="Ecircumflex" unicode="&#xca;" horiz-adv-x="1331" 
d="M555 1589h-119l221 336h103l223 -336h-121l-151 230h-2zM1194 0h-971v1434h959v-115h-840v-537h801v-114h-801v-553h852v-115z" />
    <glyph glyph-name="Edieresis" unicode="&#xcb;" horiz-adv-x="1331" 
d="M430 1837q0 39 26.5 66.5t67.5 27.5q38 0 66 -28t28 -66q0 -40 -28 -68t-66 -28q-41 0 -67.5 28t-26.5 68zM782 1837q0 39 28 66.5t67 27.5q40 0 68 -28t28 -66q0 -40 -28 -68t-68 -28t-67.5 28t-27.5 68zM1194 0h-971v1434h959v-115h-840v-537h801v-114h-801v-553h852
v-115z" />
    <glyph glyph-name="Igrave" unicode="&#xcc;" horiz-adv-x="565" 
d="M367 1616h-115l-207 309h117zM342 0h-119v1434h119v-1434z" />
    <glyph glyph-name="Iacute" unicode="&#xcd;" horiz-adv-x="565" 
d="M313 1616h-116l206 309h115zM342 0h-119v1434h119v-1434z" />
    <glyph glyph-name="Icircumflex" unicode="&#xce;" horiz-adv-x="565" 
d="M129 1589h-119l221 336h103l223 -336h-121l-151 230h-2zM342 0h-119v1434h119v-1434z" />
    <glyph glyph-name="Idieresis" unicode="&#xcf;" horiz-adv-x="565" 
d="M8 1837q0 39 26.5 66.5t67.5 27.5q38 0 66.5 -28t28.5 -66q0 -39 -28.5 -67.5t-66.5 -28.5q-41 0 -67.5 28t-26.5 68zM360 1837q0 39 28 66.5t67 27.5q40 0 68 -28t28 -66q0 -40 -28 -68t-68 -28t-67.5 28t-27.5 68zM342 0h-119v1434h119v-1434z" />
    <glyph glyph-name="Eth" unicode="&#xd0;" horiz-adv-x="1564" 
d="M748 0h-525v662h-168v108h168v664h525q201 0 362.5 -92.5t252.5 -256.5t91 -368t-91 -368t-252.5 -256.5t-362.5 -92.5zM342 662v-547h403q171 0 306 80t208.5 217t73.5 305t-73.5 305t-208.5 217t-306 80h-403v-549h352v-108h-352z" />
    <glyph glyph-name="Ntilde" unicode="&#xd1;" horiz-adv-x="1591" 
d="M526 1679l-88 39q35 106 80.5 157.5t122.5 51.5q40 0 75.5 -15t62 -36.5t51 -42.5t53 -36t57.5 -15q41 0 65 33t50 116l88 -39q-33 -105 -79 -157t-124 -52q-49 0 -93.5 23t-72 50t-63.5 50t-70 23q-41 0 -65 -33t-50 -117zM342 0h-119v1434h107l917 -1225h2v1225h119
v-1434h-113l-911 1219h-2v-1219z" />
    <glyph glyph-name="Ograve" unicode="&#xd2;" horiz-adv-x="1687" 
d="M924 1616h-115l-207 309h117zM844 -27q-151 0 -286.5 58.5t-233 158t-154.5 237t-57 290.5t57 290.5t154.5 236.5t233 157.5t286.5 58.5t287 -58.5t233.5 -157.5t155 -236.5t57.5 -290.5t-57.5 -290.5t-155 -237t-233.5 -158t-287 -58.5zM844 88q169 0 310.5 86
t221.5 230.5t80 312.5t-80 312.5t-221.5 230.5t-310.5 86q-126 0 -240.5 -51t-195.5 -136t-129 -200.5t-48 -241.5t48 -241.5t129 -200.5t195.5 -136t240.5 -51z" />
    <glyph glyph-name="Oacute" unicode="&#xd3;" horiz-adv-x="1687" 
d="M879 1616h-117l207 309h114zM844 -27q-151 0 -286.5 58.5t-233 158t-154.5 237t-57 290.5t57 290.5t154.5 236.5t233 157.5t286.5 58.5t287 -58.5t233.5 -157.5t155 -236.5t57.5 -290.5t-57.5 -290.5t-155 -237t-233.5 -158t-287 -58.5zM844 88q169 0 310.5 86
t221.5 230.5t80 312.5t-80 312.5t-221.5 230.5t-310.5 86q-126 0 -240.5 -51t-195.5 -136t-129 -200.5t-48 -241.5t48 -241.5t129 -200.5t195.5 -136t240.5 -51z" />
    <glyph glyph-name="Ocircumflex" unicode="&#xd4;" horiz-adv-x="1687" 
d="M690 1589h-119l222 336h102l223 -336h-121l-151 230h-2zM844 -27q-151 0 -286.5 58.5t-233 158t-154.5 237t-57 290.5t57 290.5t154.5 236.5t233 157.5t286.5 58.5t287 -58.5t233.5 -157.5t155 -236.5t57.5 -290.5t-57.5 -290.5t-155 -237t-233.5 -158t-287 -58.5z
M844 88q169 0 310.5 86t221.5 230.5t80 312.5t-80 312.5t-221.5 230.5t-310.5 86q-126 0 -240.5 -51t-195.5 -136t-129 -200.5t-48 -241.5t48 -241.5t129 -200.5t195.5 -136t240.5 -51z" />
    <glyph glyph-name="Otilde" unicode="&#xd5;" horiz-adv-x="1687" 
d="M582 1679l-88 39q35 107 80 158t122 51q40 0 75.5 -15t62 -36.5t51 -42.5t53 -36t57.5 -15q41 0 65 33t50 116l88 -39q-33 -105 -79 -157t-124 -52q-49 0 -93.5 23t-72 50t-63.5 50t-70 23q-41 0 -64.5 -33t-49.5 -117zM844 -27q-151 0 -286.5 58.5t-233 158t-154.5 237
t-57 290.5t57 290.5t154.5 236.5t233 157.5t286.5 58.5t287 -58.5t233.5 -157.5t155 -236.5t57.5 -290.5t-57.5 -290.5t-155 -237t-233.5 -158t-287 -58.5zM844 88q169 0 310.5 86t221.5 230.5t80 312.5t-80 312.5t-221.5 230.5t-310.5 86q-126 0 -240.5 -51t-195.5 -136
t-129 -200.5t-48 -241.5t48 -241.5t129 -200.5t195.5 -136t240.5 -51z" />
    <glyph glyph-name="Odieresis" unicode="&#xd6;" horiz-adv-x="1687" 
d="M571 1837q0 39 27 66.5t68 27.5q38 0 66 -28t28 -66q0 -40 -28 -68t-66 -28q-41 0 -68 28t-27 68zM924 1837q0 39 27.5 66.5t66.5 27.5q40 0 68 -28t28 -66q0 -40 -28 -68t-68 -28t-67 28t-27 68zM844 -27q-151 0 -286.5 58.5t-233 158t-154.5 237t-57 290.5t57 290.5
t154.5 236.5t233 157.5t286.5 58.5t287 -58.5t233.5 -157.5t155 -236.5t57.5 -290.5t-57.5 -290.5t-155 -237t-233.5 -158t-287 -58.5zM844 88q169 0 310.5 86t221.5 230.5t80 312.5t-80 312.5t-221.5 230.5t-310.5 86q-126 0 -240.5 -51t-195.5 -136t-129 -200.5
t-48 -241.5t48 -241.5t129 -200.5t195.5 -136t240.5 -51z" />
    <glyph glyph-name="multiply" unicode="&#xd7;" horiz-adv-x="808" 
d="M156 401l-68 70l246 250l-246 248l68 69l247 -247l250 247l68 -67l-248 -250l248 -248l-68 -72l-247 250z" />
    <glyph glyph-name="Oslash" unicode="&#xd8;" horiz-adv-x="1687" 
d="M844 -27q-152 0 -295 62l-64 -121h-125l91 174q-156 100 -247 266t-91 363q0 153 57 290.5t154.5 236.5t233 157.5t286.5 58.5q154 0 295 -61l63 123h125l-92 -174q158 -100 250 -267t92 -364q0 -153 -57.5 -290.5t-155 -237t-233.5 -158t-287 -58.5zM506 193l577 1103
q-116 50 -239 50q-126 0 -240.5 -51t-195.5 -136t-129 -200.5t-48 -241.5q0 -159 74 -297.5t201 -226.5zM844 88q169 0 310.5 86t221.5 230.5t80 312.5q0 160 -73.5 299t-200.5 227l-580 -1104q114 -51 242 -51z" />
    <glyph glyph-name="Ugrave" unicode="&#xd9;" horiz-adv-x="1544" 
d="M854 1616h-115l-207 309h117zM203 590v844h119v-834q0 -133 34 -233.5t96 -160t142 -89t178 -29.5t178 29.5t142 89t96.5 160t34.5 233.5v834h118v-844q0 -298 -155.5 -457.5t-413.5 -159.5t-413.5 159.5t-155.5 457.5z" />
    <glyph glyph-name="Uacute" unicode="&#xda;" horiz-adv-x="1544" 
d="M807 1616h-117l207 309h115zM203 590v844h119v-834q0 -133 34 -233.5t96 -160t142 -89t178 -29.5t178 29.5t142 89t96.5 160t34.5 233.5v834h118v-844q0 -298 -155.5 -457.5t-413.5 -159.5t-413.5 159.5t-155.5 457.5z" />
    <glyph glyph-name="Ucircumflex" unicode="&#xdb;" horiz-adv-x="1544" 
d="M618 1589h-118l221 336h102l224 -336h-121l-152 230h-2zM203 590v844h119v-834q0 -133 34 -233.5t96 -160t142 -89t178 -29.5t178 29.5t142 89t96.5 160t34.5 233.5v834h118v-844q0 -298 -155.5 -457.5t-413.5 -159.5t-413.5 159.5t-155.5 457.5z" />
    <glyph glyph-name="Udieresis" unicode="&#xdc;" horiz-adv-x="1544" 
d="M500 1837q0 39 26.5 66.5t67.5 27.5q38 0 66 -28t28 -66q0 -40 -28 -68t-66 -28q-41 0 -67.5 28t-26.5 68zM852 1837q0 39 27.5 66.5t66.5 27.5q40 0 68 -28t28 -66q0 -40 -28 -68t-68 -28t-67 28t-27 68zM203 590v844h119v-834q0 -133 34 -233.5t96 -160t142 -89
t178 -29.5t178 29.5t142 89t96.5 160t34.5 233.5v834h118v-844q0 -298 -155.5 -457.5t-413.5 -159.5t-413.5 159.5t-155.5 457.5z" />
    <glyph glyph-name="Yacute" unicode="&#xdd;" horiz-adv-x="1263" 
d="M655 1616h-116l206 309h115zM690 0h-119v573l-559 861h146l473 -729l475 729h143l-559 -861v-573z" />
    <glyph glyph-name="Thorn" unicode="&#xde;" horiz-adv-x="1304" 
d="M342 0h-119v1434h119v-252h383q78 0 148 -14.5t134 -49t110 -85t73 -128t27 -174.5t-27 -174.5t-73 -128.5t-110 -85t-134 -49t-148 -15h-383v-279zM342 1067v-674h369q112 0 191 29t119.5 79.5t57.5 106.5t17 123q0 336 -385 336h-369z" />
    <glyph glyph-name="germandbls" unicode="&#xdf;" horiz-adv-x="1292" 
d="M326 0h-117v1149q0 127 61.5 223t163.5 144.5t228 48.5q195 0 324.5 -112.5t129.5 -303.5q0 -76 -21.5 -140.5t-57.5 -106.5t-75 -69.5t-81 -39.5v-2q34 -11 69.5 -29.5t80 -54.5t78.5 -81.5t57.5 -115t23.5 -150.5q0 -178 -92.5 -280.5t-237.5 -102.5q-92 0 -169.5 26.5
t-164.5 92.5l66 97q75 -61 133.5 -82t130.5 -21q101 0 158 70t57 194q0 91 -33.5 164.5t-89.5 119.5t-126.5 70.5t-147.5 24.5h-150v113h158q87 0 151.5 27t98.5 71.5t49.5 92t15.5 98.5q0 145 -89.5 230t-245.5 85q-155 0 -245.5 -85t-90.5 -230v-1135z" />
    <glyph glyph-name="agrave" unicode="&#xe0;" horiz-adv-x="1187" 
d="M655 1245h-114l-207 309h117zM907 0l-16 215q-51 -114 -153.5 -176t-241.5 -62q-164 0 -273.5 94t-109.5 244q0 157 118.5 240.5t309.5 83.5q166 0 342 -57q0 97 -9 160.5t-29 109t-57.5 69.5t-88.5 34t-128 10q-170 0 -342 -43l-26 110q38 15 156.5 31t224.5 16
q103 0 175 -18t119.5 -53t74.5 -96.5t37.5 -138.5t10.5 -189v-584h-94zM883 446v27q-169 59 -334 59q-146 0 -232 -56t-86 -161q0 -104 76 -164.5t201 -60.5q95 0 168.5 29.5t117.5 80.5t66.5 113.5t22.5 132.5z" />
    <glyph glyph-name="aacute" unicode="&#xe1;" horiz-adv-x="1187" 
d="M606 1245h-117l207 309h115zM907 0l-16 215q-51 -114 -153.5 -176t-241.5 -62q-164 0 -273.5 94t-109.5 244q0 157 118.5 240.5t309.5 83.5q166 0 342 -57q0 97 -9 160.5t-29 109t-57.5 69.5t-88.5 34t-128 10q-170 0 -342 -43l-26 110q38 15 156.5 31t224.5 16
q103 0 175 -18t119.5 -53t74.5 -96.5t37.5 -138.5t10.5 -189v-584h-94zM883 446v27q-169 59 -334 59q-146 0 -232 -56t-86 -161q0 -104 76 -164.5t201 -60.5q95 0 168.5 29.5t117.5 80.5t66.5 113.5t22.5 132.5z" />
    <glyph glyph-name="acircumflex" unicode="&#xe2;" horiz-adv-x="1187" 
d="M416 1219h-119l221 335h103l223 -335h-121l-152 229h-2zM907 0l-16 215q-51 -114 -153.5 -176t-241.5 -62q-164 0 -273.5 94t-109.5 244q0 157 118.5 240.5t309.5 83.5q166 0 342 -57q0 97 -9 160.5t-29 109t-57.5 69.5t-88.5 34t-128 10q-170 0 -342 -43l-26 110
q38 15 156.5 31t224.5 16q103 0 175 -18t119.5 -53t74.5 -96.5t37.5 -138.5t10.5 -189v-584h-94zM883 446v27q-169 59 -334 59q-146 0 -232 -56t-86 -161q0 -104 76 -164.5t201 -60.5q95 0 168.5 29.5t117.5 80.5t66.5 113.5t22.5 132.5z" />
    <glyph glyph-name="atilde" unicode="&#xe3;" horiz-adv-x="1187" 
d="M307 1292l-88 39q35 106 80.5 157.5t122.5 51.5q40 0 75.5 -15t62 -36t51 -42.5t53 -36.5t57.5 -15q41 0 65 33t50 116l88 -39q-33 -105 -79 -157t-124 -52q-49 0 -93.5 23t-72 50t-63.5 50t-70 23q-41 0 -65 -33t-50 -117zM907 0l-16 215q-51 -114 -153.5 -176
t-241.5 -62q-164 0 -273.5 94t-109.5 244q0 157 118.5 240.5t309.5 83.5q166 0 342 -57q0 97 -9 160.5t-29 109t-57.5 69.5t-88.5 34t-128 10q-170 0 -342 -43l-26 110q38 15 156.5 31t224.5 16q103 0 175 -18t119.5 -53t74.5 -96.5t37.5 -138.5t10.5 -189v-584h-94z
M883 446v27q-169 59 -334 59q-146 0 -232 -56t-86 -161q0 -104 76 -164.5t201 -60.5q95 0 168.5 29.5t117.5 80.5t66.5 113.5t22.5 132.5z" />
    <glyph glyph-name="adieresis" unicode="&#xe4;" horiz-adv-x="1187" 
d="M309 1456q0 39 26.5 66.5t67.5 27.5q38 0 66.5 -28t28.5 -66q0 -40 -28 -68t-67 -28q-41 0 -67.5 28t-26.5 68zM662 1456q0 39 27.5 66.5t66.5 27.5q40 0 68 -28t28 -66q0 -40 -28 -68t-68 -28t-67 28t-27 68zM907 0l-16 215q-51 -114 -153.5 -176t-241.5 -62
q-164 0 -273.5 94t-109.5 244q0 157 118.5 240.5t309.5 83.5q166 0 342 -57q0 97 -9 160.5t-29 109t-57.5 69.5t-88.5 34t-128 10q-170 0 -342 -43l-26 110q38 15 156.5 31t224.5 16q103 0 175 -18t119.5 -53t74.5 -96.5t37.5 -138.5t10.5 -189v-584h-94zM883 446v27
q-169 59 -334 59q-146 0 -232 -56t-86 -161q0 -104 76 -164.5t201 -60.5q95 0 168.5 29.5t117.5 80.5t66.5 113.5t22.5 132.5z" />
    <glyph glyph-name="aring" unicode="&#xe5;" horiz-adv-x="1187" 
d="M573 1214q-72 0 -124 52t-52 125t52 124.5t124 51.5t124.5 -51.5t52.5 -124.5t-52.5 -125t-124.5 -52zM573 1292q41 0 68 28.5t27 70.5q0 40 -27 69t-68 29q-40 0 -68 -29t-28 -69q0 -41 28 -70t68 -29zM907 0l-16 215q-51 -114 -153.5 -176t-241.5 -62q-164 0 -273.5 94
t-109.5 244q0 157 118.5 240.5t309.5 83.5q166 0 342 -57q0 97 -9 160.5t-29 109t-57.5 69.5t-88.5 34t-128 10q-170 0 -342 -43l-26 110q38 15 156.5 31t224.5 16q103 0 175 -18t119.5 -53t74.5 -96.5t37.5 -138.5t10.5 -189v-584h-94zM883 446v27q-169 59 -334 59
q-146 0 -232 -56t-86 -161q0 -104 76 -164.5t201 -60.5q95 0 168.5 29.5t117.5 80.5t66.5 113.5t22.5 132.5z" />
    <glyph glyph-name="ae" unicode="&#xe6;" horiz-adv-x="1974" 
d="M1872 489h-858q12 -173 119 -286t272 -113q110 0 179 27t161 98l63 -92q-99 -79 -189.5 -112.5t-213.5 -33.5q-151 0 -268.5 75.5t-182.5 203.5q-113 -279 -465 -279q-169 0 -273.5 89t-104.5 243q0 77 30.5 135t83 90.5t113 48t129.5 15.5h428q0 107 -20 179t-63 113
t-102.5 58t-146.5 17q-166 0 -334 -43l-28 110q38 15 151.5 31t220.5 16q163 0 261.5 -58t142.5 -181q65 110 173.5 173.5t244.5 63.5q150 0 259.5 -72t163.5 -192t54 -272v-52zM1018 598h737q-9 160 -103.5 263.5t-254.5 103.5q-157 0 -258.5 -102.5t-120.5 -264.5z
M895 446v43h-422q-49 0 -90 -8.5t-77 -27.5t-56.5 -56t-20.5 -88q0 -105 72.5 -162t202.5 -57q101 0 178 29.5t122.5 80.5t68 113t22.5 133z" />
    <glyph glyph-name="ccedilla" unicode="&#xe7;" horiz-adv-x="1120" 
d="M952 225l82 -82q-147 -144 -336 -163l-118 -373h-123l121 375q-205 25 -340.5 179.5t-135.5 364.5q0 113 42 215t114 176t172.5 118t212.5 44q223 0 389 -166l-80 -82q-137 134 -309 134q-179 0 -300.5 -127.5t-121.5 -311.5q0 -183 121.5 -309.5t300.5 -126.5
q174 0 309 135z" />
    <glyph glyph-name="egrave" unicode="&#xe8;" horiz-adv-x="1228" 
d="M711 1245h-115l-207 309h117zM1126 471h-903q19 -163 137.5 -272t282.5 -109q111 0 183.5 29t168.5 102l64 -94q-107 -79 -200.5 -114.5t-215.5 -35.5q-113 0 -214 43.5t-173 117t-114 175t-42 213.5q0 150 72 277.5t196.5 201.5t272.5 74q113 0 205.5 -44.5t153 -121
t93.5 -177.5t33 -214v-51zM223 580h787q-6 104 -50 191t-127 141.5t-190 54.5q-164 0 -282.5 -110.5t-137.5 -276.5z" />
    <glyph glyph-name="eacute" unicode="&#xe9;" horiz-adv-x="1228" 
d="M655 1245h-116l206 309h115zM1126 471h-903q19 -163 137.5 -272t282.5 -109q111 0 183.5 29t168.5 102l64 -94q-107 -79 -200.5 -114.5t-215.5 -35.5q-113 0 -214 43.5t-173 117t-114 175t-42 213.5q0 150 72 277.5t196.5 201.5t272.5 74q113 0 205.5 -44.5t153 -121
t93.5 -177.5t33 -214v-51zM223 580h787q-6 104 -50 191t-127 141.5t-190 54.5q-164 0 -282.5 -110.5t-137.5 -276.5z" />
    <glyph glyph-name="ecircumflex" unicode="&#xea;" horiz-adv-x="1228" 
d="M487 1219h-118l221 335h102l223 -335h-120l-152 229h-2zM1126 471h-903q19 -163 137.5 -272t282.5 -109q111 0 183.5 29t168.5 102l64 -94q-107 -79 -200.5 -114.5t-215.5 -35.5q-113 0 -214 43.5t-173 117t-114 175t-42 213.5q0 150 72 277.5t196.5 201.5t272.5 74
q113 0 205.5 -44.5t153 -121t93.5 -177.5t33 -214v-51zM223 580h787q-6 104 -50 191t-127 141.5t-190 54.5q-164 0 -282.5 -110.5t-137.5 -276.5z" />
    <glyph glyph-name="edieresis" unicode="&#xeb;" horiz-adv-x="1228" 
d="M365 1458q0 39 26.5 66.5t67.5 27.5q38 0 66 -28t28 -66q0 -40 -28 -68t-66 -28q-41 0 -67.5 28t-26.5 68zM717 1458q0 39 27.5 66.5t66.5 27.5q40 0 68 -28t28 -66q0 -40 -28 -68t-68 -28t-67 28t-27 68zM1126 471h-903q19 -163 137.5 -272t282.5 -109q111 0 183.5 29
t168.5 102l64 -94q-107 -79 -200.5 -114.5t-215.5 -35.5q-113 0 -214 43.5t-173 117t-114 175t-42 213.5q0 150 72 277.5t196.5 201.5t272.5 74q113 0 205.5 -44.5t153 -121t93.5 -177.5t33 -214v-51zM223 580h787q-6 104 -50 191t-127 141.5t-190 54.5
q-164 0 -282.5 -110.5t-137.5 -276.5z" />
    <glyph glyph-name="igrave" unicode="&#xec;" horiz-adv-x="534" 
d="M338 1245h-115l-207 309h117zM326 0h-117v1057h117v-1057z" />
    <glyph glyph-name="iacute" unicode="&#xed;" horiz-adv-x="534" 
d="M297 1245h-117l207 309h115zM326 0h-117v1057h117v-1057z" />
    <glyph glyph-name="icircumflex" unicode="&#xee;" horiz-adv-x="534" 
d="M115 1219h-121l223 335h102l224 -335h-121l-152 229h-2zM326 0h-117v1057h117v-1057z" />
    <glyph glyph-name="idieresis" unicode="&#xef;" horiz-adv-x="534" 
d="M16 1456q0 40 27.5 68t67.5 28t68 -28t28 -68q0 -38 -28 -66t-68 -28q-39 0 -67 28t-28 66zM330 1456q0 40 27 68t67 28t68 -28t28 -68q0 -38 -28 -66t-68 -28q-39 0 -66.5 27.5t-27.5 66.5zM326 0h-117v1057h117v-1057z" />
    <glyph glyph-name="eth" unicode="&#xf0;" horiz-adv-x="1259" 
d="M733 1276l-297 -82l2 94l248 68l-111 186h136l92 -156l266 74v-92l-219 -59l33 -56q9 -16 42.5 -71t48 -79t44.5 -79t44.5 -89t36 -89t32 -99.5t18.5 -99.5t8 -108v-33q0 -228 -149.5 -378.5t-378.5 -150.5q-228 0 -378.5 150.5t-150.5 378.5q0 150 67.5 275t185.5 196.5
t261 71.5q177 0 324 -109q-31 54 -97.5 159t-95.5 154zM629 90q180 0 294.5 117t114.5 299q0 184 -115 306t-294 122q-178 0 -294 -122t-116 -306q0 -181 115.5 -298.5t294.5 -117.5z" />
    <glyph glyph-name="ntilde" unicode="&#xf1;" horiz-adv-x="1273" 
d="M387 1292l-88 39q35 106 80.5 157.5t122.5 51.5q40 0 75.5 -15t62 -36t51 -42.5t53 -36.5t57.5 -15q41 0 64.5 33t49.5 116l89 -39q-33 -105 -79 -157t-124 -52q-49 0 -93.5 23t-72 50t-63.5 50t-70 23q-41 0 -65 -33t-50 -117zM326 0h-117v1057h90l14 -240q13 39 41 80
t72.5 84t113.5 70.5t150 27.5q82 0 152.5 -27t126 -80.5t87 -142t31.5 -202.5v-627h-118v602q0 186 -84.5 274.5t-225.5 88.5q-144 0 -238.5 -116t-94.5 -274v-575z" />
    <glyph glyph-name="ograve" unicode="&#xf2;" horiz-adv-x="1286" 
d="M727 1245h-115l-206 309h116zM100 526q0 113 42 215t114 176t172.5 118t212.5 44q113 0 214 -44t173 -118t114 -176t42 -215q0 -112 -42 -213.5t-114 -175t-173 -117t-214 -43.5q-150 0 -274.5 73.5t-195.5 199.5t-71 276zM641 90q179 0 301.5 127t122.5 309
q0 184 -122.5 311.5t-301.5 127.5t-300.5 -127.5t-121.5 -311.5q0 -183 121.5 -309.5t300.5 -126.5z" />
    <glyph glyph-name="oacute" unicode="&#xf3;" horiz-adv-x="1286" 
d="M674 1245h-117l207 309h115zM100 526q0 113 42 215t114 176t172.5 118t212.5 44q113 0 214 -44t173 -118t114 -176t42 -215q0 -112 -42 -213.5t-114 -175t-173 -117t-214 -43.5q-150 0 -274.5 73.5t-195.5 199.5t-71 276zM641 90q179 0 301.5 127t122.5 309
q0 184 -122.5 311.5t-301.5 127.5t-300.5 -127.5t-121.5 -311.5q0 -183 121.5 -309.5t300.5 -126.5z" />
    <glyph glyph-name="ocircumflex" unicode="&#xf4;" horiz-adv-x="1286" 
d="M485 1219h-118l221 335h102l223 -335h-120l-152 229h-2zM100 526q0 113 42 215t114 176t172.5 118t212.5 44q113 0 214 -44t173 -118t114 -176t42 -215q0 -112 -42 -213.5t-114 -175t-173 -117t-214 -43.5q-150 0 -274.5 73.5t-195.5 199.5t-71 276zM641 90
q179 0 301.5 127t122.5 309q0 184 -122.5 311.5t-301.5 127.5t-300.5 -127.5t-121.5 -311.5q0 -183 121.5 -309.5t300.5 -126.5z" />
    <glyph glyph-name="otilde" unicode="&#xf5;" horiz-adv-x="1286" 
d="M377 1290l-88 39q35 106 80.5 157.5t122.5 51.5q40 0 75.5 -15t62 -36t51 -42.5t53 -36.5t57.5 -15q41 0 64.5 33t49.5 116l88 -39q-33 -106 -79 -157.5t-123 -51.5q-49 0 -93.5 23t-72 50t-63.5 50t-70 23q-41 0 -65 -33t-50 -117zM100 526q0 113 42 215t114 176
t172.5 118t212.5 44q113 0 214 -44t173 -118t114 -176t42 -215q0 -112 -42 -213.5t-114 -175t-173 -117t-214 -43.5q-150 0 -274.5 73.5t-195.5 199.5t-71 276zM641 90q179 0 301.5 127t122.5 309q0 184 -122.5 311.5t-301.5 127.5t-300.5 -127.5t-121.5 -311.5
q0 -183 121.5 -309.5t300.5 -126.5z" />
    <glyph glyph-name="odieresis" unicode="&#xf6;" horiz-adv-x="1286" 
d="M371 1458q0 39 26.5 66.5t67.5 27.5q38 0 66 -28t28 -66q0 -40 -28 -68t-66 -28q-41 0 -67.5 28t-26.5 68zM723 1458q0 39 27.5 66.5t66.5 27.5q40 0 68 -28t28 -66q0 -40 -28 -68t-68 -28t-67 28t-27 68zM100 526q0 113 42 215t114 176t172.5 118t212.5 44
q113 0 214 -44t173 -118t114 -176t42 -215q0 -112 -42 -213.5t-114 -175t-173 -117t-214 -43.5q-150 0 -274.5 73.5t-195.5 199.5t-71 276zM641 90q179 0 301.5 127t122.5 309q0 184 -122.5 311.5t-301.5 127.5t-300.5 -127.5t-121.5 -311.5q0 -183 121.5 -309.5
t300.5 -126.5z" />
    <glyph glyph-name="divide" unicode="&#xf7;" horiz-adv-x="1011" 
d="M422 1102q0 37 23.5 61.5t58.5 24.5q36 0 61 -25t25 -61q0 -34 -25 -58t-61 -24q-34 0 -58 24t-24 58zM918 668h-824v108h824v-108zM422 340q0 37 23.5 61.5t58.5 24.5q38 0 62 -24.5t24 -61.5q0 -36 -24 -59t-62 -23q-35 0 -58.5 23.5t-23.5 58.5z" />
    <glyph glyph-name="oslash" unicode="&#xf8;" horiz-adv-x="1286" 
d="M100 526q0 113 42 215t114 176t172.5 118t212.5 44q113 0 215 -45l53 99h113l-78 -148q111 -75 175.5 -196t64.5 -263q0 -112 -42 -213.5t-114 -175t-173 -117t-214 -43.5q-107 0 -205 39l-57 -108h-113l80 155q-114 75 -180 197t-66 266zM401 166l402 768
q-76 31 -162 31q-179 0 -300.5 -127.5t-121.5 -311.5q0 -111 49 -206t133 -154zM641 90q179 0 301.5 127t122.5 309q0 109 -46.5 203.5t-127.5 153.5l-402 -764q76 -29 152 -29z" />
    <glyph glyph-name="ugrave" unicode="&#xf9;" horiz-adv-x="1267" 
d="M702 1245h-114l-207 309h117zM969 0l-11 225q-11 -29 -30.5 -60t-53 -65.5t-75 -61t-100.5 -44t-124 -17.5q-82 0 -150.5 25t-122.5 76.5t-84 138t-30 201.5v639h117v-613q0 -354 301 -354q144 0 240 116.5t96 274.5v576h119v-1057h-92z" />
    <glyph glyph-name="uacute" unicode="&#xfa;" horiz-adv-x="1267" 
d="M664 1245h-117l207 309h114zM969 0l-11 225q-11 -29 -30.5 -60t-53 -65.5t-75 -61t-100.5 -44t-124 -17.5q-82 0 -150.5 25t-122.5 76.5t-84 138t-30 201.5v639h117v-613q0 -354 301 -354q144 0 240 116.5t96 274.5v576h119v-1057h-92z" />
    <glyph glyph-name="ucircumflex" unicode="&#xfb;" horiz-adv-x="1267" 
d="M467 1219h-119l221 335h103l223 -335h-121l-151 229h-2zM969 0l-11 225q-11 -29 -30.5 -60t-53 -65.5t-75 -61t-100.5 -44t-124 -17.5q-82 0 -150.5 25t-122.5 76.5t-84 138t-30 201.5v639h117v-613q0 -354 301 -354q144 0 240 116.5t96 274.5v576h119v-1057h-92z" />
    <glyph glyph-name="udieresis" unicode="&#xfc;" horiz-adv-x="1267" 
d="M350 1458q0 39 26.5 66.5t67.5 27.5q38 0 66.5 -28t28.5 -66q0 -40 -28.5 -68t-66.5 -28q-41 0 -67.5 28t-26.5 68zM702 1458q0 38 28 66t67 28q40 0 68 -28t28 -66q0 -40 -28 -68t-68 -28t-67.5 28t-27.5 68zM969 0l-11 225q-11 -29 -30.5 -60t-53 -65.5t-75 -61
t-100.5 -44t-124 -17.5q-82 0 -150.5 25t-122.5 76.5t-84 138t-30 201.5v639h117v-613q0 -354 301 -354q144 0 240 116.5t96 274.5v576h119v-1057h-92z" />
    <glyph glyph-name="yacute" unicode="&#xfd;" horiz-adv-x="1026" 
d="M553 1245h-117l207 309h115zM412 -393h-125l164 401l-431 1049h125l367 -901h4l367 901h125z" />
    <glyph glyph-name="thorn" unicode="&#xfe;" horiz-adv-x="1363" 
d="M326 -393h-117v1935h117v-711q163 248 426 248q108 0 203.5 -44.5t162.5 -119.5t105.5 -176.5t38.5 -212.5t-38.5 -212t-105.5 -175t-162.5 -118t-203.5 -44q-265 0 -426 248v-618zM731 90q179 0 295.5 126t116.5 310q0 185 -116.5 312t-295.5 127q-170 0 -287.5 -130.5
t-117.5 -306.5q0 -115 52.5 -215.5t146.5 -161.5t206 -61z" />
    <glyph glyph-name="ydieresis" unicode="&#xff;" horiz-adv-x="1048" 
d="M254 1452q0 39 26.5 66.5t67.5 27.5q38 0 66 -28t28 -66q0 -40 -28 -68t-66 -28q-41 0 -67.5 28t-26.5 68zM606 1452q0 39 27.5 66.5t66.5 27.5q40 0 68.5 -28t28.5 -66q0 -40 -28.5 -68t-68.5 -28t-67 28t-27 68zM422 -393h-125l164 401l-430 1049h125l366 -901h4
l367 901h125z" />
    <glyph glyph-name="Amacron" unicode="&#x100;" horiz-adv-x="1437" 
d="M987 1712h-532v109h532v-109zM164 0h-133l639 1434h98l639 -1434h-135l-170 381h-768zM717 1239l-330 -737h662l-330 737h-2z" />
    <glyph glyph-name="amacron" unicode="&#x101;" horiz-adv-x="1187" 
d="M852 1362h-533v108h533v-108zM907 0l-16 215q-51 -114 -153.5 -176t-241.5 -62q-164 0 -273.5 94t-109.5 244q0 157 118.5 240.5t309.5 83.5q166 0 342 -57q0 97 -9 160.5t-29 109t-57.5 69.5t-88.5 34t-128 10q-170 0 -342 -43l-26 110q38 15 156.5 31t224.5 16
q103 0 175 -18t119.5 -53t74.5 -96.5t37.5 -138.5t10.5 -189v-584h-94zM883 446v27q-169 59 -334 59q-146 0 -232 -56t-86 -161q0 -104 76 -164.5t201 -60.5q95 0 168.5 29.5t117.5 80.5t66.5 113.5t22.5 132.5z" />
    <glyph glyph-name="Abreve" unicode="&#x102;" horiz-adv-x="1437" 
d="M416 1870l92 45q41 -101 83 -145t128 -44q45 0 78 12t57.5 40.5t40 57t37.5 79.5l90 -45q-44 -120 -114 -184t-189 -64t-189 64t-114 184zM164 0h-133l639 1434h98l639 -1434h-135l-170 381h-768zM717 1239l-330 -737h662l-330 737h-2z" />
    <glyph glyph-name="abreve" unicode="&#x103;" horiz-adv-x="1187" 
d="M272 1501l93 45q41 -101 82.5 -144.5t127.5 -43.5q46 0 78.5 12t57 40t40 56.5t37.5 79.5l91 -45q-44 -120 -114 -184t-190 -64q-119 0 -189 64t-114 184zM907 0l-16 215q-51 -114 -153.5 -176t-241.5 -62q-164 0 -273.5 94t-109.5 244q0 157 118.5 240.5t309.5 83.5
q166 0 342 -57q0 97 -9 160.5t-29 109t-57.5 69.5t-88.5 34t-128 10q-170 0 -342 -43l-26 110q38 15 156.5 31t224.5 16q103 0 175 -18t119.5 -53t74.5 -96.5t37.5 -138.5t10.5 -189v-584h-94zM883 446v27q-169 59 -334 59q-146 0 -232 -56t-86 -161q0 -104 76 -164.5
t201 -60.5q95 0 168.5 29.5t117.5 80.5t66.5 113.5t22.5 132.5z" />
    <glyph glyph-name="Aogonek" unicode="&#x104;" horiz-adv-x="1437" 
d="M166 0h-135l639 1434h98l639 -1434q-301 -141 -301 -242q0 -32 22 -49.5t52 -17.5q71 0 153 47l39 -94q-89 -60 -201 -60q-73 0 -122.5 42.5t-49.5 107.5q0 48 17.5 86.5t76 92t167.5 120.5l-156 348h-770zM719 1239l-330 -737h660l-328 737h-2z" />
    <glyph glyph-name="aogonek" unicode="&#x105;" horiz-adv-x="1187" 
d="M899 51l-10 164q-49 -114 -152 -176t-241 -62q-165 0 -275 94.5t-110 243.5q0 157 119 240.5t309 83.5q171 0 344 -57q0 97 -9 160.5t-29 109t-57.5 69.5t-88.5 34t-128 10q-170 0 -342 -43l-26 110q36 15 154.5 31t226.5 16q103 0 175 -18t119.5 -53t74.5 -96.5
t37.5 -138.5t10.5 -189v-584q-169 -99 -224.5 -149.5t-55.5 -92.5q0 -32 22 -49.5t54 -17.5q74 0 164 53l38 -96q-102 -64 -213 -64q-73 0 -121.5 42.5t-48.5 107.5q0 49 17 86.5t80.5 95.5t185.5 135zM883 446v27q-172 59 -334 59q-146 0 -233 -56t-87 -161
q0 -104 77 -164.5t202 -60.5q95 0 168.5 29.5t117.5 80.5t66.5 113.5t22.5 132.5z" />
    <glyph glyph-name="Cacute" unicode="&#x106;" horiz-adv-x="1484" 
d="M879 1616h-117l207 309h114zM1309 303l80 -88q-98 -112 -244.5 -177t-300.5 -65q-151 0 -287 58.5t-233.5 158t-155 237t-57.5 290.5t57.5 290.5t155 236.5t233.5 157.5t287 58.5q156 0 301 -64.5t248 -176.5l-86 -91q-80 94 -200 156t-263 62q-126 0 -240.5 -51
t-195.5 -136t-129 -200.5t-48 -241.5t48 -241.5t129 -200.5t195.5 -136t240.5 -51q144 0 261.5 59t203.5 156z" />
    <glyph glyph-name="cacute" unicode="&#x107;" horiz-adv-x="1120" 
d="M674 1245h-117l207 309h115zM952 225l82 -82q-172 -166 -391 -166q-150 0 -274.5 73.5t-195.5 199.5t-71 276q0 113 42 215t114 176t172.5 118t212.5 44q223 0 389 -166l-80 -82q-137 134 -309 134q-179 0 -300.5 -127.5t-121.5 -311.5q0 -183 121.5 -309.5t300.5 -126.5
q174 0 309 135z" />
    <glyph glyph-name="Ccircumflex" unicode="&#x108;" horiz-adv-x="1484" 
d="M690 1589h-119l222 336h102l223 -336h-121l-151 230h-2zM1309 303l80 -88q-98 -112 -244.5 -177t-300.5 -65q-151 0 -287 58.5t-233.5 158t-155 237t-57.5 290.5t57.5 290.5t155 236.5t233.5 157.5t287 58.5q156 0 301 -64.5t248 -176.5l-86 -91q-80 94 -200 156t-263 62
q-126 0 -240.5 -51t-195.5 -136t-129 -200.5t-48 -241.5t48 -241.5t129 -200.5t195.5 -136t240.5 -51q144 0 261.5 59t203.5 156z" />
    <glyph glyph-name="ccircumflex" unicode="&#x109;" horiz-adv-x="1120" 
d="M489 1219h-118l221 335h102l224 -335h-121l-152 229h-2zM952 225l82 -82q-172 -166 -391 -166q-150 0 -274.5 73.5t-195.5 199.5t-71 276q0 113 42 215t114 176t172.5 118t212.5 44q223 0 389 -166l-80 -82q-137 134 -309 134q-179 0 -300.5 -127.5t-121.5 -311.5
q0 -183 121.5 -309.5t300.5 -126.5q174 0 309 135z" />
    <glyph glyph-name="Cdotaccent" unicode="&#x10a;" horiz-adv-x="1484" 
d="M748 1837q0 39 27.5 66.5t66.5 27.5q40 0 68 -28t28 -66q0 -40 -28 -68t-68 -28t-67 28t-27 68zM1309 303l80 -88q-98 -112 -244.5 -177t-300.5 -65q-151 0 -287 58.5t-233.5 158t-155 237t-57.5 290.5t57.5 290.5t155 236.5t233.5 157.5t287 58.5q156 0 301 -64.5
t248 -176.5l-86 -91q-80 94 -200 156t-263 62q-126 0 -240.5 -51t-195.5 -136t-129 -200.5t-48 -241.5t48 -241.5t129 -200.5t195.5 -136t240.5 -51q144 0 261.5 59t203.5 156z" />
    <glyph glyph-name="cdotaccent" unicode="&#x10b;" horiz-adv-x="1120" 
d="M543 1458q0 39 27.5 66.5t66.5 27.5q40 0 68 -28t28 -66q0 -40 -28 -68t-68 -28t-67 28t-27 68zM952 225l82 -82q-172 -166 -391 -166q-150 0 -274.5 73.5t-195.5 199.5t-71 276q0 113 42 215t114 176t172.5 118t212.5 44q223 0 389 -166l-80 -82q-137 134 -309 134
q-179 0 -300.5 -127.5t-121.5 -311.5q0 -183 121.5 -309.5t300.5 -126.5q174 0 309 135z" />
    <glyph glyph-name="Ccaron" unicode="&#x10c;" horiz-adv-x="1484" 
d="M893 1589h-100l-224 336h121l152 -229h2l153 229h121zM1309 303l80 -88q-98 -112 -244.5 -177t-300.5 -65q-151 0 -287 58.5t-233.5 158t-155 237t-57.5 290.5t57.5 290.5t155 236.5t233.5 157.5t287 58.5q156 0 301 -64.5t248 -176.5l-86 -91q-80 94 -200 156t-263 62
q-126 0 -240.5 -51t-195.5 -136t-129 -200.5t-48 -241.5t48 -241.5t129 -200.5t195.5 -136t240.5 -51q144 0 261.5 59t203.5 156z" />
    <glyph glyph-name="ccaron" unicode="&#x10d;" horiz-adv-x="1120" 
d="M688 1219h-100l-223 335h120l152 -229h2l154 229h120zM952 225l82 -82q-172 -166 -391 -166q-150 0 -274.5 73.5t-195.5 199.5t-71 276q0 113 42 215t114 176t172.5 118t212.5 44q223 0 389 -166l-80 -82q-137 134 -309 134q-179 0 -300.5 -127.5t-121.5 -311.5
q0 -183 121.5 -309.5t300.5 -126.5q174 0 309 135z" />
    <glyph glyph-name="Dcaron" unicode="&#x10e;" horiz-adv-x="1564" 
d="M838 1589h-101l-223 336h121l151 -229h2l154 229h121zM748 0h-525v1434h525q201 0 362.5 -92.5t252.5 -256.5t91 -368t-91 -368t-252.5 -256.5t-362.5 -92.5zM342 1319v-1204h403q171 0 306 80t208.5 217t73.5 305t-73.5 305t-208.5 217t-306 80h-403z" />
    <glyph glyph-name="dcaron" unicode="&#x10f;" horiz-adv-x="1435" 
d="M1409 1190h-84l27 352h116zM1061 0l-6 242q-17 -32 -40 -64t-63 -69.5t-87 -65.5t-114 -47t-141 -19q-108 0 -203.5 44t-162.5 118t-105.5 175t-38.5 212t38.5 212.5t105.5 176.5t162.5 119.5t203.5 44.5q262 0 426 -248v711h117v-1542h-92zM631 90q170 0 288.5 131
t118.5 307q0 115 -53 215t-147 161t-207 61q-179 0 -295.5 -127t-116.5 -312q0 -184 116.5 -310t295.5 -126z" />
    <glyph glyph-name="Dcroat" unicode="&#x110;" horiz-adv-x="1564" 
d="M223 662h-168v108h168v664h525q201 0 362.5 -92.5t252.5 -256.5t91 -368t-91 -368t-252.5 -256.5t-362.5 -92.5h-525v662zM342 662v-547h403q171 0 306 80t208.5 217t73.5 305t-73.5 305t-208.5 217t-306 80h-403v-549h352v-108h-352z" />
    <glyph glyph-name="dcroat" unicode="&#x111;" horiz-adv-x="1363" 
d="M1061 0l-6 242q-17 -32 -40 -64t-63 -69.5t-87 -65.5t-114 -47t-141 -19q-108 0 -203.5 44t-162.5 118t-105.5 175t-38.5 212t38.5 212.5t105.5 176.5t162.5 119.5t203.5 44.5q262 0 426 -248v406h-346v109h346v196h117v-196h174v-109h-174v-1237h-92zM631 90
q170 0 288.5 131t118.5 307q0 115 -53 215t-147 161t-207 61q-179 0 -295.5 -127t-116.5 -312q0 -184 116.5 -310t295.5 -126z" />
    <glyph glyph-name="Emacron" unicode="&#x112;" horiz-adv-x="1331" 
d="M967 1712h-533v109h533v-109zM1194 0h-971v1434h959v-115h-840v-537h801v-114h-801v-553h852v-115z" />
    <glyph glyph-name="emacron" unicode="&#x113;" horiz-adv-x="1228" 
d="M899 1360h-532v108h532v-108zM1126 471h-903q19 -163 137.5 -272t282.5 -109q111 0 183.5 29t168.5 102l64 -94q-107 -79 -200.5 -114.5t-215.5 -35.5q-113 0 -214 43.5t-173 117t-114 175t-42 213.5q0 150 72 277.5t196.5 201.5t272.5 74q113 0 205.5 -44.5t153 -121
t93.5 -177.5t33 -214v-51zM223 580h787q-6 104 -50 191t-127 141.5t-190 54.5q-164 0 -282.5 -110.5t-137.5 -276.5z" />
    <glyph glyph-name="Ebreve" unicode="&#x114;" horiz-adv-x="1331" 
d="M397 1870l92 45q41 -101 83 -145t128 -44q45 0 78 12t57.5 40.5t40 57t37.5 79.5l91 -45q-44 -120 -114 -184t-190 -64q-119 0 -189 64t-114 184zM1194 0h-971v1434h959v-115h-840v-537h801v-114h-801v-553h852v-115z" />
    <glyph glyph-name="ebreve" unicode="&#x115;" horiz-adv-x="1228" 
d="M326 1501l92 45q21 -50 36 -79t39.5 -57t57 -40t78.5 -12t78.5 12t57 40t40 56.5t37.5 79.5l90 -45q-44 -120 -114 -184t-189 -64t-189 64t-114 184zM1126 471h-903q19 -163 137.5 -272t282.5 -109q111 0 183.5 29t168.5 102l64 -94q-107 -79 -200.5 -114.5t-215.5 -35.5
q-113 0 -214 43.5t-173 117t-114 175t-42 213.5q0 150 72 277.5t196.5 201.5t272.5 74q113 0 205.5 -44.5t153 -121t93.5 -177.5t33 -214v-51zM223 580h787q-6 104 -50 191t-127 141.5t-190 54.5q-164 0 -282.5 -110.5t-137.5 -276.5z" />
    <glyph glyph-name="Edotaccent" unicode="&#x116;" horiz-adv-x="1331" 
d="M614 1837q0 39 28 66.5t67 27.5q40 0 68 -28t28 -66q0 -40 -28 -68t-68 -28t-67.5 28t-27.5 68zM1194 0h-971v1434h959v-115h-840v-537h801v-114h-801v-553h852v-115z" />
    <glyph glyph-name="edotaccent" unicode="&#x117;" horiz-adv-x="1228" 
d="M537 1458q0 39 27.5 66.5t66.5 27.5q40 0 68 -28t28 -66q0 -40 -28 -68t-68 -28t-67 28t-27 68zM1139 471h-903q19 -163 137 -272t282 -109q111 0 184 29t169 102l63 -94q-107 -79 -200.5 -114.5t-215.5 -35.5q-151 0 -275.5 73.5t-195.5 199.5t-71 276q0 112 42.5 214.5
t114.5 176.5t172 118t211 44q150 0 262 -77t168 -202t56 -278v-51zM236 580h786q-6 104 -50 191t-127 141.5t-190 54.5q-164 0 -282 -110.5t-137 -276.5z" />
    <glyph glyph-name="Eogonek" unicode="&#x118;" horiz-adv-x="1333" 
d="M1028 0h-805v1434h959v-115h-840v-537h801v-114h-801v-553h850v-115q-169 -96 -224 -147t-55 -95q0 -32 22 -49.5t52 -17.5q79 0 164 53l41 -96q-101 -64 -213 -64q-73 0 -122.5 42.5t-49.5 107.5q0 70 46 129t175 137z" />
    <glyph glyph-name="eogonek" unicode="&#x119;" horiz-adv-x="1228" 
d="M813 -254l39 -96q-95 -66 -211 -66q-73 0 -122.5 42.5t-49.5 107.5q0 63 33 115t139 128q-147 4 -268.5 78t-190.5 198.5t-69 272.5q0 112 42.5 214.5t114.5 176.5t172 118t211 44q150 0 262 -77t168 -202t56 -278v-51h-903q19 -163 137 -272t282 -109q111 0 184 29
t169 102l63 -94q-134 -100 -254 -131q-81 -51 -131.5 -88t-73.5 -64.5t-30 -45t-7 -40.5q0 -32 22 -49.5t52 -17.5q81 0 164 55zM236 580h786q-6 104 -50 191t-127 141.5t-190 54.5q-164 0 -282 -110.5t-137 -276.5z" />
    <glyph glyph-name="Ecaron" unicode="&#x11a;" horiz-adv-x="1331" 
d="M760 1589h-101l-223 336h121l152 -229h2l153 229h121zM1194 0h-971v1434h959v-115h-840v-537h801v-114h-801v-553h852v-115z" />
    <glyph glyph-name="ecaron" unicode="&#x11b;" horiz-adv-x="1228" 
d="M682 1219h-100l-224 335h121l152 -229h2l153 229h121zM1126 471h-903q19 -163 137.5 -272t282.5 -109q111 0 183.5 29t168.5 102l64 -94q-107 -79 -200.5 -114.5t-215.5 -35.5q-113 0 -214 43.5t-173 117t-114 175t-42 213.5q0 150 72 277.5t196.5 201.5t272.5 74
q113 0 205.5 -44.5t153 -121t93.5 -177.5t33 -214v-51zM223 580h787q-6 104 -50 191t-127 141.5t-190 54.5q-164 0 -282.5 -110.5t-137.5 -276.5z" />
    <glyph glyph-name="Gcircumflex" unicode="&#x11c;" horiz-adv-x="1589" 
d="M688 1589h-119l222 336h102l223 -336h-121l-151 230h-2zM1309 633h-467v115h585v-529q-106 -117 -266 -181.5t-317 -64.5q-151 0 -287 58.5t-233.5 158t-155 237t-57.5 290.5t57.5 290.5t155 236.5t233.5 157.5t287 58.5q158 0 302 -64.5t245 -176.5l-84 -89
q-82 95 -200 155.5t-263 60.5q-126 0 -240.5 -51t-195.5 -136t-129 -200.5t-48 -241.5t48 -241.5t129 -200.5t195.5 -136t240.5 -51q272 0 465 178v367z" />
    <glyph glyph-name="gcircumflex" unicode="&#x11d;" horiz-adv-x="1363" 
d="M512 1219h-119l221 335h103l223 -335h-121l-151 229h-2zM252 -342l37 113q168 -74 342 -74q100 0 174 24t117.5 62.5t69.5 98.5t35 121t9 140v107q-20 -31 -43 -59.5t-62.5 -63.5t-83.5 -60t-106 -42t-131 -17q-145 0 -262 70.5t-182.5 192.5t-65.5 270q0 226 145.5 382
t364.5 156q74 0 141 -19t114 -47t87 -66t63 -70t40 -64l6 244h92v-905q0 -287 -122 -427.5t-396 -140.5q-199 0 -383 74zM631 121q172 0 289.5 123.5t117.5 296.5q0 170 -118.5 297t-288.5 127q-180 0 -296 -120.5t-116 -303.5t115.5 -301.5t296.5 -118.5z" />
    <glyph glyph-name="Gbreve" unicode="&#x11e;" horiz-adv-x="1589" 
d="M545 1870l92 45q41 -101 83 -145t128 -44q45 0 78 12t57.5 40.5t40 57t37.5 79.5l90 -45q-44 -120 -114 -184t-189 -64t-189 64t-114 184zM1309 633h-467v115h585v-529q-106 -117 -266 -181.5t-317 -64.5q-151 0 -287 58.5t-233.5 158t-155 237t-57.5 290.5t57.5 290.5
t155 236.5t233.5 157.5t287 58.5q158 0 302 -64.5t245 -176.5l-84 -89q-82 95 -200 155.5t-263 60.5q-126 0 -240.5 -51t-195.5 -136t-129 -200.5t-48 -241.5t48 -241.5t129 -200.5t195.5 -136t240.5 -51q272 0 465 178v367z" />
    <glyph glyph-name="gbreve" unicode="&#x11f;" horiz-adv-x="1363" 
d="M358 1501l93 45q21 -50 36 -79t39.5 -57t57 -40t78.5 -12q45 0 78 12t57.5 40.5t39.5 56.5t37 79l91 -45q-44 -120 -114 -184t-189 -64q-120 0 -190 64t-114 184zM252 -342l37 113q168 -74 342 -74q100 0 174 24t117.5 62.5t69.5 98.5t35 121t9 140v107
q-20 -31 -43 -59.5t-62.5 -63.5t-83.5 -60t-106 -42t-131 -17q-145 0 -262 70.5t-182.5 192.5t-65.5 270q0 226 145.5 382t364.5 156q74 0 141 -19t114 -47t87 -66t63 -70t40 -64l6 244h92v-905q0 -287 -122 -427.5t-396 -140.5q-199 0 -383 74zM631 121q172 0 289.5 123.5
t117.5 296.5q0 170 -118.5 297t-288.5 127q-180 0 -296 -120.5t-116 -303.5t115.5 -301.5t296.5 -118.5z" />
    <glyph glyph-name="Gdotaccent" unicode="&#x120;" horiz-adv-x="1589" 
d="M743 1837q0 39 27.5 66.5t67.5 27.5t68 -28t28 -66q0 -40 -28 -68t-68 -28t-67.5 28t-27.5 68zM1309 633h-467v115h585v-529q-106 -117 -266 -181.5t-317 -64.5q-151 0 -287 58.5t-233.5 158t-155 237t-57.5 290.5t57.5 290.5t155 236.5t233.5 157.5t287 58.5
q158 0 302 -64.5t245 -176.5l-84 -89q-82 95 -200 155.5t-263 60.5q-126 0 -240.5 -51t-195.5 -136t-129 -200.5t-48 -241.5t48 -241.5t129 -200.5t195.5 -136t240.5 -51q272 0 465 178v367z" />
    <glyph glyph-name="gdotaccent" unicode="&#x121;" horiz-adv-x="1363" 
d="M561 1458q0 39 27.5 66.5t66.5 27.5q40 0 68.5 -28t28.5 -66q0 -40 -28.5 -68t-68.5 -28t-67 28t-27 68zM252 -342l37 113q168 -74 342 -74q100 0 174 24t117.5 62.5t69.5 98.5t35 121t9 140v107q-20 -31 -43 -59.5t-62.5 -63.5t-83.5 -60t-106 -42t-131 -17
q-145 0 -262 70.5t-182.5 192.5t-65.5 270q0 226 145.5 382t364.5 156q74 0 141 -19t114 -47t87 -66t63 -70t40 -64l6 244h92v-905q0 -287 -122 -427.5t-396 -140.5q-199 0 -383 74zM631 121q172 0 289.5 123.5t117.5 296.5q0 170 -118.5 297t-288.5 127q-180 0 -296 -120.5
t-116 -303.5t115.5 -301.5t296.5 -118.5z" />
    <glyph glyph-name="uni0122" unicode="&#x122;" horiz-adv-x="1589" 
d="M1309 633h-467v115h585v-529q-106 -117 -266 -181.5t-317 -64.5q-151 0 -287 58.5t-233.5 158t-155 237t-57.5 290.5t57.5 290.5t155 236.5t233.5 157.5t287 58.5q158 0 302 -64.5t245 -176.5l-84 -89q-82 95 -200 155.5t-263 60.5q-126 0 -240.5 -51t-195.5 -136
t-129 -200.5t-48 -241.5t48 -241.5t129 -200.5t195.5 -136t240.5 -51q272 0 465 178v367zM813 -459h-115l133 309h115z" />
    <glyph glyph-name="uni0123" unicode="&#x123;" horiz-adv-x="1363" 
d="M698 1233h-114l135 309h112zM252 -342l37 113q168 -74 342 -74q100 0 174 24t117.5 62.5t69.5 98.5t35 121t9 140v107q-20 -31 -43 -59.5t-62.5 -63.5t-83.5 -60t-106 -42t-131 -17q-145 0 -262 70.5t-182.5 192.5t-65.5 270q0 226 145.5 382t364.5 156q74 0 141 -19
t114 -47t87 -66t63 -70t40 -64l6 244h92v-905q0 -287 -122 -427.5t-396 -140.5q-199 0 -383 74zM631 121q172 0 289.5 123.5t117.5 296.5q0 170 -118.5 297t-288.5 127q-180 0 -296 -120.5t-116 -303.5t115.5 -301.5t296.5 -118.5z" />
    <glyph glyph-name="Hcircumflex" unicode="&#x124;" horiz-adv-x="1546" 
d="M621 1589h-119l221 336h102l224 -336h-121l-152 230h-2zM342 0h-119v1434h119v-652h864v652h119v-1434h-119v668h-864v-668z" />
    <glyph glyph-name="hcircumflex" unicode="&#x125;" horiz-adv-x="1273" 
d="M113 1692h-121l223 336h102l224 -336h-121l-152 229h-2zM328 0h-119v1542h119v-698q10 25 27 52.5t49 61t70.5 59.5t95.5 44t120 18q83 0 153 -27t125.5 -80.5t87 -141.5t31.5 -203v-627h-116v602q0 186 -84 274.5t-225 88.5q-144 0 -239 -116t-95 -274v-575z" />
    <glyph glyph-name="Hbar" unicode="&#x126;" horiz-adv-x="1546" 
d="M342 0h-119v1075h-137v109h137v250h119v-250h864v250h119v-250h135v-109h-135v-1075h-119v668h-864v-668zM342 1075v-293h864v293h-864z" />
    <glyph glyph-name="hbar" unicode="&#x127;" horiz-adv-x="1273" 
d="M328 0h-119v1237h-182v109h182v196h119v-196h338v-109h-338v-393q10 25 27 52.5t49 61t70.5 59.5t95.5 44t120 18q83 0 153 -27t125.5 -80.5t87 -141.5t31.5 -203v-627h-116v602q0 186 -84 274.5t-225 88.5q-144 0 -239 -116t-95 -274v-575z" />
    <glyph glyph-name="Itilde" unicode="&#x128;" horiz-adv-x="565" 
d="M16 1679l-88 39q35 106 80.5 157.5t122.5 51.5q40 0 75.5 -15t62 -36.5t51 -42.5t53 -36t57.5 -15q41 0 65 33t50 116l88 -39q-33 -105 -79 -157t-124 -52q-49 0 -93.5 23t-72 50t-63.5 50t-70 23q-41 0 -65 -33t-50 -117zM342 0h-119v1434h119v-1434z" />
    <glyph glyph-name="itilde" unicode="&#x129;" horiz-adv-x="534" 
d="M4 1296l-88 39q35 106 80.5 157.5t122.5 51.5q40 0 75.5 -15t62 -36t51 -42.5t53 -36.5t57.5 -15q41 0 64.5 33t49.5 116l89 -39q-33 -105 -79 -157t-124 -52q-49 0 -93.5 23t-72 50t-63.5 50t-70 23q-41 0 -65 -33t-50 -117zM326 0h-117v1057h117v-1057z" />
    <glyph glyph-name="Imacron" unicode="&#x12a;" horiz-adv-x="565" 
d="M549 1712h-533v109h533v-109zM342 0h-119v1434h119v-1434z" />
    <glyph glyph-name="imacron" unicode="&#x12b;" horiz-adv-x="534" 
d="M535 1362h-533v108h533v-108zM326 0h-117v1057h117v-1057z" />
    <glyph glyph-name="Ibreve" unicode="&#x12c;" horiz-adv-x="565" 
d="M-20 1870l92 45q41 -101 83 -145t128 -44q45 0 78 12t57.5 40.5t40 57t37.5 79.5l90 -45q-44 -120 -114 -184t-189 -64t-189 64t-114 184zM342 0h-119v1434h119v-1434z" />
    <glyph glyph-name="ibreve" unicode="&#x12d;" horiz-adv-x="534" 
d="M-35 1501l92 45q21 -50 36 -79t39.5 -57t57 -40t78.5 -12t78.5 12t57 40t40 56.5t37.5 79.5l90 -45q-44 -120 -114 -184t-189 -64t-189 64t-114 184zM326 0h-117v1057h117v-1057z" />
    <glyph glyph-name="Iogonek" unicode="&#x12e;" horiz-adv-x="569" 
d="M301 -256l41 -94q-101 -66 -213 -66q-74 0 -123 42t-49 108q0 50 16 87.5t76 93t174 126.5v1393h119v-1434q-172 -99 -225.5 -148.5t-53.5 -93.5q0 -32 22 -49.5t52 -17.5q79 0 164 53z" />
    <glyph glyph-name="iogonek" unicode="&#x12f;" horiz-adv-x="534" 
d="M172 1456q0 40 26.5 68t67.5 28q40 0 67 -28t27 -68q0 -39 -27.5 -66.5t-66.5 -27.5q-41 0 -67.5 27.5t-26.5 66.5zM285 -256l41 -94q-100 -66 -213 -66q-74 0 -123 42t-49 108q0 37 9 65.5t36 65t82 79.5t141 97v1016h117v-1057q-172 -99 -225.5 -148.5t-53.5 -93.5
q0 -32 22 -49.5t52 -17.5q77 0 164 53z" />
    <glyph glyph-name="Idotaccent" unicode="&#x130;" horiz-adv-x="565" 
d="M188 1837q0 39 28 66.5t67 27.5q40 0 68 -28t28 -66q0 -40 -28 -68t-68 -28t-67.5 28t-27.5 68zM342 0h-119v1434h119v-1434z" />
    <glyph glyph-name="dotlessi" unicode="&#x131;" horiz-adv-x="534" 
d="M326 0h-117v1057h117v-1057z" />
    <glyph glyph-name="IJ" unicode="&#x132;" horiz-adv-x="1564" 
d="M342 0h-119v1434h119v-1434zM647 37l45 106q108 -55 242 -55q147 0 228 101.5t81 314.5v815h-438v115h557v-932q0 -249 -110.5 -389t-311.5 -140q-78 0 -158 17.5t-135 46.5z" />
    <glyph glyph-name="ij" unicode="&#x133;" horiz-adv-x="1284" 
d="M174 1456q0 40 26.5 68t67.5 28q38 0 66 -28t28 -68q0 -38 -28 -66t-66 -28q-41 0 -67.5 27.5t-26.5 66.5zM922 1456q0 40 26.5 68t67.5 28q40 0 67 -28t27 -68q0 -39 -27.5 -66.5t-66.5 -27.5q-41 0 -67.5 27.5t-26.5 66.5zM328 0h-119v1057h119v-1057zM522 -367l41 107
q91 -43 195 -43q117 0 164 75t47 261v915h-336v109h452v-1028q0 -226 -75 -335.5t-252 -109.5q-127 0 -236 49z" />
    <glyph glyph-name="Jcircumflex" unicode="&#x134;" horiz-adv-x="1009" 
d="M391 1589h-119l222 336h102l223 -336h-121l-151 230h-2zM80 37l45 106q108 -55 242 -55q147 0 228 101.5t81 314.5v815h-438v115h557v-932q0 -249 -110.5 -389t-311.5 -140q-78 0 -158 17.5t-135 46.5z" />
    <glyph glyph-name="jcircumflex" unicode="&#x135;" horiz-adv-x="751" 
d="M199 1219h-119l221 335h102l224 -335h-121l-152 229h-2zM-18 -360l49 104q89 -47 194 -47q117 0 164 75t47 261v915h-336v109h453v-1028q0 -226 -75 -335.5t-253 -109.5q-131 0 -243 56z" />
    <glyph glyph-name="uni0136" unicode="&#x136;" 
d="M342 0h-119v1434h119v-736l717 736h164l-582 -598l629 -836h-148l-565 750l-215 -222v-528zM647 -459h-115l134 309h114z" />
    <glyph glyph-name="uni0137" unicode="&#x137;" horiz-adv-x="1122" 
d="M326 0h-117v1542h117v-1026l551 541h159l-450 -443l479 -614h-145l-416 535l-178 -179v-356zM549 -459h-113l133 309h113z" />
    <glyph glyph-name="kgreenlandic" unicode="&#x138;" horiz-adv-x="1122" 
d="M326 0h-119v1057h119v-541l551 541h159l-452 -443l479 -614h-143l-416 535l-178 -179v-356z" />
    <glyph glyph-name="Lacute" unicode="&#x139;" horiz-adv-x="1193" 
d="M340 1616h-117l207 309h115zM1112 0h-885v1434h119v-1319h766v-115z" />
    <glyph glyph-name="lacute" unicode="&#x13a;" horiz-adv-x="534" 
d="M311 1649h-116l206 309h115zM326 0h-119v1542h119v-1542z" />
    <glyph glyph-name="uni013B" unicode="&#x13b;" horiz-adv-x="1189" 
d="M1108 0h-885v1434h119v-1319h766v-115zM629 -459h-113l131 309h115z" />
    <glyph glyph-name="uni013C" unicode="&#x13c;" horiz-adv-x="534" 
d="M326 0h-119v1542h119v-1542zM207 -459h-113l133 309h113z" />
    <glyph glyph-name="Lcaron" unicode="&#x13d;" horiz-adv-x="1189" 
d="M1108 0h-885v1434h119v-1319h766v-115zM780 971h-88l31 463h123z" />
    <glyph glyph-name="lcaron" unicode="&#x13e;" horiz-adv-x="606" 
d="M580 1190h-84l26 352h117zM326 0h-119v1542h119v-1542z" />
    <glyph glyph-name="Ldot" unicode="&#x13f;" horiz-adv-x="1189" 
d="M1108 0h-885v1434h119v-1319h766v-115zM768 831q0 39 27.5 68t66.5 29t67.5 -29t28.5 -68q0 -38 -28 -66t-68 -28q-39 0 -66.5 27.5t-27.5 66.5z" />
    <glyph glyph-name="ldot" unicode="&#x140;" horiz-adv-x="745" 
d="M326 0h-119v1542h119v-1542zM481 831q0 39 27 68t67 29q39 0 67 -29t28 -68t-28 -66.5t-67 -27.5q-41 0 -67.5 27.5t-26.5 66.5z" />
    <glyph glyph-name="Lslash" unicode="&#x141;" horiz-adv-x="1189" 
d="M223 655l-200 -49v109l200 49v670h119v-641l416 102v-109l-416 -102v-569h766v-115h-885v655z" />
    <glyph glyph-name="lslash" unicode="&#x142;" horiz-adv-x="534" 
d="M207 717l-193 -47v108l193 47v717h119v-688l192 47v-108l-192 -48v-745h-119v717z" />
    <glyph glyph-name="Nacute" unicode="&#x143;" horiz-adv-x="1591" 
d="M827 1616h-116l207 309h114zM342 0h-119v1434h107l917 -1225h2v1225h119v-1434h-113l-911 1219h-2v-1219z" />
    <glyph glyph-name="nacute" unicode="&#x144;" horiz-adv-x="1273" 
d="M680 1245h-117l207 309h115zM326 0h-117v1057h90l14 -240q13 39 41 80t72.5 84t113.5 70.5t150 27.5q82 0 152.5 -27t126 -80.5t87 -142t31.5 -202.5v-627h-118v602q0 186 -84.5 274.5t-225.5 88.5q-144 0 -238.5 -116t-94.5 -274v-575z" />
    <glyph glyph-name="uni0145" unicode="&#x145;" horiz-adv-x="1591" 
d="M342 0h-119v1434h107l917 -1225h2v1225h119v-1434h-113l-911 1219h-2v-1219zM754 -459h-113l133 309h113z" />
    <glyph glyph-name="uni0146" unicode="&#x146;" horiz-adv-x="1273" 
d="M326 0h-117v1057h90l14 -240q13 39 41 80t72.5 84t113.5 70.5t150 27.5q82 0 152.5 -27t126 -80.5t87 -142t31.5 -202.5v-627h-118v602q0 186 -84.5 274.5t-225.5 88.5q-144 0 -238.5 -116t-94.5 -274v-575zM614 -459h-112l133 309h113z" />
    <glyph glyph-name="Ncaron" unicode="&#x147;" horiz-adv-x="1591" 
d="M846 1589h-101l-223 336h121l152 -229h2l153 229h121zM342 0h-119v1434h107l917 -1225h2v1225h119v-1434h-113l-911 1219h-2v-1219z" />
    <glyph glyph-name="ncaron" unicode="&#x148;" horiz-adv-x="1273" 
d="M696 1219h-100l-223 335h121l151 -229h2l154 229h121zM326 0h-117v1057h90l14 -240q13 39 41 80t72.5 84t113.5 70.5t150 27.5q82 0 152.5 -27t126 -80.5t87 -142t31.5 -202.5v-627h-118v602q0 186 -84.5 274.5t-225.5 88.5q-144 0 -238.5 -116t-94.5 -274v-575z" />
    <glyph glyph-name="napostrophe" unicode="&#x149;" horiz-adv-x="1273" 
d="M240 1233h-113l133 309h113zM326 0h-117v1057h90l14 -240q13 39 41 80t72.5 84t113.5 70.5t150 27.5q82 0 152.5 -27t126 -80.5t87 -142t31.5 -202.5v-627h-118v602q0 186 -84.5 274.5t-225.5 88.5q-144 0 -238.5 -116t-94.5 -274v-575z" />
    <glyph glyph-name="Eng" unicode="&#x14a;" horiz-adv-x="1591" 
d="M342 0h-119v1434h109l915 -1225h2v1225h119v-1538q0 -146 -65 -229t-201 -83q-110 0 -215 54l43 100q87 -41 166 -41q153 0 153 199v114l-905 1209h-2v-1219z" />
    <glyph glyph-name="eng" unicode="&#x14b;" horiz-adv-x="1273" 
d="M326 0h-117v1057h90l12 -240q14 39 42 80t73 84t114 70.5t150 27.5q82 0 152.5 -27t126 -80.5t87 -142t31.5 -202.5v-731q0 -146 -65 -229t-199 -83q-113 0 -215 54l41 100q87 -41 166 -41q154 0 154 199v706q0 186 -84.5 274.5t-225.5 88.5q-144 0 -238.5 -116
t-94.5 -274v-575z" />
    <glyph glyph-name="Omacron" unicode="&#x14c;" horiz-adv-x="1687" 
d="M1112 1712h-532v109h532v-109zM844 -27q-151 0 -286.5 58.5t-233 158t-154.5 237t-57 290.5t57 290.5t154.5 236.5t233 157.5t286.5 58.5t287 -58.5t233.5 -157.5t155 -236.5t57.5 -290.5t-57.5 -290.5t-155 -237t-233.5 -158t-287 -58.5zM844 88q169 0 310.5 86
t221.5 230.5t80 312.5t-80 312.5t-221.5 230.5t-310.5 86q-126 0 -240.5 -51t-195.5 -136t-129 -200.5t-48 -241.5t48 -241.5t129 -200.5t195.5 -136t240.5 -51z" />
    <glyph glyph-name="omacron" unicode="&#x14d;" horiz-adv-x="1286" 
d="M903 1364h-532v109h532v-109zM100 526q0 113 42 215t114 176t172.5 118t212.5 44q113 0 214 -44t173 -118t114 -176t42 -215q0 -112 -42 -213.5t-114 -175t-173 -117t-214 -43.5q-150 0 -274.5 73.5t-195.5 199.5t-71 276zM641 90q179 0 301.5 127t122.5 309
q0 184 -122.5 311.5t-301.5 127.5t-300.5 -127.5t-121.5 -311.5q0 -183 121.5 -309.5t300.5 -126.5z" />
    <glyph glyph-name="Obreve" unicode="&#x14e;" horiz-adv-x="1687" 
d="M541 1870l92 45q41 -101 83 -145t128 -44q45 0 78 12t57.5 40.5t40 57t37.5 79.5l90 -45q-44 -120 -114 -184t-189 -64t-189 64t-114 184zM844 -27q-151 0 -286.5 58.5t-233 158t-154.5 237t-57 290.5t57 290.5t154.5 236.5t233 157.5t286.5 58.5t287 -58.5t233.5 -157.5
t155 -236.5t57.5 -290.5t-57.5 -290.5t-155 -237t-233.5 -158t-287 -58.5zM844 88q169 0 310.5 86t221.5 230.5t80 312.5t-80 312.5t-221.5 230.5t-310.5 86q-126 0 -240.5 -51t-195.5 -136t-129 -200.5t-48 -241.5t48 -241.5t129 -200.5t195.5 -136t240.5 -51z" />
    <glyph glyph-name="obreve" unicode="&#x14f;" horiz-adv-x="1286" 
d="M340 1501l92 45q21 -50 36 -79t39.5 -57t57 -40t78.5 -12t78.5 12t57 40t40 56.5t37.5 79.5l90 -45q-44 -120 -114 -184t-189 -64t-189 64t-114 184zM100 526q0 113 42 215t114 176t172.5 118t212.5 44q113 0 214 -44t173 -118t114 -176t42 -215q0 -112 -42 -213.5
t-114 -175t-173 -117t-214 -43.5q-150 0 -274.5 73.5t-195.5 199.5t-71 276zM641 90q179 0 301.5 127t122.5 309q0 184 -122.5 311.5t-301.5 127.5t-300.5 -127.5t-121.5 -311.5q0 -183 121.5 -309.5t300.5 -126.5z" />
    <glyph glyph-name="Ohungarumlaut" unicode="&#x150;" horiz-adv-x="1687" 
d="M999 1616h-116l207 309h114zM752 1616h-117l205 309h116zM844 -27q-151 0 -286.5 58.5t-233 158t-154.5 237t-57 290.5t57 290.5t154.5 236.5t233 157.5t286.5 58.5t287 -58.5t233.5 -157.5t155 -236.5t57.5 -290.5t-57.5 -290.5t-155 -237t-233.5 -158t-287 -58.5z
M844 88q169 0 310.5 86t221.5 230.5t80 312.5t-80 312.5t-221.5 230.5t-310.5 86q-126 0 -240.5 -51t-195.5 -136t-129 -200.5t-48 -241.5t48 -241.5t129 -200.5t195.5 -136t240.5 -51z" />
    <glyph glyph-name="ohungarumlaut" unicode="&#x151;" horiz-adv-x="1286" 
d="M803 1245h-117l207 309h115zM555 1245h-117l205 309h117zM100 526q0 113 42 215t114 176t172.5 118t212.5 44q113 0 214 -44t173 -118t114 -176t42 -215q0 -112 -42 -213.5t-114 -175t-173 -117t-214 -43.5q-150 0 -274.5 73.5t-195.5 199.5t-71 276zM641 90
q179 0 301.5 127t122.5 309q0 184 -122.5 311.5t-301.5 127.5t-300.5 -127.5t-121.5 -311.5q0 -183 121.5 -309.5t300.5 -126.5z" />
    <glyph glyph-name="OE" unicode="&#x152;" horiz-adv-x="2310" 
d="M2173 0h-1135q-103 -27 -194 -27q-151 0 -287 58.5t-233.5 158t-155 237t-57.5 290.5t57.5 290.5t155 236.5t233.5 157.5t287 58.5q95 0 194 -26h1125v-115h-901q133 -87 216 -229t95 -308h549v-114h-547q-9 -170 -93 -316.5t-220 -236.5h911v-115zM844 88
q168 0 309.5 86t222 230.5t80.5 312.5t-80.5 312.5t-222 230.5t-309.5 86q-126 0 -240.5 -51t-195.5 -136t-129 -200.5t-48 -241.5t48 -241.5t129 -200.5t195.5 -136t240.5 -51z" />
    <glyph glyph-name="oe" unicode="&#x153;" horiz-adv-x="2164" 
d="M100 526q0 151 69 277.5t192 201t272 74.5q156 0 281.5 -80.5t191.5 -214.5q67 133 192 213t279 80q113 0 206 -44.5t154 -120.5t94 -176.5t33 -213.5v-51h-895q17 -164 131.5 -272.5t278.5 -108.5q112 0 183.5 29t168.5 102l64 -94q-107 -79 -200 -114.5t-216 -35.5
q-157 0 -282 80t-191 213q-66 -133 -191 -213t-282 -80q-149 0 -272 73.5t-192 199.5t-69 276zM633 90q181 0 297.5 127t116.5 309q0 119 -51.5 219t-147 160t-215.5 60q-178 0 -296 -127t-118 -312q0 -183 118 -309.5t296 -126.5zM1167 580h779q-9 161 -108.5 273
t-258.5 112q-164 0 -278.5 -109.5t-133.5 -275.5z" />
    <glyph glyph-name="Racute" unicode="&#x154;" horiz-adv-x="1380" 
d="M743 1616h-116l207 309h114zM342 0h-119v1434h582q67 0 127 -11t118 -38t100 -69.5t67.5 -110t25.5 -154.5q0 -101 -36.5 -177.5t-99.5 -120t-139 -64.5t-163 -21h-49l504 -668h-148l-508 668h-262v-668zM342 1319v-537h446q79 0 139 15t96.5 39.5t59 60t31 72.5t8.5 82
q0 59 -14.5 104t-50 84t-103.5 59.5t-166 20.5h-446z" />
    <glyph glyph-name="racute" unicode="&#x155;" horiz-adv-x="845" 
d="M545 1245h-117l207 309h115zM326 0h-117v1057h92l12 -256q17 36 33.5 65t55 73t84 72.5t120.5 49t164 18.5l-16 -125q-102 4 -185.5 -32t-135.5 -99.5t-79.5 -144.5t-27.5 -170v-508z" />
    <glyph glyph-name="uni0156" unicode="&#x156;" horiz-adv-x="1380" 
d="M342 0h-119v1434h582q67 0 127 -11t118 -38t100 -69.5t67.5 -110t25.5 -154.5q0 -101 -36.5 -177.5t-99.5 -120t-139 -64.5t-163 -21h-49l504 -668h-148l-508 668h-262v-668zM342 1319v-537h446q79 0 139 15t96.5 39.5t59 60t31 72.5t8.5 82q0 59 -14.5 104t-50 84
t-103.5 59.5t-166 20.5h-446zM662 -459h-113l133 309h115z" />
    <glyph glyph-name="uni0157" unicode="&#x157;" horiz-adv-x="845" 
d="M326 0h-117v1057h92l12 -256q17 36 33.5 65t55 73t84 72.5t120.5 49t164 18.5l-16 -125q-102 4 -185.5 -32t-135.5 -99.5t-79.5 -144.5t-27.5 -170v-508zM217 -459h-113l134 309h112z" />
    <glyph glyph-name="Rcaron" unicode="&#x158;" horiz-adv-x="1380" 
d="M760 1589h-101l-223 336h121l152 -229h2l153 229h121zM342 0h-119v1434h582q67 0 127 -11t118 -38t100 -69.5t67.5 -110t25.5 -154.5q0 -101 -36.5 -177.5t-99.5 -120t-139 -64.5t-163 -21h-49l504 -668h-148l-508 668h-262v-668zM342 1319v-537h446q79 0 139 15
t96.5 39.5t59 60t31 72.5t8.5 82q0 59 -14.5 104t-50 84t-103.5 59.5t-166 20.5h-446z" />
    <glyph glyph-name="rcaron" unicode="&#x159;" horiz-adv-x="845" 
d="M539 1219h-101l-223 335h121l151 -229h2l154 229h121zM326 0h-117v1057h92l12 -256q17 36 33.5 65t55 73t84 72.5t120.5 49t164 18.5l-16 -125q-102 4 -185.5 -32t-135.5 -99.5t-79.5 -144.5t-27.5 -170v-508z" />
    <glyph glyph-name="Sacute" unicode="&#x15a;" horiz-adv-x="1333" 
d="M733 1616h-117l207 309h115zM125 147l68 105q113 -78 239 -121t246 -43q190 0 299.5 82.5t109.5 222.5q0 41 -12 74.5t-30.5 58t-50 45t-61.5 33.5t-75.5 24.5t-80.5 18.5t-87 15q-188 32 -220 39q-179 42 -249 135q-59 79 -59 206q0 187 142.5 302.5t365.5 115.5
q140 0 252.5 -31.5t244.5 -111.5l-61 -105q-115 71 -218.5 102.5t-213.5 31.5q-178 0 -285.5 -81t-107.5 -223q0 -56 23 -97.5t46.5 -64.5t88.5 -42.5t94.5 -25t119.5 -18.5q8 -2 12.5 -2.5t11.5 -1.5t13 -2q49 -7 83 -13t81 -16.5t79.5 -21t72.5 -28t66.5 -37t54 -47.5
t43.5 -60.5t26 -75.5t10 -92q0 -192 -142.5 -308t-379.5 -116q-315 0 -559 174z" />
    <glyph glyph-name="sacute" unicode="&#x15b;" horiz-adv-x="1077" 
d="M590 1245h-117l207 309h115zM106 119l60 106q192 -135 385 -135q153 0 225 56t72 145q0 87 -69 123.5t-238 60.5q-43 6 -74 11t-70.5 14t-67.5 19.5t-59.5 26t-52 36t-38 46t-26 59.5t-8.5 75q0 143 104.5 230t282.5 87q220 0 404 -123l-57 -106q-163 115 -347 115
q-135 0 -202.5 -51.5t-67.5 -145.5q0 -38 13 -65t34.5 -45t62 -31.5t83 -21.5t110.5 -17q50 -7 85 -13.5t80 -18.5t76 -26t63 -36t51.5 -49t32 -64.5t12.5 -83.5q0 -141 -109.5 -230.5t-306.5 -89.5q-242 0 -443 142z" />
    <glyph glyph-name="Scircumflex" unicode="&#x15c;" horiz-adv-x="1333" 
d="M549 1589h-119l221 336h103l223 -336h-121l-151 230h-3zM125 147l68 105q113 -78 239 -121t246 -43q190 0 299.5 82.5t109.5 222.5q0 41 -12 74.5t-30.5 58t-50 45t-61.5 33.5t-75.5 24.5t-80.5 18.5t-87 15q-188 32 -220 39q-179 42 -249 135q-59 79 -59 206
q0 187 142.5 302.5t365.5 115.5q140 0 252.5 -31.5t244.5 -111.5l-61 -105q-115 71 -218.5 102.5t-213.5 31.5q-178 0 -285.5 -81t-107.5 -223q0 -56 23 -97.5t46.5 -64.5t88.5 -42.5t94.5 -25t119.5 -18.5q8 -2 12.5 -2.5t11.5 -1.5t13 -2q49 -7 83 -13t81 -16.5t79.5 -21
t72.5 -28t66.5 -37t54 -47.5t43.5 -60.5t26 -75.5t10 -92q0 -192 -142.5 -308t-379.5 -116q-315 0 -559 174z" />
    <glyph glyph-name="scircumflex" unicode="&#x15d;" horiz-adv-x="1077" 
d="M408 1219h-119l221 335h102l224 -335h-121l-152 229h-2zM106 119l60 106q192 -135 385 -135q153 0 225 56t72 145q0 87 -69 123.5t-238 60.5q-43 6 -74 11t-70.5 14t-67.5 19.5t-59.5 26t-52 36t-38 46t-26 59.5t-8.5 75q0 143 104.5 230t282.5 87q220 0 404 -123
l-57 -106q-163 115 -347 115q-135 0 -202.5 -51.5t-67.5 -145.5q0 -38 13 -65t34.5 -45t62 -31.5t83 -21.5t110.5 -17q50 -7 85 -13.5t80 -18.5t76 -26t63 -36t51.5 -49t32 -64.5t12.5 -83.5q0 -141 -109.5 -230.5t-306.5 -89.5q-242 0 -443 142z" />
    <glyph glyph-name="Scedilla" unicode="&#x15e;" horiz-adv-x="1333" 
d="M125 147l68 105q113 -78 239 -121t246 -43q190 0 299.5 82.5t109.5 222.5q0 41 -12 74.5t-30.5 58t-50 45t-61.5 33.5t-75.5 24.5t-80.5 18.5t-87 15q-188 32 -220 39q-179 42 -249 135q-59 79 -59 206q0 187 142.5 302.5t365.5 115.5q140 0 252.5 -31.5t244.5 -111.5
l-61 -105q-115 71 -218.5 102.5t-213.5 31.5q-178 0 -285.5 -81t-107.5 -223q0 -56 23 -97.5t46.5 -64.5t88.5 -42.5t94.5 -25t119.5 -18.5q8 -2 12.5 -2.5t11.5 -1.5t13 -2q49 -7 83 -13t81 -16.5t79.5 -21t72.5 -28t66.5 -37t54 -47.5t43.5 -60.5t26 -75.5t10 -92
q0 -178 -121 -290.5t-329 -131.5l-119 -368h-123l119 368q-282 12 -508 172z" />
    <glyph glyph-name="scedilla" unicode="&#x15f;" horiz-adv-x="1077" 
d="M106 119l60 106q192 -135 385 -135q153 0 225 56t72 145q0 87 -69 123.5t-238 60.5q-43 6 -74 11t-70.5 14t-67.5 19.5t-59.5 26t-52 36t-38 46t-26 59.5t-8.5 75q0 143 104.5 230t282.5 87q220 0 404 -123l-57 -106q-163 115 -347 115q-135 0 -202.5 -51.5t-67.5 -145.5
q0 -38 13 -65t34.5 -45t62 -31.5t83 -21.5t110.5 -17q50 -7 85 -13.5t80 -18.5t76 -26t63 -36t51.5 -49t32 -64.5t12.5 -83.5q0 -126 -87.5 -211.5t-248.5 -103.5l-121 -375h-123l121 373q-219 12 -400 139z" />
    <glyph glyph-name="Scaron" unicode="&#x160;" horiz-adv-x="1333" 
d="M741 1589h-100l-223 336h121l151 -229h2l154 229h121zM125 147l68 105q113 -78 239 -121t246 -43q190 0 299.5 82.5t109.5 222.5q0 41 -12 74.5t-30.5 58t-50 45t-61.5 33.5t-75.5 24.5t-80.5 18.5t-87 15q-188 32 -220 39q-179 42 -249 135q-59 79 -59 206
q0 187 142.5 302.5t365.5 115.5q140 0 252.5 -31.5t244.5 -111.5l-61 -105q-115 71 -218.5 102.5t-213.5 31.5q-178 0 -285.5 -81t-107.5 -223q0 -56 23 -97.5t46.5 -64.5t88.5 -42.5t94.5 -25t119.5 -18.5q8 -2 12.5 -2.5t11.5 -1.5t13 -2q49 -7 83 -13t81 -16.5t79.5 -21
t72.5 -28t66.5 -37t54 -47.5t43.5 -60.5t26 -75.5t10 -92q0 -192 -142.5 -308t-379.5 -116q-315 0 -559 174z" />
    <glyph glyph-name="scaron" unicode="&#x161;" horiz-adv-x="1077" 
d="M612 1219h-100l-223 335h121l151 -229h2l154 229h121zM106 119l60 106q192 -135 385 -135q153 0 225 56t72 145q0 87 -69 123.5t-238 60.5q-43 6 -74 11t-70.5 14t-67.5 19.5t-59.5 26t-52 36t-38 46t-26 59.5t-8.5 75q0 143 104.5 230t282.5 87q220 0 404 -123l-57 -106
q-163 115 -347 115q-135 0 -202.5 -51.5t-67.5 -145.5q0 -38 13 -65t34.5 -45t62 -31.5t83 -21.5t110.5 -17q50 -7 85 -13.5t80 -18.5t76 -26t63 -36t51.5 -49t32 -64.5t12.5 -83.5q0 -141 -109.5 -230.5t-306.5 -89.5q-242 0 -443 142z" />
    <glyph glyph-name="uni0162" unicode="&#x162;" horiz-adv-x="1198" 
d="M659 0h-118v1319h-500v115h1116v-115h-498v-1319zM532 -459h-112l133 309h113z" />
    <glyph glyph-name="uni0163" unicode="&#x163;" horiz-adv-x="845" 
d="M715 133l43 -102q-102 -54 -230 -54q-151 0 -229 88.5t-78 256.5v622h-149v109h151v243h117v-243h387v-109h-387v-622q0 -117 45.5 -174.5t142.5 -57.5q90 0 187 43zM438 -459h-112l133 309h112z" />
    <glyph glyph-name="Tcaron" unicode="&#x164;" horiz-adv-x="1198" 
d="M649 1589h-100l-223 336h120l152 -229h2l154 229h120zM659 0h-118v1319h-500v115h1116v-115h-498v-1319z" />
    <glyph glyph-name="tcaron" unicode="&#x165;" horiz-adv-x="845" 
d="M602 1210h-86l21 332h125zM715 133l43 -102q-102 -54 -230 -54q-151 0 -229 88.5t-78 256.5v622h-149v109h151v243h117v-243h387v-109h-387v-622q0 -117 45.5 -174.5t142.5 -57.5q90 0 187 43z" />
    <glyph glyph-name="Tbar" unicode="&#x166;" horiz-adv-x="1198" 
d="M659 0h-118v682h-416v109h416v528h-500v115h1116v-115h-498v-528h416v-109h-416v-682z" />
    <glyph glyph-name="tbar" unicode="&#x167;" horiz-adv-x="845" 
d="M221 551h-151v108h151v285h-149v109h151v243h117v-243h387v-109h-387v-285h385v-108h-385v-229q0 -117 45.5 -174.5t142.5 -57.5q90 0 187 43l43 -102q-102 -54 -230 -54q-151 0 -229 88.5t-78 256.5v229z" />
    <glyph glyph-name="Utilde" unicode="&#x168;" horiz-adv-x="1544" 
d="M508 1679l-88 39q35 106 80.5 157.5t122.5 51.5q40 0 75.5 -15t62 -36.5t51 -42.5t53 -36t57.5 -15q41 0 64.5 33t49.5 116l88 -39q-33 -106 -79 -157.5t-123 -51.5q-49 0 -93.5 23t-72 50t-63.5 50t-70 23q-41 0 -65 -33t-50 -117zM203 590v844h119v-834
q0 -133 34 -233.5t96 -160t142 -89t178 -29.5t178 29.5t142 89t96.5 160t34.5 233.5v834h118v-844q0 -298 -155.5 -457.5t-413.5 -159.5t-413.5 159.5t-155.5 457.5z" />
    <glyph glyph-name="utilde" unicode="&#x169;" horiz-adv-x="1267" 
d="M356 1292l-88 39q35 106 80.5 157.5t122.5 51.5q40 0 75.5 -15t62 -36t51 -42.5t53 -36.5t57.5 -15q41 0 65 33t50 116l88 -39q-33 -105 -79 -157t-124 -52q-49 0 -93.5 23t-72 50t-63.5 50t-70 23q-41 0 -65 -33t-50 -117zM969 0l-11 225q-11 -29 -30.5 -60t-53 -65.5
t-75 -61t-100.5 -44t-124 -17.5q-82 0 -150.5 25t-122.5 76.5t-84 138t-30 201.5v639h117v-613q0 -354 301 -354q144 0 240 116.5t96 274.5v576h119v-1057h-92z" />
    <glyph glyph-name="Umacron" unicode="&#x16a;" horiz-adv-x="1544" 
d="M1038 1712h-532v109h532v-109zM203 590v844h119v-834q0 -133 34 -233.5t96 -160t142 -89t178 -29.5t178 29.5t142 89t96.5 160t34.5 233.5v834h118v-844q0 -298 -155.5 -457.5t-413.5 -159.5t-413.5 159.5t-155.5 457.5z" />
    <glyph glyph-name="umacron" unicode="&#x16b;" horiz-adv-x="1267" 
d="M889 1364h-533v109h533v-109zM969 0l-11 225q-11 -29 -30.5 -60t-53 -65.5t-75 -61t-100.5 -44t-124 -17.5q-82 0 -150.5 25t-122.5 76.5t-84 138t-30 201.5v639h117v-613q0 -354 301 -354q144 0 240 116.5t96 274.5v576h119v-1057h-92z" />
    <glyph glyph-name="Ubreve" unicode="&#x16c;" horiz-adv-x="1544" 
d="M469 1870l92 45q41 -101 83 -145t128 -44q45 0 78 12t57.5 40.5t40 57t37.5 79.5l90 -45q-44 -120 -114 -184t-189 -64t-189 64t-114 184zM203 590v844h119v-834q0 -133 34 -233.5t96 -160t142 -89t178 -29.5t178 29.5t142 89t96.5 160t34.5 233.5v834h118v-844
q0 -298 -155.5 -457.5t-413.5 -159.5t-413.5 159.5t-155.5 457.5z" />
    <glyph glyph-name="ubreve" unicode="&#x16d;" horiz-adv-x="1267" 
d="M324 1501l92 45q21 -50 36 -79t39.5 -57t57 -40t78.5 -12t78.5 12t57 40t40 56.5t37.5 79.5l90 -45q-44 -120 -114 -184t-189 -64t-189 64t-114 184zM969 0l-11 225q-11 -29 -30.5 -60t-53 -65.5t-75 -61t-100.5 -44t-124 -17.5q-82 0 -150.5 25t-122.5 76.5t-84 138
t-30 201.5v639h117v-613q0 -354 301 -354q144 0 240 116.5t96 274.5v576h119v-1057h-92z" />
    <glyph glyph-name="Uring" unicode="&#x16e;" horiz-adv-x="1544" 
d="M772 1583q-72 0 -124 51.5t-52 124.5t52 124.5t124 51.5t124 -51.5t52 -124.5t-52 -124.5t-124 -51.5zM772 1661q41 0 67.5 28t26.5 70q0 41 -27 70t-67 29q-39 0 -67.5 -29.5t-28.5 -69.5q0 -41 28 -69.5t68 -28.5zM203 590v844h119v-834q0 -133 34 -233.5t96 -160
t142 -89t178 -29.5t178 29.5t142 89t96.5 160t34.5 233.5v834h118v-844q0 -298 -155.5 -457.5t-413.5 -159.5t-413.5 159.5t-155.5 457.5z" />
    <glyph glyph-name="uring" unicode="&#x16f;" horiz-adv-x="1267" 
d="M623 1214q-72 0 -124.5 52t-52.5 125t52.5 124.5t124.5 51.5t124 -51.5t52 -124.5t-52 -125t-124 -52zM623 1292q41 0 67.5 28.5t26.5 70.5q0 41 -26.5 69.5t-67.5 28.5q-40 0 -68.5 -29t-28.5 -69q0 -41 28.5 -70t68.5 -29zM969 0l-11 225q-11 -29 -30.5 -60t-53 -65.5
t-75 -61t-100.5 -44t-124 -17.5q-82 0 -150.5 25t-122.5 76.5t-84 138t-30 201.5v639h117v-613q0 -354 301 -354q144 0 240 116.5t96 274.5v576h119v-1057h-92z" />
    <glyph glyph-name="Uhungarumlaut" unicode="&#x170;" horiz-adv-x="1544" 
d="M895 1616h-117l207 309h115zM647 1616h-117l205 309h117zM203 590v844h119v-834q0 -133 34 -233.5t96 -160t142 -89t178 -29.5t178 29.5t142 89t96.5 160t34.5 233.5v834h118v-844q0 -298 -155.5 -457.5t-413.5 -159.5t-413.5 159.5t-155.5 457.5z" />
    <glyph glyph-name="uhungarumlaut" unicode="&#x171;" horiz-adv-x="1267" 
d="M762 1245h-117l207 309h115zM514 1245h-117l205 309h117zM969 0l-11 225q-11 -29 -30.5 -60t-53 -65.5t-75 -61t-100.5 -44t-124 -17.5q-82 0 -150.5 25t-122.5 76.5t-84 138t-30 201.5v639h117v-613q0 -354 301 -354q144 0 240 116.5t96 274.5v576h119v-1057h-92z" />
    <glyph glyph-name="Uogonek" unicode="&#x172;" horiz-adv-x="1544" 
d="M203 590v844h119v-834q0 -133 34 -233.5t96 -160t142 -89t178 -29.5t178 29.5t142 89t96.5 160t34.5 233.5v834h118v-844q0 -244 -106 -396.5t-291 -199.5q-109 -69 -163.5 -114t-67.5 -68.5t-13 -53.5q0 -32 22 -49.5t54 -17.5q72 0 164 53l39 -94q-101 -66 -213 -66
q-73 0 -122.5 42.5t-49.5 107.5q0 60 33.5 111.5t136.5 127.5q-255 3 -408 163t-153 454z" />
    <glyph glyph-name="uogonek" unicode="&#x173;" horiz-adv-x="1271" 
d="M965 55l-7 170q-13 -37 -41.5 -76.5t-73.5 -80t-114.5 -66t-150.5 -25.5q-83 0 -152 25t-123 76.5t-84.5 138t-30.5 201.5v639h119v-613q0 -354 299 -354q144 0 241 116.5t97 274.5v576h117v-1057q-168 -100 -223.5 -150t-55.5 -92q0 -32 22 -49.5t52 -17.5q77 0 164 53
l41 -94q-101 -66 -213 -66q-74 0 -123 42t-49 108q0 37 9.5 65t38.5 66t88 84t153 106z" />
    <glyph glyph-name="Wcircumflex" unicode="&#x174;" horiz-adv-x="2027" 
d="M860 1589h-119l222 336h102l223 -336h-121l-151 230h-2zM618 0h-116l-475 1434h123l407 -1233h2l397 1233h117l395 -1233h2l408 1233h125l-475 -1434h-117l-395 1247h-2z" />
    <glyph glyph-name="wcircumflex" unicode="&#x175;" horiz-adv-x="1568" 
d="M629 1219h-119l221 335h103l223 -335h-121l-152 229h-2zM475 0h-117l-323 1057h123l262 -879l305 879h119l303 -879l262 879h123l-324 -1057h-116l-308 891z" />
    <glyph glyph-name="Ycircumflex" unicode="&#x176;" horiz-adv-x="1263" 
d="M477 1589h-119l222 336h102l223 -336h-121l-151 230h-2zM690 0h-119v573l-559 861h146l473 -729l475 729h143l-559 -861v-573z" />
    <glyph glyph-name="ycircumflex" unicode="&#x177;" horiz-adv-x="1048" 
d="M371 1219h-119l221 335h102l224 -335h-121l-152 229h-2zM422 -393h-125l164 401l-430 1049h125l366 -901h4l367 901h125z" />
    <glyph glyph-name="Ydieresis" unicode="&#x178;" horiz-adv-x="1263" 
d="M360 1837q0 39 27 66.5t68 27.5q38 0 66 -28t28 -66q0 -40 -28 -68t-66 -28q-41 0 -68 28t-27 68zM713 1837q0 39 27.5 66.5t66.5 27.5q40 0 68 -28t28 -66q0 -40 -28 -68t-68 -28t-67 28t-27 68zM690 0h-119v573l-559 861h146l473 -729l475 729h143l-559 -861v-573z" />
    <glyph glyph-name="Zacute" unicode="&#x179;" horiz-adv-x="1304" 
d="M711 1616h-117l207 309h114zM1243 0h-1145v104l967 1215h-922v115h1082v-107l-969 -1212h987v-115z" />
    <glyph glyph-name="zacute" unicode="&#x17a;" horiz-adv-x="1081" 
d="M598 1245h-117l207 309h115zM969 0h-860v94l682 854h-641v109h800v-96l-680 -852h699v-109z" />
    <glyph glyph-name="Zdotaccent" unicode="&#x17b;" horiz-adv-x="1304" 
d="M582 1837q0 39 27.5 66.5t66.5 27.5q40 0 68 -28t28 -66q0 -40 -28 -68t-68 -28t-67 28t-27 68zM1243 0h-1145v104l967 1215h-922v115h1082v-107l-969 -1212h987v-115z" />
    <glyph glyph-name="zdotaccent" unicode="&#x17c;" horiz-adv-x="1081" 
d="M469 1458q0 39 27.5 66.5t66.5 27.5q40 0 68 -28t28 -66q0 -40 -28 -68t-68 -28t-67 28t-27 68zM969 0h-860v94l682 854h-641v109h800v-96l-680 -852h699v-109z" />
    <glyph glyph-name="Zcaron" unicode="&#x17d;" horiz-adv-x="1304" 
d="M721 1589h-100l-224 336h121l152 -229h2l153 229h121zM1243 0h-1145v104l967 1215h-922v115h1082v-107l-969 -1212h987v-115z" />
    <glyph glyph-name="zcaron" unicode="&#x17e;" horiz-adv-x="1081" 
d="M608 1219h-100l-223 335h121l151 -229h2l154 229h121zM969 0h-860v94l682 854h-641v109h800v-96l-680 -852h699v-109z" />
    <glyph glyph-name="longs" unicode="&#x17f;" horiz-adv-x="761" 
d="M352 0h-116v944h-175v109h175v194q0 153 77 235.5t217 82.5q117 0 226 -49l-39 -105q-107 41 -187 41q-178 0 -178 -207v-1245z" />
    <glyph glyph-name="florin" unicode="&#x192;" horiz-adv-x="1003" 
d="M39 27l41 104q105 -41 186 -41q176 0 176 207v479h-319v109h319v362q0 153 77.5 235.5t219.5 82.5q117 0 226 -49l-39 -105q-107 41 -189 41q-176 0 -176 -207v-360h320v-109h-320v-481q0 -153 -77.5 -235.5t-219.5 -82.5q-114 0 -225 50z" />
    <glyph glyph-name="Aringacute" unicode="&#x1fa;" horiz-adv-x="1437" 
d="M768 1792h-117l160 238h119zM164 0h-133l618 1391q-47 21 -76.5 64t-29.5 97q0 73 52 125t124 52t124 -52t52 -125q0 -54 -30 -97t-79 -64l621 -1391h-135l-170 381h-768zM719 1454q41 0 67.5 28t26.5 70q0 41 -27 70t-67 29q-39 0 -67.5 -29.5t-28.5 -69.5
q0 -41 28 -69.5t68 -28.5zM717 1239l-330 -737h662l-330 737h-2z" />
    <glyph glyph-name="aringacute" unicode="&#x1fb;" horiz-adv-x="1187" 
d="M600 1651h-117l207 309h115zM565 1214q-72 0 -124 52t-52 125t52 124.5t124 51.5t124 -51.5t52 -124.5t-52 -125t-124 -52zM565 1292q41 0 67.5 28.5t26.5 70.5q0 41 -26.5 69.5t-67.5 28.5q-40 0 -68 -29t-28 -69q0 -41 28 -70t68 -29zM907 0l-16 215
q-51 -114 -153.5 -176t-241.5 -62q-164 0 -273.5 94t-109.5 244q0 157 118.5 240.5t309.5 83.5q166 0 342 -57q0 97 -9 160.5t-29 109t-57.5 69.5t-88.5 34t-128 10q-170 0 -342 -43l-26 110q38 15 156.5 31t224.5 16q103 0 175 -18t119.5 -53t74.5 -96.5t37.5 -138.5
t10.5 -189v-584h-94zM883 446v27q-169 59 -334 59q-146 0 -232 -56t-86 -161q0 -104 76 -164.5t201 -60.5q95 0 168.5 29.5t117.5 80.5t66.5 113.5t22.5 132.5z" />
    <glyph glyph-name="AEacute" unicode="&#x1fc;" horiz-adv-x="1755" 
d="M924 1616h-117l207 309h114zM164 0h-133l637 1434h938v-115h-662v-537h623v-114h-623v-553h672v-115h-791v381h-491zM750 1319l-365 -817h440v817h-75z" />
    <glyph glyph-name="aeacute" unicode="&#x1fd;" horiz-adv-x="1974" 
d="M997 1245h-116l206 309h115zM469 598h426q0 107 -20 179t-63 113t-102 58t-145 17q-164 0 -336 -43l-26 110q36 15 153 31t217 16q163 0 262 -58t142 -181q66 110 174.5 173.5t243.5 63.5q150 0 260 -72t164.5 -192.5t54.5 -271.5v-52h-858q11 -173 117.5 -286
t273.5 -113q109 0 179.5 27.5t160.5 95.5l63 -94q-97 -75 -189 -108.5t-214 -33.5q-152 0 -270 76t-183 205q-119 -281 -483 -281q-160 0 -260 86t-100 232q0 79 31 139.5t83.5 95t114 51.5t129.5 17zM1018 598h737q-9 161 -103 264t-255 103q-157 0 -258.5 -102.5
t-120.5 -264.5zM895 446v43h-422q-47 0 -88.5 -10t-77.5 -31.5t-57 -60.5t-21 -92q0 -98 69 -151.5t200 -53.5q96 0 173.5 30t125.5 80t73 113t25 133z" />
    <glyph glyph-name="Oslashacute" unicode="&#x1fe;" horiz-adv-x="1687" 
d="M879 1616h-117l207 309h114zM844 -27q-152 0 -295 62l-64 -121h-125q27 53 91 174q-156 100 -247 266t-91 363q0 153 57 290.5t154.5 236.5t233 157.5t286.5 58.5q127 0 301 -49q30 59 57 111h125l-92 -174q158 -100 250 -267t92 -364q0 -153 -57.5 -290.5t-155 -237
t-233.5 -158t-287 -58.5zM500 184q105 200 319 609t264 503q-116 50 -239 50q-126 0 -240.5 -51t-195.5 -136t-129 -200.5t-48 -241.5q0 -158 73 -298t196 -235zM844 88q169 0 310.5 86t221.5 230.5t80 312.5q0 160 -73.5 299t-200.5 227l-580 -1104q114 -51 242 -51z" />
    <glyph glyph-name="oslashacute" unicode="&#x1ff;" horiz-adv-x="1286" 
d="M674 1245h-117l207 309h115zM100 526q0 113 42 215t114 176t172.5 118t212.5 44q113 0 215 -45l53 99h113l-78 -146q111 -77 175.5 -198t64.5 -263q0 -112 -42 -213.5t-114 -175t-173 -117t-214 -43.5q-107 0 -205 39l-57 -108h-115l82 155q-114 75 -180 197t-66 266z
M401 166l402 768q-76 31 -162 31q-179 0 -300.5 -127.5t-121.5 -311.5q0 -112 48.5 -206.5t133.5 -153.5zM641 90q179 0 301.5 127t122.5 309q0 109 -46.5 203.5t-127.5 153.5l-402 -764q76 -29 152 -29z" />
    <glyph glyph-name="uni0218" unicode="&#x218;" horiz-adv-x="1333" 
d="M125 147l68 105q113 -78 239 -121t246 -43q190 0 299.5 82.5t109.5 222.5q0 41 -12 74.5t-30.5 58t-50 45t-61.5 33.5t-75.5 24.5t-80.5 18.5t-87 15q-188 32 -220 39q-179 42 -249 135q-59 79 -59 206q0 187 142.5 302.5t365.5 115.5q140 0 252.5 -31.5t244.5 -111.5
l-61 -105q-115 71 -218.5 102.5t-213.5 31.5q-178 0 -285.5 -81t-107.5 -223q0 -56 23 -97.5t46.5 -64.5t88.5 -42.5t94.5 -25t119.5 -18.5q8 -2 12.5 -2.5t11.5 -1.5t13 -2q49 -7 83 -13t81 -16.5t79.5 -21t72.5 -28t66.5 -37t54 -47.5t43.5 -60.5t26 -75.5t10 -92
q0 -192 -142.5 -308t-379.5 -116q-315 0 -559 174zM647 -459h-115l134 309h114z" />
    <glyph glyph-name="uni0219" unicode="&#x219;" horiz-adv-x="1077" 
d="M106 119l60 106q192 -135 385 -135q153 0 225 56t72 145q0 87 -69 123.5t-238 60.5q-43 6 -74 11t-70.5 14t-67.5 19.5t-59.5 26t-52 36t-38 46t-26 59.5t-8.5 75q0 143 104.5 230t282.5 87q220 0 404 -123l-57 -106q-163 115 -347 115q-135 0 -202.5 -51.5t-67.5 -145.5
q0 -38 13 -65t34.5 -45t62 -31.5t83 -21.5t110.5 -17q50 -7 85 -13.5t80 -18.5t76 -26t63 -36t51.5 -49t32 -64.5t12.5 -83.5q0 -141 -109.5 -230.5t-306.5 -89.5q-242 0 -443 142zM512 -459h-113l133 309h113z" />
    <glyph glyph-name="uni021A" unicode="&#x21a;" horiz-adv-x="1198" 
d="M659 0h-118v1319h-500v115h1116v-115h-498v-1319zM532 -459h-112l133 309h113z" />
    <glyph glyph-name="uni021B" unicode="&#x21b;" horiz-adv-x="845" 
d="M715 133l43 -102q-102 -54 -230 -54q-151 0 -229 88.5t-78 256.5v622h-149v109h151v243h117v-243h387v-109h-387v-622q0 -117 45.5 -174.5t142.5 -57.5q90 0 187 43zM438 -459h-112l133 309h112z" />
    <glyph glyph-name="uni0237" unicode="&#x237;" horiz-adv-x="761" 
d="M-12 -367l43 107q88 -43 194 -43q117 0 163 74.5t46 261.5v1024h119v-1028q0 -226 -76 -335.5t-252 -109.5q-128 0 -237 49z" />
    <glyph glyph-name="circumflex" unicode="&#x2c6;" horiz-adv-x="657" 
d="M174 1589h-119l221 336h103l223 -336h-121l-151 230h-2z" />
    <glyph glyph-name="caron" unicode="&#x2c7;" horiz-adv-x="657" 
d="M379 1589h-100l-224 336h121l152 -229h2l153 229h121z" />
    <glyph glyph-name="uni02C9" unicode="&#x2c9;" horiz-adv-x="657" 
d="M596 1712h-533v109h533v-109z" />
    <glyph glyph-name="breve" unicode="&#x2d8;" horiz-adv-x="724" 
d="M59 1870l93 45q41 -101 82.5 -145t127.5 -44q45 0 78 12t57.5 40.5t40 57t37.5 79.5l91 -45q-44 -120 -114 -184t-190 -64q-119 0 -189 64t-114 184z" />
    <glyph glyph-name="dotaccent" unicode="&#x2d9;" horiz-adv-x="425" 
d="M119 1837q0 39 27.5 66.5t66.5 27.5q40 0 68 -28t28 -66q0 -40 -28 -68t-68 -28t-67 28t-27 68z" />
    <glyph glyph-name="ring" unicode="&#x2da;" horiz-adv-x="485" 
d="M242 1583q-72 0 -124 51.5t-52 124.5t52 124.5t124 51.5t124 -51.5t52 -124.5t-52 -124.5t-124 -51.5zM242 1661q41 0 67.5 28t26.5 70q0 41 -27 70t-67 29t-68.5 -29.5t-28.5 -69.5q0 -41 28.5 -69.5t68.5 -28.5z" />
    <glyph glyph-name="ogonek" unicode="&#x2db;" horiz-adv-x="555" 
d="M453 -262l43 -98q-101 -56 -224 -56q-91 0 -152 54t-61 143q0 174 240 297h45v-51q-28 -17 -43.5 -26.5t-45 -33t-46 -45t-30 -54t-13.5 -67.5q0 -54 33.5 -82t83.5 -28q81 0 170 47z" />
    <glyph glyph-name="tilde" unicode="&#x2dc;" horiz-adv-x="808" 
d="M141 1679l-88 39q35 106 80.5 157.5t122.5 51.5q40 0 75.5 -15t62 -36.5t51 -42.5t53 -36t57.5 -15q41 0 65 33t50 116l88 -39q-33 -105 -79 -157t-124 -52q-49 0 -93.5 23t-72 50t-63.5 50t-70 23q-41 0 -65 -33t-50 -117z" />
    <glyph glyph-name="hungarumlaut" unicode="&#x2dd;" horiz-adv-x="665" 
d="M414 1616h-117l207 309h114zM166 1616h-117l205 309h117z" />
    <glyph glyph-name="uni037E" unicode="&#x37e;" horiz-adv-x="540" 
d="M168 967q0 42 29 72t73 30t73.5 -30t29.5 -72q0 -43 -29.5 -74t-73.5 -31t-73 31t-29 74zM104 -422l-38 78q122 52 170.5 131.5t48.5 189.5h-15q-42 0 -72 30.5t-30 72.5q0 43 29.5 72.5t72.5 29.5q46 0 76.5 -32t30.5 -82v-39q0 -176 -63.5 -280.5t-209.5 -170.5z" />
    <glyph glyph-name="tonos" unicode="&#x384;" horiz-adv-x="434" 
d="M211 1245h-96l96 309h115z" />
    <glyph glyph-name="dieresistonos" unicode="&#x385;" horiz-adv-x="798" 
d="M373 1208h-90l102 346h104zM547 1460q0 37 25 63.5t63 26.5t64 -26.5t26 -63.5t-26 -63.5t-64 -26.5t-63 26.5t-25 63.5zM74 1460q0 37 25 63.5t63 26.5t64 -26.5t26 -63.5t-26 -63.5t-64 -26.5t-63 26.5t-25 63.5z" />
    <glyph glyph-name="Alphatonos" unicode="&#x386;" horiz-adv-x="1437" 
d="M164 0h-133l639 1434h98l639 -1434h-135l-170 381h-768zM289 1124h-96l26 310h111zM717 1239l-330 -737h662l-330 737h-2z" />
    <glyph glyph-name="anoteleia" unicode="&#x387;" horiz-adv-x="419" 
d="M98 721q0 46 32 78t79 32t80 -32t33 -78q0 -47 -33 -80t-80 -33t-79 33t-32 80z" />
    <glyph glyph-name="Epsilontonos" unicode="&#x388;" horiz-adv-x="1363" 
d="M1227 0h-971v1434h958v-115h-839v-537h801v-114h-801v-553h852v-115zM59 1124h-94l27 310h110z" />
    <glyph glyph-name="Etatonos" unicode="&#x389;" horiz-adv-x="1579" 
d="M375 0h-119v1434h119v-652h864v652h119v-1434h-119v668h-864v-668zM59 1124h-94l27 310h110z" />
    <glyph glyph-name="Iotatonos" unicode="&#x38a;" horiz-adv-x="598" 
d="M375 0h-119v1434h119v-1434zM59 1124h-94l27 310h110z" />
    <glyph glyph-name="Omicrontonos" unicode="&#x38c;" horiz-adv-x="1699" 
d="M854 -27q-151 0 -286.5 58.5t-233 158t-154.5 237t-57 290.5t57 290.5t154.5 236.5t233 157.5t286.5 58.5t287 -58.5t233.5 -157.5t155 -236.5t57.5 -290.5t-57.5 -290.5t-155 -237t-233.5 -158t-287 -58.5zM70 1124h-97l29 310h111zM854 88q169 0 310.5 86t221.5 230.5
t80 312.5t-80 312.5t-221.5 230.5t-310.5 86q-168 0 -309.5 -86t-222 -230.5t-80.5 -312.5t80.5 -312.5t222 -230.5t309.5 -86z" />
    <glyph glyph-name="Upsilontonos" unicode="&#x38e;" horiz-adv-x="1415" 
d="M842 0h-119v573l-559 861h145l473 -729l475 729h144l-559 -861v-573zM59 1124h-94l27 310h110z" />
    <glyph glyph-name="Omegatonos" unicode="&#x38f;" horiz-adv-x="1744" 
d="M766 0h-657v115h368q-151 94 -247.5 251.5t-96.5 350.5q0 153 57.5 290.5t155 236.5t233.5 157.5t287 58.5t287 -58.5t233.5 -157.5t155 -236.5t57.5 -290.5q0 -193 -96.5 -350.5t-247.5 -251.5h369v-115h-657v104q98 11 190.5 62.5t164 130.5t114.5 189.5t43 230.5
q0 126 -48 241.5t-129 200.5t-195.5 136t-240.5 51q-168 0 -309.5 -86t-222 -230.5t-80.5 -312.5q0 -120 43 -230.5t114.5 -189.5t164 -130.5t190.5 -62.5v-104zM80 1124h-96l26 310h111z" />
    <glyph glyph-name="iotadieresistonos" unicode="&#x390;" horiz-adv-x="737" 
d="M309 1208h-90l111 346h104zM496 1460q0 37 25 63.5t63 26.5t64 -26.5t26 -63.5t-26 -63.5t-64 -26.5t-63 26.5t-25 63.5zM20 1460q0 37 26.5 63.5t64.5 26.5t64 -26.5t26 -63.5t-26 -63.5t-64 -26.5t-64.5 26.5t-26.5 63.5zM647 135l43 -102q-101 -56 -215 -56
q-130 0 -198 79.5t-68 236.5v764h117v-762q0 -114 38 -159.5t109 -45.5q49 0 85 10t89 35z" />
    <glyph glyph-name="Alpha" unicode="&#x391;" horiz-adv-x="1437" 
d="M164 0h-133l639 1434h98l639 -1434h-135l-170 381h-768zM717 1239l-330 -737h662l-330 737h-2z" />
    <glyph glyph-name="Beta" unicode="&#x392;" horiz-adv-x="1392" 
d="M782 0h-559v1434h508q73 0 141.5 -12t134.5 -40.5t114.5 -71.5t78 -109.5t29.5 -149.5q0 -52 -12 -97t-34 -77.5t-46.5 -58t-54.5 -43.5t-54 -28.5t-49 -17.5v-2q30 -7 60 -18.5t76.5 -39.5t80.5 -64t59 -96.5t25 -133.5q0 -97 -39.5 -170.5t-109 -117.5t-157.5 -65.5
t-192 -21.5zM342 1319v-537h438q146 0 237 66.5t91 195.5q0 140 -102.5 207.5t-284.5 67.5h-379zM342 668v-553h428q198 0 293.5 69.5t95.5 196.5q0 133 -103 210t-263 77h-451z" />
    <glyph glyph-name="Gamma" unicode="&#x393;" horiz-adv-x="1138" 
d="M342 0h-119v1434h873v-115h-754v-1319z" />
    <glyph glyph-name="uni0394" unicode="&#x394;" horiz-adv-x="1437" 
d="M1407 0h-1378l639 1434h98zM717 1247l-504 -1126h1008l-502 1126h-2z" />
    <glyph glyph-name="Epsilon" unicode="&#x395;" horiz-adv-x="1331" 
d="M1194 0h-971v1434h959v-115h-840v-537h801v-114h-801v-553h852v-115z" />
    <glyph glyph-name="Zeta" unicode="&#x396;" horiz-adv-x="1304" 
d="M1243 0h-1145v104l967 1215h-922v115h1082v-107l-969 -1212h987v-115z" />
    <glyph glyph-name="Eta" unicode="&#x397;" horiz-adv-x="1546" 
d="M342 0h-119v1434h119v-652h864v652h119v-1434h-119v668h-864v-668z" />
    <glyph glyph-name="Theta" unicode="&#x398;" horiz-adv-x="1687" 
d="M844 -27q-151 0 -286.5 58.5t-233 158t-154.5 237t-57 290.5t57 290.5t154.5 236.5t233 157.5t286.5 58.5t287 -58.5t233.5 -157.5t155 -236.5t57.5 -290.5t-57.5 -290.5t-155 -237t-233.5 -158t-287 -58.5zM844 88q169 0 310.5 86t221.5 230.5t80 312.5t-80 312.5
t-221.5 230.5t-310.5 86q-126 0 -240.5 -51t-195.5 -136t-129 -200.5t-48 -241.5t48 -241.5t129 -200.5t195.5 -136t240.5 -51zM1206 659h-725v115h725v-115z" />
    <glyph glyph-name="Iota" unicode="&#x399;" horiz-adv-x="565" 
d="M342 0h-119v1434h119v-1434z" />
    <glyph glyph-name="Kappa" unicode="&#x39a;" 
d="M342 0h-119v1434h119v-736l717 736h164l-582 -598l629 -836h-148l-565 750l-215 -222v-528z" />
    <glyph glyph-name="Lambda" unicode="&#x39b;" horiz-adv-x="1437" 
d="M166 0h-135l639 1434h98l639 -1434h-135l-551 1239h-2z" />
    <glyph glyph-name="Mu" unicode="&#x39c;" horiz-adv-x="1800" 
d="M342 0h-119v1434h119l555 -920h6l553 920h121v-1434h-119v1202h-2l-543 -899h-26l-543 899h-2v-1202z" />
    <glyph glyph-name="Nu" unicode="&#x39d;" horiz-adv-x="1591" 
d="M342 0h-119v1434h107l917 -1225h2v1225h119v-1434h-113l-911 1219h-2v-1219z" />
    <glyph glyph-name="Xi" unicode="&#x39e;" horiz-adv-x="1224" 
d="M1077 1317h-927v117h927v-117zM1016 668h-807v116h807v-116zM1085 0h-948v117h948v-117z" />
    <glyph glyph-name="Omicron" unicode="&#x39f;" horiz-adv-x="1687" 
d="M844 -27q-151 0 -286.5 58.5t-233 158t-154.5 237t-57 290.5t57 290.5t154.5 236.5t233 157.5t286.5 58.5t287 -58.5t233.5 -157.5t155 -236.5t57.5 -290.5t-57.5 -290.5t-155 -237t-233.5 -158t-287 -58.5zM844 88q169 0 310.5 86t221.5 230.5t80 312.5t-80 312.5
t-221.5 230.5t-310.5 86q-126 0 -240.5 -51t-195.5 -136t-129 -200.5t-48 -241.5t48 -241.5t129 -200.5t195.5 -136t240.5 -51z" />
    <glyph glyph-name="Pi" unicode="&#x3a0;" horiz-adv-x="1531" 
d="M342 0h-119v1434h1086v-1434h-119v1319h-848v-1319z" />
    <glyph glyph-name="Rho" unicode="&#x3a1;" horiz-adv-x="1304" 
d="M342 0h-119v1434h502q78 0 148 -14.5t134 -48.5t110 -84.5t73 -127.5t27 -174q0 -120 -41 -210.5t-111.5 -142.5t-155.5 -77t-184 -25h-383v-530zM342 1319v-674h367q91 0 161 20t112 51.5t68.5 77.5t36 91.5t9.5 99.5q0 334 -387 334h-367z" />
    <glyph glyph-name="Sigma" unicode="&#x3a3;" horiz-adv-x="1243" 
d="M1124 0h-1038v106l563 619l-563 602v107h1014v-115h-852l536 -576v-36l-538 -592h878v-115z" />
    <glyph glyph-name="Tau" unicode="&#x3a4;" horiz-adv-x="1198" 
d="M659 0h-118v1319h-500v115h1116v-115h-498v-1319z" />
    <glyph glyph-name="Upsilon" unicode="&#x3a5;" horiz-adv-x="1263" 
d="M690 0h-119v573l-559 861h146l473 -729l475 729h143l-559 -861v-573z" />
    <glyph glyph-name="Phi" unicode="&#x3a6;" horiz-adv-x="1660" 
d="M104 729q0 144 54 260t146.5 189.5t211.5 114t254 42.5v135h119v-135q135 -2 254 -42.5t211.5 -114t146 -189.5t53.5 -260t-53.5 -259.5t-146 -189t-211 -113.5t-254.5 -42v-162h-119v162q-135 2 -254 42t-211.5 113.5t-146.5 189t-54 259.5zM889 1223v-985
q112 3 209.5 35.5t173.5 91.5t120 153t44 211q0 118 -44 212t-120 154t-173.5 92.5t-209.5 35.5zM225 729q0 -117 44 -211t120 -153t173 -91.5t208 -35.5v985q-111 -3 -208 -35.5t-173 -92.5t-120 -154t-44 -212z" />
    <glyph glyph-name="Chi" unicode="&#x3a7;" horiz-adv-x="1429" 
d="M219 0h-156l582 715l-579 719h155l494 -611l491 611h156l-580 -719l584 -715h-156l-495 606z" />
    <glyph glyph-name="Psi" unicode="&#x3a8;" horiz-adv-x="1697" 
d="M172 877v557h119v-557q0 -90 26.5 -162t72 -121t110 -83.5t136.5 -51.5t155 -21v996h118v-996q83 4 154.5 21t135.5 51.5t109.5 83.5t72 121t26.5 162v557h119v-557q0 -111 -32.5 -202t-89 -153t-136 -105.5t-168.5 -65.5t-191 -27v-324h-118v324q-103 5 -192.5 27
t-168.5 65.5t-136 105.5t-89.5 153t-32.5 202z" />
    <glyph glyph-name="uni03A9" unicode="&#x3a9;" horiz-adv-x="1757" 
d="M778 0h-657v115h368q-151 94 -247.5 251.5t-96.5 350.5q0 153 57.5 290.5t155.5 236.5t234 157.5t287 58.5t287 -58.5t233.5 -157.5t155 -236.5t57.5 -290.5q0 -193 -96.5 -350.5t-247.5 -251.5h368v-115h-657v104q98 11 190.5 62.5t164 130.5t114.5 189.5t43 230.5
q0 168 -80.5 312.5t-222 230.5t-309.5 86q-126 0 -240.5 -51t-195.5 -136t-129 -200.5t-48 -241.5q0 -120 43 -230.5t114.5 -189.5t164 -130.5t190.5 -62.5v-104z" />
    <glyph glyph-name="Iotadieresis" unicode="&#x3aa;" horiz-adv-x="565" 
d="M10 1837q0 39 26.5 66.5t67.5 27.5q38 0 66.5 -28t28.5 -66q0 -39 -28.5 -67.5t-66.5 -28.5q-41 0 -67.5 28t-26.5 68zM362 1837q0 39 28 66.5t67 27.5q40 0 68 -28t28 -66q0 -40 -28 -68t-68 -28t-67.5 28t-27.5 68zM342 0h-119v1434h119v-1434z" />
    <glyph glyph-name="Upsilondieresis" unicode="&#x3ab;" horiz-adv-x="1263" 
d="M360 1837q0 39 27 66.5t68 27.5q38 0 66 -28t28 -66q0 -40 -28 -68t-66 -28q-41 0 -68 28t-27 68zM713 1837q0 39 27.5 66.5t66.5 27.5q40 0 68 -28t28 -66q0 -40 -28 -68t-68 -28t-67 28t-27 68zM690 0h-119v573l-559 861h146l473 -729l475 729h143l-559 -861v-573z" />
    <glyph glyph-name="alphatonos" unicode="&#x3ac;" horiz-adv-x="1353" 
d="M668 1245h-97l97 309h114zM1055 0l-8 242q-17 -32 -40 -64t-62.5 -69.5t-86.5 -65.5t-114 -47t-142 -19q-141 0 -259 75t-184.5 201.5t-66.5 274.5t66.5 274.5t184.5 201.5t259 75q68 0 131 -18t107 -44t83.5 -62t62 -64.5t42.5 -59.5l6 226h113v-1057h-92zM623 90
q113 0 207.5 61t147 161.5t52.5 215.5t-52.5 215t-147 161t-207.5 61q-176 0 -294 -127t-118 -310q0 -184 118 -311t294 -127z" />
    <glyph glyph-name="epsilontonos" unicode="&#x3ad;" horiz-adv-x="1028" 
d="M561 1245h-96l96 309h115zM309 543v2q-74 19 -122 78t-48 157q0 138 103 218.5t280 80.5q236 0 404 -145l-76 -88q-134 119 -320 119q-133 0 -202.5 -52.5t-69.5 -138.5q0 -180 213 -180h260v-109h-260q-118 0 -185 -49t-67 -139q0 -100 76.5 -153.5t228.5 -53.5
q87 0 178.5 29t159.5 92l74 -86q-72 -70 -186.5 -109t-225.5 -39q-210 0 -317 82t-107 228q0 60 20.5 108t53.5 77t66.5 46t68.5 25z" />
    <glyph glyph-name="etatonos" unicode="&#x3ae;" horiz-adv-x="1273" 
d="M678 1245h-96l96 309h115zM326 0h-119v1057h92l12 -240q13 38 41 79.5t73 84.5t114.5 70.5t150.5 27.5q82 0 152 -27t125 -80.5t86.5 -142t31.5 -202.5v-1020h-116v995q0 186 -84.5 274.5t-225.5 88.5q-144 0 -238.5 -116t-94.5 -274v-575z" />
    <glyph glyph-name="iotatonos" unicode="&#x3af;" horiz-adv-x="534" 
d="M309 1245h-96l96 309h115zM326 0h-117v1057h117v-1057z" />
    <glyph glyph-name="upsilondieresistonos" unicode="&#x3b0;" horiz-adv-x="1220" 
d="M588 1208h-90l102 346h105zM762 1460q0 37 25 63.5t63 26.5t64 -26.5t26 -63.5t-26 -63.5t-64 -26.5t-63 26.5t-25 63.5zM289 1460q0 37 25 63.5t63 26.5t64 -26.5t26 -63.5t-26 -63.5t-64 -26.5t-63 26.5t-25 63.5zM186 430v627h119v-619q0 -174 81.5 -261t223.5 -87
t223.5 87t81.5 261v619h117v-627q0 -220 -115 -336.5t-307 -116.5t-308 117t-116 336z" />
    <glyph glyph-name="alpha" unicode="&#x3b1;" horiz-adv-x="1363" 
d="M1063 0l-8 242q-17 -32 -40 -64t-62.5 -69.5t-86.5 -65.5t-114 -47t-142 -19q-141 0 -259 75t-184.5 201.5t-66.5 274.5t66.5 274.5t184.5 201.5t259 75q68 0 131 -18t107 -44t83.5 -62t62 -64.5t42.5 -59.5l6 226h113v-1057h-92zM631 90q113 0 207.5 61t147 161.5
t52.5 215.5t-52.5 215t-147 161t-207.5 61q-176 0 -294 -127t-118 -310q0 -184 118 -311t294 -127z" />
    <glyph glyph-name="beta" unicode="&#x3b2;" horiz-adv-x="1292" 
d="M326 -393h-117v1532q0 192 129.5 304.5t323.5 112.5q195 0 324.5 -112.5t129.5 -304.5q0 -75 -21.5 -138.5t-57.5 -105t-75 -68.5t-81 -39v-2q34 -11 69.5 -29t80 -54.5t78.5 -81.5t57.5 -114.5t23.5 -150.5q0 -92 -31.5 -165.5t-86 -119.5t-124 -70t-147.5 -24
q-255 0 -475 170v-540zM326 1126v-852q101 -82 223 -133t250 -51q117 0 194.5 67t77.5 193q0 91 -33.5 164.5t-89.5 119.5t-126.5 70.5t-147.5 24.5h-150v111h158q87 0 151.5 26.5t98.5 70.5t49.5 91t15.5 98q0 144 -90 230t-245 86q-154 0 -245 -86.5t-91 -229.5z" />
    <glyph glyph-name="gamma" unicode="&#x3b3;" horiz-adv-x="1048" 
d="M584 -393h-117v393l-436 1057h127l364 -901h4l367 901h127l-436 -1057v-393z" />
    <glyph glyph-name="delta" unicode="&#x3b4;" horiz-adv-x="1265" 
d="M100 504q0 227 151.5 375.5t381.5 148.5q55 0 96 -8q-44 35 -90 67l-477 357v98h936v-115h-723l452 -342q336 -249 336 -581q0 -228 -150.5 -377.5t-379.5 -149.5q-231 0 -382 149.5t-151 377.5zM633 90q180 0 295.5 115.5t115.5 298.5q0 181 -115.5 296t-295.5 115
q-181 0 -297.5 -115t-116.5 -296q0 -182 116.5 -298t297.5 -116z" />
    <glyph glyph-name="epsilon" unicode="&#x3b5;" horiz-adv-x="1036" 
d="M319 543v2q-74 19 -121.5 78t-47.5 157q0 138 102.5 218.5t279.5 80.5q236 0 404 -145l-76 -88q-134 119 -319 119q-133 0 -203 -53t-70 -138q0 -180 213 -180h260v-109h-260q-118 0 -185 -49t-67 -139q0 -100 77 -153.5t229 -53.5q87 0 178 29t159 92l74 -86
q-72 -70 -186.5 -109t-224.5 -39q-210 0 -317 82t-107 228q0 60 20 108t53 77t66.5 46t68.5 25z" />
    <glyph glyph-name="zeta" unicode="&#x3b6;" horiz-adv-x="1105" 
d="M991 -299h-117l27 168q9 70 -19 100.5t-102 30.5h-248q-193 0 -309.5 95t-116.5 286q0 129 57.5 237t176.5 234l545 582h-717v108h879v-94l-558 -596q-159 -166 -211.5 -259t-52.5 -210q0 -143 83 -208.5t224 -65.5h256q124 0 185 -61.5t43 -184.5z" />
    <glyph glyph-name="eta" unicode="&#x3b7;" horiz-adv-x="1273" 
d="M326 0h-119v1057h92l12 -240q13 38 41 79.5t73 84.5t114.5 70.5t150.5 27.5q82 0 152 -27t125 -80.5t86.5 -142t31.5 -202.5v-1020h-116v995q0 186 -84.5 274.5t-225.5 88.5q-144 0 -238.5 -116t-94.5 -274v-575z" />
    <glyph glyph-name="theta" unicode="&#x3b8;" horiz-adv-x="1380" 
d="M690 -23q-113 0 -206.5 43.5t-157.5 118t-108 176t-64.5 216t-20.5 239.5q0 104 14.5 201t43.5 186.5t75.5 163.5t107 128.5t141.5 85t175 30.5t175 -30.5t141.5 -85t107 -128.5t75.5 -163.5t43.5 -186.5t14.5 -201q0 -125 -20.5 -239.5t-64.5 -216t-108 -176
t-157.5 -118t-206.5 -43.5zM254 827h870q-4 93 -20 179t-49.5 169t-81.5 143t-121 97t-162 37t-162.5 -37t-121.5 -97.5t-82 -143t-50 -168.5t-20 -179zM1124 713h-870q3 -77 15 -149.5t34 -143.5t57 -130t81 -104.5t110 -70.5t139 -25q111 0 195.5 54.5t133.5 147
t74.5 197.5t30.5 224z" />
    <glyph glyph-name="iota" unicode="&#x3b9;" horiz-adv-x="534" 
d="M326 0h-117v1057h117v-1057z" />
    <glyph glyph-name="kappa" unicode="&#x3ba;" horiz-adv-x="1122" 
d="M326 0h-119v1057h119v-541l551 541h159l-452 -443l479 -614h-143l-416 535l-178 -179v-356z" />
    <glyph glyph-name="lambda" unicode="&#x3bb;" horiz-adv-x="1028" 
d="M145 0h-125l433 1047l-203 495h125l635 -1542h-127l-367 901h-2z" />
    <glyph glyph-name="uni03BC" unicode="&#x3bc;" horiz-adv-x="1288" 
d="M326 -393h-117v1450h117v-613q0 -354 301 -354q144 0 240 116.5t96 274.5v576h118v-1057h-92l-12 225q-10 -29 -29 -60t-52.5 -65.5t-75 -61t-100.5 -44t-124 -17.5q-179 0 -270 113v-483z" />
    <glyph glyph-name="nu" unicode="&#x3bd;" horiz-adv-x="1050" 
d="M586 0h-119l-436 1057h127l366 -901h4l367 901h125z" />
    <glyph glyph-name="xi" unicode="&#x3be;" horiz-adv-x="1114" 
d="M993 -299h-116l24 168q10 70 -18 100.5t-101 30.5h-221q-73 0 -138.5 15t-121.5 47t-97 78.5t-64 114.5t-23 151t28 152.5t75 114.5t102.5 73t117.5 38v2q-94 23 -167.5 112t-73.5 226q0 197 161 310h-229v108h873v-108h-361q-142 0 -234 -84t-92 -215q0 -135 89 -216
t237 -81h303v-109h-309q-171 0 -286 -84t-115 -225q0 -156 94.5 -233.5t265.5 -77.5h201q122 0 180.5 -61.5t40.5 -184.5z" />
    <glyph glyph-name="omicron" unicode="&#x3bf;" horiz-adv-x="1286" 
d="M100 526q0 113 42 215t114 176t172.5 118t212.5 44q113 0 214 -44t173 -118t114 -176t42 -215q0 -112 -42 -213.5t-114 -175t-173 -117t-214 -43.5q-150 0 -274.5 73.5t-195.5 199.5t-71 276zM641 90q179 0 301.5 127t122.5 309q0 184 -122.5 311.5t-301.5 127.5
t-300.5 -127.5t-121.5 -311.5q0 -183 121.5 -309.5t300.5 -126.5z" />
    <glyph glyph-name="pi" unicode="&#x3c0;" horiz-adv-x="1263" 
d="M326 948v-948h-117v1057h846v-1057h-119v948h-610z" />
    <glyph glyph-name="rho" unicode="&#x3c1;" horiz-adv-x="1316" 
d="M279 -393h-117v923q0 110 39.5 210t108 175t168 119.5t212.5 44.5q145 0 266 -75t189.5 -201.5t68.5 -274.5t-66.5 -274.5t-184 -201.5t-258.5 -75q-265 0 -426 248v-618zM684 90q177 0 294.5 126.5t117.5 311.5q0 183 -117.5 310t-294.5 127q-169 0 -287 -128t-118 -309
q0 -113 52.5 -213.5t146.5 -162.5t206 -62z" />
    <glyph glyph-name="uni03C2" unicode="&#x3c2;" horiz-adv-x="1124" 
d="M989 -299h-117l27 168q10 70 -18 100.5t-101 30.5h-141q-148 0 -271.5 68.5t-195.5 189.5t-72 268t71.5 274.5t196 203t271.5 75.5q223 0 387 -170l-84 -82q-118 138 -303 138q-177 0 -298.5 -128t-121.5 -311q0 -180 121 -298.5t299 -118.5h154q123 0 181 -61.5
t40 -184.5z" />
    <glyph glyph-name="sigma" unicode="&#x3c3;" horiz-adv-x="1294" 
d="M1288 948h-334q106 -70 168 -179t62 -243q0 -150 -71 -276t-195.5 -199.5t-274.5 -73.5q-113 0 -214 43.5t-173 117t-114 175t-42 213.5q0 113 42 215t114 176t173 118t214 44q43 0 128.5 -11t121.5 -11h395v-109zM643 90q179 0 300.5 126.5t121.5 309.5
q0 184 -120 311.5t-302 127.5q-179 0 -301.5 -127.5t-122.5 -311.5q0 -182 122.5 -309t301.5 -127z" />
    <glyph glyph-name="tau" unicode="&#x3c4;" horiz-adv-x="970" 
d="M332 948h-312v58l86 51h771v-109h-428v-626q0 -232 188 -232q92 0 188 45l43 -102q-101 -56 -229 -56q-153 0 -230 88t-77 257v626z" />
    <glyph glyph-name="upsilon" unicode="&#x3c5;" horiz-adv-x="1220" 
d="M186 430v627h119v-619q0 -174 81.5 -261t223.5 -87t223.5 87t81.5 261v619h117v-627q0 -220 -115 -336.5t-307 -116.5t-308 117t-116 336z" />
    <glyph glyph-name="phi" unicode="&#x3c6;" horiz-adv-x="1478" 
d="M100 526q0 113 40.5 212.5t114 174t183.5 119t242 47.5v217h119v-217q131 -3 240.5 -47.5t182.5 -119t113.5 -174t40.5 -212.5q0 -112 -40.5 -211t-113.5 -173.5t-182.5 -118.5t-240.5 -46v-370h-119v370q-132 2 -242 46t-183.5 118.5t-114 173.5t-40.5 211zM219 526
q0 -89 31.5 -167.5t89 -137.5t145.5 -94t195 -37v875q-107 -2 -195 -37t-145.5 -94.5t-89 -138.5t-31.5 -169zM799 965v-875q142 3 247 62.5t158 156.5t53 217q0 121 -53 218.5t-158 157.5t-247 63z" />
    <glyph glyph-name="chi" unicode="&#x3c7;" horiz-adv-x="1054" 
d="M174 -393h-129l410 743l-406 707h129l348 -606l348 606h130l-404 -707l408 -743h-129l-353 641z" />
    <glyph glyph-name="psi" unicode="&#x3c8;" horiz-adv-x="1533" 
d="M827 -393h-118v373q-243 17 -385 160.5t-142 361.5v555h117v-555q0 -171 109 -283t301 -127v1450h118v-1450q191 17 299.5 128t108.5 282v555h117v-555q0 -218 -141 -361.5t-384 -160.5v-373z" />
    <glyph glyph-name="omega" unicode="&#x3c9;" horiz-adv-x="1832" 
d="M918 266h-5q-10 -44 -23.5 -80t-40.5 -77t-64 -68t-96 -45.5t-134 -18.5q-141 0 -246 71.5t-157 190t-52 265.5q0 245 150 404.5t375 170.5l32 -112q-192 0 -315 -131t-123 -332q0 -86 21 -160t62 -131t108 -90t153 -33q295 0 295 414v252h117v-252q0 -70 8 -128
t28 -112.5t53 -91.5t85 -59.5t121 -22.5q112 0 191 57.5t115 149t36 207.5q0 201 -122 332t-314 131l30 112q226 -11 375.5 -170.5t149.5 -404.5q0 -147 -52 -265.5t-157 -190t-246 -71.5q-74 0 -133 18.5t-95.5 45.5t-64 68t-41 76.5t-24.5 80.5z" />
    <glyph glyph-name="iotadieresis" unicode="&#x3ca;" horiz-adv-x="534" 
d="M16 1456q0 40 27.5 68t67.5 28t68 -28t28 -68q0 -38 -28 -66t-68 -28q-39 0 -67 28t-28 66zM330 1456q0 40 27 68t67 28t68 -28t28 -68q0 -38 -28 -66t-68 -28q-39 0 -66.5 27.5t-27.5 66.5zM326 0h-117v1057h117v-1057z" />
    <glyph glyph-name="upsilondieresis" unicode="&#x3cb;" horiz-adv-x="1220" 
d="M338 1458q0 39 26.5 66.5t67.5 27.5q38 0 66 -28t28 -66q0 -40 -28 -68t-66 -28q-41 0 -67.5 28t-26.5 68zM690 1458q0 39 27.5 66.5t66.5 27.5q40 0 68.5 -28t28.5 -66q0 -40 -28.5 -68t-68.5 -28t-67 28t-27 68zM186 430v627h119v-619q0 -174 81.5 -261t223.5 -87
t223.5 87t81.5 261v619h117v-627q0 -220 -115 -336.5t-307 -116.5t-308 117t-116 336z" />
    <glyph glyph-name="omicrontonos" unicode="&#x3cc;" horiz-adv-x="1286" 
d="M668 1245h-97l97 309h114zM100 526q0 113 42 215t114 176t172.5 118t212.5 44q113 0 214 -44t173 -118t114 -176t42 -215q0 -112 -42 -213.5t-114 -175t-173 -117t-214 -43.5q-150 0 -274.5 73.5t-195.5 199.5t-71 276zM641 90q179 0 301.5 127t122.5 309
q0 184 -122.5 311.5t-301.5 127.5t-300.5 -127.5t-121.5 -311.5q0 -183 121.5 -309.5t300.5 -126.5z" />
    <glyph glyph-name="upsilontonos" unicode="&#x3cd;" horiz-adv-x="1220" 
d="M623 1245h-97l97 309h114zM186 430v627h119v-619q0 -174 81.5 -261t223.5 -87t223.5 87t81.5 261v619h117v-627q0 -220 -115 -336.5t-307 -116.5t-308 117t-116 336z" />
    <glyph glyph-name="omegatonos" unicode="&#x3ce;" horiz-adv-x="1832" 
d="M918 1245h-97l97 309h114zM918 266h-5q-10 -44 -23.5 -80t-40.5 -77t-64 -68t-96 -45.5t-134 -18.5q-141 0 -246 71.5t-157 190t-52 265.5q0 245 150 404.5t375 170.5l32 -112q-192 0 -315 -131t-123 -332q0 -86 21 -160t62 -131t108 -90t153 -33q295 0 295 414v252h117
v-252q0 -70 8 -128t28 -112.5t53 -91.5t85 -59.5t121 -22.5q112 0 191 57.5t115 149t36 207.5q0 201 -122 332t-314 131l30 112q226 -11 375.5 -170.5t149.5 -404.5q0 -147 -52 -265.5t-157 -190t-246 -71.5q-74 0 -133 18.5t-95.5 45.5t-64 68t-41 76.5t-24.5 80.5z" />
    <glyph glyph-name="uni0400" unicode="&#x400;" horiz-adv-x="1331" 
d="M793 1616h-115l-207 309h117zM1194 0h-971v1434h959v-115h-840v-537h801v-114h-801v-553h852v-115z" />
    <glyph glyph-name="uni0401" unicode="&#x401;" horiz-adv-x="1331" 
d="M430 1837q0 39 26.5 66.5t67.5 27.5q38 0 66 -28t28 -66q0 -40 -28 -68t-66 -28q-41 0 -67.5 28t-26.5 68zM782 1837q0 39 28 66.5t67 27.5q40 0 68 -28t28 -66q0 -40 -28 -68t-68 -28t-67.5 28t-27.5 68zM1194 0h-971v1434h959v-115h-840v-537h801v-114h-801v-553h852
v-115z" />
    <glyph glyph-name="uni0402" unicode="&#x402;" horiz-adv-x="1558" 
d="M659 0h-118v1319h-500v115h1116v-115h-498v-506q72 45 166.5 75t190.5 30q185 0 280 -96t95 -304v-229q0 -144 -67 -228t-198 -84q-102 0 -211 56l43 98q87 -41 166 -41q148 0 148 199v209q0 161 -62 233t-209 72q-172 0 -342 -113v-690z" />
    <glyph glyph-name="uni0403" unicode="&#x403;" horiz-adv-x="1138" 
d="M688 1616h-117l207 309h115zM342 0h-119v1434h873v-115h-754v-1319z" />
    <glyph glyph-name="uni0404" unicode="&#x404;" horiz-adv-x="1484" 
d="M1309 303l80 -88q-98 -112 -244.5 -177t-300.5 -65q-151 0 -287 58.5t-233.5 158t-155 237t-57.5 290.5t57.5 290.5t155 236.5t233.5 157.5t287 58.5q156 0 301 -64.5t248 -176.5l-86 -91q-80 94 -200 156t-263 62q-120 0 -228.5 -45.5t-188.5 -122.5t-131.5 -182
t-62.5 -222h936v-115h-936q11 -116 62.5 -221t131.5 -182t188.5 -122.5t228.5 -45.5q144 0 261.5 59t203.5 156z" />
    <glyph glyph-name="uni0405" unicode="&#x405;" horiz-adv-x="1333" 
d="M125 147l68 105q113 -78 239 -121t246 -43q190 0 299.5 82.5t109.5 222.5q0 41 -12 74.5t-30.5 58t-50 45t-61.5 33.5t-75.5 24.5t-80.5 18.5t-87 15q-188 32 -220 39q-179 42 -249 135q-59 79 -59 206q0 187 142.5 302.5t365.5 115.5q140 0 252.5 -31.5t244.5 -111.5
l-61 -105q-115 71 -218.5 102.5t-213.5 31.5q-178 0 -285.5 -81t-107.5 -223q0 -56 23 -97.5t46.5 -64.5t88.5 -42.5t94.5 -25t119.5 -18.5q8 -2 12.5 -2.5t11.5 -1.5t13 -2q49 -7 83 -13t81 -16.5t79.5 -21t72.5 -28t66.5 -37t54 -47.5t43.5 -60.5t26 -75.5t10 -92
q0 -192 -142.5 -308t-379.5 -116q-315 0 -559 174z" />
    <glyph glyph-name="uni0406" unicode="&#x406;" horiz-adv-x="565" 
d="M342 0h-119v1434h119v-1434z" />
    <glyph glyph-name="uni0407" unicode="&#x407;" horiz-adv-x="573" 
d="M16 1837q0 39 27 66.5t68 27.5q38 0 66 -28t28 -66q0 -40 -28 -68t-66 -28q-41 0 -68 28t-27 68zM369 1837q0 39 27.5 66.5t66.5 27.5q40 0 68 -28t28 -66q0 -40 -28 -68t-68 -28t-67 28t-27 68zM346 0h-119v1434h119v-1434z" />
    <glyph glyph-name="uni0408" unicode="&#x408;" horiz-adv-x="999" 
d="M80 37l45 106q108 -55 242 -55q147 0 228 101.5t81 314.5v815h-438v115h557v-932q0 -249 -110.5 -389t-311.5 -140q-78 0 -158 17.5t-135 46.5z" />
    <glyph glyph-name="uni0409" unicode="&#x409;" horiz-adv-x="2156" 
d="M51 6l-2 113q63 -31 141 -31q89 0 125.5 73t36.5 234v1039h842v-531h383q78 0 148 -15t133.5 -49.5t109.5 -86t73 -129t27 -174.5t-27 -174t-73 -127.5t-109.5 -84.5t-133.5 -48.5t-148 -14.5h-502v1319h-604v-924q0 -422 -268 -422q-85 0 -152 33zM1194 788v-673h369
q387 0 387 334q0 54 -9.5 99.5t-36 91t-68.5 77.5t-112 51.5t-161 19.5h-369z" />
    <glyph glyph-name="uni040A" unicode="&#x40a;" horiz-adv-x="2215" 
d="M342 0h-119v1434h119v-605h809v605h119v-605h368q492 0 492 -413q0 -416 -492 -416h-487v715h-809v-715zM1270 715v-600h352q114 0 192.5 23t119.5 66t58 94t17 118q0 52 -10 94t-36 81.5t-68.5 66t-111.5 42t-161 15.5h-352z" />
    <glyph glyph-name="uni040B" unicode="&#x40b;" horiz-adv-x="1572" 
d="M659 0h-118v1319h-500v115h1116v-115h-498v-512q73 44 173.5 77.5t183.5 33.5q190 0 282.5 -93t92.5 -307v-518h-119v498q0 74 -9.5 124t-37 94t-83 65.5t-141.5 21.5q-83 0 -176.5 -31.5t-165.5 -79.5v-692z" />
    <glyph glyph-name="uni040C" unicode="&#x40c;" 
d="M717 1616h-117l207 309h115zM342 0h-119v1434h119v-736l717 736h164l-582 -598l629 -836h-148l-565 750l-215 -222v-528z" />
    <glyph glyph-name="uni040D" unicode="&#x40d;" horiz-adv-x="1591" 
d="M874 1616h-114l-207 309h117zM336 0h-113v1434h119v-1225h2l916 1225h108v-1434h-119v1219h-2z" />
    <glyph glyph-name="uni040E" unicode="&#x40e;" horiz-adv-x="1196" 
d="M313 1870l93 45q41 -101 82.5 -145t127.5 -44q45 0 78 12t57.5 40.5t40 57t37.5 79.5l91 -45q-44 -120 -114 -184t-190 -64q-119 0 -189 64t-114 184zM174 2v115q66 -29 141 -29q68 0 106 37t81 131l47 106l-483 1072h129l419 -930l416 930h129l-526 -1180
q-67 -149 -134 -215t-165 -66q-75 0 -160 29z" />
    <glyph glyph-name="uni040F" unicode="&#x40f;" horiz-adv-x="1562" 
d="M723 0h-500v1434h119v-1319h879v1319h118v-1434h-497v-299h-119v299z" />
    <glyph glyph-name="uni0410" unicode="&#x410;" horiz-adv-x="1437" 
d="M164 0h-133l639 1434h98l639 -1434h-135l-170 381h-768zM717 1239l-330 -737h662l-330 737h-2z" />
    <glyph glyph-name="uni0411" unicode="&#x411;" horiz-adv-x="1329" 
d="M725 0h-502v1434h897v-115h-778v-416h383q78 0 148 -15t134 -49.5t110 -86t73 -129t27 -174.5t-27 -174t-73 -127.5t-110 -84.5t-134 -48.5t-148 -14.5zM342 788v-673h369q91 0 160 19.5t111 50.5t68.5 76t36 90t9.5 98q0 54 -9.5 99.5t-36 91t-68.5 77.5t-111 51.5
t-160 19.5h-369z" />
    <glyph glyph-name="uni0412" unicode="&#x412;" horiz-adv-x="1392" 
d="M782 0h-559v1434h508q73 0 141.5 -12t134.5 -40.5t114.5 -71.5t78 -109.5t29.5 -149.5q0 -52 -12 -97t-34 -77.5t-46.5 -58t-54.5 -43.5t-54 -28.5t-49 -17.5v-2q30 -7 60 -18.5t76.5 -39.5t80.5 -64t59 -96.5t25 -133.5q0 -97 -39.5 -170.5t-109 -117.5t-157.5 -65.5
t-192 -21.5zM342 1319v-537h438q146 0 237 66.5t91 195.5q0 140 -102.5 207.5t-284.5 67.5h-379zM342 668v-553h428q198 0 293.5 69.5t95.5 196.5q0 133 -103 210t-263 77h-451z" />
    <glyph glyph-name="uni0413" unicode="&#x413;" horiz-adv-x="1157" 
d="M342 0h-119v1434h893v-115h-774v-1319z" />
    <glyph glyph-name="uni0414" unicode="&#x414;" horiz-adv-x="1519" 
d="M209 -299h-119v414h90q176 171 176 387v932h891v-1319h183v-414h-119v299h-1102v-299zM326 115h802v1204h-653v-811q0 -117 -40 -219.5t-109 -173.5z" />
    <glyph glyph-name="uni0415" unicode="&#x415;" horiz-adv-x="1331" 
d="M1194 0h-971v1434h959v-115h-840v-537h801v-114h-801v-553h852v-115z" />
    <glyph glyph-name="uni0416" unicode="&#x416;" horiz-adv-x="1980" 
d="M223 0h-164l758 750l-708 684h163l658 -631v631h119v-631l657 631h166l-711 -684l758 -750h-162l-708 700v-700h-119v700z" />
    <glyph glyph-name="uni0417" unicode="&#x417;" horiz-adv-x="1265" 
d="M88 188l76 88q93 -96 212.5 -142t244.5 -46q202 0 307.5 79.5t105.5 217.5q0 131 -103 210t-263 79h-314v110h322q70 0 126 16.5t90.5 43t57.5 62t32 70.5t9 71q0 93 -50 162.5t-129 103t-173 33.5q-110 0 -225 -43.5t-213 -141.5l-76 86q95 100 234 156.5t280 56.5
q88 0 171 -26t150.5 -74t108.5 -126t41 -173q0 -72 -21.5 -131.5t-58 -98t-75.5 -62.5t-81 -36v-2q44 -10 89.5 -34t90 -64.5t73 -107t28.5 -146.5q0 -191 -142.5 -298.5t-391.5 -107.5q-155 0 -296 56.5t-237 158.5z" />
    <glyph glyph-name="uni0418" unicode="&#x418;" horiz-adv-x="1591" 
d="M336 0h-113v1434h119v-1225h2l916 1225h108v-1434h-119v1219h-2z" />
    <glyph glyph-name="uni0419" unicode="&#x419;" horiz-adv-x="1591" 
d="M494 1870l92 45q41 -101 83 -145t128 -44q45 0 78 12t57.5 40.5t40 57t37.5 79.5l90 -45q-44 -120 -114 -184t-189 -64t-189 64t-114 184zM336 0h-113v1434h119v-1225h2l916 1225h108v-1434h-119v1219h-2z" />
    <glyph glyph-name="uni041A" unicode="&#x41a;" 
d="M342 0h-119v1434h119v-736l717 736h164l-582 -598l629 -836h-148l-565 750l-215 -222v-528z" />
    <glyph glyph-name="uni041B" unicode="&#x41b;" horiz-adv-x="1417" 
d="M51 6l-2 115q67 -33 141 -33q89 0 125.5 73.5t36.5 233.5v1039h842v-1434h-119v1319l-604 2v-926q0 -422 -268 -422q-85 0 -152 33z" />
    <glyph glyph-name="uni041C" unicode="&#x41c;" horiz-adv-x="1800" 
d="M342 0h-119v1434h119l555 -920h6l553 920h121v-1434h-119v1202h-2l-543 -899h-26l-543 899h-2v-1202z" />
    <glyph glyph-name="uni041D" unicode="&#x41d;" horiz-adv-x="1546" 
d="M342 0h-119v1434h119v-652h864v652h119v-1434h-119v668h-864v-668z" />
    <glyph glyph-name="uni041E" unicode="&#x41e;" horiz-adv-x="1687" 
d="M844 -27q-151 0 -286.5 58.5t-233 158t-154.5 237t-57 290.5t57 290.5t154.5 236.5t233 157.5t286.5 58.5t287 -58.5t233.5 -157.5t155 -236.5t57.5 -290.5t-57.5 -290.5t-155 -237t-233.5 -158t-287 -58.5zM844 88q169 0 310.5 86t221.5 230.5t80 312.5t-80 312.5
t-221.5 230.5t-310.5 86q-126 0 -240.5 -51t-195.5 -136t-129 -200.5t-48 -241.5t48 -241.5t129 -200.5t195.5 -136t240.5 -51z" />
    <glyph glyph-name="uni041F" unicode="&#x41f;" horiz-adv-x="1531" 
d="M342 0h-119v1434h1086v-1434h-119v1319h-848v-1319z" />
    <glyph glyph-name="uni0420" unicode="&#x420;" horiz-adv-x="1304" 
d="M342 0h-119v1434h502q78 0 148 -14.5t134 -48.5t110 -84.5t73 -127.5t27 -174q0 -120 -41 -210.5t-111.5 -142.5t-155.5 -77t-184 -25h-383v-530zM342 1319v-674h367q91 0 161 20t112 51.5t68.5 77.5t36 91.5t9.5 99.5q0 334 -387 334h-367z" />
    <glyph glyph-name="uni0421" unicode="&#x421;" horiz-adv-x="1484" 
d="M1309 303l80 -88q-98 -112 -244.5 -177t-300.5 -65q-151 0 -287 58.5t-233.5 158t-155 237t-57.5 290.5t57.5 290.5t155 236.5t233.5 157.5t287 58.5q156 0 301 -64.5t248 -176.5l-86 -91q-80 94 -200 156t-263 62q-126 0 -240.5 -51t-195.5 -136t-129 -200.5t-48 -241.5
t48 -241.5t129 -200.5t195.5 -136t240.5 -51q144 0 261.5 59t203.5 156z" />
    <glyph glyph-name="uni0422" unicode="&#x422;" horiz-adv-x="1198" 
d="M659 0h-118v1319h-500v115h1116v-115h-498v-1319z" />
    <glyph glyph-name="uni0423" unicode="&#x423;" horiz-adv-x="1196" 
d="M174 2v115q66 -29 141 -29q68 0 106 37t81 131l47 106l-483 1072h129l419 -930l416 930h129l-526 -1180q-67 -149 -134 -215t-165 -66q-75 0 -160 29z" />
    <glyph glyph-name="uni0424" unicode="&#x424;" horiz-adv-x="1660" 
d="M106 735q0 116 35 211.5t96 162t145.5 113t182 69t207.5 24.5v155h119v-155q109 -2 206.5 -24.5t182 -69t145.5 -113t96 -162t35 -211.5q0 -115 -35 -210t-96 -161t-145.5 -111.5t-181.5 -67t-207 -23.5v-199h-119v199q-110 2 -207.5 23.5t-182 67t-145.5 111.5
t-96 160.5t-35 210.5zM225 735q0 -95 28.5 -171.5t78 -128.5t119.5 -88t150 -52.5t171 -18.5v924q-115 -2 -211.5 -30.5t-173 -83t-119.5 -144.5t-43 -207zM891 1200v-924q115 2 210.5 29t172 80.5t119.5 142.5t43 207q0 117 -43 207t-119.5 144.5t-172.5 83t-210 30.5z" />
    <glyph glyph-name="uni0425" unicode="&#x425;" horiz-adv-x="1423" 
d="M217 0h-156l582 715l-580 719h156l494 -611l491 611h156l-580 -719l584 -715h-156l-495 606z" />
    <glyph glyph-name="uni0426" unicode="&#x426;" horiz-adv-x="1581" 
d="M1370 0h-1147v1434h119v-1319h848v1319h119v-1319h180v-414h-119v299z" />
    <glyph glyph-name="uni0427" unicode="&#x427;" horiz-adv-x="1452" 
d="M1229 0h-119v594q-212 -25 -500 -25q-71 0 -132 14t-116.5 47t-94.5 83.5t-62 129.5t-23 179v412h119v-412q0 -75 14.5 -132t49.5 -105.5t100.5 -74.5t159.5 -26q290 0 485 25v725h119v-1434z" />
    <glyph glyph-name="uni0428" unicode="&#x428;" horiz-adv-x="1800" 
d="M1577 0h-1354v1434h119v-1319h500v1319h119v-1319h497v1319h119v-1434z" />
    <glyph glyph-name="uni0429" unicode="&#x429;" horiz-adv-x="1849" 
d="M1640 0h-1417v1434h119v-1319h500v1319h119v-1319h497v1319h119v-1319h182v-414h-119v299z" />
    <glyph glyph-name="uni042A" unicode="&#x42a;" horiz-adv-x="1490" 
d="M913 0h-501v1319h-371v115h489v-531h383q78 0 148 -15t134 -49.5t110 -86t73 -129t27 -174.5t-27 -174t-73 -127.5t-110 -84.5t-134 -48.5t-148 -14.5zM530 788v-673h367q387 0 387 334q0 54 -9.5 99.5t-36 91t-68.5 77.5t-112 51.5t-161 19.5h-367z" />
    <glyph glyph-name="uni042B" unicode="&#x42b;" horiz-adv-x="1804" 
d="M1581 0h-119v1434h119v-1434zM725 0h-502v1434h119v-531h383q78 0 148 -15t134 -49.5t110 -86t73 -129t27 -174.5t-27 -174t-73 -127.5t-110 -84.5t-134 -48.5t-148 -14.5zM342 788v-673h369q91 0 160 19.5t111 50.5t68.5 76t36 90t9.5 98q0 54 -9.5 99.5t-36 91
t-68.5 77.5t-111 51.5t-160 19.5h-369z" />
    <glyph glyph-name="uni042C" unicode="&#x42c;" horiz-adv-x="1304" 
d="M725 0h-502v1434h119v-531h383q78 0 148 -15t134 -49.5t110 -86t73 -129t27 -174.5t-27 -174t-73 -127.5t-110 -84.5t-134 -48.5t-148 -14.5zM342 788v-673h369q91 0 160 19.5t111 50.5t68.5 76t36 90t9.5 98q0 54 -9.5 99.5t-36 91t-68.5 77.5t-111 51.5t-160 19.5h-369
z" />
    <glyph glyph-name="uni042D" unicode="&#x42d;" horiz-adv-x="1495" 
d="M96 215l80 88q87 -96 208.5 -155.5t266.5 -59.5q120 0 228.5 45.5t188.5 122.5t131.5 182t62.5 221h-936v115h936q-11 117 -62.5 222t-131.5 182t-188.5 122.5t-228.5 45.5q-145 0 -269.5 -61.5t-203.5 -156.5l-86 91q105 113 253 177t306 64q151 0 287 -58.5
t233.5 -157.5t155 -236.5t57.5 -290.5t-57.5 -290.5t-155 -237t-233.5 -158t-287 -58.5q-155 0 -306.5 65.5t-248.5 176.5z" />
    <glyph glyph-name="uni042E" unicode="&#x42e;" horiz-adv-x="2181" 
d="M1337 -27q-192 0 -355 91t-262.5 248t-113.5 347h-264v-659h-119v1434h119v-660h264q14 191 114 348t263 247.5t354 90.5q151 0 287 -58.5t234 -157.5t155.5 -236.5t57.5 -290.5q0 -204 -97.5 -375t-266 -270t-370.5 -99zM1337 88q126 0 240.5 51t195.5 136t129 200.5
t48 241.5t-48 241.5t-129 200.5t-195.5 136t-240.5 51q-168 0 -309.5 -86t-222 -230.5t-80.5 -312.5t80.5 -312.5t222 -230.5t309.5 -86z" />
    <glyph glyph-name="uni042F" unicode="&#x42f;" horiz-adv-x="1380" 
d="M1155 0h-119v668h-262l-508 -668h-147l504 668h-48q-69 0 -131.5 12.5t-119.5 41.5t-98.5 72.5t-66 109t-24.5 147.5q0 87 25.5 154.5t67.5 110t100.5 69.5t118.5 38t128 11h580v-1434zM590 782h446v537h-446q-98 0 -166 -20.5t-103.5 -59.5t-50 -84t-14.5 -104
q0 -45 8.5 -82t31 -72.5t59 -60t96.5 -39.5t139 -15z" />
    <glyph glyph-name="uni0430" unicode="&#x430;" horiz-adv-x="1187" 
d="M907 0l-16 215q-51 -114 -153.5 -176t-241.5 -62q-164 0 -273.5 94t-109.5 244q0 157 118.5 240.5t309.5 83.5q166 0 342 -57q0 97 -9 160.5t-29 109t-57.5 69.5t-88.5 34t-128 10q-170 0 -342 -43l-26 110q38 15 156.5 31t224.5 16q103 0 175 -18t119.5 -53t74.5 -96.5
t37.5 -138.5t10.5 -189v-584h-94zM883 446v27q-169 59 -334 59q-146 0 -232 -56t-86 -161q0 -104 76 -164.5t201 -60.5q95 0 168.5 29.5t117.5 80.5t66.5 113.5t22.5 132.5z" />
    <glyph glyph-name="uni0431" unicode="&#x431;" horiz-adv-x="1341" 
d="M274 999v-208q61 108 180 173.5t273 65.5q221 0 366.5 -147t145.5 -377q0 -150 -71.5 -271.5t-195 -189.5t-274.5 -68t-274.5 70t-194.5 196.5t-71 284.5v471q0 228 112.5 344t345.5 146l558 70v-115q-194 -23 -543 -68q-188 -24 -272.5 -109.5t-84.5 -267.5zM698 90
q181 0 301.5 117t120.5 299q0 186 -114 299t-299 113q-120 0 -217.5 -46.5t-156.5 -136t-59 -207.5q0 -194 121 -316t303 -122z" />
    <glyph glyph-name="uni0432" unicode="&#x432;" horiz-adv-x="1171" 
d="M690 0h-481v1057h442q54 0 104.5 -9t99 -30t84 -53t57.5 -81t22 -110q0 -56 -17.5 -101t-46 -71.5t-54.5 -41.5t-54 -23v-2q26 -6 55.5 -20t67 -42.5t62 -79.5t24.5 -117q0 -95 -51 -158.5t-130.5 -90.5t-183.5 -27zM326 948v-360h329q122 0 183 44t61 138
q0 95 -72 136.5t-209 41.5h-292zM326 479v-370h327q283 0 283 178q0 95 -70 143.5t-194 48.5h-346z" />
    <glyph glyph-name="uni0433" unicode="&#x433;" horiz-adv-x="960" 
d="M326 0h-119v1057h674v-109h-555v-948z" />
    <glyph glyph-name="uni0434" unicode="&#x434;" horiz-adv-x="1284" 
d="M178 -299h-119v408h91q176 171 176 389v559h716v-948h181v-408h-117v299h-928v-299zM287 109h639v839h-484v-446q0 -116 -42.5 -218.5t-112.5 -174.5z" />
    <glyph glyph-name="uni0435" unicode="&#x435;" horiz-adv-x="1228" 
d="M1126 471h-903q19 -163 137.5 -272t282.5 -109q111 0 183.5 29t168.5 102l64 -94q-107 -79 -200.5 -114.5t-215.5 -35.5q-113 0 -214 43.5t-173 117t-114 175t-42 213.5q0 150 72 277.5t196.5 201.5t272.5 74q113 0 205.5 -44.5t153 -121t93.5 -177.5t33 -214v-51z
M223 580h787q-6 104 -50 191t-127 141.5t-190 54.5q-164 0 -282.5 -110.5t-137.5 -276.5z" />
    <glyph glyph-name="uni0436" unicode="&#x436;" horiz-adv-x="1609" 
d="M217 0h-160l561 549l-536 508h160l503 -475v475h119v-475l504 475h160l-537 -508l561 -549h-159l-529 514v-514h-119v514z" />
    <glyph glyph-name="uni0437" unicode="&#x437;" horiz-adv-x="1048" 
d="M96 127l78 86q63 -65 155 -94t181 -29q151 0 227 53.5t76 153.5q0 90 -67 139t-185 49h-287v109h289q211 0 211 180q0 86 -67.5 138.5t-200.5 52.5q-179 0 -324 -115l-73 84q76 67 183.5 106t219.5 39q177 0 279 -80.5t102 -218.5q0 -102 -47 -159t-123 -76v-2
q36 -7 69.5 -24.5t66.5 -46.5t53 -77t20 -108q0 -147 -106.5 -228.5t-319.5 -81.5q-111 0 -226.5 39.5t-183.5 110.5z" />
    <glyph glyph-name="uni0438" unicode="&#x438;" horiz-adv-x="1294" 
d="M326 0h-119v1057h119v-860h2l641 860h116v-1057h-116v856h-2z" />
    <glyph glyph-name="uni0439" unicode="&#x439;" horiz-adv-x="1294" 
d="M346 1501l92 45q21 -50 36 -79t39.5 -57t57 -40t78.5 -12t78.5 12t57 40t40 56.5t37.5 79.5l90 -45q-44 -120 -114 -184t-189 -64t-189 64t-114 184zM326 0h-119v1057h119v-860h2l641 860h116v-1057h-116v856h-2z" />
    <glyph glyph-name="uni043A" unicode="&#x43a;" horiz-adv-x="1122" 
d="M326 0h-119v1057h119v-541l551 541h159l-452 -443l479 -614h-143l-416 535l-178 -179v-356z" />
    <glyph glyph-name="uni043B" unicode="&#x43b;" horiz-adv-x="1267" 
d="M31 10l-2 111q69 -31 141 -31q89 0 125.5 73.5t36.5 233.5v660h727v-1057h-117v948h-493v-551q0 -97 -14 -171.5t-44.5 -131.5t-83.5 -87t-127 -30q-82 0 -149 33z" />
    <glyph glyph-name="uni043C" unicode="&#x43c;" horiz-adv-x="1435" 
d="M330 0h-119l-2 1057h121l389 -619l387 619h121v-1057h-119v848l-377 -600h-24l-377 600v-848z" />
    <glyph glyph-name="uni043D" unicode="&#x43d;" horiz-adv-x="1263" 
d="M326 0h-117v1057h117v-473h610v473h119v-1057h-119v475h-610v-475z" />
    <glyph glyph-name="uni043E" unicode="&#x43e;" horiz-adv-x="1286" 
d="M100 526q0 113 42 215t114 176t172.5 118t212.5 44q113 0 214 -44t173 -118t114 -176t42 -215q0 -112 -42 -213.5t-114 -175t-173 -117t-214 -43.5q-150 0 -274.5 73.5t-195.5 199.5t-71 276zM641 90q179 0 301.5 127t122.5 309q0 184 -122.5 311.5t-301.5 127.5
t-300.5 -127.5t-121.5 -311.5q0 -183 121.5 -309.5t300.5 -126.5z" />
    <glyph glyph-name="uni043F" unicode="&#x43f;" horiz-adv-x="1263" 
d="M326 0h-117v1057h846v-1057h-119v948h-610v-948z" />
    <glyph glyph-name="uni0440" unicode="&#x440;" horiz-adv-x="1363" 
d="M326 -393h-117v1450h92l6 -242q17 32 40 63.5t63 69t87 65.5t114 47t141 19q108 0 203.5 -44t162.5 -119t105.5 -176t38.5 -212t-38.5 -212t-105.5 -176t-162.5 -119t-203.5 -44q-265 0 -426 248v-618zM731 90q179 0 295.5 126.5t116.5 311.5q0 184 -116.5 310.5
t-295.5 126.5q-170 0 -287.5 -130.5t-117.5 -306.5q0 -115 52.5 -215.5t146.5 -161.5t206 -61z" />
    <glyph glyph-name="uni0441" unicode="&#x441;" horiz-adv-x="1120" 
d="M952 225l82 -82q-172 -166 -391 -166q-150 0 -274.5 73.5t-195.5 199.5t-71 276q0 113 42 215t114 176t172.5 118t212.5 44q223 0 389 -166l-80 -82q-137 134 -309 134q-179 0 -300.5 -127.5t-121.5 -311.5q0 -183 121.5 -309.5t300.5 -126.5q174 0 309 135z" />
    <glyph glyph-name="uni0442" unicode="&#x442;" horiz-adv-x="991" 
d="M555 0h-119v948h-366v109h852v-109h-367v-948z" />
    <glyph glyph-name="uni0443" unicode="&#x443;" horiz-adv-x="1048" 
d="M422 -393h-125l164 401l-430 1049h125l366 -901h4l367 901h125z" />
    <glyph glyph-name="uni0444" unicode="&#x444;" horiz-adv-x="1478" 
d="M100 526q0 113 40.5 212.5t114 174t183.5 119t242 47.5v463h119v-463q131 -3 240.5 -47.5t182.5 -119t113.5 -174t40.5 -212.5q0 -112 -40.5 -211t-113.5 -173.5t-182.5 -118.5t-240.5 -46v-370h-119v370q-132 2 -242 46t-183.5 118.5t-114 173.5t-40.5 211zM219 526
q0 -89 31.5 -167.5t89 -137.5t145.5 -94t195 -37v875q-107 -2 -195 -37t-145.5 -94.5t-89 -138.5t-31.5 -169zM799 965v-875q142 3 247 62.5t158 156.5t53 217q0 121 -53 218.5t-158 157.5t-247 63z" />
    <glyph glyph-name="uni0445" unicode="&#x445;" horiz-adv-x="1064" 
d="M193 0h-150l410 530l-406 527h150l335 -434l336 434h148l-404 -527l410 -530h-150l-340 438z" />
    <glyph glyph-name="uni0446" unicode="&#x446;" horiz-adv-x="1294" 
d="M1116 0h-907v1057h117v-948h610v948h119v-948h180v-408h-119v299z" />
    <glyph glyph-name="uni0447" unicode="&#x447;" horiz-adv-x="1196" 
d="M141 799v258h117v-254q0 -171 65 -242.5t218 -71.5q168 0 329 25v543h117v-1057h-117v399q-161 -22 -342 -22q-191 0 -289 99.5t-98 322.5z" />
    <glyph glyph-name="uni0448" unicode="&#x448;" horiz-adv-x="1648" 
d="M1442 0h-1233v1057h117v-948h440v948h117v-948h440v948h119v-1057z" />
    <glyph glyph-name="uni0449" unicode="&#x449;" horiz-adv-x="1681" 
d="M1503 0h-1294v1057h117v-948h440v948h117v-948h440v948h119v-948h178v-408h-117v299z" />
    <glyph glyph-name="uni044A" unicode="&#x44a;" horiz-adv-x="1253" 
d="M795 0h-447v948h-289v109h408v-385h328q67 0 128.5 -20.5t112.5 -59.5t82 -105.5t31 -150.5q0 -83 -31 -149.5t-82 -106t-112.5 -60t-128.5 -20.5zM467 563v-454h311q68 0 119 19t79 52t41 71.5t13 84.5t-13 84.5t-41 71.5t-79 52t-119 19h-311z" />
    <glyph glyph-name="uni044B" unicode="&#x44b;" horiz-adv-x="1579" 
d="M1370 0h-119v1057h119v-1057zM653 0h-444v1057h117v-385h327q67 0 129 -20.5t113.5 -60t82 -105.5t30.5 -150q0 -83 -30.5 -149t-82 -106t-113.5 -60.5t-129 -20.5zM326 563v-454h313q68 0 118.5 19t78 52t40.5 71.5t13 84.5t-13 84.5t-40.5 71.5t-78 52t-118.5 19h-313z
" />
    <glyph glyph-name="uni044C" unicode="&#x44c;" horiz-adv-x="1134" 
d="M674 0h-465v1057h117v-385h348q67 0 129 -20.5t113 -60t81.5 -105.5t30.5 -150q0 -83 -30.5 -149t-81.5 -106t-113 -60.5t-129 -20.5zM326 563v-454h333q68 0 118.5 19t78 52t40.5 71.5t13 84.5t-13 84.5t-40.5 71.5t-78 52t-118.5 19h-333z" />
    <glyph glyph-name="uni044D" unicode="&#x44d;" horiz-adv-x="1120" 
d="M899 473h-577v109h577q-19 165 -132 274t-275 109q-95 0 -178.5 -36.5t-141.5 -99.5l-80 80q81 84 185.5 127t214.5 43q147 0 269 -75.5t190.5 -202.5t68.5 -275t-68.5 -274t-190.5 -200.5t-269 -74.5q-113 0 -219.5 43t-182.5 127l80 78q61 -64 145 -99.5t177 -35.5
q162 0 275 109t132 274z" />
    <glyph glyph-name="uni044E" unicode="&#x44e;" horiz-adv-x="1720" 
d="M326 0h-117v1057h117v-475h213q19 211 171 354t367 143q112 0 212.5 -44t172.5 -118t114 -176t42 -215q0 -150 -71 -276t-195.5 -199.5t-274.5 -73.5q-215 0 -367 142.5t-171 353.5h-213v-473zM1077 90q179 0 300.5 126.5t121.5 309.5q0 184 -121.5 311.5t-300.5 127.5
t-301.5 -127.5t-122.5 -311.5q0 -182 122.5 -309t301.5 -127z" />
    <glyph glyph-name="uni044F" unicode="&#x44f;" horiz-adv-x="1157" 
d="M256 0h-147l309 414q-131 15 -213 93t-82 224q0 85 30 150t82 102t114.5 55.5t135.5 18.5h463v-1057h-117v410h-272zM496 518h335v430h-335q-254 0 -254 -213q0 -217 254 -217z" />
    <glyph glyph-name="uni0450" unicode="&#x450;" horiz-adv-x="1228" 
d="M711 1245h-115l-207 309h117zM1126 471h-903q19 -163 137.5 -272t282.5 -109q111 0 183.5 29t168.5 102l64 -94q-107 -79 -200.5 -114.5t-215.5 -35.5q-113 0 -214 43.5t-173 117t-114 175t-42 213.5q0 150 72 277.5t196.5 201.5t272.5 74q113 0 205.5 -44.5t153 -121
t93.5 -177.5t33 -214v-51zM223 580h787q-6 104 -50 191t-127 141.5t-190 54.5q-164 0 -282.5 -110.5t-137.5 -276.5z" />
    <glyph glyph-name="uni0451" unicode="&#x451;" horiz-adv-x="1228" 
d="M367 1458q0 39 26.5 66.5t67.5 27.5q38 0 66 -28t28 -66q0 -40 -28 -68t-66 -28q-41 0 -67.5 28t-26.5 68zM719 1458q0 39 27.5 66.5t66.5 27.5q40 0 68 -28t28 -66q0 -40 -28 -68t-68 -28t-67 28t-27 68zM1126 471h-903q19 -163 137.5 -272t282.5 -109q111 0 183.5 29
t168.5 102l64 -94q-107 -79 -200.5 -114.5t-215.5 -35.5q-113 0 -214 43.5t-173 117t-114 175t-42 213.5q0 150 72 277.5t196.5 201.5t272.5 74q113 0 205.5 -44.5t153 -121t93.5 -177.5t33 -214v-51zM223 580h787q-6 104 -50 191t-127 141.5t-190 54.5
q-164 0 -282.5 -110.5t-137.5 -276.5z" />
    <glyph glyph-name="uni0452" unicode="&#x452;" horiz-adv-x="1273" 
d="M209 1237h-178v109h178v196h117v-196h344v-109h-344v-393q11 25 28 52.5t49.5 61t71 59.5t95.5 44t120 18q82 0 152.5 -27t126 -80.5t87 -142t31.5 -202.5v-731q0 -146 -65 -229t-201 -83q-107 0 -215 54l43 100q93 -41 166 -41q154 0 154 199v706q0 186 -84.5 274.5
t-225.5 88.5q-144 0 -238.5 -116t-94.5 -274v-575h-117v1237z" />
    <glyph glyph-name="uni0453" unicode="&#x453;" horiz-adv-x="960" 
d="M582 1245h-117l207 309h114zM326 0h-119v1057h674v-109h-555v-948z" />
    <glyph glyph-name="uni0454" unicode="&#x454;" horiz-adv-x="1122" 
d="M950 225l84 -82q-172 -166 -391 -166q-113 0 -214 43.5t-173 117t-114 175t-42 213.5q0 113 42 215t114 176t173 118t214 44q224 0 387 -166l-80 -82q-134 134 -307 134q-164 0 -282.5 -109.5t-137.5 -273.5h611v-109h-611q19 -164 137.5 -273.5t282.5 -109.5
q172 0 307 135z" />
    <glyph glyph-name="uni0455" unicode="&#x455;" horiz-adv-x="1077" 
d="M106 119l60 106q192 -135 385 -135q153 0 225 56t72 145q0 87 -69 123.5t-238 60.5q-43 6 -74 11t-70.5 14t-67.5 19.5t-59.5 26t-52 36t-38 46t-26 59.5t-8.5 75q0 143 104.5 230t282.5 87q220 0 404 -123l-57 -106q-163 115 -347 115q-135 0 -202.5 -51.5t-67.5 -145.5
q0 -38 13 -65t34.5 -45t62 -31.5t83 -21.5t110.5 -17q50 -7 85 -13.5t80 -18.5t76 -26t63 -36t51.5 -49t32 -64.5t12.5 -83.5q0 -141 -109.5 -230.5t-306.5 -89.5q-242 0 -443 142z" />
    <glyph glyph-name="uni0456" unicode="&#x456;" horiz-adv-x="534" 
d="M172 1456q0 40 26.5 68t67.5 28q38 0 66 -28t28 -68q0 -38 -28 -66t-66 -28q-41 0 -67.5 27.5t-26.5 66.5zM326 0h-119v1057h119v-1057z" />
    <glyph glyph-name="uni0457" unicode="&#x457;" horiz-adv-x="534" 
d="M16 1456q0 40 27.5 68t67.5 28t68 -28t28 -68q0 -38 -28 -66t-68 -28q-39 0 -67 28t-28 66zM330 1456q0 40 27 68t67 28t68 -28t28 -68q0 -38 -28 -66t-68 -28q-39 0 -66.5 27.5t-27.5 66.5zM326 0h-117v1057h117v-1057z" />
    <glyph glyph-name="uni0458" unicode="&#x458;" horiz-adv-x="761" 
d="M389 1456q0 40 26.5 68t67.5 28q40 0 67.5 -28t27.5 -68q0 -38 -28 -66t-67 -28q-41 0 -67.5 27.5t-26.5 66.5zM-12 -367l43 107q91 -43 194 -43q117 0 164 75t47 261v915h-336v109h453v-1028q0 -226 -75 -335.5t-253 -109.5q-125 0 -237 49z" />
    <glyph glyph-name="uni0459" unicode="&#x459;" horiz-adv-x="1867" 
d="M29 10v111q66 -31 141 -31q89 0 125.5 73.5t36.5 233.5v660h727v-385h350q67 0 128 -20.5t112 -60t81.5 -105.5t30.5 -150q0 -83 -30.5 -149.5t-81.5 -106t-112.5 -60t-127.5 -20.5h-467v948h-493v-551q0 -97 -14 -171.5t-44.5 -131.5t-83.5 -87t-127 -30q-89 0 -151 33z
M1059 563v-454h334q68 0 118.5 19t78 52t40 71.5t12.5 84.5t-12.5 84.5t-40 71.5t-78 52t-118.5 19h-334z" />
    <glyph glyph-name="uni045A" unicode="&#x45a;" horiz-adv-x="1781" 
d="M326 0h-117v1057h117v-443h569v443h117v-439h307q69 0 129.5 -16t113.5 -50.5t84 -96.5t31 -146q0 -83 -31 -145t-84 -96.5t-114 -51t-129 -16.5h-424v506h-569v-506zM1012 510v-401h291q138 0 197 52.5t59 147.5t-59 148t-197 53h-291z" />
    <glyph glyph-name="uni045B" unicode="&#x45b;" horiz-adv-x="1273" 
d="M328 0h-119v1237h-178v109h178v196h119v-196h342v-109h-342v-393q10 25 27 52.5t49 61t70.5 59.5t95.5 44t120 18q83 0 153 -27t125.5 -80.5t87 -141.5t31.5 -203v-627h-116v602q0 186 -84 274.5t-225 88.5q-144 0 -239 -116t-95 -274v-575z" />
    <glyph glyph-name="uni045C" unicode="&#x45c;" horiz-adv-x="1122" 
d="M623 1245h-117l207 309h114zM326 0h-119v1057h119v-541l551 541h159l-452 -443l479 -614h-143l-416 535l-178 -179v-356z" />
    <glyph glyph-name="uni045D" unicode="&#x45d;" horiz-adv-x="1294" 
d="M729 1245h-115l-206 309h116zM326 0h-119v1057h119v-860h2l641 860h116v-1057h-116v856h-2z" />
    <glyph glyph-name="uni045E" unicode="&#x45e;" horiz-adv-x="1048" 
d="M565 1245h-116l206 309h115zM422 -393h-125l164 401l-430 1049h125l366 -901h4l367 901h125z" />
    <glyph glyph-name="uni045F" unicode="&#x45f;" horiz-adv-x="1290" 
d="M586 0h-377v1055h117v-946h639v946h116v-1055h-376v-299h-119v299z" />
    <glyph glyph-name="uni0462" unicode="&#x462;" horiz-adv-x="1398" 
d="M317 1143h-290v108h290v207h119v-207h496v-108h-496v-283h383q79 0 148 -12.5t133.5 -43.5t110 -79t73 -123.5t27.5 -171.5t-27.5 -171.5t-73 -123.5t-110 -79t-133.5 -43.5t-148 -12.5h-502v1143zM436 745v-630h369q113 0 191.5 25t119 71t57.5 98.5t17 120.5t-17 120.5
t-57.5 98.5t-119 71t-191.5 25h-369z" />
    <glyph glyph-name="uni0463" unicode="&#x463;" horiz-adv-x="1124" 
d="M666 0h-467v948h-152v109h152v485h116v-485h424v-109h-424v-276h351q67 0 128 -20.5t112 -60t81.5 -105.5t30.5 -150q0 -83 -30.5 -149.5t-81.5 -106t-112.5 -60t-127.5 -20.5zM315 563v-454h334q68 0 118.5 19t78 52t40.5 71.5t13 84.5t-13 84.5t-40.5 71.5t-78 52
t-118.5 19h-334z" />
    <glyph glyph-name="uni0472" unicode="&#x472;" horiz-adv-x="1687" 
d="M844 -27q-151 0 -287 58.5t-233.5 158t-155 237t-57.5 290.5t57.5 290.5t155 236.5t233.5 157.5t287 58.5t287 -58.5t233.5 -157.5t155 -236.5t57.5 -290.5t-57.5 -290.5t-155 -237t-233.5 -158t-287 -58.5zM236 774h1216q-13 156 -95.5 287t-218 208t-294.5 77
t-294.5 -77t-218 -208t-95.5 -287zM1452 659h-1216q12 -156 94.5 -286.5t218 -207.5t295.5 -77t295.5 77t218 207.5t94.5 286.5z" />
    <glyph glyph-name="uni0473" unicode="&#x473;" horiz-adv-x="1286" 
d="M100 526q0 113 42 215t114 176t173 118t214 44q112 0 212.5 -44t172.5 -118t114 -176t42 -215q0 -150 -71 -276t-195.5 -199.5t-274.5 -73.5q-113 0 -214 43.5t-173 117t-114 175t-42 213.5zM225 584h836q-19 163 -137 272t-281 109q-164 0 -281.5 -109t-136.5 -272z
M1061 471h-836q19 -163 136.5 -272t281.5 -109q163 0 281 109t137 272z" />
    <glyph glyph-name="uni0474" unicode="&#x474;" horiz-adv-x="1470" 
d="M762 0h-119l-612 1434h129l540 -1262h5l458 1069q49 118 113.5 162.5t163.5 44.5h24v-115h-24q-50 2 -92 -30.5t-78 -114.5z" />
    <glyph glyph-name="uni0475" unicode="&#x475;" horiz-adv-x="1107" 
d="M573 0h-118l-437 1057h127l367 -901h2l293 716q48 118 112 161.5t164 45.5h25v-114h-25q-58 0 -98 -29.5t-74 -114.5z" />
    <glyph glyph-name="uni0490" unicode="&#x490;" horiz-adv-x="1130" 
d="M342 0h-119v1434h750v252h117v-367h-748v-1319z" />
    <glyph glyph-name="uni0491" unicode="&#x491;" horiz-adv-x="960" 
d="M326 0h-117v1055l553 2v239h119v-348h-555v-948z" />
    <glyph glyph-name="Wgrave" unicode="&#x1e80;" horiz-adv-x="2027" 
d="M1079 1616h-114l-207 309h116zM618 0h-116l-475 1434h123l407 -1233h2l397 1233h117l395 -1233h2l408 1233h125l-475 -1434h-117l-395 1247h-2z" />
    <glyph glyph-name="wgrave" unicode="&#x1e81;" horiz-adv-x="1568" 
d="M852 1245h-115l-207 309h117zM475 0h-117l-323 1057h123l262 -879l305 879h119l303 -879l262 879h123l-324 -1057h-116l-308 891z" />
    <glyph glyph-name="Wacute" unicode="&#x1e82;" horiz-adv-x="2027" 
d="M1055 1616h-117l207 309h115zM618 0h-116l-475 1434h123l407 -1233h2l397 1233h117l395 -1233h2l408 1233h125l-475 -1434h-117l-395 1247h-2z" />
    <glyph glyph-name="wacute" unicode="&#x1e83;" horiz-adv-x="1568" 
d="M827 1245h-116l207 309h114zM475 0h-117l-323 1057h123l262 -879l305 879h119l303 -879l262 879h123l-324 -1057h-116l-308 891z" />
    <glyph glyph-name="Wdieresis" unicode="&#x1e84;" horiz-adv-x="2027" 
d="M739 1837q0 39 27 66.5t68 27.5q38 0 66 -28t28 -66q0 -40 -28 -68t-66 -28q-41 0 -68 28t-27 68zM1092 1837q0 39 27.5 66.5t66.5 27.5q40 0 68 -28t28 -66q0 -40 -28 -68t-68 -28t-67 28t-27 68zM618 0h-116l-475 1434h123l407 -1233h2l397 1233h117l395 -1233h2
l408 1233h125l-475 -1434h-117l-395 1247h-2z" />
    <glyph glyph-name="wdieresis" unicode="&#x1e85;" horiz-adv-x="1568" 
d="M512 1458q0 39 26.5 66.5t67.5 27.5q38 0 66 -28t28 -66q0 -40 -28 -68t-66 -28q-41 0 -67.5 28t-26.5 68zM864 1458q0 39 27.5 66.5t66.5 27.5q40 0 68.5 -28t28.5 -66q0 -40 -28.5 -68t-68.5 -28t-67 28t-27 68zM475 0h-117l-323 1057h123l262 -879l305 879h119
l303 -879l262 879h123l-324 -1057h-116l-308 891z" />
    <glyph glyph-name="Ygrave" unicode="&#x1ef2;" horiz-adv-x="1263" 
d="M715 1616h-115l-207 309h117zM690 0h-119v573l-559 861h146l473 -729l475 729h143l-559 -861v-573z" />
    <glyph glyph-name="ygrave" unicode="&#x1ef3;" horiz-adv-x="1048" 
d="M594 1245h-115l-207 309h117zM422 -393h-125l164 401l-430 1049h125l366 -901h4l367 901h125z" />
    <glyph glyph-name="endash" unicode="&#x2013;" horiz-adv-x="1370" 
d="M1124 668h-878v114h878v-114z" />
    <glyph glyph-name="emdash" unicode="&#x2014;" horiz-adv-x="2011" 
d="M1765 668h-1519v114h1519v-114z" />
    <glyph glyph-name="uni2015" unicode="&#x2015;" horiz-adv-x="2011" 
d="M1765 668h-1517v114h1517v-114z" />
    <glyph glyph-name="quoteleft" unicode="&#x2018;" horiz-adv-x="524" 
d="M416 1468l39 -77q-121 -54 -170 -133.5t-49 -188.5h14q43 0 72.5 -30.5t29.5 -73.5t-29 -73t-73 -30q-46 0 -76.5 32t-30.5 83v39q0 176 64.5 280.5t208.5 171.5z" />
    <glyph glyph-name="quoteright" unicode="&#x2019;" horiz-adv-x="524" 
d="M109 856l-39 76q122 54 171.5 133.5t49.5 189.5h-15q-44 0 -74 30t-30 73t30 72.5t74 29.5q46 0 75.5 -31.5t29.5 -82.5v-39q0 -177 -63.5 -281.5t-208.5 -169.5z" />
    <glyph glyph-name="quotesinglbase" unicode="&#x201a;" horiz-adv-x="540" 
d="M104 -422l-38 78q121 52 170 132t49 189h-15q-42 0 -72 30.5t-30 72.5q0 43 29 72.5t73 29.5q46 0 76.5 -32t30.5 -82v-39q0 -175 -64.5 -279.5t-208.5 -171.5z" />
    <glyph glyph-name="quotedblleft" unicode="&#x201c;" horiz-adv-x="880" 
d="M416 1468l39 -77q-121 -54 -170 -133.5t-49 -188.5h14q43 0 72.5 -30.5t29.5 -73.5t-29 -73t-73 -30q-46 0 -76.5 32t-30.5 83v39q0 176 64.5 280.5t208.5 171.5zM772 1468l39 -77q-122 -54 -171.5 -134t-49.5 -188h14q44 0 74.5 -30.5t30.5 -73.5t-30.5 -73t-74.5 -30
q-46 0 -75 32t-29 83v39q0 177 63 281.5t209 170.5z" />
    <glyph glyph-name="quotedblright" unicode="&#x201d;" horiz-adv-x="880" 
d="M465 856l-39 76q122 54 170.5 133.5t48.5 189.5h-14q-43 0 -73 30t-30 73t29.5 72.5t73.5 29.5q46 0 76 -31.5t30 -82.5v-39q0 -177 -63.5 -281.5t-208.5 -169.5zM109 856l-39 76q122 54 171.5 133.5t49.5 189.5h-15q-44 0 -74 30t-30 73t30 72.5t74 29.5
q46 0 75.5 -31.5t29.5 -82.5v-39q0 -177 -63.5 -281.5t-208.5 -169.5z" />
    <glyph glyph-name="quotedblbase" unicode="&#x201e;" horiz-adv-x="894" 
d="M459 -422l-39 78q122 52 171.5 131.5t49.5 189.5h-14q-44 0 -74.5 30.5t-30.5 72.5q0 43 30.5 72.5t74.5 29.5q46 0 75 -31.5t29 -82.5v-39q0 -176 -63.5 -280.5t-208.5 -170.5zM104 -422l-38 78q121 52 170 132t49 189h-15q-42 0 -72 30.5t-30 72.5q0 43 29 72.5
t73 29.5q46 0 76.5 -32t30.5 -82v-39q0 -175 -64.5 -279.5t-208.5 -171.5z" />
    <glyph glyph-name="dagger" unicode="&#x2020;" horiz-adv-x="755" 
d="M430 -203h-104l-7 1059h-262v109h262v469h119v-469h262v-109h-264z" />
    <glyph glyph-name="daggerdbl" unicode="&#x2021;" horiz-adv-x="755" 
d="M438 -203h-119v473h-264v109h264v536h-264v109h264v410h119v-410h260v-109h-260v-536h260v-109h-260v-473z" />
    <glyph glyph-name="bullet" unicode="&#x2022;" horiz-adv-x="550" 
d="M154 719q0 51 35 86t87 35q50 0 85.5 -35t35.5 -86t-35.5 -86t-85.5 -35q-52 0 -87 35t-35 86z" />
    <glyph glyph-name="ellipsis" unicode="&#x2026;" horiz-adv-x="1234" 
d="M168 80q0 43 29 72.5t73 29.5q43 0 73 -29.5t30 -72.5q0 -42 -30.5 -72.5t-72.5 -30.5q-43 0 -72.5 30.5t-29.5 72.5zM514 80q0 43 30 72.5t74 29.5q43 0 73 -29.5t30 -72.5q0 -42 -30.5 -72.5t-72.5 -30.5q-44 0 -74 30.5t-30 72.5zM862 80q0 43 29.5 72.5t73.5 29.5
t73 -29.5t29 -72.5q0 -42 -29.5 -72.5t-72.5 -30.5q-44 0 -73.5 30.5t-29.5 72.5z" />
    <glyph glyph-name="perthousand" unicode="&#x2030;" horiz-adv-x="2703" 
d="M471 727q-145 0 -242.5 100t-97.5 267t97.5 266.5t242.5 99.5t242.5 -99.5t97.5 -266.5t-97.5 -267t-242.5 -100zM651 0h-121l701 1434h123zM471 831q99 0 163 74.5t64 188.5q0 115 -63 188.5t-164 73.5q-102 0 -163.5 -73.5t-61.5 -188.5t61.5 -189t163.5 -74zM1411 -23
q-145 0 -242.5 100t-97.5 267t97.5 267t242.5 100q144 0 242 -100t98 -267t-98 -267t-242 -100zM2230 -23q-145 0 -241.5 100t-96.5 267t96.5 267t241.5 100q146 0 244 -100t98 -267t-98 -267t-244 -100zM1411 82q100 0 163.5 74t63.5 188q0 115 -63 188.5t-164 73.5
q-102 0 -163.5 -73.5t-61.5 -188.5t61.5 -188.5t163.5 -73.5zM2230 82q100 0 164 74t64 188q0 115 -63.5 188.5t-164.5 73.5q-100 0 -162.5 -73.5t-62.5 -188.5t62.5 -188.5t162.5 -73.5z" />
    <glyph glyph-name="guilsinglleft" unicode="&#x2039;" horiz-adv-x="782" 
d="M547 231l-459 459v60l459 460l84 -84l-406 -405l408 -406z" />
    <glyph glyph-name="guilsinglright" unicode="&#x203a;" horiz-adv-x="782" 
d="M236 231l-84 84l405 406l-405 405l84 84l458 -460v-60z" />
    <glyph glyph-name="fraction" unicode="&#x2044;" horiz-adv-x="1005" 
d="M207 0h-111l703 1434h110z" />
    <glyph glyph-name="uni2070" unicode="&#x2070;" horiz-adv-x="856" 
d="M428 950q-175 0 -263.5 133t-88.5 351q0 105 21 191.5t63 152t110.5 101.5t157.5 36t157.5 -36t110.5 -101.5t63 -152t21 -191.5q0 -218 -88.5 -351t-263.5 -133zM428 1044q123 0 189.5 106.5t66.5 283.5q0 176 -66.5 281.5t-189.5 105.5t-189.5 -105.5t-66.5 -281.5
q0 -177 66.5 -283.5t189.5 -106.5z" />
    <glyph glyph-name="uni2074" unicode="&#x2074;" horiz-adv-x="804" 
d="M506 1202h-459v74l447 612h108v-596h156v-90h-156v-225h-96v225zM506 1745l-332 -453h332v453z" />
    <glyph glyph-name="uni2075" unicode="&#x2075;" horiz-adv-x="821" 
d="M74 1067l61 74q123 -97 254 -97q120 0 181 53.5t61 151.5q0 91 -59 137t-158 46h-293l63 456h490v-90h-410l-37 -276h197q132 0 217.5 -66.5t85.5 -204.5q0 -147 -92 -224t-246 -77q-171 0 -315 117z" />
    <glyph glyph-name="uni2076" unicode="&#x2076;" horiz-adv-x="782" 
d="M76 1247q0 45 10.5 86.5t32 80.5t38 63t44.5 61l274 350h115l-271 -346q-1 -1 -3 -4t-3 -4q37 12 78 12q140 0 228 -83.5t88 -215.5t-88 -214.5t-228 -82.5q-138 0 -226.5 82.5t-88.5 214.5zM174 1247q0 -96 58 -149.5t159 -53.5t160 53.5t59 149.5q0 97 -59 151t-160 54
t-159 -54t-58 -151z" />
    <glyph glyph-name="uni2077" unicode="&#x2077;" horiz-adv-x="714" 
d="M168 977h-111l500 821h-500v90h617v-80z" />
    <glyph glyph-name="uni2078" unicode="&#x2078;" horiz-adv-x="813" 
d="M281 1444v2q-17 5 -32.5 11t-44 23.5t-49 39t-36 59.5t-15.5 84q0 111 82 181.5t222 70.5q138 0 219.5 -70.5t81.5 -181.5q0 -46 -15.5 -84t-35.5 -59.5t-48.5 -39t-43 -23.5t-31.5 -11v-2q17 -5 35.5 -11.5t50.5 -26t55 -43.5t41 -65.5t18 -91.5q0 -111 -81.5 -183.5
t-245.5 -72.5q-165 0 -248.5 72.5t-83.5 183.5q0 50 18 91.5t42 65.5t56.5 43t51.5 26t37 12zM203 1659q0 -73 59 -119.5t146 -46.5q86 0 145 47t59 119q0 71 -57 116.5t-147 45.5q-92 0 -148.5 -45.5t-56.5 -116.5zM174 1219q0 -73 59 -124t175 -51q117 0 174 50.5
t57 122.5q0 81 -65.5 130.5t-165.5 49.5q-102 0 -168 -49.5t-66 -128.5z" />
    <glyph glyph-name="uni2079" unicode="&#x2079;" horiz-adv-x="782" 
d="M307 977h-114l270 346q1 1 3 4t3 4q-37 -12 -78 -12q-139 0 -227 83.5t-88 215.5t87.5 214.5t227.5 82.5q139 0 227.5 -83t88.5 -214q0 -45 -10.5 -86.5t-32 -80.5t-38 -63t-44.5 -61zM172 1618q0 -97 58.5 -151t160.5 -54q101 0 159 54t58 151q0 96 -58 149.5t-159 53.5
q-102 0 -160.5 -53.5t-58.5 -149.5z" />
    <glyph glyph-name="uni207A" unicode="&#x207a;" horiz-adv-x="890" 
d="M397 1384h-303v97h303v305h97v-305h303v-97h-303v-303h-97v303z" />
    <glyph glyph-name="uni207B" unicode="&#x207b;" horiz-adv-x="851" 
d="M758 1384h-666v97h666v-97z" />
    <glyph glyph-name="uni207C" unicode="&#x207c;" horiz-adv-x="860" 
d="M768 1579h-676v96h676v-96zM768 1188h-676v96h676v-96z" />
    <glyph glyph-name="uni207D" unicode="&#x207d;" horiz-adv-x="565" 
d="M469 991l-45 -82q-320 178 -320 512v25q0 173 81.5 298t240.5 214l45 -82q-138 -75 -204 -180t-66 -250v-25q0 -145 65.5 -250t202.5 -180z" />
    <glyph glyph-name="uni207E" unicode="&#x207e;" horiz-adv-x="565" 
d="M141 909l-45 82q137 75 204 180.5t67 249.5v25q0 145 -66.5 250t-204.5 180l45 82q159 -89 240.5 -214t81.5 -298v-25q0 -335 -322 -512z" />
    <glyph glyph-name="uni2080" unicode="&#x2080;" horiz-adv-x="856" 
d="M428 -416q-175 0 -263.5 133t-88.5 351q0 105 21 191.5t63 152t110.5 101.5t157.5 36t157.5 -36t110.5 -101.5t63 -152t21 -191.5q0 -218 -88.5 -351t-263.5 -133zM428 -322q123 0 189.5 106.5t66.5 283.5q0 176 -66.5 281.5t-189.5 105.5t-189.5 -105.5t-66.5 -281.5
q0 -177 66.5 -283.5t189.5 -106.5z" />
    <glyph glyph-name="uni2081" unicode="&#x2081;" horiz-adv-x="557" 
d="M375 -389h-96v801l-183 -72l-35 94l232 88h82v-911z" />
    <glyph glyph-name="uni2082" unicode="&#x2082;" horiz-adv-x="786" 
d="M707 -389h-627v82l416 401q88 85 88 189q0 75 -49.5 123.5t-139.5 48.5q-144 0 -256 -140l-67 68q141 166 319 166q136 0 213.5 -74t77.5 -190q-3 -145 -113 -252l-342 -332h480v-90z" />
    <glyph glyph-name="uni2083" unicode="&#x2083;" horiz-adv-x="798" 
d="M70 -266l61 69q69 -66 129.5 -95.5t140.5 -29.5q103 0 163.5 47t60.5 128q0 30 -8.5 56.5t-31 54.5t-70.5 44.5t-118 16.5h-147v90h158q50 0 88 13.5t57 31.5t30.5 43t14 42t2.5 34q0 73 -47 124.5t-141 51.5q-129 0 -262 -123l-62 71q135 146 324 146q138 0 211 -74.5
t73 -187.5q0 -158 -137 -217v-2q164 -52 164 -218q0 -122 -90 -194t-234 -72q-196 0 -329 150z" />
    <glyph glyph-name="uni2084" unicode="&#x2084;" horiz-adv-x="808" 
d="M510 -164h-459v74l447 612h108v-596h156v-90h-156v-225h-96v225zM510 379l-332 -453h332v453z" />
    <glyph glyph-name="uni2085" unicode="&#x2085;" horiz-adv-x="821" 
d="M74 -299l61 74q123 -97 254 -97q120 0 181 53.5t61 151.5q0 91 -59 137t-158 46h-293l63 456h490v-90h-410l-37 -276h197q132 0 217.5 -66.5t85.5 -204.5q0 -147 -92 -224t-246 -77q-171 0 -315 117z" />
    <glyph glyph-name="uni2086" unicode="&#x2086;" horiz-adv-x="792" 
d="M80 -119q0 45 10.5 86.5t32 80.5t38 63t44.5 61l274 350h115l-270 -346q-1 -1 -3.5 -4t-3.5 -4q37 12 78 12q140 0 228 -83.5t88 -215.5t-88 -214.5t-228 -82.5q-138 0 -226.5 82.5t-88.5 214.5zM178 -119q0 -96 58 -149.5t159 -53.5t160 53.5t59 149.5q0 97 -59 151
t-160 54t-159 -54t-58 -151z" />
    <glyph glyph-name="uni2087" unicode="&#x2087;" horiz-adv-x="714" 
d="M168 -389h-111l500 821h-500v90h617v-80z" />
    <glyph glyph-name="uni2088" unicode="&#x2088;" horiz-adv-x="813" 
d="M281 78v2q-17 5 -32.5 11t-44 23.5t-49 39t-36 59.5t-15.5 84q0 111 82 181.5t222 70.5q138 0 219.5 -70.5t81.5 -181.5q0 -46 -15.5 -84t-35.5 -59.5t-48.5 -39t-43 -23.5t-31.5 -11v-2q17 -5 35.5 -11.5t50.5 -26t55 -44t41 -66.5t18 -92q0 -110 -81.5 -182t-245.5 -72
q-165 0 -248.5 72.5t-83.5 183.5q0 50 18 91.5t42 65.5t56.5 43t51.5 26t37 12zM203 293q0 -73 59 -119.5t146 -46.5q86 0 145 47t59 119q0 71 -57 116.5t-147 45.5q-92 0 -148.5 -45.5t-56.5 -116.5zM174 -147q0 -73 59 -124t175 -51q117 0 174 50t57 122q0 81 -65.5 131
t-165.5 50q-102 0 -168 -49.5t-66 -128.5z" />
    <glyph glyph-name="uni2089" unicode="&#x2089;" horiz-adv-x="782" 
d="M307 -389h-114l270 346q1 1 3 4t3 4q-37 -12 -78 -12q-139 0 -227 83.5t-88 215.5t87.5 214.5t227.5 82.5q139 0 227.5 -83t88.5 -214q0 -45 -10.5 -86.5t-32 -80.5t-38 -63t-44.5 -61zM172 252q0 -97 58.5 -151t160.5 -54q101 0 159 54t58 151q0 96 -58 149.5t-159 53.5
q-102 0 -160.5 -53.5t-58.5 -149.5z" />
    <glyph glyph-name="uni208A" unicode="&#x208a;" horiz-adv-x="890" 
d="M397 29h-303v96h303v303h97v-303h303v-96h-303v-305h-97v305z" />
    <glyph glyph-name="uni208B" unicode="&#x208b;" horiz-adv-x="851" 
d="M758 29h-666v94h666v-94z" />
    <glyph glyph-name="uni208C" unicode="&#x208c;" horiz-adv-x="860" 
d="M768 225h-676v97h676v-97zM768 -168h-676v96h676v-96z" />
    <glyph glyph-name="uni208D" unicode="&#x208d;" horiz-adv-x="565" 
d="M469 -375l-45 -82q-320 176 -320 512v25q0 173 81.5 298t240.5 214l45 -82q-138 -75 -204 -180t-66 -250v-25q0 -145 65.5 -250t202.5 -180z" />
    <glyph glyph-name="uni208E" unicode="&#x208e;" horiz-adv-x="565" 
d="M141 -457l-45 82q137 75 203 180.5t66 249.5v25q0 145 -65.5 250t-203.5 180l45 82q159 -89 240.5 -214t81.5 -298v-25q0 -335 -322 -512z" />
    <glyph glyph-name="lira" unicode="&#x20a4;" horiz-adv-x="1312" 
d="M342 975l-248 -76v109l248 75v351h117v-314l317 99v-109l-317 -98v-205l317 96v-108l-317 -97v-583h147q198 0 319.5 125t121.5 350v190h118v-196q0 -272 -154 -428t-405 -156h-264v662l-248 -76v108l248 76v205z" />
    <glyph glyph-name="Euro" unicode="&#x20ac;" horiz-adv-x="1581" 
d="M1405 303l80 -88q-98 -112 -244.5 -177t-300.5 -65q-249 0 -442 149t-260 382h-168v100h145q-8 74 -8 113q0 61 8 108h-145v103h166q67 235 260.5 383.5t443.5 148.5q156 0 300.5 -64.5t248.5 -176.5l-86 -91q-80 94 -200 156t-263 62q-199 0 -356.5 -117t-221.5 -301
h717v-103h-743q-8 -47 -8 -108q0 -67 10 -113h741v-100h-717q66 -184 222.5 -300t355.5 -116q270 0 465 215z" />
    <glyph glyph-name="uni20BA" unicode="&#x20ba;" horiz-adv-x="1312" 
d="M342 975l-248 -76v109l248 75v351h117v-314l317 99v-109l-317 -98v-205l317 96v-108l-317 -97v-583h147q198 0 319.5 125t121.5 350v190h118v-196q0 -272 -154 -428t-405 -156h-264v662l-248 -76v108l248 76v205z" />
    <glyph glyph-name="uni20BD" unicode="&#x20bd;" horiz-adv-x="1304" 
d="M342 0h-119v270h-143v99h143v1065h502q78 0 148 -14.5t134 -48.5t110 -84.5t73 -127.5t27 -174q0 -120 -41 -210.5t-111.5 -142.5t-155.5 -77t-184 -25h-383v-161h571v-99h-571v-270zM342 1319v-674h369q91 0 160 20t111 51.5t68.5 77.5t36 91.5t9.5 99.5q0 53 -9.5 98
t-36 90t-68.5 76t-111 50.5t-160 19.5h-369z" />
    <glyph glyph-name="uni20BF" unicode="&#x20bf;" horiz-adv-x="1400" 
d="M567 -211h-110v211h-234v1434h234v223h110v-223h172q55 0 84 -4v227h111v-248q135 -35 219 -123.5t84 -234.5q0 -62 -18 -114t-44.5 -86t-62 -60.5t-65 -39.5t-60.5 -22v-2q30 -7 60.5 -18.5t76.5 -39t80 -64t59 -97t25 -133.5q0 -155 -96 -246t-258 -117v-223h-111v211
h-32h-224v-211zM342 1319v-537h446q146 0 237 66t91 194q0 141 -102.5 209t-284.5 68h-387zM342 668v-553h436q198 0 294.5 69.5t96.5 196.5q0 133 -104 210t-264 77h-459z" />
    <glyph glyph-name="uni2113" unicode="&#x2113;" horiz-adv-x="1079" 
d="M229 461l-133 -70v125l133 70v614q0 166 90 261t265 95q176 0 266 -95t90 -261v-59q0 -162 -81.5 -276t-262.5 -210l-256 -135v-186q0 -244 244 -244q83 0 186 41l41 -104q-109 -50 -227 -50q-175 0 -265 95.5t-90 261.5v127zM340 1198v-553l244 129q127 66 186 152.5
t59 216.5v55q0 244 -245 244q-244 0 -244 -244z" />
    <glyph glyph-name="uni2117" unicode="&#x2117;" horiz-adv-x="1689" 
d="M844 -27q-148 0 -284 59.5t-234 159t-156.5 237.5t-58.5 288t58.5 287.5t156.5 237.5t234 159t284 59q199 0 368 -100t267 -271t98 -372q0 -150 -58 -287.5t-156 -237.5t-234 -159.5t-285 -59.5zM844 63q131 0 250.5 53t206 141.5t137.5 209t51 250.5t-51 250.5
t-137.5 208.5t-206 141t-250.5 53t-250.5 -53t-205 -141.5t-136.5 -208.5t-51 -250t51 -250.5t136.5 -209t205 -141.5t250.5 -53zM709 365h-82v704h247q104 0 173 -52t69 -163q0 -57 -20 -100t-55 -68t-77 -37t-90 -12h-165v-272zM709 989v-272h143q105 0 144.5 35.5
t39.5 101.5q0 65 -39.5 100t-144.5 35h-143z" />
    <glyph glyph-name="trademark" unicode="&#x2122;" horiz-adv-x="1718" 
d="M838 645h-97l97 805h53l293 -662l295 662h53l96 -805h-96l-64 553l-256 -565h-55l-256 565zM414 645h-97v696h-268v93h633v-93h-268v-696z" />
    <glyph glyph-name="uni2126" unicode="&#x2126;" horiz-adv-x="1757" 
d="M778 0h-657v115h368q-151 94 -247.5 251.5t-96.5 350.5q0 153 57.5 290.5t155.5 236.5t234 157.5t287 58.5t287 -58.5t233.5 -157.5t155 -236.5t57.5 -290.5q0 -193 -96.5 -350.5t-247.5 -251.5h368v-115h-657v104q98 11 190.5 62.5t164 130.5t114.5 189.5t43 230.5
q0 168 -80.5 312.5t-222 230.5t-309.5 86q-126 0 -240.5 -51t-195.5 -136t-129 -200.5t-48 -241.5q0 -120 43 -230.5t114.5 -189.5t164 -130.5t190.5 -62.5v-104z" />
    <glyph glyph-name="estimated" unicode="&#x212e;" horiz-adv-x="1683" 
d="M311 672v-269q37 -65 86.5 -119.5t114.5 -99.5t150.5 -70.5t181.5 -25.5q134 0 250.5 58.5t197.5 154.5l84 -96q-229 -232 -532 -232q-151 0 -287 58.5t-233.5 158t-155 237t-57.5 290.5t57.5 290.5t155 236.5t233.5 157.5t287 58.5t287 -58.5t233.5 -157.5t155 -236.5
t57.5 -290.5v-45h-1266zM311 1038v-282h1059v293q-33 57 -79 106t-110 94t-151 71t-186 26q-97 0 -183 -27t-151 -73.5t-112.5 -97t-86.5 -110.5z" />
    <glyph glyph-name="arrowleft" unicode="&#x2190;" horiz-adv-x="1185" 
d="M602 190l-536 510v39l536 508l78 -90l-404 -389l271 8h573v-112h-573l-271 8l406 -387z" />
    <glyph glyph-name="arrowup" unicode="&#x2191;" horiz-adv-x="1167" 
d="M563 1454h41l508 -536l-92 -78l-387 403l8 -119v-1124h-115v1124l6 117l-385 -403l-92 80z" />
    <glyph glyph-name="arrowright" unicode="&#x2192;" horiz-adv-x="1185" 
d="M641 664h-575v112h575l268 -8l-403 389l78 90l536 -508v-39l-536 -510l-78 95l405 387z" />
    <glyph glyph-name="arrowdown" unicode="&#x2193;" horiz-adv-x="1167" 
d="M604 -20h-41l-508 536l92 80l385 -403l-6 116v1125h115v-1125l-8 -119l387 406l92 -80z" />
    <glyph glyph-name="arrowboth" unicode="&#x2194;" horiz-adv-x="1804" 
d="M602 190l-536 510v39l536 508l80 -92l-406 -387l271 8h710l271 -8l-406 387l78 92l539 -508v-39l-537 -510l-80 93l406 389l-271 -8h-710l-271 8l406 -387z" />
    <glyph glyph-name="arrowupdn" unicode="&#x2195;" horiz-adv-x="1177" 
d="M608 -117h-41l-506 537l93 80l385 -406l-9 268v713l9 268l-385 -405l-93 82l508 534h39l510 -534l-94 -80l-387 406l8 -271v-713l-8 -268l387 406l92 -80z" />
    <glyph glyph-name="uni2196" unicode="&#x2196;" horiz-adv-x="1806" 
d="M358 334h-122v1100h1099v-123h-903l94 -80l1157 -1159l-86 -86l-1155 1159l-84 94v-905z" />
    <glyph glyph-name="uni2197" unicode="&#x2197;" horiz-adv-x="1794" 
d="M1571 334h-123v905l-84 -94l-1155 -1159l-86 86l1157 1159l94 80h-903v123h1100v-1100z" />
    <glyph glyph-name="uni2198" unicode="&#x2198;" horiz-adv-x="1794" 
d="M1448 1096h123v-1100h-1100v123h903l-94 80l-1157 1159l86 86l1155 -1159l84 -95v906z" />
    <glyph glyph-name="uni2199" unicode="&#x2199;" horiz-adv-x="1794" 
d="M223 1096h123v-906l84 95l1155 1159l86 -86l-1157 -1159l-94 -80h903v-123h-1100v1100z" />
    <glyph glyph-name="partialdiff" unicode="&#x2202;" horiz-adv-x="1259" 
d="M100 506q0 230 151 386.5t378 156.5q166 0 311 -113q-30 54 -97.5 159.5t-97.5 157.5l-170 289h136l172 -289q9 -16 42.5 -71t48 -79t44.5 -79t44.5 -89t36 -89t32 -99.5t18.5 -99.5t8 -108v-33q0 -228 -149.5 -378.5t-378.5 -150.5q-228 0 -378.5 150.5t-150.5 378.5z
M629 90q180 0 294.5 117t114.5 299q0 184 -115 306t-294 122q-178 0 -294 -122t-116 -306q0 -181 115.5 -298.5t294.5 -117.5z" />
    <glyph glyph-name="uni2206" unicode="&#x2206;" horiz-adv-x="1437" 
d="M1407 0h-1378l639 1434h98zM717 1247l-504 -1126h1008l-502 1126h-2z" />
    <glyph glyph-name="product" unicode="&#x220f;" horiz-adv-x="1531" 
d="M342 0h-119v1434h1086v-1434h-119v1319h-848v-1319z" />
    <glyph glyph-name="summation" unicode="&#x2211;" horiz-adv-x="1243" 
d="M1124 0h-1038v106l563 619l-563 602v107h1014v-115h-852l536 -576v-36l-538 -592h878v-115z" />
    <glyph glyph-name="minus" unicode="&#x2212;" horiz-adv-x="1363" 
d="M1118 668h-872v114h872v-114z" />
    <glyph glyph-name="uni2215" unicode="&#x2215;" horiz-adv-x="1005" 
d="M207 0h-111l703 1434h110z" />
    <glyph glyph-name="uni2219" unicode="&#x2219;" horiz-adv-x="516" 
d="M154 721q0 43 30.5 72.5t73.5 29.5t73.5 -29.5t30.5 -72.5q0 -44 -30.5 -75.5t-73.5 -31.5t-73.5 31.5t-30.5 75.5z" />
    <glyph glyph-name="radical" unicode="&#x221a;" horiz-adv-x="1417" 
d="M575 -37h-28l-490 1079h123l379 -858l563 1250h246v-111h-176z" />
    <glyph glyph-name="infinity" unicode="&#x221e;" horiz-adv-x="1421" 
d="M696 594h-2q-5 -19 -14.5 -42.5t-32.5 -59.5t-53 -64t-79 -49t-107 -21q-144 0 -238 110t-94 292q0 184 94 293.5t238 109.5q58 0 107.5 -20.5t78.5 -47.5t53.5 -64t33 -58t15.5 -41h2q4 19 14.5 46t35.5 66.5t57 71.5t84 55t112 23q155 0 250 -107t95 -327
q0 -217 -95.5 -324.5t-249.5 -107.5q-60 0 -112 23t-84 55.5t-57.5 72.5t-36 67.5t-15.5 47.5zM737 760q4 -84 34 -158t89.5 -124t136.5 -50q111 0 184.5 82t73.5 250q0 174 -73 255t-185 81q-114 0 -183.5 -101t-76.5 -235zM655 760q-5 129 -69.5 217t-173.5 88
q-106 0 -175 -84t-69 -221q0 -134 69.5 -217.5t174.5 -83.5q109 0 173.5 88t69.5 213z" />
    <glyph glyph-name="integral" unicode="&#x222b;" horiz-adv-x="1024" 
d="M49 -436l41 106q102 -41 186 -41q90 0 133.5 60t43.5 184v1327q0 168 73.5 262t223.5 94q106 0 225 -49l-39 -106q-96 41 -188 41q-90 0 -133.5 -60t-43.5 -184v-1325q0 -168 -73.5 -262t-223.5 -94q-115 0 -225 47z" />
    <glyph glyph-name="approxequal" unicode="&#x2248;" horiz-adv-x="997" 
d="M193 774l-87 39q31 105 76.5 157t118.5 52q49 0 107 -22.5t102 -50t94 -50t84 -22.5q42 0 65.5 32.5t49.5 116.5l86 -37q-52 -211 -193 -211q-52 0 -111 23t-102.5 50t-92 50t-81.5 23q-42 0 -65 -32t-51 -118zM193 420l-87 37q31 105 76.5 157t118.5 52q49 0 107 -22.5
t102 -49.5t94 -49.5t84 -22.5q42 0 65.5 32.5t49.5 115.5l86 -37q-51 -209 -193 -209q-52 0 -111 22.5t-102.5 49t-92 49t-81.5 22.5q-42 0 -65 -31t-51 -116z" />
    <glyph glyph-name="notequal" unicode="&#x2260;" horiz-adv-x="925" 
d="M227 0h-102l188 473h-207v109h250l115 282h-365v109h408l184 461h105l-185 -461h201v-109h-244l-114 -282h358v-109h-401z" />
    <glyph glyph-name="lessequal" unicode="&#x2264;" horiz-adv-x="989" 
d="M866 279l-774 391v100l774 391v-131l-604 -311l604 -309v-131zM868 0h-776v109h774z" />
    <glyph glyph-name="greaterequal" unicode="&#x2265;" horiz-adv-x="989" 
d="M897 670l-776 -391v131l606 309l-606 311v131l776 -391v-100zM897 0h-776v109h776v-109z" />
    <glyph glyph-name="uni24FF" unicode="&#x24ff;" horiz-adv-x="1980" 
d="M111 717q0 144 44 278t125 242t189 189t242 125t278 44q179 0 342 -69t280.5 -186.5t187 -280.5t69.5 -342t-69.5 -342t-187 -280.5t-280.5 -187t-342 -69.5t-342 69.5t-280.5 187t-186.5 280.5t-69 342zM989 236q175 0 263.5 132.5t88.5 350.5q0 106 -21 192
t-62.5 151.5t-110 101.5t-158.5 36q-89 0 -157.5 -36t-110.5 -101.5t-63 -152t-21 -191.5q0 -218 89 -350.5t263 -132.5zM989 330q-123 0 -188.5 106t-65.5 283t65.5 282t188.5 105q124 0 190 -105t66 -282t-66 -283t-190 -106z" />
    <glyph glyph-name="lozenge" unicode="&#x25ca;" horiz-adv-x="1386" 
d="M729 -14h-70l-626 731l626 731h70l623 -731zM186 717l508 -598l508 598l-508 598z" />
    <glyph glyph-name="uni2776" unicode="&#x2776;" horiz-adv-x="1980" 
d="M111 717q0 144 44 278t125 242t189 189t242 125t278 44q179 0 342 -69t280.5 -186.5t187 -280.5t69.5 -342t-69.5 -342t-187 -280.5t-280.5 -187t-342 -69.5t-342 69.5t-280.5 187t-186.5 280.5t-69 342zM678 352v-90h620v90h-256v822h-69l-291 -84l27 -95l237 68v-711
h-268z" />
    <glyph glyph-name="uni2777" unicode="&#x2777;" horiz-adv-x="1980" 
d="M111 717q0 144 44 278t125 242t189 189t242 125t278 44q179 0 342 -69t280.5 -186.5t187 -280.5t69.5 -342t-69.5 -342t-187 -280.5t-280.5 -187t-342 -69.5t-342 69.5t-280.5 187t-186.5 280.5t-69 342zM686 344v-82h625v90h-480l343 332q112 112 112 252q0 116 -77 190
t-214 74q-182 0 -317 -166l67 -69q114 141 254 141q90 0 139.5 -48.5t49.5 -123.5q0 -105 -86 -189z" />
    <glyph glyph-name="uni2778" unicode="&#x2778;" horiz-adv-x="1980" 
d="M111 717q0 144 44 278t125 242t189 189t242 125t278 44q179 0 342 -69t280.5 -186.5t187 -280.5t69.5 -342t-69.5 -342t-187 -280.5t-280.5 -187t-342 -69.5t-342 69.5t-280.5 187t-186.5 280.5t-69 342zM723 457l-64 -72q131 -149 332 -149q142 0 232 72t90 194
q0 165 -164 217v2q139 60 139 217q0 112 -74 187t-210 75q-186 0 -326 -143l63 -74q130 123 260 123q95 0 142 -52.5t47 -125.5q0 -17 -2.5 -33t-14 -41t-30.5 -43t-57 -31.5t-89 -13.5h-155v-90h147q69 0 117 -16.5t70.5 -44.5t31.5 -54t9 -55q0 -82 -61 -129t-163 -47
q-80 0 -142.5 31t-127.5 96z" />
    <glyph glyph-name="uni2779" unicode="&#x2779;" horiz-adv-x="1980" 
d="M111 717q0 144 44 278t125 242t189 189t242 125t278 44q179 0 342 -69t280.5 -186.5t187 -280.5t69.5 -342t-69.5 -342t-187 -280.5t-280.5 -187t-342 -69.5t-342 69.5t-280.5 187t-186.5 280.5t-69 342zM582 563l-2 -76h460v-225h97v225h155v91h-155v596h-109zM1040 578
h-331l331 452v-452z" />
    <glyph glyph-name="uni277A" unicode="&#x277a;" horiz-adv-x="1980" 
d="M111 717q0 144 44 278t125 242t189 189t242 125t278 44q179 0 342 -69t280.5 -186.5t187 -280.5t69.5 -342t-69.5 -342t-187 -280.5t-280.5 -187t-342 -69.5t-342 69.5t-280.5 187t-186.5 280.5t-69 342zM725 426l-61 -72q136 -118 315 -118q154 0 246 77t92 224
q0 71 -24 124t-67 84.5t-96 46.5t-116 15h-197l37 276h410v91h-490l-63 -457h293q99 0 158 -46t59 -136q0 -98 -61 -151.5t-181 -53.5q-129 0 -254 96z" />
    <glyph glyph-name="uni277B" unicode="&#x277b;" horiz-adv-x="1980" 
d="M111 717q0 144 44 278t125 242t189 189t242 125t278 44q179 0 342 -69t280.5 -186.5t187 -280.5t69.5 -342t-69.5 -342t-187 -280.5t-280.5 -187t-342 -69.5t-342 69.5t-280.5 187t-186.5 280.5t-69 342zM1174 1174h-113l-275 -351q-38 -49 -59.5 -82t-43 -91.5
t-21.5 -117.5q0 -131 88 -213.5t227 -82.5t227 82.5t88 213.5q0 132 -88.5 215.5t-226.5 83.5q-47 0 -84 -18q2 2 6 7t6 7zM760 532q0 97 58 151t159 54t159 -54t58 -151q0 -96 -58 -149t-159 -53t-159 53t-58 149z" />
    <glyph glyph-name="uni277C" unicode="&#x277c;" horiz-adv-x="1980" 
d="M111 717q0 144 44 278t125 242t189 189t242 125t278 44q179 0 342 -69t280.5 -186.5t187 -280.5t69.5 -342t-69.5 -342t-187 -280.5t-280.5 -187t-342 -69.5t-342 69.5t-280.5 187t-186.5 280.5t-69 342zM1225 1081l-500 -821h113l503 832v79h-616v-90h500z" />
    <glyph glyph-name="uni277D" unicode="&#x277d;" horiz-adv-x="1980" 
d="M111 717q0 144 44 278t125 242t189 189t242 125t278 44q179 0 342 -69t280.5 -186.5t187 -280.5t69.5 -342t-69.5 -342t-187 -280.5t-280.5 -187t-342 -69.5t-342 69.5t-280.5 187t-186.5 280.5t-69 342zM864 731v-2q-18 -5 -36.5 -11.5t-50.5 -25.5t-55.5 -43
t-41.5 -65.5t-18 -91.5q0 -111 82.5 -183.5t246.5 -72.5t247 72.5t83 183.5q0 50 -18 91.5t-41.5 65.5t-55.5 43t-50 25.5t-36 11.5v2q17 5 31.5 11t43 23.5t48.5 39t35.5 59.5t15.5 84q0 111 -81.5 181.5t-221.5 70.5q-138 0 -219.5 -70.5t-81.5 -181.5q0 -46 15.5 -84
t35.5 -59.5t48.5 -39t43 -23.5t31.5 -11zM786 944q0 71 56.5 116.5t148.5 45.5t149.5 -45.5t57.5 -116.5q0 -72 -59.5 -119t-147.5 -47q-86 0 -145.5 47t-59.5 119zM758 504q0 79 66 128.5t167 49.5t167.5 -49.5t66.5 -130.5q0 -72 -57.5 -122t-176.5 -50
q-116 0 -174.5 50.5t-58.5 123.5z" />
    <glyph glyph-name="uni277E" unicode="&#x277e;" horiz-adv-x="1980" 
d="M989 -162q-179 0 -342 69.5t-280.5 187t-186.5 280.5t-69 342q0 144 44 278t125 242t189 189t242 125t278 44q179 0 342 -69t280.5 -186.5t187 -280.5t69.5 -342t-69.5 -342t-187 -280.5t-280.5 -187t-342 -69.5zM1057 606l-269 -346h115l273 350q38 49 59.5 82t43 91.5
t21.5 117.5q0 132 -88.5 214.5t-226.5 82.5t-226.5 -82.5t-88.5 -214.5t88.5 -215.5t226.5 -83.5q44 0 84 19q-2 -2 -6 -7.5t-6 -7.5zM768 901q0 96 58 149.5t159 53.5t159 -53.5t58 -149.5q0 -97 -58 -151t-159 -54t-159 54t-58 151z" />
    <glyph glyph-name="_0127" horiz-adv-x="1712" 
d="M1489 -137h-1266v1673h1266v-1673zM489 410l78 -78l291 291l291 -291l78 78l-293 290l293 291l-78 76l-291 -291l-293 291l-76 -78l291 -289z" />
    <glyph glyph-name="guillemotleft.case" horiz-adv-x="1245" 
d="M633 123l-84 -86l-459 461v61l459 459l84 -84l-406 -406zM1094 121l-84 -84l-459 461v61l459 459l84 -84l-406 -406z" />
    <glyph glyph-name="guillemotright.case" horiz-adv-x="1245" 
d="M1157 498l-459 -461l-84 86l406 405l-406 406l84 84l459 -459v-61zM238 37l-84 84l405 407l-407 406l86 84l458 -459v-61z" />
    <glyph glyph-name="guilsinglleft.case" horiz-adv-x="782" 
d="M547 39l-459 459v59l459 461l84 -84l-406 -406l408 -405z" />
    <glyph glyph-name="guilsinglright.case" horiz-adv-x="782" 
d="M236 39l-84 84l405 405l-405 406l84 84l458 -461v-59z" />
    <glyph glyph-name="zero.numr" horiz-adv-x="856" 
d="M428 496q-89 0 -157.5 36.5t-110.5 102t-63 152.5t-21 192t21 191.5t63 152t110.5 101.5t157.5 36t157.5 -36t110.5 -101.5t63 -152t21 -191.5t-21 -192t-63 -152.5t-110.5 -102t-157.5 -36.5zM428 590q123 0 189.5 106t66.5 283q0 176 -66.5 281.5t-189.5 105.5
t-189.5 -105.5t-66.5 -281.5q0 -177 66.5 -283t189.5 -106z" />
    <glyph glyph-name="one.numr" horiz-adv-x="557" 
d="M377 522h-96v801l-183 -72l-35 95l232 88h82v-912z" />
    <glyph glyph-name="two.numr" horiz-adv-x="786" 
d="M707 522h-627v82l416 402q88 85 88 188q0 75 -49.5 123.5t-139.5 48.5q-145 0 -256 -139l-67 67q141 166 319 166q136 0 213.5 -74t77.5 -190q-3 -145 -113 -252l-342 -332h480v-90z" />
    <glyph glyph-name="three.numr" horiz-adv-x="798" 
d="M70 645l61 70q69 -66 129.5 -95.5t140.5 -29.5q104 0 164 46.5t60 129.5q0 29 -8.5 55t-31 54t-70.5 44.5t-118 16.5h-147v90h158q50 0 88 13.5t57 31.5t30.5 43t14 42t2.5 34q0 73 -47 124.5t-141 51.5q-129 0 -262 -123l-62 72q134 145 324 145q138 0 211 -74.5
t73 -187.5q0 -158 -137 -217v-2q164 -52 164 -217q0 -122 -90 -194t-234 -72q-197 0 -329 149z" />
    <glyph glyph-name="four.numr" horiz-adv-x="804" 
d="M506 748h-459v73l447 613h108v-596h156v-90h-156v-226h-96v226zM506 1290l-332 -452h332v452z" />
    <glyph glyph-name="five.numr" horiz-adv-x="798" 
d="M70 612l61 74q122 -96 254 -96q120 0 181 53.5t61 151.5q0 90 -59 136t-158 46h-293l63 457h490v-91h-410l-37 -276h197q63 0 116 -15t96 -46.5t67 -84.5t24 -124q0 -147 -92 -224t-246 -77q-172 0 -315 116z" />
    <glyph glyph-name="six.numr" horiz-adv-x="782" 
d="M76 793q0 45 10.5 86.5t32 80.5t37.5 62.5t45 60.5l274 351h115l-271 -347q-1 -1 -3 -4t-3 -4q41 13 78 13q140 0 228 -83.5t88 -215.5t-88 -214.5t-228 -82.5q-138 0 -226.5 82.5t-88.5 214.5zM174 793q0 -96 58 -149.5t159 -53.5t160 53.5t59 149.5q0 97 -59 150.5
t-160 53.5t-159 -53.5t-58 -150.5z" />
    <glyph glyph-name="seven.numr" horiz-adv-x="714" 
d="M168 522h-111l500 821h-500v91h617v-80z" />
    <glyph glyph-name="eight.numr" horiz-adv-x="813" 
d="M281 989v2q-17 5 -32.5 11t-44 23.5t-49 39t-36 59.5t-15.5 84q0 111 82 181.5t222 70.5q138 0 219.5 -70.5t81.5 -181.5q0 -46 -15.5 -84t-35.5 -59.5t-48.5 -39t-43 -23.5t-31.5 -11v-2q18 -5 36 -11.5t50 -25.5t55 -43t41 -65.5t18 -91.5q0 -111 -81.5 -183.5
t-245.5 -72.5q-165 0 -248.5 72.5t-83.5 183.5q0 50 18 91.5t42 65.5t56.5 43t51.5 25.5t37 11.5zM203 1204q0 -73 59 -119.5t146 -46.5q86 0 145 47t59 119q0 71 -57 116.5t-147 45.5q-92 0 -148.5 -45.5t-56.5 -116.5zM174 764q0 -73 58.5 -123.5t175.5 -50.5t174 50
t57 122q0 81 -65.5 130.5t-165.5 49.5q-102 0 -168 -49.5t-66 -128.5z" />
    <glyph glyph-name="nine.numr" horiz-adv-x="782" 
d="M307 522h-114l270 346q1 1 3 4.5t3 4.5q-41 -13 -78 -13q-139 0 -227 83.5t-88 215.5t87.5 214.5t227.5 82.5q139 0 227.5 -83t88.5 -214q0 -45 -10.5 -86.5t-32 -80.5t-38 -63t-44.5 -61zM172 1163q0 -97 58.5 -151t160.5 -54q101 0 159 54t58 151q0 96 -58 149.5
t-159 53.5q-102 0 -160.5 -53.5t-58.5 -149.5z" />
    <glyph glyph-name="t_y" horiz-adv-x="1892" 
d="M715 133l45 -102q-105 -54 -232 -54q-151 0 -229 88.5t-78 256.5v626h-149v109h153v239h115v-239h659l369 -901h2l367 901h125l-596 -1450h-125l166 401l-389 940h-578v-626q0 -117 45.5 -174.5t142.5 -57.5q90 0 187 43z" />
    <glyph glyph-name="germandbls.alt" horiz-adv-x="1394" 
d="M342 0h-119v1434h529q211 0 333.5 -94t122.5 -279q0 -64 -14.5 -117t-37 -88t-54.5 -62.5t-62.5 -43t-64.5 -25.5v-2q39 -10 74.5 -25t80 -45t76.5 -69t54 -101t22 -137q0 -180 -101 -276.5t-261 -96.5q-199 0 -353 119l66 96q71 -59 139 -79.5t146 -20.5q109 0 176 66.5
t67 185.5q0 83 -33 147.5t-90 102t-126 56t-148 18.5h-143v112h151q88 0 151.5 24.5t98 67t50 90.5t15.5 103q0 122 -89 190t-246 68h-410v-1319z" />
    <glyph glyph-name="zero.dnom" horiz-adv-x="856" 
d="M428 -27q-175 0 -263.5 133t-88.5 351q0 105 21 191.5t63 152t110.5 101.5t157.5 36t157.5 -36t110.5 -101.5t63 -152t21 -191.5q0 -218 -88.5 -351t-263.5 -133zM428 68q123 0 189.5 106t66.5 283q0 176 -66.5 281.5t-189.5 105.5t-189.5 -105.5t-66.5 -281.5
q0 -177 66.5 -283t189.5 -106z" />
    <glyph glyph-name="one.dnom" horiz-adv-x="557" 
d="M375 0h-96v801l-183 -72l-35 94l232 88h82v-911z" />
    <glyph glyph-name="two.dnom" horiz-adv-x="786" 
d="M707 0h-627v82l416 401q88 85 88 189q0 75 -49.5 123.5t-139.5 48.5q-145 0 -256 -139l-67 67q141 166 319 166q136 0 213.5 -74t77.5 -190q-3 -145 -113 -252l-342 -332h480v-90z" />
    <glyph glyph-name="three.dnom" horiz-adv-x="806" 
d="M74 123l61 70q69 -66 130 -95.5t141 -29.5q103 0 163 46.5t60 129.5q0 29 -8.5 55t-31 54t-70.5 44.5t-118 16.5h-147v90h158q50 0 88 13.5t57 31.5t30.5 43t14 42t2.5 34q0 73 -47 124.5t-141 51.5q-129 0 -262 -123l-62 72q134 145 324 145q138 0 211 -74.5t73 -187.5
q0 -158 -137 -217v-2q164 -52 164 -217q0 -123 -90.5 -195t-233.5 -72q-196 0 -329 150z" />
    <glyph glyph-name="four.dnom" horiz-adv-x="808" 
d="M510 225h-459v74l447 612h108v-596h156v-90h-156v-225h-96v225zM510 768l-332 -453h332v453z" />
    <glyph glyph-name="five.dnom" horiz-adv-x="821" 
d="M74 98l61 74q122 -96 254 -96q120 0 181 53.5t61 151.5q0 90 -59 136t-158 46h-293l63 457h490v-91h-410l-37 -276h197q63 0 116 -15t96 -46.5t67 -84.5t24 -124q0 -147 -92 -224t-246 -77q-172 0 -315 116z" />
    <glyph glyph-name="six.dnom" horiz-adv-x="792" 
d="M80 270q0 45 10.5 86.5t32 80.5t38 63t44.5 61l274 350h115l-270 -346q-1 -1 -3.5 -4t-3.5 -4q37 12 78 12q140 0 228 -83.5t88 -215.5t-88 -214.5t-228 -82.5q-138 0 -226.5 82.5t-88.5 214.5zM178 270q0 -96 58 -149t159 -53t160 53t59 149q0 97 -59 151t-160 54
t-159 -54t-58 -151z" />
    <glyph glyph-name="seven.dnom" horiz-adv-x="714" 
d="M168 0h-111l500 821h-500v90h617v-80z" />
    <glyph glyph-name="eight.dnom" horiz-adv-x="813" 
d="M281 467v2q-17 5 -32.5 11t-44 23.5t-49 39t-36 59.5t-15.5 84q0 111 82 181.5t222 70.5q138 0 219.5 -70.5t81.5 -181.5q0 -46 -15.5 -84t-35.5 -59.5t-48.5 -39t-43 -23.5t-31.5 -11v-2q17 -5 35.5 -11.5t50.5 -26t55 -43.5t41 -65.5t18 -91.5q0 -111 -81.5 -183.5
t-245.5 -72.5q-165 0 -248.5 72.5t-83.5 183.5q0 50 18 91.5t42 65.5t56.5 43t51.5 26t37 12zM203 682q0 -73 59 -119.5t146 -46.5q86 0 145 47t59 119q0 71 -57 116.5t-147 45.5q-92 0 -148.5 -45.5t-56.5 -116.5zM174 242q0 -73 58.5 -123.5t175.5 -50.5t174 50t57 122
q0 81 -65.5 130.5t-165.5 49.5q-102 0 -168 -49.5t-66 -128.5z" />
    <glyph glyph-name="nine.dnom" horiz-adv-x="782" 
d="M307 0h-114l270 346q1 1 3 4t3 4q-37 -12 -78 -12q-139 0 -227 83.5t-88 215.5t87.5 214.5t227.5 82.5q139 0 227.5 -83t88.5 -214q0 -45 -10.5 -86.5t-32 -80.5t-38 -63t-44.5 -61zM172 641q0 -97 58.5 -151t160.5 -54q101 0 159 54t58 151q0 96 -58 149.5t-159 53.5
q-102 0 -160.5 -53.5t-58.5 -149.5z" />
    <glyph glyph-name="zero.onum" horiz-adv-x="1204" 
d="M602 -23q-150 0 -266 74.5t-176 198.5t-60 276q0 153 60 278t176 200t266 75q151 0 267 -75t175.5 -200t59.5 -278q0 -152 -59.5 -276t-175.5 -198.5t-267 -74.5zM602 90q119 0 207 59t132 157t44 220q0 123 -44 222t-132 158t-207 59t-207 -59t-132 -158t-44 -222
q0 -122 44 -220t132 -157t207 -59z" />
    <glyph glyph-name="one.onum" horiz-adv-x="1150" 
d="M1059 0h-936v115h418v805l-396 -111l-34 109l485 143h63v-946h400v-115z" />
    <glyph glyph-name="two.onum" horiz-adv-x="1052" 
d="M936 0h-815l2 98l495 391q85 66 122.5 130t37.5 143q0 88 -63 145.5t-176 57.5q-158 0 -334 -162l-76 88q105 100 203 144t213 44q162 0 257 -92t95 -227q0 -112 -48 -192.5t-149 -161.5l-368 -291h604v-115z" />
    <glyph glyph-name="three.onum" horiz-adv-x="1187" 
d="M88 -207l78 90q179 -184 409 -184q183 0 282 82t99 219q0 131 -103 210t-263 79h-242v112h250q87 0 151.5 26.5t98.5 69.5t49.5 88t15.5 91q0 139 -93.5 214t-241.5 75q-104 0 -197.5 -42t-194.5 -143l-75 88q105 107 217.5 159t249.5 52q88 0 168 -24.5t145.5 -70.5
t104 -122.5t38.5 -171.5q0 -72 -22 -133.5t-57.5 -102.5t-75 -67.5t-80.5 -38.5v-2q43 -10 88 -34t89.5 -64.5t72.5 -106t28 -145.5q0 -190 -139 -301t-363 -111q-281 0 -487 209z" />
    <glyph glyph-name="four.onum" horiz-adv-x="1193" 
d="M817 0h-754v102l723 955h150v-944h223v-113h-223v-393h-119v393zM817 901l-600 -788h600v788z" />
    <glyph glyph-name="five.onum" horiz-adv-x="1202" 
d="M72 -193l78 87q79 -84 189.5 -139.5t248.5 -55.5q174 0 278.5 90.5t104.5 243.5q0 165 -102.5 235t-290.5 70h-410l96 719h756v-115h-653l-66 -489h285q112 0 201 -22t158.5 -69t107 -127.5t37.5 -191.5q0 -217 -136.5 -338t-365.5 -121q-305 0 -516 223z" />
    <glyph glyph-name="six.onum" horiz-adv-x="1202" 
d="M111 438q0 70 16 134.5t49 124.5t59 98t70 94l426 545h148l-426 -545q-3 -4 -9.5 -11.5t-9.5 -11.5q81 35 168 35q216 0 353 -129t137 -334t-137 -335t-353 -130q-217 0 -354 130t-137 335zM231 438q0 -161 101 -255.5t270 -94.5q168 0 269.5 95t101.5 255
q0 159 -101.5 254.5t-269.5 95.5q-166 0 -268.5 -96t-102.5 -254z" />
    <glyph glyph-name="seven.onum" horiz-adv-x="1191" 
d="M315 -395l-141 2l791 1335h-871v115h1020v-99z" />
    <glyph glyph-name="eight.onum" horiz-adv-x="1239" 
d="M422 733v4q-25 8 -48.5 17.5t-68 37t-75.5 61t-55.5 91.5t-24.5 127q0 173 127 281t344 108q215 0 343 -108t128 -281q0 -69 -25 -127t-56 -91.5t-76 -61t-68.5 -37t-49.5 -17.5v-4q26 -6 55 -16.5t78 -39t85.5 -65t64.5 -100t28 -139.5q0 -83 -30 -154t-90 -127
t-159 -87.5t-228 -31.5t-229 31.5t-160 87.5t-90.5 127t-30.5 154q0 76 28 139.5t64.5 100t85.5 65t78 39t55 16.5zM268 1067q0 -89 49.5 -152.5t128 -93.5t175.5 -30q96 0 173.5 30t127 93.5t49.5 152.5q0 126 -95.5 202.5t-254.5 76.5q-161 0 -257 -76.5t-96 -202.5z
M231 377q0 -128 95.5 -208.5t294.5 -80.5q198 0 292.5 80.5t94.5 208.5q0 143 -110 221t-277 78q-168 0 -279 -78t-111 -221z" />
    <glyph glyph-name="nine.onum" horiz-adv-x="1202" 
d="M463 -393h-148l435 555l18 24q-83 -36 -166 -36q-217 0 -354 129.5t-137 334.5t137 335t354 130q216 0 353 -130t137 -335q0 -70 -16 -134t-50 -125t-59 -97.5t-70 -95.5zM231 614q0 -160 101 -255t270 -95q165 0 268 95.5t103 254.5t-101.5 255t-269.5 96
q-169 0 -270 -95.5t-101 -255.5z" />
    <glyph glyph-name="zero.pnum" 
d="M664 -27q-113 0 -206.5 38.5t-159 106t-110 161.5t-65.5 204t-21 234t21 234t65.5 204t110 161.5t159 105.5t206.5 38q141 0 250 -58t176 -161t101 -235.5t34 -288.5t-34 -289t-101 -235.5t-176 -161t-250 -58.5zM664 88q96 0 172.5 36t125.5 95.5t82 142t46.5 170.5
t13.5 185t-14 185t-47 170.5t-82 142t-125.5 95.5t-171.5 36t-171.5 -36t-126 -95.5t-82.5 -142t-47 -170.5t-14 -185t14 -185t46.5 -170.5t82 -142t126 -95.5t172.5 -36z" />
    <glyph glyph-name="one.pnum" 
d="M1126 0h-927v115h417v1177l-395 -110l-35 110l486 142h63v-1319h391v-115z" />
    <glyph glyph-name="two.pnum" 
d="M1130 0h-946v94l611 641q81 86 121 159t40 159q0 139 -84.5 216t-220.5 77q-99 0 -190 -43.5t-193 -143.5l-78 86q208 215 465 215q189 0 305.5 -110.5t116.5 -290.5q0 -114 -45.5 -203.5t-142.5 -189.5l-522 -551h763v-115z" />
    <glyph glyph-name="three.pnum" 
d="M162 184l76 86q94 -95 204.5 -138.5t219.5 -43.5q183 0 285 83.5t102 221.5t-91.5 205.5t-255.5 67.5h-192v88l459 565h-637v-285h-123v400h921v-93l-458 -565h45q88 0 166 -21.5t143.5 -65t104 -119.5t38.5 -175q0 -192 -138 -307t-369 -115q-141 0 -272.5 54.5
t-227.5 156.5z" />
    <glyph glyph-name="four.pnum" 
d="M874 360h-751v105l731 969h139v-961h224v-113h-224v-360h-119v360zM874 1264l-600 -791h600v791z" />
    <glyph glyph-name="five.pnum" 
d="M133 199l78 84q79 -84 189.5 -139.5t248.5 -55.5q174 0 278.5 90.5t104.5 243.5q0 165 -102.5 235t-290.5 70h-412l99 707h755v-115h-653l-66 -477h285q112 0 200.5 -22t158.5 -69t107.5 -128t37.5 -191q0 -217 -136.5 -338t-365.5 -121q-309 0 -516 226z" />
    <glyph glyph-name="six.pnum" 
d="M174 438q0 70 16 134.5t49.5 124.5t59.5 98t70 94l424 545h147l-424 -545q-3 -4 -9 -11.5t-9 -11.5q78 35 166 35q217 0 353 -129t136 -334q0 -206 -136 -335.5t-353 -129.5t-353.5 129.5t-136.5 335.5zM293 438q0 -161 101 -255.5t270 -94.5t269.5 94.5t100.5 255.5
q0 160 -100.5 255t-269.5 95q-165 0 -268 -96.5t-103 -253.5z" />
    <glyph glyph-name="seven.pnum" 
d="M426 0h-141l782 1319h-778v-285h-115v400h1043v-99z" />
    </font>
</defs>
</svg>
