if (_typeface_js && _typeface_js.loadFace) _typeface_js.loadFace({"glyphs":{"ǻ":{"x_min":41,"x_max":858.921875,"ha":949,"o":"m 760 0 l 664 0 l 678 111 q 385 -19 550 -19 q 137 78 234 -19 q 41 327 41 175 q 166 630 41 503 q 462 757 292 757 q 624 718 554 757 q 743 597 693 679 l 760 738 l 858 738 l 760 0 m 395 68 q 562 111 487 68 q 681 234 637 154 q 726 410 726 315 q 653 596 726 525 q 465 668 580 668 q 231 570 328 668 q 135 329 135 472 q 207 139 135 211 q 395 68 280 68 m 541 1117 q 632 1081 596 1117 q 668 992 668 1045 q 617 876 668 926 q 499 827 567 827 q 411 863 447 827 q 376 951 376 899 q 426 1067 376 1017 q 541 1117 476 1117 m 531 1048 q 471 1022 497 1048 q 446 963 446 996 q 464 917 446 935 q 510 899 482 899 q 570 924 544 899 q 596 983 596 950 q 577 1029 596 1011 q 531 1048 558 1048 m 599 1377 l 745 1377 l 515 1168 l 422 1168 l 599 1377 "},"Á":{"x_min":-19.671875,"x_max":912.140625,"ha":1027,"o":"m 577 997 l 912 0 l 809 0 l 700 326 l 278 326 l 91 0 l -19 0 l 554 997 l 577 997 m 545 788 l 332 421 l 669 421 l 545 788 m 646 1285 l 792 1285 l 562 1076 l 469 1076 l 646 1285 "},"ĥ":{"x_min":27.859375,"x_max":720,"ha":847,"o":"m 168 1023 l 260 1023 l 206 626 q 466 757 320 757 q 649 687 578 757 q 720 505 720 617 q 705 339 720 443 l 659 0 l 565 0 l 611 339 q 626 502 626 442 q 578 625 626 578 q 453 672 531 672 q 317 633 381 672 q 218 528 253 594 q 164 319 183 463 l 120 0 l 27 0 l 168 1023 m 444 1248 l 539 1248 l 711 1074 l 589 1074 l 484 1176 l 345 1074 l 219 1074 l 444 1248 "},"Κ":{"x_min":31.875,"x_max":819.90625,"ha":821,"o":"m 164 998 l 263 998 l 209 592 l 676 998 l 819 998 l 279 531 l 747 0 l 619 0 l 195 481 l 129 0 l 31 0 l 164 998 "},"»":{"x_min":-53.578125,"x_max":560.171875,"ha":590,"o":"m 361 0 l 258 0 l 463 373 l 367 738 l 459 738 l 560 360 l 361 0 m 49 0 l -53 0 l 151 373 l 55 738 l 147 738 l 248 360 l 49 0 "},"∆":{"x_min":17.625,"x_max":831.4375,"ha":850,"o":"m 831 0 l 17 0 l 443 941 l 831 0 m 671 56 l 400 711 l 102 56 l 671 56 "},"ў":{"x_min":31.875,"x_max":741.921875,"ha":745,"o":"m 31 738 l 129 738 l 320 193 l 636 738 l 741 738 l 157 -270 l 50 -270 l 259 90 l 31 738 m 177 1034 l 267 1034 q 408 964 303 964 q 500 979 464 964 q 571 1034 536 994 l 658 1034 q 567 932 634 973 q 399 891 499 891 q 242 931 299 891 q 177 1034 185 972 "},"ţ":{"x_min":69.171875,"x_max":448.953125,"ha":471,"o":"m 246 1014 l 339 1014 l 302 738 l 448 738 l 438 655 l 291 655 l 202 0 l 107 0 l 195 655 l 69 655 l 80 738 l 206 738 l 246 1014 m 141 -290 l 100 -272 q 135 -187 128 -222 l 80 -187 l 94 -83 l 200 -83 l 195 -117 q 141 -290 179 -230 "},"«":{"x_min":-0.671875,"x_max":613.0625,"ha":590,"o":"m 198 738 l 301 738 l 96 364 l 192 0 l 100 0 l 0 377 l 198 738 m 509 738 l 613 738 l 408 364 l 504 0 l 412 0 l 311 377 l 509 738 "},"í":{"x_min":9.5,"x_max":418.4375,"ha":278,"o":"m 111 738 l 201 738 l 103 0 l 9 0 l 111 738 m 272 1084 l 418 1084 l 188 875 l 94 875 l 272 1084 "},"◦":{"x_min":76,"x_max":417,"ha":493,"o":"m 246 630 q 366 581 315 630 q 417 459 417 532 q 367 338 417 388 q 246 289 317 289 q 125 338 175 289 q 76 459 76 388 q 126 580 76 530 q 246 630 176 630 m 246 578 q 163 544 198 578 q 128 459 128 510 q 162 375 128 410 q 246 341 197 341 q 330 375 295 341 q 365 459 365 410 q 329 543 365 509 q 246 578 294 578 "},"ņ":{"x_min":27.515625,"x_max":720,"ha":846,"o":"m 129 738 l 220 738 l 206 624 q 466 757 318 757 q 650 686 580 757 q 720 497 720 616 q 705 338 720 450 l 659 0 l 565 0 l 611 338 q 626 498 626 447 q 579 623 626 576 q 456 671 532 671 q 318 632 382 671 q 218 528 253 594 q 164 318 183 462 l 120 0 l 27 0 l 129 738 m 283 -81 q 340 -75 310 -75 q 434 -139 434 -75 q 387 -222 434 -186 q 262 -258 340 -258 q 169 -243 220 -258 l 190 -195 q 256 -204 228 -204 q 351 -156 351 -204 q 308 -131 351 -131 q 267 -135 291 -131 l 283 -81 "},"µ":{"x_min":-15.90625,"x_max":722.625,"ha":800,"o":"m -15 -270 l 122 738 l 217 738 l 162 348 q 155 260 155 292 q 205 134 155 182 q 336 86 256 86 q 460 126 403 86 q 544 223 517 166 q 574 360 561 261 l 627 738 l 722 738 l 620 0 l 525 0 l 536 79 q 435 6 489 29 q 319 -17 382 -17 q 206 6 254 -17 q 126 77 159 29 l 79 -270 l -15 -270 "},"ỳ":{"x_min":31.875,"x_max":741.921875,"ha":745,"o":"m 31 738 l 129 738 l 320 193 l 636 738 l 741 738 l 157 -270 l 50 -270 l 259 90 l 31 738 m 365 1084 l 484 875 l 390 875 l 219 1084 l 365 1084 "},"Ι":{"x_min":26.453125,"x_max":261.765625,"ha":314,"o":"m 161 998 l 261 998 l 126 0 l 26 0 l 161 998 "},"Ύ":{"x_min":-36,"x_max":929.703125,"ha":897,"o":"m 130 998 l 235 998 l 448 544 l 809 998 l 929 998 l 487 442 l 427 0 l 329 0 l 389 447 l 130 998 m 88 1023 l 38 794 l -36 794 l -36 1023 l 88 1023 "},"ѕ":{"x_min":-23.765625,"x_max":470.53125,"ha":539,"o":"m 470 654 l 418 578 q 270 667 356 667 q 187 635 222 667 q 153 564 153 603 q 174 507 153 534 q 266 433 194 480 q 406 314 372 365 q 440 195 440 263 q 375 42 440 103 q 206 -19 310 -19 q -23 102 69 -19 l 33 169 q 212 70 115 70 q 307 108 266 70 q 348 198 348 147 q 317 277 348 239 q 212 360 297 301 q 90 465 119 423 q 61 559 61 507 q 122 699 61 641 q 278 757 184 757 q 379 734 334 757 q 470 654 424 712 "},"Ш":{"x_min":32.546875,"x_max":1326.5,"ha":1403,"o":"m 145 94 l 571 94 l 693 997 l 794 997 l 672 94 l 1104 94 l 1226 998 l 1326 998 l 1192 0 l 32 0 l 167 998 l 267 998 l 145 94 "},"M":{"x_min":-2,"x_max":1114,"ha":1277,"o":"m 1114 998 l 1114 0 l 1020 0 l 1020 687 l 587 0 l 562 0 l 303 712 l 99 0 l -2 0 l 286 998 l 302 998 l 594 187 l 1098 998 l 1114 998 "},"Ψ":{"x_min":87,"x_max":1048.921875,"ha":1098,"o":"m 1002 652 q 944 440 984 512 q 808 308 905 368 q 543 248 711 248 l 510 0 l 412 0 l 445 254 q 87 541 87 254 q 95 656 87 589 l 140 997 l 239 997 l 199 693 q 189 565 189 613 q 249 402 189 458 q 458 346 309 346 l 545 998 l 643 998 l 555 341 q 760 395 643 341 q 908 693 876 449 l 949 998 l 1048 998 l 1002 652 "},"ũ":{"x_min":72,"x_max":758.796875,"ha":844,"o":"m 127 738 l 222 738 l 179 429 q 162 261 162 298 q 218 122 162 176 q 368 69 275 69 q 502 109 445 69 q 583 216 559 150 q 612 369 596 249 l 665 738 l 758 738 l 720 458 q 663 173 693 258 q 554 35 632 89 q 363 -19 476 -19 q 153 59 235 -19 q 72 255 72 137 q 79 364 72 301 l 86 429 l 89 457 l 127 738 m 676 1012 l 715 946 q 625 898 661 910 q 553 886 589 886 q 456 911 504 886 q 404 936 415 933 q 370 941 387 941 q 322 933 345 941 q 255 894 300 924 l 220 963 q 381 1030 291 1030 q 482 1002 425 1030 q 567 976 536 976 q 676 1012 606 976 "},"ŭ":{"x_min":72,"x_max":758.796875,"ha":844,"o":"m 127 738 l 222 738 l 179 429 q 162 261 162 298 q 218 122 162 176 q 368 69 275 69 q 502 109 445 69 q 583 216 559 150 q 612 369 596 249 l 665 738 l 758 738 l 720 458 q 663 173 693 258 q 554 35 632 89 q 363 -19 476 -19 q 153 59 235 -19 q 72 255 72 137 q 79 364 72 301 l 86 429 l 89 457 l 127 738 m 246 1034 l 336 1034 q 478 964 372 964 q 569 979 533 964 q 640 1034 605 994 l 727 1034 q 636 932 703 973 q 468 891 568 891 q 311 931 368 891 q 246 1034 254 972 "},"―":{"x_min":-45,"x_max":1013,"ha":1041,"o":"m -45 433 l 1013 433 l 1013 345 l -45 345 l -45 433 "},"{":{"x_min":26.5625,"x_max":517.78125,"ha":487,"o":"m 42 402 q 111 416 83 402 q 170 472 148 436 q 203 569 191 507 q 225 711 209 599 q 262 870 242 822 q 314 947 282 919 q 393 989 346 976 q 480 998 421 998 l 517 998 l 502 891 l 481 891 q 401 877 424 891 q 366 836 378 864 q 338 701 353 808 q 298 501 319 559 q 244 409 277 443 q 146 346 211 374 q 229 276 202 321 q 256 157 256 232 q 239 -9 256 109 q 227 -125 227 -97 q 247 -182 227 -166 q 328 -199 267 -199 l 349 -199 l 334 -306 l 297 -306 q 207 -297 234 -306 q 137 -244 162 -282 q 112 -145 112 -206 q 130 28 112 -103 q 142 160 142 122 q 112 257 142 224 q 26 290 82 290 l 42 402 "},"¼":{"x_min":122.078125,"x_max":1034.203125,"ha":1154,"o":"m 151 1010 l 289 1010 l 208 497 l 134 497 l 204 944 l 122 944 l 151 1010 m 153 -24 l 786 1023 l 861 1023 l 229 -24 l 153 -24 m 1010 536 l 951 167 l 1034 167 l 1023 99 l 941 99 l 925 -6 l 851 -6 l 868 99 l 598 99 l 1010 536 l 1010 536 m 903 320 l 758 167 l 878 167 l 903 320 "},"ι":{"x_min":9.5,"x_max":201.421875,"ha":278,"o":"m 111 738 l 201 738 l 103 0 l 9 0 l 111 738 "},"Ĳ":{"x_min":26.453125,"x_max":873.484375,"ha":983,"o":"m 161 998 l 261 998 l 126 0 l 26 0 l 161 998 m 774 998 l 873 998 l 783 310 q 743 115 766 179 q 666 13 721 51 q 536 -25 611 -25 q 296 94 404 -25 l 373 149 q 538 67 455 67 q 623 104 584 67 q 683 302 662 142 l 774 998 "},"Ê":{"x_min":32.546875,"x_max":716.140625,"ha":745,"o":"m 716 998 l 701 901 l 252 901 l 208 574 l 657 574 l 644 478 l 195 478 l 145 96 l 594 96 l 582 0 l 32 0 l 166 998 l 716 998 m 425 1248 l 519 1248 l 691 1074 l 569 1074 l 464 1177 l 325 1074 l 199 1074 l 425 1248 "},"Ά":{"x_min":-19.40625,"x_max":912.40625,"ha":1027,"o":"m 578 997 l 912 0 l 810 0 l 700 326 l 278 326 l 91 0 l -19 0 l 555 997 l 578 997 m 546 788 l 333 421 l 669 421 l 546 788 m 325 1022 l 275 793 l 201 793 l 201 1022 l 325 1022 "},")":{"x_min":-46.8125,"x_max":319,"ha":513,"o":"m 63 -289 l -46 -289 q 146 159 75 -94 q 217 679 217 413 q 173 1042 217 885 l 278 1042 q 319 694 319 894 q 251 177 319 435 q 63 -289 183 -80 "},"ε":{"x_min":24,"x_max":546.671875,"ha":588,"o":"m 498 78 q 241 -20 393 -20 q 85 35 146 -20 q 24 178 24 90 q 180 403 24 339 q 101 533 101 450 q 171 693 101 628 q 346 758 241 758 q 546 674 458 758 l 484 608 q 338 668 415 668 q 231 627 270 668 q 192 529 192 587 q 222 456 192 485 q 303 427 253 427 l 353 427 l 342 346 l 284 346 q 171 301 220 346 q 122 184 122 256 q 261 69 122 69 q 447 146 369 69 l 498 78 "},"э":{"x_min":-0.234375,"x_max":782,"ha":888,"o":"m 677 341 l 344 341 l 355 422 l 682 422 q 604 601 682 536 q 412 667 527 667 q 127 537 234 667 l 56 585 q 420 757 195 757 q 678 664 575 757 q 782 410 782 572 q 661 107 782 234 q 342 -19 541 -19 q 0 147 87 -19 l 81 197 q 330 68 167 68 q 547 135 453 68 q 677 341 641 202 "},"ш":{"x_min":27.125,"x_max":1228.171875,"ha":1327,"o":"m 1130 0 l 27 0 l 126 738 l 223 738 l 136 90 l 541 90 l 629 738 l 726 738 l 639 90 l 1045 90 l 1131 738 l 1228 738 l 1130 0 "},"Я":{"x_min":-26.546875,"x_max":746.5,"ha":822,"o":"m 746 998 l 611 0 l 511 0 l 572 450 l 477 450 l 96 0 l -26 0 l 355 450 q 234 475 310 450 q 121 562 158 501 q 84 700 84 624 q 140 872 84 797 q 274 973 197 948 q 488 998 350 998 l 746 998 m 633 900 l 457 900 q 305 881 355 900 q 221 812 255 863 q 187 699 187 761 q 233 586 187 628 q 419 544 279 544 l 585 544 l 633 900 "},"a":{"x_min":41,"x_max":858.921875,"ha":949,"o":"m 760 0 l 665 0 l 679 111 q 385 -19 551 -19 q 138 78 235 -19 q 41 327 41 175 q 166 630 41 503 q 462 757 292 757 q 624 718 555 757 q 743 597 694 679 l 760 738 l 858 738 l 760 0 m 395 68 q 562 111 487 68 q 681 234 637 154 q 726 410 726 315 q 653 596 726 525 q 465 668 580 668 q 231 570 328 668 q 135 329 135 472 q 207 139 135 211 q 395 68 280 68 "},"Ę":{"x_min":32.6875,"x_max":716,"ha":744,"o":"m 716 997 l 701 900 l 253 900 l 209 574 l 657 574 l 644 478 l 196 478 l 145 95 l 593 95 l 582 0 l 32 0 l 166 997 l 716 997 m 448 0 l 522 0 q 421 -138 421 -77 q 442 -187 421 -168 q 509 -206 464 -206 q 557 -202 530 -206 l 543 -260 q 484 -267 513 -267 q 380 -236 414 -267 q 346 -159 346 -205 q 373 -75 346 -119 q 448 0 400 -31 "},"Z":{"x_min":8.8125,"x_max":659.859375,"ha":667,"o":"m 147 998 l 659 998 l 170 95 l 543 95 l 531 0 l 8 0 l 500 902 l 134 902 l 147 998 "},"k":{"x_min":26.453125,"x_max":688.34375,"ha":697,"o":"m 170 1023 l 263 1023 l 185 464 l 540 738 l 688 738 l 259 408 l 637 0 l 511 0 l 170 366 l 121 0 l 26 0 l 170 1023 "},"Ù":{"x_min":66,"x_max":842.125,"ha":909,"o":"m 157 997 l 256 997 l 180 426 q 166 264 166 312 q 219 120 166 171 q 370 70 273 70 q 492 93 439 70 q 582 160 545 116 q 634 261 619 204 q 681 515 661 362 l 743 998 l 842 998 l 775 493 l 759 370 q 725 223 745 284 q 673 116 705 162 q 601 39 642 69 q 502 -7 560 9 q 373 -25 444 -25 q 145 49 225 -25 q 66 247 66 124 q 70 325 66 282 l 84 441 l 157 997 m 484 1285 l 602 1077 l 509 1077 l 338 1285 l 484 1285 "},"Ů":{"x_min":66,"x_max":842.34375,"ha":909,"o":"m 157 997 l 256 997 l 180 426 q 166 264 166 312 q 219 120 166 171 q 370 70 273 70 q 492 93 439 70 q 582 160 545 116 q 634 261 619 204 q 681 515 661 362 l 744 998 l 842 998 l 775 493 l 759 370 q 725 223 745 284 q 674 116 706 162 q 601 39 642 69 q 502 -7 560 9 q 373 -25 445 -25 q 146 49 226 -25 q 66 247 66 124 q 70 325 66 282 l 84 441 l 157 997 m 518 1349 q 609 1313 573 1349 q 645 1224 645 1277 q 594 1109 645 1159 q 476 1060 544 1060 q 388 1095 424 1060 q 353 1184 353 1131 q 403 1299 353 1249 q 518 1349 453 1349 m 508 1280 q 448 1254 474 1280 q 423 1195 423 1228 q 441 1150 423 1168 q 487 1132 459 1132 q 547 1157 521 1132 q 573 1216 573 1183 q 554 1261 573 1243 q 508 1280 535 1280 "},"¢":{"x_min":-0.1875,"x_max":763.828125,"ha":771,"o":"m 693 917 l 763 870 l 649 694 q 712 644 683 672 l 654 569 q 599 615 628 593 l 259 93 q 369 72 314 72 q 613 167 505 72 l 666 93 q 361 -19 538 -19 q 208 15 279 -19 l 73 -192 l 0 -145 l 138 64 q 56 186 81 125 q 31 321 31 247 q 88 536 31 434 q 245 697 146 638 q 449 757 345 757 q 575 733 506 757 l 693 917 m 521 653 q 453 666 483 666 q 293 619 370 666 q 170 494 215 573 q 125 324 125 414 q 190 143 125 218 l 521 653 "},"В":{"x_min":33.765625,"x_max":727,"ha":798,"o":"m 166 998 l 294 998 q 549 975 483 998 q 657 896 616 952 q 698 763 698 839 q 654 619 698 683 q 538 528 611 556 q 676 436 626 501 q 727 281 727 370 q 683 124 727 189 q 568 29 640 58 q 317 0 495 0 l 33 0 l 166 998 m 252 904 l 208 571 q 275 569 237 569 q 471 590 411 569 q 564 658 531 612 q 598 761 598 705 q 546 869 598 834 q 325 904 494 904 q 252 904 296 904 m 195 474 l 145 94 l 280 94 q 474 105 421 94 q 587 166 549 122 q 626 281 626 211 q 594 385 626 343 q 492 450 563 427 q 279 474 421 474 l 195 474 "},"І":{"x_min":26.453125,"x_max":261.765625,"ha":314,"o":"m 161 998 l 261 998 l 126 0 l 26 0 l 161 998 "},"ē":{"x_min":39,"x_max":795,"ha":902,"o":"m 790 350 l 131 350 q 201 143 131 218 q 388 68 271 68 q 533 99 466 68 q 642 189 599 131 l 713 131 q 573 22 659 63 q 386 -19 486 -19 q 126 88 213 -19 q 39 330 39 196 q 97 541 39 440 q 254 700 156 643 q 467 757 352 757 q 702 661 609 757 q 795 416 795 565 q 790 350 795 389 m 701 432 q 633 601 701 536 q 464 666 566 666 q 268 603 353 666 q 148 432 184 541 l 701 432 m 250 1003 l 718 1003 l 706 922 l 238 922 l 250 1003 "},"β":{"x_min":-17.921875,"x_max":711,"ha":828,"o":"m 131 133 l 77 -270 l -17 -270 l 117 750 q 214 966 136 890 q 422 1042 293 1042 q 583 986 523 1042 q 644 837 644 930 q 467 610 644 664 q 642 519 574 599 q 711 326 711 438 q 616 73 711 165 q 360 -19 522 -19 q 131 133 209 -19 m 279 546 l 290 627 q 475 679 405 627 q 546 822 546 732 q 513 918 546 883 q 423 953 480 953 q 278 901 330 953 q 210 728 226 849 l 157 332 q 155 298 155 314 q 214 135 155 203 q 371 68 274 68 q 551 135 487 68 q 615 324 615 202 q 327 546 615 546 l 279 546 "},"≠":{"x_min":38,"x_max":724,"ha":762,"o":"m 503 694 l 724 694 l 724 601 l 467 601 l 387 396 l 724 396 l 724 303 l 351 303 l 225 -25 l 131 -25 l 257 303 l 38 303 l 38 396 l 293 396 l 372 601 l 38 601 l 38 694 l 407 694 l 533 1022 l 629 1022 l 503 694 "},"‼":{"x_min":56,"x_max":555.8125,"ha":658,"o":"m 214 1023 l 308 1023 l 205 249 l 110 249 l 214 1023 m 462 1023 l 555 1023 l 453 249 l 358 249 l 462 1023 m 138 147 q 196 123 172 147 q 221 64 221 99 q 196 5 221 29 q 138 -19 172 -19 q 80 5 104 -19 q 56 64 56 29 q 80 122 56 98 q 138 147 104 147 m 386 147 q 445 122 421 147 q 469 64 469 98 q 445 5 469 29 q 386 -19 421 -19 q 328 5 352 -19 q 304 64 304 29 q 328 122 304 98 q 386 147 352 147 "},"¥":{"x_min":30.515625,"x_max":766.328125,"ha":770,"o":"m 98 998 l 202 998 l 373 589 l 652 998 l 766 998 l 416 479 l 665 479 l 653 401 l 404 401 l 389 295 l 638 295 l 626 216 l 377 216 l 347 0 l 249 0 l 280 216 l 30 216 l 41 295 l 291 295 l 305 401 l 56 401 l 66 479 l 316 479 l 98 998 "},"Ĥ":{"x_min":32.546875,"x_max":872.796875,"ha":949,"o":"m 166 997 l 264 997 l 210 592 l 721 592 l 775 998 l 872 998 l 741 0 l 644 0 l 710 498 l 196 498 l 131 0 l 32 0 l 166 997 m 506 1247 l 600 1247 l 773 1074 l 651 1074 l 545 1176 l 406 1074 l 280 1074 l 506 1247 "},"U":{"x_min":66,"x_max":842.125,"ha":909,"o":"m 157 997 l 256 997 l 180 426 q 166 264 166 312 q 219 120 166 171 q 370 70 273 70 q 492 93 439 70 q 582 160 545 116 q 634 261 619 204 q 681 515 661 362 l 743 998 l 842 998 l 775 493 l 759 370 q 725 223 745 284 q 673 116 705 162 q 601 39 642 69 q 502 -7 560 9 q 373 -25 444 -25 q 145 49 225 -25 q 66 247 66 124 q 70 325 66 282 l 84 441 l 157 997 "},"Ñ":{"x_min":33.90625,"x_max":955.546875,"ha":1027,"o":"m 857 998 l 955 998 l 820 0 l 798 0 l 237 773 l 132 0 l 33 0 l 168 998 l 189 998 l 752 223 l 857 998 m 775 1213 l 813 1147 q 723 1100 759 1112 q 651 1088 688 1088 q 554 1113 602 1088 q 502 1138 514 1134 q 468 1143 486 1143 q 421 1134 443 1143 q 354 1096 398 1126 l 318 1165 q 480 1231 389 1231 q 580 1204 523 1231 q 665 1178 634 1178 q 775 1213 705 1178 "},"F":{"x_min":31.875,"x_max":647.65625,"ha":673,"o":"m 647 998 l 635 900 l 252 900 l 208 574 l 591 574 l 579 478 l 195 478 l 130 0 l 31 0 l 166 998 l 647 998 "},"Ќ":{"x_min":21.703125,"x_max":791.421875,"ha":802,"o":"m 156 998 l 258 998 l 202 583 l 656 998 l 791 998 l 292 552 l 693 0 l 561 0 l 214 483 l 185 458 l 123 0 l 21 0 l 156 998 m 556 1285 l 702 1285 l 472 1076 l 379 1076 l 556 1285 "},"∕":{"x_min":-267.203125,"x_max":440.8125,"ha":231,"o":"m -267 -25 l 364 1023 l 440 1023 l -191 -25 l -267 -25 "},"å":{"x_min":41,"x_max":858.921875,"ha":949,"o":"m 760 0 l 664 0 l 679 111 q 385 -19 551 -19 q 138 78 235 -19 q 41 327 41 175 q 166 630 41 503 q 462 757 292 757 q 624 718 555 757 q 743 597 694 679 l 760 738 l 858 738 l 760 0 m 395 68 q 562 111 487 68 q 681 234 637 154 q 726 410 726 315 q 653 596 726 525 q 465 668 580 668 q 231 570 328 668 q 135 329 135 472 q 207 139 135 211 q 395 68 280 68 m 562 1147 q 652 1111 616 1147 q 688 1022 688 1075 q 637 906 688 956 q 519 857 587 857 q 431 892 467 857 q 396 981 396 928 q 446 1097 396 1047 q 562 1147 496 1147 m 551 1078 q 491 1052 517 1078 q 466 993 466 1026 q 484 947 466 965 q 530 929 502 929 q 590 954 564 929 q 616 1013 616 980 q 597 1059 616 1041 q 551 1078 578 1078 "},"Ϋ":{"x_min":56.640625,"x_max":856.15625,"ha":823,"o":"m 56 997 l 161 997 l 374 544 l 735 997 l 856 997 l 413 441 l 353 0 l 255 0 l 315 447 l 56 997 m 344 1231 q 393 1211 373 1231 q 413 1163 413 1191 q 385 1101 413 1128 q 321 1074 357 1074 q 273 1093 292 1074 q 254 1141 254 1112 q 281 1203 254 1176 q 344 1231 308 1231 m 621 1231 q 670 1211 651 1231 q 690 1163 690 1191 q 662 1101 690 1128 q 598 1074 634 1074 q 550 1093 569 1074 q 531 1141 531 1112 q 558 1203 531 1176 q 621 1231 585 1231 "},"0":{"x_min":31,"x_max":697,"ha":770,"o":"m 429 1023 q 620 924 543 1023 q 697 646 697 826 q 633 276 697 440 q 482 43 570 112 q 294 -25 394 -25 q 160 15 218 -25 q 66 137 102 55 q 31 348 31 219 q 91 724 31 563 q 241 953 151 884 q 429 1023 331 1023 m 420 928 q 291 868 359 928 q 177 670 222 809 q 132 339 132 531 q 180 135 132 202 q 299 69 228 69 q 439 135 372 69 q 546 327 507 202 q 596 660 596 483 q 545 861 596 794 q 420 928 495 928 "},"ō":{"x_min":38,"x_max":801,"ha":910,"o":"m 461 757 q 634 711 555 757 q 756 586 712 666 q 801 404 801 506 q 744 188 801 288 q 593 35 688 89 q 378 -19 498 -19 q 133 78 229 -19 q 38 326 38 175 q 94 544 38 444 q 248 700 150 643 q 461 757 346 757 m 459 667 q 293 622 370 667 q 173 501 215 578 q 132 331 132 424 q 203 142 132 215 q 389 69 275 69 q 551 111 478 69 q 666 234 623 154 q 708 405 708 314 q 676 541 708 482 q 586 634 644 601 q 459 667 528 667 m 252 1003 l 720 1003 l 709 922 l 241 922 l 252 1003 "},"”":{"x_min":117.328125,"x_max":571.703125,"ha":672,"o":"m 166 649 l 117 678 q 166 767 154 740 q 186 835 177 794 l 126 835 l 152 1023 l 272 1023 l 263 939 q 231 772 252 833 q 166 649 210 712 m 465 649 l 416 678 q 465 767 453 740 q 485 835 476 794 l 425 835 l 451 1023 l 571 1023 l 562 939 q 530 772 552 833 q 465 649 509 712 "},"ö":{"x_min":38,"x_max":801,"ha":910,"o":"m 461 757 q 634 711 555 757 q 756 586 712 666 q 801 404 801 506 q 744 188 801 288 q 593 35 688 89 q 378 -19 498 -19 q 133 78 229 -19 q 38 326 38 175 q 94 544 38 444 q 248 700 150 643 q 461 757 346 757 m 459 667 q 293 622 370 667 q 173 501 215 578 q 132 331 132 424 q 203 142 132 215 q 389 69 275 69 q 551 111 478 69 q 666 234 623 154 q 708 405 708 314 q 676 541 708 482 q 586 634 644 601 q 459 667 528 667 m 387 1029 q 436 1009 416 1029 q 456 961 456 989 q 428 899 456 926 q 364 872 400 872 q 316 891 335 872 q 297 939 297 910 q 324 1001 297 974 q 387 1029 351 1029 m 664 1029 q 713 1009 694 1029 q 733 961 733 989 q 705 899 733 926 q 641 872 677 872 q 593 891 612 872 q 574 939 574 910 q 601 1001 574 974 q 664 1029 628 1029 "},"ć":{"x_min":41,"x_max":812.859375,"ha":899,"o":"m 812 578 l 734 533 q 483 666 652 666 q 305 622 386 666 q 179 502 224 579 q 134 336 134 424 q 167 197 134 258 q 263 102 201 135 q 407 69 324 69 q 571 102 493 69 q 692 190 648 136 l 770 135 q 611 18 696 55 q 412 -19 525 -19 q 139 76 237 -19 q 41 330 41 171 q 169 631 41 506 q 484 757 298 757 q 681 709 596 757 q 812 578 767 662 m 582 1083 l 728 1083 l 498 875 l 405 875 l 582 1083 "},"þ":{"x_min":4.125,"x_max":858,"ha":948,"o":"m 176 1023 l 272 1023 l 220 627 q 513 757 348 757 q 761 660 664 757 q 858 410 858 563 q 732 107 858 234 q 436 -19 607 -19 q 274 20 344 -19 q 156 141 204 59 l 102 -270 l 4 -270 l 176 1023 m 503 670 q 336 626 412 670 q 217 503 261 583 q 173 327 173 422 q 245 141 173 212 q 433 69 318 69 q 667 167 570 69 q 764 408 764 265 q 691 598 764 526 q 503 670 619 670 "},"]":{"x_min":-65.109375,"x_max":344.515625,"ha":488,"o":"m 162 -270 l -65 -270 l -51 -174 l 80 -174 l 236 930 l 103 930 l 116 1023 l 344 1023 l 162 -270 "},"А":{"x_min":-19.671875,"x_max":912.140625,"ha":1027,"o":"m 577 997 l 912 0 l 809 0 l 700 326 l 278 326 l 91 0 l -19 0 l 554 997 l 577 997 m 545 788 l 332 421 l 669 421 l 545 788 "},"′":{"x_min":111.890625,"x_max":241.421875,"ha":275,"o":"m 181 709 l 111 709 l 141 1023 l 241 1023 l 181 709 "},"Ы":{"x_min":32.359375,"x_max":1039.84375,"ha":1115,"o":"m 940 998 l 1039 998 l 904 0 l 805 0 l 940 998 m 32 0 l 167 998 l 266 998 l 208 570 l 327 570 l 379 570 q 625 487 535 570 q 715 279 715 405 q 653 103 715 174 q 517 16 592 32 q 228 0 441 0 l 32 0 m 144 99 l 248 99 q 430 99 389 99 q 511 119 470 99 q 576 181 552 140 q 600 279 600 221 q 549 416 600 361 q 359 472 499 472 l 195 472 l 144 99 "},"ẁ":{"x_min":47.46875,"x_max":1128.46875,"ha":1154,"o":"m 47 738 l 141 738 l 293 217 l 571 738 l 587 738 l 755 211 l 1026 738 l 1128 738 l 747 0 l 728 0 l 557 520 l 280 0 l 262 0 l 47 738 m 566 1084 l 684 875 l 591 875 l 420 1084 l 566 1084 "},"ĭ":{"x_min":-50.1875,"x_max":430.640625,"ha":278,"o":"m 110 738 l 200 738 l 102 0 l 8 0 l 110 738 m -50 1034 l 39 1034 q 181 964 75 964 q 272 979 236 964 q 343 1034 308 994 l 430 1034 q 339 932 406 973 q 171 891 271 891 q 14 931 71 891 q -50 1034 -42 972 "},"8":{"x_min":4,"x_max":681,"ha":769,"o":"m 505 538 q 612 453 577 501 q 661 302 661 387 q 615 138 661 215 q 488 18 569 61 q 307 -25 406 -25 q 90 56 176 -25 q 4 250 4 137 q 58 421 4 344 q 226 551 112 499 q 138 639 164 593 q 112 739 112 685 q 203 937 112 851 q 422 1023 295 1023 q 607 952 533 1023 q 681 780 681 881 q 637 643 681 704 q 505 538 593 583 m 420 925 q 272 869 332 925 q 212 741 212 814 q 258 634 212 676 q 382 592 305 592 q 522 647 464 592 q 580 776 580 702 q 534 881 580 838 q 420 925 488 925 m 367 493 q 184 426 263 493 q 105 252 105 360 q 161 119 105 172 q 310 67 218 67 q 438 97 379 67 q 531 183 498 128 q 565 296 565 238 q 508 436 565 379 q 367 493 451 493 "},"R":{"x_min":52.703125,"x_max":759,"ha":842,"o":"m 188 998 l 438 998 q 629 972 571 998 q 723 891 687 947 q 759 761 759 835 q 716 611 759 680 q 601 506 674 541 q 408 472 528 472 l 709 0 l 596 0 l 296 472 l 217 472 l 153 0 l 52 0 l 188 998 m 275 902 l 231 570 l 345 570 q 512 580 473 570 q 618 644 578 596 q 659 761 659 691 q 602 874 659 838 q 446 902 559 902 l 275 902 "},"Ż":{"x_min":9.203125,"x_max":660.5625,"ha":667,"o":"m 147 998 l 660 998 l 170 95 l 544 95 l 531 0 l 9 0 l 501 902 l 134 902 l 147 998 m 382 1231 q 431 1211 411 1231 q 451 1163 451 1191 q 423 1101 451 1128 q 359 1074 395 1074 q 311 1093 330 1074 q 292 1141 292 1112 q 319 1203 292 1176 q 382 1231 346 1231 "},"ħ":{"x_min":27.859375,"x_max":720,"ha":847,"o":"m 143 841 l 38 841 l 48 920 l 153 920 l 168 1023 l 260 1023 l 246 920 l 499 920 l 489 841 l 235 841 l 206 626 q 466 757 320 757 q 645 690 571 757 q 720 510 720 624 q 705 339 720 446 l 659 0 l 565 0 l 611 339 q 626 502 626 442 q 579 624 626 577 q 454 672 532 672 q 322 636 385 672 q 222 535 259 600 q 164 319 185 470 l 120 0 l 27 0 l 143 841 "},"õ":{"x_min":38,"x_max":801,"ha":910,"o":"m 461 757 q 634 711 555 757 q 756 586 712 666 q 801 404 801 506 q 744 188 801 288 q 593 35 688 89 q 378 -19 498 -19 q 133 78 229 -19 q 38 326 38 175 q 94 544 38 444 q 248 700 150 643 q 461 757 346 757 m 459 667 q 293 622 370 667 q 173 501 215 578 q 132 331 132 424 q 203 142 132 215 q 389 69 275 69 q 551 111 478 69 q 666 234 623 154 q 708 405 708 314 q 676 541 708 482 q 586 634 644 601 q 459 667 528 667 m 716 1012 l 754 946 q 664 898 700 910 q 592 886 629 886 q 495 911 543 886 q 443 936 454 933 q 409 941 427 941 q 362 933 384 941 q 294 894 339 924 l 259 963 q 421 1030 330 1030 q 521 1002 464 1030 q 606 976 575 976 q 716 1012 646 976 "},"ê":{"x_min":39,"x_max":795,"ha":902,"o":"m 790 350 l 131 350 q 201 143 131 218 q 388 68 271 68 q 533 99 466 68 q 642 189 599 131 l 713 131 q 573 22 659 63 q 386 -19 486 -19 q 126 88 213 -19 q 39 330 39 196 q 97 541 39 440 q 254 700 156 643 q 467 757 352 757 q 702 661 609 757 q 795 416 795 565 q 790 350 795 389 m 701 432 q 633 601 701 536 q 464 666 566 666 q 268 603 353 666 q 148 432 184 541 l 701 432 m 478 1045 l 572 1045 l 745 872 l 623 872 l 518 974 l 379 872 l 253 872 l 478 1045 "},"″":{"x_min":56.96875,"x_max":450.296875,"ha":429,"o":"m 390 709 l 320 709 l 349 1023 l 450 1023 l 390 709 m 127 709 l 56 709 l 86 1023 l 186 1023 l 127 709 "},"„":{"x_min":61.03125,"x_max":515.40625,"ha":697,"o":"m 109 -185 l 61 -156 q 109 -67 98 -94 q 130 0 121 -40 l 70 0 l 96 188 l 216 188 l 207 104 q 175 -62 196 -1 q 109 -185 153 -122 m 408 -185 l 360 -156 q 408 -67 397 -94 q 429 0 420 -40 l 369 0 l 395 188 l 515 188 l 506 104 q 474 -62 495 -1 q 408 -185 453 -122 "},"ч":{"x_min":33,"x_max":545.4375,"ha":643,"o":"m 396 333 l 254 333 q 139 345 182 333 q 64 398 95 358 q 33 499 33 439 q 37 554 33 516 l 61 738 l 154 738 l 137 604 q 127 514 127 529 q 152 435 127 457 q 261 414 177 414 l 405 414 l 449 738 l 545 738 l 445 0 l 351 0 l 396 333 "},"δ":{"x_min":35,"x_max":694,"ha":794,"o":"m 309 614 q 222 780 222 679 q 311 967 222 892 q 529 1042 401 1042 q 687 1022 614 1042 l 651 938 q 524 953 597 953 q 377 909 434 953 q 320 789 320 865 q 354 706 320 741 q 504 621 389 670 q 694 356 694 541 q 588 92 694 203 q 320 -19 482 -19 q 117 63 199 -19 q 35 267 35 146 q 105 474 35 379 q 309 614 175 569 m 596 343 q 539 486 596 427 q 395 546 482 546 q 210 463 289 546 q 132 273 132 381 q 188 128 132 186 q 332 71 244 71 q 524 152 453 71 q 596 343 596 233 m 396 636 l 396 636 "},"Â":{"x_min":-19.671875,"x_max":912.140625,"ha":1027,"o":"m 577 997 l 912 0 l 809 0 l 700 326 l 278 326 l 91 0 l -19 0 l 554 997 l 577 997 m 545 788 l 332 421 l 669 421 l 545 788 m 541 1247 l 636 1247 l 808 1074 l 686 1074 l 581 1176 l 442 1074 l 316 1074 l 541 1247 "},"Į":{"x_min":-49,"x_max":262,"ha":314,"o":"m 161 997 l 262 997 l 127 0 l 26 0 l 161 997 m 53 0 l 127 0 q 26 -138 26 -77 q 47 -187 26 -168 q 114 -206 69 -206 q 162 -202 135 -206 l 148 -260 q 89 -267 118 -267 q -14 -236 19 -267 q -49 -159 -49 -205 q -21 -75 -49 -119 q 53 0 5 -30 "},"ω":{"x_min":23,"x_max":1080,"ha":1191,"o":"m 525 135 q 434 23 497 65 q 295 -19 371 -19 q 96 57 170 -19 q 23 269 23 134 q 153 601 23 461 q 486 757 284 740 l 486 661 q 223 549 329 661 q 117 268 117 437 q 299 68 117 68 q 433 135 378 68 q 504 331 487 202 l 516 422 l 612 422 l 600 331 q 594 248 594 285 q 734 68 594 68 q 925 159 865 68 q 985 376 985 251 q 911 581 985 500 q 711 662 837 662 l 730 753 q 981 645 882 753 q 1080 383 1080 537 q 993 102 1080 223 q 715 -19 907 -19 q 589 24 642 -19 q 525 135 536 68 "},"Ţ":{"x_min":36.625,"x_max":645.609375,"ha":591,"o":"m 49 997 l 645 997 l 632 902 l 378 902 l 258 0 l 158 0 l 278 902 l 36 902 l 49 997 m 193 -290 l 152 -272 q 187 -187 181 -222 l 132 -187 l 147 -83 l 252 -83 l 248 -117 q 193 -290 231 -230 "},"´":{"x_min":216.34375,"x_max":539.828125,"ha":521,"o":"m 394 1084 l 539 1084 l 309 875 l 216 875 l 394 1084 "},"Ĉ":{"x_min":54,"x_max":1068.5,"ha":1129,"o":"m 1068 860 l 1008 776 q 646 926 849 926 q 399 861 514 926 q 219 687 284 797 q 155 453 155 578 q 204 254 155 341 q 348 118 254 167 q 564 69 443 69 q 909 186 749 69 l 965 107 q 761 2 846 29 q 563 -25 675 -25 q 226 78 357 -25 q 54 449 54 217 q 226 856 54 689 q 656 1023 399 1023 q 870 986 774 1023 q 1068 860 966 949 m 615 1248 l 709 1248 l 882 1074 l 759 1074 l 654 1177 l 515 1074 l 389 1074 l 615 1248 "},"И":{"x_min":32.546875,"x_max":932.484375,"ha":1008,"o":"m 797 0 l 694 0 l 797 764 l 69 0 l 32 0 l 167 998 l 266 998 l 161 219 l 901 998 l 932 998 l 797 0 "},"○":{"x_min":118,"x_max":716,"ha":834,"o":"m 716 392 q 628 180 716 268 q 417 93 540 93 q 205 180 293 93 q 118 392 118 268 q 205 603 118 515 q 416 691 293 691 q 628 603 540 691 q 716 392 716 515 m 664 392 q 591 566 664 493 q 417 639 518 639 q 242 566 315 639 q 170 392 170 493 q 242 218 170 291 q 417 145 315 145 q 591 217 518 145 q 664 392 664 290 "},"Љ":{"x_min":-68.6875,"x_max":1355,"ha":1445,"o":"m 561 998 l 711 570 l 920 570 q 1273 486 1192 570 q 1355 283 1355 402 q 1282 85 1355 170 q 959 0 1210 0 l 785 0 l 521 786 l 41 0 l -68 0 l 537 998 l 561 998 m 860 96 l 891 96 q 1110 104 1053 96 q 1207 159 1166 112 q 1249 283 1249 205 q 1211 399 1249 353 q 1109 459 1173 446 q 920 472 1046 472 l 734 472 l 860 96 "},"р":{"x_min":4.125,"x_max":858,"ha":948,"o":"m 138 738 l 234 738 l 220 627 q 513 757 348 757 q 761 660 664 757 q 858 410 858 563 q 732 107 858 234 q 436 -19 607 -19 q 274 20 344 -19 q 156 141 204 59 l 102 -270 l 4 -270 l 138 738 m 503 670 q 336 626 412 670 q 217 503 261 583 q 173 327 173 422 q 245 141 173 212 q 433 69 318 69 q 667 167 570 69 q 764 408 764 265 q 691 598 764 526 q 503 670 619 670 "},"Ω":{"x_min":32.34375,"x_max":1064,"ha":1161,"o":"m 667 94 l 966 94 l 953 0 l 566 0 l 584 133 q 964 615 964 329 q 868 843 964 759 q 616 928 772 928 q 298 802 426 928 q 170 496 170 677 q 214 331 170 409 q 423 133 258 254 l 405 0 l 32 0 l 44 94 l 331 94 q 71 498 71 272 q 228 868 71 714 q 629 1022 385 1022 q 944 910 824 1022 q 1064 625 1064 798 q 667 94 1064 270 "},"т":{"x_min":45.4375,"x_max":542.53125,"ha":574,"o":"m 56 738 l 542 738 l 531 656 l 335 656 l 246 0 l 151 0 l 240 656 l 45 656 l 56 738 "},"П":{"x_min":32.546875,"x_max":874.84375,"ha":950,"o":"m 167 998 l 874 998 l 740 0 l 640 0 l 762 903 l 254 903 l 132 0 l 32 0 l 167 998 "},"Ö":{"x_min":49,"x_max":1117,"ha":1207,"o":"m 647 1023 q 983 890 849 1023 q 1117 556 1117 758 q 947 142 1117 310 q 523 -25 777 -25 q 178 103 308 -25 q 49 441 49 232 q 126 736 49 601 q 341 946 204 870 q 647 1023 478 1023 m 645 929 q 390 866 502 929 q 212 689 277 804 q 147 445 147 574 q 194 248 147 335 q 325 115 241 161 q 522 69 409 69 q 771 133 656 69 q 951 313 886 198 q 1017 562 1017 428 q 892 842 1017 739 q 645 929 789 929 m 536 1232 q 585 1212 565 1232 q 605 1164 605 1192 q 577 1102 605 1129 q 513 1075 549 1075 q 465 1094 484 1075 q 446 1142 446 1113 q 473 1204 446 1177 q 536 1232 500 1232 m 812 1232 q 861 1212 842 1232 q 881 1164 881 1192 q 853 1102 881 1129 q 789 1075 825 1075 q 741 1094 760 1075 q 722 1142 722 1113 q 749 1204 722 1177 q 812 1232 776 1232 "},"z":{"x_min":-38.65625,"x_max":569.65625,"ha":590,"o":"m 62 738 l 569 738 l 128 84 l 529 84 l 518 0 l -38 0 l 404 655 l 51 655 l 62 738 "},"™":{"x_min":8,"x_max":1333,"ha":1389,"o":"m 1333 1027 l 1333 442 l 1231 442 l 1231 923 l 1013 442 l 946 442 l 736 923 l 736 442 l 635 442 l 635 1027 l 799 1027 l 980 621 l 1171 1027 l 1333 1027 m 522 1027 l 522 934 l 315 934 l 315 442 l 213 442 l 213 934 l 8 934 l 8 1027 l 522 1027 "},"Θ":{"x_min":49,"x_max":1117,"ha":1207,"o":"m 1117 556 q 946 140 1117 306 q 523 -25 776 -25 q 179 102 310 -25 q 49 441 49 229 q 219 855 49 687 q 647 1023 390 1023 q 984 890 851 1023 q 1117 556 1117 758 m 147 445 q 247 175 147 281 q 522 69 347 69 q 874 211 731 69 q 1017 562 1017 353 q 909 827 1017 726 q 645 929 802 929 q 281 784 415 929 q 147 445 147 640 m 824 457 l 324 457 l 337 552 l 837 552 l 824 457 "},"Ř":{"x_min":52.703125,"x_max":769.171875,"ha":842,"o":"m 188 998 l 438 998 q 629 972 571 998 q 723 891 687 947 q 759 761 759 835 q 716 611 759 680 q 601 506 674 541 q 408 472 528 472 l 709 0 l 596 0 l 296 472 l 217 472 l 153 0 l 52 0 l 188 998 m 275 902 l 231 570 l 345 570 q 512 580 473 570 q 618 644 578 596 q 659 761 659 691 q 602 874 659 838 q 446 902 559 902 l 275 902 m 543 1073 l 449 1073 l 277 1247 l 399 1247 l 504 1144 l 643 1247 l 769 1247 l 543 1073 "},"Ň":{"x_min":33.90625,"x_max":955.546875,"ha":1027,"o":"m 857 998 l 955 998 l 820 0 l 798 0 l 237 773 l 132 0 l 33 0 l 168 998 l 189 998 l 752 223 l 857 998 m 611 1073 l 517 1073 l 345 1247 l 467 1247 l 572 1144 l 711 1247 l 837 1247 l 611 1073 "},"É":{"x_min":32.546875,"x_max":716.140625,"ha":745,"o":"m 716 998 l 701 901 l 252 901 l 208 574 l 657 574 l 644 478 l 195 478 l 145 96 l 594 96 l 582 0 l 32 0 l 166 998 l 716 998 m 529 1285 l 675 1285 l 445 1076 l 351 1076 l 529 1285 "},"и":{"x_min":27.8125,"x_max":749.375,"ha":847,"o":"m 220 738 l 149 207 l 741 738 l 749 738 l 649 0 l 554 0 l 624 525 l 39 0 l 27 0 l 125 738 l 220 738 "},"³":{"x_min":36.21875,"x_max":446,"ha":462,"o":"m 186 885 l 110 885 q 138 958 116 929 q 199 1004 159 986 q 284 1023 239 1023 q 401 983 357 1023 q 446 885 446 944 q 427 821 446 848 q 363 772 409 794 q 418 718 403 745 q 433 658 433 692 q 373 536 433 588 q 222 485 314 485 q 95 527 145 485 q 36 647 45 570 l 111 647 q 143 577 118 597 q 224 551 176 551 q 316 584 276 551 q 357 654 357 618 q 322 720 357 695 q 206 745 287 745 l 215 807 l 236 807 q 340 834 298 807 q 371 887 371 855 q 345 935 371 915 q 280 956 320 956 q 217 937 242 956 q 186 885 192 918 "},"[":{"x_min":69.171875,"x_max":478.78125,"ha":488,"o":"m 250 1023 l 478 1023 l 465 927 l 332 927 l 177 -177 l 309 -177 l 297 -270 l 69 -270 l 250 1023 "},"ζ":{"x_min":34,"x_max":665.21875,"ha":647,"o":"m 139 -275 l 175 -189 q 253 -200 216 -200 q 437 -86 437 -200 q 403 -27 437 -50 q 272 13 369 -5 q 34 283 34 61 q 148 593 34 439 q 537 940 263 747 l 196 940 l 207 1023 l 665 1023 l 654 940 q 260 597 392 743 q 129 290 129 451 q 171 165 129 210 q 327 95 213 120 q 490 31 445 70 q 535 -69 535 -7 q 466 -227 535 -166 q 249 -289 397 -289 q 139 -275 190 -289 "},"∏":{"x_min":110,"x_max":1034,"ha":1143,"o":"m 110 1023 l 1034 1023 l 1034 -269 l 904 -269 l 904 905 l 241 905 l 241 -269 l 110 -269 l 110 1023 "},"Έ":{"x_min":-36,"x_max":777.125,"ha":806,"o":"m 777 998 l 762 901 l 313 901 l 269 574 l 718 574 l 705 478 l 256 478 l 206 96 l 655 96 l 643 0 l 93 0 l 227 998 l 777 998 m 88 1023 l 38 794 l -36 794 l -36 1023 l 88 1023 "},"Ρ":{"x_min":44.328125,"x_max":773,"ha":823,"o":"m 177 997 l 450 997 q 643 971 585 997 q 737 891 702 946 q 773 761 773 836 q 717 589 773 662 q 576 490 661 516 q 359 471 514 471 l 207 471 l 144 0 l 44 0 l 177 997 m 266 901 l 219 569 l 359 569 q 553 588 499 569 q 640 654 607 607 q 673 759 673 702 q 650 840 673 807 q 588 887 628 873 q 444 901 549 901 l 266 901 "},"ğ":{"x_min":15.234375,"x_max":847.578125,"ha":934,"o":"m 754 738 l 847 738 l 762 113 q 713 -98 742 -37 q 580 -235 673 -181 q 360 -289 487 -289 q 148 -238 236 -289 q 15 -90 60 -187 l 100 -60 q 360 -200 177 -200 q 528 -161 457 -200 q 629 -60 599 -122 q 667 101 648 -23 l 671 130 q 379 0 551 0 q 133 93 226 0 q 41 335 41 186 q 97 542 41 445 q 253 697 154 638 q 455 757 352 757 q 610 718 540 757 q 736 597 681 680 l 754 738 m 473 667 q 301 622 380 667 q 177 502 221 578 q 134 331 134 426 q 203 156 134 223 q 388 90 272 90 q 622 182 529 90 q 716 415 716 274 q 640 602 716 538 q 473 667 564 667 m 299 1034 l 388 1034 q 530 964 424 964 q 621 979 585 964 q 692 1034 657 994 l 779 1034 q 688 932 756 973 q 520 891 621 891 q 364 931 421 891 q 299 1034 307 972 "},"ª":{"x_min":47,"x_max":492.4375,"ha":513,"o":"m 425 550 l 347 550 l 354 603 q 285 552 316 566 q 220 539 255 539 q 97 597 147 539 q 47 755 47 656 q 111 946 47 870 q 258 1023 176 1023 q 324 1007 293 1023 q 402 940 355 991 l 411 1012 l 492 1012 l 425 550 m 240 610 q 344 663 301 610 q 388 805 388 716 q 354 912 388 873 q 271 951 321 951 q 169 896 214 951 q 124 757 124 842 q 157 648 124 687 q 240 610 190 610 "},"ї":{"x_min":-18,"x_max":418,"ha":279,"o":"m 112 738 l 202 738 l 104 0 l 10 0 l 112 738 m 72 1029 q 121 1009 101 1029 q 141 961 141 989 q 113 899 141 926 q 49 872 85 872 q 1 891 20 872 q -18 939 -18 910 q 9 1001 -18 974 q 72 1029 36 1029 m 349 1029 q 398 1009 379 1029 q 418 961 418 989 q 390 899 418 926 q 326 872 362 872 q 278 891 297 872 q 259 939 259 910 q 286 1001 259 974 q 349 1029 313 1029 "},"T":{"x_min":36.625,"x_max":645.609375,"ha":591,"o":"m 49 998 l 645 998 l 632 903 l 378 903 l 258 0 l 158 0 l 278 903 l 36 903 l 49 998 "},"š":{"x_min":-23.765625,"x_max":588.53125,"ha":539,"o":"m 470 654 l 418 578 q 270 667 356 667 q 187 635 222 667 q 153 564 153 603 q 174 507 153 534 q 266 433 194 480 q 406 314 372 365 q 440 195 440 263 q 375 42 440 103 q 206 -19 310 -19 q -23 102 69 -19 l 33 169 q 212 70 115 70 q 307 108 266 70 q 348 198 348 147 q 317 277 348 239 q 212 360 297 301 q 90 465 119 423 q 61 559 61 507 q 122 699 61 641 q 278 757 184 757 q 379 734 334 757 q 470 654 424 712 m 362 872 l 268 872 l 96 1046 l 218 1046 l 322 943 l 462 1046 l 588 1046 l 362 872 "},"є":{"x_min":38,"x_max":820.984375,"ha":885,"o":"m 134 341 q 215 135 134 203 q 409 68 296 68 q 692 197 572 68 l 761 147 q 602 24 700 67 q 399 -19 503 -19 q 139 76 240 -19 q 38 314 38 172 q 172 638 38 519 q 488 757 306 757 q 682 712 589 757 q 820 584 774 668 l 738 537 q 473 668 650 668 q 253 595 345 668 q 145 422 161 521 l 473 422 l 462 341 l 134 341 "},"Þ":{"x_min":44.203125,"x_max":741,"ha":822,"o":"m 177 998 l 277 998 l 245 762 l 417 762 q 611 736 552 762 q 705 656 669 711 q 741 526 741 601 q 684 354 741 427 q 544 255 628 281 q 327 236 482 236 l 175 236 l 143 0 l 44 0 l 177 998 m 234 666 l 187 334 l 326 334 q 521 353 467 334 q 608 419 575 372 q 641 525 641 467 q 618 605 641 572 q 556 652 595 638 q 412 666 516 666 l 234 666 "},"j":{"x_min":-133.53125,"x_max":267,"ha":283,"o":"m 190 1042 q 244 1019 222 1042 q 267 965 267 997 q 244 912 267 934 q 190 890 222 890 q 136 912 158 890 q 114 965 114 934 q 136 1019 114 997 q 190 1042 158 1042 m 115 738 l 208 738 l 100 -47 q 43 -241 80 -193 q -51 -289 6 -289 q -133 -269 -87 -289 l -122 -189 q -73 -204 -96 -204 q -30 -182 -46 -204 q 2 -76 -8 -149 l 115 738 "},"Σ":{"x_min":-42.71875,"x_max":663.921875,"ha":696,"o":"m 541 0 l -42 0 l 302 498 l 94 998 l 663 998 l 651 902 l 240 902 l 412 489 l 143 97 l 554 97 l 541 0 "},"1":{"x_min":269.90625,"x_max":514.046875,"ha":770,"o":"m 305 997 l 514 997 l 381 0 l 284 0 l 404 901 l 269 901 l 305 997 "},"ℓ":{"x_min":-4.015625,"x_max":486,"ha":495,"o":"m -4 397 l 123 507 l 165 808 q 225 974 183 936 q 325 1012 268 1012 q 440 964 395 1012 q 486 855 486 917 q 444 723 486 800 q 241 489 403 646 l 196 170 q 192 125 192 141 q 223 77 192 77 q 362 152 266 77 l 362 37 q 218 -16 286 -16 q 117 22 159 -16 q 76 137 76 60 q 82 221 76 180 l 103 368 l 49 323 l -4 397 m 263 646 q 368 783 345 739 q 391 863 391 827 q 377 912 391 893 q 342 931 363 931 q 288 823 303 931 l 263 646 "},"ĉ":{"x_min":41,"x_max":812.859375,"ha":899,"o":"m 812 578 l 734 533 q 483 666 652 666 q 305 622 386 666 q 179 502 224 579 q 134 336 134 424 q 167 197 134 258 q 263 102 201 135 q 407 69 324 69 q 571 102 493 69 q 692 190 648 136 l 770 135 q 611 18 696 55 q 412 -19 525 -19 q 139 76 237 -19 q 41 330 41 171 q 169 631 41 506 q 484 757 298 757 q 681 709 596 757 q 812 578 767 662 m 455 1045 l 549 1045 l 721 872 l 599 872 l 494 974 l 355 872 l 229 872 l 455 1045 "},"ī":{"x_min":-59.671875,"x_max":419.78125,"ha":278,"o":"m 110 739 l 200 739 l 102 0 l 8 0 l 110 739 m -48 1004 l 419 1004 l 408 923 l -59 923 l -48 1004 "},"О":{"x_min":49,"x_max":1117,"ha":1207,"o":"m 647 1023 q 983 890 849 1023 q 1117 556 1117 758 q 947 142 1117 310 q 523 -25 777 -25 q 178 103 308 -25 q 49 441 49 232 q 126 736 49 601 q 341 946 204 870 q 647 1023 478 1023 m 645 929 q 390 866 502 929 q 212 689 277 804 q 147 445 147 574 q 194 248 147 335 q 325 115 241 161 q 522 69 409 69 q 771 133 656 69 q 951 313 886 198 q 1017 562 1017 428 q 892 842 1017 739 q 645 929 789 929 "},"ξ":{"x_min":32,"x_max":668.609375,"ha":647,"o":"m 139 -275 l 174 -189 q 253 -200 216 -200 q 437 -86 437 -200 q 407 -32 437 -52 q 284 8 377 -12 q 88 107 144 39 q 32 271 32 174 q 288 601 32 526 q 154 782 154 667 q 244 968 154 894 q 482 1042 335 1042 q 668 1016 587 1042 l 634 925 q 457 953 560 953 q 307 902 365 953 q 250 778 250 851 q 319 671 250 711 q 486 631 388 631 l 566 631 l 556 548 l 418 548 q 213 478 296 548 q 130 278 130 409 q 166 164 130 206 q 312 97 203 122 q 491 28 447 67 q 535 -69 535 -10 q 466 -227 535 -166 q 249 -289 398 -289 q 139 -275 190 -289 "},"Ď":{"x_min":30.734375,"x_max":931,"ha":1033,"o":"m 162 998 l 377 998 q 689 944 580 998 q 864 779 798 891 q 931 525 931 668 q 856 242 931 372 q 671 56 781 113 q 344 0 561 0 l 30 0 l 162 998 m 249 902 l 142 97 l 230 97 q 497 107 432 97 q 666 171 598 124 q 784 315 735 219 q 833 523 833 410 q 777 730 833 642 q 626 863 722 819 q 348 902 544 902 l 249 902 m 557 1074 l 463 1074 l 291 1248 l 413 1248 l 518 1145 l 657 1248 l 783 1248 l 557 1074 "},"&":{"x_min":78,"x_max":965.203125,"ha":1051,"o":"m 861 373 l 923 297 q 788 193 847 234 q 965 0 854 110 l 829 0 l 744 89 q 706 134 726 109 q 326 -25 493 -25 q 195 3 247 -25 q 110 87 143 31 q 78 206 78 143 q 97 303 78 260 q 173 407 124 359 q 369 552 222 454 q 283 764 283 678 q 348 904 283 847 q 516 962 414 962 q 660 912 604 962 q 717 795 717 863 q 676 673 717 734 q 512 524 635 612 q 664 338 580 434 l 723 268 l 799 324 l 861 373 m 455 604 q 585 715 556 675 q 615 789 615 755 q 586 842 615 819 q 507 866 557 866 q 418 836 451 866 q 385 768 385 807 q 455 604 385 713 m 427 470 q 219 312 273 377 q 179 207 179 263 q 223 106 179 143 q 322 69 268 69 q 457 104 375 69 q 642 208 518 130 q 597 259 619 231 q 427 470 480 403 "},"G":{"x_min":54,"x_max":1099,"ha":1211,"o":"m 1082 783 l 1002 724 q 826 875 927 822 q 618 928 724 928 q 389 863 499 928 q 216 693 279 799 q 154 466 154 587 q 271 185 154 301 q 558 70 389 70 q 751 111 659 70 q 902 221 844 152 q 986 391 960 289 l 621 391 l 621 489 l 1099 489 q 948 117 1099 259 q 573 -25 797 -25 q 198 114 342 -25 q 54 463 54 253 q 129 743 54 613 q 336 948 204 873 q 620 1023 468 1023 q 1082 783 896 1023 "},"ΰ":{"x_min":47,"x_max":719,"ha":826,"o":"m 103 738 l 197 738 l 151 393 q 141 271 141 316 q 337 70 141 70 q 545 167 467 70 q 623 409 623 264 q 493 675 623 571 l 552 757 q 719 428 719 619 q 613 105 719 230 q 324 -19 507 -19 q 47 257 47 -19 q 56 382 47 308 l 103 738 m 529 1084 l 480 855 l 405 855 l 405 1084 l 529 1084 m 609 876 q 557 927 557 876 q 577 976 557 956 q 625 997 598 997 q 678 945 678 997 q 657 896 678 917 q 609 876 636 876 m 275 876 q 223 927 223 876 q 244 976 223 956 q 292 997 265 997 q 345 945 345 997 q 323 896 345 917 q 275 876 302 876 "},"`":{"x_min":145.8125,"x_max":410.296875,"ha":525,"o":"m 291 1084 l 410 875 l 316 875 l 145 1084 l 291 1084 "},"ŏ":{"x_min":38,"x_max":801,"ha":910,"o":"m 461 757 q 634 711 555 757 q 756 586 712 666 q 801 404 801 506 q 744 188 801 288 q 593 35 688 89 q 378 -19 498 -19 q 133 78 229 -19 q 38 326 38 175 q 94 544 38 444 q 248 700 150 643 q 461 757 346 757 m 459 667 q 293 622 370 667 q 173 501 215 578 q 132 331 132 424 q 203 142 132 215 q 389 69 275 69 q 551 111 478 69 q 666 234 623 154 q 708 405 708 314 q 676 541 708 482 q 586 634 644 601 q 459 667 528 667 m 250 1034 l 340 1034 q 482 964 376 964 q 573 979 537 964 q 644 1034 609 994 l 731 1034 q 640 932 708 973 q 472 891 573 891 q 315 931 372 891 q 250 1034 258 972 "},"ý":{"x_min":31.875,"x_max":741.921875,"ha":745,"o":"m 31 738 l 129 738 l 320 193 l 636 738 l 741 738 l 157 -270 l 50 -270 l 259 90 l 31 738 m 505 1084 l 651 1084 l 421 875 l 328 875 l 505 1084 "},"º":{"x_min":45,"x_max":478,"ha":513,"o":"m 284 1024 q 422 962 366 1024 q 478 802 478 901 q 409 613 478 687 q 239 539 340 539 q 100 599 156 539 q 45 755 45 659 q 115 947 45 871 q 284 1024 186 1024 m 281 951 q 202 926 240 951 q 143 858 164 902 q 122 758 122 813 q 157 650 122 690 q 246 610 192 610 q 359 666 316 610 q 402 802 402 723 q 367 911 402 871 q 281 951 332 951 "},"∞":{"x_min":103,"x_max":887,"ha":990,"o":"m 465 550 q 592 678 545 649 q 691 708 638 708 q 826 655 766 708 q 887 490 887 602 q 830 319 887 376 q 691 263 773 263 q 585 296 632 263 q 465 420 538 329 q 269 305 373 305 q 151 357 200 305 q 103 486 103 410 q 151 614 103 561 q 269 667 200 667 q 465 550 373 667 m 512 486 q 615 364 568 399 q 690 338 649 338 q 777 376 742 338 q 812 483 812 414 q 776 592 812 554 q 687 631 741 631 q 617 606 651 631 q 512 486 583 581 m 418 485 q 333 571 366 551 q 269 592 300 592 q 203 563 229 592 q 178 487 178 535 q 204 411 178 440 q 270 382 231 382 q 418 485 339 382 "},"ź":{"x_min":-38.65625,"x_max":573.734375,"ha":590,"o":"m 62 738 l 569 738 l 128 84 l 529 84 l 518 0 l -38 0 l 404 655 l 51 655 l 62 738 m 427 1083 l 573 1083 l 343 875 l 250 875 l 427 1083 "},"я":{"x_min":-32.359375,"x_max":553.671875,"ha":652,"o":"m 453 0 l 359 0 l 404 330 l 338 330 l 85 0 l -32 0 l 237 340 q 128 406 169 358 q 87 514 87 453 q 147 674 87 611 q 328 738 207 738 l 553 738 l 453 0 m 447 656 l 384 656 q 264 647 298 656 q 205 603 230 638 q 180 519 180 567 q 222 435 180 460 q 351 411 264 411 l 413 411 l 447 656 "},"Ё":{"x_min":32.828125,"x_max":717.046875,"ha":746,"o":"m 717 998 l 702 901 l 253 901 l 209 574 l 658 574 l 645 478 l 196 478 l 145 96 l 594 96 l 583 0 l 32 0 l 166 998 l 717 998 m 329 1232 q 378 1212 358 1232 q 398 1164 398 1192 q 370 1102 398 1129 q 306 1075 342 1075 q 258 1094 277 1075 q 239 1142 239 1113 q 266 1204 239 1177 q 329 1232 293 1232 m 606 1232 q 655 1212 636 1232 q 675 1164 675 1192 q 647 1102 675 1129 q 583 1075 619 1075 q 535 1094 554 1075 q 516 1142 516 1113 q 543 1204 516 1177 q 606 1232 570 1232 "},"ń":{"x_min":28.1875,"x_max":721,"ha":847,"o":"m 130 738 l 221 738 l 207 624 q 467 757 319 757 q 651 686 581 757 q 721 497 721 616 q 706 338 721 450 l 660 0 l 566 0 l 612 338 q 627 498 627 447 q 580 623 627 576 q 457 671 533 671 q 318 632 382 671 q 219 528 254 594 q 165 318 184 462 l 121 0 l 28 0 l 130 738 m 556 1084 l 702 1084 l 472 875 l 378 875 l 556 1084 "},"Г":{"x_min":32.546875,"x_max":667.3125,"ha":622,"o":"m 131 0 l 32 0 l 167 997 l 667 997 l 653 899 l 252 899 l 131 0 "},"Ь":{"x_min":32.359375,"x_max":715,"ha":805,"o":"m 32 0 l 167 998 l 266 998 l 208 570 l 327 570 l 379 570 q 625 487 535 570 q 715 280 715 405 q 653 103 715 174 q 516 16 592 32 q 228 0 440 0 l 32 0 m 144 99 l 248 99 q 429 99 389 99 q 511 119 470 99 q 576 181 552 140 q 600 279 600 221 q 549 416 600 361 q 359 472 498 472 l 195 472 l 144 99 "},"¤":{"x_min":27.90625,"x_max":742.75,"ha":770,"o":"m 28 130 l 107 207 q 49 311 65 263 q 34 416 34 360 q 53 532 34 477 q 109 627 67 575 l 27 706 l 88 768 l 170 687 q 276 746 221 728 q 388 764 331 764 q 493 747 442 764 q 599 692 544 731 l 678 768 l 738 706 l 660 630 q 720 527 703 577 q 738 417 738 477 q 721 309 738 359 q 664 207 704 260 l 742 130 l 682 69 l 603 147 q 497 87 550 105 q 385 69 445 69 q 275 86 327 69 q 168 147 223 104 l 88 69 l 28 130 m 131 415 q 205 236 131 310 q 385 163 280 163 q 566 237 491 163 q 641 417 641 312 q 566 596 641 522 q 386 671 492 671 q 205 596 280 671 q 131 415 131 521 "},"Ĝ":{"x_min":54,"x_max":1099,"ha":1211,"o":"m 1082 783 l 1002 724 q 826 875 927 822 q 618 928 724 928 q 389 863 499 928 q 216 693 279 799 q 154 466 154 587 q 271 185 154 301 q 558 70 389 70 q 751 111 659 70 q 902 221 844 152 q 986 391 960 289 l 621 391 l 621 489 l 1099 489 q 948 117 1099 259 q 573 -25 797 -25 q 198 114 342 -25 q 54 463 54 253 q 129 743 54 613 q 336 948 204 873 q 620 1023 468 1023 q 1082 783 896 1023 m 608 1248 l 703 1248 l 875 1074 l 753 1074 l 648 1177 l 509 1074 l 383 1074 l 608 1248 "},"p":{"x_min":4.125,"x_max":858,"ha":948,"o":"m 138 738 l 234 738 l 220 627 q 513 757 348 757 q 761 660 664 757 q 858 410 858 563 q 732 107 858 234 q 436 -19 607 -19 q 274 20 344 -19 q 156 141 204 59 l 102 -270 l 4 -270 l 138 738 m 503 670 q 336 626 412 670 q 217 503 261 583 q 173 327 173 422 q 245 141 173 212 q 433 69 318 69 q 667 167 570 69 q 764 408 764 265 q 691 598 764 526 q 503 670 619 670 "},"Ю":{"x_min":32.9375,"x_max":1429,"ha":1513,"o":"m 207 552 l 382 552 q 606 903 443 784 q 963 1023 769 1023 q 1300 893 1171 1023 q 1429 577 1429 764 q 1249 154 1429 333 q 828 -25 1069 -25 q 617 17 710 -25 q 464 138 525 60 q 387 291 404 217 q 370 459 370 366 l 195 459 l 132 0 l 32 0 l 167 997 l 267 997 l 207 552 m 1326 571 q 1224 820 1326 714 q 954 926 1123 926 q 612 776 752 926 q 472 430 472 626 q 577 175 472 278 q 838 72 682 72 q 1179 216 1033 72 q 1326 571 1326 361 "},"ο":{"x_min":38,"x_max":801,"ha":910,"o":"m 461 757 q 634 711 555 757 q 756 586 712 666 q 801 404 801 506 q 744 188 801 288 q 593 35 688 89 q 378 -19 498 -19 q 133 78 229 -19 q 38 326 38 175 q 94 544 38 444 q 248 700 150 643 q 461 757 346 757 m 459 667 q 293 622 370 667 q 173 501 215 578 q 132 331 132 424 q 203 142 132 215 q 389 69 275 69 q 551 111 478 69 q 666 234 623 154 q 708 405 708 314 q 676 541 708 482 q 586 634 644 601 q 459 667 528 667 "},"S":{"x_min":10.265625,"x_max":629.0625,"ha":692,"o":"m 629 813 l 534 789 q 472 889 515 852 q 378 926 428 926 q 287 888 322 926 q 253 787 253 850 q 290 671 253 732 q 401 553 313 633 q 529 399 493 470 q 566 259 566 327 q 526 119 566 186 q 419 13 486 52 q 276 -25 352 -25 q 111 36 181 -25 q 10 215 40 97 l 102 246 q 173 113 124 156 q 285 70 221 70 q 410 123 358 70 q 463 255 463 177 q 433 368 463 313 q 317 500 403 423 q 197 629 225 584 q 152 786 152 704 q 218 956 152 889 q 384 1023 285 1023 q 533 970 468 1023 q 629 813 598 917 "},"/":{"x_min":48.828125,"x_max":566.953125,"ha":607,"o":"m 566 1023 l 152 -136 l 48 -136 l 462 1023 l 566 1023 "},"►":{"x_min":195,"x_max":1179.03125,"ha":1375,"o":"m 195 961 l 1179 470 l 195 -21 l 195 961 "},"Ŧ":{"x_min":26.453125,"x_max":645.609375,"ha":591,"o":"m 216 433 l 26 433 l 38 527 l 229 527 l 279 902 l 36 902 l 49 997 l 645 997 l 633 902 l 378 902 l 328 527 l 520 527 l 508 433 l 316 433 l 258 0 l 159 0 l 216 433 "},"ђ":{"x_min":27.859375,"x_max":721,"ha":847,"o":"m 143 849 l 39 849 l 50 930 l 155 930 l 166 1022 l 260 1022 l 249 930 l 533 930 l 522 849 l 238 849 l 208 626 q 468 757 322 757 q 648 689 575 757 q 721 508 721 621 q 707 339 721 440 l 660 0 l 652 -47 q 592 -244 627 -199 q 499 -289 556 -289 q 417 -269 461 -289 l 429 -189 q 476 -204 452 -204 q 528 -171 512 -204 q 554 -75 543 -139 l 567 0 l 613 339 q 626 498 626 434 q 576 628 626 585 q 456 672 527 672 q 304 623 371 672 q 209 505 237 574 q 166 319 181 437 l 122 0 l 27 0 l 143 849 "},"y":{"x_min":31.875,"x_max":741.921875,"ha":745,"o":"m 31 738 l 129 738 l 320 193 l 636 738 l 741 738 l 157 -270 l 50 -270 l 259 90 l 31 738 "},"Π":{"x_min":32.546875,"x_max":873.484375,"ha":949,"o":"m 740 0 l 642 0 l 762 903 l 250 903 l 130 0 l 32 0 l 165 998 l 873 998 l 740 0 "},"‗":{"x_min":-8,"x_max":703,"ha":695,"o":"m -8 -80 l 703 -80 l 703 -150 l -8 -150 l -8 -80 m -8 -201 l 703 -201 l 703 -270 l -8 -270 l -8 -201 "},"–":{"x_min":-8,"x_max":703,"ha":695,"o":"m -8 433 l 703 433 l 703 345 l -8 345 l -8 433 "},"ë":{"x_min":39,"x_max":795,"ha":902,"o":"m 790 350 l 131 350 q 201 143 131 218 q 389 68 272 68 q 533 99 467 68 q 642 189 599 131 l 713 131 q 573 22 660 63 q 386 -19 487 -19 q 126 88 213 -19 q 39 330 39 196 q 97 541 39 440 q 254 700 156 643 q 467 757 352 757 q 702 661 609 757 q 795 416 795 565 q 790 350 795 389 m 701 432 q 633 601 701 536 q 464 666 566 666 q 268 603 353 666 q 148 432 184 541 l 701 432 m 383 1029 q 432 1009 412 1029 q 452 961 452 989 q 424 899 452 926 q 360 872 396 872 q 312 891 331 872 q 293 939 293 910 q 320 1001 293 974 q 383 1029 347 1029 m 660 1029 q 709 1009 690 1029 q 729 961 729 989 q 701 899 729 926 q 637 872 673 872 q 589 891 608 872 q 570 939 570 910 q 597 1001 570 974 q 660 1029 624 1029 "},"б":{"x_min":59,"x_max":883.015625,"ha":937,"o":"m 883 1038 l 870 947 q 682 931 799 931 q 412 908 496 931 q 265 814 328 886 q 175 616 203 741 l 152 512 q 511 757 264 757 q 749 660 655 757 q 843 420 843 564 q 712 114 843 248 q 403 -19 582 -19 q 154 83 249 -19 q 59 365 59 185 q 99 658 59 514 q 213 882 139 801 q 398 995 287 964 q 756 1027 509 1027 q 883 1038 831 1027 m 745 404 q 672 590 745 516 q 495 664 600 664 q 265 559 365 664 q 165 324 165 455 q 235 141 165 212 q 415 71 305 71 q 647 172 550 71 q 745 404 745 273 m 157 364 l 157 364 "},"ƒ":{"x_min":5.421875,"x_max":622.5625,"ha":770,"o":"m 404 598 l 561 598 l 550 515 l 391 515 l 319 33 q 269 -163 299 -98 q 194 -258 238 -227 q 101 -289 149 -289 q 5 -255 55 -289 l 17 -171 q 92 -202 54 -202 q 175 -152 141 -202 q 232 48 210 -103 l 301 515 l 205 515 l 217 598 l 312 598 l 345 814 q 389 976 364 939 q 502 1042 434 1042 q 622 997 558 1042 l 610 907 q 516 957 558 957 q 464 926 482 957 q 433 797 446 895 l 404 598 "},"у":{"x_min":31.875,"x_max":741.921875,"ha":745,"o":"m 31 738 l 129 738 l 320 193 l 636 738 l 741 738 l 157 -270 l 50 -270 l 259 90 l 31 738 "},"J":{"x_min":-16.953125,"x_max":559.484375,"ha":669,"o":"m 461 998 l 559 998 l 469 310 q 422 96 448 154 q 343 6 395 38 q 223 -25 291 -25 q 101 2 160 -25 q -16 94 43 29 l 59 149 q 225 67 144 67 q 323 122 286 67 q 370 302 351 164 l 461 998 "},"ŷ":{"x_min":31.875,"x_max":741.921875,"ha":745,"o":"m 31 738 l 129 738 l 320 193 l 636 738 l 741 738 l 157 -270 l 50 -270 l 259 90 l 31 738 m 364 1046 l 459 1046 l 631 872 l 509 872 l 404 974 l 265 872 l 139 872 l 364 1046 "},"ŕ":{"x_min":-10.171875,"x_max":560.171875,"ha":418,"o":"m 90 738 l 184 738 l 172 644 q 263 727 210 697 q 373 757 317 757 q 457 738 413 757 l 412 650 q 353 665 377 665 q 255 630 303 665 q 176 529 206 595 q 125 312 146 463 l 82 0 l -10 0 l 90 738 m 414 1084 l 560 1084 l 330 875 l 236 875 l 414 1084 "},"ώ":{"x_min":23,"x_max":1080,"ha":1191,"o":"m 525 135 q 434 23 497 65 q 295 -19 371 -19 q 96 57 170 -19 q 23 269 23 134 q 153 601 23 461 q 486 757 284 740 l 486 661 q 223 549 329 661 q 117 268 117 437 q 299 68 117 68 q 433 135 378 68 q 504 331 487 202 l 516 422 l 612 422 l 600 331 q 594 248 594 285 q 734 68 594 68 q 925 159 865 68 q 985 376 985 251 q 911 581 985 500 q 711 662 837 662 l 730 753 q 981 645 882 753 q 1080 383 1080 537 q 993 102 1080 223 q 715 -19 907 -19 q 589 24 642 -19 q 525 135 535 68 m 711 1084 l 662 855 l 587 855 l 587 1084 l 711 1084 "},"↑":{"x_min":103.453125,"x_max":591.546875,"ha":695,"o":"m 103 711 q 329 992 281 871 l 360 992 q 591 710 419 861 l 591 658 q 382 791 451 723 l 382 -291 l 313 -291 l 313 791 q 103 659 218 714 l 103 711 "},"D":{"x_min":30.734375,"x_max":931,"ha":1033,"o":"m 162 998 l 377 998 q 689 944 580 998 q 864 779 798 891 q 931 525 931 668 q 856 242 931 372 q 671 56 781 113 q 344 0 561 0 l 30 0 l 162 998 m 249 902 l 142 97 l 230 97 q 497 107 432 97 q 666 171 598 124 q 784 315 735 219 q 833 523 833 410 q 777 730 833 642 q 626 863 722 819 q 348 902 544 902 l 249 902 "},"ł":{"x_min":6.78125,"x_max":410.296875,"ha":416,"o":"m 258 620 l 410 706 l 395 597 l 243 511 l 172 0 l 78 0 l 142 453 l 6 377 l 21 485 l 157 562 l 221 1023 l 314 1023 l 258 620 "},"ĺ":{"x_min":9.5,"x_max":453.6875,"ha":278,"o":"m 152 1023 l 245 1023 l 103 0 l 9 0 l 152 1023 m 307 1285 l 453 1285 l 223 1076 l 130 1076 l 307 1285 "},"ц":{"x_min":27.125,"x_max":804.3125,"ha":878,"o":"m 701 0 l 27 0 l 126 738 l 222 738 l 134 90 l 548 90 l 636 738 l 731 738 l 644 90 l 804 90 l 776 -117 l 686 -117 l 701 0 "},"Л":{"x_min":-69.84375,"x_max":891.109375,"ha":1002,"o":"m 789 0 l 527 807 l 34 0 l -69 0 l 536 998 l 560 998 l 891 0 l 789 0 "},"$":{"x_min":13.1875,"x_max":700.125,"ha":770,"o":"m 700 850 l 622 794 q 555 863 581 844 q 493 896 529 883 l 442 554 q 625 413 577 479 q 673 262 673 347 q 587 62 673 147 q 359 -22 501 -22 l 329 -238 l 239 -238 l 272 -20 q 112 49 175 -2 q 13 181 48 100 l 100 225 q 175 124 132 160 q 285 70 218 88 l 346 493 q 201 598 242 549 q 140 750 140 670 q 175 867 140 810 q 276 959 210 923 q 418 996 342 996 l 430 1071 l 518 1071 l 505 989 q 611 941 567 972 q 700 850 654 911 m 404 905 q 282 848 327 894 q 237 746 237 803 q 267 667 237 706 q 360 596 297 627 l 404 905 m 374 66 q 520 134 475 83 q 575 264 575 193 q 545 352 575 310 q 428 449 516 395 l 374 66 "},"w":{"x_min":47.46875,"x_max":1128.46875,"ha":1154,"o":"m 47 738 l 141 738 l 293 217 l 571 738 l 587 738 l 755 211 l 1026 738 l 1128 738 l 747 0 l 728 0 l 557 520 l 280 0 l 262 0 l 47 738 "},"о":{"x_min":38,"x_max":801,"ha":910,"o":"m 461 757 q 634 711 555 757 q 756 586 712 666 q 801 404 801 506 q 744 188 801 288 q 593 35 688 89 q 378 -19 498 -19 q 133 78 229 -19 q 38 326 38 175 q 94 544 38 444 q 248 700 150 643 q 461 757 346 757 m 459 667 q 293 622 370 667 q 173 501 215 578 q 132 331 132 424 q 203 142 132 215 q 389 69 275 69 q 551 111 478 69 q 666 234 623 154 q 708 405 708 314 q 676 541 708 482 q 586 634 644 601 q 459 667 528 667 "},"Д":{"x_min":-106.46875,"x_max":924.34375,"ha":996,"o":"m -8 -149 l -106 -149 l -73 93 l 7 93 l 521 997 l 555 997 l 846 93 l 924 93 l 891 -149 l 793 -149 l 813 0 l 12 0 l -8 -149 m 111 93 l 745 93 l 514 810 l 111 93 "},"Ç":{"x_min":54,"x_max":1068.34375,"ha":1129,"o":"m 1068 860 l 1007 776 q 646 926 849 926 q 399 861 514 926 q 219 687 284 797 q 155 453 155 578 q 204 254 155 341 q 348 118 254 167 q 564 69 443 69 q 909 186 749 69 l 965 107 q 761 2 846 29 q 563 -25 675 -25 q 226 78 357 -25 q 54 449 54 217 q 226 856 54 689 q 656 1023 399 1023 q 870 986 774 1023 q 1068 860 966 949 m 484 0 l 543 0 l 520 -80 q 547 -78 537 -78 q 596 -95 577 -78 q 616 -139 616 -113 q 569 -222 616 -187 q 444 -258 523 -258 q 334 -237 384 -258 l 355 -190 q 435 -204 397 -204 q 510 -190 488 -204 q 533 -157 533 -176 q 522 -138 533 -146 q 495 -130 512 -130 q 446 -136 478 -130 l 484 0 "},"Ŝ":{"x_min":10.265625,"x_max":656.875,"ha":692,"o":"m 629 813 l 534 789 q 472 889 515 852 q 378 926 428 926 q 287 888 322 926 q 253 787 253 850 q 290 671 253 732 q 401 553 313 633 q 529 399 493 470 q 566 259 566 327 q 526 119 566 186 q 419 13 486 52 q 276 -25 352 -25 q 111 36 181 -25 q 10 215 40 97 l 102 246 q 173 113 124 156 q 285 70 221 70 q 410 123 358 70 q 463 255 463 177 q 433 368 463 313 q 317 500 403 423 q 197 629 225 584 q 152 786 152 704 q 218 956 152 889 q 384 1023 285 1023 q 533 970 468 1023 q 629 813 598 917 m 390 1248 l 484 1248 l 656 1074 l 534 1074 l 429 1177 l 290 1074 l 164 1074 l 390 1248 "},"C":{"x_min":54,"x_max":1068.5,"ha":1129,"o":"m 1068 860 l 1008 776 q 646 926 849 926 q 399 861 514 926 q 219 687 284 797 q 155 453 155 578 q 204 254 155 341 q 348 118 254 167 q 564 69 443 69 q 909 186 749 69 l 965 107 q 761 2 846 29 q 563 -25 675 -25 q 226 78 357 -25 q 54 449 54 217 q 226 856 54 689 q 656 1023 399 1023 q 870 986 774 1023 q 1068 860 966 949 "},"Ĵ":{"x_min":-16.953125,"x_max":689.015625,"ha":669,"o":"m 461 998 l 559 998 l 469 310 q 422 96 448 154 q 343 6 395 38 q 223 -25 291 -25 q 101 2 160 -25 q -16 94 43 29 l 59 149 q 225 67 144 67 q 323 122 286 67 q 370 302 351 164 l 461 998 m 422 1248 l 516 1248 l 689 1074 l 566 1074 l 461 1176 l 322 1074 l 196 1074 l 422 1248 "},"È":{"x_min":32.546875,"x_max":716.140625,"ha":745,"o":"m 716 998 l 701 901 l 252 901 l 208 574 l 657 574 l 644 478 l 195 478 l 145 96 l 594 96 l 582 0 l 32 0 l 166 998 l 716 998 m 425 1285 l 544 1076 l 450 1076 l 280 1285 l 425 1285 "},"X":{"x_min":-31.203125,"x_max":839.578125,"ha":846,"o":"m 147 998 l 252 998 l 429 609 l 722 998 l 839 998 l 473 514 l 709 0 l 604 0 l 408 425 l 86 0 l -31 0 l 364 523 l 147 998 "},"ô":{"x_min":38,"x_max":801,"ha":910,"o":"m 461 757 q 634 711 555 757 q 756 586 712 666 q 801 404 801 506 q 744 188 801 288 q 593 35 688 89 q 378 -19 498 -19 q 133 78 229 -19 q 38 326 38 175 q 94 544 38 444 q 248 700 150 643 q 461 757 346 757 m 459 667 q 293 622 370 667 q 173 501 215 578 q 132 331 132 424 q 203 142 132 215 q 389 69 275 69 q 551 111 478 69 q 666 234 623 154 q 708 405 708 314 q 676 541 708 482 q 586 634 644 601 q 459 667 528 667 m 483 1045 l 577 1045 l 750 872 l 628 872 l 522 974 l 383 872 l 257 872 l 483 1045 "},"Ė":{"x_min":32.234375,"x_max":716.140625,"ha":745,"o":"m 716 998 l 701 901 l 252 901 l 208 574 l 657 574 l 644 478 l 195 478 l 144 96 l 594 96 l 582 0 l 32 0 l 165 998 l 716 998 m 462 1232 q 511 1212 491 1232 q 531 1164 531 1192 q 503 1102 531 1129 q 439 1075 475 1075 q 391 1094 410 1075 q 372 1142 372 1113 q 399 1204 372 1177 q 462 1232 426 1232 "},"г":{"x_min":27.8125,"x_max":500.484375,"ha":488,"o":"m 210 655 l 122 0 l 27 0 l 127 738 l 500 738 l 489 655 l 210 655 "},"Ŀ":{"x_min":35.5625,"x_max":579.09375,"ha":642,"o":"m 167 998 l 267 998 l 147 94 l 579 94 l 567 0 l 35 0 l 167 998 m 407 590 q 456 570 436 590 q 476 522 476 551 q 448 460 476 487 q 384 433 420 433 q 336 452 355 433 q 317 500 317 472 q 344 562 317 535 q 407 590 371 590 "},"х":{"x_min":-18.984375,"x_max":636.125,"ha":667,"o":"m 24 738 l 131 738 l 311 449 l 522 738 l 636 738 l 362 366 l 585 0 l 478 0 l 303 283 l 94 0 l -18 0 l 251 366 l 24 738 "},"ŋ":{"x_min":28.1875,"x_max":721,"ha":847,"o":"m 419 -269 l 431 -189 q 479 -204 454 -204 q 555 -76 538 -204 l 610 329 q 627 498 627 446 q 581 622 627 574 q 457 671 535 671 q 306 624 372 671 q 211 511 240 578 q 165 318 182 444 l 121 0 l 28 0 l 130 738 l 221 738 l 207 624 q 467 757 319 757 q 648 689 575 757 q 721 502 721 622 q 704 324 721 444 l 653 -47 q 589 -249 630 -210 q 501 -289 548 -289 q 419 -269 463 -289 "},"Ч":{"x_min":75,"x_max":717.9375,"ha":793,"o":"m 559 567 l 618 998 l 717 998 l 582 0 l 483 0 l 547 474 l 475 474 q 234 488 307 474 q 117 552 160 502 q 75 697 75 602 q 84 799 75 731 l 110 998 l 207 998 l 180 793 q 172 703 172 731 q 196 615 172 645 q 262 576 221 586 q 391 567 303 567 l 559 567 "},"∟":{"x_min":245,"x_max":1113.921875,"ha":1359,"o":"m 245 867 l 313 867 l 313 68 l 1113 68 l 1113 0 l 245 0 l 245 867 "},"ü":{"x_min":72,"x_max":759,"ha":844,"o":"m 127 738 l 222 738 l 179 429 q 162 261 162 298 q 218 122 162 176 q 368 69 275 69 q 502 109 445 69 q 583 216 559 150 q 613 369 596 249 l 666 738 l 759 738 l 721 458 q 663 173 693 258 q 554 35 632 89 q 363 -19 476 -19 q 153 59 235 -19 q 72 255 72 137 q 79 364 72 301 l 86 429 l 89 457 l 127 738 m 354 1029 q 403 1009 383 1029 q 423 961 423 989 q 395 899 423 926 q 331 872 367 872 q 283 891 302 872 q 264 939 264 910 q 291 1001 264 974 q 354 1029 318 1029 m 631 1029 q 680 1009 661 1029 q 700 961 700 989 q 672 899 700 926 q 608 872 644 872 q 560 891 579 872 q 541 939 541 910 q 568 1001 541 974 q 631 1029 595 1029 "},"ь":{"x_min":27.21875,"x_max":564,"ha":675,"o":"m 181 445 l 304 445 q 500 376 436 445 q 564 218 564 307 q 533 100 564 149 q 445 25 503 51 q 272 0 386 0 l 27 0 l 126 738 l 221 738 l 181 445 m 173 355 l 135 80 l 244 80 q 374 90 336 80 q 439 133 412 100 q 466 214 466 166 q 414 318 466 282 q 272 355 362 355 l 173 355 "},"Ÿ":{"x_min":56.640625,"x_max":856.15625,"ha":823,"o":"m 56 997 l 161 997 l 374 544 l 735 997 l 856 997 l 413 441 l 353 0 l 255 0 l 315 447 l 56 997 m 344 1231 q 393 1211 373 1231 q 413 1163 413 1191 q 385 1101 413 1128 q 321 1074 357 1074 q 273 1093 292 1074 q 254 1141 254 1112 q 281 1203 254 1176 q 344 1231 308 1231 m 621 1231 q 670 1211 651 1231 q 690 1163 690 1191 q 662 1101 690 1128 q 598 1074 634 1074 q 550 1093 569 1074 q 531 1141 531 1112 q 558 1203 531 1176 q 621 1231 585 1231 "},"€":{"x_min":-24.1875,"x_max":787.875,"ha":769,"o":"m 102 654 q 324 925 172 829 q 682 1022 477 1022 q 787 1012 734 1022 l 749 916 q 678 925 716 925 q 402 855 522 925 q 212 654 282 785 l 657 654 l 618 560 l 179 560 q 166 443 166 512 l 570 443 l 532 350 l 178 350 q 315 145 204 221 q 572 69 426 69 q 672 79 628 69 l 660 -15 q 577 -24 619 -24 q 243 75 380 -24 q 74 350 106 175 l -24 350 l 11 443 l 66 443 q 76 560 66 535 l 4 560 l 44 654 l 102 654 "},"в":{"x_min":28,"x_max":544,"ha":650,"o":"m 28 -1 l 127 738 l 330 738 q 479 686 423 738 q 535 557 535 634 q 405 390 535 433 q 508 313 472 366 q 544 199 544 260 q 486 58 544 117 q 327 -1 428 -1 l 242 -1 l 28 -1 m 180 425 l 242 425 q 356 434 321 425 q 416 472 391 443 q 441 550 441 501 q 420 616 441 590 q 369 649 400 643 q 274 656 338 656 l 211 656 l 180 425 m 133 79 l 242 79 l 295 79 q 452 205 452 79 q 425 288 452 255 q 364 329 398 321 q 254 338 329 338 l 167 338 l 133 79 "},"Η":{"x_min":32.546875,"x_max":872.796875,"ha":949,"o":"m 166 997 l 264 997 l 210 592 l 721 592 l 775 998 l 872 998 l 741 0 l 644 0 l 710 498 l 196 498 l 131 0 l 32 0 l 166 997 "},"С":{"x_min":54,"x_max":1068.5,"ha":1129,"o":"m 1068 860 l 1008 776 q 646 926 849 926 q 399 861 514 926 q 219 687 284 797 q 155 453 155 578 q 204 254 155 341 q 348 118 254 167 q 564 69 443 69 q 909 186 749 69 l 965 107 q 761 2 846 29 q 563 -25 675 -25 q 226 78 357 -25 q 54 449 54 217 q 226 856 54 689 q 656 1023 399 1023 q 870 986 774 1023 q 1068 860 966 949 "},"ß":{"x_min":29.96875,"x_max":682,"ha":770,"o":"m 125 0 l 29 0 l 125 673 q 187 890 146 820 q 298 1001 227 960 q 454 1042 369 1042 q 617 979 553 1042 q 682 824 682 917 q 633 661 682 728 q 489 559 585 593 q 616 455 574 519 q 658 312 658 391 q 573 81 658 181 q 346 -19 489 -19 q 203 16 261 -19 l 216 109 q 342 72 286 72 q 492 133 421 72 q 563 301 563 195 q 329 516 563 478 l 343 618 q 476 645 419 618 q 562 718 532 672 q 592 818 592 765 q 553 911 592 874 q 451 948 514 948 q 330 910 384 948 q 251 814 277 873 q 220 673 235 776 l 125 0 "},"њ":{"x_min":27.390625,"x_max":1083,"ha":1192,"o":"m 706 445 l 793 445 q 1009 382 936 445 q 1083 219 1083 319 q 1019 60 1083 121 q 793 0 956 0 l 551 0 l 599 355 l 171 355 l 123 0 l 27 0 l 127 738 l 222 738 l 184 445 l 611 445 l 650 738 l 746 738 l 706 445 m 694 355 l 657 80 l 765 80 q 895 90 857 80 q 960 133 933 100 q 987 214 987 166 q 935 318 987 282 q 793 355 883 355 l 694 355 "},"Ű":{"x_min":66,"x_max":864.515625,"ha":909,"o":"m 157 997 l 256 997 l 180 426 q 166 264 166 312 q 219 120 166 171 q 370 70 273 70 q 492 93 439 70 q 582 160 545 116 q 634 261 619 204 q 681 515 661 362 l 743 998 l 842 998 l 775 493 l 759 370 q 725 223 745 284 q 673 116 705 162 q 601 39 642 69 q 502 -7 560 9 q 373 -25 444 -25 q 145 49 225 -25 q 66 247 66 124 q 70 325 66 282 l 84 441 l 157 997 m 504 1286 l 650 1286 l 420 1077 l 326 1077 l 504 1286 m 718 1286 l 864 1286 l 634 1077 l 541 1077 l 718 1286 "},"c":{"x_min":41,"x_max":812.859375,"ha":899,"o":"m 812 578 l 734 533 q 483 666 652 666 q 305 622 386 666 q 179 502 224 579 q 134 336 134 424 q 167 197 134 258 q 263 102 201 135 q 407 69 324 69 q 571 102 493 69 q 692 190 648 136 l 770 135 q 611 18 696 55 q 412 -19 525 -19 q 139 76 237 -19 q 41 330 41 171 q 169 631 41 506 q 484 757 298 757 q 681 709 596 757 q 812 578 767 662 "},"¶":{"x_min":64.1875,"x_max":694,"ha":784,"o":"m 328 -157 l 328 478 q 252 483 277 478 q 157 529 199 495 q 89 621 114 563 q 64 749 64 678 q 142 958 64 877 q 345 1026 208 1026 l 694 1026 l 694 975 l 637 975 l 637 -157 l 556 -157 l 556 975 l 409 975 l 409 -157 l 328 -157 "},"Ή":{"x_min":-36,"x_max":933.78125,"ha":1010,"o":"m 227 997 l 325 997 l 271 592 l 782 592 l 836 998 l 933 998 l 802 0 l 705 0 l 771 498 l 257 498 l 192 0 l 93 0 l 227 997 m 88 1023 l 38 794 l -36 794 l -36 1023 l 88 1023 "},"γ":{"x_min":37.984375,"x_max":735.140625,"ha":770,"o":"m 350 70 l 305 -270 l 211 -270 l 259 92 l 37 738 l 134 738 l 321 198 l 632 738 l 735 738 l 350 70 "},"­":{"x_min":2.71875,"x_max":387.90625,"ha":461,"o":"m 14 417 l 387 417 l 375 334 l 2 334 l 14 417 "},":":{"x_min":41,"x_max":290,"ha":385,"o":"m 207 757 q 265 732 241 757 q 290 673 290 708 q 265 615 290 639 q 207 591 241 591 q 149 615 173 591 q 125 673 125 639 q 149 732 125 708 q 207 757 173 757 m 123 147 q 182 122 158 147 q 206 64 206 98 q 182 5 206 29 q 123 -19 158 -19 q 65 5 89 -19 q 41 64 41 29 q 65 122 41 98 q 123 147 89 147 "},"ś":{"x_min":-23.765625,"x_max":566.140625,"ha":539,"o":"m 470 654 l 418 578 q 270 667 356 667 q 187 635 222 667 q 153 564 153 603 q 174 507 153 534 q 266 433 194 480 q 406 314 372 365 q 440 195 440 263 q 375 42 440 103 q 206 -19 310 -19 q -23 102 69 -19 l 33 169 q 212 70 115 70 q 307 108 266 70 q 348 198 348 147 q 317 277 348 239 q 212 360 297 301 q 90 465 119 423 q 61 559 61 507 q 122 699 61 641 q 278 757 184 757 q 379 734 334 757 q 470 654 424 712 m 420 1084 l 566 1084 l 335 875 l 242 875 l 420 1084 "}," ":{"x_min":0,"x_max":0,"ha":389},"У":{"x_min":-21.703125,"x_max":889.765625,"ha":865,"o":"m 90 995 l 202 995 l 412 317 l 781 998 l 889 998 l 390 101 q 185 -25 320 -25 q 86 -2 132 -25 q -21 101 40 19 l 58 161 q 147 77 124 87 q 197 67 171 67 q 268 88 236 67 q 345 193 299 109 l 90 995 "},"¾":{"x_min":24.234375,"x_max":1091.828125,"ha":1154,"o":"m 174 885 l 98 885 q 126 958 104 929 q 187 1004 147 986 q 272 1023 227 1023 q 389 983 345 1023 q 434 885 434 944 q 415 821 434 848 q 351 772 397 794 q 406 718 391 745 q 421 658 421 692 q 361 536 421 588 q 210 485 302 485 q 83 527 133 485 q 24 647 33 570 l 99 647 q 131 577 106 597 q 212 551 164 551 q 304 584 264 551 q 345 654 345 618 q 310 720 345 695 q 194 745 275 745 l 203 807 l 224 807 q 328 834 286 807 q 359 887 359 855 q 333 935 359 915 q 268 956 308 956 q 205 937 230 956 q 174 885 180 918 m 254 -25 l 887 1023 l 962 1023 l 330 -25 l 254 -25 m 1068 535 l 1009 167 l 1091 167 l 1080 99 l 998 99 l 982 -6 l 909 -6 l 925 99 l 656 99 l 1068 535 l 1068 535 m 960 320 l 816 167 l 936 167 l 960 320 "},"Ί":{"x_min":-36,"x_max":322.75,"ha":375,"o":"m 222 998 l 322 998 l 187 0 l 87 0 l 222 998 m 88 1023 l 38 794 l -36 794 l -36 1023 l 88 1023 "},"ŉ":{"x_min":-32.109375,"x_max":717,"ha":847,"o":"m 126 738 l 217 738 l 203 624 q 463 757 315 757 q 647 686 577 757 q 717 497 717 616 q 702 338 717 450 l 656 0 l 562 0 l 608 338 q 623 498 623 447 q 576 623 623 576 q 453 671 529 671 q 314 632 378 671 q 215 528 250 594 q 161 318 180 462 l 117 0 l 24 0 l 126 738 m 16 649 l -32 679 q 16 767 5 740 q 37 835 28 794 l -22 835 l 3 1023 l 123 1023 l 114 939 q 82 773 103 833 q 16 649 60 712 "},"Ģ":{"x_min":54,"x_max":1099,"ha":1211,"o":"m 1082 783 l 1002 724 q 826 875 927 822 q 618 928 724 928 q 389 863 499 928 q 216 693 279 799 q 154 466 154 587 q 271 185 154 301 q 558 69 389 69 q 752 111 659 69 q 902 221 844 152 q 986 391 960 289 l 621 391 l 621 489 l 1099 489 q 948 117 1099 259 q 573 -25 797 -25 q 198 114 342 -25 q 54 463 54 253 q 129 743 54 613 q 336 948 204 873 q 620 1023 468 1023 q 1082 783 896 1023 m 518 0 l 577 0 l 554 -80 q 581 -78 571 -78 q 630 -95 611 -78 q 650 -139 650 -113 q 603 -222 650 -187 q 478 -258 557 -258 q 368 -237 418 -258 l 389 -190 q 469 -204 431 -204 q 544 -190 522 -204 q 567 -157 567 -176 q 556 -138 567 -146 q 529 -130 546 -130 q 480 -136 512 -130 l 518 0 "},"m":{"x_min":23.953125,"x_max":1179,"ha":1302,"o":"m 129 738 l 221 738 l 207 633 q 316 723 249 690 q 449 757 382 757 q 597 707 533 757 q 671 591 647 668 q 795 713 721 670 q 944 757 868 757 q 1113 691 1047 757 q 1179 520 1179 625 q 1170 404 1179 473 l 1115 0 l 1022 0 l 1072 353 q 1088 516 1088 465 q 1045 622 1088 580 q 934 665 1003 665 q 797 619 860 665 q 708 511 734 573 q 668 353 681 448 l 618 0 l 523 0 l 579 404 q 588 510 588 469 q 546 624 588 581 q 436 667 504 667 q 327 640 379 667 q 242 570 275 613 q 191 462 209 526 q 167 347 174 398 l 118 0 l 23 0 l 129 738 "},"Е":{"x_min":32.546875,"x_max":716.140625,"ha":745,"o":"m 716 998 l 701 901 l 252 901 l 208 574 l 657 574 l 644 478 l 195 478 l 145 96 l 594 96 l 582 0 l 32 0 l 166 998 l 716 998 "},"ž":{"x_min":-38.65625,"x_max":615.09375,"ha":590,"o":"m 62 738 l 569 738 l 128 84 l 529 84 l 518 0 l -38 0 l 404 655 l 51 655 l 62 738 m 389 872 l 295 872 l 122 1045 l 244 1045 l 349 943 l 488 1045 l 615 1045 l 389 872 "},"á":{"x_min":41,"x_max":858.921875,"ha":949,"o":"m 760 0 l 665 0 l 679 111 q 385 -19 551 -19 q 138 78 235 -19 q 41 327 41 175 q 166 630 41 503 q 462 757 292 757 q 624 718 555 757 q 743 597 694 679 l 760 738 l 858 738 l 760 0 m 395 68 q 562 111 487 68 q 681 234 637 154 q 726 410 726 315 q 653 596 726 525 q 465 668 580 668 q 231 570 328 668 q 135 329 135 472 q 207 139 135 211 q 395 68 280 68 m 608 1084 l 753 1084 l 524 875 l 430 875 l 608 1084 "},"×":{"x_min":133.59375,"x_max":708.015625,"ha":842,"o":"m 482 498 l 708 274 l 645 211 l 421 436 l 195 211 l 133 274 l 358 498 l 133 723 l 195 786 l 421 560 l 645 786 l 708 723 l 482 498 "},"п":{"x_min":27.8125,"x_max":749.375,"ha":847,"o":"m 127 738 l 749 738 l 649 0 l 554 0 l 642 648 l 210 648 l 122 0 l 27 0 l 127 738 "},"Ǻ":{"x_min":-20.15625,"x_max":911.359375,"ha":1027,"o":"m 577 997 l 911 0 l 808 0 l 699 326 l 277 326 l 91 0 l -20 0 l 554 997 l 577 997 m 545 788 l 332 421 l 668 421 l 545 788 m 606 1241 q 697 1205 661 1241 q 733 1116 733 1169 q 682 1000 733 1050 q 564 951 632 951 q 476 986 512 951 q 441 1075 441 1022 q 491 1191 441 1141 q 606 1241 541 1241 m 596 1172 q 536 1146 562 1172 q 511 1087 511 1120 q 529 1041 511 1059 q 575 1023 547 1023 q 635 1048 609 1023 q 661 1107 661 1074 q 642 1153 661 1135 q 596 1172 623 1172 m 647 1471 l 793 1471 l 563 1263 l 470 1263 l 647 1471 "},"K":{"x_min":31.875,"x_max":819.90625,"ha":821,"o":"m 164 998 l 263 998 l 209 592 l 676 998 l 819 998 l 279 531 l 747 0 l 619 0 l 195 481 l 129 0 l 31 0 l 164 998 "},"7":{"x_min":26.453125,"x_max":752.09375,"ha":770,"o":"m 120 998 l 752 998 l 105 -24 l 26 24 l 581 904 l 105 904 l 120 998 "},"¨":{"x_min":99,"x_max":535,"ha":513,"o":"m 189 1029 q 238 1009 218 1029 q 258 961 258 989 q 230 899 258 926 q 166 872 202 872 q 118 891 137 872 q 99 939 99 910 q 126 1001 99 974 q 189 1029 153 1029 m 466 1029 q 515 1009 496 1029 q 535 961 535 989 q 507 899 535 926 q 443 872 479 872 q 395 891 414 872 q 376 939 376 910 q 403 1001 376 974 q 466 1029 430 1029 "},"Y":{"x_min":56.28125,"x_max":855.171875,"ha":822,"o":"m 56 998 l 160 998 l 374 544 l 734 998 l 855 998 l 413 442 l 352 0 l 254 0 l 315 447 l 56 998 "},"E":{"x_min":32.546875,"x_max":716.140625,"ha":745,"o":"m 716 998 l 701 901 l 252 901 l 208 574 l 657 574 l 644 478 l 195 478 l 145 96 l 594 96 l 582 0 l 32 0 l 166 998 l 716 998 "},"Ô":{"x_min":49,"x_max":1117,"ha":1207,"o":"m 647 1023 q 983 890 849 1023 q 1117 556 1117 758 q 947 142 1117 310 q 523 -25 777 -25 q 178 103 308 -25 q 49 441 49 232 q 126 736 49 601 q 341 946 204 870 q 647 1023 478 1023 m 645 929 q 390 866 502 929 q 212 689 277 804 q 147 445 147 574 q 194 248 147 335 q 325 115 241 161 q 522 69 409 69 q 771 133 656 69 q 951 313 886 198 q 1017 562 1017 428 q 892 842 1017 739 q 645 929 789 929 m 631 1248 l 725 1248 l 897 1074 l 775 1074 l 670 1177 l 531 1074 l 405 1074 l 631 1248 "},"Є":{"x_min":49,"x_max":1071.59375,"ha":1091,"o":"m 165 552 l 633 552 l 619 454 l 152 454 q 152 422 152 432 q 259 174 152 279 q 542 69 367 69 q 913 233 751 69 l 984 173 q 526 -25 800 -25 q 172 103 295 -25 q 49 425 49 231 q 230 847 49 672 q 662 1023 411 1023 q 908 967 801 1023 q 1071 812 1015 911 l 984 752 q 651 925 875 925 q 356 826 493 925 q 165 552 219 727 "},"Ï":{"x_min":24,"x_max":460,"ha":314,"o":"m 161 997 l 261 997 l 126 0 l 26 0 l 161 997 m 114 1231 q 163 1211 143 1231 q 183 1163 183 1191 q 155 1101 183 1128 q 91 1074 127 1074 q 43 1093 62 1074 q 24 1141 24 1112 q 51 1203 24 1176 q 114 1231 78 1231 m 391 1231 q 440 1211 421 1231 q 460 1163 460 1191 q 432 1101 460 1128 q 368 1074 404 1074 q 320 1093 339 1074 q 301 1141 301 1112 q 328 1203 301 1176 q 391 1231 355 1231 "},"ġ":{"x_min":15.234375,"x_max":847.578125,"ha":934,"o":"m 754 738 l 847 738 l 762 113 q 713 -98 742 -37 q 580 -235 673 -181 q 361 -289 487 -289 q 148 -238 236 -289 q 15 -90 60 -187 l 100 -60 q 361 -200 177 -200 q 528 -161 458 -200 q 630 -60 599 -122 q 667 101 648 -23 l 671 130 q 379 0 552 0 q 134 93 227 0 q 41 335 41 186 q 97 542 41 445 q 253 697 154 638 q 455 757 352 757 q 611 718 540 757 q 736 597 681 680 l 754 738 m 473 667 q 301 622 380 667 q 177 502 221 578 q 134 331 134 426 q 203 156 134 223 q 388 90 272 90 q 622 182 529 90 q 716 415 716 274 q 640 602 716 538 q 473 667 564 667 m 511 1029 q 560 1009 540 1029 q 580 961 580 989 q 552 899 580 926 q 488 872 524 872 q 440 891 459 872 q 421 939 421 910 q 448 1001 421 974 q 511 1029 475 1029 "},"έ":{"x_min":9,"x_max":531.171875,"ha":587,"o":"m 483 78 q 226 -20 377 -20 q 70 35 131 -20 q 9 178 9 90 q 165 403 9 339 q 86 533 86 450 q 156 693 86 628 q 331 758 226 758 q 531 674 443 758 l 468 608 q 323 668 399 668 q 216 627 255 668 q 177 529 177 587 q 207 456 177 485 q 288 427 238 427 l 337 427 l 327 346 l 268 346 q 156 301 205 346 q 107 184 107 256 q 246 69 107 69 q 432 146 353 69 l 483 78 m 409 1083 l 359 854 l 285 854 l 285 1083 l 409 1083 "},"ϋ":{"x_min":47,"x_max":719,"ha":826,"o":"m 103 738 l 197 738 l 151 393 q 141 271 141 316 q 337 70 141 70 q 545 167 467 70 q 623 409 623 264 q 492 675 623 571 l 552 757 q 719 428 719 619 q 613 105 719 230 q 324 -19 507 -19 q 47 257 47 -19 q 56 382 47 308 l 103 738 m 324 1029 q 373 1009 353 1029 q 393 961 393 989 q 365 899 393 926 q 301 872 337 872 q 253 891 272 872 q 234 939 234 910 q 261 1001 234 974 q 324 1029 288 1029 m 601 1029 q 650 1009 631 1029 q 670 961 670 989 q 642 899 670 926 q 578 872 614 872 q 530 891 549 872 q 511 939 511 910 q 538 1001 511 974 q 601 1029 565 1029 "},"й":{"x_min":27.8125,"x_max":749.375,"ha":847,"o":"m 220 738 l 149 207 l 741 738 l 749 738 l 649 0 l 554 0 l 624 525 l 39 0 l 27 0 l 125 738 l 220 738 m 242 1034 l 332 1034 q 474 964 368 964 q 565 979 529 964 q 636 1034 601 994 l 723 1034 q 632 932 699 973 q 464 891 564 891 q 307 931 364 891 q 242 1034 250 972 "},"b":{"x_min":40.078125,"x_max":858,"ha":948,"o":"m 176 1023 l 272 1023 l 220 627 q 513 757 348 757 q 761 660 664 757 q 858 410 858 563 q 732 107 858 234 q 436 -19 607 -19 q 274 20 344 -19 q 155 141 204 59 l 138 0 l 40 0 l 176 1023 m 503 670 q 336 626 412 670 q 217 503 261 583 q 173 327 173 422 q 245 141 173 212 q 433 69 318 69 q 667 167 570 69 q 764 408 764 265 q 691 598 764 526 q 503 670 619 670 "},"ύ":{"x_min":47,"x_max":719,"ha":826,"o":"m 103 738 l 197 738 l 151 393 q 141 271 141 316 q 337 70 141 70 q 545 167 467 70 q 623 409 623 264 q 492 675 623 571 l 552 757 q 719 428 719 619 q 613 105 719 230 q 324 -19 507 -19 q 47 257 47 -19 q 56 382 47 308 l 103 738 m 529 1084 l 479 855 l 405 855 l 405 1084 l 529 1084 "},"ф":{"x_min":28,"x_max":1397,"ha":1493,"o":"m 754 1023 l 848 1023 l 788 588 q 1075 753 879 753 q 1306 661 1215 753 q 1397 427 1397 570 q 1274 101 1397 225 q 978 -23 1152 -23 q 727 132 779 -23 l 674 -269 l 580 -269 l 633 132 q 360 -22 557 -22 q 122 72 217 -22 q 28 309 28 167 q 154 627 28 502 q 450 753 281 753 q 695 588 647 753 l 754 1023 m 754 306 q 824 117 754 171 q 962 64 895 64 q 1206 168 1111 64 q 1301 414 1301 272 q 1233 597 1301 528 q 1055 667 1165 667 q 838 562 922 667 q 754 306 754 458 m 127 320 q 193 138 127 211 q 377 66 259 66 q 525 114 445 66 q 636 249 604 162 q 669 430 669 335 q 634 573 669 523 q 553 644 599 622 q 456 667 508 667 q 225 563 323 667 q 127 320 127 460 "},"Ŋ":{"x_min":32.921875,"x_max":983,"ha":1079,"o":"m 232 759 l 131 0 l 32 0 l 166 998 l 264 998 l 248 878 q 589 1023 402 1023 q 875 901 768 1023 q 983 580 983 780 q 845 158 983 341 q 513 -25 708 -25 q 381 1 435 -25 q 285 104 326 28 l 361 164 q 527 69 416 69 q 777 226 672 69 q 882 567 882 384 q 794 829 882 730 q 565 929 707 929 q 232 759 383 929 "},"Ũ":{"x_min":66,"x_max":842.125,"ha":909,"o":"m 157 997 l 256 997 l 180 426 q 166 264 166 312 q 219 120 166 171 q 370 70 273 70 q 492 93 439 70 q 582 160 545 116 q 634 261 619 204 q 681 515 661 362 l 743 998 l 842 998 l 775 493 l 759 370 q 725 223 745 284 q 673 116 705 162 q 601 39 642 69 q 502 -7 560 9 q 373 -25 444 -25 q 145 49 225 -25 q 66 247 66 124 q 70 325 66 282 l 84 441 l 157 997 m 723 1213 l 762 1147 q 672 1100 707 1112 q 600 1088 636 1088 q 503 1113 551 1088 q 450 1138 462 1134 q 416 1143 434 1143 q 369 1134 391 1143 q 302 1096 347 1126 l 267 1165 q 428 1231 338 1231 q 528 1204 471 1231 q 614 1178 583 1178 q 723 1213 653 1178 "},"Щ":{"x_min":32.546875,"x_max":1403.125,"ha":1443,"o":"m 1205 94 l 1392 94 l 1360 -149 l 1266 -149 l 1287 0 l 32 0 l 167 997 l 267 997 l 145 94 l 574 94 l 697 997 l 797 997 l 675 94 l 1104 94 l 1226 997 l 1327 997 l 1205 94 m 1403 0 l 1403 0 "},"L":{"x_min":35.265625,"x_max":578.484375,"ha":642,"o":"m 166 998 l 267 998 l 147 94 l 578 94 l 566 0 l 35 0 l 166 998 "},";":{"x_min":-24.203125,"x_max":290,"ha":384,"o":"m 207 757 q 266 732 242 757 q 290 673 290 708 q 266 615 290 639 q 207 591 242 591 q 149 615 173 591 q 125 673 125 639 q 149 732 125 708 q 207 757 173 757 m 127 182 l 212 139 l 39 -115 l -24 -87 l 127 182 "},"ď":{"x_min":42,"x_max":1050.484375,"ha":957,"o":"m 761 0 l 666 0 l 680 111 q 386 -19 552 -19 q 144 72 246 -19 q 42 327 42 164 q 101 545 42 448 q 257 699 160 642 q 463 757 355 757 q 744 597 655 757 l 799 1023 l 897 1023 l 761 0 m 396 68 q 634 167 541 68 q 727 409 727 266 q 652 598 727 528 q 466 668 577 668 q 234 572 333 668 q 136 329 136 475 q 210 138 136 208 q 396 68 285 68 m 960 705 l 918 730 q 977 864 967 808 l 927 864 l 948 1023 l 1050 1023 l 1043 951 q 1014 806 1034 858 q 960 705 995 754 "},"Ο":{"x_min":49,"x_max":1117,"ha":1207,"o":"m 647 1023 q 983 890 849 1023 q 1117 556 1117 758 q 947 142 1117 310 q 523 -25 777 -25 q 178 103 308 -25 q 49 441 49 232 q 126 736 49 601 q 341 946 204 870 q 647 1023 478 1023 m 645 929 q 390 866 502 929 q 212 689 277 804 q 147 445 147 574 q 194 248 147 335 q 325 115 241 161 q 522 69 409 69 q 771 133 656 69 q 951 313 886 198 q 1017 562 1017 428 q 892 842 1017 739 q 645 929 789 929 "},"Ĭ":{"x_min":-7.453125,"x_max":473.359375,"ha":314,"o":"m 161 998 l 261 998 l 126 0 l 26 0 l 161 998 m -7 1237 l 82 1237 q 223 1166 118 1166 q 315 1181 279 1166 q 386 1237 351 1196 l 473 1237 q 382 1134 449 1175 q 214 1093 314 1093 q 57 1133 114 1093 q -7 1237 0 1174 "},"ŧ":{"x_min":6.78125,"x_max":448.953125,"ha":471,"o":"m 258 412 l 425 412 l 415 333 l 247 333 l 202 0 l 107 0 l 152 333 l 6 333 l 16 412 l 162 412 l 195 655 l 69 655 l 80 738 l 206 738 l 246 1014 l 339 1014 l 302 738 l 448 738 l 438 655 l 291 655 l 258 412 "},"À":{"x_min":-19.671875,"x_max":912.140625,"ha":1027,"o":"m 577 997 l 912 0 l 809 0 l 700 326 l 278 326 l 91 0 l -19 0 l 554 997 l 577 997 m 545 788 l 332 421 l 669 421 l 545 788 m 543 1285 l 661 1076 l 568 1076 l 397 1285 l 543 1285 "},"Ϊ":{"x_min":24,"x_max":460,"ha":314,"o":"m 161 997 l 261 997 l 126 0 l 26 0 l 161 997 m 114 1231 q 163 1211 143 1231 q 183 1163 183 1191 q 155 1101 183 1128 q 91 1074 127 1074 q 43 1093 62 1074 q 24 1141 24 1112 q 51 1203 24 1176 q 114 1231 78 1231 m 391 1231 q 440 1211 421 1231 q 460 1163 460 1191 q 432 1101 460 1128 q 368 1074 404 1074 q 320 1093 339 1074 q 301 1141 301 1112 q 328 1203 301 1176 q 391 1231 355 1231 "},"½":{"x_min":121.8125,"x_max":1041,"ha":1154,"o":"m 151 1010 l 289 1010 l 207 497 l 134 497 l 204 944 l 121 944 l 151 1010 m 138 -24 l 769 1023 l 845 1023 l 213 -24 l 138 -24 m 759 345 l 684 345 q 734 478 684 431 q 873 526 785 526 q 994 485 948 526 q 1041 386 1041 445 q 1018 309 1041 347 q 895 179 995 271 l 776 68 l 1015 68 l 1005 0 l 601 0 l 811 197 q 943 332 922 301 q 965 389 965 362 q 938 439 965 417 q 867 461 911 461 q 788 431 817 461 q 759 345 759 401 "},"'":{"x_min":132,"x_max":217,"ha":275,"o":"m 217 709 l 132 709 l 132 1023 l 217 1023 l 217 709 "},"ĳ":{"x_min":9.640625,"x_max":545,"ha":560,"o":"m 186 1042 q 239 1019 217 1042 q 262 965 262 997 q 239 912 262 934 q 186 890 217 890 q 132 912 154 890 q 110 965 110 934 q 132 1019 110 997 q 186 1042 154 1042 m 469 1042 q 522 1020 499 1042 q 545 965 545 998 q 522 912 545 934 q 469 890 500 890 q 415 912 437 890 q 393 965 393 934 q 415 1019 393 997 q 469 1042 437 1042 m 111 738 l 201 738 l 103 0 l 9 0 l 111 738 m 393 738 l 486 738 l 378 -47 q 314 -248 356 -208 q 226 -289 273 -289 q 144 -269 190 -289 l 156 -189 q 204 -204 179 -204 q 281 -76 263 -204 l 393 738 "},"Р":{"x_min":44.328125,"x_max":773,"ha":823,"o":"m 177 997 l 450 997 q 643 971 585 997 q 737 891 702 946 q 773 761 773 836 q 717 589 773 662 q 576 490 661 516 q 359 471 514 471 l 207 471 l 144 0 l 44 0 l 177 997 m 266 901 l 219 569 l 359 569 q 553 588 499 569 q 640 654 607 607 q 673 759 673 702 q 650 840 673 807 q 588 887 628 873 q 444 901 549 901 l 266 901 "},"Ć":{"x_min":54,"x_max":1068.5,"ha":1129,"o":"m 1068 860 l 1008 776 q 646 926 849 926 q 399 861 514 926 q 219 687 284 797 q 155 453 155 578 q 204 254 155 341 q 348 118 254 167 q 564 69 443 69 q 909 186 749 69 l 965 107 q 761 2 846 29 q 563 -25 675 -25 q 226 78 357 -25 q 54 449 54 217 q 226 856 54 689 q 656 1023 399 1023 q 870 986 774 1023 q 1068 860 966 949 m 722 1282 l 868 1282 l 638 1074 l 544 1074 l 722 1282 "},"Т":{"x_min":36.625,"x_max":645.609375,"ha":591,"o":"m 49 998 l 645 998 l 632 903 l 378 903 l 258 0 l 158 0 l 278 903 l 36 903 l 49 998 "},"£":{"x_min":-9,"x_max":728,"ha":770,"o":"m 87 573 l 259 573 q 238 751 238 712 q 312 949 238 875 q 506 1023 387 1023 q 667 960 607 1023 q 728 786 728 897 l 728 763 l 628 763 q 596 890 628 854 q 503 927 565 927 q 384 881 431 927 q 338 763 338 835 q 362 573 338 699 l 577 573 l 565 480 l 374 480 q 374 404 374 436 q 337 174 374 272 q 455 89 440 98 q 503 77 481 77 q 565 119 538 77 q 600 233 591 162 l 695 233 q 641 53 695 132 q 502 -25 586 -25 q 417 -6 458 -25 q 292 82 360 21 q 120 -25 214 -25 q 26 10 62 -25 q -9 103 -9 46 q 37 213 -9 166 q 148 260 83 260 q 252 233 202 260 q 272 367 272 309 l 272 480 l 74 480 l 87 573 m 215 142 q 147 168 175 168 q 101 152 119 168 q 83 113 83 136 q 95 80 83 93 q 127 68 108 68 q 215 142 171 68 "},"ů":{"x_min":72,"x_max":758.84375,"ha":844,"o":"m 127 738 l 222 738 l 179 429 q 162 261 162 298 q 218 122 162 176 q 368 69 275 69 q 502 109 445 69 q 583 216 559 150 q 613 369 596 249 l 665 738 l 758 738 l 720 458 q 663 173 693 258 q 554 35 632 89 q 363 -19 476 -19 q 153 59 235 -19 q 72 255 72 137 q 79 364 72 301 l 86 429 l 89 457 l 127 738 m 484 1147 q 575 1111 539 1147 q 611 1022 611 1075 q 560 906 611 956 q 442 857 510 857 q 354 892 390 857 q 319 981 319 928 q 369 1097 319 1047 q 484 1147 419 1147 m 474 1078 q 414 1052 440 1078 q 389 993 389 1026 q 407 947 389 965 q 453 929 425 929 q 513 954 487 929 q 539 1013 539 980 q 520 1059 539 1041 q 474 1078 501 1078 "},"Ō":{"x_min":49,"x_max":1117,"ha":1207,"o":"m 647 1023 q 983 890 849 1023 q 1117 556 1117 758 q 947 142 1117 310 q 523 -25 777 -25 q 178 103 308 -25 q 49 441 49 232 q 126 736 49 601 q 341 946 204 870 q 647 1023 478 1023 m 645 929 q 390 866 502 929 q 212 689 277 804 q 147 445 147 574 q 194 248 147 335 q 325 115 241 161 q 522 69 409 69 q 771 133 656 69 q 951 313 886 198 q 1017 562 1017 428 q 892 842 1017 739 q 645 929 789 929 m 416 1205 l 884 1205 l 872 1124 l 404 1124 l 416 1205 "},"а":{"x_min":41,"x_max":858.921875,"ha":949,"o":"m 760 0 l 665 0 l 679 111 q 385 -19 551 -19 q 138 78 235 -19 q 41 327 41 175 q 166 630 41 503 q 462 757 292 757 q 624 718 555 757 q 743 597 694 679 l 760 738 l 858 738 l 760 0 m 395 68 q 562 111 487 68 q 681 234 637 154 q 726 410 726 315 q 653 596 726 525 q 465 668 580 668 q 231 570 328 668 q 135 329 135 472 q 207 139 135 211 q 395 68 280 68 "},"Ğ":{"x_min":54,"x_max":1099,"ha":1211,"o":"m 1082 783 l 1002 724 q 826 875 927 822 q 618 928 724 928 q 389 863 499 928 q 216 693 279 799 q 154 466 154 587 q 271 185 154 301 q 558 70 389 70 q 751 111 659 70 q 902 221 844 152 q 986 391 960 289 l 621 391 l 621 489 l 1099 489 q 948 117 1099 259 q 573 -25 797 -25 q 198 114 342 -25 q 54 463 54 253 q 129 743 54 613 q 336 948 204 873 q 620 1023 468 1023 q 1082 783 896 1023 m 412 1233 l 501 1233 q 643 1163 537 1163 q 734 1178 698 1163 q 806 1233 770 1193 l 892 1233 q 801 1131 869 1172 q 633 1090 734 1090 q 477 1130 534 1090 q 412 1233 420 1171 "},"v":{"x_min":37.984375,"x_max":735.140625,"ha":770,"o":"m 37 738 l 134 738 l 321 198 l 632 738 l 735 738 l 309 0 l 292 0 l 37 738 "},"Ї":{"x_min":24,"x_max":460,"ha":314,"o":"m 161 997 l 262 997 l 127 0 l 26 0 l 161 997 m 114 1231 q 163 1211 143 1231 q 183 1163 183 1191 q 155 1101 183 1128 q 91 1074 127 1074 q 43 1093 62 1074 q 24 1141 24 1112 q 51 1203 24 1176 q 114 1231 78 1231 m 391 1231 q 440 1211 421 1231 q 460 1163 460 1191 q 432 1101 460 1128 q 368 1074 404 1074 q 320 1093 339 1074 q 301 1141 301 1112 q 328 1203 301 1176 q 391 1231 355 1231 "},"û":{"x_min":72,"x_max":758.796875,"ha":844,"o":"m 127 738 l 222 738 l 179 429 q 162 261 162 298 q 218 122 162 176 q 368 69 275 69 q 502 109 445 69 q 583 216 559 150 q 612 369 596 249 l 665 738 l 758 738 l 720 458 q 663 173 693 258 q 554 35 632 89 q 363 -19 476 -19 q 153 59 235 -19 q 72 255 72 137 q 79 364 72 301 l 86 429 l 89 457 l 127 738 m 450 1045 l 545 1045 l 717 872 l 595 872 l 490 974 l 351 872 l 225 872 l 450 1045 "},"Ź":{"x_min":8.8125,"x_max":659.859375,"ha":667,"o":"m 147 998 l 659 998 l 170 95 l 543 95 l 531 0 l 8 0 l 500 902 l 134 902 l 147 998 m 495 1285 l 641 1285 l 411 1076 l 318 1076 l 495 1285 "},"Ĺ":{"x_min":35.265625,"x_max":578.484375,"ha":642,"o":"m 166 998 l 267 998 l 147 94 l 578 94 l 566 0 l 35 0 l 166 998 m 377 1285 l 522 1285 l 292 1076 l 199 1076 l 377 1285 "},"₤":{"x_min":-9,"x_max":728,"ha":770,"o":"m 348 659 l 589 659 l 577 566 l 361 566 q 371 487 368 519 l 565 487 l 553 394 l 374 394 q 337 174 374 265 q 456 89 435 101 q 502 77 477 77 q 600 233 576 77 l 696 233 q 644 60 696 146 q 501 -25 592 -25 q 291 82 412 -25 q 120 -25 215 -25 q 27 10 63 -25 q -9 103 -9 46 q 37 212 -9 165 q 148 260 83 260 q 252 233 204 260 q 274 394 274 304 l 61 394 l 75 487 l 267 487 l 259 566 l 86 566 l 99 659 l 246 659 q 238 751 238 709 q 317 953 238 884 q 506 1023 397 1023 q 667 961 606 1023 q 728 784 728 899 l 728 763 l 629 763 q 502 927 629 927 q 385 882 433 927 q 338 761 338 838 q 348 659 338 720 m 215 142 q 147 168 177 168 q 102 152 121 168 q 83 113 83 136 q 95 80 83 93 q 127 68 108 68 q 215 142 172 68 "},"Č":{"x_min":54,"x_max":1068.5,"ha":1129,"o":"m 1068 860 l 1008 776 q 646 926 849 926 q 399 861 514 926 q 219 687 284 797 q 155 453 155 578 q 204 254 155 341 q 348 118 254 167 q 564 69 443 69 q 909 186 749 69 l 965 107 q 761 2 846 29 q 563 -25 675 -25 q 226 78 357 -25 q 54 449 54 217 q 226 856 54 689 q 656 1023 399 1023 q 870 986 774 1023 q 1068 860 966 949 m 707 1070 l 613 1070 l 441 1244 l 563 1244 l 668 1141 l 807 1244 l 933 1244 l 707 1070 "},"x":{"x_min":-18.984375,"x_max":636.125,"ha":667,"o":"m 24 738 l 131 738 l 311 449 l 522 738 l 636 738 l 362 366 l 585 0 l 478 0 l 303 283 l 94 0 l -18 0 l 251 366 l 24 738 "},"è":{"x_min":39,"x_max":795,"ha":902,"o":"m 790 350 l 131 350 q 201 143 131 218 q 388 68 271 68 q 533 99 466 68 q 642 189 599 131 l 713 131 q 573 22 659 63 q 386 -19 486 -19 q 126 88 213 -19 q 39 330 39 196 q 97 541 39 440 q 254 700 156 643 q 467 757 352 757 q 702 661 609 757 q 795 416 795 565 q 790 350 795 389 m 701 432 q 633 601 701 536 q 464 666 566 666 q 268 603 353 666 q 148 432 184 541 l 701 432 m 480 1083 l 598 875 l 505 875 l 334 1083 l 480 1083 "},"Ń":{"x_min":33.90625,"x_max":955.546875,"ha":1027,"o":"m 857 998 l 955 998 l 820 0 l 798 0 l 237 773 l 132 0 l 33 0 l 168 998 l 189 998 l 752 223 l 857 998 m 644 1285 l 790 1285 l 560 1076 l 467 1076 l 644 1285 "},"μ":{"x_min":-26.9375,"x_max":745.5,"ha":847,"o":"m 745 738 l 643 0 l 552 0 l 566 113 q 316 -19 479 -19 q 115 78 170 -19 l 65 -270 l -26 -270 l 113 737 l 207 737 l 161 399 q 146 241 146 285 q 193 114 146 161 q 316 67 240 67 q 464 110 400 67 q 558 215 528 153 q 608 419 588 277 l 652 738 l 745 738 "},".":{"x_min":41,"x_max":206,"ha":384,"o":"m 123 147 q 182 122 158 147 q 206 64 206 98 q 182 5 206 29 q 123 -19 158 -19 q 65 5 89 -19 q 41 64 41 29 q 65 122 41 98 q 123 147 89 147 "},"‘":{"x_min":194.640625,"x_max":349.9375,"ha":488,"o":"m 301 1022 l 349 993 q 301 904 312 931 q 280 837 289 877 l 340 837 l 314 649 l 194 649 l 203 732 q 235 898 213 837 q 301 1022 257 959 "},"π":{"x_min":33.90625,"x_max":908.0625,"ha":931,"o":"m 897 655 l 744 655 l 657 0 l 564 0 l 651 655 l 279 655 l 191 0 l 99 0 l 186 655 l 33 655 l 44 738 l 908 738 l 897 655 "},"9":{"x_min":45,"x_max":709,"ha":770,"o":"m 238 -24 l 167 33 l 435 350 q 350 336 388 336 q 147 418 235 336 q 45 668 45 514 q 143 920 45 818 q 385 1023 241 1023 q 616 929 523 1023 q 709 696 709 835 q 670 522 709 605 q 504 289 631 438 l 238 -24 m 372 427 q 541 501 471 427 q 611 687 611 576 q 545 857 611 789 q 389 925 480 925 q 220 854 296 925 q 144 666 144 784 q 210 496 144 565 q 372 427 277 427 "},"l":{"x_min":9.5,"x_max":245.5,"ha":278,"o":"m 152 1023 l 245 1023 l 103 0 l 9 0 l 152 1023 "},"Ъ":{"x_min":14.25,"x_max":802,"ha":892,"o":"m 236 904 l 14 904 l 27 998 l 353 998 l 295 570 l 414 570 q 598 554 543 570 q 700 499 652 538 q 775 402 749 460 q 802 280 802 345 q 741 103 802 175 q 604 16 680 32 q 315 0 528 0 l 114 0 l 236 904 m 231 99 l 335 99 q 516 99 476 99 q 598 119 557 99 q 663 181 639 140 q 687 279 687 221 q 636 417 687 362 q 446 472 585 472 l 282 472 l 231 99 "},"Ś":{"x_min":10.265625,"x_max":675.859375,"ha":692,"o":"m 629 813 l 534 789 q 472 889 515 852 q 378 926 428 926 q 287 888 322 926 q 253 787 253 850 q 290 671 253 732 q 401 553 313 633 q 529 399 493 470 q 566 259 566 327 q 526 119 566 186 q 419 13 486 52 q 276 -25 352 -25 q 111 36 181 -25 q 10 215 40 97 l 102 246 q 173 113 124 156 q 285 70 221 70 q 410 123 358 70 q 463 255 463 177 q 433 368 463 313 q 317 500 403 423 q 197 629 225 584 q 152 786 152 704 q 218 956 152 889 q 384 1023 285 1023 q 533 970 468 1023 q 629 813 598 917 m 530 1285 l 675 1285 l 446 1077 l 352 1077 l 530 1285 "},"Ü":{"x_min":66,"x_max":842.859375,"ha":910,"o":"m 157 997 l 256 997 l 180 426 q 166 264 166 312 q 219 120 166 171 q 371 70 273 70 q 492 93 439 70 q 582 160 545 116 q 635 261 619 204 q 682 515 662 362 l 744 998 l 842 998 l 776 493 l 760 370 q 726 223 745 284 q 674 116 706 162 q 602 39 642 69 q 503 -7 561 9 q 373 -25 445 -25 q 146 49 226 -25 q 66 247 66 124 q 70 325 66 282 l 84 441 l 157 997 m 387 1232 q 436 1212 416 1232 q 456 1164 456 1192 q 428 1102 456 1129 q 364 1075 400 1075 q 316 1094 335 1075 q 297 1142 297 1113 q 324 1204 297 1177 q 387 1232 351 1232 m 664 1232 q 713 1212 694 1232 q 733 1164 733 1192 q 705 1102 733 1129 q 641 1075 677 1075 q 593 1094 612 1075 q 574 1142 574 1113 q 601 1204 574 1177 q 664 1232 628 1232 "},"à":{"x_min":41,"x_max":858.921875,"ha":949,"o":"m 760 0 l 665 0 l 679 111 q 385 -19 551 -19 q 138 78 235 -19 q 41 327 41 175 q 166 630 41 503 q 462 757 292 757 q 624 718 555 757 q 743 597 694 679 l 760 738 l 858 738 l 760 0 m 395 68 q 562 111 487 68 q 681 234 637 154 q 726 410 726 315 q 653 596 726 525 q 465 668 580 668 q 231 570 328 668 q 135 329 135 472 q 207 139 135 211 q 395 68 280 68 m 504 1083 l 622 875 l 529 875 l 358 1083 l 504 1083 "},"η":{"x_min":28.1875,"x_max":721,"ha":847,"o":"m 130 738 l 221 738 l 207 624 q 467 757 319 757 q 651 686 582 757 q 721 497 721 615 q 706 338 721 449 l 624 -269 l 530 -269 l 612 338 q 627 498 627 449 q 580 623 627 576 q 457 671 534 671 q 282 607 367 671 q 165 318 196 543 l 121 0 l 28 0 l 130 738 "},"ó":{"x_min":38,"x_max":801,"ha":910,"o":"m 461 757 q 634 711 555 757 q 756 586 712 666 q 801 404 801 506 q 744 188 801 288 q 593 35 688 89 q 378 -19 498 -19 q 133 78 229 -19 q 38 326 38 175 q 94 544 38 444 q 248 700 150 643 q 461 757 346 757 m 459 667 q 293 622 370 667 q 173 501 215 578 q 132 331 132 424 q 203 142 132 215 q 389 69 275 69 q 551 111 478 69 q 666 234 623 154 q 708 405 708 314 q 676 541 708 482 q 586 634 644 601 q 459 667 528 667 m 588 1084 l 734 1084 l 504 875 l 410 875 l 588 1084 "},"¦":{"x_min":418,"x_max":515,"ha":933,"o":"m 418 465 l 418 1023 l 515 1023 l 515 502 l 418 465 m 418 -270 l 418 379 l 515 415 l 515 -270 l 418 -270 "},"Ő":{"x_min":49,"x_max":1117,"ha":1207,"o":"m 647 1023 q 983 890 849 1023 q 1117 556 1117 758 q 947 142 1117 310 q 523 -25 777 -25 q 178 103 308 -25 q 49 441 49 232 q 126 736 49 601 q 341 946 204 870 q 647 1023 478 1023 m 645 929 q 390 866 502 929 q 212 689 277 804 q 147 445 147 574 q 194 248 147 335 q 325 115 241 161 q 522 69 409 69 q 771 133 656 69 q 951 313 886 198 q 1017 562 1017 428 q 892 842 1017 739 q 645 929 789 929 m 679 1286 l 825 1286 l 595 1077 l 502 1077 l 679 1286 m 894 1286 l 1040 1286 l 810 1077 l 716 1077 l 894 1286 "},"Ž":{"x_min":8.8125,"x_max":659.859375,"ha":667,"o":"m 147 998 l 659 998 l 170 95 l 543 95 l 531 0 l 8 0 l 500 902 l 134 902 l 147 998 m 426 1074 l 332 1074 l 160 1248 l 282 1248 l 387 1145 l 526 1248 l 652 1248 l 426 1074 "},"е":{"x_min":39,"x_max":795,"ha":902,"o":"m 790 350 l 131 350 q 201 143 131 218 q 388 68 271 68 q 533 99 466 68 q 642 189 599 131 l 713 131 q 573 22 659 63 q 386 -19 486 -19 q 126 88 213 -19 q 39 330 39 196 q 97 541 39 440 q 254 700 156 643 q 467 757 352 757 q 702 661 609 757 q 795 416 795 565 q 790 350 795 389 m 701 432 q 633 601 701 536 q 464 666 566 666 q 268 603 353 666 q 148 432 184 541 l 701 432 "},"Î":{"x_min":-15.59375,"x_max":476.75,"ha":314,"o":"m 161 998 l 261 998 l 126 0 l 26 0 l 161 998 m 210 1248 l 304 1248 l 476 1074 l 354 1074 l 249 1176 l 110 1074 l -15 1074 l 210 1248 "},"e":{"x_min":39,"x_max":795,"ha":902,"o":"m 790 350 l 131 350 q 201 143 131 218 q 388 68 271 68 q 533 99 466 68 q 642 189 599 131 l 713 131 q 573 22 659 63 q 386 -19 486 -19 q 126 88 213 -19 q 39 330 39 196 q 97 541 39 440 q 254 700 156 643 q 467 757 352 757 q 702 661 609 757 q 795 416 795 565 q 790 350 795 389 m 701 432 q 633 601 701 536 q 464 666 566 666 q 268 603 353 666 q 148 432 184 541 l 701 432 "},"ό":{"x_min":38,"x_max":801,"ha":910,"o":"m 461 757 q 634 711 555 757 q 756 586 712 666 q 801 404 801 506 q 744 188 801 288 q 593 35 688 89 q 378 -19 498 -19 q 133 78 229 -19 q 38 326 38 175 q 94 544 38 444 q 248 700 150 643 q 461 757 346 757 m 459 667 q 293 622 370 667 q 173 501 215 578 q 132 331 132 424 q 203 142 132 215 q 389 69 275 69 q 551 111 478 69 q 666 234 623 154 q 708 405 708 314 q 676 541 708 482 q 586 634 644 601 q 459 667 528 667 m 570 1084 l 520 855 l 446 855 l 446 1084 l 570 1084 "},"Ĕ":{"x_min":32.546875,"x_max":716.140625,"ha":745,"o":"m 716 998 l 701 901 l 252 901 l 208 574 l 657 574 l 644 478 l 195 478 l 145 96 l 594 96 l 582 0 l 32 0 l 166 998 l 716 998 m 214 1236 l 303 1236 q 445 1166 339 1166 q 537 1181 501 1166 q 608 1236 573 1196 l 695 1236 q 603 1134 671 1175 q 436 1093 536 1093 q 279 1133 336 1093 q 214 1236 222 1174 "},"ļ":{"x_min":-123.75,"x_max":245.4375,"ha":278,"o":"m 152 1023 l 245 1023 l 103 0 l 9 0 l 152 1023 m -9 -81 q 47 -75 17 -75 q 141 -139 141 -75 q 94 -222 141 -186 q -30 -258 47 -258 q -123 -243 -72 -258 l -102 -195 q -36 -204 -64 -204 q 58 -156 58 -204 q 15 -131 58 -131 q -25 -135 -1 -131 l -9 -81 "},"Ѓ":{"x_min":32.546875,"x_max":669.359375,"ha":622,"o":"m 131 0 l 32 0 l 167 997 l 667 997 l 653 899 l 252 899 l 131 0 m 523 1284 l 669 1284 l 439 1076 l 345 1076 l 523 1284 "},"ò":{"x_min":38,"x_max":801,"ha":910,"o":"m 461 757 q 634 711 555 757 q 756 586 712 666 q 801 404 801 506 q 744 188 801 288 q 593 35 688 89 q 378 -19 498 -19 q 133 78 229 -19 q 38 326 38 175 q 94 544 38 444 q 248 700 150 643 q 461 757 346 757 m 459 667 q 293 622 370 667 q 173 501 215 578 q 132 331 132 424 q 203 142 132 215 q 389 69 275 69 q 551 111 478 69 q 666 234 623 154 q 708 405 708 314 q 676 541 708 482 q 586 634 644 601 q 459 667 528 667 m 484 1083 l 602 875 l 509 875 l 338 1083 l 484 1083 "},"^":{"x_min":81.375,"x_max":852.453125,"ha":933,"o":"m 426 998 l 506 998 l 852 248 l 762 248 l 464 893 l 168 248 l 81 248 l 426 998 "},"∙":{"x_min":89,"x_max":254,"ha":384,"o":"m 171 581 q 229 556 205 581 q 254 498 254 532 q 229 440 254 464 q 171 416 205 416 q 113 440 137 416 q 89 498 89 464 q 113 556 89 532 q 171 581 137 581 "},"ⁿ":{"x_min":32.421875,"x_max":419,"ha":468,"o":"m 102 852 l 179 852 l 172 800 q 289 864 222 864 q 383 816 347 864 q 419 696 419 769 q 412 601 419 646 l 381 390 l 301 390 l 332 601 q 341 693 341 658 q 322 763 341 734 q 267 793 303 793 q 204 769 232 793 q 164 710 175 746 q 140 588 153 675 l 109 390 l 32 390 l 102 852 "},"к":{"x_min":27.8125,"x_max":703.9375,"ha":713,"o":"m 127 738 l 223 738 l 181 427 l 564 738 l 703 738 l 284 400 l 626 0 l 492 0 l 199 341 l 166 314 l 123 0 l 27 0 l 127 738 "},"ū":{"x_min":72,"x_max":758.796875,"ha":844,"o":"m 127 738 l 222 738 l 179 429 q 162 261 162 298 q 218 122 162 176 q 368 69 275 69 q 502 109 445 69 q 583 216 559 150 q 612 369 596 249 l 665 738 l 758 738 l 720 458 q 663 173 693 258 q 554 35 632 89 q 363 -19 476 -19 q 153 59 235 -19 q 72 255 72 137 q 79 364 72 301 l 86 429 l 89 457 l 127 738 m 248 1003 l 716 1003 l 705 922 l 237 922 l 248 1003 "},"Ẅ":{"x_min":85.796875,"x_max":1358.65625,"ha":1334,"o":"m 85 997 l 182 997 l 321 256 l 707 997 l 726 997 l 900 256 l 1253 997 l 1358 997 l 882 0 l 864 0 l 688 750 l 290 0 l 272 0 l 85 997 m 620 1231 q 669 1211 649 1231 q 689 1163 689 1191 q 661 1101 689 1128 q 597 1074 633 1074 q 549 1093 568 1074 q 530 1141 530 1112 q 557 1203 530 1176 q 620 1231 584 1231 m 897 1231 q 946 1211 927 1231 q 966 1163 966 1191 q 938 1101 966 1128 q 874 1074 910 1074 q 826 1093 845 1074 q 807 1141 807 1112 q 834 1203 807 1176 q 897 1231 861 1231 "},"◘":{"x_min":84,"x_max":748,"ha":833,"o":"m 84 0 l 84 665 l 748 665 l 748 0 l 84 0 m 553 332 q 512 429 553 389 q 415 470 472 470 q 319 429 360 470 q 279 332 279 389 q 319 235 279 276 q 415 195 359 195 q 512 235 472 195 q 553 332 553 276 "},"č":{"x_min":41,"x_max":812.859375,"ha":899,"o":"m 812 578 l 734 533 q 483 666 652 666 q 305 622 386 666 q 179 502 224 579 q 134 336 134 424 q 167 197 134 258 q 263 102 201 135 q 407 69 324 69 q 571 102 493 69 q 692 190 648 136 l 770 135 q 611 18 696 55 q 412 -19 525 -19 q 139 76 237 -19 q 41 330 41 171 q 169 631 41 506 q 484 757 298 757 q 681 709 596 757 q 812 578 767 662 m 543 872 l 449 872 l 277 1045 l 399 1045 l 504 943 l 643 1045 l 769 1045 l 543 872 "},"Ν":{"x_min":33.90625,"x_max":955.546875,"ha":1027,"o":"m 857 998 l 955 998 l 820 0 l 798 0 l 237 773 l 132 0 l 33 0 l 168 998 l 189 998 l 752 223 l 857 998 "},"’":{"x_min":194.640625,"x_max":349.9375,"ha":488,"o":"m 243 649 l 194 678 q 243 767 231 740 q 263 835 254 794 l 204 835 l 229 1023 l 349 1023 l 341 939 q 308 772 330 833 q 243 649 287 712 "},"-":{"x_min":2.71875,"x_max":387.90625,"ha":461,"o":"m 14 417 l 387 417 l 375 334 l 2 334 l 14 417 "},"Q":{"x_min":51,"x_max":1119.671875,"ha":1210,"o":"m 948 142 l 1119 -40 l 992 -40 l 877 82 q 525 -25 725 -25 q 180 103 309 -25 q 51 441 51 232 q 127 735 51 601 q 342 946 204 869 q 641 1023 479 1023 q 984 891 849 1023 q 1119 556 1119 759 q 948 142 1119 312 m 879 214 q 982 373 945 281 q 1019 562 1019 464 q 913 826 1019 723 q 637 929 807 929 q 390 865 503 929 q 213 687 277 801 q 149 445 149 574 q 196 248 149 335 q 327 115 243 161 q 523 69 411 69 q 808 155 679 69 l 641 332 l 769 332 l 879 214 "},"▼":{"x_min":206.15625,"x_max":1169.15625,"ha":1375,"o":"m 1169 942 l 687 -20 l 206 942 l 1169 942 "},"ј":{"x_min":-133.53125,"x_max":267,"ha":283,"o":"m 190 1042 q 244 1019 222 1042 q 267 965 267 997 q 244 912 267 934 q 190 890 222 890 q 136 912 158 890 q 114 965 114 934 q 136 1019 114 997 q 190 1042 158 1042 m 115 738 l 208 738 l 100 -47 q 43 -241 80 -193 q -51 -289 6 -289 q -133 -269 -87 -289 l -122 -189 q -73 -204 -96 -204 q -30 -182 -46 -204 q 2 -76 -8 -149 l 115 738 "},"ě":{"x_min":39,"x_max":795,"ha":902,"o":"m 790 350 l 131 350 q 201 143 131 218 q 388 68 271 68 q 533 99 466 68 q 642 189 599 131 l 713 131 q 573 22 659 63 q 386 -19 486 -19 q 126 88 213 -19 q 39 330 39 196 q 97 541 39 440 q 254 700 156 643 q 467 757 352 757 q 702 661 609 757 q 795 416 795 565 q 790 350 795 389 m 701 432 q 633 601 701 536 q 464 666 566 666 q 268 603 353 666 q 148 432 184 541 l 701 432 m 543 872 l 449 872 l 277 1045 l 399 1045 l 504 943 l 643 1045 l 769 1045 l 543 872 "},"œ":{"x_min":43,"x_max":1466,"ha":1579,"o":"m 1460 351 l 802 351 q 802 312 802 325 q 873 138 802 207 q 1059 69 944 69 q 1313 189 1213 69 l 1384 132 q 1243 20 1327 60 q 1056 -19 1158 -19 q 868 27 945 -19 q 741 172 791 74 q 590 29 669 70 q 382 -19 496 -19 q 135 76 228 -19 q 43 326 43 172 q 99 543 43 441 q 251 701 156 645 q 458 757 346 757 q 652 704 569 757 q 775 557 735 651 q 936 707 844 658 q 1136 757 1028 757 q 1374 663 1282 757 q 1466 416 1466 569 q 1460 351 1466 384 m 462 667 q 230 571 323 667 q 138 326 138 475 q 207 137 138 206 q 393 69 276 69 q 621 165 527 69 q 715 406 715 262 q 644 595 715 523 q 462 667 573 667 m 1374 432 q 1306 599 1374 531 q 1137 667 1238 667 q 933 599 1022 667 q 818 432 843 532 l 1374 432 "},"#":{"x_min":125,"x_max":875,"ha":1000,"o":"m 836 408 l 836 335 l 667 335 l 619 0 l 543 0 l 591 335 l 366 335 l 314 0 l 239 0 l 291 335 l 125 335 l 125 408 l 302 408 l 337 635 l 166 635 l 166 709 l 348 709 l 395 1026 l 468 1026 l 422 709 l 647 709 l 693 1026 l 769 1026 l 722 709 l 875 709 l 875 635 l 711 635 l 679 408 l 836 408 m 637 635 l 410 635 l 377 408 l 602 408 l 637 635 "},"Џ":{"x_min":32.546875,"x_max":828.71875,"ha":904,"o":"m 318 0 l 32 0 l 167 998 l 267 998 l 145 94 l 605 94 l 728 998 l 828 998 l 693 0 l 410 0 l 390 -149 l 297 -149 l 318 0 "},"Å":{"x_min":-19.375,"x_max":912.140625,"ha":1027,"o":"m 577 997 l 912 0 l 809 0 l 700 326 l 278 326 l 91 0 l -19 0 l 555 997 l 577 997 m 546 788 l 333 421 l 669 421 l 546 788 m 600 1349 q 691 1313 655 1349 q 727 1224 727 1277 q 676 1108 727 1158 q 558 1059 626 1059 q 470 1095 506 1059 q 435 1183 435 1131 q 485 1299 435 1249 q 600 1349 535 1349 m 590 1280 q 530 1254 556 1280 q 505 1195 505 1228 q 523 1149 505 1167 q 569 1131 541 1131 q 629 1156 603 1131 q 655 1215 655 1182 q 636 1261 655 1243 q 590 1280 617 1280 "},"¸":{"x_min":-28.703125,"x_max":253,"ha":451,"o":"m 121 0 l 180 0 l 157 -80 q 184 -78 174 -78 q 233 -95 214 -78 q 253 -139 253 -113 q 206 -222 253 -187 q 81 -258 160 -258 q -28 -237 21 -258 l -7 -190 q 72 -204 34 -204 q 147 -190 125 -204 q 170 -157 170 -176 q 159 -138 170 -146 q 132 -131 149 -131 q 83 -137 115 -131 l 121 0 "},"=":{"x_min":78,"x_max":764,"ha":841,"o":"m 764 694 l 764 601 l 78 601 l 78 694 l 764 694 m 764 396 l 764 303 l 78 303 l 78 396 l 764 396 "},"ρ":{"x_min":-25.703125,"x_max":822.234375,"ha":930,"o":"m 122 143 l 67 -270 l -25 -270 l 60 348 q 215 664 91 571 q 482 757 339 757 q 724 658 626 757 q 822 404 822 559 q 704 105 822 230 q 400 -19 586 -19 q 122 143 220 -19 m 154 331 q 224 142 154 215 q 411 69 295 69 q 643 168 556 69 q 730 405 730 268 q 655 599 730 531 q 480 667 580 667 q 249 572 344 667 q 154 331 154 478 "},"Ћ":{"x_min":36.84375,"x_max":790,"ha":878,"o":"m 239 0 l 137 0 l 259 901 l 36 901 l 49 998 l 597 998 l 584 901 l 361 901 l 317 580 l 441 580 q 716 526 642 580 q 790 365 790 472 q 779 251 790 327 l 746 0 l 649 0 l 686 255 q 694 349 694 307 q 637 455 694 428 q 485 482 581 482 l 306 482 l 239 0 "},"ú":{"x_min":72,"x_max":758.796875,"ha":844,"o":"m 127 738 l 222 738 l 179 429 q 162 261 162 298 q 218 122 162 176 q 368 69 275 69 q 502 109 445 69 q 583 216 559 150 q 612 369 596 249 l 665 738 l 758 738 l 720 458 q 663 173 693 258 q 554 35 632 89 q 363 -19 476 -19 q 153 59 235 -19 q 72 255 72 137 q 79 364 72 301 l 86 429 l 89 457 l 127 738 m 556 1084 l 701 1084 l 471 875 l 378 875 l 556 1084 "},"д":{"x_min":-90.203125,"x_max":729.703125,"ha":819,"o":"m 23 81 l 396 738 l 446 738 l 640 81 l 729 81 l 705 -94 l 613 -94 l 626 0 l 16 0 l 3 -98 l -90 -98 l -65 81 l 23 81 m 400 581 l 123 81 l 537 81 l 400 581 "},"¯":{"x_min":49,"x_max":760,"ha":695,"o":"m 49 1143 l 760 1143 l 760 1074 l 49 1074 l 49 1143 "},"u":{"x_min":72,"x_max":758.796875,"ha":844,"o":"m 127 738 l 222 738 l 179 429 q 162 261 162 298 q 218 122 162 176 q 368 69 275 69 q 502 109 445 69 q 583 216 559 150 q 612 369 596 249 l 665 738 l 758 738 l 720 458 q 663 173 693 258 q 554 35 632 89 q 363 -19 476 -19 q 153 59 235 -19 q 72 255 72 137 q 79 364 72 301 l 86 429 l 89 457 l 127 738 "},"З":{"x_min":-65.734375,"x_max":628,"ha":739,"o":"m 104 900 q 376 1023 221 1023 q 559 955 491 1023 q 628 783 628 888 q 443 532 628 597 q 610 284 610 455 q 518 60 610 147 q 273 -26 427 -26 q -65 176 42 -26 l 11 217 q 144 86 84 111 q 271 62 204 62 q 449 129 390 62 q 508 278 508 197 q 451 425 508 362 q 246 489 395 489 l 229 489 l 240 569 l 273 569 q 473 632 416 569 q 530 779 530 695 q 482 893 530 854 q 365 933 435 933 q 164 839 265 933 l 104 900 "},"Α":{"x_min":-19.671875,"x_max":912.140625,"ha":1027,"o":"m 577 997 l 912 0 l 809 0 l 700 326 l 278 326 l 91 0 l -19 0 l 554 997 l 577 997 m 545 788 l 332 421 l 669 421 l 545 788 "},"⅝":{"x_min":23.484375,"x_max":1073,"ha":1154,"o":"m 203 -25 l 835 1023 l 910 1023 l 279 -25 l 203 -25 m 212 1010 l 466 1010 l 455 944 l 265 944 l 228 840 q 252 840 243 840 q 374 791 323 840 q 426 673 426 743 q 367 541 426 598 q 214 485 308 485 q 23 600 81 485 l 91 626 q 215 551 132 551 q 307 584 266 551 q 349 672 349 617 q 318 748 349 717 q 230 779 287 779 q 124 756 184 779 l 212 1010 m 973 276 q 1061 158 1061 235 q 999 37 1061 87 q 844 -12 937 -12 q 710 30 763 -12 q 657 131 657 72 q 785 283 657 232 q 721 379 721 321 q 778 481 721 437 q 912 526 836 526 q 1027 487 982 526 q 1073 399 1073 449 q 973 276 1073 323 m 997 392 q 972 439 997 419 q 910 459 948 459 q 829 433 863 459 q 796 374 796 408 q 820 330 796 348 q 888 312 844 312 q 965 336 934 312 q 997 392 997 360 m 988 159 q 958 218 988 192 q 879 245 929 245 q 776 214 820 245 q 733 136 733 184 q 765 75 733 98 q 847 52 798 52 q 948 84 908 52 q 988 159 988 117 "},"◙":{"x_min":26,"x_max":809,"ha":833,"o":"m 26 0 l 26 783 l 809 783 l 809 0 l 26 0 m 716 391 q 628 601 716 513 q 417 690 540 690 q 206 601 293 690 q 119 391 119 513 q 206 180 119 268 q 417 93 293 93 q 628 180 540 93 q 716 391 716 268 m 665 391 q 592 217 665 290 q 418 145 519 145 q 243 217 316 145 q 171 391 171 290 q 243 566 171 493 q 418 639 316 639 q 592 566 519 639 q 665 391 665 493 "},"é":{"x_min":39,"x_max":795,"ha":902,"o":"m 790 350 l 131 350 q 201 143 131 218 q 388 68 271 68 q 533 99 466 68 q 642 189 599 131 l 713 131 q 573 22 659 63 q 386 -19 486 -19 q 126 88 213 -19 q 39 330 39 196 q 97 541 39 440 q 254 700 156 643 q 467 757 352 757 q 702 661 609 757 q 795 416 795 565 q 790 350 795 389 m 701 432 q 633 601 701 536 q 464 666 566 666 q 268 603 353 666 q 148 432 184 541 l 701 432 m 583 1083 l 729 1083 l 499 875 l 406 875 l 583 1083 "},"Ş":{"x_min":10.265625,"x_max":629.0625,"ha":692,"o":"m 629 813 l 534 789 q 472 889 515 852 q 378 926 428 926 q 287 888 322 926 q 253 787 253 850 q 290 671 253 731 q 401 553 313 633 q 529 399 493 470 q 566 259 566 327 q 526 119 566 186 q 419 13 486 52 q 276 -25 352 -25 q 111 36 181 -25 q 10 215 40 97 l 102 246 q 173 113 124 156 q 285 69 221 69 q 410 123 358 69 q 463 255 463 177 q 433 368 463 313 q 317 500 403 423 q 197 629 225 584 q 152 786 152 704 q 218 956 152 889 q 384 1023 285 1023 q 533 970 468 1023 q 629 813 598 917 m 241 0 l 300 0 l 277 -80 q 304 -78 294 -78 q 353 -95 334 -78 q 373 -139 373 -113 q 326 -222 373 -187 q 201 -258 280 -258 q 91 -237 141 -258 l 112 -190 q 192 -204 154 -204 q 267 -190 245 -204 q 290 -157 290 -176 q 279 -138 290 -146 q 252 -130 269 -130 q 203 -136 236 -130 l 241 0 "},"↓":{"x_min":103.453125,"x_max":591.546875,"ha":695,"o":"m 103 -10 l 103 40 q 313 -91 218 -14 l 313 992 l 382 992 l 382 -91 q 591 41 451 -22 l 591 -10 q 360 -291 419 -161 l 329 -291 q 103 -10 281 -171 "},"B":{"x_min":33.765625,"x_max":727,"ha":798,"o":"m 166 998 l 294 998 q 549 975 483 998 q 657 896 616 952 q 698 763 698 839 q 654 619 698 683 q 538 528 611 556 q 676 436 626 501 q 727 281 727 370 q 683 124 727 189 q 568 29 640 58 q 317 0 495 0 l 33 0 l 166 998 m 252 904 l 208 571 q 275 569 237 569 q 471 590 411 569 q 564 658 531 612 q 598 761 598 705 q 546 869 598 834 q 325 904 494 904 q 252 904 296 904 m 195 474 l 145 94 l 280 94 q 474 105 421 94 q 587 166 549 122 q 626 281 626 211 q 594 385 626 343 q 492 450 563 427 q 279 474 421 474 l 195 474 "},"…":{"x_min":149,"x_max":1241,"ha":1390,"o":"m 694 147 q 752 122 728 147 q 777 64 777 98 q 752 5 777 29 q 694 -19 728 -19 q 636 5 660 -19 q 612 64 612 29 q 636 122 612 98 q 694 147 660 147 m 231 147 q 289 122 265 147 q 314 64 314 98 q 289 5 314 29 q 231 -19 265 -19 q 173 5 197 -19 q 149 64 149 29 q 173 122 149 98 q 231 147 197 147 m 1158 147 q 1216 122 1192 147 q 1241 64 1241 98 q 1216 5 1241 29 q 1158 -19 1192 -19 q 1099 5 1123 -19 q 1075 64 1075 29 q 1099 122 1075 98 q 1158 147 1123 147 "},"H":{"x_min":32.546875,"x_max":872.796875,"ha":949,"o":"m 166 997 l 264 997 l 210 592 l 721 592 l 775 998 l 872 998 l 741 0 l 644 0 l 710 498 l 196 498 l 131 0 l 32 0 l 166 997 "},"î":{"x_min":-58.328125,"x_max":434.03125,"ha":278,"o":"m 111 738 l 201 738 l 103 0 l 9 0 l 111 738 m 167 1046 l 261 1046 l 434 872 l 311 872 l 206 974 l 67 872 l -58 872 l 167 1046 "},"ν":{"x_min":37.984375,"x_max":735.140625,"ha":770,"o":"m 37 738 l 134 738 l 321 198 l 632 738 l 735 738 l 309 0 l 292 0 l 37 738 "},"▪":{"x_min":89,"x_max":403,"ha":493,"o":"m 403 616 l 403 302 l 89 302 l 89 616 l 403 616 "},"Ό":{"x_min":-36,"x_max":1117,"ha":1207,"o":"m 647 1023 q 983 890 849 1023 q 1117 556 1117 758 q 947 142 1117 310 q 523 -25 777 -25 q 178 103 308 -25 q 49 441 49 232 q 126 736 49 601 q 341 946 204 870 q 647 1023 478 1023 m 645 929 q 390 866 502 929 q 212 689 277 804 q 147 445 147 574 q 194 248 147 335 q 325 115 241 161 q 522 69 409 69 q 771 133 656 69 q 951 313 886 198 q 1017 562 1017 428 q 892 842 1017 739 q 645 929 789 929 m 87 1023 l 38 794 l -36 794 l -36 1023 l 87 1023 "},"−":{"x_min":78,"x_max":764,"ha":841,"o":"m 78 545 l 764 545 l 764 452 l 78 452 l 78 545 "},"⅜":{"x_min":36.234375,"x_max":1073,"ha":1154,"o":"m 186 885 l 110 885 q 169 986 118 950 q 285 1023 221 1023 q 399 984 353 1023 q 446 884 446 946 q 363 772 446 810 q 433 658 433 727 q 371 535 433 585 q 222 485 309 485 q 96 526 149 485 q 36 647 43 568 l 110 647 q 224 551 126 551 q 316 582 276 551 q 357 655 357 613 q 206 745 357 745 l 215 807 q 237 807 228 807 q 330 829 290 807 q 371 887 371 851 q 343 936 371 917 q 280 956 315 956 q 186 885 199 956 m 211 -25 l 843 1023 l 919 1023 l 287 -25 l 211 -25 m 973 276 q 1061 158 1061 235 q 999 37 1061 87 q 844 -12 937 -12 q 709 30 762 -12 q 657 131 657 72 q 785 283 657 232 q 721 379 721 321 q 778 481 721 437 q 912 526 836 526 q 1027 487 981 526 q 1073 399 1073 449 q 973 276 1073 323 m 997 392 q 971 439 997 420 q 910 459 946 459 q 829 433 863 459 q 796 374 796 408 q 820 330 796 348 q 888 312 844 312 q 965 336 933 312 q 997 392 997 360 m 988 159 q 958 218 988 192 q 879 245 929 245 q 776 214 820 245 q 733 136 733 184 q 765 75 733 98 q 847 52 798 52 q 948 84 909 52 q 988 159 988 117 "},"ā":{"x_min":41,"x_max":858.921875,"ha":949,"o":"m 760 0 l 665 0 l 679 111 q 385 -19 551 -19 q 138 78 235 -19 q 41 327 41 175 q 166 630 41 503 q 462 757 292 757 q 624 718 555 757 q 743 597 694 679 l 760 738 l 858 738 l 760 0 m 395 68 q 562 111 487 68 q 681 234 637 154 q 726 410 726 315 q 653 596 726 525 q 465 668 580 668 q 231 570 328 668 q 135 329 135 472 q 207 139 135 211 q 395 68 280 68 m 284 1003 l 751 1003 l 740 922 l 272 922 l 284 1003 "},"ĵ":{"x_min":-133.59375,"x_max":410.96875,"ha":282,"o":"m 143 1046 l 238 1046 l 410 872 l 288 872 l 183 974 l 44 872 l -82 872 l 143 1046 m 115 738 l 208 738 l 100 -47 q 36 -249 77 -210 q -51 -289 -4 -289 q -133 -269 -89 -289 l -122 -189 q -73 -204 -98 -204 q 2 -76 -15 -204 l 115 738 "},"Ĩ":{"x_min":-21.015625,"x_max":474.046875,"ha":314,"o":"m 162 998 l 262 998 l 127 0 l 27 0 l 162 998 m 435 1213 l 474 1147 q 384 1100 419 1112 q 311 1088 348 1088 q 214 1113 263 1088 q 162 1138 174 1134 q 128 1143 146 1143 q 81 1134 103 1143 q 14 1096 59 1126 l -21 1165 q 140 1231 50 1231 q 240 1204 183 1231 q 326 1178 295 1178 q 435 1213 365 1178 "},"←":{"x_min":54,"x_max":1335,"ha":1389,"o":"m 334 594 l 385 594 q 253 385 330 479 l 1335 385 l 1335 316 l 253 316 q 387 106 322 246 l 334 106 q 54 337 183 278 l 54 368 q 334 594 174 416 "},"*":{"x_min":80.03125,"x_max":550.671875,"ha":590,"o":"m 270 1023 l 358 1023 l 339 821 l 505 940 l 550 865 l 362 780 l 550 696 l 505 620 l 339 738 l 358 537 l 270 537 l 291 738 l 124 620 l 80 696 l 270 780 l 80 865 l 124 940 l 291 821 l 270 1023 "},"ă":{"x_min":41,"x_max":858.921875,"ha":949,"o":"m 760 0 l 665 0 l 679 111 q 385 -19 551 -19 q 138 78 235 -19 q 41 327 41 175 q 166 630 41 503 q 462 757 292 757 q 624 718 555 757 q 743 597 694 679 l 760 738 l 858 738 l 760 0 m 395 68 q 562 111 487 68 q 681 234 637 154 q 726 410 726 315 q 653 596 726 525 q 465 668 580 668 q 231 570 328 668 q 135 329 135 472 q 207 139 135 211 q 395 68 280 68 m 292 1034 l 381 1034 q 523 964 417 964 q 614 979 578 964 q 686 1034 650 994 l 772 1034 q 681 932 749 973 q 513 891 614 891 q 357 931 414 891 q 292 1034 300 972 "},"Χ":{"x_min":-31.203125,"x_max":839.578125,"ha":846,"o":"m 147 998 l 252 998 l 429 609 l 722 998 l 839 998 l 473 514 l 709 0 l 604 0 l 408 425 l 86 0 l -31 0 l 364 523 l 147 998 "},"†":{"x_min":108.765625,"x_max":677.75,"ha":768,"o":"m 378 1023 l 490 1023 l 431 720 l 677 720 l 663 635 l 421 635 l 319 -212 l 216 -212 l 355 635 l 108 635 l 123 720 l 378 720 l 378 1023 "},"°":{"x_min":73,"x_max":541,"ha":556,"o":"m 541 789 q 472 623 541 691 q 306 556 404 556 q 140 623 208 556 q 73 791 73 691 q 142 955 73 887 q 308 1023 212 1023 q 472 955 404 1023 q 541 789 541 887 m 460 788 q 416 904 460 857 q 309 951 372 951 q 199 903 245 951 q 154 789 154 856 q 200 675 154 723 q 308 628 246 628 q 415 674 370 628 q 460 788 460 721 "},"↨":{"x_min":103.078125,"x_max":591,"ha":695,"o":"m 331 992 l 362 992 q 590 715 415 868 l 590 661 q 380 793 474 708 l 380 -91 q 590 39 474 -6 l 590 -13 q 362 -290 415 -166 l 331 -290 q 103 -13 278 -166 l 103 39 q 314 -91 219 -6 l 314 793 q 103 661 219 708 l 103 715 q 331 992 278 868 m 105 -355 l 591 -355 l 591 -421 l 105 -421 l 105 -355 "},"Ξ":{"x_min":-9.5,"x_max":704.625,"ha":737,"o":"m 691 903 l 110 903 l 123 998 l 704 998 l 691 903 m 636 491 l 55 491 l 68 586 l 649 586 l 636 491 m 571 0 l -9 0 l 2 95 l 583 95 l 571 0 "},"Ķ":{"x_min":31.40625,"x_max":819.015625,"ha":820,"o":"m 164 997 l 262 997 l 209 592 l 675 998 l 819 998 l 278 531 l 746 0 l 618 0 l 195 481 l 129 0 l 31 0 l 164 997 m 274 -81 q 331 -75 301 -75 q 425 -139 425 -75 q 378 -222 425 -186 q 253 -258 331 -258 q 160 -243 211 -258 l 181 -195 q 247 -204 219 -204 q 342 -156 342 -204 q 299 -131 342 -131 q 258 -135 282 -131 l 274 -81 "},"ŵ":{"x_min":47.46875,"x_max":1128.46875,"ha":1154,"o":"m 47 738 l 141 738 l 293 217 l 571 738 l 587 738 l 755 211 l 1026 738 l 1128 738 l 747 0 l 728 0 l 557 520 l 280 0 l 262 0 l 47 738 m 565 1046 l 659 1046 l 832 872 l 710 872 l 604 974 l 465 872 l 339 872 l 565 1046 "},"΄":{"x_min":243,"x_max":367.109375,"ha":525,"o":"m 367 1084 l 317 855 l 243 855 l 243 1084 l 367 1084 "},"ǽ":{"x_min":39,"x_max":1501,"ha":1607,"o":"m 779 738 l 863 738 l 849 617 q 989 721 910 686 q 1157 757 1067 757 q 1404 661 1308 757 q 1501 415 1501 566 q 1495 350 1501 384 l 826 350 l 826 318 q 860 192 826 251 q 954 100 895 132 q 1093 69 1014 69 q 1347 186 1244 69 l 1420 132 q 1082 -19 1298 -19 q 905 19 977 -19 q 783 135 833 58 l 765 0 l 681 0 l 695 115 q 550 13 625 45 q 385 -19 475 -19 q 139 75 229 -19 q 39 334 39 179 q 164 632 39 507 q 460 757 289 757 q 647 709 569 757 q 759 589 705 673 l 779 738 m 463 669 q 213 554 308 669 q 132 330 132 457 q 205 141 132 213 q 402 69 279 69 q 570 112 493 69 q 691 234 647 155 q 736 398 736 313 q 700 536 736 471 q 603 634 664 600 q 463 669 542 669 m 1409 431 q 1342 599 1409 531 q 1158 668 1276 668 q 961 604 1046 668 q 844 431 877 541 l 1409 431 m 903 1084 l 1049 1084 l 819 875 l 725 875 l 903 1084 "},"Β":{"x_min":33.765625,"x_max":727,"ha":798,"o":"m 166 998 l 294 998 q 549 975 483 998 q 657 896 616 952 q 698 763 698 839 q 654 619 698 683 q 538 528 611 556 q 676 436 626 501 q 727 281 727 370 q 683 124 727 189 q 568 29 640 58 q 317 0 495 0 l 33 0 l 166 998 m 252 904 l 208 571 q 275 569 237 569 q 471 590 411 569 q 564 658 531 612 q 598 761 598 705 q 546 869 598 834 q 325 904 494 904 q 252 904 296 904 m 195 474 l 145 94 l 280 94 q 474 105 421 94 q 587 166 549 122 q 626 281 626 211 q 594 385 626 343 q 492 450 563 427 q 279 474 421 474 l 195 474 "},"Ļ":{"x_min":34.890625,"x_max":577.703125,"ha":641,"o":"m 166 998 l 266 998 l 146 94 l 577 94 l 566 0 l 34 0 l 166 998 m 209 -81 q 266 -75 236 -75 q 360 -139 360 -75 q 313 -222 360 -186 q 188 -258 266 -258 q 95 -243 146 -258 l 116 -195 q 182 -204 154 -204 q 277 -156 277 -204 q 234 -131 277 -131 q 193 -135 217 -131 l 209 -81 "},"Õ":{"x_min":49,"x_max":1117,"ha":1207,"o":"m 647 1023 q 983 890 849 1023 q 1117 556 1117 758 q 947 142 1117 310 q 523 -25 777 -25 q 178 103 308 -25 q 49 441 49 232 q 126 736 49 601 q 341 946 204 870 q 647 1023 478 1023 m 645 929 q 390 866 502 929 q 212 689 277 804 q 147 445 147 574 q 194 248 147 335 q 325 115 241 161 q 522 69 409 69 q 771 133 656 69 q 951 313 886 198 q 1017 562 1017 428 q 892 842 1017 739 q 645 929 789 929 m 864 1213 l 903 1147 q 813 1100 848 1112 q 741 1088 777 1088 q 644 1113 692 1088 q 591 1138 603 1134 q 557 1143 575 1143 q 510 1134 532 1143 q 443 1096 488 1126 l 408 1165 q 569 1231 479 1231 q 669 1204 612 1231 q 755 1178 724 1178 q 864 1213 794 1178 "},"№":{"x_min":33.703125,"x_max":1450,"ha":1532,"o":"m 857 997 l 955 997 l 820 0 l 798 0 l 237 773 l 132 0 l 33 0 l 167 998 l 189 998 l 752 222 l 857 997 m 1450 457 q 1375 270 1450 349 q 1184 191 1301 191 q 1031 251 1087 191 q 975 396 975 311 q 1055 584 975 504 q 1239 664 1135 664 q 1386 606 1323 664 q 1450 457 1450 549 m 1369 454 q 1335 548 1369 506 q 1237 590 1301 590 q 1108 532 1160 590 q 1056 404 1056 474 q 1092 305 1056 347 q 1191 263 1128 263 q 1318 320 1268 263 q 1369 454 1369 378 m 939 69 l 1405 69 l 1397 0 l 931 0 l 939 69 "},"χ":{"x_min":-131.5625,"x_max":654.4375,"ha":667,"o":"m 654 738 l 331 257 l 545 -270 l 443 -270 l 268 162 l -22 -270 l -131 -270 l 227 265 l 35 738 l 136 738 l 289 358 l 543 738 l 654 738 "},"ί":{"x_min":9.578125,"x_max":257.109375,"ha":278,"o":"m 111 738 l 201 738 l 103 0 l 9 0 l 111 738 m 257 1084 l 207 855 l 133 855 l 133 1084 l 257 1084 "},"Ζ":{"x_min":8.8125,"x_max":659.859375,"ha":667,"o":"m 147 998 l 659 998 l 170 95 l 543 95 l 531 0 l 8 0 l 500 902 l 134 902 l 147 998 "},"Ľ":{"x_min":35.265625,"x_max":578.484375,"ha":642,"o":"m 166 998 l 267 998 l 147 94 l 578 94 l 566 0 l 35 0 l 166 998 m 377 624 l 328 654 q 377 742 365 715 q 397 810 388 769 l 337 810 l 363 998 l 483 998 l 474 914 q 442 748 463 808 q 377 624 421 687 "},"ť":{"x_min":69.171875,"x_max":500.484375,"ha":471,"o":"m 415 788 l 378 806 q 434 911 427 866 l 389 911 l 408 1023 l 500 1023 l 493 973 q 470 870 485 908 q 415 788 455 832 m 246 1014 l 339 1014 l 302 738 l 448 738 l 438 655 l 291 655 l 202 0 l 107 0 l 195 655 l 69 655 l 80 738 l 206 738 l 246 1014 "},"5":{"x_min":-6.984375,"x_max":712.8125,"ha":770,"o":"m 309 998 l 712 998 l 699 900 l 379 900 l 309 658 q 362 662 342 662 q 501 620 435 662 q 605 504 566 579 q 645 340 645 429 q 597 153 645 240 q 473 20 550 66 q 300 -25 396 -25 q 121 27 199 -25 q -6 192 44 79 l 85 232 q 177 111 119 152 q 302 71 235 71 q 468 143 393 71 q 543 338 543 215 q 482 506 543 441 q 328 572 422 572 q 170 537 255 572 l 309 998 "},"o":{"x_min":38,"x_max":801,"ha":910,"o":"m 461 757 q 634 711 555 757 q 756 586 712 666 q 801 404 801 506 q 744 188 801 288 q 593 35 688 89 q 378 -19 498 -19 q 133 78 229 -19 q 38 326 38 175 q 94 544 38 444 q 248 700 150 643 q 461 757 346 757 m 459 667 q 293 622 370 667 q 173 501 215 578 q 132 331 132 424 q 203 142 132 215 q 389 69 275 69 q 551 111 478 69 q 666 234 623 154 q 708 405 708 314 q 676 541 708 482 q 586 634 644 601 q 459 667 528 667 "},"Ѕ":{"x_min":10.265625,"x_max":629.0625,"ha":692,"o":"m 629 813 l 534 789 q 472 889 515 852 q 378 926 428 926 q 287 888 322 926 q 253 787 253 850 q 290 671 253 732 q 401 553 313 633 q 529 399 493 470 q 566 259 566 327 q 526 119 566 186 q 419 13 486 52 q 276 -25 352 -25 q 111 36 181 -25 q 10 215 40 97 l 102 246 q 173 113 124 156 q 285 70 221 70 q 410 123 358 70 q 463 255 463 177 q 433 368 463 313 q 317 500 403 423 q 197 629 225 584 q 152 786 152 704 q 218 956 152 889 q 384 1023 285 1023 q 533 970 468 1023 q 629 813 598 917 "},"□":{"x_min":99,"x_max":739,"ha":839,"o":"m 99 641 l 739 641 l 739 0 l 99 0 l 99 641 m 151 589 l 151 52 l 687 52 l 687 589 l 151 589 "},"d":{"x_min":42,"x_max":897.890625,"ha":951,"o":"m 761 0 l 666 0 l 680 111 q 386 -19 552 -19 q 139 78 236 -19 q 42 327 42 175 q 167 630 42 503 q 463 757 293 757 q 625 718 556 757 q 744 597 695 679 l 799 1023 l 897 1023 l 761 0 m 396 68 q 563 111 488 68 q 682 234 638 154 q 727 410 727 315 q 654 596 727 525 q 466 668 581 668 q 232 570 329 668 q 136 329 136 472 q 208 139 136 211 q 396 68 281 68 "},",":{"x_min":-24.421875,"x_max":212.9375,"ha":385,"o":"m 126 183 l 212 139 l 39 -115 l -24 -87 l 126 183 "},"\"":{"x_min":77,"x_max":426,"ha":430,"o":"m 426 709 l 341 709 l 341 1023 l 426 1023 l 426 709 m 162 709 l 77 709 l 77 1023 l 162 1023 l 162 709 "},"ľ":{"x_min":9.5,"x_max":398.078125,"ha":281,"o":"m 152 1022 l 245 1022 l 103 0 l 9 0 l 152 1022 m 307 705 l 265 730 q 324 863 314 807 l 273 863 l 296 1022 l 398 1022 l 390 950 q 361 805 381 858 q 307 705 342 753 "},"ė":{"x_min":39,"x_max":795,"ha":902,"o":"m 790 350 l 131 350 q 201 143 131 218 q 389 68 271 68 q 533 99 466 68 q 642 189 599 131 l 713 131 q 573 22 659 63 q 386 -19 486 -19 q 126 88 213 -19 q 39 330 39 196 q 97 541 39 440 q 254 700 156 643 q 467 757 352 757 q 702 661 609 757 q 795 416 795 565 q 790 350 795 389 m 701 432 q 633 601 701 536 q 464 666 566 666 q 268 603 353 666 q 148 432 184 541 l 701 432 m 496 1029 q 545 1009 525 1029 q 565 961 565 989 q 537 899 565 926 q 473 872 509 872 q 425 891 444 872 q 406 939 406 910 q 433 1001 406 974 q 496 1029 460 1029 "},"Í":{"x_min":26.453125,"x_max":460.484375,"ha":314,"o":"m 161 998 l 261 998 l 126 0 l 26 0 l 161 998 m 314 1285 l 460 1285 l 230 1076 l 136 1076 l 314 1285 "},"Ú":{"x_min":66,"x_max":842.125,"ha":909,"o":"m 157 997 l 256 997 l 180 426 q 166 264 166 312 q 219 120 166 171 q 370 70 273 70 q 492 93 439 70 q 582 160 545 116 q 634 261 619 204 q 681 515 661 362 l 743 998 l 842 998 l 775 493 l 759 370 q 725 223 745 284 q 673 116 705 162 q 601 39 642 69 q 502 -7 560 9 q 373 -25 444 -25 q 145 49 225 -25 q 66 247 66 124 q 70 325 66 282 l 84 441 l 157 997 m 588 1285 l 734 1285 l 504 1077 l 410 1077 l 588 1285 "},"Ŷ":{"x_min":56.28125,"x_max":855.171875,"ha":822,"o":"m 56 998 l 160 998 l 374 544 l 734 998 l 855 998 l 413 442 l 352 0 l 254 0 l 315 447 l 56 998 m 433 1248 l 527 1248 l 699 1074 l 577 1074 l 472 1176 l 333 1074 l 207 1074 l 433 1248 "},"Ý":{"x_min":56.28125,"x_max":855.171875,"ha":822,"o":"m 56 998 l 160 998 l 374 544 l 734 998 l 855 998 l 413 442 l 352 0 l 254 0 l 315 447 l 56 998 m 544 1285 l 690 1285 l 460 1076 l 366 1076 l 544 1285 "},"ŝ":{"x_min":-23.765625,"x_max":530.875,"ha":539,"o":"m 470 654 l 418 578 q 270 667 356 667 q 187 635 222 667 q 153 564 153 603 q 174 507 153 534 q 266 433 194 480 q 406 314 372 365 q 440 195 440 263 q 375 42 440 103 q 206 -19 310 -19 q -23 102 69 -19 l 33 169 q 212 70 115 70 q 307 108 266 70 q 348 198 348 147 q 317 277 348 239 q 212 360 297 301 q 90 465 119 423 q 61 559 61 507 q 122 699 61 641 q 278 757 184 757 q 379 734 334 757 q 470 654 424 712 m 264 1045 l 358 1045 l 530 872 l 408 872 l 303 974 l 164 872 l 38 872 l 264 1045 "},"ą":{"x_min":41,"x_max":858.921875,"ha":949,"o":"m 760 0 l 665 0 l 679 110 q 385 -20 551 -20 q 138 77 235 -20 q 41 326 41 174 q 166 629 41 503 q 462 756 292 756 q 624 717 555 756 q 743 596 694 678 l 760 738 l 858 738 l 760 0 m 395 67 q 562 110 487 67 q 681 233 637 153 q 726 409 726 314 q 653 596 726 524 q 465 668 580 668 q 231 569 328 668 q 135 328 135 471 q 207 138 135 210 q 395 67 280 67 m 669 0 l 742 0 q 642 -139 642 -77 q 663 -187 642 -168 q 730 -206 685 -206 q 778 -202 751 -206 l 763 -260 q 705 -267 734 -267 q 601 -236 635 -267 q 567 -159 567 -205 q 594 -75 567 -119 q 669 0 621 -30 "},"ã":{"x_min":41,"x_max":858.921875,"ha":949,"o":"m 760 0 l 665 0 l 679 111 q 385 -19 551 -19 q 138 78 235 -19 q 41 327 41 175 q 166 630 41 503 q 462 757 292 757 q 624 718 555 757 q 743 597 694 679 l 760 738 l 858 738 l 760 0 m 395 68 q 562 111 487 68 q 681 234 637 154 q 726 410 726 315 q 653 596 726 525 q 465 668 580 668 q 231 570 328 668 q 135 329 135 472 q 207 139 135 211 q 395 68 280 68 m 736 1012 l 774 946 q 685 898 720 910 q 612 886 649 886 q 515 911 564 886 q 463 936 475 933 q 429 941 447 941 q 382 933 404 941 q 315 894 360 924 l 280 963 q 441 1030 351 1030 q 541 1002 484 1030 q 627 976 595 976 q 736 1012 666 976 "},"æ":{"x_min":39,"x_max":1501,"ha":1607,"o":"m 779 738 l 863 738 l 849 617 q 989 721 910 686 q 1157 757 1067 757 q 1404 661 1308 757 q 1501 415 1501 566 q 1495 350 1501 384 l 826 350 l 826 318 q 860 192 826 251 q 954 100 895 132 q 1093 69 1014 69 q 1347 186 1244 69 l 1420 132 q 1082 -19 1298 -19 q 905 19 977 -19 q 783 135 833 58 l 765 0 l 681 0 l 695 115 q 550 13 625 45 q 385 -19 475 -19 q 139 75 229 -19 q 39 334 39 179 q 164 632 39 507 q 460 757 289 757 q 647 709 569 757 q 759 589 705 673 l 779 738 m 463 669 q 213 554 308 669 q 132 330 132 457 q 205 141 132 213 q 402 69 279 69 q 570 112 493 69 q 691 234 647 155 q 736 398 736 313 q 700 536 736 471 q 603 634 664 600 q 463 669 542 669 m 1409 431 q 1342 599 1409 531 q 1158 668 1276 668 q 961 604 1046 668 q 844 431 877 541 l 1409 431 "},"ĩ":{"x_min":-84.765625,"x_max":410.296875,"ha":278,"o":"m 111 738 l 201 738 l 103 0 l 9 0 l 111 738 m 371 1012 l 410 946 q 320 899 356 911 q 248 887 284 887 q 151 912 199 887 q 99 937 110 933 q 65 942 82 942 q 17 933 40 942 q -49 895 -4 925 l -84 964 q 76 1030 -13 1030 q 177 1003 120 1030 q 262 977 231 977 q 371 1012 301 977 "},"~":{"x_min":76,"x_max":765,"ha":842,"o":"m 765 568 l 765 458 q 656 404 689 415 q 594 393 623 393 q 414 445 529 393 q 300 494 324 486 q 253 502 275 502 q 187 489 223 502 q 76 430 151 476 l 76 539 q 183 592 150 581 q 248 604 217 604 q 430 549 314 604 q 539 502 510 511 q 592 493 569 493 q 650 504 621 493 q 765 568 679 515 "},"ŀ":{"x_min":9.59375,"x_max":389,"ha":367,"o":"m 152 1023 l 245 1023 l 103 0 l 9 0 l 152 1023 m 320 590 q 369 570 349 590 q 389 522 389 551 q 361 460 389 487 q 297 433 333 433 q 249 452 268 433 q 230 500 230 472 q 257 562 230 535 q 320 590 284 590 "},"Ċ":{"x_min":54,"x_max":1068.65625,"ha":1129,"o":"m 1068 860 l 1008 776 q 646 926 849 926 q 399 861 514 926 q 219 687 284 797 q 155 453 155 578 q 204 254 155 341 q 349 118 254 167 q 564 69 443 69 q 909 186 749 69 l 965 107 q 761 2 846 29 q 564 -25 675 -25 q 226 78 357 -25 q 54 449 54 217 q 226 856 54 689 q 656 1023 399 1023 q 870 986 774 1023 q 1068 860 966 949 m 666 1232 q 715 1212 695 1232 q 735 1164 735 1192 q 707 1102 735 1129 q 643 1075 679 1075 q 595 1094 614 1075 q 576 1142 576 1113 q 603 1204 576 1177 q 666 1232 630 1232 "},"¡":{"x_min":39.875,"x_max":292,"ha":409,"o":"m 208 588 q 150 612 174 588 q 126 670 126 636 q 150 728 126 704 q 208 753 174 753 q 267 728 243 753 q 292 670 292 704 q 267 612 292 636 q 208 588 243 588 m 133 -289 l 39 -289 l 141 485 l 236 485 l 133 -289 "},"ẅ":{"x_min":47.5625,"x_max":1129.171875,"ha":1155,"o":"m 47 738 l 141 738 l 293 217 l 571 738 l 587 738 l 756 211 l 1027 738 l 1129 738 l 747 0 l 728 0 l 557 520 l 280 0 l 262 0 l 47 738 m 478 1029 q 527 1009 507 1029 q 547 961 547 989 q 519 899 547 926 q 455 872 491 872 q 407 891 426 872 q 388 939 388 910 q 415 1001 388 974 q 478 1029 442 1029 m 755 1029 q 804 1009 785 1029 q 824 961 824 989 q 796 899 824 926 q 732 872 768 872 q 684 891 703 872 q 665 939 665 910 q 692 1001 665 974 q 755 1029 719 1029 "},"К":{"x_min":31.203125,"x_max":800.921875,"ha":802,"o":"m 166 998 l 267 998 l 211 583 l 665 998 l 800 998 l 302 552 l 703 0 l 571 0 l 223 483 l 194 458 l 132 0 l 31 0 l 166 998 "},"Γ":{"x_min":32.546875,"x_max":665.28125,"ha":642,"o":"m 652 903 l 251 903 l 131 0 l 32 0 l 165 998 l 665 998 l 652 903 "},"P":{"x_min":44.328125,"x_max":773,"ha":823,"o":"m 177 997 l 450 997 q 643 971 585 997 q 737 891 702 946 q 773 761 773 836 q 717 589 773 662 q 576 490 661 516 q 359 471 514 471 l 207 471 l 144 0 l 44 0 l 177 997 m 266 901 l 219 569 l 359 569 q 553 588 499 569 q 640 654 607 607 q 673 759 673 702 q 650 840 673 807 q 588 887 628 873 q 444 901 549 901 l 266 901 "},"%":{"x_min":45.90625,"x_max":1014,"ha":1076,"o":"m 1011 1042 l 124 -69 l 45 -69 l 861 955 q 734 933 800 940 q 598 927 669 927 q 511 927 564 927 q 545 817 545 876 q 469 626 545 703 q 279 550 393 550 q 128 608 186 550 q 71 755 71 666 q 152 945 71 867 q 331 1023 233 1023 q 414 1011 357 1023 q 598 989 522 989 q 767 1002 681 989 q 940 1042 852 1015 l 1011 1042 m 333 949 q 205 893 259 949 q 152 763 152 837 q 189 662 152 702 q 286 622 227 622 q 414 680 364 622 q 464 813 464 738 q 427 911 464 873 q 333 949 390 949 m 804 447 q 953 387 892 447 q 1014 241 1014 328 q 941 55 1014 136 q 747 -25 869 -25 q 597 32 655 -25 q 539 179 539 90 q 618 367 539 287 q 804 447 698 447 m 801 374 q 673 318 727 374 q 620 187 620 262 q 658 86 620 126 q 755 46 696 46 q 883 104 833 46 q 933 238 933 162 q 895 335 933 297 q 801 374 858 374 "},"_":{"x_min":-8,"x_max":703,"ha":695,"o":"m -8 -105 l 703 -105 l 703 -174 l -8 -174 l -8 -105 "},"ñ":{"x_min":28.1875,"x_max":724.390625,"ha":847,"o":"m 130 738 l 221 738 l 207 624 q 467 757 319 757 q 651 686 581 757 q 721 497 721 616 q 706 338 721 450 l 660 0 l 566 0 l 612 338 q 627 498 627 447 q 580 623 627 576 q 457 671 533 671 q 318 632 382 671 q 219 528 254 594 q 165 318 184 462 l 121 0 l 28 0 l 130 738 m 685 1012 l 724 946 q 634 898 670 910 q 562 886 599 886 q 465 911 513 886 q 413 936 424 933 q 379 941 397 941 q 332 933 354 941 q 264 894 309 924 l 229 963 q 391 1030 300 1030 q 491 1002 434 1030 q 576 976 545 976 q 685 1012 616 976 "},"Ŕ":{"x_min":52.703125,"x_max":759,"ha":842,"o":"m 188 998 l 438 998 q 629 972 571 998 q 723 891 687 947 q 759 761 759 835 q 716 611 759 680 q 601 506 674 541 q 408 472 528 472 l 709 0 l 596 0 l 296 472 l 217 472 l 153 0 l 52 0 l 188 998 m 275 902 l 231 570 l 345 570 q 512 580 473 570 q 618 644 578 596 q 659 761 659 691 q 602 874 659 838 q 446 902 559 902 l 275 902 m 529 1285 l 675 1285 l 445 1076 l 351 1076 l 529 1285 "},"‚":{"x_min":107.828125,"x_max":263.125,"ha":492,"o":"m 156 -185 l 107 -156 q 156 -67 145 -94 q 177 0 168 -40 l 117 0 l 143 188 l 263 188 l 254 104 q 222 -62 243 -1 q 156 -185 200 -122 "},"⅞":{"x_min":41.90625,"x_max":1073,"ha":1154,"o":"m 152 -24 l 784 1022 l 860 1022 l 228 -24 l 152 -24 m 100 1010 l 492 1010 l 104 485 l 41 520 l 354 944 l 87 944 l 100 1010 m 973 276 q 1061 158 1061 235 q 999 37 1061 87 q 844 -12 937 -12 q 711 29 766 -12 q 657 131 657 70 q 785 283 657 232 q 721 379 721 321 q 778 481 721 437 q 912 526 836 526 q 1027 487 982 526 q 1073 399 1073 449 q 973 276 1073 323 m 997 392 q 972 439 997 420 q 910 459 947 459 q 829 433 863 459 q 796 374 796 408 q 821 329 796 346 q 888 312 847 312 q 965 336 933 312 q 997 392 997 360 m 988 159 q 959 217 988 190 q 879 245 931 245 q 776 214 820 245 q 733 136 733 184 q 765 75 733 98 q 847 52 798 52 q 948 84 909 52 q 988 159 988 117 "},"Æ":{"x_min":-22.375,"x_max":1302.765625,"ha":1378,"o":"m 1182 0 l 617 0 l 661 324 l 320 324 l 85 0 l -22 0 l 695 998 l 1302 998 l 1288 901 l 840 901 l 796 574 l 1244 574 l 1231 478 l 782 478 l 731 96 l 1192 96 l 1182 0 m 740 911 l 388 421 l 675 421 l 740 911 "},"₣":{"x_min":-56.96875,"x_max":646.96875,"ha":673,"o":"m 168 284 l 339 284 l 326 194 l 156 194 l 130 0 l 31 0 l 57 194 l -56 194 l -44 284 l 69 284 l 166 998 l 646 998 l 635 900 l 252 900 l 208 574 l 591 574 l 579 478 l 195 478 l 168 284 "},"Ū":{"x_min":66,"x_max":842.125,"ha":909,"o":"m 157 997 l 256 997 l 180 426 q 166 264 166 312 q 219 120 166 171 q 370 70 273 70 q 492 93 439 70 q 582 160 545 116 q 634 261 619 204 q 681 515 661 362 l 743 998 l 842 998 l 775 493 l 759 370 q 725 223 745 284 q 673 116 705 162 q 601 39 642 69 q 502 -7 560 9 q 373 -25 444 -25 q 145 49 225 -25 q 66 247 66 124 q 70 325 66 282 l 84 441 l 157 997 m 287 1205 l 755 1205 l 743 1124 l 275 1124 l 287 1205 "},"ы":{"x_min":28.234375,"x_max":873.234375,"ha":972,"o":"m 777 738 l 873 738 l 773 0 l 677 0 l 777 738 m 182 445 l 305 445 q 499 378 435 445 q 564 220 564 312 q 500 61 564 122 q 273 0 437 0 l 28 0 l 127 738 l 222 738 l 182 445 m 174 355 l 136 80 l 245 80 q 375 90 337 80 q 440 133 413 100 q 467 214 467 166 q 415 318 467 282 q 273 355 363 355 l 174 355 "},"ѓ":{"x_min":27.8125,"x_max":595.4375,"ha":488,"o":"m 210 655 l 122 0 l 27 0 l 127 738 l 500 738 l 489 655 l 210 655 m 449 1082 l 595 1082 l 365 874 l 271 874 l 449 1082 "},"Œ":{"x_min":53,"x_max":1628,"ha":1658,"o":"m 1080 998 l 1628 998 l 1615 901 l 1165 901 l 1121 574 l 1571 574 l 1559 478 l 1109 478 l 1058 96 l 1508 96 l 1495 0 l 945 0 l 967 161 q 766 20 874 65 q 524 -25 657 -25 q 161 127 292 -25 q 53 446 53 255 q 221 855 53 687 q 633 1023 389 1023 q 882 965 777 1023 q 1052 791 987 907 l 1080 998 m 630 928 q 417 873 535 928 q 225 704 300 819 q 151 441 151 588 q 257 169 151 275 q 526 63 364 63 q 770 129 654 63 q 952 310 886 196 q 1019 552 1019 424 q 971 746 1019 662 q 834 879 923 831 q 630 928 745 928 "},"΅":{"x_min":60,"x_max":515,"ha":525,"o":"m 366 1084 l 317 855 l 242 855 l 242 1084 l 366 1084 m 446 876 q 394 927 394 876 q 414 976 394 956 q 462 997 435 997 q 515 945 515 997 q 494 896 515 917 q 446 876 473 876 m 112 876 q 60 927 60 876 q 81 976 60 956 q 129 997 102 997 q 182 945 182 997 q 160 896 182 917 q 112 876 139 876 "},"Ą":{"x_min":-19.65625,"x_max":957.3125,"ha":1027,"o":"m 577 997 l 911 0 l 809 0 l 700 326 l 278 326 l 91 0 l -19 0 l 554 997 l 577 997 m 545 788 l 333 421 l 669 421 l 545 788 m 848 0 l 922 0 q 821 -138 821 -77 q 842 -187 821 -168 q 909 -206 864 -206 q 957 -202 930 -206 l 943 -260 q 884 -267 913 -267 q 780 -236 814 -267 q 746 -159 746 -205 q 773 -75 746 -119 q 848 0 800 -30 "},"Њ":{"x_min":32.59375,"x_max":1323,"ha":1414,"o":"m 211 580 l 718 580 l 774 997 l 874 997 l 818 580 l 890 580 q 1227 505 1131 580 q 1323 297 1323 430 q 1289 151 1323 215 q 1200 53 1255 88 q 1086 9 1144 19 q 838 0 1028 0 l 640 0 l 705 482 l 198 482 l 132 0 l 32 0 l 167 997 l 267 997 l 211 580 m 753 96 l 859 96 q 1039 100 996 96 q 1125 126 1083 104 q 1191 191 1167 148 q 1216 296 1216 234 q 1179 411 1216 367 q 1074 468 1142 454 q 889 482 1007 482 l 805 482 l 753 96 "},"›":{"x_min":-2.03125,"x_max":299.75,"ha":349,"o":"m 101 0 l -2 0 l 202 373 l 107 738 l 198 738 l 299 360 l 101 0 "},"ћ":{"x_min":28.15625,"x_max":721.234375,"ha":847,"o":"m 144 850 l 39 850 l 50 931 l 155 931 l 166 1023 l 260 1023 l 249 931 l 534 931 l 523 850 l 239 850 l 207 625 q 470 757 323 757 q 644 693 568 757 q 721 504 721 629 q 709 339 721 431 l 662 0 l 568 0 l 614 339 q 629 501 629 442 q 581 624 629 577 q 457 672 534 672 q 321 633 384 672 q 222 528 259 595 q 166 316 186 462 l 123 0 l 28 0 l 144 850 "},"→":{"x_min":54,"x_max":1335,"ha":1389,"o":"m 1054 594 q 1335 368 1215 416 l 1335 337 q 1054 106 1205 278 l 1002 106 q 1135 316 1066 246 l 54 316 l 54 385 l 1135 385 q 1003 594 1058 479 l 1054 594 "},"<":{"x_min":71,"x_max":772,"ha":843,"o":"m 772 235 l 772 136 l 71 454 l 71 542 l 772 862 l 772 762 l 202 497 l 772 235 "},"¬":{"x_min":78.28125,"x_max":765,"ha":842,"o":"m 765 695 l 765 303 l 671 303 l 671 602 l 78 602 l 78 695 l 765 695 "},"t":{"x_min":69.171875,"x_max":448.953125,"ha":471,"o":"m 246 1014 l 339 1014 l 302 738 l 448 738 l 438 655 l 291 655 l 202 0 l 107 0 l 195 655 l 69 655 l 80 738 l 206 738 l 246 1014 "},"Ц":{"x_min":32.546875,"x_max":877.546875,"ha":926,"o":"m 771 0 l 32 0 l 167 998 l 267 998 l 145 94 l 605 94 l 728 998 l 828 998 l 705 94 l 877 94 l 844 -151 l 750 -151 l 771 0 "},"ù":{"x_min":72,"x_max":758.796875,"ha":844,"o":"m 127 738 l 222 738 l 179 429 q 162 261 162 298 q 218 122 162 176 q 368 69 275 69 q 502 109 445 69 q 583 216 559 150 q 612 369 596 249 l 665 738 l 758 738 l 720 458 q 663 173 693 258 q 554 35 632 89 q 363 -19 476 -19 q 153 59 235 -19 q 72 255 72 137 q 79 364 72 301 l 86 429 l 89 457 l 127 738 m 451 1083 l 570 875 l 476 875 l 305 1083 l 451 1083 "},"ï":{"x_min":-18,"x_max":418,"ha":279,"o":"m 111 738 l 202 738 l 103 0 l 9 0 l 111 738 m 72 1029 q 121 1009 101 1029 q 141 961 141 989 q 113 899 141 926 q 49 872 85 872 q 1 891 20 872 q -18 939 -18 910 q 9 1001 -18 974 q 72 1029 36 1029 m 349 1029 q 398 1009 379 1029 q 418 961 418 989 q 390 899 418 926 q 326 872 362 872 q 278 891 297 872 q 259 939 259 910 q 286 1001 259 974 q 349 1029 313 1029 "},"Ф":{"x_min":28,"x_max":1086,"ha":1138,"o":"m 528 0 l 428 0 l 467 288 l 383 288 q 28 544 28 288 q 112 762 28 656 q 461 869 196 869 l 549 869 l 566 997 l 660 997 l 644 869 l 720 869 q 1008 796 931 869 q 1086 608 1086 724 q 1028 426 1086 506 q 888 317 970 346 q 651 288 806 288 l 566 288 l 528 0 m 480 384 l 533 773 l 441 773 q 249 746 307 773 q 160 664 191 720 q 130 547 130 607 q 194 421 130 459 q 389 384 258 384 l 480 384 m 631 773 l 579 384 l 671 384 q 856 407 800 384 q 948 484 912 430 q 984 604 984 538 q 921 734 984 696 q 723 773 858 773 l 631 773 "},"Ò":{"x_min":49,"x_max":1117,"ha":1207,"o":"m 647 1023 q 983 890 849 1023 q 1117 556 1117 758 q 947 142 1117 310 q 523 -25 777 -25 q 178 103 308 -25 q 49 441 49 232 q 126 736 49 601 q 341 946 204 870 q 647 1023 478 1023 m 645 929 q 390 866 502 929 q 212 689 277 804 q 147 445 147 574 q 194 248 147 335 q 325 115 241 161 q 522 69 409 69 q 771 133 656 69 q 951 313 886 198 q 1017 562 1017 428 q 892 842 1017 739 q 645 929 789 929 m 632 1285 l 751 1077 l 657 1077 l 486 1285 l 632 1285 "},"I":{"x_min":26.453125,"x_max":261.765625,"ha":314,"o":"m 161 998 l 261 998 l 126 0 l 26 0 l 161 998 "},"·":{"x_min":317,"x_max":476,"ha":463,"o":"m 407 590 q 456 570 436 590 q 476 522 476 551 q 448 460 476 487 q 384 433 420 433 q 336 452 355 433 q 317 500 317 472 q 344 562 317 535 q 407 590 371 590 "},"¿":{"x_min":57,"x_max":634.3125,"ha":821,"o":"m 439 606 q 380 630 404 606 q 356 688 356 654 q 380 747 356 723 q 439 772 404 772 q 497 747 473 772 q 522 688 522 723 q 497 630 522 654 q 439 606 473 606 m 541 7 l 634 7 q 532 -213 618 -138 q 314 -289 446 -289 q 127 -227 198 -289 q 57 -74 57 -165 q 88 43 57 -7 q 184 128 120 93 q 341 189 214 145 q 486 265 448 227 q 525 342 525 302 q 490 402 525 375 q 400 429 456 429 q 289 391 332 429 q 232 280 245 354 l 140 280 q 218 456 150 393 q 401 519 286 519 q 557 465 499 519 q 616 335 616 412 q 563 209 616 262 q 317 86 511 156 q 193 26 222 51 q 151 -70 151 -9 q 195 -162 151 -127 q 324 -197 239 -197 q 541 7 516 -197 "},"▫":{"x_min":89,"x_max":403,"ha":493,"o":"m 403 616 l 403 302 l 89 302 l 89 616 l 403 616 m 351 564 l 141 564 l 141 354 l 351 354 l 351 564 "},"ſ":{"x_min":9.5,"x_max":405.546875,"ha":278,"o":"m 405 997 l 392 908 q 296 957 342 957 q 251 934 273 957 q 216 816 229 912 l 102 0 l 9 0 l 122 803 q 150 941 136 902 q 201 1011 164 981 q 290 1042 239 1042 q 405 997 350 1042 "},"Ђ":{"x_min":37.703125,"x_max":790,"ha":880,"o":"m 307 482 l 240 0 l 138 0 l 260 901 l 37 901 l 50 998 l 598 998 l 584 901 l 362 901 l 319 580 l 404 580 q 710 509 630 580 q 790 303 790 439 q 723 75 790 175 q 536 -24 657 -24 q 372 36 451 -24 l 423 103 q 532 64 481 64 q 644 140 604 64 q 684 299 684 217 q 620 445 684 409 q 419 482 556 482 l 307 482 "},"●":{"x_min":121,"x_max":718,"ha":839,"o":"m 419 691 q 630 603 542 691 q 718 392 718 515 q 630 180 718 268 q 419 93 543 93 q 208 180 296 93 q 121 392 121 268 q 210 605 121 520 q 419 691 299 691 "},"ű":{"x_min":72,"x_max":865.9375,"ha":844,"o":"m 127 738 l 222 738 l 179 429 q 162 261 162 298 q 218 122 162 176 q 368 69 275 69 q 502 109 445 69 q 583 216 559 150 q 612 369 596 249 l 665 738 l 758 738 l 720 458 q 663 173 693 258 q 554 35 632 89 q 363 -19 476 -19 q 153 59 235 -19 q 72 255 72 137 q 79 364 72 301 l 86 429 l 89 457 l 127 738 m 505 1084 l 651 1084 l 421 875 l 328 875 l 505 1084 m 720 1084 l 865 1084 l 636 875 l 542 875 l 720 1084 "},"Ǽ":{"x_min":-22.375,"x_max":1302.765625,"ha":1378,"o":"m 1182 0 l 617 0 l 661 324 l 320 324 l 85 0 l -22 0 l 695 998 l 1302 998 l 1288 901 l 840 901 l 796 574 l 1244 574 l 1231 478 l 782 478 l 731 96 l 1192 96 l 1182 0 m 740 911 l 388 421 l 675 421 l 740 911 m 968 1285 l 1114 1285 l 884 1076 l 790 1076 l 968 1285 "},"φ":{"x_min":30,"x_max":958,"ha":1064,"o":"m 490 -15 l 457 -270 l 361 -270 l 394 -12 q 129 79 228 -12 q 30 317 30 170 q 120 572 30 461 q 368 738 210 682 l 386 648 q 125 326 125 552 q 407 76 125 101 l 498 756 q 545 756 525 756 q 849 659 740 756 q 958 406 958 562 q 834 96 958 207 q 490 -15 710 -15 m 581 662 l 503 83 q 863 401 863 83 q 788 592 863 522 q 581 662 714 662 "},";":{"x_min":-24.203125,"x_max":290,"ha":384,"o":"m 207 757 q 266 732 242 757 q 290 673 290 708 q 266 615 290 639 q 207 591 242 591 q 149 615 173 591 q 125 673 125 639 q 149 732 125 708 q 207 757 173 757 m 127 182 l 212 139 l 39 -115 l -24 -87 l 127 182 "},"Ġ":{"x_min":54,"x_max":1099,"ha":1211,"o":"m 1082 783 l 1002 724 q 826 875 927 822 q 618 928 724 928 q 389 863 499 928 q 216 693 279 799 q 154 466 154 587 q 271 185 154 301 q 558 70 389 70 q 751 111 659 70 q 902 221 844 152 q 986 391 960 289 l 621 391 l 621 489 l 1099 489 q 948 117 1099 259 q 573 -25 797 -25 q 198 114 342 -25 q 54 463 54 253 q 129 743 54 613 q 336 948 204 873 q 620 1023 468 1023 q 1082 783 896 1023 m 655 1232 q 704 1212 684 1232 q 724 1164 724 1192 q 696 1102 724 1129 q 632 1075 668 1075 q 584 1094 603 1075 q 565 1142 565 1113 q 592 1204 565 1177 q 655 1232 619 1232 "},"6":{"x_min":14,"x_max":678,"ha":770,"o":"m 483 1022 l 555 964 l 287 646 q 372 661 334 661 q 574 578 487 661 q 678 329 678 482 q 579 77 678 179 q 336 -25 481 -25 q 106 68 199 -25 q 14 301 14 162 q 52 475 14 391 q 218 708 91 559 l 483 1022 m 350 571 q 181 495 251 571 q 112 310 112 420 q 176 140 112 207 q 333 73 241 73 q 502 143 426 73 q 579 330 579 213 q 512 501 579 432 q 350 571 445 571 "},"n":{"x_min":28.1875,"x_max":721,"ha":847,"o":"m 130 738 l 221 738 l 207 624 q 467 757 319 757 q 651 686 581 757 q 721 497 721 616 q 706 338 721 450 l 660 0 l 566 0 l 612 338 q 627 498 627 447 q 580 623 627 576 q 457 671 533 671 q 318 632 382 671 q 219 528 254 594 q 165 318 184 462 l 121 0 l 28 0 l 130 738 "},"ά":{"x_min":41,"x_max":858.921875,"ha":949,"o":"m 760 0 l 664 0 l 679 111 q 385 -19 550 -19 q 137 78 234 -19 q 41 327 41 175 q 166 630 41 503 q 462 757 292 757 q 624 718 555 757 q 743 597 694 679 l 760 738 l 858 738 l 760 0 m 395 68 q 562 111 487 68 q 681 234 637 154 q 726 410 726 315 q 653 596 726 525 q 465 668 580 668 q 231 570 328 668 q 135 329 135 472 q 207 139 135 211 q 395 68 280 68 m 590 1084 l 540 855 l 466 855 l 466 1084 l 590 1084 "},"ϊ":{"x_min":-18,"x_max":418,"ha":279,"o":"m 111 738 l 202 738 l 103 0 l 9 0 l 111 738 m 72 1029 q 121 1009 101 1029 q 141 961 141 989 q 113 899 141 926 q 49 872 85 872 q 1 891 20 872 q -18 939 -18 910 q 9 1001 -18 974 q 72 1029 36 1029 m 349 1029 q 398 1009 379 1029 q 418 961 418 989 q 390 899 418 926 q 326 872 362 872 q 278 891 297 872 q 259 939 259 910 q 286 1001 259 974 q 349 1029 313 1029 "},"ģ":{"x_min":15.234375,"x_max":847.578125,"ha":934,"o":"m 754 738 l 847 738 l 762 113 q 713 -98 742 -37 q 580 -235 673 -181 q 360 -289 487 -289 q 148 -238 236 -289 q 15 -90 60 -187 l 100 -60 q 360 -200 177 -200 q 528 -161 457 -200 q 629 -60 599 -122 q 667 101 648 -23 l 671 130 q 379 0 551 0 q 133 93 226 0 q 41 335 41 186 q 97 542 41 445 q 253 697 154 638 q 455 757 352 757 q 610 718 540 757 q 736 597 681 680 l 754 738 m 473 667 q 301 622 380 667 q 177 502 221 578 q 134 331 134 426 q 203 156 134 223 q 388 90 272 90 q 622 182 529 90 q 716 415 716 274 q 640 602 716 538 q 473 667 564 667 m 538 1232 l 587 1203 q 538 1114 550 1141 q 518 1047 526 1087 l 577 1047 l 551 859 l 432 859 l 440 942 q 472 1108 451 1047 q 538 1232 494 1169 "},"∂":{"x_min":38,"x_max":660,"ha":686,"o":"m 289 771 l 197 812 q 308 962 242 913 q 441 1011 373 1011 q 551 973 501 1011 q 630 849 601 935 q 660 627 660 764 q 600 278 660 427 q 443 56 541 130 q 246 -17 345 -17 q 95 45 153 -17 q 38 219 38 108 q 149 490 38 380 q 581 624 284 624 q 563 812 581 754 q 514 897 546 871 q 443 924 482 924 q 289 771 346 924 m 579 534 q 335 497 411 534 q 210 377 260 460 q 160 206 160 294 q 194 112 160 149 q 275 76 229 76 q 401 124 334 76 q 516 274 468 173 q 579 534 563 375 "},"κ":{"x_min":26.453125,"x_max":688.34375,"ha":697,"o":"m 131 739 l 223 739 l 185 464 l 540 738 l 688 738 l 259 408 l 637 0 l 511 0 l 170 366 l 121 0 l 26 0 l 131 739 "},"‡":{"x_min":23.859375,"x_max":687.5,"ha":769,"o":"m 383 1022 l 492 1022 l 442 790 l 687 790 l 673 707 l 433 707 l 405 404 l 346 105 l 591 105 l 576 21 l 327 21 l 327 -213 l 217 -213 l 268 21 l 23 21 l 38 105 l 278 105 l 304 404 l 365 707 l 120 707 l 134 790 l 383 790 l 383 1022 "},"ň":{"x_min":28.1875,"x_max":762.375,"ha":847,"o":"m 130 738 l 221 738 l 207 624 q 467 757 319 757 q 651 686 581 757 q 721 497 721 616 q 706 338 721 450 l 660 0 l 566 0 l 612 338 q 627 498 627 447 q 580 623 627 576 q 457 671 533 671 q 318 632 382 671 q 219 528 254 594 q 165 318 184 462 l 121 0 l 28 0 l 130 738 m 536 872 l 442 872 l 270 1045 l 392 1045 l 497 943 l 636 1046 l 762 1046 l 536 872 "},"√":{"x_min":54.9375,"x_max":760.234375,"ha":762,"o":"m 710 1268 l 760 1268 l 548 -52 l 212 639 l 77 578 l 54 621 l 259 723 l 533 165 l 710 1268 "},"ę":{"x_min":39,"x_max":795,"ha":902,"o":"m 790 350 l 131 350 q 201 143 131 218 q 389 67 271 67 q 533 99 466 67 q 642 189 599 131 l 713 131 q 573 22 659 63 q 386 -19 486 -19 q 126 88 213 -19 q 39 330 39 196 q 97 541 39 440 q 254 700 156 643 q 467 757 352 757 q 702 661 609 757 q 795 416 795 565 q 790 350 795 389 m 701 432 q 633 601 701 536 q 464 666 566 666 q 268 603 353 666 q 148 432 184 541 l 701 432 m 414 0 l 487 0 q 387 -138 387 -76 q 408 -187 387 -168 q 475 -206 430 -206 q 523 -202 495 -206 l 508 -260 q 450 -267 479 -267 q 346 -236 380 -267 q 312 -158 312 -205 q 339 -75 312 -119 q 414 0 366 -30 "},"į":{"x_min":-73,"x_max":262,"ha":278,"o":"m 186 1041 q 239 1018 217 1041 q 262 964 262 996 q 239 911 262 933 q 186 889 217 889 q 132 911 154 889 q 110 964 110 933 q 132 1018 110 996 q 186 1041 154 1041 m 111 738 l 201 738 l 103 0 l 9 0 l 111 738 m 29 0 l 103 0 q 2 -138 2 -77 q 23 -187 2 -168 q 90 -206 45 -206 q 138 -202 111 -206 l 124 -260 q 65 -267 95 -267 q -38 -236 -4 -267 q -73 -159 -73 -205 q -45 -75 -73 -119 q 29 0 -18 -30 "},"Τ":{"x_min":36.625,"x_max":645.609375,"ha":591,"o":"m 49 998 l 645 998 l 632 903 l 378 903 l 258 0 l 158 0 l 278 903 l 36 903 l 49 998 "},"≈":{"x_min":37,"x_max":726,"ha":763,"o":"m 726 694 l 726 584 q 617 530 650 541 q 555 519 584 519 q 375 571 490 519 q 261 620 285 612 q 214 628 236 628 q 148 615 184 628 q 37 556 112 602 l 37 665 q 144 718 111 707 q 209 730 178 730 q 391 675 275 730 q 500 628 471 637 q 553 619 530 619 q 611 630 582 619 q 726 694 640 641 m 726 442 l 726 332 q 617 278 650 289 q 555 267 584 267 q 375 319 490 267 q 261 368 285 360 q 214 376 236 376 q 148 362 184 376 q 37 304 112 349 l 37 413 q 144 466 111 455 q 209 478 178 478 q 391 423 275 478 q 500 376 471 385 q 553 367 530 367 q 611 378 582 367 q 726 442 640 389 "},"ΐ":{"x_min":-51,"x_max":404,"ha":278,"o":"m 111 738 l 202 738 l 103 0 l 10 0 l 111 738 m 255 1084 l 206 855 l 131 855 l 131 1084 l 255 1084 m 335 876 q 283 927 283 876 q 303 976 283 956 q 351 997 324 997 q 404 945 404 997 q 383 896 404 917 q 335 876 362 876 m 1 876 q -51 927 -51 876 q -29 976 -51 956 q 18 997 -8 997 q 71 945 71 997 q 49 896 71 917 q 1 876 28 876 "},"ĸ":{"x_min":26.453125,"x_max":688.34375,"ha":697,"o":"m 130 738 l 223 738 l 185 464 l 540 738 l 688 738 l 259 408 l 637 0 l 511 0 l 170 366 l 121 0 l 26 0 l 130 738 "},"g":{"x_min":15.234375,"x_max":847.578125,"ha":934,"o":"m 754 738 l 847 738 l 762 113 q 713 -98 742 -37 q 580 -235 673 -181 q 360 -289 487 -289 q 148 -238 236 -289 q 15 -90 60 -187 l 100 -60 q 360 -200 177 -200 q 528 -161 457 -200 q 629 -60 599 -122 q 667 101 648 -23 l 671 130 q 379 0 551 0 q 133 93 226 0 q 41 335 41 186 q 97 542 41 445 q 253 697 154 638 q 455 757 352 757 q 610 718 540 757 q 736 597 681 680 l 754 738 m 473 667 q 301 622 380 667 q 177 502 221 578 q 134 331 134 426 q 203 156 134 223 q 388 90 272 90 q 622 182 529 90 q 716 415 716 274 q 640 602 716 538 q 473 667 564 667 "},"ǿ":{"x_min":37,"x_max":813.5625,"ha":907,"o":"m 726 631 q 800 404 800 534 q 744 188 800 288 q 592 35 688 89 q 377 -19 497 -19 q 198 25 272 -19 l 111 -75 l 43 -16 l 128 82 q 37 326 37 181 q 92 543 37 443 q 246 699 148 642 q 454 757 344 757 q 661 694 575 757 l 743 788 l 813 731 l 726 631 m 191 154 l 601 625 q 452 667 536 667 q 291 622 368 667 q 172 500 213 577 q 131 331 131 424 q 191 154 131 227 m 665 561 l 261 98 q 388 69 319 69 q 550 111 477 69 q 665 234 622 154 q 707 405 707 314 q 665 561 707 491 m 587 1084 l 733 1084 l 503 875 l 409 875 l 587 1084 "},"²":{"x_min":11.265625,"x_max":451,"ha":461,"o":"m 169 842 l 94 842 q 144 975 94 928 q 283 1023 195 1023 q 404 982 358 1023 q 451 883 451 942 q 428 806 451 844 q 305 676 405 768 l 186 565 l 425 565 l 415 497 l 11 497 l 221 694 q 353 829 332 798 q 375 886 375 859 q 348 936 375 914 q 277 958 321 958 q 198 928 227 958 q 169 842 169 898 "},"Ã":{"x_min":-19.671875,"x_max":912.140625,"ha":1027,"o":"m 577 997 l 912 0 l 809 0 l 700 326 l 278 326 l 91 0 l -19 0 l 554 997 l 577 997 m 545 788 l 332 421 l 669 421 l 545 788 m 775 1213 l 813 1147 q 723 1100 759 1112 q 651 1088 688 1088 q 554 1113 602 1088 q 502 1138 514 1134 q 468 1142 486 1142 q 421 1134 443 1142 q 354 1096 398 1125 l 318 1165 q 480 1231 389 1231 q 580 1204 523 1231 q 665 1178 634 1178 q 775 1213 705 1178 "},"▲":{"x_min":206.15625,"x_max":1169.15625,"ha":1375,"o":"m 206 0 l 687 962 l 1169 0 l 206 0 "},"Ј":{"x_min":-16.953125,"x_max":559.484375,"ha":669,"o":"m 461 998 l 559 998 l 469 310 q 422 96 448 154 q 343 6 395 38 q 223 -25 291 -25 q 101 2 160 -25 q -16 94 43 29 l 59 149 q 225 67 144 67 q 323 122 286 67 q 370 302 351 164 l 461 998 "},"‾":{"x_min":-28,"x_max":799,"ha":771,"o":"m -28 1268 l 799 1268 l 799 1218 l -28 1218 l -28 1268 m 259 723 l 259 723 "},"©":{"x_min":-13,"x_max":1052,"ha":1038,"o":"m 1052 513 q 980 247 1052 370 q 785 53 909 125 q 519 -18 662 -18 q 253 53 377 -18 q 58 248 129 125 q -13 513 -13 371 q 58 779 -13 656 q 253 973 129 902 q 519 1045 376 1045 q 785 973 662 1045 q 980 779 909 902 q 1052 513 1052 656 m 978 514 q 916 743 978 637 q 748 911 855 849 q 519 973 642 973 q 290 911 396 973 q 122 743 183 849 q 61 514 61 636 q 122 284 61 390 q 290 116 183 177 q 519 55 397 55 q 748 116 642 55 q 916 284 855 177 q 978 514 978 390 m 780 627 l 687 627 q 633 717 673 687 q 528 748 594 748 q 390 687 442 748 q 338 509 338 626 q 388 335 338 395 q 519 276 438 276 q 631 317 586 276 q 687 443 675 359 l 780 443 q 695 265 767 331 q 522 200 624 200 q 317 282 394 200 q 241 511 241 365 q 320 750 241 664 q 523 836 400 836 q 704 779 636 836 q 780 627 771 722 "},"≥":{"x_min":31,"x_max":732,"ha":763,"o":"m 31 326 l 600 589 l 31 853 l 31 953 l 732 633 l 732 545 l 31 227 l 31 326 m 732 157 l 732 64 l 31 64 l 31 157 l 732 157 "},"Ă":{"x_min":-19.671875,"x_max":912.140625,"ha":1027,"o":"m 577 997 l 912 0 l 809 0 l 700 326 l 278 326 l 91 0 l -19 0 l 554 997 l 577 997 m 545 788 l 332 421 l 669 421 l 545 788 m 356 1235 l 445 1235 q 587 1166 481 1166 q 678 1181 642 1166 q 750 1236 714 1196 l 836 1236 q 745 1134 813 1175 q 577 1093 678 1093 q 421 1133 478 1093 q 356 1235 364 1174 "},"ґ":{"x_min":51.546875,"x_max":554.75,"ha":529,"o":"m 234 655 l 145 0 l 51 0 l 151 738 l 448 738 l 463 829 l 554 829 l 531 655 l 234 655 "},"ÿ":{"x_min":31.890625,"x_max":742.5625,"ha":745,"o":"m 31 738 l 129 738 l 321 193 l 637 738 l 742 738 l 157 -270 l 50 -270 l 259 90 l 31 738 m 305 1029 q 354 1009 334 1029 q 374 961 374 989 q 346 899 374 926 q 282 872 318 872 q 234 891 253 872 q 215 939 215 910 q 242 1001 215 974 q 305 1029 269 1029 m 582 1029 q 631 1009 612 1029 q 651 961 651 989 q 623 899 651 926 q 559 872 595 872 q 511 891 530 872 q 492 939 492 910 q 519 1001 492 974 q 582 1029 546 1029 "},"Ł":{"x_min":5.421875,"x_max":617.140625,"ha":718,"o":"m 248 566 l 440 661 l 425 553 l 233 457 l 185 94 l 617 94 l 605 0 l 73 0 l 126 403 l 5 342 l 20 452 l 141 512 l 205 998 l 305 998 l 248 566 "},"∫":{"x_min":0,"x_max":380,"ha":381,"o":"m 145 643 q 145 981 145 785 q 176 1179 145 1106 q 226 1242 193 1220 q 291 1264 259 1264 q 353 1241 326 1264 q 380 1191 380 1219 q 362 1140 380 1160 q 317 1121 344 1121 q 266 1145 293 1121 q 239 1159 250 1159 q 219 1149 226 1159 q 211 1115 211 1139 q 218 1017 211 1087 q 235 565 235 738 q 235 181 235 520 q 182 -96 235 -25 q 83 -149 143 -149 q 23 -125 46 -149 q 0 -67 0 -102 q 17 -18 0 -37 q 60 0 34 0 q 108 -22 88 0 q 140 -43 127 -43 q 159 -33 152 -43 q 167 -2 167 -23 q 161 79 167 26 q 145 643 145 293 "},"\\":{"x_min":44.765625,"x_max":794.8125,"ha":840,"o":"m 149 1023 l 794 -136 l 691 -136 l 44 1023 l 149 1023 "},"Ì":{"x_min":26.453125,"x_max":304.5,"ha":314,"o":"m 161 998 l 261 998 l 126 0 l 26 0 l 161 998 m 185 1285 l 304 1076 l 210 1076 l 40 1285 l 185 1285 "},"ъ":{"x_min":-21.765625,"x_max":591,"ha":702,"o":"m 55 1 l 143 651 l -21 651 l -10 738 l 248 738 l 210 446 l 333 446 q 522 382 454 446 q 591 216 591 318 q 563 103 591 152 q 480 27 535 54 q 301 1 425 1 l 55 1 m 202 356 l 164 80 l 273 80 q 403 90 364 80 q 468 133 441 100 q 495 215 495 166 q 442 319 495 283 q 301 356 390 356 l 202 356 "},"ς":{"x_min":28,"x_max":772.953125,"ha":804,"o":"m 772 614 l 697 566 q 453 667 615 667 q 219 565 314 667 q 124 317 124 464 q 176 178 124 229 q 374 99 229 127 q 568 33 518 72 q 619 -69 619 -4 q 550 -227 619 -166 q 333 -289 481 -289 q 223 -275 274 -289 l 259 -189 q 337 -200 300 -200 q 521 -87 521 -200 q 485 -28 521 -50 q 336 13 450 -6 q 28 311 28 67 q 154 625 28 493 q 463 757 281 757 q 645 723 574 757 q 772 614 715 689 "},"∩":{"x_min":88,"x_max":731,"ha":818,"o":"m 162 0 l 88 0 l 88 421 l 88 582 q 99 724 88 661 q 139 839 111 787 q 211 930 167 890 q 306 991 255 971 q 408 1012 357 1012 q 561 965 488 1012 q 673 847 633 919 q 721 695 712 775 q 731 421 731 615 l 731 0 l 656 0 l 656 425 q 649 662 656 590 q 613 791 642 733 q 527 885 585 848 q 408 923 469 923 q 290 885 347 923 q 205 792 233 848 q 169 664 176 737 q 162 425 162 591 l 162 0 "},"↕":{"x_min":103.078125,"x_max":590.90625,"ha":695,"o":"m 331 992 l 362 992 q 590 715 415 868 l 590 661 q 380 793 474 708 l 380 -91 q 590 39 474 -6 l 590 -13 q 362 -290 415 -166 l 331 -290 q 103 -13 278 -166 l 103 39 q 314 -91 219 -6 l 314 793 q 103 661 219 708 l 103 715 q 331 992 278 868 "},"Ē":{"x_min":32.546875,"x_max":716.140625,"ha":745,"o":"m 716 998 l 701 901 l 252 901 l 208 574 l 657 574 l 644 478 l 195 478 l 145 96 l 594 96 l 582 0 l 32 0 l 166 998 l 716 998 m 216 1205 l 684 1205 l 672 1124 l 204 1124 l 216 1205 "},"!":{"x_min":56,"x_max":307.796875,"ha":409,"o":"m 214 1023 l 307 1023 l 205 249 l 110 249 l 214 1023 m 138 147 q 196 122 172 147 q 221 64 221 98 q 196 5 221 29 q 138 -19 172 -19 q 80 5 104 -19 q 56 64 56 29 q 80 122 56 98 q 138 147 104 147 "},"ç":{"x_min":41,"x_max":812.421875,"ha":899,"o":"m 812 578 l 734 533 q 483 666 652 666 q 305 622 386 666 q 179 501 224 579 q 134 336 134 424 q 167 196 134 258 q 263 101 201 134 q 407 68 324 68 q 570 102 493 68 q 691 189 648 136 l 769 134 q 610 17 696 54 q 411 -19 524 -19 q 138 76 236 -19 q 41 330 41 171 q 169 631 41 506 q 484 757 297 757 q 681 709 596 757 q 812 578 767 662 m 361 0 l 420 0 l 397 -80 q 424 -78 414 -78 q 473 -95 454 -78 q 493 -139 493 -113 q 446 -222 493 -187 q 321 -258 400 -258 q 211 -237 261 -258 l 232 -190 q 312 -204 274 -204 q 387 -190 365 -204 q 410 -157 410 -176 q 399 -138 410 -146 q 372 -130 389 -130 q 323 -137 355 -130 l 361 0 "},"Й":{"x_min":32.546875,"x_max":932.484375,"ha":1008,"o":"m 797 0 l 694 0 l 797 764 l 69 0 l 32 0 l 167 998 l 266 998 l 161 219 l 901 998 l 932 998 l 797 0 m 335 1233 l 424 1233 q 566 1163 460 1163 q 657 1178 621 1163 q 729 1233 693 1193 l 815 1233 q 724 1131 792 1172 q 556 1090 657 1090 q 400 1130 457 1090 q 335 1233 343 1171 "},"Б":{"x_min":32.84375,"x_max":674,"ha":764,"o":"m 32 0 l 167 998 l 672 998 l 659 900 l 258 900 l 213 590 l 258 590 q 591 500 509 590 q 674 286 674 410 q 622 116 674 187 q 498 22 571 45 q 308 0 425 0 l 32 0 m 201 494 l 148 98 l 269 98 q 442 110 388 98 q 534 168 496 122 q 572 289 572 213 q 534 415 572 364 q 437 479 496 465 q 255 494 378 494 l 201 494 "},"đ":{"x_min":42,"x_max":983.34375,"ha":951,"o":"m 776 845 l 497 845 l 510 935 l 788 935 l 799 1023 l 897 1023 l 886 935 l 983 935 l 971 845 l 874 845 l 761 0 l 666 0 l 680 111 q 386 -19 552 -19 q 139 78 236 -19 q 42 327 42 175 q 167 630 42 503 q 463 757 293 757 q 625 718 556 757 q 744 597 695 679 l 776 845 m 396 68 q 563 111 488 68 q 682 234 638 154 q 727 410 727 315 q 654 596 727 525 q 466 668 581 668 q 232 570 329 668 q 136 329 136 472 q 208 139 136 211 q 396 68 281 68 "},"ċ":{"x_min":41,"x_max":813.046875,"ha":899,"o":"m 813 578 l 735 533 q 484 666 653 666 q 305 622 386 666 q 179 502 224 579 q 134 336 134 424 q 167 197 134 258 q 263 102 201 135 q 408 69 324 69 q 571 102 493 69 q 692 190 648 136 l 770 135 q 611 18 697 55 q 412 -19 525 -19 q 139 76 237 -19 q 41 330 41 171 q 169 631 41 506 q 484 757 298 757 q 682 709 596 757 q 813 578 767 662 m 506 1029 q 555 1009 535 1029 q 575 961 575 989 q 547 899 575 926 q 483 872 519 872 q 435 891 454 872 q 416 939 416 910 q 443 1001 416 974 q 506 1029 470 1029 "},"Ā":{"x_min":-19.671875,"x_max":912.140625,"ha":1027,"o":"m 577 997 l 912 0 l 809 0 l 700 326 l 278 326 l 91 0 l -19 0 l 554 997 l 577 997 m 545 788 l 332 421 l 669 421 l 545 788 m 330 1205 l 798 1205 l 787 1124 l 319 1124 l 330 1205 "},"Ẃ":{"x_min":85.453125,"x_max":1357.6875,"ha":1333,"o":"m 85 998 l 182 998 l 320 256 l 706 998 l 725 998 l 899 256 l 1252 998 l 1357 998 l 881 0 l 863 0 l 687 751 l 290 0 l 271 0 l 85 998 m 855 1285 l 1000 1285 l 771 1076 l 677 1076 l 855 1285 "},"ø":{"x_min":37,"x_max":813.5625,"ha":907,"o":"m 726 631 q 800 404 800 534 q 744 188 800 288 q 592 35 688 89 q 377 -19 497 -19 q 198 25 272 -19 l 111 -75 l 43 -16 l 128 82 q 37 326 37 181 q 92 543 37 443 q 246 699 148 642 q 454 757 344 757 q 661 694 575 757 l 743 788 l 813 731 l 726 631 m 191 154 l 601 625 q 452 667 536 667 q 291 622 368 667 q 172 500 213 577 q 131 331 131 424 q 191 154 131 227 m 665 561 l 261 98 q 388 69 319 69 q 550 111 477 69 q 665 234 622 154 q 707 405 707 314 q 665 561 707 491 "},"â":{"x_min":41,"x_max":858.921875,"ha":949,"o":"m 760 0 l 665 0 l 679 111 q 385 -19 551 -19 q 138 78 235 -19 q 41 327 41 175 q 166 630 41 503 q 462 757 292 757 q 624 718 555 757 q 743 597 694 679 l 760 738 l 858 738 l 760 0 m 395 68 q 562 111 487 68 q 681 234 637 154 q 726 410 726 315 q 653 596 726 525 q 465 668 580 668 q 231 570 328 668 q 135 329 135 472 q 207 139 135 211 q 395 68 280 68 m 503 1045 l 597 1045 l 770 872 l 648 872 l 543 974 l 404 872 l 278 872 l 503 1045 "},"}":{"x_min":-113.453125,"x_max":378.453125,"ha":488,"o":"m 362 290 q 293 275 321 290 q 235 219 256 254 q 201 121 213 184 q 178 -19 195 91 q 142 -178 161 -130 q 89 -256 122 -227 q 11 -298 57 -285 q -75 -306 -16 -306 l -113 -306 l -98 -199 l -77 -199 q 2 -186 -20 -199 q 38 -145 26 -173 q 65 -9 50 -116 q 106 190 85 132 q 160 282 127 247 q 257 346 193 317 q 175 415 202 370 q 149 535 149 459 q 165 701 149 582 q 178 817 178 789 q 157 874 178 857 q 75 891 136 891 l 54 891 l 69 998 l 107 998 q 196 989 170 998 q 267 935 242 974 q 293 837 293 897 q 275 664 293 794 q 262 531 262 569 q 292 434 262 467 q 378 402 322 402 l 362 290 "},"Δ":{"x_min":-54.25,"x_max":906.71875,"ha":1027,"o":"m 906 0 l -54 0 l 550 997 l 574 997 l 906 0 m 771 95 l 537 789 l 118 95 l 771 95 "},"‰":{"x_min":47.90625,"x_max":1553,"ha":1631,"o":"m 1013 1042 l 126 -69 l 47 -69 l 863 955 q 736 933 802 940 q 600 927 671 927 q 513 927 566 927 q 547 817 547 876 q 471 626 547 703 q 281 550 395 550 q 130 608 188 550 q 73 755 73 666 q 154 945 73 867 q 333 1023 235 1023 q 416 1011 359 1023 q 600 989 524 989 q 769 1002 683 989 q 942 1042 854 1015 l 1013 1042 m 335 949 q 207 893 261 949 q 154 763 154 837 q 191 662 154 702 q 288 622 229 622 q 416 680 366 622 q 466 813 466 738 q 429 911 466 873 q 335 949 392 949 m 806 447 q 955 387 894 447 q 1016 241 1016 328 q 943 55 1016 136 q 749 -25 871 -25 q 599 32 657 -25 q 541 179 541 90 q 620 367 541 287 q 806 447 700 447 m 803 374 q 675 318 729 374 q 622 187 622 262 q 660 86 622 126 q 757 46 698 46 q 885 104 835 46 q 935 238 935 162 q 897 335 935 297 q 803 374 860 374 m 1343 447 q 1492 387 1431 447 q 1553 241 1553 328 q 1481 55 1553 136 q 1287 -25 1409 -25 q 1136 32 1194 -25 q 1079 179 1079 90 q 1158 367 1079 287 q 1343 447 1237 447 m 1341 374 q 1214 318 1268 374 q 1160 187 1160 262 q 1198 86 1160 126 q 1295 46 1236 46 q 1422 104 1373 46 q 1472 238 1472 162 q 1434 335 1472 297 q 1341 374 1397 374 "},"Ä":{"x_min":-19.703125,"x_max":912.71875,"ha":1028,"o":"m 578 997 l 912 0 l 810 0 l 700 326 l 278 326 l 91 0 l -19 0 l 555 997 l 578 997 m 546 788 l 332 421 l 669 421 l 546 788 m 446 1231 q 495 1211 475 1231 q 515 1163 515 1191 q 487 1101 515 1128 q 423 1074 459 1074 q 375 1093 394 1074 q 356 1141 356 1112 q 383 1203 356 1176 q 446 1231 410 1231 m 723 1231 q 772 1211 753 1231 q 792 1163 792 1191 q 764 1101 792 1128 q 700 1074 736 1074 q 652 1093 671 1074 q 633 1141 633 1112 q 660 1203 633 1176 q 723 1231 687 1231 "},"ř":{"x_min":-10.171875,"x_max":559.484375,"ha":418,"o":"m 90 738 l 184 738 l 172 644 q 263 727 210 697 q 373 757 317 757 q 457 738 413 757 l 412 650 q 353 665 377 665 q 255 630 303 665 q 176 529 206 595 q 125 312 146 463 l 82 0 l -10 0 l 90 738 m 333 872 l 239 872 l 67 1046 l 189 1046 l 294 943 l 433 1046 l 559 1046 l 333 872 "},"N":{"x_min":33.90625,"x_max":955.546875,"ha":1027,"o":"m 857 998 l 955 998 l 820 0 l 798 0 l 237 773 l 132 0 l 33 0 l 168 998 l 189 998 l 752 223 l 857 998 "},"—":{"x_min":-8,"x_max":1397,"ha":1389,"o":"m -8 433 l 1397 433 l 1397 345 l -8 345 l -8 433 "},"⁄":{"x_min":-267.203125,"x_max":440.8125,"ha":231,"o":"m -267 -25 l 364 1023 l 440 1023 l -191 -25 l -267 -25 "},"2":{"x_min":-26.640625,"x_max":667,"ha":771,"o":"m 189 696 l 90 696 q 175 937 90 852 q 396 1023 260 1023 q 589 948 512 1023 q 667 762 667 873 q 627 609 667 685 q 424 355 588 533 l 191 98 l 620 98 l 608 0 l -26 0 l 302 365 q 528 640 491 575 q 565 765 565 705 q 514 882 565 834 q 386 930 463 930 q 244 868 300 930 q 189 696 189 807 "},"М":{"x_min":-2,"x_max":1114,"ha":1277,"o":"m 1114 998 l 1114 0 l 1020 0 l 1020 687 l 587 0 l 562 0 l 303 712 l 99 0 l -2 0 l 286 998 l 302 998 l 594 187 l 1098 998 l 1114 998 "},"Ó":{"x_min":49,"x_max":1117,"ha":1207,"o":"m 647 1023 q 983 890 849 1023 q 1117 556 1117 758 q 947 142 1117 310 q 523 -25 777 -25 q 178 103 308 -25 q 49 441 49 232 q 126 736 49 601 q 341 946 204 870 q 647 1023 478 1023 m 645 929 q 390 866 502 929 q 212 689 277 804 q 147 445 147 574 q 194 248 147 335 q 325 115 241 161 q 522 69 409 69 q 771 133 656 69 q 951 313 886 198 q 1017 562 1017 428 q 892 842 1017 739 q 645 929 789 929 m 736 1285 l 882 1285 l 652 1077 l 558 1077 l 736 1285 "},"ų":{"x_min":72,"x_max":759.109375,"ha":845,"o":"m 127 738 l 222 738 l 179 429 q 162 261 162 298 q 218 122 162 176 q 368 69 275 69 q 502 109 445 69 q 584 216 559 150 q 613 369 596 249 l 666 738 l 759 738 l 721 458 q 663 173 693 258 q 554 35 632 89 q 363 -19 476 -19 q 153 59 235 -19 q 72 255 72 137 q 79 364 72 301 l 86 429 l 89 457 l 127 738 m 367 0 l 441 0 q 340 -138 340 -76 q 361 -187 340 -168 q 428 -206 383 -206 q 476 -202 449 -206 l 462 -260 q 403 -267 432 -267 q 299 -236 333 -267 q 265 -158 265 -205 q 292 -75 265 -119 q 367 0 319 -30 "},"Ў":{"x_min":-21.703125,"x_max":889.765625,"ha":865,"o":"m 90 995 l 202 995 l 412 317 l 781 998 l 889 998 l 390 101 q 185 -25 320 -25 q 86 -2 132 -25 q -21 101 40 19 l 58 161 q 147 77 124 87 q 197 67 171 67 q 268 88 236 67 q 345 193 299 109 l 90 995 m 259 1233 l 349 1233 q 491 1163 385 1163 q 582 1178 546 1163 q 653 1233 618 1193 l 740 1233 q 649 1131 716 1172 q 481 1090 581 1090 q 324 1130 381 1090 q 259 1233 267 1171 "},"Ŭ":{"x_min":66,"x_max":842.125,"ha":909,"o":"m 157 997 l 256 997 l 180 426 q 166 264 166 312 q 219 120 166 171 q 370 70 273 70 q 492 93 439 70 q 582 160 545 116 q 634 261 619 204 q 681 515 661 362 l 743 998 l 842 998 l 775 493 l 759 370 q 725 223 745 284 q 673 116 705 162 q 601 39 642 69 q 502 -7 560 9 q 373 -25 444 -25 q 145 49 225 -25 q 66 247 66 124 q 70 325 66 282 l 84 441 l 157 997 m 285 1236 l 374 1236 q 516 1166 410 1166 q 608 1181 572 1166 q 679 1237 644 1196 l 766 1237 q 674 1134 742 1175 q 507 1093 607 1093 q 350 1133 407 1093 q 285 1236 293 1174 "},"≡":{"x_min":78,"x_max":764,"ha":841,"o":"m 764 844 l 764 751 l 78 751 l 78 844 l 764 844 m 764 545 l 764 452 l 78 452 l 78 545 l 764 545 m 764 247 l 764 154 l 78 154 l 78 247 l 764 247 "},"ĝ":{"x_min":15.234375,"x_max":847.578125,"ha":934,"o":"m 754 738 l 847 738 l 762 113 q 713 -98 742 -37 q 580 -235 673 -181 q 360 -289 487 -289 q 148 -238 236 -289 q 15 -90 60 -187 l 100 -60 q 360 -200 177 -200 q 528 -161 457 -200 q 629 -60 599 -122 q 667 101 648 -23 l 671 130 q 379 0 551 0 q 133 93 226 0 q 41 335 41 186 q 97 542 41 445 q 253 697 154 638 q 455 757 352 757 q 610 718 540 757 q 736 597 681 680 l 754 738 m 473 667 q 301 622 380 667 q 177 502 221 578 q 134 331 134 426 q 203 156 134 223 q 388 90 272 90 q 622 182 529 90 q 716 415 716 274 q 640 602 716 538 q 473 667 564 667 m 459 1045 l 554 1045 l 726 872 l 604 872 l 499 974 l 360 872 l 234 872 l 459 1045 "},"Ω":{"x_min":0.1875,"x_max":1031,"ha":1067,"o":"m 34 109 l 99 109 q 286 109 131 109 q 167 246 208 163 q 127 426 127 329 q 207 727 127 576 q 404 948 288 878 q 667 1019 519 1019 q 934 917 837 1019 q 1031 639 1031 816 q 975 392 1031 507 q 825 200 919 278 q 653 107 765 151 q 811 107 769 107 l 889 107 l 857 0 l 487 0 l 517 116 q 681 207 621 160 q 837 400 782 288 q 892 642 892 512 q 830 843 892 775 q 660 912 769 912 q 470 854 553 912 q 322 657 387 796 q 257 384 257 519 q 391 115 257 205 l 360 0 l 0 0 l 34 109 "},"s":{"x_min":-23.765625,"x_max":470.53125,"ha":539,"o":"m 470 654 l 418 578 q 270 667 356 667 q 187 635 222 667 q 153 564 153 603 q 174 507 153 534 q 266 433 194 480 q 406 314 372 365 q 440 195 440 263 q 375 42 440 103 q 206 -19 310 -19 q -23 102 69 -19 l 33 169 q 212 70 115 70 q 307 108 266 70 q 348 198 348 147 q 317 277 348 239 q 212 360 297 301 q 90 465 119 423 q 61 559 61 507 q 122 699 61 641 q 278 757 184 757 q 379 734 334 757 q 470 654 424 712 "},"?":{"x_min":147,"x_max":724,"ha":820,"o":"m 239 746 l 147 746 q 248 966 162 891 q 467 1042 334 1042 q 653 980 582 1042 q 724 827 724 918 q 692 709 724 760 q 596 624 660 659 q 439 563 567 607 q 294 488 333 525 q 256 411 256 450 q 290 350 256 377 q 380 324 325 324 q 491 361 448 324 q 548 473 535 398 l 640 473 q 562 296 630 358 q 379 234 494 234 q 224 286 282 234 q 166 417 166 339 q 218 544 166 490 q 463 666 270 596 q 588 726 558 701 q 630 823 630 762 q 585 915 630 880 q 456 950 541 950 q 239 746 264 950 m 342 147 q 400 122 376 147 q 425 64 425 98 q 400 5 425 29 q 342 -19 376 -19 q 284 5 308 -19 q 260 64 260 29 q 284 122 260 98 q 342 147 308 147 "},"Ņ":{"x_min":34.34375,"x_max":955.578125,"ha":1027,"o":"m 857 998 l 955 998 l 820 0 l 798 0 l 237 773 l 133 0 l 34 0 l 168 998 l 190 998 l 752 223 l 857 998 m 378 -81 q 435 -75 405 -75 q 529 -139 529 -75 q 482 -222 529 -186 q 357 -258 435 -258 q 264 -243 315 -258 l 285 -195 q 351 -204 323 -204 q 446 -156 446 -204 q 403 -131 446 -131 q 362 -135 386 -131 l 378 -81 "},"Ī":{"x_min":-12.203125,"x_max":467.265625,"ha":314,"o":"m 162 998 l 262 998 l 127 0 l 27 0 l 162 998 m 0 1205 l 467 1205 l 455 1124 l -12 1124 l 0 1205 "},"Μ":{"x_min":-2,"x_max":1114,"ha":1277,"o":"m 1114 998 l 1114 0 l 1020 0 l 1020 687 l 587 0 l 562 0 l 303 712 l 99 0 l -2 0 l 286 998 l 302 998 l 594 187 l 1098 998 l 1114 998 "},"•":{"x_min":212,"x_max":628,"ha":841,"o":"m 420 714 q 567 652 506 714 q 628 505 628 591 q 567 358 628 419 q 420 297 506 297 q 272 358 333 297 q 212 505 212 419 q 272 652 212 591 q 420 714 333 714 "},"н":{"x_min":27.8125,"x_max":749.375,"ha":847,"o":"m 184 445 l 611 445 l 653 738 l 749 738 l 646 0 l 551 0 l 600 355 l 172 355 l 123 0 l 27 0 l 130 738 l 225 738 l 184 445 "},"(":{"x_min":118,"x_max":485.125,"ha":513,"o":"m 375 1042 l 485 1042 q 292 595 363 847 q 222 69 222 343 q 264 -289 222 -134 l 160 -289 q 118 54 118 -138 q 186 573 118 313 q 375 1042 254 833 "},"◊":{"x_min":31.875,"x_max":655.796875,"ha":686,"o":"m 372 965 l 655 481 l 372 0 l 297 0 l 31 481 l 297 965 l 372 965 m 335 899 l 105 481 l 335 63 l 579 481 l 335 899 "},"▬":{"x_min":0,"x_max":1388,"ha":1389,"o":"m 0 477 l 1388 477 l 1388 215 l 0 215 l 0 477 "},"α":{"x_min":41,"x_max":858.921875,"ha":949,"o":"m 760 0 l 665 0 l 679 111 q 385 -19 551 -19 q 138 78 235 -19 q 41 327 41 175 q 166 630 41 503 q 462 757 292 757 q 624 718 555 757 q 743 597 694 679 l 760 738 l 858 738 l 760 0 m 395 68 q 562 111 487 68 q 681 234 637 154 q 726 410 726 315 q 653 596 726 525 q 465 668 580 668 q 231 570 328 668 q 135 329 135 472 q 207 139 135 211 q 395 68 280 68 "},"■":{"x_min":99,"x_max":739,"ha":839,"o":"m 99 640 l 739 640 l 739 0 l 99 0 l 99 640 "},"Ħ":{"x_min":32.546875,"x_max":942.65625,"ha":949,"o":"m 840 747 l 741 0 l 644 0 l 710 498 l 196 498 l 131 0 l 32 0 l 132 747 l 42 747 l 54 841 l 145 841 l 166 998 l 264 998 l 243 841 l 754 841 l 775 998 l 872 998 l 852 841 l 942 841 l 930 747 l 840 747 m 742 747 l 231 747 l 210 592 l 721 592 l 742 747 "},"м":{"x_min":-48.828125,"x_max":1049.125,"ha":1177,"o":"m 889 738 l 916 738 l 1049 0 l 956 0 l 862 548 l 512 0 l 484 0 l 279 544 l 46 0 l -48 0 l 271 738 l 297 738 l 520 157 l 889 738 "},"з":{"x_min":-41.71875,"x_max":485,"ha":591,"o":"m 197 427 l 245 427 q 348 465 305 427 q 391 563 391 503 q 356 643 391 614 q 266 672 322 672 q 114 609 193 672 l 70 675 q 282 758 162 758 q 428 706 371 758 q 485 573 485 654 q 365 391 485 458 q 469 217 469 333 q 401 47 469 113 q 207 -19 333 -19 q -41 78 60 -19 l 22 140 q 205 62 104 62 q 329 106 284 62 q 374 220 374 151 q 335 311 374 276 q 245 346 297 346 l 186 346 l 197 427 "},"Ґ":{"x_min":31.875,"x_max":635.4375,"ha":575,"o":"m 130 0 l 31 0 l 166 997 l 517 997 l 539 1139 l 635 1139 l 602 899 l 252 899 l 130 0 "},"Û":{"x_min":66,"x_max":842.125,"ha":909,"o":"m 157 997 l 256 997 l 180 426 q 166 264 166 312 q 219 120 166 171 q 370 70 273 70 q 492 93 439 70 q 582 160 545 116 q 634 261 619 204 q 681 515 661 362 l 743 998 l 842 998 l 775 493 l 759 370 q 725 223 745 284 q 673 116 705 162 q 601 39 642 69 q 502 -7 560 9 q 373 -25 444 -25 q 145 49 225 -25 q 66 247 66 124 q 70 325 66 282 l 84 441 l 157 997 m 483 1248 l 577 1248 l 749 1074 l 627 1074 l 522 1176 l 383 1074 l 257 1074 l 483 1248 "},"і":{"x_min":9.640625,"x_max":262,"ha":278,"o":"m 186 1042 q 239 1019 217 1042 q 262 965 262 997 q 239 912 262 934 q 186 890 217 890 q 132 912 154 890 q 110 965 110 934 q 132 1019 110 997 q 186 1042 154 1042 m 111 738 l 201 738 l 103 0 l 9 0 l 111 738 "},"V":{"x_min":82.734375,"x_max":1004.375,"ha":975,"o":"m 82 998 l 183 998 l 430 207 l 893 998 l 1004 998 l 419 0 l 396 0 l 82 998 "},"Ŗ":{"x_min":53.375,"x_max":760,"ha":843,"o":"m 189 998 l 439 998 q 630 972 572 998 q 724 891 688 947 q 760 761 760 835 q 717 611 760 680 q 601 506 675 541 q 409 472 528 472 l 710 0 l 597 0 l 296 472 l 218 472 l 153 0 l 53 0 l 189 998 m 276 902 l 231 570 l 346 570 q 513 580 473 570 q 619 644 579 596 q 660 761 660 691 q 603 874 660 838 q 447 902 560 902 l 276 902 m 277 -81 q 334 -75 304 -75 q 428 -139 428 -75 q 381 -222 428 -186 q 256 -258 334 -258 q 163 -243 214 -258 l 184 -195 q 250 -204 222 -204 q 345 -156 345 -204 q 302 -131 345 -131 q 261 -135 285 -131 l 277 -81 "},"◄":{"x_min":194.96875,"x_max":1179,"ha":1375,"o":"m 1179 961 l 1179 -21 l 194 470 l 1179 961 "},"@":{"x_min":93,"x_max":1111,"ha":1205,"o":"m 979 204 l 1051 204 q 883 45 960 90 q 632 -18 773 -18 q 358 52 484 -18 q 163 243 233 122 q 93 509 93 365 q 163 780 93 654 q 356 975 234 905 q 624 1045 478 1045 q 969 913 828 1045 q 1111 608 1111 782 q 1052 389 1111 481 q 893 246 993 297 q 762 207 816 207 q 700 228 723 207 q 682 282 682 243 q 618 233 658 253 q 534 214 578 214 q 372 281 436 214 q 309 460 309 349 q 386 679 309 580 q 599 779 463 779 q 699 756 659 779 q 776 678 739 733 l 793 771 l 866 771 l 788 328 q 785 300 785 306 q 794 275 785 284 q 818 267 803 267 q 922 313 858 267 q 1022 432 986 359 q 1058 594 1058 505 q 924 879 1058 766 q 620 985 799 985 q 379 924 487 985 q 208 753 271 863 q 146 515 146 643 q 209 276 146 385 q 383 104 272 166 q 629 42 495 42 q 807 77 727 42 q 979 204 887 112 m 568 291 q 652 319 613 291 q 714 403 691 347 q 744 552 744 477 q 706 663 744 620 q 607 706 668 706 q 466 639 525 706 q 407 472 407 572 q 452 340 407 389 q 568 291 497 291 "},"℅":{"x_min":71,"x_max":1191,"ha":1253,"o":"m 520 901 l 455 866 q 328 948 413 948 q 198 893 249 948 q 148 760 148 839 q 182 651 148 693 q 280 609 217 609 q 365 630 323 609 q 428 684 407 651 l 494 640 q 280 538 409 538 q 123 601 175 538 q 71 756 71 665 q 145 944 71 867 q 328 1022 220 1022 q 520 901 461 1022 m 268 -25 l 901 1022 l 976 1022 l 343 -25 l 268 -25 m 997 473 q 1135 411 1079 473 q 1191 251 1191 349 q 1124 65 1191 143 q 952 -12 1057 -12 q 811 50 865 -12 q 758 205 758 112 q 827 394 758 316 q 997 473 897 473 m 994 400 q 882 347 928 400 q 836 208 836 294 q 871 99 836 138 q 960 60 907 60 q 1072 117 1029 60 q 1115 252 1115 174 q 1080 360 1115 320 q 994 400 1045 400 "},"i":{"x_min":9.640625,"x_max":262,"ha":278,"o":"m 186 1042 q 239 1019 217 1042 q 262 965 262 997 q 239 912 262 934 q 186 890 217 890 q 132 912 154 890 q 110 965 110 934 q 132 1019 110 997 q 186 1042 154 1042 m 111 738 l 201 738 l 103 0 l 9 0 l 111 738 "},"ќ":{"x_min":27.8125,"x_max":703.9375,"ha":713,"o":"m 127 738 l 223 738 l 181 427 l 564 738 l 703 738 l 284 400 l 626 0 l 492 0 l 199 341 l 166 314 l 123 0 l 27 0 l 127 738 m 509 1083 l 655 1083 l 425 875 l 332 875 l 509 1083 "},"≤":{"x_min":31,"x_max":732,"ha":763,"o":"m 732 326 l 732 227 l 31 545 l 31 633 l 732 953 l 732 853 l 162 589 l 732 326 m 732 157 l 732 64 l 31 64 l 31 157 l 732 157 "},"ё":{"x_min":39,"x_max":795,"ha":902,"o":"m 790 350 l 131 350 q 201 143 131 218 q 389 68 272 68 q 533 99 467 68 q 642 189 599 131 l 713 131 q 573 22 660 63 q 386 -19 487 -19 q 126 88 213 -19 q 39 330 39 196 q 97 541 39 440 q 254 700 156 643 q 467 757 352 757 q 702 661 609 757 q 795 416 795 565 q 790 350 795 389 m 701 432 q 633 601 701 536 q 464 666 566 666 q 268 603 353 666 q 148 432 184 541 l 701 432 m 383 1029 q 432 1009 412 1029 q 452 961 452 989 q 424 899 452 926 q 360 872 396 872 q 312 891 331 872 q 293 939 293 910 q 320 1001 293 974 q 383 1029 347 1029 m 660 1029 q 709 1009 690 1029 q 729 961 729 989 q 701 899 729 926 q 637 872 673 872 q 589 891 608 872 q 570 939 570 910 q 597 1001 570 974 q 660 1029 624 1029 "},"υ":{"x_min":47,"x_max":719,"ha":826,"o":"m 103 738 l 197 738 l 151 393 q 141 271 141 316 q 337 70 141 70 q 545 167 467 70 q 623 409 623 264 q 492 675 623 571 l 552 757 q 719 428 719 619 q 613 105 719 230 q 324 -19 507 -19 q 47 257 47 -19 q 56 382 47 308 l 103 738 "},"ĕ":{"x_min":39,"x_max":795,"ha":902,"o":"m 790 350 l 131 350 q 201 143 131 218 q 388 68 271 68 q 533 99 466 68 q 642 189 599 131 l 713 131 q 573 22 659 63 q 386 -19 486 -19 q 126 88 213 -19 q 39 330 39 196 q 97 541 39 440 q 254 700 156 643 q 467 757 352 757 q 702 661 609 757 q 795 416 795 565 q 790 350 795 389 m 701 432 q 633 601 701 536 q 464 666 566 666 q 268 603 353 666 q 148 432 184 541 l 701 432 m 257 1034 l 346 1034 q 488 964 382 964 q 579 979 543 964 q 650 1034 615 994 l 737 1034 q 646 932 714 973 q 478 891 579 891 q 322 931 379 891 q 257 1034 265 972 "},"ż":{"x_min":-39.109375,"x_max":569.515625,"ha":590,"o":"m 61 738 l 569 738 l 128 84 l 529 84 l 518 0 l -39 0 l 404 655 l 51 655 l 61 738 m 293 1029 q 342 1009 322 1029 q 362 961 362 989 q 334 899 362 926 q 270 872 306 872 q 222 891 241 872 q 203 939 203 910 q 230 1001 203 974 q 293 1029 257 1029 "},"Э":{"x_min":-19.828125,"x_max":1005,"ha":1090,"o":"m 880 454 l 412 454 l 425 552 l 893 552 q 893 594 893 579 q 792 827 893 729 q 516 925 692 925 q 331 888 411 925 q 138 751 252 852 l 66 812 q 532 1023 269 1023 q 872 900 739 1023 q 1005 578 1005 778 q 845 154 1005 333 q 400 -25 686 -25 q -19 173 110 -25 l 66 233 q 395 69 184 69 q 707 168 572 69 q 880 454 841 268 "},"ő":{"x_min":38,"x_max":864.75,"ha":910,"o":"m 461 757 q 634 711 555 757 q 756 586 712 666 q 801 404 801 506 q 744 188 801 288 q 593 35 688 89 q 378 -19 498 -19 q 133 78 229 -19 q 38 326 38 175 q 94 544 38 444 q 248 700 150 643 q 461 757 346 757 m 459 667 q 293 622 370 667 q 173 501 215 578 q 132 331 132 424 q 203 142 132 215 q 389 69 275 69 q 551 111 478 69 q 666 234 623 154 q 708 405 708 314 q 676 541 708 482 q 586 634 644 601 q 459 667 528 667 m 504 1084 l 650 1084 l 420 875 l 326 875 l 504 1084 m 718 1084 l 864 1084 l 634 875 l 541 875 l 718 1084 "},"Ŏ":{"x_min":49,"x_max":1117,"ha":1207,"o":"m 647 1023 q 983 890 849 1023 q 1117 556 1117 758 q 947 142 1117 310 q 523 -25 777 -25 q 178 103 308 -25 q 49 441 49 232 q 126 736 49 601 q 341 946 204 870 q 647 1023 478 1023 m 645 929 q 390 866 502 929 q 212 689 277 804 q 147 445 147 574 q 194 248 147 335 q 325 115 241 161 q 522 69 409 69 q 771 133 656 69 q 951 313 886 198 q 1017 562 1017 428 q 892 842 1017 739 q 645 929 789 929 m 414 1237 l 503 1237 q 645 1166 539 1166 q 736 1181 701 1166 q 808 1237 772 1196 l 894 1237 q 803 1134 871 1175 q 635 1093 736 1093 q 479 1133 536 1093 q 414 1237 422 1174 "},"ю":{"x_min":27.875,"x_max":1064,"ha":1170,"o":"m 123 0 l 27 0 l 127 737 l 223 737 l 181 428 l 305 428 q 458 669 340 581 q 724 757 576 757 q 970 662 876 757 q 1064 417 1064 567 q 938 106 1064 231 q 632 -19 813 -19 q 387 70 483 -19 q 291 334 291 159 l 168 334 l 123 0 m 967 404 q 894 591 967 518 q 717 664 821 664 q 481 564 576 664 q 387 327 387 465 q 461 136 387 201 q 640 71 535 71 q 871 169 775 71 q 967 404 967 267 "},"İ":{"x_min":26.515625,"x_max":313,"ha":314,"o":"m 161 998 l 262 998 l 126 0 l 26 0 l 161 998 m 244 1228 q 293 1208 273 1228 q 313 1160 313 1188 q 285 1098 313 1125 q 221 1071 257 1071 q 173 1090 192 1071 q 154 1138 154 1109 q 181 1200 154 1173 q 244 1228 208 1228 "},"Ě":{"x_min":32.546875,"x_max":716.140625,"ha":745,"o":"m 716 998 l 701 901 l 252 901 l 208 574 l 657 574 l 644 478 l 195 478 l 145 96 l 594 96 l 582 0 l 32 0 l 166 998 l 716 998 m 490 1074 l 396 1074 l 223 1248 l 345 1248 l 450 1145 l 590 1248 l 716 1248 l 490 1074 "},"‹":{"x_min":22.375,"x_max":324.171875,"ha":349,"o":"m 221 738 l 324 738 l 119 364 l 215 0 l 123 0 l 22 377 l 221 738 "},"ķ":{"x_min":26.296875,"x_max":687.78125,"ha":697,"o":"m 170 1022 l 262 1022 l 184 464 l 539 738 l 687 738 l 259 408 l 636 0 l 510 0 l 170 366 l 121 0 l 26 0 l 170 1022 m 216 -81 q 273 -75 243 -75 q 367 -139 367 -75 q 320 -222 367 -186 q 195 -258 273 -258 q 102 -243 153 -258 l 123 -195 q 189 -204 161 -204 q 284 -156 284 -204 q 241 -131 284 -131 q 200 -135 224 -131 l 216 -81 "},"↔":{"x_min":54,"x_max":1335,"ha":1389,"o":"m 1335 365 l 1335 335 q 1059 107 1212 282 l 1005 107 q 1136 318 1052 223 l 252 318 q 383 107 336 223 l 329 107 q 54 335 177 282 l 54 365 q 329 594 177 419 l 383 594 q 252 384 336 478 l 1136 384 q 1005 594 1052 478 l 1059 594 q 1335 365 1212 419 "},"ì":{"x_min":9.5,"x_max":286.859375,"ha":278,"o":"m 111 738 l 201 738 l 103 0 l 9 0 l 111 738 m 168 1084 l 286 875 l 193 875 l 22 1084 l 168 1084 "},"±":{"x_min":38,"x_max":724,"ha":762,"o":"m 334 619 l 334 914 l 427 914 l 427 619 l 724 619 l 724 526 l 427 526 l 427 232 l 334 232 l 334 526 l 38 526 l 38 619 l 334 619 m 724 109 l 724 16 l 38 16 l 38 109 l 724 109 "},"|":{"x_min":418,"x_max":515,"ha":933,"o":"m 418 1023 l 515 1023 l 515 -270 l 418 -270 l 418 1023 "},"§":{"x_min":44.421875,"x_max":706.875,"ha":854,"o":"m 706 811 l 615 811 q 474 946 597 946 q 350 903 399 946 q 302 804 302 860 q 341 717 302 759 q 482 610 380 674 q 635 484 596 538 q 675 376 675 429 q 648 282 675 330 q 569 201 621 235 q 443 152 517 167 q 542 46 515 94 q 569 -53 569 -1 q 534 -168 569 -113 q 434 -256 499 -223 q 290 -289 369 -289 q 124 -239 186 -289 q 44 -94 61 -189 l 140 -94 q 195 -173 158 -148 q 293 -199 232 -199 q 421 -156 371 -199 q 471 -56 471 -114 q 463 -15 471 -35 q 439 24 455 4 q 266 163 407 64 q 130 286 162 237 q 98 399 98 336 q 153 534 98 473 q 307 619 208 595 q 230 705 253 661 q 207 802 207 750 q 282 971 207 900 q 474 1042 358 1042 q 642 979 577 1042 q 706 811 706 917 m 375 569 q 240 511 289 557 q 191 410 191 465 q 208 346 191 377 q 271 280 226 315 l 375 207 q 521 265 466 216 q 577 368 577 314 q 564 418 577 394 q 514 471 551 442 l 375 569 "},"џ":{"x_min":27.8125,"x_max":749.375,"ha":847,"o":"m 297 0 l 27 0 l 127 738 l 223 738 l 134 90 l 566 90 l 653 738 l 749 738 l 650 0 l 387 0 l 372 -116 l 282 -116 l 297 0 "},"љ":{"x_min":-82.15625,"x_max":970,"ha":1085,"o":"m 372 738 l 468 445 l 678 445 q 895 381 821 445 q 970 215 970 317 q 904 61 970 123 q 725 0 838 0 l 511 0 l 336 561 l 12 0 l -82 0 l 355 738 l 372 738 m 494 355 l 582 80 l 648 80 q 777 90 739 80 q 842 133 815 100 q 870 214 870 166 q 819 317 870 279 q 676 355 768 355 l 494 355 "},"q":{"x_min":40,"x_max":857.921875,"ha":947,"o":"m 723 -270 l 627 -270 l 678 111 q 384 -19 550 -19 q 137 78 234 -19 q 40 327 40 175 q 165 630 40 503 q 461 757 291 757 q 623 718 554 757 q 742 597 693 679 l 759 738 l 857 738 l 723 -270 m 394 68 q 561 111 486 68 q 680 234 636 154 q 725 410 725 315 q 652 596 725 525 q 464 668 579 668 q 230 570 327 668 q 134 329 134 472 q 206 139 134 211 q 394 68 279 68 "},"ή":{"x_min":27.765625,"x_max":721,"ha":847,"o":"m 130 738 l 221 738 l 206 624 q 467 757 318 757 q 651 686 582 757 q 721 497 721 615 q 706 338 721 449 l 624 -269 l 530 -269 l 612 338 q 627 498 627 449 q 580 623 627 576 q 457 671 534 671 q 281 607 367 671 q 164 318 195 543 l 120 0 l 27 0 l 130 738 m 539 1084 l 489 855 l 415 855 l 415 1084 l 539 1084 "},"Ж":{"x_min":-89.515625,"x_max":1220.03125,"ha":1221,"o":"m 632 449 l 573 0 l 472 0 l 535 455 l 503 492 l 33 0 l -89 0 l 449 554 l 86 998 l 193 998 l 545 554 l 606 998 l 708 998 l 649 554 l 1106 998 l 1220 998 l 739 541 l 1129 0 l 1013 0 l 675 487 l 632 449 "},"®":{"x_min":-13,"x_max":1052,"ha":1038,"o":"m 1052 516 q 980 249 1052 372 q 785 53 909 125 q 519 -18 661 -18 q 254 53 378 -18 q 58 248 130 125 q -13 513 -13 372 q 58 780 -13 655 q 253 976 130 905 q 519 1048 377 1048 q 785 977 662 1048 q 980 781 908 906 q 1052 516 1052 656 m 978 515 q 916 745 978 637 q 748 914 854 852 q 521 976 643 976 q 291 914 398 976 q 122 745 183 852 q 61 514 61 637 q 122 284 61 391 q 291 116 183 178 q 521 55 399 55 q 748 117 642 55 q 916 285 855 179 q 978 515 978 391 m 298 826 l 554 826 q 683 808 643 826 q 747 749 722 790 q 772 654 772 708 q 754 573 772 607 q 695 518 740 548 q 750 471 736 498 q 765 379 765 444 l 765 310 q 786 229 765 261 l 796 213 l 688 213 q 672 302 672 250 l 672 378 q 661 436 672 419 q 630 460 650 453 q 552 468 611 468 l 395 468 l 395 213 l 298 213 l 298 826 m 395 737 l 395 556 l 545 556 q 638 571 614 556 q 675 647 675 593 q 649 716 675 694 q 552 737 623 737 l 395 737 "},"Н":{"x_min":32.546875,"x_max":872.796875,"ha":949,"o":"m 166 997 l 264 997 l 210 592 l 721 592 l 775 998 l 872 998 l 741 0 l 644 0 l 710 498 l 196 498 l 131 0 l 32 0 l 166 997 "},"Ε":{"x_min":32.546875,"x_max":716.140625,"ha":745,"o":"m 716 998 l 701 901 l 252 901 l 208 574 l 657 574 l 644 478 l 195 478 l 145 96 l 594 96 l 582 0 l 32 0 l 166 998 l 716 998 "},"₧":{"x_min":44.328125,"x_max":1494.515625,"ha":1562,"o":"m 771 738 l 882 738 l 921 1014 l 1014 1014 l 978 738 l 1208 738 q 1302 757 1255 757 q 1494 655 1417 757 l 1443 578 q 1295 667 1383 667 q 1209 632 1241 667 q 1177 565 1177 598 q 1201 504 1177 532 q 1291 434 1225 477 q 1435 305 1406 359 q 1464 196 1464 251 q 1397 40 1464 99 q 1230 -19 1330 -19 q 999 102 1093 -19 l 1057 169 q 1235 70 1139 70 q 1328 105 1284 70 q 1372 198 1372 141 q 1346 271 1372 240 q 1236 360 1321 302 q 1125 451 1166 408 q 1085 559 1085 495 q 1110 655 1085 610 l 967 655 l 877 0 l 783 0 l 872 655 l 752 655 q 677 547 728 591 q 563 487 627 503 q 359 472 499 472 l 207 472 l 144 0 l 44 0 l 177 998 l 450 998 q 639 974 583 998 q 734 897 695 951 q 773 762 773 843 q 771 738 773 750 m 266 902 l 219 570 l 359 570 q 537 583 481 570 q 632 645 592 597 q 673 760 673 693 q 648 844 673 809 q 582 890 624 878 q 444 902 540 902 l 266 902 "},"л":{"x_min":-66.453125,"x_max":627.984375,"ha":720,"o":"m 627 0 l 526 0 l 351 537 l 34 0 l -66 0 l 370 738 l 387 738 l 627 0 "},"σ":{"x_min":38,"x_max":979.359375,"ha":996,"o":"m 576 738 l 979 738 l 968 655 l 707 655 q 801 404 801 554 q 682 105 801 230 q 378 -19 564 -19 q 133 77 229 -19 q 38 326 38 174 q 161 632 38 508 q 461 757 284 757 q 576 738 522 757 m 132 331 q 202 142 132 215 q 389 69 273 69 q 624 172 540 69 q 708 405 708 275 q 634 599 708 531 q 459 667 559 667 q 227 572 322 667 q 132 331 132 478 "},"θ":{"x_min":43,"x_max":828,"ha":910,"o":"m 365 -19 q 126 90 210 -19 q 43 389 43 199 q 166 845 43 649 q 507 1042 290 1042 q 749 924 671 1042 q 828 630 828 807 q 705 175 828 369 q 365 -19 582 -19 m 730 553 q 734 624 734 590 q 673 869 734 783 q 495 955 612 955 q 276 846 366 955 q 152 553 186 737 l 730 553 m 719 470 l 141 470 q 137 386 137 426 q 376 68 137 68 q 598 174 509 68 q 719 470 687 280 "}," ":{"x_min":0,"x_max":0,"ha":385},"∑":{"x_min":83,"x_max":940,"ha":990,"o":"m 94 1042 l 933 1042 l 933 931 l 262 931 l 674 390 l 236 -180 l 940 -180 l 940 -289 l 83 -289 l 83 -162 l 502 386 l 94 922 l 94 1042 "},"Ώ":{"x_min":-36.984375,"x_max":1064,"ha":1161,"o":"m 667 94 l 966 94 l 953 0 l 566 0 l 584 133 q 964 615 964 329 q 868 843 964 759 q 616 928 772 928 q 298 802 426 928 q 170 496 170 677 q 214 331 170 409 q 423 133 258 254 l 405 0 l 32 0 l 44 94 l 331 94 q 71 498 71 272 q 228 868 71 714 q 629 1022 385 1022 q 944 910 824 1022 q 1064 625 1064 798 q 667 94 1064 270 m 87 1023 l 37 794 l -36 794 l -36 1023 l 87 1023 "},"+":{"x_min":78,"x_max":764,"ha":841,"o":"m 374 545 l 374 840 l 467 840 l 467 545 l 764 545 l 764 452 l 467 452 l 467 158 l 374 158 l 374 452 l 78 452 l 78 545 l 374 545 "},"ẃ":{"x_min":47.46875,"x_max":1128.46875,"ha":1154,"o":"m 47 738 l 141 738 l 293 217 l 571 738 l 587 738 l 755 211 l 1026 738 l 1128 738 l 747 0 l 728 0 l 557 520 l 280 0 l 262 0 l 47 738 m 721 1084 l 867 1084 l 637 875 l 543 875 l 721 1084 "},"Ë":{"x_min":32.828125,"x_max":717.046875,"ha":746,"o":"m 717 998 l 702 901 l 253 901 l 209 574 l 658 574 l 645 478 l 196 478 l 145 96 l 594 96 l 583 0 l 32 0 l 166 998 l 717 998 m 329 1232 q 378 1212 358 1232 q 398 1164 398 1192 q 370 1102 398 1129 q 306 1075 342 1075 q 258 1094 277 1075 q 239 1142 239 1113 q 266 1204 239 1177 q 329 1232 293 1232 m 606 1232 q 655 1212 636 1232 q 675 1164 675 1192 q 647 1102 675 1129 q 583 1075 619 1075 q 535 1094 554 1075 q 516 1142 516 1113 q 543 1204 516 1177 q 606 1232 570 1232 "},"Š":{"x_min":10.265625,"x_max":665.6875,"ha":692,"o":"m 629 813 l 534 789 q 472 889 515 852 q 378 926 428 926 q 287 888 322 926 q 253 787 253 850 q 290 671 253 732 q 401 553 313 633 q 529 399 493 470 q 566 259 566 327 q 526 119 566 186 q 419 13 486 52 q 276 -25 352 -25 q 111 36 181 -25 q 10 215 40 97 l 102 246 q 173 113 124 156 q 285 70 221 70 q 410 123 358 70 q 463 255 463 177 q 433 368 463 313 q 317 500 403 423 q 197 629 225 584 q 152 786 152 704 q 218 956 152 889 q 384 1023 285 1023 q 533 970 468 1023 q 629 813 598 917 m 439 1074 l 345 1074 l 173 1248 l 295 1248 l 400 1145 l 539 1248 l 665 1248 l 439 1074 "},"ð":{"x_min":41,"x_max":803,"ha":909,"o":"m 319 1022 l 447 1022 q 537 962 497 995 l 660 1008 l 684 940 l 599 908 q 749 691 695 813 q 803 440 803 569 q 746 206 803 308 q 588 42 689 103 q 375 -19 486 -19 q 207 24 282 -19 q 86 151 131 68 q 41 330 41 235 q 99 536 41 434 q 257 697 158 637 q 455 757 355 757 q 646 686 568 757 q 514 876 595 792 l 360 818 l 333 886 l 453 930 q 319 1022 390 978 m 470 661 q 305 615 384 661 q 179 491 225 569 q 134 329 134 414 q 166 196 134 257 q 255 103 199 135 q 379 72 310 72 q 536 119 458 72 q 659 246 614 166 q 705 416 705 326 q 638 593 705 525 q 470 661 571 661 "},"щ":{"x_min":27.8125,"x_max":1326.5,"ha":1368,"o":"m 27 0 l 127 738 l 224 738 l 136 90 l 542 90 l 630 738 l 727 738 l 640 90 l 1046 90 l 1132 738 l 1228 738 l 1143 90 l 1294 90 l 1266 -117 l 1185 -117 l 1200 0 l 27 0 m 1326 0 l 1326 0 "},"℮":{"x_min":35,"x_max":749,"ha":834,"o":"m 192 360 l 192 108 q 394 27 273 27 q 661 193 566 27 l 710 164 q 553 12 630 48 q 394 -23 476 -23 q 135 84 236 -23 q 35 360 35 192 q 136 637 35 531 q 395 744 238 744 q 645 647 541 744 q 749 360 749 550 l 192 360 m 596 410 l 596 611 q 392 694 511 694 q 192 611 274 694 l 192 410 l 596 410 "},"Φ":{"x_min":45,"x_max":1109,"ha":1194,"o":"m 571 103 l 558 0 l 460 0 l 473 105 q 160 200 275 105 q 45 452 45 296 q 189 786 45 665 q 581 907 333 907 l 593 997 l 691 997 l 679 905 q 993 809 877 905 q 1109 556 1109 713 q 965 223 1109 343 q 571 103 822 103 m 485 202 l 569 807 q 145 460 145 807 q 485 202 145 202 m 667 808 l 583 204 q 1008 549 1008 204 q 667 808 1008 808 "},"ş":{"x_min":-23.765625,"x_max":470.53125,"ha":539,"o":"m 470 654 l 418 578 q 270 667 356 667 q 187 635 222 667 q 153 564 153 603 q 174 507 153 534 q 267 433 194 480 q 406 314 372 365 q 440 195 440 263 q 375 42 440 103 q 206 -19 310 -19 q -23 102 69 -19 l 33 169 q 212 69 115 69 q 307 108 266 69 q 348 197 348 147 q 318 277 348 239 q 212 359 298 301 q 90 465 119 423 q 61 559 61 507 q 122 699 61 641 q 278 757 184 757 q 379 734 334 757 q 470 654 424 712 m 181 0 l 240 0 l 217 -80 q 244 -78 234 -78 q 293 -95 274 -78 q 313 -139 313 -113 q 266 -222 313 -187 q 141 -258 220 -258 q 31 -237 81 -258 l 52 -190 q 132 -204 94 -204 q 207 -190 185 -204 q 230 -157 230 -176 q 219 -138 230 -146 q 191 -130 209 -130 q 143 -137 175 -130 l 181 0 "},"ı":{"x_min":9.5,"x_max":201.421875,"ha":278,"o":"m 111 738 l 201 738 l 103 0 l 9 0 l 111 738 "},"ä":{"x_min":41,"x_max":859.46875,"ha":950,"o":"m 761 0 l 665 0 l 679 111 q 385 -19 551 -19 q 138 78 235 -19 q 41 327 41 175 q 166 630 41 503 q 462 757 292 757 q 624 718 555 757 q 744 597 694 679 l 761 738 l 859 738 l 761 0 m 395 68 q 562 111 487 68 q 681 234 637 154 q 726 410 726 315 q 653 596 726 525 q 465 668 580 668 q 231 570 328 668 q 135 329 135 472 q 207 139 135 211 q 395 68 280 68 m 407 1029 q 456 1009 436 1029 q 476 961 476 989 q 448 899 476 926 q 384 872 420 872 q 336 891 355 872 q 317 939 317 910 q 344 1001 317 974 q 407 1029 371 1029 m 684 1029 q 733 1009 714 1029 q 753 961 753 989 q 725 899 753 926 q 661 872 697 872 q 613 891 632 872 q 594 939 594 910 q 621 1001 594 974 q 684 1029 648 1029 "},"¹":{"x_min":170.21875,"x_max":337.734375,"ha":461,"o":"m 200 1010 l 337 1010 l 256 497 l 182 497 l 252 944 l 170 944 l 200 1010 "},"W":{"x_min":85.453125,"x_max":1357.6875,"ha":1333,"o":"m 85 998 l 182 998 l 320 256 l 706 998 l 725 998 l 899 256 l 1252 998 l 1357 998 l 881 0 l 863 0 l 687 751 l 290 0 l 271 0 l 85 998 "},"λ":{"x_min":-59,"x_max":638.15625,"ha":745,"o":"m 638 0 l 541 0 l 370 568 l 41 0 l -59 0 l 335 682 l 231 1023 l 327 1023 l 638 0 "},">":{"x_min":71,"x_max":772,"ha":843,"o":"m 71 235 l 640 497 l 71 762 l 71 862 l 772 542 l 772 454 l 71 136 l 71 235 "},"τ":{"x_min":33.90625,"x_max":535.078125,"ha":558,"o":"m 524 655 l 326 655 l 238 0 l 145 0 l 232 655 l 33 655 l 44 738 l 535 738 l 524 655 "},"Ų":{"x_min":66,"x_max":842.75,"ha":910,"o":"m 157 997 l 256 997 l 181 426 q 166 264 166 312 q 219 120 166 170 q 371 69 273 69 q 492 92 439 69 q 582 160 545 115 q 635 261 619 204 q 682 515 662 362 l 744 997 l 842 997 l 776 493 l 760 370 q 726 223 745 284 q 674 116 706 162 q 601 39 642 69 q 503 -7 561 9 q 373 -25 445 -25 q 146 49 226 -25 q 66 247 66 124 q 70 324 66 282 l 84 441 l 157 997 m 393 0 l 467 0 q 366 -138 366 -76 q 387 -187 366 -168 q 454 -206 409 -206 q 502 -202 475 -206 l 488 -260 q 429 -267 458 -267 q 325 -236 359 -267 q 291 -158 291 -205 q 318 -75 291 -119 q 393 0 345 -30 "},"Ŵ":{"x_min":85.453125,"x_max":1357.6875,"ha":1333,"o":"m 85 998 l 182 998 l 320 256 l 706 998 l 725 998 l 899 256 l 1252 998 l 1357 998 l 881 0 l 863 0 l 687 751 l 290 0 l 271 0 l 85 998 m 699 1248 l 793 1248 l 965 1074 l 843 1074 l 738 1176 l 599 1074 l 473 1074 l 699 1248 "},"Ð":{"x_min":29.953125,"x_max":996,"ha":1098,"o":"m 156 454 l 29 454 l 42 544 l 167 544 l 227 998 l 442 998 q 754 944 645 998 q 929 779 863 891 q 996 525 996 668 q 921 242 996 372 q 736 56 846 113 q 409 0 626 0 l 95 0 l 156 454 m 254 454 l 206 97 l 294 97 q 562 107 497 97 q 731 172 662 124 q 849 315 800 219 q 898 523 898 410 q 842 730 898 642 q 691 864 786 819 q 413 902 608 902 l 314 902 l 266 544 l 509 544 l 497 454 l 254 454 "},"Λ":{"x_min":-63.0625,"x_max":858.5625,"ha":975,"o":"m 858 0 l 758 0 l 510 790 l 47 0 l -63 0 l 521 998 l 544 998 l 858 0 "},"‛":{"x_min":205,"x_max":355.828125,"ha":487,"o":"m 235 649 q 205 797 205 719 q 223 954 205 856 l 236 1023 l 355 1023 l 328 835 l 269 835 q 267 797 267 810 q 289 678 267 750 l 235 649 "},"·":{"x_min":124,"x_max":289,"ha":384,"o":"m 289 673 q 264 614 289 638 q 206 591 240 591 q 147 614 171 591 q 124 673 124 638 q 148 732 124 708 q 206 757 172 757 q 264 732 240 757 q 289 673 289 708 "},"Х":{"x_min":-31.203125,"x_max":839.578125,"ha":846,"o":"m 147 998 l 252 998 l 429 609 l 722 998 l 839 998 l 473 514 l 709 0 l 604 0 l 408 425 l 86 0 l -31 0 l 364 523 l 147 998 "},"Υ":{"x_min":56.28125,"x_max":855.171875,"ha":822,"o":"m 56 998 l 160 998 l 374 544 l 734 998 l 855 998 l 413 442 l 352 0 l 254 0 l 315 447 l 56 998 "},"r":{"x_min":-10.171875,"x_max":457.09375,"ha":418,"o":"m 90 738 l 184 738 l 172 644 q 263 727 210 697 q 373 757 317 757 q 457 738 413 757 l 412 650 q 353 665 377 665 q 255 630 303 665 q 176 529 206 595 q 125 312 146 463 l 82 0 l -10 0 l 90 738 "},"ж":{"x_min":-81.375,"x_max":1075.578125,"ha":1084,"o":"m 511 738 l 607 738 l 561 404 l 959 738 l 1075 738 l 674 404 l 993 0 l 880 0 l 607 356 l 549 311 l 507 0 l 411 0 l 453 311 l 406 356 l 40 0 l -81 0 l 345 409 l 47 738 l 153 738 l 464 396 l 511 738 "},"Ø":{"x_min":48,"x_max":1116,"ha":1206,"o":"m 989 882 q 1116 556 1116 753 q 946 142 1116 310 q 523 -25 776 -25 q 253 43 365 -25 l 164 -59 l 98 0 l 183 98 q 48 441 48 229 q 124 734 48 601 q 339 945 201 868 q 638 1023 476 1023 q 920 941 797 1023 l 1002 1035 l 1071 976 l 989 882 m 247 172 l 856 869 q 632 929 763 929 q 387 865 500 929 q 210 687 274 801 q 146 445 146 574 q 173 294 146 365 q 247 172 200 222 m 925 810 l 319 117 q 522 69 409 69 q 770 133 655 69 q 950 313 885 198 q 1016 562 1016 428 q 925 810 1016 709 "},"÷":{"x_min":38,"x_max":724,"ha":762,"o":"m 313 819 l 449 819 l 449 682 l 313 682 l 313 819 m 38 545 l 724 545 l 724 452 l 38 452 l 38 545 m 313 316 l 449 316 l 449 177 l 313 177 l 313 316 "},"с":{"x_min":41,"x_max":812.859375,"ha":899,"o":"m 812 578 l 734 533 q 483 666 652 666 q 305 622 386 666 q 179 502 224 579 q 134 336 134 424 q 167 197 134 258 q 263 102 201 135 q 407 69 324 69 q 571 102 493 69 q 692 190 648 136 l 770 135 q 611 18 696 55 q 412 -19 525 -19 q 139 76 237 -19 q 41 330 41 171 q 169 631 41 506 q 484 757 298 757 q 681 709 596 757 q 812 578 767 662 "},"Ỳ":{"x_min":56.28125,"x_max":855.171875,"ha":822,"o":"m 56 998 l 160 998 l 374 544 l 734 998 l 855 998 l 413 442 l 352 0 l 254 0 l 315 447 l 56 998 m 417 1285 l 535 1076 l 442 1076 l 271 1285 l 417 1285 "},"h":{"x_min":27.859375,"x_max":720,"ha":847,"o":"m 168 1023 l 260 1023 l 206 626 q 466 757 320 757 q 649 687 578 757 q 720 505 720 617 q 705 339 720 443 l 659 0 l 565 0 l 611 339 q 626 502 626 442 q 578 625 626 578 q 453 672 531 672 q 317 633 381 672 q 218 528 253 594 q 164 319 183 463 l 120 0 l 27 0 l 168 1023 "},"f":{"x_min":55.609375,"x_max":451.65625,"ha":436,"o":"m 451 997 l 438 908 q 343 957 387 957 q 294 929 314 957 q 262 816 273 901 l 250 738 l 402 738 l 392 655 l 240 655 l 148 0 l 55 0 l 148 655 l 55 655 l 65 738 l 159 738 l 168 803 q 202 956 184 917 q 257 1018 221 995 q 336 1042 292 1042 q 451 997 393 1042 "},"“":{"x_min":130.203125,"x_max":584.578125,"ha":697,"o":"m 535 1022 l 584 993 q 535 904 547 931 q 515 837 524 877 l 575 837 l 548 649 l 429 649 l 438 732 q 469 898 448 837 q 535 1022 491 959 m 236 1022 l 285 993 q 236 904 248 931 q 216 837 225 877 l 276 837 l 249 649 l 130 649 l 139 732 q 170 898 149 837 q 236 1022 192 959 "},"A":{"x_min":-19.671875,"x_max":912.140625,"ha":1027,"o":"m 577 997 l 912 0 l 809 0 l 700 326 l 278 326 l 91 0 l -19 0 l 554 997 l 577 997 m 545 788 l 332 421 l 669 421 l 545 788 "},"O":{"x_min":49,"x_max":1117,"ha":1207,"o":"m 647 1023 q 983 890 849 1023 q 1117 556 1117 758 q 947 142 1117 310 q 523 -25 777 -25 q 178 103 308 -25 q 49 441 49 232 q 126 736 49 601 q 341 946 204 870 q 647 1023 478 1023 m 645 929 q 390 866 502 929 q 212 689 277 804 q 147 445 147 574 q 194 248 147 335 q 325 115 241 161 q 522 69 409 69 q 771 133 656 69 q 951 313 886 198 q 1017 562 1017 428 q 892 842 1017 739 q 645 929 789 929 "},"Đ":{"x_min":29.953125,"x_max":996,"ha":1098,"o":"m 156 454 l 29 454 l 42 544 l 167 544 l 227 998 l 442 998 q 754 944 645 998 q 929 779 863 891 q 996 525 996 668 q 921 242 996 372 q 736 56 846 113 q 409 0 626 0 l 95 0 l 156 454 m 254 454 l 206 97 l 294 97 q 562 107 497 97 q 731 172 662 124 q 849 315 800 219 q 898 523 898 410 q 842 730 898 642 q 691 864 786 819 q 413 902 608 902 l 314 902 l 266 544 l 509 544 l 497 454 l 254 454 "}}}
