if (_typeface_js && _typeface_js.loadFace) _typeface_js.loadFace({"glyphs":{"ǻ":{"x_min":39,"x_max":848.953125,"ha":917,"o":"m 667 738 l 848 738 l 752 0 l 573 0 l 583 79 q 473 2 524 24 q 358 -19 422 -19 q 125 88 211 -19 q 39 339 39 196 q 93 547 39 449 q 241 701 148 646 q 434 757 333 757 q 560 725 502 757 q 655 634 617 694 l 667 738 m 400 142 q 516 171 466 142 q 599 265 565 201 q 633 395 633 329 q 582 536 633 483 q 449 590 532 590 q 286 518 353 590 q 219 334 219 447 q 269 194 219 247 q 400 142 320 142 m 528 1142 q 619 1105 583 1142 q 655 1010 655 1069 q 602 891 655 943 q 483 839 550 839 q 391 876 427 839 q 355 970 355 913 q 406 1091 355 1040 q 528 1142 457 1142 m 515 1055 q 468 1034 488 1055 q 449 986 449 1014 q 462 949 449 963 q 496 935 475 935 q 541 955 521 935 q 561 1002 561 975 q 547 1040 561 1025 q 515 1055 534 1055 m 588 1468 l 808 1468 l 522 1203 l 389 1203 l 588 1468 "},"Á":{"x_min":-16.28125,"x_max":928.40625,"ha":1027,"o":"m 522 997 l 680 997 l 928 0 l 746 0 l 693 212 l 299 212 l 185 0 l -16 0 l 522 997 m 648 388 l 568 715 l 392 388 l 648 388 m 680 1360 l 899 1360 l 613 1095 l 480 1095 l 680 1360 "},"ĥ":{"x_min":30.890625,"x_max":777.75,"ha":833,"o":"m 169 1023 l 348 1023 l 300 663 q 515 757 403 757 q 672 696 611 757 q 733 543 733 635 q 721 413 733 499 l 666 0 l 487 0 l 540 403 q 549 497 549 465 q 523 565 549 541 q 451 590 498 590 q 360 558 405 590 q 290 470 315 526 q 245 261 266 415 l 211 0 l 30 0 l 169 1023 m 454 1265 l 602 1265 l 777 1074 l 576 1074 l 515 1162 l 426 1074 l 223 1074 l 454 1265 "},"Κ":{"x_min":50.1875,"x_max":878.234375,"ha":861,"o":"m 183 998 l 370 998 l 324 658 l 646 998 l 878 998 l 443 541 l 787 0 l 577 0 l 296 443 l 236 0 l 50 0 l 183 998 "},"»":{"x_min":-53.578125,"x_max":604.25,"ha":639,"o":"m 425 0 l 253 0 l 432 373 l 358 738 l 531 738 l 604 373 l 425 0 m 118 0 l -53 0 l 124 373 l 51 738 l 223 738 l 297 373 l 118 0 "},"∆":{"x_min":17.625,"x_max":831.4375,"ha":850,"o":"m 831 0 l 17 0 l 443 941 l 831 0 m 671 56 l 400 711 l 102 56 l 671 56 "},"ў":{"x_min":28.84375,"x_max":799.921875,"ha":806,"o":"m 30 738 l 208 738 l 352 299 l 604 738 l 799 738 l 220 -270 l 28 -270 l 238 100 l 30 738 m 176 1062 l 326 1062 q 361 1023 338 1035 q 445 1007 395 1007 q 524 1020 491 1007 q 578 1063 558 1034 l 728 1063 q 624 924 702 975 q 426 873 546 873 q 238 925 301 873 q 176 1062 176 977 "},"ţ":{"x_min":21.015625,"x_max":425.890625,"ha":416,"o":"m 168 1012 l 349 1012 l 311 738 l 425 738 l 404 582 l 290 582 l 210 0 l 29 0 l 109 582 l 21 582 l 42 738 l 130 738 l 168 1012 m 56 -82 l 177 -82 l 174 -101 q 145 -221 162 -188 q 81 -290 128 -254 l 50 -253 q 100 -194 85 -227 l 40 -194 l 56 -82 "},"«":{"x_min":-2.03125,"x_max":655.796875,"ha":639,"o":"m 176 738 l 348 738 l 170 364 l 243 0 l 70 0 l -2 364 l 176 738 m 484 738 l 655 738 l 477 364 l 550 0 l 378 0 l 305 364 l 484 738 "},"í":{"x_min":6.78125,"x_max":510.65625,"ha":333,"o":"m 107 738 l 286 738 l 187 0 l 6 0 l 107 738 m 291 1138 l 510 1138 l 225 872 l 92 872 l 291 1138 "},"◦":{"x_min":76,"x_max":417,"ha":493,"o":"m 246 630 q 366 581 315 630 q 417 459 417 532 q 367 338 417 388 q 246 289 317 289 q 125 338 175 289 q 76 459 76 388 q 126 580 76 530 q 246 630 176 630 m 246 578 q 163 544 198 578 q 128 459 128 510 q 162 375 128 410 q 246 341 197 341 q 330 375 295 341 q 365 459 365 410 q 329 543 365 509 q 246 578 294 578 "},"ņ":{"x_min":31.59375,"x_max":734,"ha":834,"o":"m 131 738 l 311 738 l 300 663 q 516 757 404 757 q 672 696 611 757 q 734 543 734 635 q 722 413 734 499 l 667 0 l 487 0 l 541 403 q 550 497 550 465 q 524 565 550 541 q 452 590 499 590 q 361 558 406 590 q 291 470 315 526 q 246 261 266 415 l 211 0 l 31 0 l 131 738 m 275 -8 q 340 -8 317 -8 q 452 -39 419 -8 q 485 -112 485 -70 q 433 -212 485 -166 q 291 -259 382 -259 q 163 -234 235 -259 l 199 -146 q 273 -157 245 -157 q 351 -102 351 -157 q 301 -70 351 -70 q 249 -73 284 -70 l 275 -8 m 480 -20 l 480 -20 "},"µ":{"x_min":-47.140625,"x_max":764.625,"ha":800,"o":"m -47 -270 l 103 737 l 283 737 l 224 349 q 216 266 216 292 q 253 174 216 211 q 346 137 291 137 q 428 159 390 137 q 490 226 466 182 q 527 355 515 270 l 585 738 l 764 738 l 653 0 l 475 0 l 487 85 q 407 4 449 28 q 319 -20 366 -20 q 240 4 274 -20 q 184 80 205 28 l 131 -270 l -47 -270 "},"ỳ":{"x_min":28.484375,"x_max":799.5625,"ha":806,"o":"m 30 738 l 208 738 l 351 299 l 604 738 l 799 738 l 219 -270 l 28 -270 l 238 100 l 30 738 m 185 1138 l 403 1138 l 526 872 l 394 872 l 185 1138 "},"Ι":{"x_min":39.328125,"x_max":356.71875,"ha":389,"o":"m 173 998 l 356 998 l 219 0 l 39 0 l 173 998 "},"Ύ":{"x_min":-1,"x_max":1071.171875,"ha":1022,"o":"m 227 998 l 416 998 l 572 598 l 856 998 l 1071 998 l 645 398 l 591 0 l 404 0 l 459 398 l 227 998 m 193 1023 l 129 764 l -1 764 l -1 1023 l 193 1023 "},"ѕ":{"x_min":-18.875,"x_max":535.703125,"ha":611,"o":"m 535 635 l 449 496 q 379 569 416 546 q 311 593 343 593 q 269 579 286 593 q 253 548 253 565 q 266 516 253 532 q 344 453 279 500 q 481 325 448 378 q 514 209 514 272 q 446 54 514 127 q 250 -19 379 -19 q 116 10 177 -19 q -18 120 55 40 l 93 250 q 259 150 168 150 q 316 167 295 150 q 338 208 338 184 q 321 247 338 227 q 232 318 305 267 q 116 421 148 378 q 72 547 72 481 q 142 698 72 640 q 307 757 212 757 q 435 725 375 757 q 535 635 495 693 "},"Ш":{"x_min":46.796875,"x_max":1300.046875,"ha":1346,"o":"m 533 171 l 644 997 l 836 997 l 724 171 l 996 171 l 1108 997 l 1300 997 l 1165 0 l 46 0 l 181 997 l 373 997 l 262 171 l 533 171 "},"M":{"x_min":0.828125,"x_max":1106,"ha":1250,"o":"m 255 998 l 424 998 l 593 302 l 938 998 l 1106 998 l 1106 0 l 934 0 l 934 597 l 634 0 l 491 0 l 339 626 l 179 0 l 0 0 l 255 998 "},"Ψ":{"x_min":105,"x_max":1119.046875,"ha":1141,"o":"m 1119 998 l 1070 631 q 628 267 1022 267 l 594 0 l 407 0 l 441 250 q 105 595 105 297 q 110 672 105 632 l 154 998 l 341 998 l 297 674 q 291 597 291 629 q 330 475 291 515 q 464 420 369 434 l 543 998 l 729 998 l 651 419 q 818 494 765 437 q 889 681 871 550 l 932 998 l 1119 998 "},"ũ":{"x_min":76,"x_max":768.71875,"ha":834,"o":"m 132 738 l 311 738 l 262 360 q 254 267 254 298 q 287 185 254 218 q 376 152 321 152 q 483 194 445 152 q 538 368 521 237 l 589 738 l 768 738 l 715 341 q 653 133 696 206 q 539 20 610 59 q 371 -19 468 -19 q 156 59 236 -19 q 76 261 76 137 q 92 457 76 337 l 132 738 m 250 874 l 192 986 q 294 1038 252 1025 q 378 1052 336 1052 q 460 1038 409 1052 q 574 1016 541 1016 q 695 1050 631 1016 l 751 944 q 656 886 682 896 q 574 872 615 872 q 473 890 532 872 q 413 907 425 904 q 376 910 397 910 q 250 874 310 910 "},"ŭ":{"x_min":76,"x_max":768.71875,"ha":834,"o":"m 132 738 l 311 738 l 262 360 q 254 267 254 298 q 287 185 254 218 q 376 152 321 152 q 483 194 445 152 q 538 368 521 237 l 589 738 l 768 738 l 715 341 q 653 133 696 206 q 539 20 610 59 q 371 -19 468 -19 q 156 59 236 -19 q 76 261 76 137 q 92 457 76 337 l 132 738 m 214 1062 l 364 1062 q 399 1023 376 1035 q 483 1007 433 1007 q 562 1020 529 1007 q 616 1063 596 1034 l 766 1063 q 662 924 740 975 q 464 873 584 873 q 276 925 339 873 q 214 1062 214 977 "},"―":{"x_min":-22,"x_max":1036,"ha":1042,"o":"m -22 318 l -22 482 l 1036 482 l 1036 318 l -22 318 "},"{":{"x_min":-11.328125,"x_max":555.875,"ha":472,"o":"m -11 263 l 11 429 q 106 451 73 429 q 163 530 140 474 q 194 671 180 571 q 219 812 208 772 q 273 921 238 883 q 378 982 308 959 q 519 998 424 998 l 555 998 l 532 835 q 432 825 456 835 q 397 797 408 816 q 373 696 389 782 q 334 504 346 538 q 284 414 313 449 q 198 345 254 379 q 288 170 288 289 q 274 -4 288 120 q 268 -84 268 -67 q 300 -133 268 -118 q 395 -144 320 -144 l 372 -306 l 336 -306 q 185 -287 232 -306 q 112 -229 137 -268 q 87 -130 87 -190 q 101 9 87 -83 q 114 140 114 93 q 80 236 114 199 q -11 263 55 263 "},"¼":{"x_min":159.375,"x_max":1130.515625,"ha":1166,"o":"m 202 1010 l 391 1010 l 308 497 l 184 497 l 249 906 l 159 906 l 202 1010 m 200 -24 l 870 1023 l 986 1023 l 316 -24 l 200 -24 m 1013 526 l 1127 526 l 1074 195 l 1130 195 l 1114 95 l 1059 95 l 1044 0 l 931 0 l 946 95 l 691 95 l 706 190 l 1013 526 m 985 359 l 838 195 l 961 195 l 985 359 "},"ι":{"x_min":6.78125,"x_max":286.1875,"ha":333,"o":"m 107 738 l 286 738 l 187 0 l 6 0 l 107 738 "},"Ĳ":{"x_min":39.328125,"x_max":1012.5,"ha":1055,"o":"m 173 998 l 356 998 l 219 0 l 39 0 l 173 998 m 824 998 l 1012 998 l 918 293 q 875 104 901 170 q 789 7 848 39 q 661 -25 730 -25 q 484 31 564 -25 q 357 178 404 87 l 505 268 q 652 153 580 153 q 703 180 687 153 q 728 283 719 207 l 824 998 "},"Ê":{"x_min":35.265625,"x_max":736.484375,"ha":722,"o":"m 166 998 l 708 998 l 684 821 l 332 821 l 303 615 l 657 615 l 635 439 l 281 439 l 246 174 l 602 174 l 578 0 l 35 0 l 166 998 m 413 1265 l 560 1265 l 736 1074 l 534 1074 l 473 1162 l 385 1074 l 181 1074 l 413 1265 "},"Ά":{"x_min":-15.921875,"x_max":928.765625,"ha":1027,"o":"m 522 997 l 680 997 l 928 0 l 747 0 l 694 212 l 300 212 l 185 0 l -15 0 l 522 997 m 648 388 l 568 716 l 393 388 l 648 388 m 330 1023 l 266 764 l 136 764 l 136 1023 l 330 1023 "},")":{"x_min":-151.859375,"x_max":387,"ha":527,"o":"m 83 -289 l -151 -289 q 194 558 194 42 q 160 797 194 691 q 36 1042 126 902 l 270 1042 q 360 808 333 917 q 387 576 387 700 q 352 258 387 417 q 254 -28 317 99 q 83 -289 191 -156 "},"ε":{"x_min":16,"x_max":577.203125,"ha":609,"o":"m 536 65 q 277 -19 427 -19 q 95 31 175 -19 q 16 184 16 82 q 179 394 16 336 q 96 533 96 446 q 176 696 96 635 q 373 757 256 757 q 577 681 491 757 l 487 553 q 372 598 424 598 q 300 575 330 598 q 270 517 270 553 q 298 465 270 485 q 366 445 326 445 l 402 445 l 385 313 l 337 313 q 253 289 292 313 q 214 222 214 266 q 243 166 214 188 q 313 145 273 145 q 472 206 386 145 l 536 65 "},"э":{"x_min":-16.4375,"x_max":768,"ha":841,"o":"m 559 292 l 310 292 l 332 453 l 579 453 q 529 548 579 509 q 390 588 479 588 q 179 504 273 588 l 37 588 q 403 757 189 757 q 665 667 563 757 q 768 420 768 578 q 644 106 768 232 q 317 -19 521 -19 q 137 9 220 -19 q -16 135 54 38 l 142 235 q 334 147 194 147 q 559 292 495 147 "},"ш":{"x_min":31.203125,"x_max":1195.609375,"ha":1263,"o":"m 1094 0 l 31 0 l 130 737 l 316 737 l 240 177 l 494 177 l 570 737 l 756 737 l 680 177 l 933 177 l 1009 737 l 1195 737 l 1094 0 "},"Я":{"x_min":-16.640625,"x_max":773.90625,"ha":819,"o":"m 773 998 l 638 0 l 449 0 l 503 402 l 445 402 l 190 0 l -16 0 l 270 439 q 119 677 119 506 q 181 868 119 785 q 327 975 243 952 q 571 998 412 998 l 773 998 m 528 587 l 558 812 l 496 812 q 391 804 423 812 q 333 764 359 797 q 308 688 308 732 q 458 587 308 587 l 528 587 "},"a":{"x_min":39,"x_max":848.65625,"ha":917,"o":"m 667 738 l 848 738 l 752 0 l 573 0 l 583 79 q 473 2 524 24 q 358 -19 422 -19 q 125 88 211 -19 q 39 339 39 196 q 93 547 39 449 q 241 701 148 646 q 435 757 333 757 q 560 725 502 757 q 654 634 617 694 l 667 738 m 400 142 q 516 171 466 142 q 599 265 565 201 q 633 395 633 329 q 582 536 633 483 q 449 590 532 590 q 286 518 353 590 q 219 334 219 447 q 269 194 219 247 q 400 142 320 142 "},"Ę":{"x_min":34.96875,"x_max":707.546875,"ha":722,"o":"m 165 997 l 707 997 l 684 820 l 331 820 l 303 614 l 657 614 l 634 438 l 281 438 l 245 173 l 601 173 l 578 0 l 34 0 l 165 997 m 434 0 l 531 0 q 420 -121 420 -61 q 437 -160 420 -145 q 482 -175 454 -175 q 544 -156 505 -175 l 529 -264 q 440 -275 481 -275 q 328 -243 365 -275 q 292 -163 292 -212 q 327 -74 292 -118 q 434 0 363 -30 "},"Z":{"x_min":12.203125,"x_max":687.65625,"ha":694,"o":"m 124 998 l 687 998 l 291 174 l 605 174 l 582 0 l 12 0 l 408 822 l 99 822 l 124 998 "},"k":{"x_min":31.203125,"x_max":812.453125,"ha":806,"o":"m 166 1023 l 345 1023 l 272 480 l 564 738 l 812 738 l 439 409 l 765 0 l 548 0 l 257 363 l 208 0 l 31 0 l 166 1023 "},"Ù":{"x_min":85,"x_max":853.578125,"ha":889,"o":"m 175 998 l 362 998 l 279 382 q 269 268 269 301 q 303 180 269 212 q 405 149 338 149 q 498 172 458 149 q 546 231 528 190 q 581 394 564 272 l 665 998 l 853 998 l 772 402 q 706 138 747 218 q 588 16 665 58 q 401 -25 511 -25 q 168 54 251 -25 q 85 271 85 133 q 101 447 85 331 l 175 998 m 340 1361 l 558 1361 l 682 1095 l 549 1095 l 340 1361 "},"Ů":{"x_min":85,"x_max":853.203125,"ha":888,"o":"m 175 998 l 361 998 l 279 382 q 269 268 269 301 q 303 180 269 212 q 404 149 338 149 q 498 172 458 149 q 545 231 528 190 q 580 394 563 272 l 664 998 l 853 998 l 771 402 q 706 138 746 218 q 588 16 665 58 q 400 -25 511 -25 q 168 54 251 -25 q 85 271 85 133 q 101 447 85 331 l 175 998 m 537 1397 q 628 1361 592 1397 q 664 1266 664 1325 q 611 1147 664 1199 q 492 1095 559 1095 q 400 1132 436 1095 q 364 1225 364 1169 q 415 1346 364 1296 q 537 1397 466 1397 m 524 1310 q 477 1289 497 1310 q 458 1242 458 1269 q 471 1205 458 1219 q 505 1191 484 1191 q 550 1211 530 1191 q 570 1258 570 1231 q 556 1295 570 1281 q 524 1310 543 1310 "},"¢":{"x_min":11.0625,"x_max":792.765625,"ha":778,"o":"m 703 920 l 792 862 l 684 697 q 752 643 720 673 l 652 517 q 596 560 625 541 l 329 148 q 390 139 364 139 q 491 167 436 139 q 587 244 545 195 l 684 113 q 533 7 607 39 q 376 -25 459 -25 q 236 3 303 -25 l 100 -205 l 11 -148 l 149 63 q 47 319 47 166 q 105 542 47 437 q 262 704 163 646 q 473 763 361 763 q 587 743 528 763 l 703 920 m 495 600 l 462 600 q 290 520 364 600 q 217 329 217 441 q 248 217 217 275 l 495 600 "},"В":{"x_min":47.03125,"x_max":719,"ha":805,"o":"m 179 998 l 335 998 q 547 967 478 998 q 658 872 616 936 q 701 733 701 808 q 671 615 701 671 q 585 523 641 560 q 719 276 719 430 q 676 129 719 196 q 571 31 634 63 q 391 0 509 0 l 47 0 l 179 998 m 314 602 l 348 602 q 451 613 424 602 q 498 654 479 624 q 517 722 517 685 q 500 782 517 757 q 455 816 483 807 q 344 825 428 825 l 314 602 m 259 175 l 371 175 q 495 208 456 175 q 534 298 534 241 q 509 373 534 340 q 445 419 485 406 q 292 433 405 433 l 259 175 "},"І":{"x_min":39.328125,"x_max":356.71875,"ha":389,"o":"m 173 998 l 356 998 l 219 0 l 39 0 l 173 998 "},"ē":{"x_min":41,"x_max":816.078125,"ha":889,"o":"m 583 216 l 742 134 q 600 22 689 63 q 404 -19 512 -19 q 138 75 235 -19 q 41 328 41 170 q 162 632 41 508 q 456 757 284 757 q 641 711 560 757 q 769 579 722 666 q 816 390 816 492 q 809 316 816 358 l 222 316 q 269 194 222 239 q 402 149 317 149 q 583 216 504 149 m 629 449 q 561 551 609 516 q 447 587 514 587 q 327 550 380 587 q 245 449 273 514 l 629 449 m 286 873 l 307 1023 l 693 1023 l 672 873 l 286 873 "},"β":{"x_min":-17.0625,"x_max":776,"ha":859,"o":"m 208 69 l 163 -270 l -17 -270 l 117 740 q 228 961 136 881 q 463 1042 321 1042 q 647 978 576 1042 q 719 814 719 915 q 584 606 719 679 q 776 350 776 538 q 668 84 776 187 q 394 -19 561 -19 q 208 69 282 -19 m 353 485 l 373 642 q 536 786 536 661 q 512 848 536 825 q 447 872 488 872 q 290 692 314 872 l 245 350 q 242 302 242 325 q 393 151 242 151 q 538 200 482 151 q 594 332 594 250 q 357 485 594 485 l 353 485 "},"≠":{"x_min":42,"x_max":719,"ha":762,"o":"m 544 729 l 719 729 l 719 559 l 471 559 l 420 439 l 719 439 l 719 269 l 347 269 l 221 -24 l 90 -24 l 216 269 l 42 269 l 42 439 l 289 439 l 340 559 l 42 559 l 42 729 l 413 729 l 539 1023 l 670 1023 l 544 729 "},"‼":{"x_min":31,"x_max":763.765625,"ha":790,"o":"m 176 1023 l 362 1023 l 260 294 l 73 294 l 176 1023 m 577 1023 l 763 1023 l 661 294 l 474 294 l 577 1023 m 144 209 q 225 176 191 209 q 259 95 259 143 q 225 14 259 48 q 144 -19 192 -19 q 64 14 97 -19 q 31 95 31 48 q 64 176 31 143 q 144 209 98 209 m 545 209 q 626 175 592 209 q 660 95 660 142 q 626 14 660 48 q 545 -19 592 -19 q 465 14 499 -19 q 432 95 432 48 q 465 175 432 142 q 545 209 499 209 "},"¥":{"x_min":13.5625,"x_max":804.984375,"ha":778,"o":"m 44 998 l 228 998 l 349 604 l 596 998 l 804 998 l 489 497 l 636 497 l 622 384 l 420 384 l 409 306 l 610 306 l 596 192 l 393 192 l 367 0 l 180 0 l 206 192 l 13 192 l 27 306 l 221 306 l 231 384 l 39 384 l 55 497 l 200 497 l 44 998 "},"Ĥ":{"x_min":46.109375,"x_max":898.578125,"ha":945,"o":"m 180 997 l 368 997 l 318 621 l 659 621 l 710 997 l 898 997 l 762 0 l 575 0 l 637 453 l 293 453 l 232 0 l 46 0 l 180 997 m 499 1265 l 646 1265 l 822 1074 l 620 1074 l 559 1162 l 471 1074 l 267 1074 l 499 1265 "},"U":{"x_min":85,"x_max":853.578125,"ha":889,"o":"m 175 998 l 362 998 l 279 382 q 269 268 269 301 q 303 180 269 212 q 405 149 338 149 q 498 172 458 149 q 546 231 528 190 q 581 394 564 272 l 665 998 l 853 998 l 772 402 q 706 138 747 218 q 588 16 665 58 q 401 -25 511 -25 q 168 54 251 -25 q 85 271 85 133 q 101 447 85 331 l 175 998 "},"Ñ":{"x_min":48.15625,"x_max":979.953125,"ha":1027,"o":"m 180 998 l 344 998 l 705 319 l 797 998 l 979 998 l 845 0 l 685 0 l 319 685 l 227 0 l 48 0 l 180 998 m 389 1097 l 330 1209 q 433 1261 391 1248 q 516 1275 474 1275 q 599 1261 548 1275 q 712 1239 680 1239 q 834 1273 770 1239 l 890 1167 q 795 1109 821 1119 q 712 1095 754 1095 q 612 1113 671 1095 q 552 1130 564 1127 q 515 1133 535 1133 q 389 1097 448 1133 "},"F":{"x_min":36.625,"x_max":659.1875,"ha":667,"o":"m 167 998 l 659 998 l 636 821 l 333 821 l 305 615 l 609 615 l 586 439 l 282 439 l 225 0 l 36 0 l 167 998 "},"Ќ":{"x_min":49.5,"x_max":875.515625,"ha":859,"o":"m 184 998 l 376 998 l 330 654 l 646 998 l 875 998 l 478 564 l 761 0 l 549 0 l 324 465 l 301 443 l 241 0 l 49 0 l 184 998 m 558 1340 l 777 1340 l 491 1075 l 358 1075 l 558 1340 "},"∕":{"x_min":-271.953125,"x_max":514.046875,"ha":222,"o":"m -271 -25 l 398 1023 l 514 1023 l -155 -25 l -271 -25 "},"å":{"x_min":39,"x_max":849.15625,"ha":918,"o":"m 667 738 l 849 738 l 752 0 l 573 0 l 583 79 q 473 2 524 24 q 358 -19 422 -19 q 125 88 212 -19 q 39 339 39 196 q 93 547 39 449 q 241 701 148 646 q 435 757 333 757 q 560 725 502 757 q 654 634 617 694 l 667 738 m 400 142 q 516 171 466 142 q 599 265 565 201 q 633 395 633 329 q 582 536 633 483 q 449 590 532 590 q 286 518 353 590 q 219 334 219 447 q 269 194 219 247 q 400 142 320 142 m 556 1174 q 647 1137 611 1174 q 683 1042 683 1101 q 630 923 683 975 q 511 871 578 871 q 419 908 455 871 q 383 1002 383 945 q 434 1123 383 1072 q 556 1174 485 1174 m 543 1087 q 496 1066 516 1087 q 477 1018 477 1046 q 490 981 477 995 q 524 967 503 967 q 569 987 549 967 q 589 1034 589 1007 q 575 1072 589 1057 q 543 1087 562 1087 "},"Ϋ":{"x_min":66.6875,"x_max":909.921875,"ha":861,"o":"m 66 998 l 255 998 l 411 598 l 694 998 l 909 998 l 484 398 l 430 0 l 243 0 l 298 398 l 66 998 m 393 1265 q 452 1241 428 1265 q 477 1184 477 1217 q 444 1104 477 1137 q 365 1071 411 1071 q 304 1094 327 1071 q 281 1155 281 1117 q 314 1232 281 1199 q 393 1265 348 1265 m 693 1265 q 752 1241 728 1265 q 777 1184 777 1217 q 744 1104 777 1137 q 665 1071 711 1071 q 604 1094 627 1071 q 581 1155 581 1117 q 614 1232 581 1199 q 693 1265 648 1265 "},"0":{"x_min":50,"x_max":726,"ha":778,"o":"m 453 1023 q 647 921 569 1023 q 726 625 726 820 q 663 268 726 425 q 508 43 600 111 q 312 -25 417 -25 q 179 15 238 -25 q 85 137 120 56 q 50 348 50 218 q 112 735 50 567 q 260 953 168 884 q 453 1023 351 1023 m 436 847 q 359 812 394 847 q 268 626 308 760 q 228 348 228 492 q 255 186 228 228 q 332 144 283 144 q 423 188 376 144 q 509 361 470 232 q 548 645 548 491 q 516 800 548 754 q 436 847 485 847 "},"ō":{"x_min":41,"x_max":812.03125,"ha":889,"o":"m 463 757 q 642 711 561 757 q 767 582 722 666 q 812 395 812 499 q 689 102 812 223 q 385 -19 566 -19 q 134 76 228 -19 q 41 325 41 171 q 167 634 41 511 q 463 757 294 757 m 450 585 q 280 505 339 585 q 221 332 221 425 q 269 199 221 250 q 398 149 317 149 q 573 226 513 149 q 633 402 633 303 q 582 534 633 483 q 450 585 531 585 m 284 873 l 305 1023 l 691 1023 l 670 873 l 284 873 "},"”":{"x_min":151.234375,"x_max":636.125,"ha":667,"o":"m 189 1023 l 360 1023 l 348 938 q 309 788 337 848 q 209 643 282 727 l 151 694 q 229 829 208 769 l 162 829 l 189 1023 m 465 1023 l 636 1023 l 624 938 q 585 788 613 848 q 485 643 558 727 l 427 694 q 505 829 484 769 l 437 829 l 465 1023 "},"ö":{"x_min":41,"x_max":812.03125,"ha":889,"o":"m 463 757 q 642 711 561 757 q 767 582 722 666 q 812 395 812 499 q 689 102 812 223 q 385 -19 566 -19 q 134 76 228 -19 q 41 325 41 171 q 167 634 41 511 q 463 757 294 757 m 450 585 q 280 505 339 585 q 221 332 221 425 q 269 199 221 250 q 398 149 317 149 q 573 226 513 149 q 633 402 633 303 q 582 534 633 483 q 450 585 531 585 m 344 1042 q 403 1018 379 1042 q 428 961 428 994 q 395 881 428 914 q 316 848 362 848 q 255 871 278 848 q 232 932 232 894 q 265 1009 232 976 q 344 1042 299 1042 m 645 1042 q 704 1018 680 1042 q 729 961 729 994 q 696 881 729 914 q 617 848 663 848 q 556 871 579 848 q 533 932 533 894 q 566 1009 533 976 q 645 1042 600 1042 "},"ć":{"x_min":41,"x_max":804.90625,"ha":889,"o":"m 804 585 l 651 502 q 476 585 586 585 q 345 553 402 585 q 254 462 288 521 q 221 335 221 402 q 274 198 221 250 q 421 147 328 147 q 620 234 551 147 l 762 134 q 612 21 702 62 q 412 -19 522 -19 q 140 75 239 -19 q 41 326 41 170 q 163 631 41 505 q 479 757 286 757 q 804 585 697 757 m 569 1137 l 788 1137 l 503 872 l 370 872 l 569 1137 "},"þ":{"x_min":-5.921875,"x_max":839,"ha":917,"o":"m 175 -270 l -5 -270 l 163 1023 l 344 1023 l 294 658 q 404 735 353 714 q 519 757 455 757 q 752 649 666 757 q 839 398 839 541 q 784 190 839 289 q 636 36 729 91 q 443 -19 544 -19 q 318 12 375 -19 q 223 103 260 43 l 175 -270 m 477 596 q 361 565 411 596 q 278 471 312 535 q 245 341 245 408 q 295 201 245 254 q 428 148 345 148 q 591 219 524 148 q 659 402 659 290 q 608 542 659 489 q 477 596 557 596 "},"]":{"x_min":-85.453125,"x_max":391.296875,"ha":444,"o":"m 210 -270 l -85 -270 l -61 -97 l 47 -97 l 180 851 l 70 851 l 94 1023 l 391 1023 l 210 -270 "},"А":{"x_min":-16.28125,"x_max":928.40625,"ha":1027,"o":"m 522 997 l 680 997 l 928 0 l 746 0 l 693 212 l 299 212 l 185 0 l -16 0 l 522 997 m 648 388 l 568 715 l 392 388 l 648 388 "},"′":{"x_min":140,"x_max":325.8125,"ha":306,"o":"m 240 681 l 140 681 l 140 1023 l 325 1023 l 240 681 "},"Ы":{"x_min":46.921875,"x_max":1129.078125,"ha":1175,"o":"m 941 998 l 1129 998 l 994 0 l 806 0 l 941 998 m 320 621 l 362 621 q 617 537 523 621 q 712 313 712 454 q 662 132 712 206 q 542 28 613 57 q 326 0 471 0 l 46 0 l 181 998 l 370 998 l 320 621 m 297 451 l 260 181 l 308 181 q 427 189 386 181 q 495 232 468 198 q 523 315 523 266 q 476 413 523 375 q 336 451 430 451 l 297 451 "},"ẁ":{"x_min":35.265625,"x_max":1106.765625,"ha":1111,"o":"m 35 738 l 209 738 l 311 342 l 526 738 l 597 738 l 700 342 l 914 738 l 1106 738 l 705 0 l 618 0 l 518 390 l 307 0 l 221 0 l 35 738 m 358 1138 l 576 1138 l 699 872 l 567 872 l 358 1138 "},"ĭ":{"x_min":-30,"x_max":522.71875,"ha":333,"o":"m 107 738 l 286 738 l 187 0 l 6 0 l 107 738 m -30 1062 l 120 1062 q 155 1023 132 1035 q 239 1007 189 1007 q 318 1020 285 1007 q 372 1063 352 1034 l 522 1063 q 418 924 496 975 q 220 873 340 873 q 32 925 95 873 q -30 1062 -30 977 "},"8":{"x_min":28,"x_max":718,"ha":778,"o":"m 535 537 q 651 447 609 508 q 694 301 694 386 q 650 133 694 207 q 525 17 606 59 q 340 -25 444 -25 q 116 59 205 -25 q 28 261 28 143 q 55 385 28 323 q 126 487 82 446 q 245 555 171 528 q 172 621 196 584 q 133 751 133 681 q 171 885 133 821 q 281 986 210 949 q 437 1023 353 1023 q 639 949 560 1023 q 718 775 718 875 q 672 638 718 700 q 535 537 627 576 m 433 849 q 348 815 382 849 q 315 734 315 781 q 341 661 315 690 q 412 633 368 633 q 495 666 461 633 q 529 747 529 699 q 502 821 529 794 q 433 849 476 849 m 377 460 q 261 409 309 460 q 214 283 214 358 q 253 185 214 225 q 354 146 293 146 q 467 193 421 146 q 514 310 514 241 q 473 416 514 373 q 377 460 432 460 "},"R":{"x_min":57.625,"x_max":758,"ha":806,"o":"m 190 998 l 365 998 q 592 970 526 998 q 716 874 674 935 q 758 728 758 812 q 696 550 758 624 q 509 447 634 476 l 727 0 l 533 0 l 320 435 l 302 435 l 244 0 l 57 0 l 190 998 m 324 599 q 524 629 478 599 q 571 722 571 660 q 552 782 571 758 q 498 815 533 805 q 355 825 463 825 l 324 599 "},"Ż":{"x_min":12.296875,"x_max":687.765625,"ha":695,"o":"m 124 998 l 687 998 l 291 174 l 605 174 l 582 0 l 12 0 l 409 822 l 99 822 l 124 998 m 401 1265 q 460 1241 436 1265 q 485 1184 485 1217 q 452 1104 485 1137 q 373 1071 419 1071 q 312 1094 335 1071 q 289 1155 289 1117 q 322 1232 289 1199 q 401 1265 356 1265 "},"ħ":{"x_min":30.890625,"x_max":733,"ha":833,"o":"m 337 935 l 553 935 l 541 828 l 322 828 l 300 663 q 515 757 399 757 q 673 694 613 757 q 733 543 733 632 q 721 413 733 499 l 666 0 l 487 0 l 540 403 q 549 496 549 465 q 520 567 549 545 q 451 590 491 590 q 355 554 402 590 q 287 462 308 519 q 245 261 265 405 l 211 0 l 30 0 l 142 828 l 49 828 l 61 935 l 157 935 l 169 1022 l 348 1022 l 337 935 "},"õ":{"x_min":41,"x_max":812.03125,"ha":889,"o":"m 463 757 q 642 711 561 757 q 767 582 722 666 q 812 395 812 499 q 689 102 812 223 q 385 -19 566 -19 q 134 76 228 -19 q 41 325 41 171 q 167 634 41 511 q 463 757 294 757 m 450 585 q 280 505 339 585 q 221 332 221 425 q 269 199 221 250 q 398 149 317 149 q 573 226 513 149 q 633 402 633 303 q 582 534 633 483 q 450 585 531 585 m 279 874 l 221 986 q 322 1038 281 1025 q 406 1052 364 1052 q 489 1038 438 1052 q 602 1016 569 1016 q 723 1050 660 1016 l 780 944 q 685 886 711 896 q 602 872 643 872 q 502 890 561 872 q 441 907 454 904 q 405 910 425 910 q 279 874 338 910 "},"ê":{"x_min":41,"x_max":816.078125,"ha":889,"o":"m 583 216 l 742 134 q 600 22 689 63 q 404 -19 512 -19 q 138 75 235 -19 q 41 328 41 170 q 162 632 41 508 q 456 757 284 757 q 641 711 560 757 q 769 579 722 666 q 816 390 816 492 q 809 316 816 358 l 222 316 q 269 194 222 239 q 402 149 317 149 q 583 216 504 149 m 629 449 q 561 551 609 516 q 447 587 514 587 q 327 550 380 587 q 245 449 273 514 l 629 449 m 455 1042 l 603 1042 l 778 851 l 576 851 l 515 939 l 427 851 l 224 851 l 455 1042 "},"″":{"x_min":97,"x_max":562.5,"ha":500,"o":"m 476 681 l 376 681 l 376 1023 l 562 1023 l 476 681 m 197 681 l 97 681 l 97 1023 l 283 1023 l 197 681 "},"„":{"x_min":59,"x_max":543.890625,"ha":667,"o":"m 97 194 l 267 194 l 256 109 q 217 -40 244 19 q 117 -185 189 -101 l 59 -134 q 137 0 116 -59 l 69 0 l 97 194 m 373 194 l 543 194 l 532 109 q 493 -40 520 19 q 393 -185 465 -101 l 335 -134 q 413 0 392 -59 l 345 0 l 373 194 "},"ч":{"x_min":49,"x_max":705.546875,"ha":773,"o":"m 460 293 l 331 293 q 157 320 222 293 q 71 390 93 348 q 49 492 49 431 q 52 542 49 514 l 79 738 l 265 738 l 245 592 q 241 537 241 559 q 256 485 241 502 q 303 464 271 468 q 428 460 334 460 l 482 460 l 520 738 l 705 738 l 605 0 l 420 0 l 460 293 "},"δ":{"x_min":29,"x_max":752.078125,"ha":833,"o":"m 279 608 q 206 769 206 672 q 304 967 206 893 q 547 1042 402 1042 q 752 1012 635 1042 l 683 848 q 532 872 595 872 q 386 775 386 872 q 417 718 386 743 q 542 655 449 694 q 748 366 748 571 q 634 88 748 195 q 346 -19 520 -19 q 119 68 209 -19 q 29 282 29 156 q 279 608 29 511 m 210 296 q 254 190 210 232 q 366 149 298 149 q 508 208 448 149 q 568 348 568 267 q 524 457 568 415 q 412 500 481 500 q 271 438 332 500 q 210 296 210 376 m 412 668 l 412 668 "},"Â":{"x_min":-16.28125,"x_max":928.40625,"ha":1027,"o":"m 522 997 l 680 997 l 928 0 l 746 0 l 693 212 l 299 212 l 185 0 l -16 0 l 522 997 m 648 388 l 568 715 l 392 388 l 648 388 m 566 1265 l 714 1265 l 889 1074 l 687 1074 l 626 1162 l 538 1074 l 335 1074 l 566 1265 "},"Į":{"x_min":-21,"x_max":356.5625,"ha":388,"o":"m 173 997 l 356 997 l 218 0 l 39 0 l 173 997 m 121 0 l 218 0 q 107 -121 107 -61 q 124 -160 107 -145 q 169 -175 141 -175 q 231 -156 192 -175 l 216 -264 q 127 -275 168 -275 q 15 -243 52 -275 q -21 -163 -21 -212 q 14 -74 -21 -118 q 121 0 50 -30 "},"ω":{"x_min":31,"x_max":1112,"ha":1191,"o":"m 538 90 q 320 -19 456 -19 q 107 59 184 -19 q 31 280 31 138 q 157 611 31 487 q 513 759 284 736 l 513 589 q 211 282 211 552 q 335 148 211 148 q 483 335 458 148 l 495 424 l 672 424 l 659 335 q 655 276 655 304 q 757 148 655 148 q 930 372 930 148 q 701 589 930 557 l 737 759 q 1014 642 917 739 q 1112 391 1112 545 q 1013 89 1112 197 q 734 -19 915 -19 q 538 90 593 -19 "},"Ţ":{"x_min":30.515625,"x_max":662.578125,"ha":583,"o":"m 53 998 l 662 998 l 640 820 l 428 820 l 320 0 l 134 0 l 242 820 l 30 820 l 53 998 m 162 -82 l 283 -82 l 280 -101 q 251 -221 268 -188 q 187 -290 234 -254 l 156 -253 q 206 -194 191 -227 l 145 -194 l 162 -82 "},"´":{"x_min":217.6875,"x_max":636.125,"ha":583,"o":"m 417 1137 l 636 1137 l 350 872 l 217 872 l 417 1137 "},"Ĉ":{"x_min":59,"x_max":1033.640625,"ha":1083,"o":"m 1033 869 l 897 743 q 789 821 853 794 q 651 849 725 849 q 451 795 546 849 q 302 653 355 741 q 249 465 249 565 q 342 239 249 329 q 582 150 436 150 q 853 240 739 150 l 964 95 q 570 -25 794 -25 q 302 34 413 -25 q 125 210 192 94 q 59 460 59 325 q 138 737 59 605 q 352 946 217 870 q 646 1023 486 1023 q 1033 869 870 1023 m 573 1265 l 721 1265 l 896 1074 l 694 1074 l 633 1162 l 545 1074 l 341 1074 l 573 1265 "},"И":{"x_min":42.046875,"x_max":901.96875,"ha":945,"o":"m 901 998 l 766 0 l 579 0 l 678 662 l 207 0 l 42 0 l 177 998 l 366 998 l 257 308 l 744 998 l 901 998 "},"○":{"x_min":118,"x_max":716,"ha":834,"o":"m 716 392 q 628 180 716 268 q 417 93 540 93 q 205 180 293 93 q 118 392 118 268 q 205 603 118 515 q 416 691 293 691 q 628 603 540 691 q 716 392 716 515 m 664 392 q 591 566 664 493 q 417 639 518 639 q 242 566 315 639 q 170 392 170 493 q 242 218 170 291 q 417 145 315 145 q 591 217 518 145 q 664 392 664 290 "},"Љ":{"x_min":-57.96875,"x_max":1314,"ha":1390,"o":"m 761 621 l 959 621 q 1215 538 1117 621 q 1314 304 1314 455 q 1257 120 1314 194 q 1126 23 1200 46 q 903 0 1052 0 l 700 0 l 523 733 l 143 0 l -57 0 l 461 998 l 653 998 l 761 621 m 805 451 l 876 181 l 906 181 q 1033 188 997 181 q 1094 225 1069 195 q 1120 303 1120 254 q 934 451 1120 451 l 805 451 "},"р":{"x_min":-5.921875,"x_max":839,"ha":917,"o":"m 175 -270 l -5 -270 l 126 738 l 304 738 l 294 658 q 404 735 353 714 q 519 757 455 757 q 752 649 666 757 q 839 398 839 541 q 784 190 839 289 q 636 36 729 91 q 443 -19 544 -19 q 318 12 375 -19 q 223 103 260 43 l 175 -270 m 477 596 q 361 565 411 596 q 278 471 312 535 q 245 341 245 408 q 295 201 245 254 q 428 148 345 148 q 591 219 524 148 q 659 402 659 290 q 608 542 659 489 q 477 596 557 596 "},"Ω":{"x_min":-1.296875,"x_max":1109,"ha":1188,"o":"m 814 174 l 1074 174 l 1050 0 l 587 0 l 615 211 q 925 607 925 353 q 848 781 925 716 q 640 847 772 847 q 380 751 484 847 q 277 507 277 656 q 481 211 277 328 l 453 0 l -1 0 l 22 174 l 281 174 q 95 520 95 305 q 257 881 95 740 q 653 1022 420 1022 q 984 908 859 1022 q 1109 619 1109 794 q 814 174 1109 344 "},"т":{"x_min":36.625,"x_max":748.703125,"ha":745,"o":"m 61 738 l 748 738 l 724 562 l 480 562 l 403 0 l 217 0 l 292 562 l 36 562 l 61 738 "},"П":{"x_min":42.046875,"x_max":901.96875,"ha":945,"o":"m 177 998 l 901 998 l 767 0 l 575 0 l 686 820 l 345 820 l 234 0 l 42 0 l 177 998 "},"Ö":{"x_min":56,"x_max":1114,"ha":1167,"o":"m 641 1023 q 980 890 846 1023 q 1114 554 1114 758 q 1034 260 1114 398 q 824 48 955 122 q 523 -25 693 -25 q 183 101 310 -25 q 56 433 56 227 q 207 835 56 667 q 641 1023 377 1023 m 634 846 q 438 794 527 846 q 296 644 350 742 q 242 443 242 547 q 317 235 242 320 q 533 150 392 150 q 810 265 696 150 q 925 545 925 380 q 844 763 925 681 q 634 846 764 846 m 525 1265 q 584 1241 560 1265 q 609 1184 609 1217 q 576 1104 609 1137 q 497 1071 543 1071 q 436 1094 459 1071 q 413 1155 413 1117 q 446 1232 413 1199 q 525 1265 480 1265 m 825 1265 q 884 1241 860 1265 q 909 1184 909 1217 q 876 1104 909 1137 q 797 1071 843 1071 q 736 1094 759 1071 q 713 1155 713 1117 q 746 1232 713 1199 q 825 1265 780 1265 "},"z":{"x_min":-48.15625,"x_max":643.578125,"ha":639,"o":"m 59 738 l 643 738 l 265 167 l 611 167 l 588 0 l -48 0 l 328 569 l 37 569 l 59 738 "},"™":{"x_min":68,"x_max":1291,"ha":1388,"o":"m 1291 998 l 1291 428 l 1172 428 l 1172 896 l 985 428 l 925 428 l 745 896 l 745 428 l 626 428 l 626 998 l 806 998 l 955 631 l 1111 998 l 1291 998 m 548 998 l 548 898 l 370 898 l 370 428 l 247 428 l 247 898 l 68 898 l 68 998 l 548 998 "},"Θ":{"x_min":56,"x_max":1114,"ha":1167,"o":"m 1114 554 q 951 148 1114 322 q 523 -25 789 -25 q 183 100 310 -25 q 56 433 56 225 q 221 850 56 678 q 641 1023 387 1023 q 980 891 847 1023 q 1114 554 1114 760 m 242 443 q 321 230 242 310 q 533 150 400 150 q 811 264 698 150 q 925 545 925 379 q 845 763 925 681 q 634 846 765 846 q 347 718 452 846 q 242 443 242 590 m 416 594 l 772 594 l 748 412 l 392 412 l 416 594 "},"Ř":{"x_min":57.625,"x_max":791.234375,"ha":806,"o":"m 190 998 l 365 998 q 592 970 526 998 q 716 874 674 935 q 758 728 758 812 q 696 550 758 624 q 509 447 634 476 l 727 0 l 533 0 l 320 435 l 302 435 l 244 0 l 57 0 l 190 998 m 324 599 q 524 629 478 599 q 571 722 571 660 q 552 782 571 758 q 498 815 533 805 q 355 825 463 825 l 324 599 m 559 1074 l 411 1074 l 235 1265 l 438 1265 l 499 1176 l 587 1265 l 791 1265 l 559 1074 "},"Ň":{"x_min":48.15625,"x_max":979.953125,"ha":1027,"o":"m 180 998 l 344 998 l 705 319 l 797 998 l 979 998 l 845 0 l 685 0 l 319 685 l 227 0 l 48 0 l 180 998 m 669 1074 l 521 1074 l 345 1265 l 547 1265 l 609 1176 l 697 1265 l 900 1265 l 669 1074 "},"É":{"x_min":35.265625,"x_max":745.984375,"ha":722,"o":"m 166 998 l 708 998 l 684 821 l 332 821 l 303 615 l 657 615 l 635 439 l 281 439 l 246 174 l 602 174 l 578 0 l 35 0 l 166 998 m 526 1360 l 745 1360 l 460 1095 l 327 1095 l 526 1360 "},"и":{"x_min":31.203125,"x_max":767.015625,"ha":833,"o":"m 130 0 l 31 0 l 130 738 l 311 738 l 255 307 l 670 738 l 767 738 l 667 0 l 482 0 l 542 422 l 130 0 "},"³":{"x_min":51,"x_max":459,"ha":467,"o":"m 232 872 l 114 872 q 172 983 124 943 q 296 1023 221 1023 q 413 982 368 1023 q 459 889 459 942 q 378 771 459 819 q 447 657 447 728 q 386 536 447 588 q 236 485 326 485 q 137 508 179 485 q 72 569 94 531 q 51 667 51 607 l 173 667 q 244 589 173 589 q 300 610 278 589 q 323 663 323 631 q 298 707 323 689 q 212 726 274 726 l 228 823 q 307 840 282 823 q 332 882 332 857 q 319 908 332 898 q 285 919 306 919 q 232 872 240 919 "},"[":{"x_min":33.90625,"x_max":510.65625,"ha":444,"o":"m 214 1023 l 510 1023 l 486 850 l 377 850 l 245 -98 l 354 -98 l 331 -270 l 33 -270 l 214 1023 "},"ζ":{"x_min":27,"x_max":711.140625,"ha":660,"o":"m 125 -266 l 186 -102 q 301 -124 235 -124 q 403 -56 403 -124 q 363 -6 403 -18 q 194 43 269 16 q 73 137 119 71 q 27 306 27 204 q 117 577 27 448 q 434 853 207 706 l 156 853 l 178 1023 l 711 1023 l 690 868 q 313 566 415 691 q 212 327 212 442 q 240 241 212 274 q 371 179 268 207 q 585 -26 585 120 q 504 -221 585 -153 q 278 -289 423 -289 q 125 -266 213 -289 "},"∏":{"x_min":110,"x_max":1034,"ha":1143,"o":"m 110 1023 l 1034 1023 l 1034 -269 l 904 -269 l 904 905 l 241 905 l 241 -269 l 110 -269 l 110 1023 "},"Έ":{"x_min":-1,"x_max":818.21875,"ha":833,"o":"m 276 998 l 818 998 l 795 821 l 442 821 l 414 615 l 768 615 l 745 439 l 391 439 l 356 174 l 712 174 l 688 0 l 145 0 l 276 998 m 193 1023 l 129 764 l -1 764 l -1 1023 l 193 1023 "},"Ρ":{"x_min":47.953125,"x_max":749,"ha":777,"o":"m 182 998 l 357 998 q 583 970 517 998 q 706 873 664 935 q 749 728 749 811 q 699 564 749 637 q 568 456 650 490 q 292 423 485 423 l 235 0 l 47 0 l 182 998 m 315 598 q 515 629 468 598 q 562 722 562 660 q 543 781 562 757 q 489 814 525 804 q 347 824 453 824 l 315 598 "},"ğ":{"x_min":21.328125,"x_max":848.265625,"ha":917,"o":"m 667 738 l 848 738 l 767 147 q 718 -84 743 -27 q 586 -231 679 -173 q 353 -289 493 -289 q 150 -243 236 -289 q 21 -127 64 -198 l 176 -46 q 357 -120 246 -120 q 470 -96 423 -120 q 544 -32 517 -72 q 581 87 570 8 q 358 0 483 0 q 198 43 272 0 q 83 166 125 87 q 41 343 41 246 q 95 548 41 452 q 245 700 150 644 q 442 757 339 757 q 556 732 505 757 q 655 650 606 708 l 667 738 m 452 586 q 286 516 353 586 q 219 346 219 447 q 269 215 219 264 q 403 166 319 166 q 520 196 466 166 q 604 283 573 226 q 636 406 636 340 q 584 534 636 483 q 452 586 532 586 m 246 1062 l 396 1062 q 431 1023 408 1035 q 515 1007 465 1007 q 594 1020 561 1007 q 648 1063 628 1034 l 798 1063 q 694 924 772 975 q 496 873 617 873 q 308 925 371 873 q 246 1062 246 977 "},"ª":{"x_min":49,"x_max":497.015625,"ha":500,"o":"m 362 1011 l 497 1011 l 431 549 l 298 549 l 304 589 q 248 548 271 557 q 193 538 225 538 q 91 593 133 538 q 49 742 49 647 q 115 941 49 860 q 263 1023 182 1023 q 310 1011 290 1023 q 356 967 330 1000 l 362 1011 m 249 653 q 308 685 285 653 q 339 796 339 729 q 319 876 339 848 q 269 904 299 904 q 208 865 235 904 q 181 759 181 827 q 201 680 181 708 q 249 653 221 653 "},"ї":{"x_min":-45,"x_max":451,"ha":333,"o":"m 107 738 l 286 738 l 187 0 l 7 0 l 107 738 m 67 1042 q 126 1018 102 1042 q 151 961 151 994 q 118 881 151 914 q 39 848 85 848 q -21 871 1 848 q -45 932 -45 894 q -11 1009 -45 976 q 67 1042 22 1042 m 367 1042 q 426 1018 402 1042 q 451 961 451 994 q 418 881 451 914 q 339 848 385 848 q 278 871 301 848 q 255 932 255 894 q 288 1009 255 976 q 367 1042 322 1042 "},"T":{"x_min":30.515625,"x_max":662.578125,"ha":583,"o":"m 53 998 l 662 998 l 640 820 l 428 820 l 320 0 l 134 0 l 242 820 l 30 820 l 53 998 "},"š":{"x_min":-18.875,"x_max":653.03125,"ha":611,"o":"m 535 635 l 449 496 q 379 569 416 546 q 311 593 343 593 q 269 579 286 593 q 253 548 253 565 q 266 516 253 532 q 344 453 279 500 q 481 325 448 378 q 514 209 514 272 q 446 54 514 127 q 250 -19 379 -19 q 116 10 177 -19 q -18 120 55 40 l 93 250 q 259 150 168 150 q 316 167 295 150 q 338 208 338 184 q 321 247 338 227 q 232 318 305 267 q 116 421 148 378 q 72 547 72 481 q 142 698 72 640 q 307 757 212 757 q 435 725 375 757 q 535 635 495 693 m 421 851 l 274 851 l 98 1042 l 300 1042 l 361 953 l 449 1042 l 653 1042 l 421 851 "},"є":{"x_min":41,"x_max":832.421875,"ha":905,"o":"m 631 234 l 763 135 q 407 -19 627 -19 q 140 73 239 -19 q 41 312 41 166 q 181 626 41 496 q 514 757 322 757 q 832 589 740 757 l 666 504 q 494 585 605 585 q 256 453 327 585 l 506 453 l 484 292 l 234 292 q 426 150 263 150 q 631 234 550 150 m 228 339 l 228 339 "},"Þ":{"x_min":48.40625,"x_max":723,"ha":778,"o":"m 182 998 l 370 998 l 344 787 q 531 769 477 787 q 670 677 617 743 q 723 518 723 612 q 673 353 723 427 q 542 245 624 279 q 266 212 459 212 l 236 0 l 48 0 l 182 998 m 289 388 q 489 419 442 388 q 536 512 536 450 q 517 571 536 547 q 463 604 498 595 q 321 614 427 614 l 289 388 "},"j":{"x_min":-132.359375,"x_max":348,"ha":361,"o":"m 235 1040 q 315 1007 282 1040 q 348 928 348 974 q 315 848 348 881 q 235 816 282 816 q 156 848 189 816 q 124 928 124 881 q 156 1007 124 974 q 235 1040 189 1040 m 120 738 l 301 738 l 212 84 q 161 -162 187 -99 q 88 -256 135 -224 q -21 -289 40 -289 q -132 -262 -68 -289 l -110 -99 q -54 -119 -80 -119 q -8 -93 -23 -119 q 29 61 14 -55 l 120 738 "},"Σ":{"x_min":-51.546875,"x_max":699.875,"ha":696,"o":"m -51 0 l 279 497 l 88 998 l 699 998 l 676 822 l 350 822 l 484 479 l 280 176 l 596 176 l 573 0 l -51 0 "},"1":{"x_min":220.40625,"x_max":574.40625,"ha":778,"o":"m 279 997 l 574 997 l 440 0 l 257 0 l 368 823 l 220 823 l 279 997 "},"ℓ":{"x_min":9.734375,"x_max":667,"ha":666,"o":"m 30 277 l 9 445 q 125 488 70 466 q 233 900 150 789 q 438 1011 315 1011 q 598 946 530 1011 q 667 781 667 882 q 584 576 667 676 q 307 385 502 477 q 291 214 291 279 q 357 128 291 128 q 573 210 441 128 l 550 35 q 361 -17 459 -17 q 170 57 237 -17 q 104 235 104 131 q 104 302 104 255 l 30 277 m 333 588 q 504 795 504 690 q 490 842 504 823 q 455 861 476 861 q 390 819 419 861 q 333 588 361 778 "},"ĉ":{"x_min":41,"x_max":804.90625,"ha":889,"o":"m 804 585 l 651 502 q 476 585 586 585 q 345 553 402 585 q 254 462 288 521 q 221 335 221 402 q 274 198 221 250 q 421 147 328 147 q 620 234 551 147 l 762 134 q 612 21 702 62 q 412 -19 522 -19 q 140 75 239 -19 q 41 326 41 170 q 163 631 41 505 q 479 757 286 757 q 804 585 697 757 m 427 1042 l 575 1042 l 751 851 l 549 851 l 488 939 l 400 851 l 196 851 l 427 1042 "},"ī":{"x_min":6.78125,"x_max":421.140625,"ha":333,"o":"m 107 738 l 286 738 l 187 0 l 6 0 l 107 738 m 14 873 l 35 1023 l 421 1023 l 400 873 l 14 873 "},"О":{"x_min":56,"x_max":1114,"ha":1167,"o":"m 641 1023 q 980 890 846 1023 q 1114 554 1114 758 q 1034 260 1114 398 q 824 48 955 122 q 523 -25 693 -25 q 183 101 310 -25 q 56 433 56 227 q 207 835 56 667 q 641 1023 377 1023 m 634 846 q 438 794 527 846 q 296 644 350 742 q 242 443 242 547 q 317 235 242 320 q 533 150 392 150 q 810 265 696 150 q 925 545 925 380 q 844 763 925 681 q 634 846 764 846 "},"ξ":{"x_min":24,"x_max":700.96875,"ha":660,"o":"m 126 -265 l 187 -102 q 302 -124 242 -124 q 402 -61 402 -124 q 381 -22 402 -34 q 265 13 360 -10 q 24 279 24 72 q 230 590 24 484 q 139 765 139 652 q 233 970 139 898 q 488 1042 328 1042 q 700 1010 594 1042 l 629 848 q 460 872 547 872 q 358 838 400 872 q 316 751 316 804 q 498 655 316 655 l 598 655 l 576 486 l 443 486 q 261 430 316 486 q 206 300 206 374 q 238 226 206 251 q 387 168 271 201 q 585 -25 585 113 q 504 -221 585 -154 q 275 -289 423 -289 q 126 -265 208 -289 "},"Ď":{"x_min":47.828125,"x_max":917,"ha":973,"o":"m 181 998 l 340 998 q 671 945 563 998 q 848 780 780 892 q 917 520 917 667 q 844 242 917 369 q 662 58 772 116 q 357 0 552 0 l 47 0 l 181 998 m 346 822 l 260 174 l 321 174 q 527 197 464 174 q 671 313 617 231 q 726 516 726 395 q 687 682 726 615 q 579 785 649 749 q 393 822 509 822 l 346 822 m 593 1074 l 445 1074 l 270 1265 l 472 1265 l 533 1176 l 621 1265 l 824 1265 l 593 1074 "},"&":{"x_min":44,"x_max":887.96875,"ha":945,"o":"m 768 398 l 867 264 q 788 202 830 232 l 749 173 l 791 122 q 887 0 856 42 l 666 0 q 599 75 630 36 q 446 1 527 27 q 294 -25 365 -25 q 118 46 193 -25 q 44 216 44 118 q 95 369 44 299 q 287 522 146 440 q 238 633 250 593 q 227 714 227 673 q 304 885 227 814 q 493 957 381 957 q 650 896 588 957 q 713 744 713 835 q 669 602 713 670 q 527 466 626 534 q 643 309 594 367 q 768 398 715 357 m 437 608 q 540 736 540 677 q 523 770 540 755 q 479 785 506 785 q 424 763 446 785 q 402 714 402 742 q 437 608 402 667 m 376 373 q 271 305 324 344 q 230 260 243 285 q 220 221 220 241 q 243 166 220 188 q 306 144 267 144 q 388 161 339 144 q 493 212 400 166 q 455 263 480 228 l 376 373 "},"G":{"x_min":59,"x_max":1069.9375,"ha":1167,"o":"m 1045 812 l 889 711 q 758 818 821 788 q 615 849 695 849 q 334 709 442 849 q 248 464 248 599 q 336 241 248 331 q 554 151 425 151 q 729 197 650 151 q 859 337 808 244 l 547 337 l 570 514 l 1069 514 q 924 120 1069 266 q 555 -25 780 -25 q 171 143 311 -25 q 59 464 59 278 q 222 857 59 691 q 613 1023 386 1023 q 777 998 697 1023 q 922 930 857 974 q 1045 812 986 886 "},"ΰ":{"x_min":49,"x_max":765,"ha":834,"o":"m 103 738 l 283 738 l 235 377 q 229 295 229 328 q 371 153 229 153 q 520 221 464 153 q 577 391 577 290 q 426 611 577 514 l 541 759 q 756 401 756 631 q 642 99 756 218 q 348 -19 528 -19 q 49 280 49 -19 q 57 387 49 329 l 103 738 m 591 1112 l 526 853 l 397 853 l 397 1112 l 591 1112 m 358 953 q 327 883 358 913 q 256 853 297 853 q 202 874 223 853 q 181 928 181 896 q 211 997 181 967 q 280 1028 241 1028 q 336 1005 315 1028 q 358 953 358 983 m 765 953 q 734 882 765 912 q 663 853 704 853 q 608 875 630 853 q 587 927 587 897 q 617 998 587 968 q 687 1028 648 1028 q 743 1005 722 1028 q 765 953 765 983 "},"`":{"x_min":146.484375,"x_max":488.28125,"ha":583,"o":"m 146 1138 l 364 1138 l 488 872 l 356 872 l 146 1138 "},"ŏ":{"x_min":41,"x_max":812.03125,"ha":889,"o":"m 463 757 q 642 711 561 757 q 767 582 722 666 q 812 395 812 499 q 689 102 812 223 q 385 -19 566 -19 q 134 76 228 -19 q 41 325 41 171 q 167 634 41 511 q 463 757 294 757 m 450 585 q 280 505 339 585 q 221 332 221 425 q 269 199 221 250 q 398 149 317 149 q 573 226 513 149 q 633 402 633 303 q 582 534 633 483 q 450 585 531 585 m 227 1062 l 377 1062 q 412 1023 389 1035 q 496 1007 445 1007 q 575 1020 542 1007 q 629 1063 609 1034 l 779 1063 q 675 924 753 975 q 477 873 597 873 q 289 925 352 873 q 227 1062 227 977 "},"ý":{"x_min":28.484375,"x_max":799.5625,"ha":806,"o":"m 30 738 l 208 738 l 351 299 l 604 738 l 799 738 l 219 -270 l 28 -270 l 238 100 l 30 738 m 528 1138 l 747 1138 l 461 872 l 328 872 l 528 1138 "},"º":{"x_min":47,"x_max":495,"ha":499,"o":"m 291 1023 q 437 960 379 1023 q 495 796 495 898 q 423 613 495 688 q 247 539 351 539 q 102 597 157 539 q 47 754 47 656 q 119 945 47 868 q 291 1023 192 1023 m 281 901 q 210 862 240 901 q 181 759 181 823 q 202 684 181 710 q 257 658 223 658 q 331 696 301 658 q 362 799 362 734 q 339 874 362 847 q 281 901 316 901 "},"∞":{"x_min":102,"x_max":888,"ha":990,"o":"m 460 571 q 565 692 513 657 q 679 727 618 727 q 829 663 770 727 q 888 489 888 599 q 829 316 888 380 q 679 253 770 253 q 566 287 618 253 q 460 407 513 321 q 367 321 420 351 q 266 291 314 291 q 149 345 196 291 q 102 489 102 399 q 149 634 102 580 q 266 688 196 688 q 367 657 314 688 q 460 571 420 627 m 523 490 q 603 383 580 403 q 681 353 639 353 q 760 392 732 353 q 789 492 789 431 q 759 590 789 554 q 683 627 729 627 q 612 600 647 627 q 523 490 577 574 m 402 492 q 273 588 334 588 q 219 562 241 588 q 197 492 197 537 q 219 421 197 447 q 273 395 241 395 q 323 410 300 395 q 402 492 358 435 "},"ź":{"x_min":-48.15625,"x_max":643.578125,"ha":639,"o":"m 59 738 l 643 738 l 265 167 l 611 167 l 588 0 l -48 0 l 328 569 l 37 569 l 59 738 m 417 1137 l 636 1137 l 350 872 l 217 872 l 417 1137 "},"я":{"x_min":-49.265625,"x_max":666.8125,"ha":733,"o":"m 193 304 q 85 488 85 366 q 119 609 85 549 q 200 697 154 668 q 295 731 247 725 q 481 738 344 738 l 666 738 l 567 0 l 381 0 l 417 267 l 361 267 l 159 0 l -49 0 l 193 304 m 434 406 l 459 583 l 403 583 q 285 486 285 583 q 312 424 285 442 q 390 406 339 406 l 434 406 "},"Ё":{"x_min":35.375,"x_max":707.703125,"ha":722,"o":"m 166 998 l 707 998 l 684 821 l 332 821 l 303 615 l 657 615 l 635 439 l 281 439 l 246 174 l 601 174 l 578 0 l 35 0 l 166 998 m 302 1265 q 361 1241 337 1265 q 386 1184 386 1217 q 353 1104 386 1137 q 274 1071 320 1071 q 213 1094 236 1071 q 190 1155 190 1117 q 223 1232 190 1199 q 302 1265 257 1265 m 602 1265 q 661 1241 637 1265 q 686 1184 686 1217 q 653 1104 686 1137 q 574 1071 620 1071 q 513 1094 536 1071 q 490 1155 490 1117 q 523 1232 490 1199 q 602 1265 557 1265 "},"ń":{"x_min":30.890625,"x_max":770.96875,"ha":833,"o":"m 130 738 l 310 738 l 300 663 q 515 757 403 757 q 672 696 611 757 q 733 543 733 635 q 721 413 733 499 l 666 0 l 487 0 l 540 403 q 549 497 549 465 q 523 565 549 541 q 451 590 498 590 q 360 558 405 590 q 290 470 315 526 q 245 261 266 415 l 211 0 l 30 0 l 130 738 m 552 1138 l 770 1138 l 485 872 l 353 872 l 552 1138 "},"Г":{"x_min":46.796875,"x_max":676.8125,"ha":644,"o":"m 181 998 l 676 998 l 651 812 l 344 812 l 234 0 l 46 0 l 181 998 "},"Ь":{"x_min":46.609375,"x_max":711,"ha":786,"o":"m 319 621 l 361 621 q 616 537 521 621 q 711 313 711 454 q 661 132 711 206 q 541 28 612 57 q 325 0 470 0 l 46 0 l 181 998 l 370 998 l 319 621 m 296 451 l 259 181 l 307 181 q 426 189 385 181 q 494 232 467 198 q 522 315 522 266 q 475 413 522 375 q 335 451 429 451 l 296 451 "},"¤":{"x_min":64.859375,"x_max":771.109375,"ha":834,"o":"m 65 288 l 135 358 q 86 457 100 412 q 73 554 73 501 q 87 657 73 610 q 136 752 101 703 l 64 822 l 146 907 l 218 835 q 316 884 266 868 q 419 901 366 901 q 518 886 470 901 q 616 837 566 871 l 688 907 l 769 822 l 698 754 q 749 657 734 705 q 765 554 765 610 q 750 453 765 499 q 700 358 735 407 l 771 288 l 690 205 l 618 276 q 520 223 569 239 q 418 208 472 208 q 316 223 364 208 q 218 276 267 239 l 146 205 l 65 288 m 206 553 q 268 400 206 463 q 418 338 331 338 q 568 401 506 338 q 631 555 631 464 q 568 708 631 645 q 419 772 506 772 q 269 708 332 772 q 206 553 206 644 "},"Ĝ":{"x_min":59,"x_max":1069.9375,"ha":1167,"o":"m 1045 812 l 889 711 q 758 818 821 788 q 615 849 695 849 q 334 709 442 849 q 248 464 248 599 q 336 241 248 331 q 554 151 425 151 q 729 197 650 151 q 859 337 808 244 l 547 337 l 570 514 l 1069 514 q 924 120 1069 266 q 555 -25 780 -25 q 171 143 311 -25 q 59 464 59 278 q 222 857 59 691 q 613 1023 386 1023 q 777 998 697 1023 q 922 930 857 974 q 1045 812 986 886 m 585 1265 l 733 1265 l 909 1074 l 707 1074 l 646 1162 l 557 1074 l 354 1074 l 585 1265 "},"p":{"x_min":-5.921875,"x_max":839,"ha":917,"o":"m 175 -270 l -5 -270 l 126 738 l 304 738 l 294 658 q 404 735 353 714 q 519 757 455 757 q 752 649 666 757 q 839 398 839 541 q 784 190 839 289 q 636 36 729 91 q 443 -19 544 -19 q 318 12 375 -19 q 223 103 260 43 l 175 -270 m 477 596 q 361 565 411 596 q 278 471 312 535 q 245 341 245 408 q 295 201 245 254 q 428 148 345 148 q 591 219 524 148 q 659 402 659 290 q 608 542 659 489 q 477 596 557 596 "},"Ю":{"x_min":45.609375,"x_max":1465,"ha":1513,"o":"m 317 622 l 447 622 q 1009 1023 642 1023 q 1334 894 1204 1023 q 1465 573 1465 765 q 1289 150 1465 325 q 875 -25 1114 -25 q 669 18 763 -25 q 515 133 574 61 q 439 265 456 205 q 422 437 422 325 l 293 437 l 234 0 l 45 0 l 180 998 l 368 998 l 317 622 m 1273 546 q 1198 747 1273 658 q 988 837 1124 837 q 728 722 845 837 q 611 436 611 607 q 695 237 611 315 q 899 159 779 159 q 1161 275 1049 159 q 1273 546 1273 391 "},"ο":{"x_min":41,"x_max":812.03125,"ha":889,"o":"m 463 757 q 642 711 561 757 q 767 582 722 666 q 812 395 812 499 q 689 102 812 223 q 385 -19 566 -19 q 134 76 228 -19 q 41 325 41 171 q 167 634 41 511 q 463 757 294 757 m 450 585 q 280 505 339 585 q 221 332 221 425 q 269 199 221 250 q 398 149 317 149 q 573 226 513 149 q 633 402 633 303 q 582 534 633 483 q 450 585 531 585 "},"S":{"x_min":-10.34375,"x_max":689.75,"ha":722,"o":"m 689 859 l 553 738 q 396 847 468 847 q 336 825 360 847 q 313 774 313 804 q 334 712 313 746 q 466 562 356 678 q 543 475 524 500 q 606 363 587 415 q 626 257 626 311 q 540 56 626 137 q 321 -25 455 -25 q -10 168 117 -25 l 133 284 q 321 152 220 152 q 402 183 369 152 q 435 258 435 214 q 415 329 435 293 q 300 464 395 365 q 170 623 201 570 q 128 766 128 696 q 188 931 128 858 q 393 1023 264 1023 q 689 859 570 1023 "},"/":{"x_min":29.84375,"x_max":609.671875,"ha":639,"o":"m 29 -178 l 478 1026 l 609 1026 l 160 -178 l 29 -178 "},"►":{"x_min":195,"x_max":1179.03125,"ha":1375,"o":"m 195 961 l 1179 470 l 195 -21 l 195 961 "},"Ŧ":{"x_min":27.125,"x_max":662.578125,"ha":583,"o":"m 391 538 l 554 538 l 540 427 l 377 427 l 321 0 l 135 0 l 191 427 l 27 427 l 42 538 l 205 538 l 242 820 l 30 820 l 53 998 l 662 998 l 640 820 l 428 820 l 391 538 "},"ђ":{"x_min":31.671875,"x_max":738,"ha":838,"o":"m 305 663 q 523 757 422 757 q 678 699 618 757 q 738 547 738 641 q 720 388 738 515 l 667 0 q 632 -155 655 -87 q 552 -256 609 -223 q 433 -289 494 -289 q 298 -261 374 -289 l 318 -115 q 392 -136 357 -136 q 454 -108 434 -136 q 484 -13 474 -81 l 528 323 q 543 471 543 432 q 437 587 543 587 q 348 552 389 587 q 290 466 308 518 q 256 296 271 413 l 215 0 l 31 0 l 144 831 l 39 831 l 55 949 l 160 949 l 170 1022 l 353 1022 l 344 949 l 580 949 l 563 831 l 328 831 l 305 663 "},"y":{"x_min":28.484375,"x_max":799.5625,"ha":806,"o":"m 30 738 l 208 738 l 351 299 l 604 738 l 799 738 l 219 -270 l 28 -270 l 238 100 l 30 738 "},"Π":{"x_min":44.078125,"x_max":897.890625,"ha":945,"o":"m 179 997 l 897 997 l 762 0 l 575 0 l 687 821 l 342 821 l 230 0 l 44 0 l 179 997 "},"‗":{"x_min":-8,"x_max":703,"ha":695,"o":"m -8 -77 l 703 -77 l 703 -146 l -8 -146 l -8 -77 m -8 -197 l 703 -197 l 703 -266 l -8 -266 l -8 -197 "},"–":{"x_min":-8,"x_max":703,"ha":695,"o":"m -8 318 l -8 482 l 703 482 l 703 318 l -8 318 "},"ë":{"x_min":41,"x_max":816.078125,"ha":889,"o":"m 583 216 l 743 134 q 601 22 689 63 q 404 -19 512 -19 q 138 75 235 -19 q 41 328 41 170 q 162 632 41 508 q 456 757 284 757 q 641 711 560 757 q 769 579 722 666 q 816 390 816 492 q 809 316 816 358 l 222 316 q 270 194 222 239 q 402 149 318 149 q 583 216 504 149 m 629 449 q 562 551 609 516 q 447 587 514 587 q 327 550 380 587 q 245 449 273 514 l 629 449 m 344 1042 q 403 1018 379 1042 q 428 961 428 994 q 395 881 428 914 q 316 848 362 848 q 255 871 278 848 q 232 932 232 894 q 265 1009 232 976 q 344 1042 299 1042 m 645 1042 q 704 1018 680 1042 q 729 961 729 994 q 696 881 729 914 q 617 848 663 848 q 556 871 579 848 q 533 932 533 894 q 566 1009 533 976 q 645 1042 600 1042 "},"б":{"x_min":71,"x_max":893.296875,"ha":922,"o":"m 893 1038 l 869 867 q 672 856 794 856 q 489 845 549 856 q 376 796 430 834 q 297 708 323 757 q 250 561 271 660 q 547 754 358 754 q 763 670 670 754 q 856 436 856 587 q 726 114 856 247 q 408 -19 596 -19 q 225 32 302 -19 q 109 159 148 84 q 71 373 71 235 q 114 684 71 553 q 228 891 158 814 q 413 1000 298 968 q 766 1032 527 1032 q 893 1038 835 1032 m 666 409 q 619 533 666 483 q 491 583 573 583 q 327 509 394 583 q 260 339 260 436 q 308 203 260 253 q 432 154 357 154 q 595 227 525 154 q 666 409 666 300 "},"ƒ":{"x_min":32.546875,"x_max":714.796875,"ha":778,"o":"m 714 985 l 692 823 q 598 864 636 864 q 554 840 570 864 q 526 735 537 817 l 512 634 l 663 634 l 640 475 l 487 475 l 415 -38 q 375 -186 402 -137 q 306 -262 349 -236 q 213 -289 263 -289 q 133 -276 174 -289 q 32 -227 92 -263 l 55 -63 q 164 -114 120 -114 q 205 -94 190 -114 q 229 -4 220 -74 l 302 475 l 148 475 l 171 634 l 325 634 l 347 802 q 412 985 365 929 q 547 1042 459 1042 q 626 1030 591 1042 q 714 985 662 1019 "},"у":{"x_min":28.484375,"x_max":799.5625,"ha":806,"o":"m 30 738 l 208 738 l 351 299 l 604 738 l 799 738 l 219 -270 l 28 -270 l 238 100 l 30 738 "},"J":{"x_min":-31.875,"x_max":623.234375,"ha":667,"o":"m 436 998 l 623 998 l 529 293 q 482 96 510 154 q 399 6 453 38 q 272 -25 345 -25 q 100 27 182 -25 q -31 178 18 80 l 116 268 q 194 180 155 207 q 263 153 233 153 q 312 177 295 153 q 339 283 330 201 l 436 998 "},"ŷ":{"x_min":28.484375,"x_max":799.5625,"ha":806,"o":"m 30 738 l 208 738 l 351 299 l 604 738 l 799 738 l 219 -270 l 28 -270 l 238 100 l 30 738 m 377 1042 l 525 1042 l 701 851 l 499 851 l 438 939 l 349 851 l 146 851 l 377 1042 "},"ŕ":{"x_min":-10.84375,"x_max":602.21875,"ha":444,"o":"m 85 738 l 246 738 l 233 637 q 408 757 306 757 q 459 744 432 757 l 394 580 q 364 587 373 587 q 270 525 311 587 q 206 277 229 464 l 170 0 l -10 0 l 85 738 m 383 1138 l 602 1138 l 316 872 l 183 872 l 383 1138 "},"ώ":{"x_min":31,"x_max":1112,"ha":1191,"o":"m 538 90 q 320 -19 456 -19 q 107 59 184 -19 q 31 280 31 138 q 157 612 31 487 q 513 759 284 736 l 513 589 q 211 283 211 553 q 335 148 211 148 q 483 335 458 148 l 495 424 l 672 424 l 659 335 q 655 276 655 304 q 757 148 655 148 q 930 372 930 148 q 701 589 930 557 l 737 759 q 1014 642 917 739 q 1112 391 1112 545 q 1013 89 1112 197 q 734 -19 915 -19 q 538 90 593 -19 m 770 1112 l 705 853 l 576 853 l 576 1112 l 770 1112 "},"↑":{"x_min":103.453125,"x_max":591.546875,"ha":695,"o":"m 103 711 q 329 992 281 871 l 360 992 q 591 710 419 861 l 591 658 q 382 791 451 723 l 382 -291 l 313 -291 l 313 791 q 103 659 218 714 l 103 711 "},"D":{"x_min":47.828125,"x_max":917,"ha":973,"o":"m 181 998 l 340 998 q 671 945 563 998 q 848 780 780 892 q 917 520 917 667 q 844 242 917 369 q 662 58 772 116 q 357 0 552 0 l 47 0 l 181 998 m 346 822 l 260 174 l 321 174 q 527 197 464 174 q 671 313 617 231 q 726 516 726 395 q 687 682 726 615 q 579 785 649 749 q 393 822 509 822 l 346 822 "},"ł":{"x_min":-0.671875,"x_max":447.59375,"ha":444,"o":"m 329 630 l 447 697 l 431 565 l 311 499 l 245 0 l 65 0 l 117 391 l 0 326 l 17 455 l 134 521 l 200 1023 l 381 1023 l 329 630 "},"ĺ":{"x_min":9.5,"x_max":585.265625,"ha":333,"o":"m 145 1023 l 325 1023 l 189 0 l 9 0 l 145 1023 m 366 1361 l 585 1361 l 299 1095 l 166 1095 l 366 1361 "},"ц":{"x_min":31.203125,"x_max":866.703125,"ha":899,"o":"m 691 177 l 866 177 l 825 -130 l 649 -130 l 665 0 l 31 0 l 130 737 l 316 737 l 240 178 l 505 178 l 581 737 l 767 737 l 691 177 "},"Л":{"x_min":-57.640625,"x_max":903.328125,"ha":977,"o":"m 700 0 l 523 733 l 143 0 l -57 0 l 461 998 l 653 998 l 903 0 l 700 0 "},"$":{"x_min":-9.984375,"x_max":726.234375,"ha":778,"o":"m 419 1090 l 538 1090 l 526 1009 q 632 962 587 993 q 726 871 677 932 l 595 769 q 509 842 548 822 q 430 862 470 862 q 343 830 379 862 q 307 759 307 798 q 313 722 307 738 q 345 684 324 702 q 425 631 353 676 q 568 534 531 565 q 662 420 631 480 q 693 289 693 360 q 653 138 693 209 q 548 27 614 67 q 381 -22 483 -13 l 356 -201 l 238 -201 l 263 -22 q 104 44 166 -4 q -9 195 42 93 l 152 277 q 350 135 225 135 q 466 177 420 135 q 513 277 513 219 q 481 365 513 325 q 336 471 450 404 q 170 608 212 544 q 127 747 127 671 q 199 930 127 846 q 409 1015 272 1015 l 419 1090 "},"w":{"x_min":35.265625,"x_max":1106.765625,"ha":1111,"o":"m 35 738 l 209 738 l 311 342 l 526 738 l 597 738 l 700 342 l 914 738 l 1106 738 l 705 0 l 618 0 l 518 390 l 307 0 l 221 0 l 35 738 "},"о":{"x_min":41,"x_max":812.03125,"ha":889,"o":"m 463 757 q 642 711 561 757 q 767 582 722 666 q 812 395 812 499 q 689 102 812 223 q 385 -19 566 -19 q 134 76 228 -19 q 41 325 41 171 q 167 634 41 511 q 463 757 294 757 m 450 585 q 280 505 339 585 q 221 332 221 425 q 269 199 221 250 q 398 149 317 149 q 573 226 513 149 q 633 402 633 303 q 582 534 633 483 q 450 585 531 585 "},"Д":{"x_min":-73.921875,"x_max":1024.71875,"ha":1082,"o":"m 510 997 l 703 997 l 912 179 l 1024 179 l 979 -149 l 795 -149 l 815 0 l 130 0 l 109 -149 l -73 -149 l -29 179 l 80 179 l 510 997 m 569 737 l 279 178 l 712 178 l 569 737 "},"Ç":{"x_min":59,"x_max":1033.828125,"ha":1083,"o":"m 1033 869 l 897 743 q 789 821 853 794 q 651 849 725 849 q 451 795 546 849 q 302 653 355 741 q 249 465 249 565 q 342 240 249 330 q 582 150 436 150 q 854 241 739 150 l 964 95 q 570 -25 794 -25 q 302 34 413 -25 q 125 210 192 94 q 59 460 59 325 q 138 737 59 605 q 352 946 217 870 q 646 1023 487 1023 q 1033 869 870 1023 m 485 10 l 600 10 l 588 -20 q 649 -55 628 -31 q 671 -111 671 -80 q 618 -214 671 -169 q 478 -259 565 -259 q 331 -227 405 -259 l 368 -139 q 462 -156 416 -156 q 517 -140 497 -156 q 538 -102 538 -125 q 526 -77 538 -85 q 484 -69 515 -69 l 449 -69 l 485 10 "},"Ŝ":{"x_min":-10.34375,"x_max":690.421875,"ha":722,"o":"m 689 859 l 553 738 q 396 847 468 847 q 336 825 360 847 q 313 774 313 804 q 334 712 313 746 q 466 562 356 678 q 543 475 524 500 q 606 363 587 415 q 626 257 626 311 q 540 56 626 137 q 321 -25 455 -25 q -10 168 117 -25 l 133 284 q 321 152 220 152 q 402 183 369 152 q 435 258 435 214 q 415 329 435 293 q 300 464 395 365 q 170 623 201 570 q 128 766 128 696 q 188 931 128 858 q 393 1023 264 1023 q 689 859 570 1023 m 366 1265 l 514 1265 l 690 1074 l 488 1074 l 426 1162 l 338 1074 l 135 1074 l 366 1265 "},"C":{"x_min":59,"x_max":1033.640625,"ha":1083,"o":"m 1033 869 l 897 743 q 789 821 853 794 q 651 849 725 849 q 451 795 546 849 q 302 653 355 741 q 249 465 249 565 q 342 239 249 329 q 582 150 436 150 q 853 240 739 150 l 964 95 q 570 -25 794 -25 q 302 34 413 -25 q 125 210 192 94 q 59 460 59 325 q 138 737 59 605 q 352 946 217 870 q 646 1023 486 1023 q 1033 869 870 1023 "},"Ĵ":{"x_min":-31.875,"x_max":722.25,"ha":667,"o":"m 436 998 l 623 998 l 529 293 q 482 96 510 154 q 399 6 453 38 q 272 -25 345 -25 q 100 27 182 -25 q -31 178 18 80 l 116 268 q 194 180 155 207 q 263 153 233 153 q 312 177 295 153 q 339 283 330 201 l 436 998 m 398 1265 l 546 1265 l 722 1074 l 520 1074 l 459 1162 l 370 1074 l 167 1074 l 398 1265 "},"È":{"x_min":35.265625,"x_max":708.015625,"ha":722,"o":"m 166 998 l 708 998 l 684 821 l 332 821 l 303 615 l 657 615 l 635 439 l 281 439 l 246 174 l 602 174 l 578 0 l 35 0 l 166 998 m 256 1361 l 474 1361 l 598 1095 l 465 1095 l 256 1361 "},"X":{"x_min":10.84375,"x_max":937.234375,"ha":945,"o":"m 169 998 l 362 998 l 502 689 l 720 998 l 937 998 l 585 504 l 815 0 l 621 0 l 469 338 l 229 0 l 10 0 l 385 523 l 169 998 "},"ô":{"x_min":41,"x_max":812.03125,"ha":889,"o":"m 463 757 q 642 711 561 757 q 767 582 722 666 q 812 395 812 499 q 689 102 812 223 q 385 -19 566 -19 q 134 76 228 -19 q 41 325 41 171 q 167 634 41 511 q 463 757 294 757 m 450 585 q 280 505 339 585 q 221 332 221 425 q 269 199 221 250 q 398 149 317 149 q 573 226 513 149 q 633 402 633 303 q 582 534 633 483 q 450 585 531 585 m 455 1042 l 603 1042 l 778 851 l 576 851 l 515 939 l 427 851 l 224 851 l 455 1042 "},"Ė":{"x_min":35.578125,"x_max":708.34375,"ha":723,"o":"m 166 998 l 708 998 l 685 821 l 332 821 l 304 615 l 658 615 l 635 439 l 281 439 l 246 174 l 602 174 l 578 0 l 35 0 l 166 998 m 467 1265 q 526 1241 502 1265 q 551 1184 551 1217 q 518 1104 551 1137 q 439 1071 485 1071 q 378 1094 401 1071 q 355 1155 355 1117 q 388 1232 355 1199 q 467 1265 422 1265 "},"г":{"x_min":31.203125,"x_max":561.53125,"ha":546,"o":"m 130 738 l 561 738 l 537 562 l 292 562 l 217 0 l 31 0 l 130 738 "},"Ŀ":{"x_min":48.875,"x_max":569.03125,"ha":611,"o":"m 183 998 l 371 998 l 259 172 l 569 172 l 547 0 l 48 0 l 183 998 m 483 593 q 542 569 518 593 q 567 512 567 545 q 534 432 567 465 q 455 399 501 399 q 394 422 417 399 q 371 483 371 445 q 404 560 371 527 q 483 593 438 593 "},"х":{"x_min":-20.34375,"x_max":733.09375,"ha":778,"o":"m 40 738 l 240 738 l 368 528 l 522 738 l 733 738 l 465 371 l 692 0 l 493 0 l 356 223 l 190 0 l -20 0 l 260 379 l 40 738 "},"ŋ":{"x_min":30.890625,"x_max":733,"ha":833,"o":"m 331 -262 l 353 -99 q 409 -119 382 -119 q 464 -77 448 -119 q 494 61 481 -35 l 540 403 q 549 495 549 463 q 520 568 549 546 q 451 590 491 590 q 354 553 401 590 q 285 459 306 517 q 245 261 264 400 l 211 0 l 30 0 l 130 738 l 310 738 l 300 663 q 515 757 399 757 q 672 694 612 757 q 733 543 733 632 q 721 413 733 499 l 667 8 q 584 -230 643 -172 q 443 -289 525 -289 q 331 -262 393 -289 "},"Ч":{"x_min":66,"x_max":792.375,"ha":838,"o":"m 524 437 l 461 437 q 206 467 274 437 q 102 551 138 498 q 66 704 66 603 q 73 800 66 745 l 99 998 l 292 998 l 265 803 q 260 749 260 768 q 276 674 260 703 q 322 634 293 646 q 418 622 350 622 l 549 622 l 600 998 l 792 998 l 657 0 l 465 0 l 524 437 "},"∟":{"x_min":245,"x_max":1113.921875,"ha":1359,"o":"m 245 867 l 313 867 l 313 68 l 1113 68 l 1113 0 l 245 0 l 245 867 "},"ü":{"x_min":76,"x_max":768.8125,"ha":834,"o":"m 132 738 l 311 738 l 262 360 q 254 267 254 298 q 287 185 254 218 q 376 152 321 152 q 483 194 445 152 q 538 368 521 237 l 589 738 l 768 738 l 715 341 q 653 133 696 206 q 539 20 610 59 q 371 -19 468 -19 q 156 59 236 -19 q 76 261 76 137 q 92 457 76 337 l 132 738 m 316 1042 q 375 1018 351 1042 q 400 961 400 994 q 367 881 400 914 q 288 848 334 848 q 227 871 250 848 q 204 932 204 894 q 237 1009 204 976 q 316 1042 271 1042 m 617 1042 q 676 1018 652 1042 q 701 961 701 994 q 668 881 701 914 q 589 848 635 848 q 528 871 551 848 q 505 932 505 894 q 538 1009 505 976 q 617 1042 572 1042 "},"ь":{"x_min":31.171875,"x_max":628,"ha":705,"o":"m 316 737 l 280 472 l 334 472 q 566 408 504 472 q 628 250 628 345 q 599 125 628 182 q 531 42 571 68 q 445 7 491 15 q 291 0 399 0 l 31 0 l 130 737 l 316 737 m 235 142 l 291 142 q 403 167 372 142 q 434 243 434 192 q 336 321 434 321 l 259 321 l 235 142 "},"Ÿ":{"x_min":44.703125,"x_max":887.921875,"ha":861,"o":"m 44 998 l 233 998 l 389 598 l 672 998 l 887 998 l 462 398 l 408 0 l 221 0 l 276 398 l 44 998 m 371 1265 q 430 1241 406 1265 q 455 1184 455 1217 q 422 1104 455 1137 q 343 1071 389 1071 q 282 1094 305 1071 q 259 1155 259 1117 q 292 1232 259 1199 q 371 1265 326 1265 m 671 1265 q 730 1241 706 1265 q 755 1184 755 1217 q 722 1104 755 1137 q 643 1071 689 1071 q 582 1094 605 1071 q 559 1155 559 1117 q 592 1232 559 1199 q 671 1265 626 1265 "},"€":{"x_min":6.65625,"x_max":793.015625,"ha":778,"o":"m 297 345 q 615 149 388 149 q 753 172 683 149 l 753 -8 q 612 -25 689 -25 q 98 345 200 -25 l 6 345 l 41 456 l 86 456 q 91 542 86 487 l 6 542 l 41 653 l 123 653 q 343 922 193 824 q 681 1021 493 1021 q 793 1010 746 1021 l 740 841 q 685 847 716 847 q 480 794 575 847 q 329 653 386 742 l 681 653 l 645 542 l 285 542 q 277 485 277 508 l 277 456 l 620 456 l 586 345 l 297 345 "},"в":{"x_min":50.5,"x_max":672,"ha":759,"o":"m 50 0 l 150 738 l 436 738 q 604 685 546 738 q 662 558 662 632 q 525 398 662 439 q 672 207 672 340 q 378 0 672 0 l 50 0 m 296 443 l 378 443 q 446 467 416 443 q 476 527 476 491 q 378 604 476 604 l 318 604 l 296 443 m 253 136 l 345 136 q 473 220 473 136 q 351 315 473 315 l 279 315 l 253 136 "},"Η":{"x_min":46.109375,"x_max":898.578125,"ha":945,"o":"m 180 997 l 368 997 l 318 621 l 659 621 l 710 997 l 898 997 l 762 0 l 575 0 l 637 453 l 293 453 l 232 0 l 46 0 l 180 997 "},"С":{"x_min":59,"x_max":1033.640625,"ha":1083,"o":"m 1033 869 l 897 743 q 789 821 853 794 q 651 849 725 849 q 451 795 546 849 q 302 653 355 741 q 249 465 249 565 q 342 239 249 329 q 582 150 436 150 q 853 240 739 150 l 964 95 q 570 -25 794 -25 q 302 34 413 -25 q 125 210 192 94 q 59 460 59 325 q 138 737 59 605 q 352 946 217 870 q 646 1023 486 1023 q 1033 869 870 1023 "},"ß":{"x_min":31.5625,"x_max":769,"ha":833,"o":"m 369 494 l 390 637 q 497 657 449 637 q 566 710 544 678 q 589 779 589 742 q 558 844 589 817 q 480 872 528 872 q 362 820 410 872 q 300 655 313 769 l 295 615 l 211 0 l 31 0 l 106 587 q 175 861 131 779 q 303 992 220 943 q 490 1042 386 1042 q 693 972 617 1042 q 769 799 769 903 q 718 648 769 713 q 579 555 668 583 q 744 302 744 472 q 647 73 744 166 q 401 -19 551 -19 q 277 4 334 -19 l 297 174 q 391 149 342 149 q 517 198 466 149 q 568 320 568 247 q 514 445 568 396 q 369 494 461 494 "},"њ":{"x_min":30.40625,"x_max":1084,"ha":1162,"o":"m 773 737 l 737 472 l 792 472 q 1022 408 960 472 q 1084 250 1084 344 q 1056 125 1084 182 q 988 42 1028 68 q 902 7 947 15 q 748 0 856 0 l 487 0 l 528 306 l 256 306 l 215 0 l 30 0 l 130 737 l 315 737 l 279 472 l 551 472 l 587 737 l 773 737 m 716 321 l 692 142 l 748 142 q 860 167 829 142 q 891 243 891 192 q 793 321 891 321 l 716 321 "},"Ű":{"x_min":85,"x_max":1066.53125,"ha":889,"o":"m 175 998 l 362 998 l 279 382 q 269 268 269 301 q 303 180 269 212 q 405 149 338 149 q 498 172 458 149 q 546 231 528 190 q 581 394 564 272 l 665 998 l 853 998 l 772 402 q 706 138 747 218 q 588 16 665 58 q 401 -25 511 -25 q 168 54 251 -25 q 85 271 85 133 q 101 447 85 331 l 175 998 m 545 1362 l 764 1362 l 478 1096 l 345 1096 l 545 1362 m 847 1362 l 1066 1362 l 781 1096 l 648 1096 l 847 1362 "},"c":{"x_min":41,"x_max":804.90625,"ha":889,"o":"m 804 585 l 651 502 q 476 585 586 585 q 345 553 402 585 q 254 462 288 521 q 221 335 221 402 q 274 198 221 250 q 421 147 328 147 q 620 234 551 147 l 762 134 q 612 21 702 62 q 412 -19 522 -19 q 140 75 239 -19 q 41 326 41 170 q 163 631 41 505 q 479 757 286 757 q 804 585 697 757 "},"¶":{"x_min":110.203125,"x_max":716,"ha":833,"o":"m 374 -256 l 374 482 q 179 552 249 482 q 110 749 110 623 q 185 957 110 887 q 431 1027 261 1027 l 716 1027 l 716 948 l 660 948 l 660 -256 l 566 -256 l 566 948 l 468 948 l 468 -256 l 374 -256 "},"Ή":{"x_min":-1,"x_max":1008.78125,"ha":1055,"o":"m 290 997 l 478 997 l 428 621 l 769 621 l 820 997 l 1008 997 l 873 0 l 685 0 l 747 453 l 403 453 l 342 0 l 156 0 l 290 997 m 193 1023 l 129 764 l -1 764 l -1 1023 l 193 1023 "},"γ":{"x_min":37.296875,"x_max":763.625,"ha":778,"o":"m 396 105 l 346 -270 l 166 -270 l 217 106 l 37 738 l 214 738 l 330 327 l 566 738 l 763 738 l 396 105 "},"­":{"x_min":84.09375,"x_max":471.328125,"ha":583,"o":"m 105 450 l 471 450 l 450 285 l 84 285 l 105 450 "},":":{"x_min":25,"x_max":330,"ha":388,"o":"m 216 757 q 296 723 262 757 q 330 643 330 690 q 296 563 330 596 q 216 530 262 530 q 135 563 168 530 q 102 643 102 596 q 134 724 102 691 q 216 757 167 757 m 139 209 q 219 175 185 209 q 253 95 253 142 q 219 14 253 48 q 139 -19 185 -19 q 58 14 91 -19 q 25 95 25 48 q 58 175 25 142 q 139 209 91 209 "},"ś":{"x_min":-18.875,"x_max":619.125,"ha":611,"o":"m 535 635 l 449 496 q 379 569 416 546 q 311 593 343 593 q 269 579 286 593 q 253 548 253 565 q 266 516 253 532 q 344 453 279 500 q 481 325 448 378 q 514 209 514 272 q 446 54 514 127 q 250 -19 379 -19 q 116 10 177 -19 q -18 120 55 40 l 93 250 q 259 150 168 150 q 316 167 295 150 q 338 208 338 184 q 321 247 338 227 q 232 318 305 267 q 116 421 148 378 q 72 547 72 481 q 142 698 72 640 q 307 757 212 757 q 435 725 375 757 q 535 635 495 693 m 400 1138 l 619 1138 l 333 872 l 200 872 l 400 1138 "}," ":{"x_min":0,"x_max":0,"ha":389},"У":{"x_min":-5.421875,"x_max":971.8125,"ha":928,"o":"m 383 230 l 135 997 l 348 997 l 508 441 l 775 998 l 971 998 l 609 284 q 434 34 511 91 q 253 -23 357 -23 q -5 122 99 -23 l 135 247 q 206 176 175 193 q 278 160 236 160 q 383 230 334 160 "},"¾":{"x_min":56,"x_max":1129.953125,"ha":1167,"o":"m 237 872 l 119 872 q 177 983 129 943 q 301 1023 226 1023 q 418 983 373 1023 q 464 889 464 943 q 383 772 464 820 q 452 658 452 729 q 391 537 452 589 q 241 485 331 485 q 142 508 184 485 q 77 569 99 531 q 56 667 56 607 l 178 667 q 249 589 178 589 q 305 610 283 589 q 328 663 328 631 q 303 708 328 690 q 217 727 279 727 l 233 824 q 312 841 287 824 q 337 883 337 858 q 324 908 337 898 q 290 919 311 919 q 237 872 245 919 m 224 -25 l 894 1023 l 1010 1023 l 340 -25 l 224 -25 m 1012 526 l 1126 526 l 1074 195 l 1129 195 l 1114 95 l 1058 95 l 1043 0 l 931 0 l 946 95 l 691 95 l 706 190 l 1012 526 m 984 358 l 838 195 l 961 195 l 984 358 "},"Ί":{"x_min":-1,"x_max":466.9375,"ha":499,"o":"m 283 998 l 466 998 l 329 0 l 149 0 l 283 998 m 193 1023 l 129 764 l -1 764 l -1 1023 l 193 1023 "},"ŉ":{"x_min":-16.671875,"x_max":777,"ha":877,"o":"m 174 738 l 354 738 l 344 663 q 559 757 447 757 q 716 696 655 757 q 777 543 777 635 q 765 413 777 499 l 710 0 l 531 0 l 584 403 q 593 497 593 465 q 567 565 593 541 q 495 590 542 590 q 404 558 449 590 q 334 470 359 526 q 289 261 310 415 l 255 0 l 74 0 l 174 738 m 21 1023 l 192 1023 l 180 938 q 141 788 169 848 q 41 643 114 727 l -16 694 q 62 829 40 769 l -5 829 l 21 1023 "},"Ģ":{"x_min":59,"x_max":1069.9375,"ha":1167,"o":"m 1045 812 l 889 711 q 758 818 821 788 q 615 849 695 849 q 334 709 442 849 q 248 464 248 599 q 336 241 248 331 q 554 151 424 151 q 729 197 650 151 q 858 337 808 244 l 547 337 l 570 514 l 1069 514 q 924 120 1069 266 q 555 -25 780 -25 q 171 143 311 -25 q 59 464 59 278 q 222 857 59 691 q 613 1023 386 1023 q 777 998 697 1023 q 922 930 857 974 q 1045 812 986 886 m 509 10 l 624 10 l 612 -20 q 673 -55 652 -31 q 695 -111 695 -80 q 642 -214 695 -169 q 502 -259 589 -259 q 356 -227 429 -259 l 392 -139 q 486 -156 440 -156 q 542 -140 522 -156 q 562 -102 562 -125 q 550 -77 562 -85 q 508 -69 539 -69 l 474 -69 l 509 10 "},"m":{"x_min":30.578125,"x_max":1203,"ha":1305,"o":"m 126 738 l 308 738 l 297 657 q 518 757 396 757 q 610 740 567 757 q 680 696 653 723 q 726 622 707 669 q 845 722 777 688 q 988 757 914 757 q 1141 694 1080 757 q 1203 533 1203 632 q 1196 440 1203 496 l 1137 0 l 958 0 l 1007 378 q 1018 480 1018 455 q 991 559 1018 532 q 918 587 965 587 q 825 554 872 587 q 753 466 777 521 q 711 279 728 412 l 674 0 l 493 0 l 547 401 q 554 484 554 450 q 526 560 554 532 q 453 589 498 589 q 363 558 409 589 q 292 476 318 528 q 253 317 267 424 l 211 0 l 30 0 l 126 738 "},"Е":{"x_min":35.265625,"x_max":708.015625,"ha":722,"o":"m 166 998 l 708 998 l 684 821 l 332 821 l 303 615 l 657 615 l 635 439 l 281 439 l 246 174 l 602 174 l 578 0 l 35 0 l 166 998 "},"ž":{"x_min":-48.15625,"x_max":667.3125,"ha":639,"o":"m 59 738 l 643 738 l 265 167 l 611 167 l 588 0 l -48 0 l 328 569 l 37 569 l 59 738 m 436 851 l 288 851 l 112 1042 l 314 1042 l 375 953 l 463 1042 l 667 1042 l 436 851 "},"á":{"x_min":39,"x_max":848.65625,"ha":917,"o":"m 667 738 l 848 738 l 752 0 l 573 0 l 583 79 q 473 2 524 24 q 358 -19 422 -19 q 125 88 211 -19 q 39 339 39 196 q 93 547 39 449 q 241 701 148 646 q 435 757 333 757 q 560 725 502 757 q 654 634 617 694 l 667 738 m 400 142 q 516 171 466 142 q 599 265 565 201 q 633 395 633 329 q 582 536 633 483 q 449 590 532 590 q 286 518 353 590 q 219 334 219 447 q 269 194 219 247 q 400 142 320 142 m 583 1137 l 802 1137 l 517 872 l 384 872 l 583 1137 "},"×":{"x_min":101.71875,"x_max":731.75,"ha":833,"o":"m 417 398 l 202 184 l 101 284 l 316 499 l 101 714 l 202 814 l 417 599 l 631 814 l 731 714 l 516 499 l 731 284 l 631 184 l 417 398 "},"п":{"x_min":31.203125,"x_max":767.015625,"ha":833,"o":"m 216 0 l 31 0 l 130 738 l 767 738 l 667 0 l 481 0 l 556 560 l 292 560 l 216 0 "},"Ǻ":{"x_min":-16.578125,"x_max":928.359375,"ha":1027,"o":"m 522 997 l 679 997 l 928 0 l 746 0 l 693 212 l 299 212 l 184 0 l -16 0 l 522 997 m 648 388 l 568 715 l 392 388 l 648 388 m 642 1261 q 733 1224 697 1261 q 769 1129 769 1188 q 716 1010 769 1062 q 597 958 664 958 q 505 995 541 958 q 469 1089 469 1032 q 520 1210 469 1159 q 642 1261 571 1261 m 629 1174 q 582 1153 602 1174 q 563 1105 563 1133 q 576 1067 563 1081 q 610 1053 589 1053 q 655 1073 635 1053 q 675 1121 675 1094 q 661 1159 675 1144 q 629 1174 648 1174 m 672 1557 l 891 1557 l 606 1293 l 473 1293 l 672 1557 "},"K":{"x_min":50.1875,"x_max":878.234375,"ha":861,"o":"m 183 998 l 370 998 l 324 658 l 646 998 l 878 998 l 443 541 l 787 0 l 577 0 l 296 443 l 236 0 l 50 0 l 183 998 "},"7":{"x_min":115.96875,"x_max":783.28125,"ha":778,"o":"m 160 998 l 783 998 l 772 875 l 268 -24 l 115 59 l 549 825 l 139 825 l 160 998 "},"¨":{"x_min":135,"x_max":631,"ha":694,"o":"m 247 1042 q 306 1018 282 1042 q 331 961 331 994 q 298 881 331 914 q 219 848 265 848 q 158 871 181 848 q 135 932 135 894 q 168 1009 135 976 q 247 1042 202 1042 m 547 1042 q 606 1018 582 1042 q 631 961 631 994 q 598 881 631 914 q 519 848 565 848 q 458 871 481 848 q 435 932 435 894 q 468 1009 435 976 q 547 1042 502 1042 "},"Y":{"x_min":44.765625,"x_max":888.40625,"ha":861,"o":"m 44 998 l 233 998 l 389 598 l 673 998 l 888 998 l 462 398 l 408 0 l 221 0 l 276 398 l 44 998 "},"E":{"x_min":35.265625,"x_max":708.015625,"ha":722,"o":"m 166 998 l 708 998 l 684 821 l 332 821 l 303 615 l 657 615 l 635 439 l 281 439 l 246 174 l 602 174 l 578 0 l 35 0 l 166 998 "},"Ô":{"x_min":56,"x_max":1114,"ha":1167,"o":"m 641 1023 q 980 890 846 1023 q 1114 554 1114 758 q 1034 260 1114 398 q 824 48 955 122 q 523 -25 693 -25 q 183 101 310 -25 q 56 433 56 227 q 207 835 56 667 q 641 1023 377 1023 m 634 846 q 438 794 527 846 q 296 644 350 742 q 242 443 242 547 q 317 235 242 320 q 533 150 392 150 q 810 265 696 150 q 925 545 925 380 q 844 763 925 681 q 634 846 764 846 m 636 1265 l 784 1265 l 959 1074 l 757 1074 l 696 1162 l 608 1074 l 405 1074 l 636 1265 "},"Є":{"x_min":55,"x_max":1070.21875,"ha":1080,"o":"m 867 300 l 977 165 q 737 12 844 50 q 518 -25 630 -25 q 180 97 306 -25 q 55 420 55 220 q 238 850 55 677 q 667 1023 422 1023 q 1070 821 916 1023 l 920 694 q 634 838 806 838 q 412 766 516 838 q 270 577 307 695 l 652 577 l 629 404 l 246 404 q 348 219 263 281 q 545 157 434 157 q 704 189 630 157 q 867 300 777 221 m 240 488 l 240 488 "},"Ï":{"x_min":31,"x_max":527,"ha":388,"o":"m 173 998 l 356 998 l 218 0 l 39 0 l 173 998 m 143 1265 q 202 1241 178 1265 q 227 1184 227 1217 q 194 1104 227 1137 q 115 1071 161 1071 q 54 1094 77 1071 q 31 1155 31 1117 q 64 1232 31 1199 q 143 1265 98 1265 m 443 1265 q 502 1241 478 1265 q 527 1184 527 1217 q 494 1104 527 1137 q 415 1071 461 1071 q 354 1094 377 1071 q 331 1155 331 1117 q 364 1232 331 1199 q 443 1265 398 1265 "},"ġ":{"x_min":21.328125,"x_max":848.265625,"ha":917,"o":"m 667 738 l 848 738 l 767 147 q 718 -84 743 -27 q 586 -231 679 -173 q 353 -289 493 -289 q 150 -243 236 -289 q 21 -127 64 -198 l 176 -46 q 358 -120 246 -120 q 471 -96 423 -120 q 545 -32 518 -72 q 582 87 571 8 q 359 0 484 0 q 198 43 272 0 q 83 166 125 87 q 41 343 41 246 q 95 548 41 452 q 245 700 150 644 q 443 757 340 757 q 556 732 505 757 q 655 650 607 708 l 667 738 m 452 586 q 286 516 353 586 q 219 346 219 447 q 269 215 219 264 q 403 166 319 166 q 520 196 466 166 q 604 283 573 226 q 636 406 636 340 q 584 534 636 483 q 452 586 532 586 m 506 1042 q 565 1018 541 1042 q 590 961 590 994 q 557 881 590 914 q 478 848 524 848 q 417 871 440 848 q 394 932 394 894 q 427 1009 394 976 q 506 1042 461 1042 "},"έ":{"x_min":16,"x_max":577.28125,"ha":609,"o":"m 536 65 q 278 -19 428 -19 q 95 31 175 -19 q 16 184 16 82 q 179 394 16 336 q 96 533 96 446 q 176 696 96 635 q 374 757 256 757 q 577 681 491 757 l 487 553 q 372 598 424 598 q 300 575 330 598 q 270 517 270 553 q 298 465 270 485 q 366 445 327 445 l 403 445 l 385 313 l 337 313 q 253 289 292 313 q 214 222 214 266 q 243 166 214 188 q 313 145 273 145 q 472 206 386 145 l 536 65 m 479 1112 l 415 853 l 285 853 l 285 1112 l 479 1112 "},"ϋ":{"x_min":49,"x_max":756.03125,"ha":833,"o":"m 103 738 l 283 738 l 235 377 q 229 295 229 328 q 371 153 229 153 q 520 221 464 153 q 577 391 577 290 q 426 611 577 514 l 540 759 q 756 401 756 631 q 642 99 756 218 q 348 -19 528 -19 q 49 280 49 -19 q 57 387 49 329 l 103 738 m 338 1042 q 397 1018 373 1042 q 422 961 422 994 q 389 881 422 914 q 310 848 356 848 q 249 871 272 848 q 226 932 226 894 q 259 1009 226 976 q 338 1042 293 1042 m 638 1042 q 697 1018 673 1042 q 722 961 722 994 q 689 881 722 914 q 610 848 656 848 q 549 871 572 848 q 526 932 526 894 q 559 1009 526 976 q 638 1042 593 1042 "},"й":{"x_min":31.15625,"x_max":771.703125,"ha":833,"o":"m 130 0 l 31 0 l 130 738 l 311 738 l 255 307 l 670 738 l 766 738 l 667 0 l 482 0 l 542 422 l 130 0 m 219 1062 l 369 1062 q 404 1023 381 1035 q 488 1007 438 1007 q 567 1020 534 1007 q 621 1063 601 1034 l 771 1063 q 667 924 745 975 q 469 873 589 873 q 281 925 344 873 q 219 1062 219 977 "},"b":{"x_min":29.34375,"x_max":839,"ha":917,"o":"m 210 0 l 29 0 l 162 1023 l 341 1023 l 294 658 q 404 735 353 714 q 519 757 455 757 q 752 649 666 757 q 839 398 839 541 q 784 190 839 289 q 636 36 729 91 q 443 -19 544 -19 q 317 12 375 -19 q 223 103 260 43 l 210 0 m 477 596 q 361 565 411 596 q 278 471 312 535 q 245 341 245 408 q 295 201 245 254 q 428 148 345 148 q 591 219 524 148 q 659 402 659 290 q 608 542 659 489 q 477 596 557 596 "},"ύ":{"x_min":49,"x_max":756.03125,"ha":833,"o":"m 103 738 l 283 738 l 235 377 q 229 295 229 328 q 371 153 229 153 q 520 221 464 153 q 577 391 577 290 q 426 611 577 514 l 541 759 q 756 401 756 631 q 642 99 756 218 q 348 -19 528 -19 q 49 280 49 -19 q 57 387 49 329 l 103 738 m 591 1112 l 526 853 l 397 853 l 397 1112 l 591 1112 "},"ф":{"x_min":41,"x_max":1345,"ha":1412,"o":"m 561 75 q 343 -22 475 -22 q 125 71 209 -22 q 41 295 41 164 q 156 621 41 488 q 437 754 272 754 q 641 661 569 754 l 689 1022 l 873 1022 l 824 661 q 1049 757 913 757 q 1262 668 1179 757 q 1345 438 1345 579 q 1222 110 1345 240 q 944 -19 1100 -19 q 745 78 812 -19 l 699 -270 l 515 -270 l 561 75 m 1157 411 q 1112 537 1157 489 q 992 585 1067 585 q 832 505 895 585 q 769 320 769 426 q 814 192 769 235 q 931 149 860 149 q 1090 227 1024 149 q 1157 411 1157 306 m 616 410 q 571 536 616 490 q 452 583 527 583 q 294 505 359 583 q 229 328 229 427 q 273 200 229 252 q 395 148 318 148 q 553 221 491 148 q 616 410 616 294 "},"Ŋ":{"x_min":46.171875,"x_max":1030,"ha":1084,"o":"m 352 883 q 658 1023 489 1023 q 919 911 808 1023 q 1030 590 1030 799 q 913 160 1030 346 q 585 -25 797 -25 q 443 8 499 -25 q 338 127 386 42 l 480 232 q 603 150 536 150 q 771 274 701 150 q 841 560 841 398 q 777 773 841 700 q 614 846 714 846 q 322 660 471 846 l 232 0 l 46 0 l 180 998 l 368 998 l 352 883 "},"Ũ":{"x_min":85,"x_max":853.578125,"ha":889,"o":"m 175 998 l 362 998 l 279 382 q 269 268 269 301 q 303 180 269 212 q 405 149 338 149 q 498 172 458 149 q 546 231 528 190 q 581 394 564 272 l 665 998 l 853 998 l 772 402 q 706 138 747 218 q 588 16 665 58 q 401 -25 511 -25 q 168 54 251 -25 q 85 271 85 133 q 101 447 85 331 l 175 998 m 311 1097 l 252 1209 q 354 1261 313 1248 q 438 1275 396 1275 q 521 1261 470 1275 q 634 1239 601 1239 q 755 1273 692 1239 l 812 1167 q 717 1109 743 1119 q 634 1095 675 1095 q 534 1113 593 1095 q 473 1130 486 1127 q 437 1133 457 1133 q 311 1097 370 1133 "},"Щ":{"x_min":46.109375,"x_max":1390.921875,"ha":1407,"o":"m 995 171 l 1107 997 l 1299 997 l 1188 171 l 1390 171 l 1347 -149 l 1169 -149 l 1188 0 l 46 0 l 181 997 l 373 997 l 261 171 l 532 171 l 644 997 l 836 997 l 724 171 l 995 171 m 1346 0 l 1346 0 "},"L":{"x_min":48.828125,"x_max":568.984375,"ha":611,"o":"m 183 998 l 371 998 l 259 172 l 568 172 l 547 0 l 48 0 l 183 998 "},";":{"x_min":-34.671875,"x_max":331,"ha":389,"o":"m 217 757 q 297 723 263 757 q 331 643 331 690 q 297 563 331 596 q 217 530 263 530 q 136 563 169 530 q 103 643 103 596 q 135 724 103 691 q 217 757 168 757 m 99 180 l 240 97 l 52 -146 l -34 -94 l 99 180 "},"ď":{"x_min":39,"x_max":1081.265625,"ha":982,"o":"m 704 1022 l 885 1022 l 752 0 l 573 0 l 583 79 q 358 -19 484 -19 q 125 89 211 -19 q 39 339 39 197 q 156 633 39 509 q 435 757 274 757 q 654 634 578 757 l 704 1022 m 400 142 q 571 221 509 142 q 633 395 633 300 q 584 534 633 479 q 449 590 535 590 q 286 519 353 590 q 219 334 219 448 q 267 196 219 251 q 400 142 316 142 m 936 1023 l 1081 1023 l 1071 951 q 1042 833 1063 891 q 953 700 1020 775 l 903 744 q 970 858 954 809 l 912 858 l 936 1023 "},"Ο":{"x_min":56,"x_max":1114,"ha":1167,"o":"m 641 1023 q 980 890 846 1023 q 1114 554 1114 758 q 1034 260 1114 398 q 824 48 955 122 q 523 -25 693 -25 q 183 101 310 -25 q 56 433 56 227 q 207 835 56 667 q 641 1023 377 1023 m 634 846 q 438 794 527 846 q 296 644 350 742 q 242 443 242 547 q 317 235 242 320 q 533 150 392 150 q 810 265 696 150 q 925 545 925 380 q 844 763 925 681 q 634 846 764 846 "},"Ĭ":{"x_min":10,"x_max":562.703125,"ha":389,"o":"m 173 998 l 356 998 l 218 0 l 39 0 l 173 998 m 10 1285 l 160 1285 q 195 1246 172 1258 q 279 1230 229 1230 q 358 1243 325 1230 q 412 1286 392 1257 l 562 1286 q 458 1147 536 1198 q 260 1096 380 1096 q 72 1148 135 1096 q 10 1285 10 1200 "},"ŧ":{"x_min":-33.234375,"x_max":425.890625,"ha":416,"o":"m 267 414 l 397 414 l 382 307 l 252 307 l 210 0 l 29 0 l 71 307 l -33 307 l -18 414 l 86 414 l 109 582 l 21 582 l 42 738 l 130 738 l 168 1012 l 348 1012 l 311 738 l 425 738 l 404 582 l 290 582 l 267 414 "},"À":{"x_min":-16.28125,"x_max":928.40625,"ha":1027,"o":"m 522 997 l 680 997 l 928 0 l 746 0 l 693 212 l 299 212 l 185 0 l -16 0 l 522 997 m 648 388 l 568 715 l 392 388 l 648 388 m 409 1360 l 627 1360 l 751 1094 l 619 1094 l 409 1360 "},"Ϊ":{"x_min":31,"x_max":527,"ha":388,"o":"m 173 998 l 356 998 l 218 0 l 39 0 l 173 998 m 143 1265 q 202 1241 178 1265 q 227 1184 227 1217 q 194 1104 227 1137 q 115 1071 161 1071 q 54 1094 77 1071 q 31 1155 31 1117 q 64 1232 31 1199 q 143 1265 98 1265 m 443 1265 q 502 1241 478 1265 q 527 1184 527 1217 q 494 1104 527 1137 q 415 1071 461 1071 q 354 1094 377 1071 q 331 1155 331 1117 q 364 1232 331 1199 q 443 1265 398 1265 "},"½":{"x_min":159.828125,"x_max":1120,"ha":1167,"o":"m 202 1010 l 391 1010 l 309 497 l 184 497 l 250 906 l 159 906 l 202 1010 m 184 -24 l 854 1023 l 970 1023 l 300 -24 l 184 -24 m 874 343 l 753 343 q 804 477 753 428 q 941 526 855 526 q 1070 482 1021 526 q 1120 378 1120 439 q 1086 278 1120 330 q 914 104 1052 226 l 1097 104 l 1081 0 l 701 0 l 713 80 q 967 313 922 257 q 996 377 996 348 q 980 408 996 395 q 941 422 965 422 q 898 405 914 422 q 874 343 882 388 "},"'":{"x_min":99.015625,"x_max":279.40625,"ha":306,"o":"m 242 681 l 136 681 l 99 1023 l 279 1023 l 242 681 "},"ĳ":{"x_min":6.953125,"x_max":682,"ha":695,"o":"m 220 1040 q 299 1007 266 1040 q 332 928 332 974 q 299 848 332 881 q 220 816 266 816 q 140 848 173 816 q 108 928 108 881 q 140 1007 108 974 q 220 1040 173 1040 m 570 1040 q 649 1007 616 1040 q 682 928 682 974 q 649 848 682 881 q 570 816 616 816 q 490 848 523 816 q 458 928 458 881 q 491 1007 458 975 q 570 1040 524 1040 m 107 738 l 286 738 l 187 0 l 6 0 l 107 738 m 454 738 l 634 738 l 546 84 q 499 -153 523 -88 q 426 -253 475 -218 q 312 -289 377 -289 q 201 -262 262 -289 l 222 -99 q 279 -119 251 -119 q 330 -83 312 -119 q 363 61 349 -48 l 454 738 "},"Р":{"x_min":47.953125,"x_max":749,"ha":777,"o":"m 182 998 l 357 998 q 583 970 517 998 q 706 873 664 935 q 749 728 749 811 q 699 564 749 637 q 568 456 650 490 q 292 423 485 423 l 235 0 l 47 0 l 182 998 m 315 598 q 515 629 468 598 q 562 722 562 660 q 543 781 562 757 q 489 814 525 804 q 347 824 453 824 l 315 598 "},"Ć":{"x_min":59,"x_max":1033.640625,"ha":1083,"o":"m 1033 869 l 897 743 q 789 821 853 794 q 651 849 725 849 q 451 795 546 849 q 302 653 355 741 q 249 465 249 565 q 342 239 249 329 q 582 150 436 150 q 853 240 739 150 l 964 95 q 570 -25 794 -25 q 302 34 413 -25 q 125 210 192 94 q 59 460 59 325 q 138 737 59 605 q 352 946 217 870 q 646 1023 486 1023 q 1033 869 870 1023 m 716 1339 l 935 1339 l 649 1074 l 516 1074 l 716 1339 "},"Т":{"x_min":30.515625,"x_max":662.578125,"ha":583,"o":"m 53 998 l 662 998 l 640 820 l 428 820 l 320 0 l 134 0 l 242 820 l 30 820 l 53 998 "},"£":{"x_min":-17.25,"x_max":729,"ha":778,"o":"m 722 738 l 540 738 q 543 774 543 759 q 521 829 543 808 q 460 851 499 851 q 382 816 412 851 q 352 722 352 782 q 366 589 352 688 l 587 589 l 564 418 l 375 418 q 361 307 375 354 q 299 165 342 244 q 369 157 312 165 q 435 152 410 152 q 532 226 503 152 l 713 226 q 602 39 678 103 q 426 -25 525 -25 q 274 -12 379 -25 q 142 0 176 0 q -17 -27 78 0 l 5 142 q 101 165 53 158 q 173 317 158 271 q 189 418 189 363 l 42 418 l 64 589 l 173 589 q 155 724 155 666 q 245 937 155 852 q 480 1023 335 1023 q 662 960 596 1023 q 729 800 729 897 q 722 738 729 775 "},"ů":{"x_min":76,"x_max":768.640625,"ha":834,"o":"m 132 738 l 311 738 l 262 360 q 254 267 254 298 q 287 185 254 218 q 375 152 321 152 q 483 194 445 152 q 538 368 520 237 l 589 738 l 768 738 l 715 341 q 653 133 696 206 q 539 20 610 59 q 371 -19 468 -19 q 156 59 236 -19 q 76 261 76 137 q 92 457 76 337 l 132 738 m 466 1174 q 557 1137 521 1174 q 593 1042 593 1101 q 540 923 593 975 q 421 871 488 871 q 329 908 365 871 q 293 1002 293 945 q 344 1123 293 1072 q 466 1174 395 1174 m 453 1087 q 406 1066 426 1087 q 387 1018 387 1046 q 400 981 387 995 q 434 967 413 967 q 479 987 459 967 q 499 1034 499 1007 q 485 1072 499 1057 q 453 1087 472 1087 "},"Ō":{"x_min":56,"x_max":1114,"ha":1167,"o":"m 641 1023 q 980 890 846 1023 q 1114 554 1114 758 q 1034 260 1114 398 q 824 48 955 122 q 523 -25 693 -25 q 183 101 310 -25 q 56 433 56 227 q 207 835 56 667 q 641 1023 377 1023 m 634 846 q 438 794 527 846 q 296 644 350 742 q 242 443 242 547 q 317 235 242 320 q 533 150 392 150 q 810 265 696 150 q 925 545 925 380 q 844 763 925 681 q 634 846 764 846 m 466 1096 l 487 1246 l 872 1246 l 851 1096 l 466 1096 "},"а":{"x_min":39,"x_max":848.65625,"ha":917,"o":"m 667 738 l 848 738 l 752 0 l 573 0 l 583 79 q 473 2 524 24 q 358 -19 422 -19 q 125 88 211 -19 q 39 339 39 196 q 93 547 39 449 q 241 701 148 646 q 435 757 333 757 q 560 725 502 757 q 654 634 617 694 l 667 738 m 400 142 q 516 171 466 142 q 599 265 565 201 q 633 395 633 329 q 582 536 633 483 q 449 590 532 590 q 286 518 353 590 q 219 334 219 447 q 269 194 219 247 q 400 142 320 142 "},"Ğ":{"x_min":59,"x_max":1069.9375,"ha":1167,"o":"m 1045 812 l 889 711 q 758 818 821 788 q 615 849 695 849 q 334 709 442 849 q 248 464 248 599 q 336 241 248 331 q 554 151 424 151 q 729 197 650 151 q 858 337 808 244 l 547 337 l 570 514 l 1069 514 q 924 120 1069 266 q 555 -25 780 -25 q 171 143 311 -25 q 59 464 59 278 q 222 857 59 691 q 613 1023 386 1023 q 777 998 697 1023 q 922 930 857 974 q 1045 812 986 886 m 371 1264 l 521 1264 q 556 1225 533 1237 q 640 1209 590 1209 q 720 1222 686 1209 q 774 1264 753 1236 l 924 1264 q 819 1126 897 1177 q 622 1075 742 1075 q 433 1127 496 1075 q 371 1264 371 1179 "},"v":{"x_min":37.296875,"x_max":763.625,"ha":778,"o":"m 37 738 l 214 738 l 330 327 l 566 738 l 763 738 l 335 0 l 248 0 l 37 738 "},"Ї":{"x_min":31,"x_max":527,"ha":388,"o":"m 173 998 l 356 998 l 218 0 l 39 0 l 173 998 m 143 1265 q 202 1241 178 1265 q 227 1184 227 1217 q 194 1104 227 1137 q 115 1071 161 1071 q 54 1094 77 1071 q 31 1155 31 1117 q 64 1232 31 1199 q 143 1265 98 1265 m 443 1265 q 502 1241 478 1265 q 527 1184 527 1217 q 494 1104 527 1137 q 415 1071 461 1071 q 354 1094 377 1071 q 331 1155 331 1117 q 364 1232 331 1199 q 443 1265 398 1265 "},"û":{"x_min":76,"x_max":768.71875,"ha":834,"o":"m 132 738 l 311 738 l 262 360 q 254 267 254 298 q 287 185 254 218 q 376 152 321 152 q 483 194 445 152 q 538 368 521 237 l 589 738 l 768 738 l 715 341 q 653 133 696 206 q 539 20 610 59 q 371 -19 468 -19 q 156 59 236 -19 q 76 261 76 137 q 92 457 76 337 l 132 738 m 428 1042 l 576 1042 l 751 851 l 549 851 l 488 939 l 400 851 l 196 851 l 428 1042 "},"Ź":{"x_min":12.203125,"x_max":720.890625,"ha":694,"o":"m 124 998 l 687 998 l 291 174 l 605 174 l 582 0 l 12 0 l 408 822 l 99 822 l 124 998 m 501 1361 l 720 1361 l 435 1095 l 302 1095 l 501 1361 "},"Ĺ":{"x_min":48.828125,"x_max":615.78125,"ha":611,"o":"m 183 998 l 371 998 l 259 172 l 568 172 l 547 0 l 48 0 l 183 998 m 396 1361 l 615 1361 l 330 1095 l 197 1095 l 396 1361 "},"₤":{"x_min":-17.25,"x_max":729,"ha":778,"o":"m 359 638 l 595 638 l 579 521 l 375 521 q 378 454 378 489 l 572 454 l 555 337 l 369 337 q 299 165 353 262 q 377 156 313 165 q 436 152 411 152 q 532 226 503 152 l 713 226 q 606 42 683 109 q 428 -25 529 -25 q 275 -11 380 -25 q 142 0 176 0 q -17 -27 74 0 l 5 142 q 101 165 53 158 q 178 337 166 287 l 32 337 l 47 454 l 191 454 q 186 521 191 491 l 55 521 l 71 638 l 163 638 q 155 723 155 683 q 244 936 155 849 q 482 1023 333 1023 q 666 956 603 1023 q 729 802 729 890 q 722 738 729 774 l 540 738 q 543 774 543 760 q 521 829 543 808 q 460 851 499 851 q 382 816 412 851 q 352 722 352 782 q 359 638 352 692 "},"Č":{"x_min":59,"x_max":1033.640625,"ha":1083,"o":"m 1033 869 l 897 743 q 789 821 853 794 q 651 849 725 849 q 451 795 546 849 q 302 653 355 741 q 249 465 249 565 q 342 239 249 329 q 582 150 436 150 q 853 240 739 150 l 964 95 q 570 -25 794 -25 q 302 34 413 -25 q 125 210 192 94 q 59 460 59 325 q 138 737 59 605 q 352 946 217 870 q 646 1023 486 1023 q 1033 869 870 1023 m 723 1074 l 575 1074 l 400 1265 l 602 1265 l 663 1176 l 751 1265 l 954 1265 l 723 1074 "},"x":{"x_min":-20.34375,"x_max":733.09375,"ha":778,"o":"m 40 738 l 240 738 l 368 528 l 522 738 l 733 738 l 465 371 l 692 0 l 493 0 l 356 223 l 190 0 l -20 0 l 260 379 l 40 738 "},"è":{"x_min":41,"x_max":816.078125,"ha":889,"o":"m 583 216 l 742 134 q 600 22 689 63 q 404 -19 512 -19 q 138 75 235 -19 q 41 328 41 170 q 162 632 41 508 q 456 757 284 757 q 641 711 560 757 q 769 579 722 666 q 816 390 816 492 q 809 316 816 358 l 222 316 q 269 194 222 239 q 402 149 317 149 q 583 216 504 149 m 629 449 q 561 551 609 516 q 447 587 514 587 q 327 550 380 587 q 245 449 273 514 l 629 449 m 298 1138 l 517 1138 l 640 872 l 508 872 l 298 1138 "},"Ń":{"x_min":48.15625,"x_max":979.953125,"ha":1027,"o":"m 180 998 l 344 998 l 705 319 l 797 998 l 979 998 l 845 0 l 685 0 l 319 685 l 227 0 l 48 0 l 180 998 m 682 1360 l 901 1360 l 616 1095 l 483 1095 l 682 1360 "},"μ":{"x_min":-6.28125,"x_max":764.125,"ha":833,"o":"m 664 0 l 484 0 l 494 74 q 305 -12 398 -12 q 215 31 250 -12 l 174 -269 l -6 -269 l 127 738 l 308 738 l 248 283 q 246 240 246 265 q 343 148 246 148 q 436 180 391 148 q 505 269 482 213 q 549 476 529 325 l 583 738 l 764 738 l 664 0 "},".":{"x_min":25,"x_max":253,"ha":389,"o":"m 139 209 q 219 175 185 209 q 253 95 253 142 q 219 14 253 48 q 139 -19 185 -19 q 58 14 91 -19 q 25 95 25 48 q 58 175 25 142 q 139 209 91 209 "},"‘":{"x_min":149.203125,"x_max":358.078125,"ha":389,"o":"m 319 644 l 149 644 l 160 728 q 199 878 172 818 q 299 1023 227 939 l 358 972 q 279 838 300 897 l 347 838 l 319 644 "},"π":{"x_min":46.796875,"x_max":925.015625,"ha":937,"o":"m 902 568 l 778 568 l 703 0 l 522 0 l 598 568 l 344 568 l 269 0 l 88 0 l 164 568 l 46 568 l 69 738 l 925 738 l 902 568 "},"9":{"x_min":82,"x_max":736,"ha":778,"o":"m 327 -24 l 184 70 l 424 405 q 359 397 388 397 q 163 481 244 397 q 82 692 82 566 q 177 928 82 833 q 421 1023 273 1023 q 646 933 556 1023 q 736 712 736 843 q 722 611 736 660 q 666 477 702 541 q 536 267 603 362 l 327 -24 m 406 556 q 515 600 469 556 q 561 707 561 645 q 519 808 561 767 q 416 849 477 849 q 307 804 351 849 q 264 695 264 760 q 304 596 264 636 q 406 556 344 556 "},"l":{"x_min":9.5,"x_max":325.515625,"ha":333,"o":"m 145 1023 l 325 1023 l 189 0 l 9 0 l 145 1023 "},"Ъ":{"x_min":0.34375,"x_max":778,"ha":853,"o":"m 112 0 l 223 820 l 0 820 l 24 998 l 436 998 l 386 621 l 427 621 q 583 596 505 621 q 719 498 661 571 q 778 313 778 424 q 729 132 778 206 q 609 28 680 57 q 392 0 537 0 l 112 0 m 363 451 l 326 181 l 374 181 q 492 189 452 181 q 561 232 533 198 q 589 315 589 266 q 540 415 589 379 q 402 451 491 451 l 363 451 "},"Ś":{"x_min":-10.34375,"x_max":746.03125,"ha":722,"o":"m 689 859 l 553 738 q 396 847 468 847 q 336 825 360 847 q 313 774 313 804 q 334 712 313 746 q 466 562 356 678 q 543 475 524 500 q 606 363 587 415 q 626 257 626 311 q 540 56 626 137 q 321 -25 455 -25 q -10 168 117 -25 l 133 284 q 321 152 220 152 q 402 183 369 152 q 435 258 435 214 q 415 329 435 293 q 300 464 395 365 q 170 623 201 570 q 128 766 128 696 q 188 931 128 858 q 393 1023 264 1023 q 689 859 570 1023 m 526 1361 l 746 1361 l 460 1096 l 327 1096 l 526 1361 "},"Ü":{"x_min":85,"x_max":853.671875,"ha":889,"o":"m 175 998 l 362 998 l 279 382 q 269 268 269 301 q 303 180 269 212 q 405 149 338 149 q 498 172 458 149 q 546 231 528 190 q 581 394 564 272 l 665 998 l 853 998 l 772 402 q 706 138 747 218 q 588 16 665 58 q 401 -25 511 -25 q 168 54 251 -25 q 85 271 85 133 q 101 447 85 331 l 175 998 m 409 1265 q 468 1241 444 1265 q 493 1184 493 1217 q 460 1104 493 1137 q 381 1071 427 1071 q 320 1094 343 1071 q 297 1155 297 1117 q 330 1232 297 1199 q 409 1265 364 1265 m 710 1265 q 769 1241 745 1265 q 794 1184 794 1217 q 761 1104 794 1137 q 682 1071 728 1071 q 621 1094 644 1071 q 598 1155 598 1117 q 631 1232 598 1199 q 710 1265 665 1265 "},"à":{"x_min":39,"x_max":848.65625,"ha":917,"o":"m 667 738 l 848 738 l 752 0 l 573 0 l 583 79 q 473 2 524 24 q 358 -19 422 -19 q 125 88 211 -19 q 39 339 39 196 q 93 547 39 449 q 241 701 148 646 q 435 757 333 757 q 560 725 502 757 q 654 634 617 694 l 667 738 m 400 142 q 516 171 466 142 q 599 265 565 201 q 633 395 633 329 q 582 536 633 483 q 449 590 532 590 q 286 518 353 590 q 219 334 219 447 q 269 194 219 247 q 400 142 320 142 m 313 1138 l 531 1138 l 654 872 l 522 872 l 313 1138 "},"η":{"x_min":30.890625,"x_max":733,"ha":833,"o":"m 633 -270 l 450 -270 l 540 403 q 549 497 549 464 q 451 590 549 590 q 358 557 403 590 q 289 468 313 524 q 245 261 265 412 l 211 0 l 30 0 l 130 738 l 310 738 l 300 663 q 515 757 403 757 q 671 697 610 757 q 733 543 733 637 q 721 413 733 503 l 633 -270 "},"ó":{"x_min":41,"x_max":812.03125,"ha":889,"o":"m 463 757 q 642 711 561 757 q 767 582 722 666 q 812 395 812 499 q 689 102 812 223 q 385 -19 566 -19 q 134 76 228 -19 q 41 325 41 171 q 167 634 41 511 q 463 757 294 757 m 450 585 q 280 505 339 585 q 221 332 221 425 q 269 199 221 250 q 398 149 317 149 q 573 226 513 149 q 633 402 633 303 q 582 534 633 483 q 450 585 531 585 m 569 1138 l 788 1138 l 502 872 l 370 872 l 569 1138 "},"¦":{"x_min":364,"x_max":471,"ha":833,"o":"m 364 504 l 364 1023 l 471 1023 l 471 542 l 364 504 m 364 -270 l 364 347 l 471 384 l 471 -270 l 364 -270 "},"Ő":{"x_min":56,"x_max":1185.890625,"ha":1167,"o":"m 641 1023 q 980 890 846 1023 q 1114 554 1114 758 q 1034 260 1114 398 q 824 48 955 122 q 523 -25 693 -25 q 183 101 310 -25 q 56 433 56 227 q 207 835 56 667 q 641 1023 377 1023 m 634 846 q 438 794 527 846 q 296 644 350 742 q 242 443 242 547 q 317 235 242 320 q 533 150 392 150 q 810 265 696 150 q 925 545 925 380 q 844 763 925 681 q 634 846 764 846 m 664 1362 l 882 1362 l 597 1096 l 464 1096 l 664 1362 m 966 1362 l 1185 1362 l 900 1096 l 767 1096 l 966 1362 "},"Ž":{"x_min":12.203125,"x_max":735.8125,"ha":694,"o":"m 124 998 l 687 998 l 291 174 l 605 174 l 582 0 l 12 0 l 408 822 l 99 822 l 124 998 m 504 1074 l 356 1074 l 181 1265 l 383 1265 l 444 1176 l 532 1265 l 735 1265 l 504 1074 "},"е":{"x_min":41,"x_max":816.078125,"ha":889,"o":"m 583 216 l 742 134 q 600 22 689 63 q 404 -19 512 -19 q 138 75 235 -19 q 41 328 41 170 q 162 632 41 508 q 456 757 284 757 q 641 711 560 757 q 769 579 722 666 q 816 390 816 492 q 809 316 816 358 l 222 316 q 269 194 222 239 q 402 149 317 149 q 583 216 504 149 m 629 449 q 561 551 609 516 q 447 587 514 587 q 327 550 380 587 q 245 449 273 514 l 629 449 "},"Î":{"x_min":7.453125,"x_max":562.203125,"ha":389,"o":"m 173 998 l 356 998 l 219 0 l 39 0 l 173 998 m 238 1265 l 386 1265 l 562 1074 l 360 1074 l 299 1162 l 210 1074 l 7 1074 l 238 1265 "},"e":{"x_min":41,"x_max":816.078125,"ha":889,"o":"m 583 216 l 742 134 q 600 22 689 63 q 404 -19 512 -19 q 138 75 235 -19 q 41 328 41 170 q 162 632 41 508 q 456 757 284 757 q 641 711 560 757 q 769 579 722 666 q 816 390 816 492 q 809 316 816 358 l 222 316 q 269 194 222 239 q 402 149 317 149 q 583 216 504 149 m 629 449 q 561 551 609 516 q 447 587 514 587 q 327 550 380 587 q 245 449 273 514 l 629 449 "},"ό":{"x_min":41,"x_max":812.03125,"ha":889,"o":"m 463 757 q 642 711 561 757 q 767 582 722 666 q 812 395 812 499 q 689 102 812 223 q 385 -19 566 -19 q 134 76 228 -19 q 41 325 41 171 q 167 634 41 511 q 463 757 294 757 m 450 585 q 280 505 339 585 q 221 332 221 425 q 269 199 221 250 q 398 149 317 149 q 573 226 513 149 q 633 402 633 303 q 582 534 633 483 q 450 585 531 585 m 618 1112 l 554 853 l 424 853 l 424 1112 l 618 1112 "},"Ĕ":{"x_min":35.15625,"x_max":735.703125,"ha":722,"o":"m 166 998 l 707 998 l 684 821 l 332 821 l 303 615 l 657 615 l 635 439 l 281 439 l 246 174 l 602 174 l 578 0 l 35 0 l 166 998 m 183 1285 l 333 1285 q 368 1246 345 1258 q 452 1230 402 1230 q 531 1243 498 1230 q 585 1286 565 1257 l 735 1286 q 631 1147 709 1198 q 433 1096 553 1096 q 245 1148 308 1096 q 183 1285 183 1200 "},"ļ":{"x_min":-100.1875,"x_max":325.4375,"ha":333,"o":"m 145 1023 l 325 1023 l 189 0 l 9 0 l 145 1023 m 11 -8 q 76 -8 53 -8 q 188 -39 155 -8 q 221 -112 221 -70 q 169 -212 221 -166 q 27 -259 118 -259 q -100 -234 -28 -259 l -64 -146 q 9 -157 -18 -157 q 87 -102 87 -157 q 37 -70 87 -70 q -14 -73 20 -70 l 11 -8 m 217 -20 l 217 -20 "},"Ѓ":{"x_min":46.796875,"x_max":686.984375,"ha":644,"o":"m 181 998 l 676 998 l 651 812 l 344 812 l 234 0 l 46 0 l 181 998 m 467 1340 l 686 1340 l 401 1075 l 268 1075 l 467 1340 "},"ò":{"x_min":41,"x_max":812.03125,"ha":889,"o":"m 463 757 q 642 711 561 757 q 767 582 722 666 q 812 395 812 499 q 689 102 812 223 q 385 -19 566 -19 q 134 76 228 -19 q 41 325 41 171 q 167 634 41 511 q 463 757 294 757 m 450 585 q 280 505 339 585 q 221 332 221 425 q 269 199 221 250 q 398 149 317 149 q 573 226 513 149 q 633 402 633 303 q 582 534 633 483 q 450 585 531 585 m 299 1138 l 517 1138 l 641 872 l 509 872 l 299 1138 "},"^":{"x_min":73.921875,"x_max":758.875,"ha":833,"o":"m 337 998 l 494 998 l 758 248 l 594 248 l 417 755 l 238 248 l 73 248 l 337 998 "},"∙":{"x_min":81,"x_max":309,"ha":388,"o":"m 195 613 q 275 579 241 613 q 309 499 309 546 q 275 418 309 452 q 195 385 241 385 q 114 418 147 385 q 81 499 81 452 q 114 579 81 546 q 195 613 147 613 "},"ⁿ":{"x_min":35.421875,"x_max":460,"ha":464,"o":"m 103 852 l 236 852 l 231 818 q 335 863 281 863 q 426 820 392 863 q 460 707 460 777 q 454 635 460 680 l 421 389 l 285 389 l 318 635 q 325 695 325 677 q 287 744 325 744 q 242 723 263 744 q 214 676 221 703 q 193 554 207 649 l 169 390 l 35 390 l 103 852 "},"к":{"x_min":31.203125,"x_max":808.375,"ha":802,"o":"m 130 738 l 316 738 l 276 446 l 577 738 l 808 738 l 438 385 l 739 0 l 504 0 l 297 267 l 246 224 l 216 0 l 31 0 l 130 738 "},"ū":{"x_min":76,"x_max":768.71875,"ha":834,"o":"m 132 738 l 311 738 l 262 360 q 254 267 254 298 q 287 185 254 218 q 376 152 321 152 q 483 194 445 152 q 538 368 521 237 l 589 738 l 768 738 l 715 341 q 653 133 696 206 q 539 20 610 59 q 371 -19 468 -19 q 156 59 236 -19 q 76 261 76 137 q 92 457 76 337 l 132 738 m 271 873 l 292 1023 l 678 1023 l 657 873 l 271 873 "},"Ẅ":{"x_min":89.46875,"x_max":1285.359375,"ha":1249,"o":"m 89 998 l 260 998 l 317 351 l 623 998 l 763 998 l 882 368 l 1104 998 l 1285 998 l 932 0 l 779 0 l 654 660 l 341 0 l 178 0 l 89 998 m 586 1265 q 645 1241 621 1265 q 670 1184 670 1217 q 637 1104 670 1137 q 558 1071 604 1071 q 497 1094 520 1071 q 474 1155 474 1117 q 507 1232 474 1199 q 586 1265 541 1265 m 886 1265 q 945 1241 921 1265 q 970 1184 970 1217 q 937 1104 970 1137 q 858 1071 904 1071 q 797 1094 820 1071 q 774 1155 774 1117 q 807 1232 774 1199 q 886 1265 841 1265 "},"◘":{"x_min":84,"x_max":748,"ha":833,"o":"m 84 0 l 84 665 l 748 665 l 748 0 l 84 0 m 553 332 q 512 429 553 389 q 415 470 472 470 q 319 429 360 470 q 279 332 279 389 q 319 235 279 276 q 415 195 359 195 q 512 235 472 195 q 553 332 553 276 "},"č":{"x_min":41,"x_max":804.90625,"ha":889,"o":"m 804 585 l 651 502 q 476 585 586 585 q 345 553 402 585 q 254 462 288 521 q 221 335 221 402 q 274 198 221 250 q 421 147 328 147 q 620 234 551 147 l 762 134 q 612 21 702 62 q 412 -19 522 -19 q 140 75 239 -19 q 41 326 41 170 q 163 631 41 505 q 479 757 286 757 q 804 585 697 757 m 560 851 l 412 851 l 237 1042 l 439 1042 l 500 953 l 588 1042 l 792 1042 l 560 851 "},"Ν":{"x_min":48.15625,"x_max":979.953125,"ha":1027,"o":"m 180 998 l 344 998 l 705 319 l 797 998 l 979 998 l 845 0 l 685 0 l 319 685 l 227 0 l 48 0 l 180 998 "},"’":{"x_min":149.203125,"x_max":358.078125,"ha":389,"o":"m 187 1023 l 358 1023 l 346 938 q 307 788 335 848 q 207 643 280 727 l 149 694 q 227 829 206 769 l 160 829 l 187 1023 "},"-":{"x_min":84.09375,"x_max":471.328125,"ha":583,"o":"m 105 450 l 471 450 l 450 285 l 84 285 l 105 450 "},"Q":{"x_min":56,"x_max":1130.28125,"ha":1167,"o":"m 954 152 l 1130 -47 l 892 -47 l 813 42 q 523 -25 680 -25 q 183 101 310 -25 q 56 433 56 227 q 133 732 56 595 q 343 945 211 868 q 636 1023 476 1023 q 980 890 846 1023 q 1114 554 1114 758 q 1071 337 1114 445 q 954 152 1029 230 m 832 289 q 925 545 925 398 q 844 764 925 682 q 631 846 764 846 q 438 793 526 846 q 296 644 350 741 q 242 443 242 546 q 317 235 242 320 q 532 150 393 150 q 689 181 618 150 l 540 348 l 780 348 l 832 289 "},"▼":{"x_min":206.15625,"x_max":1169.15625,"ha":1375,"o":"m 1169 942 l 687 -20 l 206 942 l 1169 942 "},"ј":{"x_min":-132.359375,"x_max":348,"ha":361,"o":"m 235 1040 q 315 1007 282 1040 q 348 928 348 974 q 315 848 348 881 q 235 816 282 816 q 156 848 189 816 q 124 928 124 881 q 156 1007 124 974 q 235 1040 189 1040 m 120 738 l 301 738 l 212 84 q 161 -162 187 -99 q 88 -256 135 -224 q -21 -289 40 -289 q -132 -262 -68 -289 l -110 -99 q -54 -119 -80 -119 q -8 -93 -23 -119 q 29 61 14 -55 l 120 738 "},"ě":{"x_min":41,"x_max":816.078125,"ha":889,"o":"m 583 216 l 742 134 q 600 22 689 63 q 404 -19 512 -19 q 138 75 235 -19 q 41 328 41 170 q 162 632 41 508 q 456 757 284 757 q 641 711 560 757 q 769 579 722 666 q 816 390 816 492 q 809 316 816 358 l 222 316 q 269 194 222 239 q 402 149 317 149 q 583 216 504 149 m 629 449 q 561 551 609 516 q 447 587 514 587 q 327 550 380 587 q 245 449 273 514 l 629 449 m 560 851 l 412 851 l 236 1042 l 439 1042 l 500 953 l 588 1042 l 791 1042 l 560 851 "},"œ":{"x_min":53,"x_max":1415.765625,"ha":1501,"o":"m 1410 317 l 821 317 q 865 200 821 253 q 1004 148 910 148 q 1183 216 1110 148 l 1343 134 q 1198 21 1286 62 q 1002 -19 1109 -19 q 838 11 909 -19 q 708 107 768 41 q 569 12 645 44 q 403 -19 493 -19 q 215 20 286 -19 q 98 142 143 59 q 53 327 53 225 q 177 629 53 502 q 470 757 302 757 q 629 723 558 757 q 754 620 700 689 q 898 722 818 688 q 1063 757 978 757 q 1243 709 1161 757 q 1370 576 1324 662 q 1415 388 1415 491 q 1410 317 1415 359 m 1230 449 q 1162 550 1210 514 q 1047 587 1113 587 q 844 449 909 587 l 1230 449 m 459 586 q 299 514 366 586 q 233 333 233 442 q 281 197 233 247 q 412 148 330 148 q 575 217 511 148 q 647 404 647 295 q 593 533 647 480 q 459 586 540 586 "},"#":{"x_min":41,"x_max":791,"ha":833,"o":"m 752 460 l 752 325 l 595 325 l 547 0 l 411 0 l 458 325 l 329 325 l 281 0 l 146 0 l 193 325 l 41 325 l 41 460 l 214 460 l 235 588 l 84 588 l 84 723 l 254 723 l 298 1023 l 430 1023 l 388 723 l 517 723 l 561 1023 l 697 1023 l 653 723 l 791 723 l 791 588 l 634 588 l 616 460 l 752 460 m 498 588 l 367 588 l 349 460 l 477 460 l 498 588 "},"Џ":{"x_min":46.109375,"x_max":898.578125,"ha":945,"o":"m 46 0 l 181 997 l 373 997 l 261 171 l 595 171 l 707 997 l 898 997 l 764 0 l 493 0 l 473 -149 l 295 -149 l 316 0 l 46 0 "},"Å":{"x_min":-16.0625,"x_max":928.875,"ha":1028,"o":"m 522 997 l 680 997 l 928 0 l 746 0 l 693 212 l 299 212 l 185 0 l -16 0 l 522 997 m 648 388 l 568 715 l 392 388 l 648 388 m 652 1397 q 743 1361 707 1397 q 779 1265 779 1325 q 726 1146 779 1198 q 607 1094 674 1094 q 515 1131 551 1094 q 479 1225 479 1168 q 530 1346 479 1295 q 652 1397 581 1397 m 639 1310 q 592 1289 612 1310 q 573 1241 573 1269 q 586 1204 573 1218 q 620 1190 599 1190 q 665 1210 645 1190 q 685 1257 685 1230 q 671 1295 685 1280 q 639 1310 658 1310 "},"¸":{"x_min":25.828125,"x_max":365,"ha":472,"o":"m 179 9 l 294 9 l 282 -20 q 343 -56 322 -31 q 365 -111 365 -80 q 312 -214 365 -169 q 172 -259 259 -259 q 25 -227 99 -259 l 62 -139 q 156 -156 110 -156 q 211 -140 191 -156 q 232 -102 232 -125 q 220 -78 232 -86 q 178 -70 209 -70 l 143 -70 l 179 9 "},"=":{"x_min":78,"x_max":756,"ha":834,"o":"m 78 729 l 756 729 l 756 559 l 78 559 l 78 729 m 78 439 l 756 439 l 756 269 l 78 269 l 78 439 "},"ρ":{"x_min":-27.453125,"x_max":826.03125,"ha":905,"o":"m 204 99 l 152 -270 l -27 -270 l 56 362 q 203 653 81 550 q 477 757 324 757 q 734 650 642 757 q 826 395 826 544 q 705 99 826 218 q 409 -19 584 -19 q 204 99 281 -19 m 235 332 q 283 199 235 249 q 412 149 331 149 q 581 219 515 149 q 647 402 647 288 q 596 534 647 483 q 464 585 546 585 q 299 512 363 585 q 235 332 235 439 "},"Ћ":{"x_min":31,"x_max":834,"ha":910,"o":"m 400 811 l 375 622 l 438 622 q 668 599 597 622 q 787 515 740 577 q 834 353 834 454 q 826 258 834 314 l 791 0 l 598 0 l 634 253 q 640 307 640 288 q 617 390 640 361 q 556 429 595 418 q 431 440 516 440 l 350 440 l 291 0 l 98 0 l 208 811 l 31 811 l 56 998 l 608 998 l 582 811 l 400 811 "},"ú":{"x_min":76,"x_max":768.71875,"ha":834,"o":"m 132 738 l 311 738 l 262 360 q 254 267 254 298 q 287 185 254 218 q 376 152 321 152 q 483 194 445 152 q 538 368 521 237 l 589 738 l 768 738 l 715 341 q 653 133 696 206 q 539 20 610 59 q 371 -19 468 -19 q 156 59 236 -19 q 76 261 76 137 q 92 457 76 337 l 132 738 m 541 1138 l 760 1138 l 475 872 l 342 872 l 541 1138 "},"д":{"x_min":-74.59375,"x_max":819.234375,"ha":878,"o":"m 119 0 l 99 -128 l -74 -128 l -35 157 l 75 157 l 407 738 l 527 738 l 706 157 l 819 157 l 780 -128 l 603 -128 l 621 0 l 119 0 m 513 157 l 441 506 l 429 506 l 264 157 l 513 157 "},"¯":{"x_min":70,"x_max":781,"ha":695,"o":"m 70 1143 l 781 1143 l 781 1074 l 70 1074 l 70 1143 "},"u":{"x_min":76,"x_max":768.71875,"ha":834,"o":"m 132 738 l 311 738 l 262 360 q 254 267 254 298 q 287 185 254 218 q 376 152 321 152 q 483 194 445 152 q 538 368 521 237 l 589 738 l 768 738 l 715 341 q 653 133 696 206 q 539 20 610 59 q 371 -19 468 -19 q 156 59 236 -19 q 76 261 76 137 q 92 457 76 337 l 132 738 "},"З":{"x_min":-69.34375,"x_max":632,"ha":714,"o":"m 87 255 q 179 174 142 192 q 262 156 216 156 q 378 191 333 156 q 423 289 423 227 q 387 388 423 339 q 236 437 351 437 l 197 437 l 220 607 l 261 607 q 395 650 356 607 q 435 750 435 694 q 405 825 435 796 q 327 855 376 855 q 190 787 269 855 l 95 912 q 237 1002 179 981 q 356 1024 295 1024 q 563 958 494 1024 q 632 793 632 893 q 456 550 632 619 q 616 295 616 466 q 524 62 616 150 q 276 -26 432 -26 q 96 5 180 -26 q -69 152 13 36 l 87 255 "},"Α":{"x_min":-16.28125,"x_max":928.40625,"ha":1027,"o":"m 522 997 l 680 997 l 928 0 l 746 0 l 693 212 l 299 212 l 185 0 l -16 0 l 522 997 m 648 388 l 568 715 l 392 388 l 648 388 "},"⅝":{"x_min":47.171875,"x_max":1099,"ha":1168,"o":"m 201 -25 l 870 1023 l 987 1023 l 317 -25 l 201 -25 m 199 1010 l 496 1010 l 480 907 l 287 907 l 261 835 q 302 841 281 841 q 416 801 372 841 q 460 689 460 762 q 400 543 460 601 q 245 485 340 485 q 47 597 109 485 l 157 640 q 249 589 199 589 q 309 613 287 589 q 332 672 332 637 q 315 717 332 699 q 273 736 299 736 q 217 704 238 736 l 106 735 l 199 1010 m 997 275 q 1084 156 1084 242 q 1022 34 1084 80 q 868 -12 961 -12 q 727 33 779 -12 q 675 135 675 78 q 797 286 675 234 q 737 383 737 318 q 791 484 737 442 q 925 526 845 526 q 1049 487 999 526 q 1099 396 1099 449 q 997 275 1099 316 m 971 380 q 921 422 971 422 q 877 407 894 422 q 860 373 860 393 q 909 330 860 330 q 953 344 935 330 q 971 380 971 359 m 962 162 q 942 209 962 188 q 889 230 923 230 q 824 205 849 230 q 800 152 800 181 q 820 108 800 125 q 875 92 840 92 q 938 112 914 92 q 962 162 962 133 "},"◙":{"x_min":26,"x_max":809,"ha":833,"o":"m 26 0 l 26 783 l 809 783 l 809 0 l 26 0 m 716 391 q 628 601 716 513 q 417 690 540 690 q 206 601 293 690 q 119 391 119 513 q 206 180 119 268 q 417 93 293 93 q 628 180 540 93 q 716 391 716 268 m 665 391 q 592 217 665 290 q 418 145 519 145 q 243 217 316 145 q 171 391 171 290 q 243 566 171 493 q 418 639 316 639 q 592 566 519 639 q 665 391 665 494 "},"é":{"x_min":41,"x_max":816.078125,"ha":889,"o":"m 583 216 l 742 134 q 600 22 689 63 q 404 -19 512 -19 q 138 75 235 -19 q 41 328 41 170 q 162 632 41 508 q 456 757 284 757 q 641 711 560 757 q 769 579 722 666 q 816 390 816 492 q 809 316 816 358 l 222 316 q 269 194 222 239 q 402 149 317 149 q 583 216 504 149 m 629 449 q 561 551 609 516 q 447 587 514 587 q 327 550 380 587 q 245 449 273 514 l 629 449 m 569 1137 l 788 1137 l 502 872 l 369 872 l 569 1137 "},"Ş":{"x_min":-10.34375,"x_max":689.75,"ha":722,"o":"m 689 859 l 553 738 q 396 847 469 847 q 336 825 360 847 q 313 774 313 804 q 334 712 313 746 q 466 562 356 678 q 543 475 524 501 q 606 363 587 415 q 626 258 626 311 q 540 56 626 137 q 321 -25 455 -25 q -10 168 117 -25 l 133 284 q 321 152 220 152 q 402 183 369 152 q 435 258 435 214 q 415 329 435 293 q 300 465 395 365 q 170 623 201 570 q 128 766 128 696 q 188 931 128 858 q 393 1023 264 1023 q 689 859 570 1023 m 262 10 l 377 10 l 365 -20 q 426 -55 405 -31 q 448 -111 448 -80 q 395 -214 448 -169 q 255 -259 342 -259 q 109 -227 182 -259 l 145 -139 q 239 -156 193 -156 q 295 -140 275 -156 q 315 -102 315 -125 q 303 -77 315 -85 q 261 -69 292 -69 l 226 -69 l 262 10 "},"↓":{"x_min":103.453125,"x_max":591.546875,"ha":695,"o":"m 103 -10 l 103 40 q 313 -91 218 -14 l 313 992 l 382 992 l 382 -91 q 591 41 451 -22 l 591 -10 q 360 -291 419 -161 l 329 -291 q 103 -10 281 -171 "},"B":{"x_min":47.03125,"x_max":719,"ha":805,"o":"m 179 998 l 335 998 q 547 967 478 998 q 658 872 616 936 q 701 733 701 808 q 671 615 701 671 q 585 523 641 560 q 719 276 719 430 q 676 129 719 196 q 571 31 634 63 q 391 0 509 0 l 47 0 l 179 998 m 314 602 l 348 602 q 451 613 424 602 q 498 654 479 624 q 517 722 517 685 q 500 782 517 757 q 455 816 483 807 q 344 825 428 825 l 314 602 m 259 175 l 371 175 q 495 208 456 175 q 534 298 534 241 q 509 373 534 340 q 445 419 485 406 q 292 433 405 433 l 259 175 "},"…":{"x_min":117,"x_max":1271,"ha":1389,"o":"m 693 209 q 773 175 740 209 q 807 95 807 142 q 773 14 807 48 q 693 -19 740 -19 q 613 14 646 -19 q 580 95 580 48 q 613 175 580 142 q 693 209 646 209 m 230 209 q 311 175 277 209 q 345 95 345 142 q 311 14 345 48 q 230 -19 277 -19 q 150 14 183 -19 q 117 95 117 48 q 150 175 117 142 q 230 209 183 209 m 1156 209 q 1237 175 1204 209 q 1271 95 1271 142 q 1237 14 1271 48 q 1156 -19 1204 -19 q 1076 14 1110 -19 q 1043 95 1043 48 q 1076 175 1043 142 q 1156 209 1110 209 "},"H":{"x_min":46.109375,"x_max":898.578125,"ha":945,"o":"m 180 997 l 368 997 l 318 621 l 659 621 l 710 997 l 898 997 l 762 0 l 575 0 l 637 453 l 293 453 l 232 0 l 46 0 l 180 997 "},"î":{"x_min":-53.578125,"x_max":501.171875,"ha":333,"o":"m 107 738 l 286 738 l 187 0 l 6 0 l 107 738 m 177 1042 l 325 1042 l 501 851 l 299 851 l 238 939 l 149 851 l -53 851 l 177 1042 "},"ν":{"x_min":37.296875,"x_max":763.625,"ha":778,"o":"m 37 738 l 214 738 l 330 327 l 566 738 l 763 738 l 335 0 l 248 0 l 37 738 "},"▪":{"x_min":89,"x_max":403,"ha":493,"o":"m 403 616 l 403 302 l 89 302 l 89 616 l 403 616 "},"Ό":{"x_min":-1,"x_max":1163,"ha":1216,"o":"m 690 1023 q 1029 890 895 1023 q 1163 554 1163 758 q 1083 260 1163 398 q 873 48 1004 122 q 572 -25 742 -25 q 232 101 359 -25 q 105 433 105 227 q 256 835 105 667 q 690 1023 426 1023 m 683 846 q 487 794 576 846 q 345 644 399 742 q 291 443 291 547 q 366 235 291 320 q 582 150 441 150 q 859 265 745 150 q 974 545 974 380 q 893 763 974 681 q 683 846 813 846 m 193 1023 l 129 764 l -1 764 l -1 1023 l 193 1023 "},"−":{"x_min":78,"x_max":756,"ha":834,"o":"m 78 584 l 756 584 l 756 414 l 78 414 l 78 584 "},"⅜":{"x_min":62,"x_max":1098,"ha":1167,"o":"m 243 872 l 125 872 q 185 984 133 945 q 308 1023 237 1023 q 426 981 383 1023 q 470 889 470 939 q 389 772 470 824 q 458 658 458 725 q 395 534 458 584 q 247 485 332 485 q 137 514 182 485 q 76 581 91 544 q 62 668 62 619 l 182 668 q 255 589 182 589 q 313 611 292 589 q 334 663 334 633 q 223 728 334 728 l 239 824 q 343 883 343 824 q 296 919 343 919 q 243 872 251 919 m 201 -25 l 870 1023 l 986 1023 l 317 -25 l 201 -25 m 995 275 q 1084 156 1084 242 q 1022 34 1084 80 q 868 -12 961 -12 q 726 33 779 -12 q 674 135 674 78 q 797 286 674 234 q 737 383 737 318 q 791 484 737 442 q 924 526 845 526 q 1048 487 998 526 q 1098 396 1098 449 q 995 275 1098 316 m 970 380 q 921 422 970 422 q 876 407 893 422 q 860 373 860 393 q 908 330 860 330 q 952 344 934 330 q 970 380 970 359 m 961 162 q 942 209 961 188 q 888 230 923 230 q 824 205 849 230 q 800 152 800 181 q 820 108 800 125 q 875 92 840 92 q 937 112 914 92 q 961 162 961 133 "},"ā":{"x_min":39,"x_max":848.65625,"ha":917,"o":"m 667 738 l 848 738 l 752 0 l 573 0 l 583 79 q 473 2 524 24 q 358 -19 422 -19 q 125 88 211 -19 q 39 339 39 196 q 93 547 39 449 q 241 701 148 646 q 435 757 333 757 q 560 725 502 757 q 654 634 617 694 l 667 738 m 400 142 q 516 171 466 142 q 599 265 565 201 q 633 395 633 329 q 582 536 633 483 q 449 590 532 590 q 286 518 353 590 q 219 334 219 447 q 269 194 219 247 q 400 142 320 142 m 301 873 l 322 1023 l 708 1023 l 687 873 l 301 873 "},"ĵ":{"x_min":-132.25,"x_max":497.09375,"ha":361,"o":"m 172 1042 l 321 1042 l 497 851 l 295 851 l 233 939 l 145 851 l -57 851 l 172 1042 m 120 738 l 301 738 l 212 84 q 165 -153 189 -88 q 93 -253 142 -217 q -21 -289 44 -289 q -132 -262 -70 -289 l -110 -99 q -54 -119 -81 -119 q 4 -66 -11 -119 q 29 61 19 -13 l 120 738 "},"Ĩ":{"x_min":-10.84375,"x_max":548.640625,"ha":389,"o":"m 173 998 l 356 998 l 219 0 l 39 0 l 173 998 m 47 1097 l -10 1209 q 91 1261 49 1248 q 174 1275 132 1275 q 257 1261 206 1275 q 370 1239 338 1239 q 492 1273 428 1239 l 548 1167 q 453 1109 479 1119 q 370 1095 412 1095 q 270 1113 329 1095 q 210 1130 222 1127 q 173 1133 193 1133 q 47 1097 107 1133 "},"←":{"x_min":54,"x_max":1335,"ha":1389,"o":"m 334 594 l 385 594 q 253 385 330 479 l 1335 385 l 1335 316 l 253 316 q 387 106 322 246 l 334 106 q 54 337 183 278 l 54 368 q 334 594 174 416 "},"*":{"x_min":72.5625,"x_max":613.0625,"ha":611,"o":"m 261 1023 l 434 1023 l 380 818 l 533 963 l 613 814 l 406 761 l 613 702 l 523 555 l 375 702 l 427 499 l 261 499 l 314 702 l 162 555 l 72 702 l 280 761 l 72 818 l 162 970 l 314 818 l 261 1023 "},"ă":{"x_min":39,"x_max":848.65625,"ha":917,"o":"m 667 738 l 848 738 l 752 0 l 573 0 l 583 79 q 473 2 524 24 q 358 -19 422 -19 q 125 88 211 -19 q 39 339 39 196 q 93 547 39 449 q 241 701 148 646 q 435 757 333 757 q 560 725 502 757 q 654 634 617 694 l 667 738 m 400 142 q 516 171 466 142 q 599 265 565 201 q 633 395 633 329 q 582 536 633 483 q 449 590 532 590 q 286 518 353 590 q 219 334 219 447 q 269 194 219 247 q 400 142 320 142 m 247 1062 l 397 1062 q 431 1023 408 1035 q 515 1007 465 1007 q 595 1020 561 1007 q 649 1062 628 1034 l 799 1062 q 695 924 772 975 q 497 873 617 873 q 309 925 372 873 q 247 1062 247 977 "},"Χ":{"x_min":10.84375,"x_max":937.234375,"ha":945,"o":"m 169 998 l 362 998 l 502 689 l 720 998 l 937 998 l 585 504 l 815 0 l 621 0 l 469 338 l 229 0 l 10 0 l 385 523 l 169 998 "},"†":{"x_min":25.984375,"x_max":780.109375,"ha":778,"o":"m 361 1023 l 552 1023 l 468 653 l 780 685 l 752 502 l 452 538 l 370 -270 l 188 -270 l 337 538 l 25 502 l 51 685 l 361 653 l 361 1023 "},"°":{"x_min":73,"x_max":541,"ha":556,"o":"m 541 789 q 472 623 541 691 q 306 556 404 556 q 140 623 208 556 q 73 791 73 691 q 142 955 73 887 q 308 1023 212 1023 q 472 955 404 1023 q 541 789 541 887 m 460 787 q 416 900 460 855 q 309 946 372 946 q 199 900 244 946 q 154 789 154 854 q 199 678 154 725 q 308 632 245 632 q 415 677 370 632 q 460 787 460 723 "},"↨":{"x_min":103.078125,"x_max":591,"ha":695,"o":"m 331 992 l 362 992 q 590 715 415 868 l 590 661 q 380 793 474 708 l 380 -91 q 590 39 474 -6 l 590 -13 q 362 -290 415 -166 l 331 -290 q 103 -13 278 -166 l 103 39 q 314 -91 219 -6 l 314 793 q 103 661 219 708 l 103 715 q 331 992 278 868 m 105 -355 l 591 -355 l 591 -421 l 105 -421 l 105 -355 "},"Ξ":{"x_min":5.421875,"x_max":724.28125,"ha":734,"o":"m 700 822 l 115 822 l 139 998 l 724 998 l 700 822 m 651 449 l 65 449 l 88 625 l 674 625 l 651 449 m 590 0 l 5 0 l 29 176 l 614 176 l 590 0 "},"Ķ":{"x_min":50.328125,"x_max":878.109375,"ha":861,"o":"m 183 998 l 371 998 l 324 658 l 646 998 l 878 998 l 443 541 l 787 0 l 577 0 l 296 443 l 236 0 l 50 0 l 183 998 m 289 -8 q 354 -8 331 -8 q 466 -39 433 -8 q 499 -112 499 -70 q 447 -212 499 -166 q 305 -259 396 -259 q 177 -234 249 -259 l 213 -146 q 287 -157 259 -157 q 365 -102 365 -157 q 315 -70 365 -70 q 263 -73 298 -70 l 289 -8 m 495 -20 l 495 -20 "},"ŵ":{"x_min":35.265625,"x_max":1106.765625,"ha":1111,"o":"m 35 738 l 209 738 l 311 342 l 526 738 l 597 738 l 700 342 l 914 738 l 1106 738 l 705 0 l 618 0 l 518 390 l 307 0 l 221 0 l 35 738 m 525 1042 l 673 1042 l 849 851 l 646 851 l 585 939 l 497 851 l 294 851 l 525 1042 "},"΄":{"x_min":275,"x_max":469.640625,"ha":583,"o":"m 469 1112 l 405 853 l 275 853 l 275 1112 l 469 1112 "},"ǽ":{"x_min":51,"x_max":1418,"ha":1500,"o":"m 1410 314 l 809 314 q 1002 147 838 147 q 1184 214 1108 147 l 1344 132 q 1205 23 1295 66 q 1007 -19 1114 -19 q 878 0 935 -19 q 759 63 821 18 l 751 0 l 586 0 l 596 77 q 371 -19 508 -19 q 210 23 278 -19 q 96 152 142 65 q 51 339 51 240 q 106 546 51 447 q 255 701 161 645 q 448 757 348 757 q 572 724 514 757 q 667 633 630 692 l 682 757 l 847 757 l 836 674 q 1076 757 952 757 q 1317 650 1216 757 q 1418 392 1418 544 q 1410 314 1418 360 m 461 588 q 298 515 365 588 q 231 333 231 443 q 281 192 231 245 q 412 140 331 140 q 529 170 477 140 q 613 263 582 201 q 645 392 645 325 q 593 534 645 480 q 461 588 542 588 m 1231 447 q 1165 549 1211 513 q 1052 585 1118 585 q 931 551 986 585 q 834 447 876 518 l 1231 447 m 859 1137 l 1078 1137 l 792 872 l 659 872 l 859 1137 "},"Β":{"x_min":47.03125,"x_max":719,"ha":805,"o":"m 179 998 l 335 998 q 547 967 478 998 q 658 872 616 936 q 701 733 701 808 q 671 615 701 671 q 585 523 641 560 q 719 276 719 430 q 676 129 719 196 q 571 31 634 63 q 391 0 509 0 l 47 0 l 179 998 m 314 602 l 348 602 q 451 613 424 602 q 498 654 479 624 q 517 722 517 685 q 500 782 517 757 q 455 816 483 807 q 344 825 428 825 l 314 602 m 259 175 l 371 175 q 495 208 456 175 q 534 298 534 241 q 509 373 534 340 q 445 419 485 406 q 292 433 405 433 l 259 175 "},"Ļ":{"x_min":48.484375,"x_max":568.359375,"ha":610,"o":"m 183 998 l 371 998 l 258 172 l 568 172 l 546 0 l 48 0 l 183 998 m 180 -8 q 245 -8 222 -8 q 357 -39 324 -8 q 390 -112 390 -70 q 338 -212 390 -166 q 196 -259 287 -259 q 68 -234 140 -259 l 104 -146 q 178 -157 150 -157 q 256 -102 256 -157 q 206 -70 256 -70 q 154 -73 189 -70 l 180 -8 m 386 -20 l 386 -20 "},"Õ":{"x_min":56,"x_max":1114,"ha":1167,"o":"m 641 1023 q 980 890 846 1023 q 1114 554 1114 758 q 1034 260 1114 398 q 824 48 955 122 q 523 -25 693 -25 q 183 101 310 -25 q 56 433 56 227 q 207 835 56 667 q 641 1023 377 1023 m 634 846 q 438 794 527 846 q 296 644 350 742 q 242 443 242 547 q 317 235 242 320 q 533 150 392 150 q 810 265 696 150 q 925 545 925 380 q 844 763 925 681 q 634 846 764 846 m 459 1097 l 401 1209 q 503 1261 461 1248 q 586 1275 544 1275 q 669 1261 618 1275 q 782 1239 750 1239 q 904 1273 840 1239 l 960 1167 q 865 1109 891 1119 q 782 1095 824 1095 q 682 1113 741 1095 q 622 1130 634 1127 q 585 1133 605 1133 q 459 1097 519 1133 "},"№":{"x_min":47.171875,"x_max":1475,"ha":1533,"o":"m 179 998 l 343 998 l 705 319 l 796 998 l 978 998 l 844 0 l 684 0 l 318 686 l 226 0 l 47 0 l 179 998 m 1475 472 q 1400 288 1475 367 q 1211 209 1325 209 q 1055 271 1110 209 q 1000 418 1000 333 q 1079 601 1000 520 q 1268 682 1158 682 q 1416 621 1358 682 q 1475 472 1475 561 m 1351 465 q 1323 538 1351 511 q 1253 566 1296 566 q 1160 525 1197 566 q 1123 428 1123 484 q 1151 353 1123 382 q 1223 325 1180 325 q 1314 368 1277 325 q 1351 465 1351 412 m 973 119 l 1439 119 l 1422 0 l 957 0 l 973 119 "},"χ":{"x_min":-104.4375,"x_max":774.46875,"ha":778,"o":"m 774 738 l 453 248 l 672 -270 l 480 -270 l 338 85 l 111 -270 l -104 -270 l 252 271 l 55 738 l 246 738 l 366 436 l 558 738 l 774 738 "},"ί":{"x_min":6.296875,"x_max":340.640625,"ha":333,"o":"m 106 738 l 285 738 l 186 0 l 6 0 l 106 738 m 340 1112 l 276 853 l 146 853 l 146 1112 l 340 1112 "},"Ζ":{"x_min":12.203125,"x_max":687.65625,"ha":694,"o":"m 124 998 l 687 998 l 291 174 l 605 174 l 582 0 l 12 0 l 408 822 l 99 822 l 124 998 "},"Ľ":{"x_min":48.828125,"x_max":624.59375,"ha":611,"o":"m 183 998 l 371 998 l 259 172 l 568 172 l 547 0 l 48 0 l 183 998 m 455 998 l 624 998 l 613 913 q 580 777 604 845 q 474 617 555 708 l 415 669 q 495 803 475 745 l 426 803 l 455 998 "},"ť":{"x_min":21.015625,"x_max":602.21875,"ha":503,"o":"m 457 1023 l 602 1023 l 598 1001 q 563 870 587 923 q 485 756 540 817 l 435 800 q 497 908 481 859 l 439 908 l 457 1023 m 168 1012 l 349 1012 l 311 738 l 425 738 l 404 582 l 290 582 l 210 0 l 29 0 l 109 582 l 21 582 l 42 738 l 130 738 l 168 1012 "},"5":{"x_min":21.5,"x_max":752.046875,"ha":778,"o":"m 275 998 l 752 998 l 728 828 l 406 828 l 349 633 q 441 655 393 655 q 622 580 553 655 q 691 371 691 506 q 590 84 691 193 q 341 -25 490 -25 q 154 27 236 -25 q 21 185 72 80 l 185 260 q 266 172 228 196 q 350 148 304 148 q 459 199 416 148 q 503 337 503 251 q 469 441 503 402 q 389 481 436 481 q 287 421 326 481 l 121 467 l 275 998 "},"o":{"x_min":41,"x_max":812.03125,"ha":889,"o":"m 463 757 q 642 711 561 757 q 767 582 722 666 q 812 395 812 499 q 689 102 812 223 q 385 -19 566 -19 q 134 76 228 -19 q 41 325 41 171 q 167 634 41 511 q 463 757 294 757 m 450 585 q 280 505 339 585 q 221 332 221 425 q 269 199 221 250 q 398 149 317 149 q 573 226 513 149 q 633 402 633 303 q 582 534 633 483 q 450 585 531 585 "},"Ѕ":{"x_min":-10.34375,"x_max":689.75,"ha":722,"o":"m 689 859 l 553 738 q 396 847 468 847 q 336 825 360 847 q 313 774 313 804 q 334 712 313 746 q 466 562 356 678 q 543 475 524 500 q 606 363 587 415 q 626 257 626 311 q 540 56 626 137 q 321 -25 455 -25 q -10 168 117 -25 l 133 284 q 321 152 220 152 q 402 183 369 152 q 435 258 435 214 q 415 329 435 293 q 300 464 395 365 q 170 623 201 570 q 128 766 128 696 q 188 931 128 858 q 393 1023 264 1023 q 689 859 570 1023 "},"□":{"x_min":99,"x_max":739,"ha":839,"o":"m 99 641 l 739 641 l 739 0 l 99 0 l 99 641 m 151 589 l 151 52 l 687 52 l 687 589 l 151 589 "},"d":{"x_min":39,"x_max":885.953125,"ha":917,"o":"m 704 1023 l 885 1023 l 752 0 l 573 0 l 583 79 q 473 2 524 24 q 358 -19 422 -19 q 125 88 211 -19 q 39 339 39 196 q 93 547 39 449 q 241 701 148 646 q 435 757 333 757 q 560 725 502 757 q 654 634 617 694 l 704 1023 m 400 142 q 516 171 466 142 q 599 265 565 201 q 633 395 633 329 q 582 536 633 483 q 449 590 532 590 q 286 518 353 590 q 219 334 219 447 q 269 194 219 247 q 400 142 320 142 "},",":{"x_min":-34.59375,"x_max":240.078125,"ha":389,"o":"m 99 181 l 240 97 l 52 -146 l -34 -93 l 99 181 "},"\"":{"x_min":56.96875,"x_max":516.765625,"ha":500,"o":"m 478 681 l 373 681 l 335 1023 l 516 1023 l 478 681 m 200 681 l 94 681 l 56 1023 l 238 1023 l 200 681 "},"ľ":{"x_min":8.8125,"x_max":520.15625,"ha":401,"o":"m 144 1023 l 324 1023 l 189 0 l 8 0 l 144 1023 m 375 1023 l 520 1023 l 510 951 q 481 833 502 891 q 391 700 459 775 l 342 744 q 409 858 393 809 l 351 858 l 375 1023 "},"ė":{"x_min":41,"x_max":816.078125,"ha":889,"o":"m 584 216 l 743 134 q 600 22 689 63 q 404 -19 512 -19 q 138 75 235 -19 q 41 328 41 170 q 162 632 41 508 q 456 757 284 757 q 641 711 560 757 q 769 579 722 666 q 816 390 816 492 q 809 316 816 358 l 222 316 q 270 194 222 239 q 402 149 318 149 q 584 216 504 149 m 630 449 q 562 551 609 516 q 447 587 514 587 q 327 550 380 587 q 245 449 273 514 l 630 449 m 500 1042 q 559 1018 535 1042 q 584 961 584 994 q 551 881 584 914 q 472 848 518 848 q 411 871 434 848 q 388 932 388 894 q 421 1009 388 976 q 500 1042 455 1042 "},"Í":{"x_min":39.328125,"x_max":571.703125,"ha":389,"o":"m 173 998 l 356 998 l 219 0 l 39 0 l 173 998 m 352 1361 l 571 1361 l 286 1095 l 153 1095 l 352 1361 "},"Ú":{"x_min":85,"x_max":853.578125,"ha":889,"o":"m 175 998 l 362 998 l 279 382 q 269 268 269 301 q 303 180 269 212 q 405 149 338 149 q 498 172 458 149 q 546 231 528 190 q 581 394 564 272 l 665 998 l 853 998 l 772 402 q 706 138 747 218 q 588 16 665 58 q 401 -25 511 -25 q 168 54 251 -25 q 85 271 85 133 q 101 447 85 331 l 175 998 m 610 1361 l 829 1361 l 544 1096 l 411 1096 l 610 1361 "},"Ŷ":{"x_min":44.765625,"x_max":888.40625,"ha":861,"o":"m 44 998 l 233 998 l 389 598 l 673 998 l 888 998 l 462 398 l 408 0 l 221 0 l 276 398 l 44 998 m 408 1265 l 556 1265 l 732 1074 l 530 1074 l 469 1162 l 381 1074 l 177 1074 l 408 1265 "},"Ý":{"x_min":44.765625,"x_max":888.40625,"ha":861,"o":"m 44 998 l 233 998 l 389 598 l 673 998 l 888 998 l 462 398 l 408 0 l 221 0 l 276 398 l 44 998 m 596 1361 l 815 1361 l 529 1095 l 396 1095 l 596 1361 "},"ŝ":{"x_min":-18.875,"x_max":586.5625,"ha":611,"o":"m 535 635 l 449 496 q 379 569 416 546 q 311 593 343 593 q 269 579 286 593 q 253 548 253 565 q 266 516 253 532 q 344 453 279 500 q 481 325 448 378 q 514 209 514 272 q 446 54 514 127 q 250 -19 379 -19 q 116 10 177 -19 q -18 120 55 40 l 93 250 q 259 150 168 150 q 316 167 295 150 q 338 208 338 184 q 321 247 338 227 q 232 318 305 267 q 116 421 148 378 q 72 547 72 481 q 142 698 72 640 q 307 757 212 757 q 435 725 375 757 q 535 635 495 693 m 263 1042 l 411 1042 l 586 851 l 384 851 l 323 939 l 235 851 l 31 851 l 263 1042 "},"ą":{"x_min":39,"x_max":848.65625,"ha":917,"o":"m 667 737 l 848 737 l 752 0 l 573 0 l 583 78 q 473 2 524 23 q 358 -19 422 -19 q 125 88 211 -19 q 39 339 39 196 q 93 547 39 449 q 241 701 148 646 q 434 757 333 757 q 559 725 502 757 q 654 634 617 694 l 667 737 m 400 142 q 516 171 466 142 q 599 265 565 201 q 633 395 633 329 q 582 536 633 483 q 449 590 532 590 q 286 518 353 590 q 219 334 219 447 q 269 194 219 247 q 400 142 320 142 m 638 0 l 736 0 q 624 -121 624 -61 q 641 -160 624 -145 q 686 -175 658 -175 q 748 -156 709 -175 l 733 -264 q 644 -275 685 -275 q 532 -243 569 -275 q 496 -163 496 -212 q 531 -74 496 -118 q 638 0 567 -30 "},"ã":{"x_min":39,"x_max":848.65625,"ha":917,"o":"m 667 738 l 848 738 l 752 0 l 573 0 l 583 79 q 473 2 524 24 q 358 -19 422 -19 q 125 88 211 -19 q 39 339 39 196 q 93 547 39 449 q 241 701 148 646 q 435 757 333 757 q 560 725 502 757 q 654 634 617 694 l 667 738 m 400 142 q 516 171 466 142 q 599 265 565 201 q 633 395 633 329 q 582 536 633 483 q 449 590 532 590 q 286 518 353 590 q 219 334 219 447 q 269 194 219 247 q 400 142 320 142 m 293 874 l 235 986 q 337 1038 295 1025 q 420 1052 378 1052 q 503 1038 452 1052 q 616 1016 584 1016 q 738 1050 674 1016 l 794 944 q 699 886 725 896 q 616 872 658 872 q 516 890 575 872 q 456 907 468 904 q 419 910 439 910 q 293 874 353 910 "},"æ":{"x_min":51,"x_max":1418,"ha":1500,"o":"m 1410 314 l 809 314 q 1002 147 838 147 q 1184 214 1108 147 l 1344 132 q 1205 23 1295 66 q 1007 -19 1114 -19 q 878 0 935 -19 q 759 63 821 18 l 751 0 l 586 0 l 596 77 q 371 -19 508 -19 q 210 23 278 -19 q 96 152 142 65 q 51 339 51 240 q 106 546 51 447 q 255 701 161 645 q 448 757 348 757 q 572 724 514 757 q 667 633 630 692 l 682 757 l 847 757 l 836 674 q 1076 757 952 757 q 1317 650 1216 757 q 1418 392 1418 544 q 1410 314 1418 360 m 461 588 q 298 515 365 588 q 231 333 231 443 q 281 192 231 245 q 412 140 331 140 q 529 170 477 140 q 613 263 582 201 q 645 392 645 325 q 593 534 645 480 q 461 588 542 588 m 1231 447 q 1165 549 1211 513 q 1052 585 1118 585 q 931 551 986 585 q 834 447 876 518 l 1231 447 "},"ĩ":{"x_min":-61.03125,"x_max":498.453125,"ha":333,"o":"m 107 738 l 286 738 l 187 0 l 6 0 l 107 738 m -2 874 l -61 986 q 41 1038 0 1025 q 124 1052 82 1052 q 207 1038 156 1052 q 320 1016 288 1016 q 442 1050 378 1016 l 498 944 q 403 886 429 896 q 320 872 362 872 q 220 890 279 872 q 160 907 172 904 q 123 910 143 910 q -2 874 56 910 "},"~":{"x_min":68,"x_max":767,"ha":834,"o":"m 68 382 l 68 599 q 237 650 171 650 q 333 635 281 650 q 471 579 384 620 q 545 546 527 551 q 591 540 568 540 q 767 616 667 540 l 767 397 q 599 349 681 349 q 509 361 554 349 q 361 418 463 373 q 273 453 296 447 q 229 459 251 459 q 160 444 195 459 q 68 382 126 429 "},"ŀ":{"x_min":9.3125,"x_max":482,"ha":476,"o":"m 144 1023 l 325 1023 l 189 0 l 9 0 l 144 1023 m 398 593 q 457 569 433 593 q 482 512 482 545 q 449 432 482 465 q 370 399 416 399 q 309 422 332 399 q 286 483 286 445 q 319 560 286 527 q 398 593 353 593 "},"Ċ":{"x_min":59,"x_max":1033.796875,"ha":1083,"o":"m 1033 869 l 897 743 q 789 821 853 794 q 651 849 725 849 q 451 795 546 849 q 302 653 355 741 q 249 465 249 565 q 342 239 249 329 q 582 150 436 150 q 854 240 739 150 l 964 95 q 570 -25 794 -25 q 302 34 413 -25 q 125 210 192 94 q 59 460 59 325 q 138 737 59 605 q 352 946 217 870 q 646 1023 487 1023 q 1033 869 870 1023 m 667 1265 q 726 1241 702 1265 q 751 1184 751 1217 q 718 1104 751 1137 q 639 1071 685 1071 q 578 1094 601 1071 q 555 1155 555 1117 q 588 1232 555 1199 q 667 1265 622 1265 "},"¡":{"x_min":2.5625,"x_max":334,"ha":388,"o":"m 220 544 q 140 577 173 544 q 107 657 107 610 q 140 738 107 704 q 220 772 173 772 q 300 738 267 772 q 334 657 334 704 q 300 577 334 610 q 220 544 267 544 m 188 -270 l 2 -270 l 104 459 l 291 459 l 188 -270 "},"ẅ":{"x_min":35.46875,"x_max":1106.546875,"ha":1111,"o":"m 35 738 l 209 738 l 311 342 l 526 738 l 597 738 l 700 342 l 913 738 l 1106 738 l 705 0 l 618 0 l 518 390 l 308 0 l 221 0 l 35 738 m 454 1034 q 513 1010 489 1034 q 538 953 538 986 q 505 873 538 906 q 426 840 472 840 q 365 863 388 840 q 342 924 342 886 q 375 1001 342 968 q 454 1034 409 1034 m 754 1034 q 813 1010 789 1034 q 838 953 838 986 q 805 873 838 906 q 726 840 772 840 q 665 863 688 840 q 642 924 642 886 q 675 1001 642 968 q 754 1034 709 1034 "},"К":{"x_min":49.5,"x_max":875.515625,"ha":859,"o":"m 184 998 l 376 998 l 330 654 l 646 998 l 875 998 l 478 564 l 761 0 l 549 0 l 324 465 l 301 443 l 241 0 l 49 0 l 184 998 "},"Γ":{"x_min":44.078125,"x_max":674.78125,"ha":643,"o":"m 179 997 l 674 997 l 651 821 l 342 821 l 230 0 l 44 0 l 179 997 "},"P":{"x_min":47.953125,"x_max":749,"ha":777,"o":"m 182 998 l 357 998 q 583 970 517 998 q 706 873 664 935 q 749 728 749 811 q 699 564 749 637 q 568 456 650 490 q 292 423 485 423 l 235 0 l 47 0 l 182 998 m 315 598 q 515 629 468 598 q 562 722 562 660 q 543 781 562 757 q 489 814 525 804 q 347 824 453 824 l 315 598 "},"%":{"x_min":43.96875,"x_max":1129.5,"ha":1194,"o":"m 993 1042 l 1129 1042 l 180 -68 l 43 -68 l 855 885 q 762 871 808 876 q 669 867 715 867 q 531 875 605 867 q 540 810 540 837 q 504 679 540 742 q 408 582 468 616 q 275 548 348 548 q 123 606 182 548 q 65 753 65 664 q 164 958 65 875 q 320 1023 240 1023 q 435 1006 350 1023 q 687 978 585 978 q 843 993 767 978 q 993 1042 920 1009 m 318 903 q 225 862 263 903 q 187 763 187 822 q 215 693 187 722 q 285 664 243 664 q 376 704 337 664 q 415 801 415 744 q 388 875 415 847 q 318 903 361 903 m 913 448 q 1061 388 1002 448 q 1120 238 1120 329 q 1084 106 1120 169 q 988 9 1048 44 q 856 -25 927 -25 q 700 37 755 -25 q 645 184 645 99 q 681 312 645 249 q 781 412 718 376 q 913 448 844 448 m 898 331 q 806 291 844 331 q 768 194 768 252 q 796 119 768 147 q 868 91 825 91 q 957 132 919 91 q 996 230 996 174 q 969 303 996 276 q 898 331 942 331 "},"_":{"x_min":-8,"x_max":703,"ha":695,"o":"m -8 -105 l 703 -105 l 703 -174 l -8 -174 l -8 -105 "},"ñ":{"x_min":30.890625,"x_max":751.984375,"ha":833,"o":"m 130 738 l 310 738 l 300 663 q 515 757 403 757 q 672 696 611 757 q 733 543 733 635 q 721 413 733 499 l 666 0 l 487 0 l 540 403 q 549 497 549 465 q 523 565 549 541 q 451 590 498 590 q 360 558 405 590 q 290 470 315 526 q 245 261 266 415 l 211 0 l 30 0 l 130 738 m 251 874 l 192 986 q 295 1038 253 1025 q 378 1052 336 1052 q 461 1038 410 1052 q 574 1016 542 1016 q 695 1050 632 1016 l 751 944 q 657 886 682 896 q 574 872 615 872 q 474 890 533 872 q 414 907 426 904 q 377 910 397 910 q 251 874 310 910 "},"Ŕ":{"x_min":57.625,"x_max":758,"ha":806,"o":"m 190 998 l 365 998 q 592 970 526 998 q 716 874 674 935 q 758 728 758 812 q 696 550 758 624 q 509 447 634 476 l 727 0 l 533 0 l 320 435 l 302 435 l 244 0 l 57 0 l 190 998 m 324 599 q 524 629 478 599 q 571 722 571 660 q 552 782 571 758 q 498 815 533 805 q 355 825 463 825 l 324 599 m 526 1361 l 746 1361 l 460 1095 l 327 1095 l 526 1361 "},"‚":{"x_min":58.328125,"x_max":267.203125,"ha":389,"o":"m 96 194 l 267 194 l 255 109 q 216 -40 244 19 q 116 -185 189 -101 l 58 -134 q 136 0 115 -59 l 69 0 l 96 194 "},"⅞":{"x_min":112.484375,"x_max":1097,"ha":1166,"o":"m 166 -24 l 835 1023 l 952 1023 l 282 -24 l 166 -24 m 130 1010 l 513 1010 l 506 943 l 207 485 l 112 547 l 352 906 l 114 906 l 130 1010 m 995 275 q 1083 156 1083 242 q 1021 34 1083 80 q 867 -12 960 -12 q 726 33 778 -12 q 674 135 674 78 q 797 286 674 234 q 736 383 736 318 q 790 484 736 442 q 923 526 844 526 q 1047 487 997 526 q 1097 396 1097 449 q 995 275 1097 316 m 969 380 q 921 422 969 422 q 876 407 893 422 q 859 373 859 393 q 907 330 859 330 q 951 344 933 330 q 969 380 969 359 m 961 162 q 940 210 961 190 q 888 230 920 230 q 824 205 848 230 q 800 152 800 181 q 820 108 800 125 q 874 92 840 92 q 937 112 913 92 q 961 162 961 133 "},"Æ":{"x_min":-24.421875,"x_max":1204.421875,"ha":1250,"o":"m 516 998 l 1204 998 l 1180 821 l 826 821 l 797 613 l 1154 613 l 1131 438 l 775 438 l 739 174 l 1096 174 l 1073 0 l 534 0 l 562 213 l 292 213 l 176 0 l -24 0 l 516 998 m 586 388 l 650 880 l 385 388 l 586 388 "},"₣":{"x_min":0,"x_max":659.1875,"ha":667,"o":"m 260 277 l 413 277 l 400 162 l 246 162 l 224 0 l 36 0 l 57 162 l 0 162 l 14 277 l 72 277 l 167 998 l 659 998 l 636 821 l 332 821 l 305 615 l 609 615 l 586 439 l 282 439 l 260 277 "},"Ū":{"x_min":85,"x_max":853.578125,"ha":889,"o":"m 175 998 l 362 998 l 279 382 q 269 268 269 301 q 303 180 269 212 q 405 149 338 149 q 498 172 458 149 q 546 231 528 190 q 581 394 564 272 l 665 998 l 853 998 l 772 402 q 706 138 747 218 q 588 16 665 58 q 401 -25 511 -25 q 168 54 251 -25 q 85 271 85 133 q 101 447 85 331 l 175 998 m 334 1096 l 355 1246 l 741 1246 l 719 1096 l 334 1096 "},"ы":{"x_min":31.171875,"x_max":1023.375,"ha":1091,"o":"m 838 738 l 1023 738 l 924 0 l 738 0 l 838 738 m 316 738 l 280 472 l 334 472 q 566 408 504 472 q 628 250 628 345 q 599 125 628 182 q 531 42 571 68 q 445 7 491 15 q 291 0 399 0 l 31 0 l 130 738 l 316 738 m 235 142 l 291 142 q 403 167 372 142 q 434 243 434 192 q 336 321 434 321 l 259 321 l 235 142 "},"ѓ":{"x_min":31.203125,"x_max":684.265625,"ha":546,"o":"m 130 738 l 561 738 l 537 562 l 292 562 l 217 0 l 31 0 l 130 738 m 465 1138 l 684 1138 l 398 873 l 265 873 l 465 1138 "},"Œ":{"x_min":45,"x_max":1466.171875,"ha":1472,"o":"m 962 998 l 1466 998 l 1443 822 l 1123 822 l 1097 614 l 1417 614 l 1393 438 l 1073 438 l 1038 175 l 1361 175 l 1336 0 l 830 0 l 841 81 q 694 0 771 25 q 514 -25 616 -25 q 164 109 284 -25 q 45 437 45 243 q 122 733 45 597 q 333 946 199 869 q 627 1023 468 1023 q 801 992 725 1023 q 950 894 878 962 l 962 998 m 623 846 q 428 793 518 846 q 286 645 339 740 q 234 441 234 551 q 312 230 234 310 q 520 150 391 150 q 794 264 682 150 q 906 549 906 379 q 826 764 906 682 q 623 846 747 846 "},"΅":{"x_min":55,"x_max":638,"ha":583,"o":"m 464 1112 l 400 853 l 270 853 l 270 1112 l 464 1112 m 232 954 q 201 884 232 914 q 130 854 171 854 q 76 875 97 854 q 55 929 55 897 q 85 998 55 968 q 154 1029 115 1029 q 210 1006 189 1029 q 232 954 232 984 m 638 954 q 607 883 638 913 q 536 854 577 854 q 481 876 503 854 q 460 928 460 898 q 490 999 460 969 q 560 1029 521 1029 q 616 1006 595 1029 q 638 954 638 984 "},"Ą":{"x_min":-16.46875,"x_max":951.109375,"ha":1027,"o":"m 522 997 l 680 997 l 928 0 l 746 0 l 693 212 l 299 212 l 184 0 l -16 0 l 522 997 m 648 388 l 568 715 l 392 388 l 648 388 m 841 0 l 938 0 q 827 -121 827 -61 q 844 -160 827 -145 q 889 -175 861 -175 q 951 -156 912 -175 l 936 -264 q 847 -275 888 -275 q 735 -243 772 -275 q 699 -163 699 -212 q 734 -74 699 -118 q 841 0 770 -29 "},"Њ":{"x_min":45.953125,"x_max":1240,"ha":1314,"o":"m 572 0 l 631 439 l 297 439 l 238 0 l 45 0 l 180 998 l 372 998 l 321 621 l 656 621 l 707 998 l 898 998 l 847 621 l 901 621 q 1144 546 1048 621 q 1240 331 1240 471 q 1224 215 1240 280 q 1155 94 1209 149 q 1040 20 1102 40 q 854 0 978 0 l 572 0 m 823 439 l 788 181 l 836 181 q 958 190 916 181 q 1025 231 1000 200 q 1051 310 1051 262 q 895 439 1051 439 l 863 439 l 823 439 "},"›":{"x_min":-58.328125,"x_max":292.296875,"ha":333,"o":"m 113 0 l -58 0 l 120 373 l 46 738 l 219 738 l 292 373 l 113 0 "},"ћ":{"x_min":30.890625,"x_max":733,"ha":833,"o":"m 339 949 l 578 949 l 563 831 l 323 831 l 300 663 q 515 757 399 757 q 673 694 613 757 q 733 543 733 632 q 721 413 733 499 l 666 0 l 487 0 l 540 403 q 549 496 549 465 q 520 567 549 545 q 451 590 491 590 q 355 554 402 590 q 287 462 308 519 q 245 261 265 405 l 211 0 l 30 0 l 143 831 l 37 831 l 53 949 l 159 949 l 169 1022 l 348 1022 l 339 949 "},"→":{"x_min":54,"x_max":1335,"ha":1389,"o":"m 1054 594 q 1335 368 1215 416 l 1335 337 q 1054 106 1205 278 l 1002 106 q 1135 316 1066 246 l 54 316 l 54 385 l 1135 385 q 1003 594 1058 479 l 1054 594 "},"<":{"x_min":78,"x_max":756,"ha":834,"o":"m 756 248 l 756 78 l 78 423 l 78 573 l 756 918 l 756 749 l 272 498 l 756 248 "},"¬":{"x_min":78.375,"x_max":756,"ha":834,"o":"m 78 729 l 756 729 l 756 268 l 587 268 l 587 559 l 78 559 l 78 729 "},"t":{"x_min":21.015625,"x_max":425.890625,"ha":416,"o":"m 168 1012 l 349 1012 l 311 738 l 425 738 l 404 582 l 290 582 l 210 0 l 29 0 l 109 582 l 21 582 l 42 738 l 130 738 l 168 1012 "},"Ц":{"x_min":46.796875,"x_max":990.8125,"ha":1007,"o":"m 46 0 l 181 997 l 373 997 l 262 171 l 596 171 l 708 997 l 899 997 l 788 171 l 990 171 l 947 -149 l 769 -149 l 788 0 l 46 0 "},"ù":{"x_min":76,"x_max":768.71875,"ha":834,"o":"m 132 738 l 311 738 l 262 360 q 254 267 254 298 q 287 185 254 218 q 376 152 321 152 q 483 194 445 152 q 538 368 521 237 l 589 738 l 768 738 l 715 341 q 653 133 696 206 q 539 20 610 59 q 371 -19 468 -19 q 156 59 236 -19 q 76 261 76 137 q 92 457 76 337 l 132 738 m 271 1138 l 490 1138 l 613 872 l 481 872 l 271 1138 "},"ï":{"x_min":-45,"x_max":451,"ha":333,"o":"m 107 738 l 286 738 l 187 0 l 7 0 l 107 738 m 67 1042 q 126 1018 102 1042 q 151 961 151 994 q 118 881 151 914 q 39 848 85 848 q -21 871 1 848 q -45 932 -45 894 q -11 1009 -45 976 q 67 1042 22 1042 m 367 1042 q 426 1018 402 1042 q 451 961 451 994 q 418 881 451 914 q 339 848 385 848 q 278 871 301 848 q 255 932 255 894 q 288 1009 255 976 q 367 1042 322 1042 "},"Ф":{"x_min":25,"x_max":997,"ha":1020,"o":"m 661 996 l 643 868 q 921 787 846 868 q 997 594 997 707 q 937 408 997 491 q 791 298 878 325 q 562 271 703 271 l 526 0 l 338 0 l 375 271 q 160 308 232 271 q 57 410 89 345 q 25 546 25 476 q 63 698 25 621 q 182 822 101 776 q 456 868 263 868 l 473 996 l 661 996 m 398 443 l 431 696 l 383 696 q 241 651 276 696 q 207 558 207 606 q 358 443 207 443 l 398 443 m 620 696 l 585 443 l 633 443 q 721 452 685 443 q 784 498 758 462 q 810 580 810 534 q 659 696 810 696 l 620 696 "},"Ò":{"x_min":56,"x_max":1114,"ha":1167,"o":"m 641 1023 q 980 890 846 1023 q 1114 554 1114 758 q 1034 260 1114 398 q 824 48 955 122 q 523 -25 693 -25 q 183 101 310 -25 q 56 433 56 227 q 207 835 56 667 q 641 1023 377 1023 m 634 846 q 438 794 527 846 q 296 644 350 742 q 242 443 242 547 q 317 235 242 320 q 533 150 392 150 q 810 265 696 150 q 925 545 925 380 q 844 763 925 681 q 634 846 764 846 m 479 1361 l 698 1361 l 821 1095 l 689 1095 l 479 1361 "},"I":{"x_min":39.328125,"x_max":356.71875,"ha":389,"o":"m 173 998 l 356 998 l 219 0 l 39 0 l 173 998 "},"·":{"x_min":371,"x_max":567,"ha":463,"o":"m 483 593 q 542 569 518 593 q 567 512 567 545 q 534 432 567 465 q 455 399 501 399 q 394 422 417 399 q 371 483 371 445 q 404 560 371 527 q 483 593 438 593 "},"¿":{"x_min":1,"x_max":659.96875,"ha":779,"o":"m 430 544 q 349 577 383 544 q 316 657 316 610 q 349 738 316 704 q 430 772 383 772 q 510 738 477 772 q 544 657 544 704 q 510 577 544 610 q 430 544 477 544 m 481 8 l 659 8 q 602 -145 650 -77 q 476 -251 555 -213 q 296 -289 396 -289 q 83 -210 166 -289 q 1 -23 1 -132 q 165 235 1 115 q 258 311 239 290 q 290 368 277 332 q 308 457 303 403 l 480 457 q 441 262 480 334 q 303 121 403 189 q 201 37 222 67 q 180 -21 180 8 q 216 -90 180 -61 q 314 -120 253 -120 q 481 8 449 -120 "},"▫":{"x_min":89,"x_max":403,"ha":493,"o":"m 403 616 l 403 302 l 89 302 l 89 616 l 403 616 m 351 564 l 141 564 l 141 354 l 351 354 l 351 564 "},"ſ":{"x_min":9.5,"x_max":455.046875,"ha":333,"o":"m 455 997 l 434 849 q 359 883 400 883 q 314 855 326 883 q 286 712 302 827 l 189 0 l 9 0 l 107 729 q 143 919 126 864 q 204 1008 161 974 q 313 1042 247 1042 q 455 997 394 1042 "},"Ђ":{"x_min":30.796875,"x_max":850,"ha":927,"o":"m 291 0 l 97 0 l 207 810 l 30 810 l 55 997 l 607 997 l 582 810 l 400 810 l 375 621 l 438 621 q 671 597 594 621 q 799 506 748 574 q 850 323 850 437 q 775 71 850 167 q 574 -24 700 -24 q 407 16 500 -24 l 489 168 q 551 155 521 155 q 652 302 652 155 q 609 409 652 379 q 430 439 567 439 l 350 439 l 291 0 "},"●":{"x_min":121,"x_max":718,"ha":839,"o":"m 419 691 q 630 603 542 691 q 718 392 718 515 q 630 180 718 268 q 419 93 543 93 q 208 180 296 93 q 121 392 121 268 q 210 605 121 520 q 419 691 299 691 "},"ű":{"x_min":76,"x_max":982.34375,"ha":834,"o":"m 132 738 l 311 738 l 262 360 q 254 267 254 298 q 287 185 254 218 q 376 152 321 152 q 483 194 445 152 q 538 368 521 237 l 589 738 l 768 738 l 715 341 q 653 133 696 206 q 539 20 610 59 q 371 -19 468 -19 q 156 59 236 -19 q 76 261 76 137 q 92 457 76 337 l 132 738 m 460 1139 l 679 1139 l 394 873 l 261 873 l 460 1139 m 763 1139 l 982 1139 l 697 873 l 563 873 l 763 1139 "},"Ǽ":{"x_min":-24.421875,"x_max":1204.421875,"ha":1250,"o":"m 516 998 l 1204 998 l 1180 821 l 826 821 l 797 613 l 1154 613 l 1131 438 l 775 438 l 739 174 l 1096 174 l 1073 0 l 534 0 l 562 213 l 292 213 l 176 0 l -24 0 l 516 998 m 586 388 l 650 880 l 385 388 l 586 388 m 857 1360 l 1076 1360 l 791 1095 l 658 1095 l 857 1360 "},"φ":{"x_min":37,"x_max":1029,"ha":1107,"o":"m 569 -15 l 535 -270 l 355 -270 l 388 -15 q 129 90 222 1 q 37 325 37 179 q 365 751 37 603 l 393 571 q 216 328 216 479 q 412 157 216 180 l 490 752 q 583 757 543 757 q 908 664 788 757 q 1029 409 1029 571 q 569 -15 1029 24 m 647 577 l 592 157 q 848 402 848 180 q 647 577 848 577 "},";":{"x_min":-34.671875,"x_max":331,"ha":389,"o":"m 217 757 q 297 723 263 757 q 331 643 331 690 q 297 563 331 596 q 217 530 263 530 q 136 563 169 530 q 103 643 103 596 q 135 724 103 691 q 217 757 168 757 m 99 180 l 240 97 l 52 -146 l -34 -94 l 99 180 "},"Ġ":{"x_min":59,"x_max":1069.9375,"ha":1167,"o":"m 1045 812 l 889 711 q 758 818 821 788 q 615 849 695 849 q 334 709 442 849 q 248 464 248 599 q 336 241 248 331 q 554 151 424 151 q 729 197 650 151 q 858 337 808 244 l 547 337 l 570 514 l 1069 514 q 924 120 1069 266 q 555 -25 780 -25 q 171 143 311 -25 q 59 464 59 278 q 222 857 59 691 q 613 1023 386 1023 q 777 998 697 1023 q 922 930 857 974 q 1045 812 986 886 m 662 1265 q 721 1241 697 1265 q 746 1184 746 1217 q 713 1104 746 1137 q 634 1071 680 1071 q 573 1094 596 1071 q 550 1155 550 1117 q 583 1232 550 1199 q 662 1265 617 1265 "},"6":{"x_min":49,"x_max":703,"ha":778,"o":"m 457 1022 l 600 926 l 360 591 q 425 601 396 601 q 621 516 540 601 q 703 305 703 431 q 607 69 703 164 q 363 -25 511 -25 q 138 64 228 -25 q 49 285 49 154 q 62 386 49 337 q 118 520 82 456 q 248 729 181 635 l 457 1022 m 378 442 q 269 397 315 442 q 224 289 224 352 q 265 189 224 230 q 368 148 307 148 q 477 192 433 148 q 521 302 521 236 q 480 401 521 361 q 378 442 440 442 "},"n":{"x_min":30.890625,"x_max":733,"ha":833,"o":"m 130 738 l 310 738 l 300 663 q 515 757 403 757 q 672 696 611 757 q 733 543 733 635 q 721 413 733 499 l 666 0 l 487 0 l 540 403 q 549 497 549 465 q 523 565 549 541 q 451 590 498 590 q 360 558 405 590 q 290 470 315 526 q 245 261 266 415 l 211 0 l 30 0 l 130 738 "},"ά":{"x_min":39,"x_max":848.65625,"ha":917,"o":"m 667 738 l 848 738 l 752 0 l 573 0 l 583 79 q 473 2 524 24 q 358 -19 421 -19 q 125 88 211 -19 q 39 339 39 196 q 93 547 39 449 q 241 701 148 646 q 434 757 333 757 q 560 725 502 757 q 654 634 617 694 l 667 738 m 400 142 q 516 171 466 142 q 599 265 565 201 q 633 395 633 329 q 582 536 633 483 q 449 590 532 590 q 286 518 353 590 q 219 334 219 447 q 269 194 219 247 q 400 142 320 142 m 633 1112 l 568 853 l 438 853 l 438 1112 l 633 1112 "},"ϊ":{"x_min":-45,"x_max":451,"ha":333,"o":"m 107 738 l 286 738 l 187 0 l 7 0 l 107 738 m 67 1042 q 126 1018 102 1042 q 151 961 151 994 q 118 881 151 914 q 39 848 85 848 q -21 871 1 848 q -45 932 -45 894 q -11 1009 -45 976 q 67 1042 22 1042 m 367 1042 q 426 1018 402 1042 q 451 961 451 994 q 418 881 451 914 q 339 848 385 848 q 278 871 301 848 q 255 932 255 894 q 288 1009 255 976 q 367 1042 322 1042 "},"ģ":{"x_min":21.328125,"x_max":848.265625,"ha":917,"o":"m 667 738 l 848 738 l 767 147 q 718 -84 743 -27 q 586 -231 679 -173 q 353 -289 493 -289 q 150 -243 236 -289 q 21 -127 64 -198 l 176 -46 q 358 -120 246 -120 q 470 -96 423 -120 q 544 -32 518 -72 q 581 87 570 8 q 358 0 483 0 q 198 43 272 0 q 83 166 125 87 q 41 343 41 246 q 95 548 41 452 q 245 700 150 644 q 442 757 339 757 q 556 732 505 757 q 655 650 606 708 l 667 738 m 452 586 q 286 516 353 586 q 219 346 219 447 q 269 215 219 264 q 403 166 319 166 q 520 196 466 166 q 604 283 573 226 q 636 406 636 340 q 584 534 636 483 q 452 586 532 586 m 556 847 l 386 847 l 398 931 q 436 1081 409 1021 q 537 1226 464 1142 l 595 1175 q 516 1041 537 1100 l 584 1041 l 556 847 "},"∂":{"x_min":31,"x_max":664,"ha":687,"o":"m 258 761 l 165 818 q 266 962 200 914 q 416 1011 333 1011 q 541 972 486 1011 q 630 850 596 933 q 664 639 664 766 q 594 259 664 441 q 446 52 542 122 q 242 -17 351 -17 q 89 45 147 -17 q 31 222 31 108 q 91 430 31 335 q 267 582 152 525 q 533 639 381 639 l 561 639 q 519 828 561 769 q 412 888 477 888 q 332 862 367 888 q 258 761 296 836 m 553 514 l 523 514 q 349 476 427 514 q 228 369 270 438 q 186 229 186 301 q 214 144 186 177 q 281 112 242 112 q 448 214 370 112 q 553 514 527 317 "},"κ":{"x_min":31.203125,"x_max":812.453125,"ha":806,"o":"m 128 739 l 307 739 l 272 480 l 564 738 l 812 738 l 439 409 l 765 0 l 548 0 l 257 363 l 208 0 l 31 0 l 128 739 "},"‡":{"x_min":-44.890625,"x_max":788.90625,"ha":777,"o":"m 366 1023 l 554 1023 l 474 706 l 788 738 l 763 556 l 460 591 l 460 376 l 395 156 l 712 194 l 687 6 l 376 43 l 376 -270 l 187 -270 l 265 43 l -44 6 l -17 194 l 282 156 l 282 376 l 345 591 l 34 556 l 60 738 l 366 706 l 366 1023 "},"ň":{"x_min":30.890625,"x_max":789.96875,"ha":833,"o":"m 130 738 l 310 738 l 300 663 q 515 757 403 757 q 672 696 611 757 q 733 543 733 635 q 721 413 733 499 l 666 0 l 487 0 l 540 403 q 549 497 549 465 q 523 565 549 541 q 451 590 498 590 q 360 558 405 590 q 290 470 315 526 q 245 261 266 415 l 211 0 l 30 0 l 130 738 m 559 851 l 411 851 l 235 1042 l 437 1042 l 498 953 l 586 1042 l 789 1042 l 559 851 "},"√":{"x_min":54.9375,"x_max":760.234375,"ha":762,"o":"m 710 1268 l 760 1268 l 548 -52 l 212 639 l 77 578 l 54 621 l 259 723 l 533 165 l 710 1268 "},"ę":{"x_min":41,"x_max":816.078125,"ha":889,"o":"m 583 216 l 742 133 q 600 22 689 63 q 404 -19 512 -19 q 138 75 235 -19 q 41 328 41 170 q 162 632 41 508 q 456 757 284 757 q 641 711 560 757 q 769 579 722 666 q 816 390 816 492 q 809 316 816 358 l 222 316 q 269 193 222 239 q 402 148 317 148 q 583 216 504 148 m 629 449 q 561 551 609 516 q 447 587 514 587 q 327 550 380 587 q 245 449 273 514 l 629 449 m 434 0 l 531 0 q 420 -121 420 -61 q 437 -160 420 -145 q 482 -175 454 -175 q 544 -156 505 -175 l 529 -264 q 440 -275 481 -275 q 328 -243 365 -275 q 292 -163 292 -212 q 327 -74 292 -118 q 434 0 363 -29 "},"į":{"x_min":-53,"x_max":332,"ha":333,"o":"m 220 1040 q 299 1007 266 1040 q 332 928 332 974 q 299 848 332 881 q 220 816 266 816 q 140 848 173 816 q 108 928 108 881 q 140 1007 108 974 q 220 1040 173 1040 m 107 737 l 286 737 l 187 0 l 6 0 l 107 737 m 89 0 l 187 0 q 75 -121 75 -61 q 92 -160 75 -145 q 137 -175 109 -175 q 199 -156 160 -175 l 184 -264 q 95 -275 136 -275 q -15 -243 21 -275 q -53 -163 -53 -212 q -17 -74 -53 -118 q 89 0 18 -30 "},"Τ":{"x_min":30.515625,"x_max":662.578125,"ha":583,"o":"m 53 998 l 662 998 l 640 820 l 428 820 l 320 0 l 134 0 l 242 820 l 30 820 l 53 998 "},"≈":{"x_min":32,"x_max":731,"ha":763,"o":"m 32 546 l 32 762 q 201 812 135 812 q 297 797 245 812 q 435 742 348 783 q 509 709 491 714 q 555 703 532 703 q 731 779 631 703 l 731 560 q 563 512 645 512 q 473 524 518 512 q 325 581 427 536 q 237 615 260 609 q 193 622 215 622 q 124 606 159 622 q 32 546 90 591 m 32 218 l 32 435 q 201 486 135 486 q 297 471 245 486 q 435 414 348 456 q 509 382 491 387 q 555 376 532 376 q 731 452 631 376 l 731 233 q 563 185 645 185 q 473 196 518 185 q 325 254 427 208 q 237 289 260 283 q 193 295 215 295 q 124 279 159 295 q 32 218 90 264 "},"ΐ":{"x_min":-70,"x_max":513,"ha":333,"o":"m 107 738 l 285 738 l 186 0 l 6 0 l 107 738 m 339 1112 l 275 853 l 145 853 l 145 1112 l 339 1112 m 107 953 q 76 883 107 913 q 5 853 46 853 q -48 874 -27 853 q -70 928 -70 896 q -39 997 -70 967 q 29 1028 -9 1028 q 85 1005 64 1028 q 107 953 107 983 m 513 953 q 482 882 513 912 q 411 853 452 853 q 356 875 378 853 q 335 927 335 897 q 365 998 335 968 q 435 1028 396 1028 q 491 1005 470 1028 q 513 953 513 983 "},"ĸ":{"x_min":31.203125,"x_max":812.453125,"ha":806,"o":"m 128 738 l 307 738 l 272 480 l 564 738 l 812 738 l 439 409 l 765 0 l 548 0 l 257 363 l 208 0 l 31 0 l 128 738 "},"g":{"x_min":21.328125,"x_max":848.265625,"ha":917,"o":"m 667 738 l 848 738 l 767 147 q 718 -84 743 -27 q 586 -231 679 -173 q 353 -289 493 -289 q 150 -243 236 -289 q 21 -127 64 -198 l 176 -46 q 358 -120 246 -120 q 470 -96 423 -120 q 544 -32 518 -72 q 581 87 570 8 q 358 0 483 0 q 198 43 272 0 q 83 166 125 87 q 41 343 41 246 q 95 548 41 452 q 245 700 150 644 q 442 757 339 757 q 556 732 505 757 q 655 650 606 708 l 667 738 m 452 586 q 286 516 353 586 q 219 346 219 447 q 269 215 219 264 q 403 166 319 166 q 520 196 466 166 q 604 283 573 226 q 636 406 636 340 q 584 534 636 483 q 452 586 532 586 "},"ǿ":{"x_min":30.578125,"x_max":858.203125,"ha":917,"o":"m 747 635 q 827 395 827 533 q 704 102 827 223 q 401 -19 581 -19 q 213 25 289 -19 l 109 -94 l 30 -23 l 133 94 q 55 324 55 191 q 111 541 55 442 q 266 698 167 640 q 474 757 365 757 q 666 706 583 757 l 777 832 l 858 762 l 747 635 m 257 236 l 546 568 q 462 585 509 585 q 293 504 352 585 q 235 333 235 424 q 257 236 235 280 m 625 495 l 334 163 q 413 149 369 149 q 587 225 526 149 q 647 400 647 301 q 625 495 647 455 m 584 1138 l 803 1138 l 517 872 l 384 872 l 584 1138 "},"²":{"x_min":39,"x_max":458,"ha":467,"o":"m 212 840 l 91 840 q 142 974 91 925 q 279 1023 193 1023 q 408 979 359 1023 q 458 875 458 936 q 424 775 458 827 q 252 601 390 723 l 435 601 l 419 497 l 39 497 l 51 577 q 305 810 260 754 q 334 874 334 845 q 318 905 334 892 q 279 919 303 919 q 236 902 252 919 q 212 840 220 885 "},"Ã":{"x_min":-16.28125,"x_max":928.40625,"ha":1027,"o":"m 522 997 l 680 997 l 928 0 l 746 0 l 693 212 l 299 212 l 185 0 l -16 0 l 522 997 m 648 388 l 568 715 l 392 388 l 648 388 m 389 1096 l 330 1208 q 433 1261 391 1247 q 516 1275 474 1275 q 599 1260 548 1275 q 712 1238 680 1238 q 834 1272 770 1238 l 890 1167 q 795 1108 821 1118 q 712 1094 754 1094 q 612 1112 671 1094 q 552 1130 564 1127 q 515 1133 535 1133 q 389 1096 448 1133 "},"▲":{"x_min":206.15625,"x_max":1169.15625,"ha":1375,"o":"m 206 0 l 687 962 l 1169 0 l 206 0 "},"Ј":{"x_min":-31.875,"x_max":623.234375,"ha":667,"o":"m 436 998 l 623 998 l 529 293 q 482 96 510 154 q 399 6 453 38 q 272 -25 345 -25 q 100 27 182 -25 q -31 178 18 80 l 116 268 q 194 180 155 207 q 263 153 233 153 q 312 177 295 153 q 339 283 330 201 l 436 998 "},"‾":{"x_min":-28,"x_max":807,"ha":779,"o":"m -28 1268 l 807 1268 l 807 1218 l -28 1218 l -28 1268 "},"©":{"x_min":-5,"x_max":1034,"ha":1028,"o":"m 1034 513 q 964 254 1034 374 q 774 64 894 133 q 514 -5 653 -5 q 254 64 375 -5 q 64 254 134 133 q -5 513 -5 374 q 64 772 -5 652 q 254 961 134 892 q 514 1031 374 1031 q 774 961 654 1031 q 964 772 894 892 q 1034 513 1034 652 m 927 511 q 806 803 927 683 q 515 924 686 924 q 307 869 403 924 q 156 718 211 814 q 102 514 102 623 q 156 310 102 405 q 307 160 211 215 q 513 106 403 106 q 720 160 624 106 q 872 309 817 215 q 927 511 927 403 m 664 418 l 784 418 q 704 271 772 329 q 536 214 635 214 q 326 299 408 214 q 245 522 245 385 q 325 738 245 655 q 532 821 406 821 q 698 770 633 821 q 784 622 763 719 l 664 622 q 618 699 653 672 q 533 727 584 727 q 408 672 457 727 q 360 524 360 617 q 411 368 360 427 q 535 309 463 309 q 622 339 586 309 q 664 418 658 369 "},"≥":{"x_min":42,"x_max":719,"ha":762,"o":"m 42 385 l 525 635 l 42 886 l 42 1055 l 719 711 l 719 561 l 42 215 l 42 385 m 719 140 l 719 -30 l 42 -30 l 42 140 l 719 140 "},"Ă":{"x_min":-15.796875,"x_max":937.71875,"ha":1027,"o":"m 522 997 l 680 997 l 928 0 l 747 0 l 694 212 l 300 212 l 185 0 l -15 0 l 522 997 m 648 388 l 568 715 l 393 388 l 648 388 m 385 1285 l 535 1285 q 570 1246 547 1258 q 654 1230 604 1230 q 733 1243 700 1230 q 787 1286 767 1257 l 937 1286 q 833 1147 911 1198 q 635 1096 755 1096 q 447 1148 510 1096 q 385 1285 385 1200 "},"ґ":{"x_min":31.203125,"x_max":591.359375,"ha":567,"o":"m 130 738 l 403 738 l 421 847 l 591 847 l 554 562 l 292 562 l 217 0 l 31 0 l 130 738 "},"ÿ":{"x_min":28.921875,"x_max":799.578125,"ha":806,"o":"m 30 738 l 208 738 l 352 299 l 604 738 l 799 738 l 220 -270 l 28 -270 l 238 100 l 30 738 m 303 1042 q 362 1018 338 1042 q 387 961 387 994 q 354 881 387 914 q 275 848 321 848 q 214 871 237 848 q 191 932 191 894 q 224 1009 191 976 q 303 1042 258 1042 m 603 1042 q 662 1018 638 1042 q 687 961 687 994 q 654 881 687 914 q 575 848 621 848 q 514 871 537 848 q 491 932 491 894 q 524 1009 491 976 q 603 1042 558 1042 "},"Ł":{"x_min":-21.703125,"x_max":568.984375,"ha":611,"o":"m 322 640 l 499 728 l 482 602 l 305 511 l 259 172 l 568 172 l 547 0 l 48 0 l 103 408 l -21 344 l -4 475 l 121 538 l 183 998 l 371 998 l 322 640 "},"∫":{"x_min":0,"x_max":380,"ha":381,"o":"m 145 643 q 145 981 145 785 q 176 1179 145 1106 q 226 1242 193 1220 q 291 1264 259 1264 q 353 1241 326 1264 q 380 1191 380 1219 q 362 1140 380 1160 q 317 1121 344 1121 q 266 1145 293 1121 q 239 1159 250 1159 q 219 1149 226 1159 q 211 1115 211 1139 q 218 1017 211 1087 q 235 565 235 738 q 235 181 235 520 q 182 -96 235 -25 q 83 -149 143 -149 q 23 -125 46 -149 q 0 -67 0 -102 q 17 -18 0 -37 q 60 0 34 0 q 108 -22 88 0 q 140 -43 127 -43 q 159 -33 152 -43 q 167 -2 167 -23 q 161 79 167 26 q 145 643 145 293 "},"\\":{"x_min":154.625,"x_max":733.78125,"ha":889,"o":"m 733 -178 l 602 -178 l 154 1026 l 285 1026 l 733 -178 "},"Ì":{"x_min":39.328125,"x_max":423.859375,"ha":389,"o":"m 173 998 l 356 998 l 219 0 l 39 0 l 173 998 m 82 1361 l 300 1361 l 423 1095 l 291 1095 l 82 1361 "},"ъ":{"x_min":13.984375,"x_max":720,"ha":798,"o":"m 201 573 l 13 573 l 36 738 l 408 738 l 372 472 l 427 472 q 658 408 596 472 q 720 250 720 345 q 691 125 720 182 q 623 42 663 68 q 537 7 583 15 q 383 0 492 0 l 123 0 l 201 573 m 327 142 l 384 142 q 495 167 464 142 q 526 243 526 192 q 428 321 526 321 l 351 321 l 327 142 "},"ς":{"x_min":39,"x_max":802.796875,"ha":813,"o":"m 802 588 l 637 503 q 462 587 562 587 q 290 521 360 587 q 221 356 221 456 q 265 251 221 293 q 423 175 309 210 q 638 -29 638 111 q 555 -221 638 -153 q 332 -289 472 -289 q 178 -266 266 -289 l 239 -102 q 354 -124 287 -124 q 455 -59 455 -124 q 362 2 455 -19 q 39 330 39 80 q 163 641 39 526 q 492 757 287 757 q 673 711 588 757 q 802 588 759 666 "},"∩":{"x_min":88,"x_max":731,"ha":818,"o":"m 162 0 l 88 0 l 88 421 l 88 582 q 99 724 88 661 q 139 839 111 787 q 211 930 167 890 q 306 991 255 971 q 408 1012 357 1012 q 561 965 488 1012 q 673 847 633 919 q 721 695 712 775 q 731 421 731 615 l 731 0 l 656 0 l 656 425 q 649 662 656 590 q 613 791 642 733 q 527 885 585 848 q 408 923 469 923 q 290 885 347 923 q 205 792 233 848 q 169 664 176 737 q 162 425 162 591 l 162 0 "},"↕":{"x_min":103.078125,"x_max":590.90625,"ha":695,"o":"m 331 992 l 362 992 q 590 715 415 868 l 590 661 q 380 793 474 708 l 380 -91 q 590 39 474 -6 l 590 -13 q 362 -290 415 -166 l 331 -290 q 103 -13 278 -166 l 103 39 q 314 -91 219 -6 l 314 793 q 103 661 219 708 l 103 715 q 331 992 278 868 "},"Ē":{"x_min":35.265625,"x_max":708.015625,"ha":722,"o":"m 166 998 l 708 998 l 684 821 l 332 821 l 303 615 l 657 615 l 635 439 l 281 439 l 246 174 l 602 174 l 578 0 l 35 0 l 166 998 m 244 1096 l 265 1246 l 651 1246 l 630 1096 l 244 1096 "},"!":{"x_min":31,"x_max":362.765625,"ha":389,"o":"m 176 1023 l 362 1023 l 260 294 l 73 294 l 176 1023 m 144 209 q 225 175 191 209 q 259 95 259 142 q 225 14 259 48 q 144 -19 191 -19 q 64 14 97 -19 q 31 95 31 48 q 64 175 31 142 q 144 209 97 209 "},"ç":{"x_min":41,"x_max":804.25,"ha":888,"o":"m 804 585 l 650 502 q 476 585 585 585 q 345 553 402 585 q 254 462 288 521 q 221 336 221 402 q 274 199 221 250 q 421 147 327 147 q 619 235 550 147 l 762 134 q 612 21 701 62 q 411 -19 522 -19 q 140 75 239 -19 q 41 326 41 170 q 163 631 41 505 q 479 757 286 757 q 804 585 697 757 m 387 10 l 502 10 l 490 -20 q 551 -55 530 -31 q 573 -111 573 -80 q 520 -214 573 -169 q 380 -259 468 -259 q 234 -227 307 -259 l 271 -139 q 364 -156 319 -156 q 420 -140 400 -156 q 440 -102 440 -125 q 428 -77 440 -86 q 386 -69 417 -69 l 352 -69 l 387 10 "},"Й":{"x_min":42.40625,"x_max":902.328125,"ha":945,"o":"m 902 998 l 766 0 l 580 0 l 679 662 l 207 0 l 42 0 l 177 998 l 367 998 l 257 308 l 744 998 l 902 998 m 313 1263 l 463 1263 q 498 1224 475 1236 q 582 1208 532 1208 q 661 1221 628 1208 q 715 1263 695 1235 l 865 1263 q 761 1125 839 1176 q 563 1074 683 1074 q 375 1126 438 1074 q 313 1263 313 1178 "},"Б":{"x_min":48.25,"x_max":715,"ha":799,"o":"m 48 0 l 183 998 l 704 998 l 679 813 l 347 813 l 319 607 l 361 607 q 625 522 535 607 q 715 308 715 437 q 669 137 715 212 q 555 31 624 63 q 327 0 485 0 l 48 0 m 297 437 l 261 181 l 310 181 q 423 183 402 181 q 471 201 444 185 q 511 242 497 216 q 525 305 525 268 q 486 400 525 363 q 336 437 447 437 l 297 437 "},"đ":{"x_min":39,"x_max":997.859375,"ha":917,"o":"m 875 943 l 997 943 l 984 836 l 861 836 l 752 0 l 573 0 l 583 78 q 473 2 524 24 q 358 -19 422 -19 q 125 88 211 -19 q 39 339 39 196 q 93 547 39 449 q 241 701 148 646 q 435 757 333 757 q 560 725 502 757 q 654 634 617 694 l 680 836 l 448 836 l 460 943 l 694 943 l 704 1022 l 885 1022 l 875 943 m 400 142 q 516 171 466 142 q 599 265 565 201 q 633 395 633 329 q 582 536 633 483 q 449 590 532 590 q 286 518 353 590 q 219 334 219 447 q 269 194 219 247 q 400 142 320 142 "},"ċ":{"x_min":41,"x_max":804.5,"ha":889,"o":"m 804 585 l 651 502 q 476 585 586 585 q 345 553 402 585 q 254 462 288 521 q 221 335 221 402 q 274 198 221 250 q 421 147 328 147 q 620 234 550 147 l 762 134 q 612 21 702 62 q 411 -19 522 -19 q 140 75 239 -19 q 41 326 41 170 q 163 631 41 505 q 479 757 286 757 q 804 585 697 757 m 494 1042 q 553 1018 529 1042 q 578 961 578 994 q 545 881 578 914 q 466 848 512 848 q 405 871 428 848 q 382 932 382 894 q 415 1009 382 976 q 494 1042 449 1042 "},"Ā":{"x_min":-16.28125,"x_max":928.40625,"ha":1027,"o":"m 522 997 l 680 997 l 928 0 l 746 0 l 693 212 l 299 212 l 185 0 l -16 0 l 522 997 m 648 388 l 568 715 l 392 388 l 648 388 m 405 1096 l 426 1246 l 812 1246 l 791 1096 l 405 1096 "},"Ẃ":{"x_min":89.515625,"x_max":1285.8125,"ha":1250,"o":"m 89 998 l 260 998 l 317 351 l 623 998 l 764 998 l 882 368 l 1104 998 l 1285 998 l 933 0 l 779 0 l 654 660 l 341 0 l 178 0 l 89 998 m 819 1361 l 1038 1361 l 753 1095 l 620 1095 l 819 1361 "},"ø":{"x_min":30.578125,"x_max":858.203125,"ha":917,"o":"m 747 635 q 827 395 827 533 q 704 102 827 223 q 401 -19 581 -19 q 213 25 289 -19 l 109 -94 l 30 -23 l 133 94 q 55 324 55 191 q 111 541 55 442 q 266 698 167 640 q 474 757 365 757 q 666 706 583 757 l 777 832 l 858 762 l 747 635 m 257 236 l 546 568 q 462 585 509 585 q 293 504 352 585 q 235 333 235 424 q 257 236 235 280 m 625 495 l 334 163 q 413 149 369 149 q 587 225 526 149 q 647 400 647 301 q 625 495 647 455 "},"â":{"x_min":39,"x_max":848.65625,"ha":917,"o":"m 667 738 l 848 738 l 752 0 l 573 0 l 583 79 q 473 2 524 24 q 358 -19 422 -19 q 125 88 211 -19 q 39 339 39 196 q 93 547 39 449 q 241 701 148 646 q 435 757 333 757 q 560 725 502 757 q 654 634 617 694 l 667 738 m 400 142 q 516 171 466 142 q 599 265 565 201 q 633 395 633 329 q 582 536 633 483 q 449 590 532 590 q 286 518 353 590 q 219 334 219 447 q 269 194 219 247 q 400 142 320 142 m 469 1042 l 617 1042 l 793 851 l 590 851 l 530 939 l 441 851 l 238 851 l 469 1042 "},"}":{"x_min":-142.203125,"x_max":425.015625,"ha":472,"o":"m 425 429 l 401 263 q 306 239 340 263 q 249 161 272 216 q 218 20 232 120 q 194 -120 204 -80 q 140 -229 175 -191 q 34 -291 104 -268 q -106 -306 -11 -306 l -142 -306 l -119 -144 q -18 -134 -42 -144 q 16 -105 4 -124 q 39 -4 24 -91 q 79 187 67 152 q 129 278 100 243 q 215 346 158 313 q 125 521 125 403 q 139 696 125 571 q 146 776 146 759 q 112 825 146 809 q 17 835 93 835 l 40 998 l 76 998 q 228 978 180 998 q 300 920 275 959 q 326 822 326 882 q 312 681 326 774 q 299 551 299 598 q 333 455 299 492 q 425 429 357 429 "},"Δ":{"x_min":-14.921875,"x_max":929.09375,"ha":1027,"o":"m 907 0 l -14 0 l 6 159 l 498 997 l 663 997 l 929 159 l 907 0 m 730 174 l 554 744 l 225 174 l 730 174 "},"‰":{"x_min":46.984375,"x_max":1691,"ha":1777,"o":"m 996 1042 l 1132 1042 l 183 -68 l 46 -68 l 858 885 q 765 871 811 876 q 672 867 718 867 q 535 875 608 867 q 544 810 544 837 q 508 679 544 742 q 411 582 472 616 q 279 548 351 548 q 127 606 186 548 q 68 753 68 664 q 167 958 68 875 q 324 1023 243 1023 q 439 1006 353 1023 q 690 978 588 978 q 847 993 770 978 q 996 1042 923 1009 m 322 903 q 228 862 266 903 q 190 763 190 822 q 218 693 190 722 q 288 664 246 664 q 380 704 341 664 q 419 801 419 744 q 392 875 419 847 q 322 903 365 903 m 916 448 q 1064 388 1005 448 q 1123 238 1123 329 q 1087 106 1123 169 q 991 9 1051 44 q 859 -25 930 -25 q 703 37 758 -25 q 648 184 648 99 q 684 312 648 249 q 784 412 721 376 q 916 448 847 448 m 901 331 q 809 291 847 331 q 771 194 771 252 q 799 119 771 147 q 871 91 828 91 q 960 132 922 91 q 999 230 999 174 q 972 303 999 276 q 901 331 945 331 m 1485 448 q 1632 388 1573 448 q 1691 238 1691 329 q 1655 106 1691 169 q 1559 9 1620 44 q 1427 -25 1499 -25 q 1272 37 1328 -25 q 1217 184 1217 99 q 1254 312 1217 249 q 1353 412 1291 376 q 1485 448 1416 448 m 1469 331 q 1377 291 1415 331 q 1340 194 1340 252 q 1368 119 1340 147 q 1440 91 1396 91 q 1528 132 1490 91 q 1567 230 1567 174 q 1540 303 1567 276 q 1469 331 1513 331 "},"Ä":{"x_min":-16.171875,"x_max":928.09375,"ha":1027,"o":"m 522 997 l 679 997 l 928 0 l 746 0 l 693 212 l 299 212 l 185 0 l -16 0 l 522 997 m 648 388 l 568 715 l 392 388 l 648 388 m 479 1265 q 538 1241 514 1265 q 563 1184 563 1217 q 530 1104 563 1137 q 451 1071 497 1071 q 390 1094 413 1071 q 367 1155 367 1117 q 400 1232 367 1199 q 479 1265 434 1265 m 779 1265 q 838 1241 814 1265 q 863 1184 863 1217 q 830 1104 863 1137 q 751 1071 797 1071 q 690 1094 713 1071 q 667 1155 667 1117 q 700 1232 667 1199 q 779 1265 734 1265 "},"ř":{"x_min":-10.84375,"x_max":614.421875,"ha":444,"o":"m 85 738 l 246 738 l 233 637 q 408 757 306 757 q 459 744 432 757 l 394 580 q 364 587 373 587 q 270 525 311 587 q 206 277 229 464 l 170 0 l -10 0 l 85 738 m 383 851 l 235 851 l 59 1042 l 261 1042 l 322 953 l 410 1042 l 614 1042 l 383 851 "},"N":{"x_min":48.15625,"x_max":979.953125,"ha":1027,"o":"m 180 998 l 344 998 l 705 319 l 797 998 l 979 998 l 845 0 l 685 0 l 319 685 l 227 0 l 48 0 l 180 998 "},"—":{"x_min":-8,"x_max":1397,"ha":1389,"o":"m -8 318 l -8 482 l 1397 482 l 1397 318 l -8 318 "},"⁄":{"x_min":-271.953125,"x_max":514.046875,"ha":222,"o":"m -271 -25 l 398 1023 l 514 1023 l -155 -25 l -271 -25 "},"2":{"x_min":19.234375,"x_max":699,"ha":778,"o":"m 285 693 l 106 693 q 146 869 106 793 q 255 984 187 945 q 410 1023 323 1023 q 617 942 535 1023 q 699 742 699 862 q 635 536 699 647 q 322 170 571 426 l 658 170 l 635 0 l 19 0 l 36 130 q 369 480 293 392 q 497 657 472 600 q 517 742 517 701 q 486 820 517 789 q 410 851 455 851 q 331 815 363 851 q 285 693 299 780 "},"М":{"x_min":0.828125,"x_max":1106,"ha":1250,"o":"m 255 998 l 424 998 l 593 302 l 938 998 l 1106 998 l 1106 0 l 934 0 l 934 597 l 634 0 l 491 0 l 339 626 l 179 0 l 0 0 l 255 998 "},"Ó":{"x_min":56,"x_max":1114,"ha":1167,"o":"m 641 1023 q 980 890 846 1023 q 1114 554 1114 758 q 1034 260 1114 398 q 824 48 955 122 q 523 -25 693 -25 q 183 101 310 -25 q 56 433 56 227 q 207 835 56 667 q 641 1023 377 1023 m 634 846 q 438 794 527 846 q 296 644 350 742 q 242 443 242 547 q 317 235 242 320 q 533 150 392 150 q 810 265 696 150 q 925 545 925 380 q 844 763 925 681 q 634 846 764 846 m 749 1360 l 968 1360 l 683 1096 l 550 1096 l 749 1360 "},"ų":{"x_min":76,"x_max":768.140625,"ha":833,"o":"m 132 738 l 311 738 l 262 360 q 254 267 254 298 q 287 185 254 218 q 375 151 321 151 q 483 194 445 151 q 538 368 520 237 l 589 738 l 768 738 l 714 341 q 653 133 696 206 q 539 20 610 59 q 371 -19 467 -19 q 155 59 235 -19 q 76 261 76 137 q 92 457 76 337 l 132 738 m 380 0 l 477 0 q 366 -121 366 -61 q 383 -160 366 -145 q 428 -175 400 -175 q 490 -156 451 -175 l 475 -264 q 386 -275 427 -275 q 274 -243 311 -275 q 238 -163 238 -212 q 273 -74 238 -118 q 380 0 309 -29 "},"Ў":{"x_min":-5.171875,"x_max":972.0625,"ha":928,"o":"m 383 230 l 135 997 l 348 997 l 508 441 l 776 998 l 972 998 l 609 284 q 434 34 511 91 q 253 -23 357 -23 q -5 122 99 -23 l 135 247 q 206 176 175 193 q 278 160 236 160 q 383 230 334 160 m 300 1263 l 450 1263 q 485 1224 462 1236 q 569 1208 519 1208 q 648 1221 615 1208 q 702 1264 682 1235 l 852 1264 q 748 1125 826 1176 q 550 1074 670 1074 q 362 1126 425 1074 q 300 1263 300 1178 "},"Ŭ":{"x_min":85,"x_max":853.046875,"ha":888,"o":"m 175 998 l 362 998 l 279 382 q 269 268 269 301 q 303 180 269 212 q 405 149 338 149 q 498 172 458 149 q 546 231 528 190 q 581 394 564 272 l 664 998 l 853 998 l 771 402 q 705 138 746 218 q 588 16 665 58 q 400 -25 511 -25 q 168 54 251 -25 q 85 271 85 133 q 101 447 85 331 l 175 998 m 280 1285 l 430 1285 q 465 1246 442 1258 q 549 1230 499 1230 q 628 1243 595 1230 q 682 1286 662 1257 l 832 1286 q 728 1147 806 1198 q 530 1096 650 1096 q 342 1148 405 1096 q 280 1285 280 1200 "},"≡":{"x_min":78,"x_max":756,"ha":834,"o":"m 78 873 l 756 873 l 756 703 l 78 703 l 78 873 m 78 583 l 756 583 l 756 413 l 78 413 l 78 583 m 78 293 l 756 293 l 756 123 l 78 123 l 78 293 "},"ĝ":{"x_min":21.328125,"x_max":848.265625,"ha":917,"o":"m 667 738 l 848 738 l 767 147 q 718 -84 743 -27 q 586 -231 679 -173 q 353 -289 493 -289 q 150 -243 236 -289 q 21 -127 64 -198 l 176 -46 q 358 -120 246 -120 q 470 -96 423 -120 q 544 -32 518 -72 q 581 87 570 8 q 358 0 483 0 q 198 43 272 0 q 83 166 125 87 q 41 343 41 246 q 95 548 41 452 q 245 700 150 644 q 442 757 339 757 q 556 732 505 757 q 655 650 606 708 l 667 738 m 452 586 q 286 516 353 586 q 219 346 219 447 q 269 215 219 264 q 403 166 319 166 q 520 196 466 166 q 604 283 573 226 q 636 406 636 340 q 584 534 636 483 q 452 586 532 586 m 439 1042 l 587 1042 l 762 851 l 560 851 l 499 939 l 411 851 l 208 851 l 439 1042 "},"Ω":{"x_min":0.984375,"x_max":1066,"ha":1067,"o":"m 244 142 q 144 248 177 191 q 100 420 100 325 q 181 723 100 575 q 384 945 262 870 q 661 1020 507 1020 q 956 912 847 1020 q 1066 623 1066 804 q 1022 410 1066 508 q 905 240 979 312 q 764 147 859 196 q 964 160 883 147 l 924 0 l 493 0 l 540 147 q 637 179 601 159 q 743 273 699 215 q 836 450 802 349 q 870 648 870 551 q 813 818 870 759 q 654 878 756 878 q 467 807 546 878 q 338 607 388 737 q 289 365 289 476 q 326 214 289 271 q 407 147 352 174 l 360 0 l 0 0 l 47 159 l 78 156 q 244 142 173 142 "},"s":{"x_min":-18.875,"x_max":535.703125,"ha":611,"o":"m 535 635 l 449 496 q 379 569 416 546 q 311 593 343 593 q 269 579 286 593 q 253 548 253 565 q 266 516 253 532 q 344 453 279 500 q 481 325 448 378 q 514 209 514 272 q 446 54 514 127 q 250 -19 379 -19 q 116 10 177 -19 q -18 120 55 40 l 93 250 q 259 150 168 150 q 316 167 295 150 q 338 208 338 184 q 321 247 338 227 q 232 318 305 267 q 116 421 148 378 q 72 547 72 481 q 142 698 72 640 q 307 757 212 757 q 435 725 375 757 q 535 635 495 693 "},"?":{"x_min":58.03125,"x_max":717,"ha":778,"o":"m 234 745 l 58 745 q 115 898 67 830 q 241 1004 162 966 q 420 1042 321 1042 q 634 963 551 1042 q 717 776 717 885 q 552 517 717 637 q 459 441 478 462 q 427 384 440 420 q 409 295 413 349 l 236 295 q 274 490 236 418 q 413 631 313 563 q 516 714 495 685 q 537 774 537 744 q 500 843 537 814 q 402 873 463 873 q 234 745 267 873 m 287 209 q 367 175 334 209 q 401 95 401 142 q 367 14 401 48 q 287 -19 334 -19 q 207 14 240 -19 q 174 95 174 48 q 207 175 174 142 q 287 209 240 209 "},"Ņ":{"x_min":48.125,"x_max":979.640625,"ha":1027,"o":"m 180 998 l 344 998 l 705 319 l 797 998 l 979 998 l 845 0 l 685 0 l 319 685 l 227 0 l 48 0 l 180 998 m 358 -8 q 423 -8 400 -8 q 535 -39 502 -8 q 568 -112 568 -70 q 516 -212 568 -166 q 374 -259 465 -259 q 246 -234 318 -259 l 282 -146 q 356 -157 328 -157 q 434 -102 434 -157 q 384 -70 434 -70 q 332 -73 367 -70 l 358 -8 m 564 -20 l 564 -20 "},"Ī":{"x_min":39.328125,"x_max":486.25,"ha":389,"o":"m 173 998 l 356 998 l 219 0 l 39 0 l 173 998 m 79 1096 l 100 1246 l 486 1246 l 465 1096 l 79 1096 "},"Μ":{"x_min":0.828125,"x_max":1106,"ha":1250,"o":"m 255 998 l 424 998 l 593 302 l 938 998 l 1106 998 l 1106 0 l 934 0 l 934 597 l 634 0 l 491 0 l 339 626 l 179 0 l 0 0 l 255 998 "},"•":{"x_min":208,"x_max":624,"ha":833,"o":"m 416 714 q 563 652 502 714 q 624 505 624 591 q 563 358 624 419 q 416 297 502 297 q 268 358 329 297 q 208 505 208 419 q 268 652 208 591 q 416 714 329 714 "},"н":{"x_min":31.203125,"x_max":767.015625,"ha":833,"o":"m 216 0 l 31 0 l 130 737 l 316 737 l 280 472 l 545 472 l 581 737 l 767 737 l 667 0 l 481 0 l 522 306 l 257 306 l 216 0 "},"(":{"x_min":113,"x_max":651.859375,"ha":528,"o":"m 416 1042 l 651 1042 q 306 194 306 710 q 339 -44 306 61 q 463 -289 373 -149 l 229 -289 q 139 -56 166 -165 q 113 175 113 52 q 147 493 113 334 q 245 781 182 653 q 416 1042 308 909 "},"◊":{"x_min":31.875,"x_max":655.796875,"ha":686,"o":"m 372 965 l 655 481 l 372 0 l 297 0 l 31 481 l 297 965 l 372 965 m 335 899 l 105 481 l 335 63 l 579 481 l 335 899 "},"▬":{"x_min":0,"x_max":1388,"ha":1389,"o":"m 0 477 l 1388 477 l 1388 215 l 0 215 l 0 477 "},"α":{"x_min":39,"x_max":848.65625,"ha":917,"o":"m 667 738 l 848 738 l 752 0 l 573 0 l 583 79 q 473 2 524 24 q 358 -19 422 -19 q 125 88 211 -19 q 39 339 39 196 q 93 547 39 449 q 241 701 148 646 q 435 757 333 757 q 560 725 502 757 q 654 634 617 694 l 667 738 m 400 142 q 516 171 466 142 q 599 265 565 201 q 633 395 633 329 q 582 536 633 483 q 449 590 532 590 q 286 518 353 590 q 219 334 219 447 q 269 194 219 247 q 400 142 320 142 "},"■":{"x_min":99,"x_max":739,"ha":839,"o":"m 99 640 l 739 640 l 739 0 l 99 0 l 99 640 "},"Ħ":{"x_min":46.109375,"x_max":971.8125,"ha":945,"o":"m 351 876 l 693 876 l 710 997 l 898 997 l 882 876 l 971 876 l 956 765 l 866 765 l 762 0 l 575 0 l 637 453 l 293 453 l 232 0 l 46 0 l 149 765 l 59 765 l 74 876 l 164 876 l 180 997 l 368 997 l 351 876 m 337 765 l 318 621 l 659 621 l 678 765 l 337 765 "},"м":{"x_min":-41.375,"x_max":1028.109375,"ha":1118,"o":"m 532 272 l 821 738 l 943 738 l 1028 0 l 847 0 l 807 432 l 528 0 l 453 0 l 296 432 l 139 0 l -41 0 l 242 738 l 364 738 l 532 272 "},"з":{"x_min":-4.96875,"x_max":565,"ha":655,"o":"m 119 681 q 335 757 218 757 q 502 706 439 757 q 565 571 565 656 q 540 478 565 518 q 440 402 516 437 q 550 219 550 334 q 475 49 550 114 q 254 -16 401 -16 q -4 68 82 -16 l 115 197 q 235 149 173 149 q 315 174 284 149 q 347 228 347 199 q 324 284 347 255 q 260 313 301 313 l 212 313 l 230 445 l 266 445 q 342 469 314 445 q 370 527 370 493 q 349 578 370 559 q 295 598 328 598 q 174 553 247 598 l 119 681 "},"Ґ":{"x_min":44.765625,"x_max":694.453125,"ha":640,"o":"m 179 998 l 493 998 l 515 1143 l 694 1143 l 649 812 l 342 812 l 232 0 l 44 0 l 179 998 "},"Û":{"x_min":85,"x_max":853.578125,"ha":889,"o":"m 175 998 l 362 998 l 279 382 q 269 268 269 301 q 303 180 269 212 q 405 149 338 149 q 498 172 458 149 q 546 231 528 190 q 581 394 564 272 l 665 998 l 853 998 l 772 402 q 706 138 747 218 q 588 16 665 58 q 401 -25 511 -25 q 168 54 251 -25 q 85 271 85 133 q 101 447 85 331 l 175 998 m 496 1265 l 644 1265 l 820 1074 l 618 1074 l 557 1162 l 469 1074 l 265 1074 l 496 1265 "},"і":{"x_min":6.953125,"x_max":332,"ha":333,"o":"m 220 1040 q 299 1007 266 1040 q 332 928 332 974 q 299 848 332 881 q 220 816 266 816 q 140 848 173 816 q 108 928 108 881 q 140 1007 108 974 q 220 1040 173 1040 m 107 738 l 286 738 l 187 0 l 6 0 l 107 738 "},"V":{"x_min":71.203125,"x_max":1019.96875,"ha":973,"o":"m 71 998 l 254 998 l 432 277 l 818 998 l 1019 998 l 486 0 l 318 0 l 71 998 "},"Ŗ":{"x_min":57.921875,"x_max":758,"ha":806,"o":"m 190 998 l 365 998 q 592 970 526 998 q 716 874 674 935 q 758 728 758 812 q 696 550 758 624 q 509 447 634 476 l 727 0 l 533 0 l 320 435 l 302 435 l 245 0 l 57 0 l 190 998 m 324 599 q 524 630 478 599 q 571 722 571 661 q 552 782 571 758 q 498 815 533 805 q 355 825 463 825 l 324 599 m 281 -8 q 346 -8 323 -8 q 458 -39 425 -8 q 491 -112 491 -70 q 439 -212 491 -166 q 297 -259 388 -259 q 169 -234 241 -259 l 205 -146 q 279 -157 251 -157 q 357 -102 357 -157 q 307 -70 357 -70 q 255 -73 290 -70 l 281 -8 m 486 -20 l 486 -20 "},"◄":{"x_min":194.96875,"x_max":1179,"ha":1375,"o":"m 1179 961 l 1179 -21 l 194 470 l 1179 961 "},"@":{"x_min":22,"x_max":1039,"ha":1028,"o":"m 849 204 l 979 204 q 847 71 905 112 q 714 5 790 29 q 556 -18 638 -18 q 287 52 411 -18 q 92 245 163 123 q 22 511 22 367 q 92 781 22 656 q 286 975 163 906 q 555 1045 408 1045 q 898 914 758 1045 q 1039 609 1039 783 q 980 389 1039 481 q 820 246 921 297 q 691 207 743 207 q 627 228 651 207 q 609 279 609 243 q 462 214 548 214 q 302 282 366 214 q 238 465 238 351 q 316 689 238 590 q 525 788 395 788 q 621 765 579 788 q 693 698 663 743 l 707 770 l 840 770 l 773 374 q 767 327 767 332 q 774 313 767 319 q 790 307 781 307 q 854 339 814 307 q 920 434 895 372 q 946 570 946 496 q 897 764 946 680 q 759 896 849 848 q 552 945 669 945 q 332 890 429 945 q 178 735 234 835 q 122 515 122 635 q 178 292 122 392 q 338 137 235 193 q 567 82 440 82 q 708 109 642 82 q 849 204 775 137 m 517 357 q 615 405 576 357 q 654 515 654 453 q 622 601 654 567 q 543 635 591 635 q 446 589 487 635 q 405 478 405 543 q 436 390 405 423 q 517 357 467 357 "},"℅":{"x_min":65,"x_max":1212,"ha":1285,"o":"m 517 906 l 402 848 q 319 900 372 900 q 232 859 267 900 q 198 758 198 818 q 221 685 198 714 q 286 657 244 657 q 383 711 348 657 l 491 642 q 279 538 412 538 q 119 600 174 538 q 65 754 65 662 q 137 943 65 865 q 323 1022 209 1022 q 517 906 450 1022 m 252 -25 l 922 1022 l 1037 1022 l 367 -25 l 252 -25 m 1008 473 q 1154 410 1097 473 q 1212 246 1212 347 q 1142 65 1212 142 q 965 -12 1073 -12 q 817 50 869 -12 q 765 204 765 112 q 837 395 765 317 q 1008 473 909 473 m 999 351 q 924 306 951 351 q 898 209 898 262 q 918 135 898 162 q 975 108 939 108 q 1051 150 1024 108 q 1079 250 1079 192 q 1057 322 1079 294 q 999 351 1035 351 "},"i":{"x_min":6.953125,"x_max":332,"ha":333,"o":"m 220 1040 q 299 1007 266 1040 q 332 928 332 974 q 299 848 332 881 q 220 816 266 816 q 140 848 173 816 q 108 928 108 881 q 140 1007 108 974 q 220 1040 173 1040 m 107 738 l 286 738 l 187 0 l 6 0 l 107 738 "},"ќ":{"x_min":31.203125,"x_max":808.375,"ha":802,"o":"m 130 738 l 316 738 l 276 446 l 577 738 l 808 738 l 438 385 l 739 0 l 504 0 l 297 267 l 246 224 l 216 0 l 31 0 l 130 738 m 566 1138 l 786 1138 l 500 873 l 367 873 l 566 1138 "},"≤":{"x_min":42,"x_max":719,"ha":762,"o":"m 719 385 l 719 215 l 42 561 l 42 711 l 719 1055 l 719 886 l 236 635 l 719 385 m 42 140 l 719 140 l 719 -30 l 42 -30 l 42 140 "},"ё":{"x_min":41,"x_max":816.078125,"ha":889,"o":"m 583 216 l 743 134 q 601 22 689 63 q 404 -19 512 -19 q 138 75 235 -19 q 41 328 41 170 q 162 632 41 508 q 456 757 284 757 q 641 711 560 757 q 769 579 722 666 q 816 390 816 492 q 809 316 816 358 l 222 316 q 270 194 222 239 q 402 149 318 149 q 583 216 504 149 m 629 449 q 562 551 609 516 q 447 587 514 587 q 327 550 380 587 q 245 449 273 514 l 629 449 m 344 1042 q 403 1018 379 1042 q 428 961 428 994 q 395 881 428 914 q 316 848 362 848 q 255 871 278 848 q 232 932 232 894 q 265 1009 232 976 q 344 1042 299 1042 m 645 1042 q 704 1018 680 1042 q 729 961 729 994 q 696 881 729 914 q 617 848 663 848 q 556 871 579 848 q 533 932 533 894 q 566 1009 533 976 q 645 1042 600 1042 "},"υ":{"x_min":49,"x_max":756.03125,"ha":833,"o":"m 103 738 l 283 738 l 235 377 q 229 295 229 328 q 371 153 229 153 q 520 221 464 153 q 577 391 577 290 q 425 611 577 514 l 541 759 q 756 401 756 631 q 642 99 756 218 q 348 -19 528 -19 q 49 280 49 -19 q 57 387 49 329 l 103 738 "},"ĕ":{"x_min":41,"x_max":816.078125,"ha":889,"o":"m 583 216 l 742 134 q 600 22 689 63 q 404 -19 512 -19 q 138 75 235 -19 q 41 328 41 170 q 162 632 41 508 q 456 757 284 757 q 641 711 560 757 q 769 579 722 666 q 816 390 816 492 q 809 316 816 358 l 222 316 q 269 194 222 239 q 402 149 317 149 q 583 216 504 149 m 629 449 q 561 551 609 516 q 447 587 514 587 q 327 550 380 587 q 245 449 273 514 l 629 449 m 228 1062 l 378 1062 q 413 1023 390 1035 q 497 1007 447 1007 q 576 1020 543 1007 q 630 1062 610 1034 l 780 1062 q 676 924 754 975 q 478 873 599 873 q 290 925 353 873 q 228 1062 228 977 "},"ż":{"x_min":-48.234375,"x_max":643.5,"ha":639,"o":"m 58 738 l 643 738 l 265 167 l 611 167 l 588 0 l -48 0 l 328 569 l 37 569 l 58 738 m 333 1042 q 392 1018 368 1042 q 417 961 417 994 q 384 881 417 914 q 305 848 351 848 q 244 871 267 848 q 221 932 221 894 q 254 1009 221 976 q 333 1042 288 1042 "},"Э":{"x_min":-8.203125,"x_max":1004,"ha":1052,"o":"m 408 404 l 431 577 l 809 577 q 727 766 809 694 q 522 838 646 838 q 191 694 343 838 l 76 821 q 293 970 169 917 q 538 1023 417 1023 q 865 904 726 1023 q 1004 579 1004 785 q 837 146 1004 318 q 419 -26 671 -26 q 210 5 315 -26 q -8 165 105 36 l 138 300 q 421 157 256 157 q 641 217 541 157 q 786 404 741 278 l 408 404 m 815 511 l 815 511 "},"ő":{"x_min":41,"x_max":964.609375,"ha":889,"o":"m 463 757 q 642 711 561 757 q 767 582 722 666 q 812 395 812 499 q 689 102 812 223 q 385 -19 566 -19 q 134 76 228 -19 q 41 325 41 171 q 167 634 41 511 q 463 757 294 757 m 450 585 q 280 505 339 585 q 221 332 221 425 q 269 199 221 250 q 398 149 317 149 q 573 226 513 149 q 633 402 633 303 q 582 534 633 483 q 450 585 531 585 m 443 1139 l 662 1139 l 376 873 l 244 873 l 443 1139 m 745 1139 l 964 1139 l 679 873 l 546 873 l 745 1139 "},"Ŏ":{"x_min":56,"x_max":1114,"ha":1167,"o":"m 641 1023 q 980 890 846 1023 q 1114 554 1114 758 q 1034 260 1114 398 q 824 48 955 122 q 523 -25 693 -25 q 183 101 310 -25 q 56 433 56 227 q 207 835 56 667 q 641 1023 377 1023 m 634 846 q 438 794 527 846 q 296 644 350 742 q 242 443 242 547 q 317 235 242 320 q 533 150 392 150 q 810 265 696 150 q 925 545 925 380 q 844 763 925 681 q 634 846 764 846 m 396 1285 l 546 1285 q 581 1246 558 1258 q 665 1230 615 1230 q 744 1243 711 1230 q 798 1286 778 1257 l 948 1286 q 844 1147 922 1198 q 646 1096 767 1096 q 458 1148 521 1096 q 396 1285 396 1200 "},"ю":{"x_min":31.375,"x_max":1135,"ha":1208,"o":"m 217 0 l 31 0 l 131 738 l 316 738 l 276 446 l 375 446 q 545 678 427 600 q 795 757 662 757 q 1032 672 930 757 q 1135 428 1135 588 q 1008 109 1135 237 q 685 -19 882 -19 q 455 59 547 -19 q 363 276 363 137 l 253 276 l 217 0 m 947 405 q 900 532 947 482 q 771 583 854 583 q 608 506 676 583 q 540 335 540 430 q 587 202 540 251 q 713 154 634 154 q 878 226 810 154 q 947 405 947 299 "},"İ":{"x_min":38.828125,"x_max":382,"ha":388,"o":"m 173 998 l 356 998 l 218 0 l 38 0 l 173 998 m 298 1243 q 357 1219 333 1243 q 382 1162 382 1195 q 349 1082 382 1115 q 270 1049 316 1049 q 209 1072 232 1049 q 186 1133 186 1095 q 219 1210 186 1177 q 298 1243 253 1243 "},"Ě":{"x_min":35.265625,"x_max":749.375,"ha":722,"o":"m 166 998 l 708 998 l 684 821 l 332 821 l 303 615 l 657 615 l 635 439 l 281 439 l 246 174 l 602 174 l 578 0 l 35 0 l 166 998 m 518 1074 l 370 1074 l 194 1265 l 396 1265 l 457 1176 l 545 1265 l 749 1265 l 518 1074 "},"‹":{"x_min":-6.109375,"x_max":344.515625,"ha":333,"o":"m 172 738 l 344 738 l 166 364 l 239 0 l 66 0 l -6 364 l 172 738 "},"ķ":{"x_min":30.828125,"x_max":811.796875,"ha":805,"o":"m 166 1023 l 344 1023 l 272 480 l 563 738 l 811 738 l 438 409 l 765 0 l 547 0 l 256 363 l 208 0 l 30 0 l 166 1023 m 260 -8 q 325 -8 302 -8 q 437 -39 404 -8 q 470 -112 470 -70 q 418 -212 470 -166 q 276 -259 367 -259 q 148 -234 220 -259 l 184 -146 q 258 -157 230 -157 q 336 -102 336 -157 q 286 -70 336 -70 q 234 -73 269 -70 l 260 -8 m 466 -20 l 466 -20 "},"↔":{"x_min":54,"x_max":1335,"ha":1389,"o":"m 1335 365 l 1335 335 q 1059 107 1212 282 l 1005 107 q 1136 318 1052 223 l 252 318 q 383 107 336 223 l 329 107 q 54 335 177 282 l 54 365 q 329 594 177 419 l 383 594 q 252 384 336 478 l 1136 384 q 1005 594 1052 478 l 1059 594 q 1335 365 1212 419 "},"ì":{"x_min":6.78125,"x_max":362.828125,"ha":333,"o":"m 107 738 l 286 738 l 187 0 l 6 0 l 107 738 m 21 1138 l 239 1138 l 362 872 l 230 872 l 21 1138 "},"±":{"x_min":42,"x_max":719,"ha":762,"o":"m 296 732 l 296 986 l 466 986 l 466 732 l 719 732 l 719 562 l 466 562 l 466 308 l 296 308 l 296 562 l 42 562 l 42 732 l 296 732 m 42 170 l 719 170 l 719 0 l 42 0 l 42 170 "},"|":{"x_min":363,"x_max":470,"ha":833,"o":"m 363 1023 l 470 1023 l 470 -270 l 363 -270 l 363 1023 "},"§":{"x_min":39.6875,"x_max":711,"ha":778,"o":"m 711 780 l 529 780 q 503 847 529 824 q 434 871 477 871 q 371 850 395 871 q 347 801 347 829 q 367 752 347 777 q 472 665 386 727 q 615 549 579 587 q 668 469 651 510 q 685 381 685 428 q 637 242 685 303 q 500 153 589 181 q 574 69 550 116 q 599 -34 599 22 q 510 -216 599 -144 q 300 -289 422 -289 q 165 -258 223 -289 q 73 -170 106 -227 q 39 -49 39 -114 l 39 -34 l 216 -34 q 247 -95 220 -72 q 316 -119 273 -119 q 386 -98 361 -119 q 412 -46 412 -77 q 406 -21 412 -33 q 391 1 401 -9 q 213 147 353 44 q 89 266 120 214 q 59 379 59 318 q 105 521 59 454 q 232 623 152 589 q 176 697 195 657 q 158 784 158 738 q 241 965 158 888 q 452 1042 324 1042 q 639 968 568 1042 q 711 780 711 895 m 330 542 q 248 492 277 527 q 220 418 220 458 q 232 372 220 392 q 298 311 244 353 l 407 227 q 491 273 463 244 q 520 342 520 302 q 501 400 520 372 q 418 476 482 428 l 330 542 "},"џ":{"x_min":31.203125,"x_max":767.015625,"ha":833,"o":"m 448 0 l 431 -129 l 257 -129 l 273 0 l 31 0 l 130 738 l 316 738 l 240 178 l 505 178 l 581 738 l 767 738 l 667 0 l 448 0 "},"љ":{"x_min":-57.40625,"x_max":1014,"ha":1092,"o":"m 502 0 l 380 465 l 130 0 l -57 0 l 356 738 l 476 738 l 552 472 l 685 472 q 939 412 864 472 q 1014 241 1014 352 q 954 70 1014 141 q 751 0 894 0 l 502 0 m 597 321 l 645 142 l 677 142 q 788 175 765 142 q 812 243 812 209 q 714 321 812 321 l 597 321 "},"q":{"x_min":39,"x_max":848.65625,"ha":917,"o":"m 667 738 l 848 738 l 717 -270 l 538 -270 l 583 79 q 473 2 524 24 q 358 -19 422 -19 q 125 88 211 -19 q 39 339 39 196 q 93 547 39 449 q 241 701 148 646 q 435 757 333 757 q 560 725 502 757 q 654 634 617 694 l 667 738 m 400 142 q 516 171 466 142 q 599 265 565 201 q 633 395 633 329 q 582 536 633 483 q 449 590 532 590 q 286 518 353 590 q 219 334 219 447 q 269 194 219 247 q 400 142 320 142 "},"ή":{"x_min":31.46875,"x_max":734,"ha":834,"o":"m 634 -270 l 451 -270 l 541 403 q 550 497 550 464 q 452 590 550 590 q 359 557 404 590 q 289 468 313 524 q 246 261 266 412 l 211 0 l 31 0 l 131 738 l 311 738 l 300 663 q 516 757 404 757 q 672 697 611 757 q 734 543 734 637 q 722 413 734 503 l 634 -270 m 591 1112 l 527 853 l 397 853 l 397 1112 l 591 1112 "},"Ж":{"x_min":-50.859375,"x_max":1308.1875,"ha":1292,"o":"m 541 424 l 511 461 l 175 0 l -50 0 l 399 579 l 128 998 l 350 998 l 567 628 l 617 998 l 810 998 l 760 628 l 1065 998 l 1308 998 l 901 554 l 1191 0 l 982 0 l 763 455 l 733 427 l 675 0 l 482 0 l 541 424 "},"®":{"x_min":-5,"x_max":1034,"ha":1028,"o":"m 1034 512 q 964 253 1034 373 q 774 64 894 133 q 514 -5 654 -5 q 254 64 375 -5 q 64 253 134 133 q -5 513 -5 373 q 64 772 -5 652 q 254 961 134 892 q 514 1031 374 1031 q 774 961 654 1031 q 964 772 894 892 q 1034 512 1034 652 m 927 510 q 806 803 927 683 q 515 924 686 924 q 223 803 344 924 q 102 514 102 683 q 156 310 102 404 q 307 160 211 215 q 514 106 403 106 q 720 160 624 106 q 872 309 817 215 q 927 510 927 403 m 299 796 l 550 796 q 667 778 629 796 q 727 722 704 760 q 750 631 750 684 q 736 557 750 585 q 683 500 722 528 q 728 461 715 483 q 742 383 742 439 q 748 260 742 277 q 773 226 754 242 l 631 226 q 618 265 621 249 q 616 319 616 281 q 609 412 616 394 q 588 439 603 430 q 526 448 572 448 l 424 448 l 424 227 l 299 227 l 299 796 m 424 687 l 424 552 l 528 552 q 608 568 588 552 q 628 620 628 584 q 608 671 628 656 q 529 687 589 687 l 424 687 "},"Н":{"x_min":46.109375,"x_max":898.578125,"ha":945,"o":"m 180 997 l 368 997 l 318 621 l 659 621 l 710 997 l 898 997 l 762 0 l 575 0 l 637 453 l 293 453 l 232 0 l 46 0 l 180 997 "},"Ε":{"x_min":35.265625,"x_max":708.015625,"ha":722,"o":"m 166 998 l 708 998 l 684 821 l 332 821 l 303 615 l 657 615 l 635 439 l 281 439 l 246 174 l 602 174 l 578 0 l 35 0 l 166 998 "},"₧":{"x_min":47.953125,"x_max":1541.703125,"ha":1617,"o":"m 747 738 l 818 738 l 856 1012 l 1035 1012 l 998 738 l 1214 738 q 1313 757 1267 757 q 1541 635 1457 757 l 1455 496 q 1317 593 1391 593 q 1276 580 1294 593 q 1259 548 1259 567 q 1273 514 1259 531 q 1349 453 1288 497 q 1487 325 1454 378 q 1520 209 1520 272 q 1448 51 1520 122 q 1256 -19 1376 -19 q 1116 13 1176 -19 q 987 120 1055 46 l 1098 250 q 1265 150 1174 150 q 1320 166 1298 150 q 1343 208 1343 183 q 1323 251 1343 230 q 1238 318 1304 272 q 1116 429 1154 378 q 1078 547 1078 480 q 1080 582 1078 563 l 977 582 l 898 0 l 717 0 l 797 582 l 710 582 q 583 463 667 504 q 292 422 500 422 l 235 0 l 47 0 l 182 998 l 358 998 q 566 977 495 998 q 692 894 637 956 q 747 738 747 832 m 315 598 q 524 635 486 598 q 562 723 562 672 q 553 764 562 745 q 529 795 545 782 q 487 815 513 808 q 420 823 460 823 q 347 823 379 823 l 315 598 "},"л":{"x_min":-56.96875,"x_max":691.734375,"ha":761,"o":"m 691 0 l 497 0 l 379 451 l 136 0 l -56 0 l 357 738 l 476 738 l 691 0 "},"σ":{"x_min":41,"x_max":982.921875,"ha":995,"o":"m 582 738 l 982 738 l 960 568 l 767 568 q 812 388 812 493 q 691 94 812 208 q 385 -19 570 -19 q 134 74 228 -19 q 41 325 41 168 q 163 631 41 505 q 463 757 285 757 q 582 738 526 757 m 221 332 q 269 199 221 249 q 398 149 317 149 q 567 219 501 149 q 633 402 633 288 q 582 534 633 483 q 450 585 532 585 q 285 512 349 585 q 221 332 221 439 "},"θ":{"x_min":51,"x_max":855,"ha":909,"o":"m 379 -19 q 129 98 208 -19 q 51 393 51 215 q 175 850 51 658 q 521 1042 299 1042 q 768 932 682 1042 q 855 628 855 822 q 736 173 855 366 q 379 -19 618 -19 m 249 597 l 680 597 q 630 819 680 764 q 499 874 580 874 q 249 597 316 874 m 656 424 l 227 424 q 274 207 227 265 q 403 149 321 149 q 656 424 588 149 "}," ":{"x_min":0,"x_max":0,"ha":389},"∑":{"x_min":83,"x_max":940,"ha":990,"o":"m 94 1023 l 933 1023 l 933 912 l 262 912 l 674 386 l 234 -161 l 940 -161 l 940 -270 l 83 -270 l 83 -143 l 502 380 l 94 904 l 94 1023 "},"Ώ":{"x_min":-0.203125,"x_max":1159,"ha":1238,"o":"m 864 174 l 1124 174 l 1100 0 l 637 0 l 665 212 q 975 607 975 353 q 898 781 975 716 q 690 847 822 847 q 430 751 534 847 q 327 507 327 656 q 531 212 327 328 l 503 0 l 48 0 l 72 174 l 331 174 q 145 520 145 305 q 307 881 145 740 q 703 1022 470 1022 q 1034 908 909 1022 q 1159 619 1159 794 q 864 174 1159 344 m 194 1023 l 130 764 l 0 764 l 0 1023 l 194 1023 "},"+":{"x_min":78,"x_max":756,"ha":834,"o":"m 332 583 l 332 838 l 502 838 l 502 583 l 756 583 l 756 413 l 502 413 l 502 160 l 332 160 l 332 413 l 78 413 l 78 583 l 332 583 "},"ẃ":{"x_min":35.265625,"x_max":1106.765625,"ha":1111,"o":"m 35 738 l 209 738 l 311 342 l 526 738 l 597 738 l 700 342 l 914 738 l 1106 738 l 705 0 l 618 0 l 518 390 l 307 0 l 221 0 l 35 738 m 696 1138 l 915 1138 l 630 872 l 497 872 l 696 1138 "},"Ë":{"x_min":35.375,"x_max":707.703125,"ha":722,"o":"m 166 998 l 707 998 l 684 821 l 332 821 l 303 615 l 657 615 l 635 439 l 281 439 l 246 174 l 601 174 l 578 0 l 35 0 l 166 998 m 302 1265 q 361 1241 337 1265 q 386 1184 386 1217 q 353 1104 386 1137 q 274 1071 320 1071 q 213 1094 236 1071 q 190 1155 190 1117 q 223 1232 190 1199 q 302 1265 257 1265 m 602 1265 q 661 1241 637 1265 q 686 1184 686 1217 q 653 1104 686 1137 q 574 1071 620 1071 q 513 1094 536 1071 q 490 1155 490 1117 q 523 1232 490 1199 q 602 1265 557 1265 "},"Š":{"x_min":-10.34375,"x_max":749.421875,"ha":722,"o":"m 689 859 l 553 738 q 396 847 468 847 q 336 825 360 847 q 313 774 313 804 q 334 712 313 746 q 466 562 356 678 q 543 475 524 500 q 606 363 587 415 q 626 257 626 311 q 540 56 626 137 q 321 -25 455 -25 q -10 168 117 -25 l 133 284 q 321 152 220 152 q 402 183 369 152 q 435 258 435 214 q 415 329 435 293 q 300 464 395 365 q 170 623 201 570 q 128 766 128 696 q 188 931 128 858 q 393 1023 264 1023 q 689 859 570 1023 m 517 1074 l 369 1074 l 194 1265 l 396 1265 l 457 1176 l 545 1265 l 749 1265 l 517 1074 "},"ð":{"x_min":39,"x_max":815,"ha":888,"o":"m 669 1023 l 705 923 l 605 892 q 759 661 703 790 q 815 414 815 532 q 694 104 815 228 q 396 -19 573 -19 q 139 82 239 -19 q 39 337 39 183 q 156 625 39 503 q 428 748 273 748 q 531 732 474 748 q 458 846 500 792 l 325 807 l 288 905 l 386 935 q 302 1023 346 979 l 465 1023 q 519 977 493 1001 l 669 1023 m 451 585 q 285 513 352 585 q 218 335 218 442 q 268 201 218 253 q 400 149 319 149 q 569 224 504 149 q 634 403 634 299 q 582 533 634 481 q 451 585 530 585 "},"щ":{"x_min":30.515625,"x_max":1296.65625,"ha":1328,"o":"m 1118 177 l 1296 177 l 1255 -130 l 1078 -130 l 1095 0 l 30 0 l 130 737 l 316 737 l 240 177 l 494 177 l 569 737 l 755 737 l 679 177 l 933 177 l 1009 737 l 1194 737 l 1118 177 m 1262 0 l 1262 0 "},"℮":{"x_min":52,"x_max":766,"ha":834,"o":"m 209 360 l 209 108 q 411 27 290 27 q 678 193 583 27 l 727 164 q 570 12 647 48 q 411 -23 493 -23 q 152 84 253 -23 q 52 360 52 192 q 153 637 52 531 q 412 744 255 744 q 662 647 558 744 q 766 360 766 550 l 209 360 m 613 410 l 613 611 q 409 694 528 694 q 209 611 291 694 l 209 410 l 613 410 "},"Φ":{"x_min":49,"x_max":1144,"ha":1194,"o":"m 631 106 l 618 0 l 432 0 l 446 100 q 154 212 260 118 q 49 459 49 306 q 189 779 49 657 q 555 902 329 902 l 568 998 l 754 998 l 741 903 q 1026 817 909 903 q 1144 557 1144 731 q 1006 228 1144 350 q 631 106 868 106 m 533 739 q 313 663 396 739 q 231 462 231 587 q 469 268 231 292 l 533 739 m 719 742 l 655 277 q 959 543 959 277 q 719 742 959 718 "},"ş":{"x_min":-18.875,"x_max":535.703125,"ha":611,"o":"m 535 635 l 449 496 q 379 569 416 546 q 311 593 343 593 q 269 579 286 593 q 253 548 253 565 q 266 516 253 532 q 344 453 279 500 q 481 325 448 378 q 514 209 514 272 q 446 54 514 127 q 250 -19 379 -19 q 116 10 177 -19 q -18 120 55 40 l 93 250 q 259 150 168 150 q 316 167 295 150 q 338 208 338 184 q 321 247 338 227 q 232 319 305 267 q 116 421 148 378 q 72 547 72 481 q 142 698 72 640 q 307 757 212 757 q 435 725 375 757 q 535 635 495 693 m 183 10 l 298 10 l 286 -20 q 348 -55 327 -31 q 369 -111 369 -80 q 316 -214 369 -169 q 176 -259 263 -259 q 29 -227 103 -259 l 66 -139 q 160 -156 114 -156 q 216 -140 196 -156 q 236 -102 236 -125 q 224 -77 236 -86 q 182 -69 213 -69 l 147 -69 l 183 10 "},"ı":{"x_min":6.78125,"x_max":286.1875,"ha":333,"o":"m 107 738 l 286 738 l 187 0 l 6 0 l 107 738 "},"ä":{"x_min":39,"x_max":848.796875,"ha":917,"o":"m 667 738 l 848 738 l 752 0 l 573 0 l 583 79 q 473 2 524 24 q 358 -19 422 -19 q 125 88 212 -19 q 39 339 39 196 q 93 547 39 449 q 241 701 148 646 q 435 757 333 757 q 560 725 502 757 q 654 634 617 694 l 667 738 m 400 142 q 516 171 466 142 q 599 265 565 201 q 633 395 633 329 q 582 536 633 483 q 449 590 532 590 q 286 518 353 590 q 219 334 219 447 q 269 194 219 247 q 400 142 320 142 m 359 1042 q 418 1018 394 1042 q 443 961 443 994 q 410 881 443 914 q 331 848 377 848 q 270 871 293 848 q 247 932 247 894 q 280 1009 247 976 q 359 1042 314 1042 m 659 1042 q 718 1018 694 1042 q 743 961 743 994 q 710 881 743 914 q 631 848 677 848 q 570 871 593 848 q 547 932 547 894 q 580 1009 547 976 q 659 1042 614 1042 "},"¹":{"x_min":153.9375,"x_max":385.875,"ha":467,"o":"m 196 1010 l 385 1010 l 303 497 l 179 497 l 244 906 l 153 906 l 196 1010 "},"W":{"x_min":89.515625,"x_max":1285.8125,"ha":1250,"o":"m 89 998 l 260 998 l 317 351 l 623 998 l 764 998 l 882 368 l 1104 998 l 1285 998 l 933 0 l 779 0 l 654 660 l 341 0 l 178 0 l 89 998 "},"λ":{"x_min":-57.640625,"x_max":724.96875,"ha":806,"o":"m 724 0 l 537 0 l 391 457 l 145 0 l -57 0 l 316 687 l 204 1023 l 391 1023 l 724 0 "},">":{"x_min":78,"x_max":756,"ha":834,"o":"m 78 749 l 78 918 l 756 573 l 756 423 l 78 78 l 78 248 l 561 498 l 78 749 "},"τ":{"x_min":46.796875,"x_max":565.59375,"ha":578,"o":"m 543 568 l 385 568 l 309 0 l 129 0 l 204 568 l 46 568 l 69 738 l 565 738 l 543 568 "},"Ų":{"x_min":85,"x_max":853.328125,"ha":889,"o":"m 175 997 l 362 997 l 279 381 q 269 267 269 301 q 303 180 269 211 q 405 148 338 148 q 498 172 458 148 q 546 230 528 189 q 581 394 564 272 l 664 998 l 853 998 l 771 402 q 706 138 746 218 q 588 16 665 58 q 401 -25 511 -25 q 168 54 251 -25 q 85 271 85 133 q 101 447 85 331 l 175 997 m 396 0 l 493 0 q 382 -121 382 -60 q 399 -160 382 -145 q 444 -175 416 -175 q 506 -156 467 -175 l 491 -264 q 402 -275 443 -275 q 290 -243 327 -275 q 254 -163 254 -212 q 289 -74 254 -118 q 396 0 325 -29 "},"Ŵ":{"x_min":89.515625,"x_max":1285.8125,"ha":1250,"o":"m 89 998 l 260 998 l 317 351 l 623 998 l 764 998 l 882 368 l 1104 998 l 1285 998 l 933 0 l 779 0 l 654 660 l 341 0 l 178 0 l 89 998 m 655 1265 l 802 1265 l 978 1074 l 776 1074 l 715 1162 l 627 1074 l 423 1074 l 655 1265 "},"Ð":{"x_min":70.390625,"x_max":966,"ha":1030,"o":"m 155 441 l 70 441 l 85 554 l 170 554 l 230 998 l 388 998 q 720 945 612 998 q 897 780 829 892 q 966 520 966 667 q 893 242 966 369 q 711 58 821 116 q 405 0 601 0 l 96 0 l 155 441 m 344 441 l 308 174 l 370 174 q 576 197 513 174 q 720 313 666 231 q 775 516 775 395 q 736 682 775 615 q 628 785 697 749 q 442 822 558 822 l 394 822 l 359 554 l 577 554 l 563 441 l 344 441 "},"Λ":{"x_min":-63.0625,"x_max":885.6875,"ha":973,"o":"m 885 0 l 702 0 l 524 720 l 138 0 l -63 0 l 470 998 l 638 998 l 885 0 "},"‛":{"x_min":156,"x_max":345.578125,"ha":388,"o":"m 345 1023 l 318 829 l 252 829 q 290 694 252 769 l 217 643 q 167 751 178 710 q 156 850 156 791 q 163 938 156 890 l 176 1023 l 345 1023 "},"·":{"x_min":102,"x_max":330,"ha":388,"o":"m 330 643 q 296 562 330 595 q 216 530 263 530 q 135 562 168 530 q 102 643 102 595 q 134 724 102 691 q 216 757 167 757 q 296 724 263 757 q 330 643 330 691 "},"Х":{"x_min":10.84375,"x_max":937.234375,"ha":945,"o":"m 169 998 l 362 998 l 502 689 l 720 998 l 937 998 l 585 504 l 815 0 l 621 0 l 469 338 l 229 0 l 10 0 l 385 523 l 169 998 "},"Υ":{"x_min":67.140625,"x_max":910.78125,"ha":861,"o":"m 67 998 l 256 998 l 412 598 l 695 998 l 910 998 l 484 398 l 431 0 l 244 0 l 299 398 l 67 998 "},"r":{"x_min":-10.84375,"x_max":459.125,"ha":444,"o":"m 85 738 l 246 738 l 233 637 q 408 757 306 757 q 459 744 432 757 l 394 580 q 364 587 373 587 q 270 525 311 587 q 206 277 229 464 l 170 0 l -10 0 l 85 738 "},"ж":{"x_min":-82.0625,"x_max":1190.1875,"ha":1161,"o":"m 463 252 l 435 288 l 167 0 l -82 0 l 338 405 l 71 738 l 278 738 l 489 452 l 528 738 l 713 738 l 674 452 l 963 738 l 1190 738 l 815 392 l 1110 0 l 882 0 l 691 293 l 648 252 l 613 0 l 428 0 l 463 252 "},"Ø":{"x_min":56,"x_max":1114,"ha":1167,"o":"m 998 871 q 1114 555 1114 738 q 1035 261 1114 399 q 825 49 956 123 q 524 -25 693 -25 q 265 36 372 -25 l 174 -67 l 91 0 l 181 102 q 56 433 56 231 q 133 732 56 595 q 343 945 210 868 q 634 1023 476 1023 q 915 943 800 1023 l 1002 1043 l 1084 972 l 998 871 m 307 247 l 794 804 q 630 846 723 846 q 438 793 526 846 q 295 644 349 741 q 242 443 242 546 q 307 247 242 329 m 872 730 l 391 180 q 535 150 452 150 q 811 265 697 150 q 925 544 925 381 q 872 730 925 651 "},"÷":{"x_min":42,"x_max":719,"ha":762,"o":"m 272 899 l 490 899 l 490 681 l 272 681 l 272 899 m 42 583 l 719 583 l 719 413 l 42 413 l 42 583 m 272 316 l 490 316 l 490 98 l 272 98 l 272 316 "},"с":{"x_min":41,"x_max":804.90625,"ha":889,"o":"m 804 585 l 651 502 q 476 585 586 585 q 345 553 402 585 q 254 462 288 521 q 221 335 221 402 q 274 198 221 250 q 421 147 328 147 q 620 234 551 147 l 762 134 q 612 21 702 62 q 412 -19 522 -19 q 140 75 239 -19 q 41 326 41 170 q 163 631 41 505 q 479 757 286 757 q 804 585 697 757 "},"Ỳ":{"x_min":44.765625,"x_max":888.40625,"ha":861,"o":"m 44 998 l 233 998 l 389 598 l 673 998 l 888 998 l 462 398 l 408 0 l 221 0 l 276 398 l 44 998 m 226 1361 l 444 1361 l 568 1095 l 436 1095 l 226 1361 "},"h":{"x_min":30.890625,"x_max":733,"ha":833,"o":"m 169 1023 l 348 1023 l 300 663 q 515 757 403 757 q 672 696 611 757 q 733 543 733 635 q 721 413 733 499 l 666 0 l 487 0 l 540 403 q 549 497 549 465 q 523 565 549 541 q 451 590 498 590 q 360 558 405 590 q 290 470 315 526 q 245 261 266 415 l 211 0 l 30 0 l 169 1023 "},"f":{"x_min":16.28125,"x_max":463.1875,"ha":389,"o":"m 37 738 l 116 738 q 159 935 135 882 q 222 1015 182 988 q 321 1042 262 1042 q 463 997 398 1042 l 442 849 q 367 883 405 883 q 325 862 339 883 q 297 738 312 841 l 410 738 l 390 582 l 278 582 l 196 0 l 16 0 l 95 582 l 18 582 l 37 738 "},"“":{"x_min":151.234375,"x_max":636.125,"ha":667,"o":"m 596 644 l 427 644 l 438 728 q 477 878 450 818 q 577 1023 505 939 l 636 972 q 557 838 578 897 l 625 838 l 596 644 m 321 644 l 151 644 l 162 728 q 201 878 174 818 q 301 1023 229 939 l 360 972 q 281 838 302 897 l 349 838 l 321 644 "},"A":{"x_min":-16.28125,"x_max":928.40625,"ha":1027,"o":"m 522 997 l 680 997 l 928 0 l 746 0 l 693 212 l 299 212 l 185 0 l -16 0 l 522 997 m 648 388 l 568 715 l 392 388 l 648 388 "},"O":{"x_min":56,"x_max":1114,"ha":1167,"o":"m 641 1023 q 980 890 846 1023 q 1114 554 1114 758 q 1034 260 1114 398 q 824 48 955 122 q 523 -25 693 -25 q 183 101 310 -25 q 56 433 56 227 q 207 835 56 667 q 641 1023 377 1023 m 634 846 q 438 794 527 846 q 296 644 350 742 q 242 443 242 547 q 317 235 242 320 q 533 150 392 150 q 810 265 696 150 q 925 545 925 380 q 844 763 925 681 q 634 846 764 846 "},"Đ":{"x_min":70.390625,"x_max":966,"ha":1030,"o":"m 155 441 l 70 441 l 85 554 l 170 554 l 230 998 l 388 998 q 720 945 612 998 q 897 780 829 892 q 966 520 966 667 q 893 242 966 369 q 711 58 821 116 q 405 0 601 0 l 96 0 l 155 441 m 344 441 l 308 174 l 370 174 q 576 197 513 174 q 720 313 666 231 q 775 516 775 395 q 736 682 775 615 q 628 785 697 749 q 442 822 558 822 l 394 822 l 359 554 l 577 554 l 563 441 l 344 441 "},"3":{"x_min":38.84375,"x_max":701,"ha":778,"o":"m 321 757 l 149 757 q 244 951 164 879 q 442 1023 325 1023 q 572 990 514 1023 q 666 896 631 957 q 701 772 701 836 q 662 645 701 707 q 546 536 624 583 q 682 305 682 453 q 582 72 682 169 q 339 -25 482 -25 q 123 65 209 -25 q 38 304 38 155 l 215 304 q 251 193 222 228 q 354 147 290 147 q 460 197 421 147 q 500 317 500 248 q 478 392 500 357 q 422 444 457 426 q 315 463 387 463 l 337 621 q 469 660 424 621 q 514 758 514 699 q 488 825 514 799 q 424 851 463 851 q 357 826 385 851 q 321 757 329 801 "},"Ǿ":{"x_min":56,"x_max":1114,"ha":1167,"o":"m 998 871 q 1114 555 1114 738 q 1035 261 1114 399 q 825 49 956 123 q 524 -25 693 -25 q 265 36 372 -25 l 174 -67 l 91 0 l 181 102 q 56 433 56 231 q 133 732 56 595 q 343 945 210 868 q 634 1023 476 1023 q 915 943 800 1023 l 1002 1043 l 1084 972 l 998 871 m 307 247 l 794 804 q 630 846 723 846 q 438 793 526 846 q 295 644 349 741 q 242 443 242 546 q 307 247 242 329 m 872 730 l 391 180 q 535 150 452 150 q 811 265 697 150 q 925 544 925 381 q 872 730 925 651 m 750 1361 l 969 1361 l 684 1096 l 551 1096 l 750 1361 "},"⅛":{"x_min":164.015625,"x_max":1097,"ha":1166,"o":"m 174 -24 l 845 1023 l 961 1023 l 290 -24 l 174 -24 m 206 1010 l 395 1010 l 313 497 l 189 497 l 254 906 l 164 906 l 206 1010 m 995 275 q 1084 156 1084 242 q 1022 34 1084 80 q 868 -12 961 -12 q 726 33 779 -12 q 674 135 674 78 q 797 286 674 234 q 737 383 737 318 q 791 484 737 442 q 924 526 845 526 q 1047 487 998 526 q 1097 396 1097 449 q 995 275 1097 316 m 969 380 q 921 422 969 422 q 876 407 893 422 q 860 373 860 393 q 908 330 860 330 q 951 344 934 330 q 969 380 969 359 m 961 162 q 942 209 961 188 q 888 230 923 230 q 824 205 848 230 q 800 152 800 181 q 820 108 800 125 q 874 92 840 92 q 937 112 914 92 q 961 162 961 133 "},"4":{"x_min":5.421875,"x_max":716.140625,"ha":778,"o":"m 539 1022 l 705 1022 l 617 354 l 716 354 l 694 192 l 596 192 l 570 0 l 400 0 l 424 192 l 5 192 l 27 354 l 539 1022 m 488 706 l 223 354 l 444 354 l 488 706 "},"Ẁ":{"x_min":89.515625,"x_max":1285.8125,"ha":1250,"o":"m 89 998 l 260 998 l 317 351 l 623 998 l 764 998 l 882 368 l 1104 998 l 1285 998 l 933 0 l 779 0 l 654 660 l 341 0 l 178 0 l 89 998 m 498 1361 l 716 1361 l 840 1095 l 708 1095 l 498 1361 "},"Ť":{"x_min":30.515625,"x_max":662.578125,"ha":583,"o":"m 53 998 l 662 998 l 640 820 l 428 820 l 320 0 l 134 0 l 242 820 l 30 820 l 53 998 m 423 1074 l 276 1074 l 100 1265 l 302 1265 l 363 1176 l 451 1265 l 655 1265 l 423 1074 "},"ψ":{"x_min":56,"x_max":1011.8125,"ha":1057,"o":"m 549 -14 l 516 -270 l 335 -270 l 369 -14 q 56 310 56 21 q 61 390 56 348 l 107 738 l 287 738 l 244 412 q 236 314 236 348 q 272 208 236 242 q 393 164 309 175 l 469 738 l 649 738 l 573 163 q 715 225 661 174 q 791 439 770 276 l 831 738 l 1011 738 l 960 357 q 841 95 937 183 q 549 -14 744 6 "},"ŗ":{"x_min":-53.171875,"x_max":458.5625,"ha":444,"o":"m 85 738 l 246 738 l 233 637 q 407 757 305 757 q 458 744 432 757 l 393 580 q 363 587 373 587 q 270 525 311 587 q 205 277 229 464 l 170 0 l -11 0 l 85 738 m 58 -8 q 123 -8 100 -8 q 235 -39 202 -8 q 268 -112 268 -70 q 216 -212 268 -166 q 74 -259 165 -259 q -53 -234 18 -259 l -17 -146 q 56 -157 28 -157 q 134 -102 134 -157 q 84 -70 134 -70 q 32 -73 67 -70 l 58 -8 m 264 -20 l 264 -20 "}}}
