<?xml version="1.0" standalone="no"?>
<!DOCTYPE svg PUBLIC "-//W3C//DTD SVG 1.1//EN" "http://www.w3.org/Graphics/SVG/1.1/DTD/svg11.dtd" >
<svg xmlns="http://www.w3.org/2000/svg" xmlns:xlink="http://www.w3.org/1999/xlink" version="1.1">
<metadata>
Created by FontForge 20170731 at Wed Jun 19 08:45:40 2019
 By Aleksey,,,
Metaplast
</metadata>
<defs>
<font id="Font_MTplast_bigdigitnormal" horiz-adv-x="458" >
  <font-face 
    font-family="Font_MTplast_bigdigit"
    font-weight="500"
    font-stretch="normal"
    units-per-em="1000"
    panose-1="0 0 0 0 0 0 0 0 0 0"
    ascent="800"
    descent="-200"
    x-height="600"
    cap-height="800"
    bbox="0 0 642 800"
    underline-thickness="50"
    underline-position="-200"
    unicode-range="U+0020-0445"
  />
    <missing-glyph />
    <glyph glyph-name="CYRILLICSMALLLETTERE" horiz-adv-x="472" 
d="M0 0v700h432v-700h-432zM50 650v-600h332v600h-332z" />
    <glyph glyph-name=".null" horiz-adv-x="0" 
 />
    <glyph glyph-name="nonmarkingreturn" horiz-adv-x="333" 
 />
    <glyph glyph-name="space" unicode=" " horiz-adv-x="333" 
 />
    <glyph glyph-name="zero" unicode="0" horiz-adv-x="538" 
d="M516 341q4 58 1 99q-7 72 -13 107q-7 41 -25 97q-13 46 -52 86q-37 37 -85 55q-47 17 -99 12q-52 -4 -97 -33q-42 -26 -71 -73q-17 -30 -33 -96q-10 -41 -17 -101q-6 -53 -5 -100q2 -55 9 -107q6 -47 20 -98q7 -30 16 -48q11 -27 26 -46q17 -21 36 -39q11 -10 44 -28
q37 -20 97 -22q33 2 49 6q52 13 91 44q22 21 36 38q13 17 27 46q6 13 17 48q5 17 13 51q11 51 15 102zM373 510q11 -65 10 -122q-2 -65 -16 -123q-9 -39 -17 -61q-10 -27 -33 -45q-25 -18 -57.5 -16.5t-53.5 24.5q-12 11 -18 25q-4 10 -8 30q-5 20 -13 60q-8 47 -10 120v29
q3 61 15 119q14 54 16 60q12 30 42 44q28 13 58.5 4.5t48.5 -33.5q12 -16 22 -53q10 -36 14 -62z" />
    <glyph glyph-name="one" unicode="1" horiz-adv-x="457" 
d="M397 6h-61q-18 4 -25 11q-8 8 -10 24v19v121v171v149v43q0 18 -3 22q-9 14 -24 7q-2 -1 -10 -9q-38 -38 -46 -45q-20 -21 -59 -60q-27 -27 -33 -32q-8 -8 -22 -11q-12 -1 -25 10q-4 3 -18 17l-27 27q-10 10 -12 18q-4 13 2 27q3 5 18 20l97 97q77 77 115 116
q6 5 17.5 16.5l17.5 17.5q14 14 26 16h22h41q39 0 49 -10q4 -4 6 -9t2.5 -11.5t1 -11t0 -12.5t-0.5 -11v-112v-162v-173v-149v-87q0 -15 -1 -18q-5 -16 -16 -21q-9 -5 -22 -5zM221 23z" />
    <glyph glyph-name="two" unicode="2" horiz-adv-x="512" 
d="M491 68v40q-2 20 -18 30q-7 4 -23 4h-90h-107h-24q-9 1 -14.5 7t-4.5 15q1 5 9 15q8 8 22 24q12 13 36.5 39t36.5 39q13 14 37 40.5t37 39.5q24 26 36 38q27 25 43 61q18 37 23 76q4 39 -5 79t-27 68q-23 37 -52 61q-27 23 -67 39q-38 15 -74 15q-42 2 -79 -10
q-34 -10 -68 -34q-30 -21 -53 -53q-23 -33 -36 -73q-14 -53 10 -67q9 -6 32 -6h51q19 0 29 13q5 6 9 19t5 16q16 38 54 52q39 16 77 -1q38 -16 52 -53q14 -41 -2 -78q-7 -17 -27 -37q-16 -18 -50 -54q-12 -13 -37.5 -40t-38.5 -41t-39.5 -43t-39.5 -43q-11 -11 -31.5 -33
t-30.5 -33q-3 -3 -9 -9.5t-9 -9.5q-6 -6 -9 -10q-5 -8 -5 -27v-52v-46q0 -17 10 -28q11 -11 42 -11h82h116h111h68q10 0 15 1q19 4 26 26q1 4 1 35z" />
    <glyph glyph-name="three" unicode="3" horiz-adv-x="500" 
d="M473 177q9 35 7 75q-2 25 -6 38q-4 20 -12 39q-14 34 -40 63q-29 30 -60 48l-7 3.5t-7 4t-5.5 4t-4.5 6t-1 7.5q0 5 10 18q20 27 60 79q10 14 29.5 39.5t22.5 30.5q8 11 8 23q1 0 1 18l-1 18v56q0 25 -1 28q-6 19 -27 22q-5 1 -15 1h-74h-114h-108h-61q-15 0 -25.5 -10
t-10.5 -26v-49q0 -24 5 -33q10 -16 29 -16h20h105h94q15 0 20 -3q15 -10 3 -28q-8 -11 -24.5 -32.5t-24.5 -32.5q-10 -13 -29.5 -39t-29.5 -39q-7 -9 -10 -23v-9v-23v-55q0 -21 3 -28q9 -18 30 -20q3 0 9 1t9 1q11 2 20 0q41 -5 66 -37q25 -31 20 -72q-4 -39 -38 -66
q-30 -24 -71 -19q-44 6 -66 39q-12 16 -16 35q-7 22 -21 28q-5 2 -36 2h-13.5h-16h-14.5q-20 0 -30 -18q-6 -9 -1 -37q10 -40 29 -72q17 -31 48 -57q34 -27 67 -39q33 -13 78 -15q35 -1 73 10q40 13 69 35q31 24 54 57q22 33 32 69z" />
    <glyph glyph-name="four" unicode="4" horiz-adv-x="484" 
d="M463 362q1 9 1 27q-2 17 -13 27q-10 7 -23 7h-38h-29q-16 0 -26 -13q-4 -5 -6 -14q0 -2 -0.5 -7t-1.5 -8q-5 -11 -20 -11q0 -1 -16 -0.5t-17 0.5h-44q-20 0 -22 1q-16 6 -13 22l2.5 5t1.5 4q54 92 62 107q73 127 90 157q26 43 47 80q8 14 2.5 29t-20.5 21q-7 2 -22 2h-44
h-9.5h-10t-8.5 -0.5t-9.5 -2t-7 -4.5t-6.5 -7q-5 -7 -13 -21q-46 -80 -69 -121q-62 -106 -92 -159q-20 -34 -60 -104q-9 -14 -9 -26v-76q0 -15 3 -22q6 -14 21 -19q6 -2 38 -2h171h53q11 0 16 -6q5 -5 5 -17v-154v-16q2 -16 12 -25q9 -9 24 -9h36q3 0 11 -0.5t12.5 0t11 1.5
t11.5 3.5t9 6.5q9 10 9 34v145v165z" />
    <glyph glyph-name="five" unicode="5" horiz-adv-x="529" 
d="M201 492h62q102 0 174 -72t72 -174t-72 -174t-174 -72q-91 0 -159.5 59t-82.5 148q0 1 -0.5 3.5t-0.5 3.5q-1 17 6.5 24.5t24.5 7.5q33 2 65 0q26 0 32 -26q19 -72 84 -88t110 26q37 33 39 87q0 19 -11 46q-10 29 -53 55q-26 17 -65 17q-84 -1 -166 0q-15 0 -19 2
q-13 4 -17.5 10.5t-4.5 21.5v178h1v179q0 38 38 38h356q20 0 31 -11t11 -31v-50q0 -15 -10.5 -26t-27.5 -13q-8 -1 -25 -1q-33 0 -100 0.5t-101 0.5q-18 0 -29 -2q-16 -3 -16 -19v-122q0 -26 28 -26z" />
    <glyph glyph-name="six" unicode="6" horiz-adv-x="531" 
d="M317 5q-27 -5 -50 -5q-37 1 -54 6q-30 8 -55 19q-25 13 -47 30q-16 13 -37 37q-21 28 -30 49q-12 25 -18 53q-6 27 -6 54q0 19 2 59q2 27 6 54q3 28 9 53q5 28 13 53q12 41 16 53q16 42 22 54q5 14 25 53q15 30 27 48q12 21 29 45q23 31 33 43q12 17 19 22q10 7 22 7h68
q36 0 46 -10q10 -12 10 -25q0 -12 -10 -24q-3 -4 -10.5 -11t-9.5 -10q-7 -7 -19 -21q-13 -15 -35 -45q-11 -15 -31 -47q-10 -15 -27 -49q-3 -5 -7 -14t-5 -11q-6 -11 0 -23q4 -5 11 -7h13q9 2 27 2q29 0 56 -6q21 -5 54 -19q21 -10 45 -29q19 -15 38 -39q19 -25 30 -49
q12 -25 18 -54q6 -19 6 -52q0 -27 -6 -56q-5 -24 -19 -53q-11 -24 -29 -48q-12 -14 -19 -20q-10 -11 -19 -18q-16 -12 -25 -18q-10 -7 -23 -12q-18 -10 -54 -19zM151 276q-2 -14 -2 -18q-2 -21 2 -35q5 -19 13 -33q20 -35 52 -48q19 -9 35 -10q12 -2 19 -1q6 0 18 2
q36 8 62 35q13 12 20 29q9 17 10 33q3 18 0 37q-2 12 -4 18q-5 13 -7 16q-17 34 -49 51q-32 18 -68 13q-40 -5 -64 -28q-28 -27 -37 -61z" />
    <glyph glyph-name="seven" unicode="7" horiz-adv-x="511" 
d="M217 0q-21 1 -62 1q-13 0 -23 8q-10 9 -12 23q-1 7 6 27q1 4 3 9t4.5 11t3.5 10q18 51 44 119q47 132 88 242q19 55 44 121q3 10 11 30q1 3 4.5 13t5.5 16q3 10 -3 19q-6 7 -20 7h-64h-65h-63h-31q-31 -1 -31 0q-31 2 -36 29q-1 5 -1 31v31q0 16 3 24q4 8 13 15q9 6 21 6
h31h256h64h33q21 0 28 -3q12 -5 18 -16q4 -9 4 -27v-62q0 -23 -2 -29q-8 -20 -11 -29q-4 -10 -11 -31t-11 -31q-8 -20 -22 -60t-22 -60l-87 -240q-7 -20 -21.5 -60t-22.5 -59q-17 -48 -22 -61q-3 -11 -14 -19q-9 -5 -28 -5z" />
    <glyph glyph-name="eight" unicode="8" horiz-adv-x="536" 
d="M514 214q4 20 2 50q-11 70 -29 100q-18 32 -30 45q-12 14 -12 22q0 9 11 24q26 40 33 99q5 54 -17 103q-23 53 -61 84q-46 36 -96 46q-51 11 -107 -3q-51 -15 -92 -53q-39 -36 -56 -88q-18 -49 -10 -103q4 -23 14 -54q5 -11 11 -22q13 -20 14 -23q1 -7 2.5 -10t-2 -9
t-5 -8t-6.5 -7.5t-7 -7.5q-16 -22 -28 -47q-23 -49 -23 -104t21 -100q22 -48 64 -87q40 -36 94 -51q48 -14 103 -8q56 8 99 36q43 29 76 77q29 42 37 99zM180 568v13q10 36 22 50q17 20 46 27q26 7 53 -3.5t42 -33.5t14.5 -52t-17.5 -50q-17 -23 -44.5 -32t-53.5 0
q-27 9 -43.5 31t-18.5 50zM384 254v-17q-5 -39 -27 -64q-23 -27 -60 -38q-32 -8 -70 5q-33 10 -55 43q-20 32 -19 66q0 36 23 67q20 29 58 42q34 11 68 0q37 -10 57 -38q24 -31 25 -66z" />
    <glyph glyph-name="nine" unicode="9" horiz-adv-x="530" 
d="M220 7q-5 -1 -16 -1q-17 2 -25 7q-11 10 -13 22q-3 14 5 27q3 4 10 10.5t10 9.5q46 51 77 98q29 45 50 94q7 14 -2 24q-6 7 -25 5q-27 -4 -61 1q-58 9 -111 47q-48 34 -75 92q-28 58 -23 122q3 57 33 111q28 50 78 82.5t108 38.5q64 6 124 -20q56 -26 94 -74
q37 -48 48 -105q7 -40 1 -121q-11 -120 -54 -229q-20 -51 -48 -100q-26 -47 -65 -98q-10 -14 -15 -20q-11 -14 -15 -16q-10 -7 -33 -7h-57zM268 668q-49 0 -83.5 -34t-34.5 -82t35 -82.5t83 -34.5t82 34.5t34 82.5t-34 82t-82 34z" />
    <glyph glyph-name="A" unicode="A" horiz-adv-x="662" 
d="M607 1l-71 -1l-6 1l-6 2l-6 3l-5 4h-1l-4 5l-3 5l-3 6l-36 136l-2 4l-2 3l-2 3l-3 2l-3 2l-4 1h-3h-234l-7 -1l-3 -2l-3 -2l-3 -2l-2 -4l-1 -3l-36 -136l-2 -5l-4 -6l-4 -5l-5 -4l-6 -3l-6 -2h-1h-6h-70h-7h-1l-6 2h-1l-5 3l-5 4l-4 6l-3 6l-1 7l-1 7v1l1 6l195 731l2 6
l4 5v1l4 4l5 4q1 0 1 1l5 2h1l5 1l7 1h160l6 -1l7 -1h1l5 -3l5 -4h1l4 -5l3 -5l3 -6l196 -731l1 -7l-1 -7l-1 -7v-1l-3 -5l-4 -6l-5 -4l-6 -4h-1l-7 -2h-7zM432 341l-70 262l-3 6l-3 5l-5 5l-5 4l-6 2l-6 1h-7l-6 -1l-6 -2l-6 -4l-4 -5l-4 -5l-2 -6l-70 -262l-1 -6v-7l2 -7
l2 -5l4 -5l5 -5l6 -3l7 -2h6h140h7l6 2l5 3l6 5l4 5l2 5l2 7l1 7z" />
    <glyph glyph-name="D" unicode="D" horiz-adv-x="596" 
d="M575 520v34q-5 38 -11 57q-8 27 -24 57q-32 55 -78 84q-25 17 -54 29q-25 9 -59 16q-13 2 -98 2h-167h-36q-27 -5 -27 -33v-62v-139v-176v-174v-132v-53q3 -28 34 -30h45h169q70 0 96 4q57 10 108 47q48 35 74 88q14 29 21 58q7 27 7 58v34.5v41v34.5v155zM442 277v-13
q-2 -41 -20 -69q-18 -31 -53 -48q-30 -14 -61 -14h-94h-36q-16 0 -22 13q-2 4 -2 32v72v102v111v99v67q0 27 8 33q6 4 22 4h45h82q37 0 68 -19q31 -18 49 -53q14 -28 14 -60v-64v-108v-85z" />
    <glyph glyph-name="H" unicode="H" horiz-adv-x="20" 
 />
    <glyph glyph-name="M" unicode="M" horiz-adv-x="20" 
 />
    <glyph glyph-name="d" unicode="d" horiz-adv-x="596" 
d="M575 520v34q-5 38 -11 57q-8 27 -24 57q-32 55 -78 84q-25 17 -54 29q-25 9 -59 16q-13 2 -98 2h-167h-36q-27 -5 -27 -33v-62v-139v-176v-174v-132v-53q3 -28 34 -30h45h169q70 0 96 4q57 10 108 47q48 35 74 88q14 29 21 58q7 27 7 58v34.5v41v34.5v155zM442 277v-13
q-2 -41 -20 -69q-18 -31 -53 -48q-30 -14 -61 -14h-94h-36q-16 0 -22 13q-2 4 -2 32v72v102v111v99v67q0 27 8 33q6 4 22 4h45h82q37 0 68 -19q31 -18 49 -53q14 -28 14 -60v-64v-108v-85z" />
    <glyph glyph-name="r" unicode="r" horiz-adv-x="20" 
 />
    <glyph glyph-name="uni0400" unicode="&#x400;" horiz-adv-x="20" 
 />
    <glyph glyph-name="uni0410" unicode="&#x410;" horiz-adv-x="506" 
d="M460 0h-53h-4h-1l-4 2l-5 2l-3 3q-1 0 -1 1l-3 3l-2 4l-2 5l-28 102l-1 2l-1 3l-2 2l-2 2l-2 1h-3l-3 1h-175l-6 -1l-2 -1l-2 -2l-2 -2l-2 -2v-3l-28 -101l-1 -5l-3 -4l-3 -4l-4 -3l-4 -2l-5 -1l-5 -1h-52l-6 1l-5 1h-1l-3 2l-4 3l-3 5l-2 4v1l-2 4v6l1 5l146 548l2 5
l2 4h1l3 4l3 3h1l4 1l5 2h4h121h4l5 -2h1l4 -1l4 -3v-1l3 -3l3 -4l2 -5l147 -548v-5v-6l-1 -5l-2 -4l-3 -5l-4 -3l-5 -3l-5 -1h-1zM329 256l-53 196l-2 4l-2 5l-4 3l-4 3l-4 2l-5 1h-5l-5 -1l-4 -2l-4 -3l-3 -3l-3 -5l-2 -4l-53 -196v-5v-5l1 -5l2 -4l3 -4l4 -3l4 -3l5 -1
l5 -1h105l5 1l5 1l4 3l4 3l3 4l2 4l1 5l1 5z" />
    <glyph glyph-name="uni0412" unicode="&#x412;" 
d="M71 1q-8 -1 -24 -1q-15 3 -20 9q-5 7 -7 17v13v80v125v138v119v67q0 11 4 19q6 13 27 13h107h104q43 0 76 -17q24 -11 40 -26q18 -15 30 -33q26 -41 29 -87q3 -47 -18 -87q-5 -12 -12 -20q-5 -9 -15 -19q-7 -10 -1 -19q3 -3 8 -9t7 -10q26 -35 31 -83q5 -50 -16 -90
q-12 -23 -25 -38q-15 -18 -34 -31q-37 -27 -85 -30h-26h-53h-127zM123 117q1 -6 7 -12q11 -2 18 -2h38h76q28 0 49 18q23 20 23 52q0 33 -23 53q-23 17 -49 17h-77h-38q-14 0 -18 -3q-6 -5 -6 -18v-38v-21v-25v-21zM231 110zM125 365q2 -6 10 -8q13 -1 19 -1h41h69
q31 2 51 22q22 22 19 55q-3 32 -29 50q-12 9 -27 12q-7 1 -20 1h-82h-33q-14 0 -18 -8q-1 -2 -1 -19v-42v-42q0 -18 1 -20z" />
    <glyph glyph-name="uni0414" unicode="&#x414;" horiz-adv-x="20" 
 />
    <glyph glyph-name="uni0415" unicode="&#x415;" 
d="M87 0q-14 1 -41 1q-22 2 -26 22v11v53v93v113v115v96v60v10q0 18 18 25q5 1 16 1h27h97h114h92h23q11 0 19 -5t10 -16q1 -4 1 -14v-43q-2 -22 -24 -25h-15h-91h-112h-58q-14 -1 -14 -18v-44v-53q0 -22 5 -26q4 -5 17 -5h33h107h101q2 0 9 0.5t11 0t10 -1t10 -3.5t7 -7
q4 -6 4 -35v-26q0 -10 -1 -14q-8 -16 -25 -16h-6.5h-7.5h-6h-98h-109h-35q-14 0 -17 -2q-8 -4 -8 -23v-51v-48q0 -19 11 -21h16h37h111h95h17q21 -2 26 -20q1 0 1 -7l-1 -7v-28q0 -26 -6 -33q-8 -9 -42 -9h-88h-115h-99z" />
    <glyph glyph-name="uni041A" unicode="&#x41a;" horiz-adv-x="461" 
d="M91 244zM415 0h-58l-5 1l-5 1q-1 0 -1 1l-4 2l-4 4l-4 4l-138 240l-2 2l-2 2l-2 2l-2 1h-3h-3l-3 -1h-2l-2 -2l-2 -2l-46 -55l-2 -2l-1 -2v-3l-1 -2v-165v-5l-2 -5l-2 -4v-1l-3 -3l-4 -3l-5 -3l-5 -1l-5 -1h-51l-5 1l-5 1l-5 3l-3 3l-4 4l-2 4v1l-2 4v5v548v5l2 5l2 4
q0 1 1 1l3 3l3 3l5 3l5 1l5 1h51l5 -1l5 -1h1l4 -3l4 -3l3 -3v-1l2 -4l2 -5v-5v-177l1 -3v-3l2 -3l2 -2l2 -2l3 -1l3 -1h3l3 1l2 1l3 1l2 2l170 204l4 4h1l4 3l6 2h5h67h5l5 -2l4 -1q1 0 1 -1l3 -3l3 -4l3 -4l2 -4v-1l1 -4l-1 -5v-5v-1l-2 -4l-3 -4l-165 -195l-1 -3l-2 -3
v-2v-3l1 -3l1 -3l177 -305l2 -5l1 -5v-4l-1 -5v-1l-1 -4l-3 -5l-3 -3l-4 -3v-1l-4 -2l-5 -1z" />
    <glyph glyph-name="uni041C" unicode="&#x41c;" horiz-adv-x="532" 
d="M512 576l-1 4l-1 5l-3 4l-3 4l-4 3l-4 2l-6 1l-5 1h-64l-5 -1l-5 -1l-5 -3l-5 -4l-3 -4l-117 -201l-2 -3l-2 -2l-3 -2l-3 -1h-4h-3h-3l-3 1l-3 2l-3 2l-1 3l-118 201l-3 4l-4 4l-5 3l-5 1l-6 1h-64l-5 -1l-5 -1l-4 -2l-4 -3l-4 -4l-2 -4l-2 -5v-4v-552v-4l2 -5l2 -4l4 -4
l4 -3l4 -2l5 -2h5h55h5l5 2l5 2l4 3l3 4l2 4l2 5v4v299l1 3l1 3l2 3l2 2l3 2l3 2l4 1h3l4 -1l3 -1l3 -2l3 -2l2 -3l82 -141l3 -4l3 -3l5 -3l4 -2h5h5h6l4 2l4 3l4 3l3 4l82 141l2 3l3 2l3 2l3 1l3 1h4l4 -1l3 -2l2 -2l3 -2l2 -3l1 -3v-3v-299l1 -4l1 -5l2 -4l4 -4l4 -3l4 -2
l5 -2h6h54h5l6 2l4 2l4 3l3 4l3 4l1 5l1 4v552z" />
    <glyph glyph-name="uni041D" unicode="&#x41d;" 
d="M93 243zM295 17zM399 0h-39q-20 2 -25 20q-1 6 -1 17v88v93v5v6v5q0 15 -16 15h-77h-92q-15 0 -19 -3q-7 -4 -7 -18v-80v-98v-9v-11t-1 -9t-4 -9.5t-7 -6.5q-7 -5 -32 -5h-25q-8 0 -13 1q-19 3 -21 24v7v48v81v102v107v97v73v33q2 15 10 21t30 6h38q20 -2 25 -21v-17v-38
v-104v-39l-1 -9q0 -8 1 -8q3 -13 18 -13h30h101h38q15 0 19 4q5 4 5 18v33v102v65q2 18 14 23q7 4 33 4h24q9 0 13 -1q19 -5 19 -25v-25v-67v-95v-106v-103v-86v-54q0 -26 -11 -33q-7 -5 -27 -5z" />
    <glyph glyph-name="uni041E" unicode="&#x41e;" horiz-adv-x="540" 
d="M516 243q12 90 -14 180q-20 53 -36 75q-20 30 -56 57q-71 52 -161 44q-47 -5 -83 -23q-40 -20 -66 -46q-29 -29 -46 -66q-18 -35 -26 -82q-18 -89 4 -181q12 -48 30 -80q22 -37 52 -63q34 -29 69 -41q20 -9 42 -13q20 -4 45 -4q24 0 44 4q81 13 140 81q48 57 62 158z
M416 312v-29q-6 -72 -26 -108q-25 -47 -75 -64q-55 -19 -106 7q-48 24 -66 73q-10 24 -14 54q-5 28 -5 57q2 64 21 113q19 47 69 70q25 12 55 12q28 0 51 -10q22 -7 42 -26q18 -15 30 -40q9 -18 17 -52q5 -28 7 -57z" />
    <glyph glyph-name="uni0420" unicode="&#x420;" horiz-adv-x="457" 
d="M437 431l-1 13l-1 13l-2 12l-4 13l-4 11l-5 12l-6 11l-6 11l-8 10l-8 9l-9 10l-9 8l-10 7l-11 7l-11 6l-12 5l-12 4l-12 3l-12 2l-12 2h-13h-223h-5l-5 -2l-5 -2l-3 -3l-4 -5l-2 -4l-2 -5v-5v-547v-5l2 -5l2 -5l3 -4l5 -4l4 -2l6 -2h5h50h5l5 2l5 2l4 3l3 5l2 4l1 5l1 5
v223v3l1 3l1 2l2 2l2 2l3 1l2 1h3h132l13 1l12 1l12 2l12 4l12 4l12 5l11 6l11 6l10 8l9 8l9 9l8 9l8 11l6 10l6 11l5 12l4 12l4 12l2 12l1 13zM334 432l-1 -7l-1 -7l-2 -8l-3 -6l-3 -7l-4 -6l-5 -5l-5 -5l-7 -4l-6 -4l-7 -3l-7 -2l-7 -1h-8h-131h-3l-3 1l-2 1l-2 2l-2 2
l-1 3l-1 2l-1 3v101l1 3l1 3l1 2l2 2l2 2l3 2h2l3 1h132l7 -1l7 -1l7 -2l7 -2l7 -4l6 -4l5 -5l5 -5l4 -6l4 -7l2 -6l3 -8l1 -6v-8z" />
    <glyph glyph-name="uni0421" unicode="&#x421;" horiz-adv-x="494" 
d="M358 18q-40 -18 -90 -18q-58 0 -103 22q-38 18 -68 48q-22 22 -37 48q-6 11 -11 21v1q-3 3 -15 44q-14 61 -14 115v2q0 57 14 115q10 39 15 44q0 3 11 22q15 26 37 48q30 30 68 48q45 22 103 22q52 0 90 -17q33 -13 61 -38q33 -31 54 -77q5 -10 -5 -16l-1 -1l-64 -27
q-12 -6 -17 5q-14 24 -35 40q-33 27 -81 27q-62 0 -98 -39q-17 -17 -30 -46q-10 -22 -15 -50l-5 -59v-1v-1q0 -32 5 -60q5 -29 15 -49q12 -29 30 -47q36 -38 98 -38q47 0 79 25q22 16 35 40q7 12 20 6l66 -31h-2q7 -5 3 -14q-17 -42 -53 -76q-25 -24 -60 -38z" />
    <glyph glyph-name="uni0422" unicode="&#x422;" horiz-adv-x="456" 
d="M435 530q2 34 0 51q-3 13 -14 17q-3 2 -11 2h-26h-117h-139h-81q-19 0 -25 -15q-2 -6 -2 -19v-34q0 -12 2 -17q7 -13 18 -14q4 -1 13 -1h28h66h15q12 0 15 -10q1 -2 1 -17v-35v-120v-142v-114v-31q0 -13 5 -20q3 -4 6.5 -6.5t9 -3.5t8.5 -1h10.5h8.5h27q13 2 18 8
q7 7 7 22v30v112v143v121v36v5v6v5q4 13 16 13h12h66h13.5h15h12.5q14 2 19 11q3 6 3 18z" />
    <glyph glyph-name="uni0423" unicode="&#x423;" horiz-adv-x="464" 
d="M173 0h-54q-16 4 -21 12q-8 11 -3 23q2 6 4.5 12t5.5 13t5 11q11 23 31 69q12 26 17 39q2 5 -3 20q-12 34 -14 40q-8 20 -22 60q-4 12 -13 35.5t-13 35.5q-18 48 -26 72q-16 42 -23 63q-3 7 -16 44q-3 6 -7 18t4 22t21 11h27h27q14 -2 20 -9q5 -7 6 -11q10 -28 15 -41
q16 -46 25 -69q4 -12 12.5 -35t12.5 -34q13 -37 16 -44q2 -6 4 -9q11 -10 21 0q3 2 5 8l8 16q16 38 25 57q6 14 16.5 38t14.5 32q18 40 26 60q1 3 5 11.5t7 13.5q5 12 18 15h21h35q14 0 20 -4q19 -12 8 -33q-1 -3 -3.5 -9t-3.5 -9q-3 -6 -8.5 -18t-8.5 -18q-7 -18 -23 -52
q-5 -10 -14 -31t-13 -31q-11 -23 -31 -69q-4 -9 -15 -33.5t-17 -37.5l-30 -69q-5 -12 -16 -35.5t-12 -26.5q-2 -3 -10 -22.5t-13 -29.5q-3 -7 -8.5 -20t-7.5 -17q-6 -12 -8 -18q-8 -16 -26 -16z" />
    <glyph glyph-name="CYRILLICCAPITALLETTE" unicode="&#x425;" horiz-adv-x="486" 
d="M416 1q-12 -1 -34 -1q-15 2 -22 13l-9 15q-30 48 -45 73q-7 11 -21.5 35t-21.5 35q-4 7 -8 13q-5 7 -12 7t-12 -7q-1 -2 -3.5 -6t-4.5 -6l-18 -30q-27 -43 -49 -80q-3 -4 -13.5 -22t-16.5 -27q-9 -12 -22 -12h-32h-21h-10q-18 4 -20 20q-2 9 12 35l39 63q9 13 25.5 40
t24.5 41q7 11 21 33.5t21 34.5q8 14 12 20q5 8 5 11q0 6 -5 13q-2 3 -5.5 9.5t-5.5 9.5q-7 11 -21 34t-21 34q-9 13 -25.5 40t-24.5 41q-13 22 -39 64q-15 25 -14 33q3 17 19 22q3 1 11 1h19h35q14 0 22 -13q4 -6 30 -47q4 -7 21.5 -35.5t27.5 -44.5q4 -7 13 -21.5t13 -21.5
q5 -7 13 -7t12 7q1 2 3.5 6t3.5 6q4 6 19.5 31t23.5 39l45 72q2 2 5 7.5t4 8.5q7 11 22 13h34h20q6 0 10 -1q17 -5 20 -21q1 -8 -4 -20q-15 -21 -26 -41q-8 -13 -23.5 -38t-23.5 -38t-24 -39.5t-24 -39.5q-5 -9 -15.5 -25.5t-15.5 -24.5t-5 -12q0 -2 5 -12q5 -8 15.5 -24.5
t15.5 -25.5q32 -52 48 -79q8 -13 23.5 -38t23.5 -37q8 -14 26 -42q5 -11 4 -20q-4 -17 -21 -21h-10h-19z" />
    <glyph glyph-name="CYRILLICSMALLLETTERA" unicode="&#x430;" horiz-adv-x="506" 
d="M460 0h-53h-4h-1l-4 2l-5 2l-3 3q-1 0 -1 1l-3 3l-2 4l-2 5l-28 102l-1 2l-1 3l-2 2l-2 2l-2 1h-3l-3 1h-175l-6 -1l-2 -1l-2 -2l-2 -2l-2 -2v-3l-28 -101l-1 -5l-3 -4l-3 -4l-4 -3l-4 -2l-5 -1l-5 -1h-52l-6 1l-5 1h-1l-3 2l-4 3l-3 5l-2 4v1l-2 4v6l1 5l146 548l2 5
l2 4h1l3 4l3 3h1l4 1l5 2h4h121h4l5 -2h1l4 -1l4 -3v-1l3 -3l3 -4l2 -5l147 -548v-5v-6l-1 -5l-2 -4l-3 -5l-4 -3l-5 -3l-5 -1h-1zM329 256l-53 196l-2 4l-2 5l-4 3l-4 3l-4 2l-5 1h-5l-5 -1l-4 -2l-4 -3l-3 -3l-3 -5l-2 -4l-53 -196v-5v-5l1 -5l2 -4l3 -4l4 -3l4 -3l5 -1
l5 -1h105l5 1l5 1l4 3l4 3l3 4l2 4l1 5l1 5z" />
    <glyph glyph-name="CYRILLICSMALLLETTERV" unicode="&#x432;" 
d="M71 1q-8 -1 -24 -1q-15 3 -20 9q-5 7 -7 17v13v80v125v138v119v67q0 11 4 19q6 13 27 13h107h104q43 0 76 -17q24 -11 40 -26q18 -15 30 -33q26 -41 29 -87q3 -47 -18 -87q-5 -12 -12 -20q-5 -9 -15 -19q-7 -10 -1 -19q3 -3 8 -9t7 -10q26 -35 31 -83q5 -50 -16 -90
q-12 -23 -25 -38q-15 -18 -34 -31q-37 -27 -85 -30h-26h-53h-127zM123 117q1 -6 7 -12q11 -2 18 -2h38h76q28 0 49 18q23 20 23 52q0 33 -23 53q-23 17 -49 17h-77h-38q-14 0 -18 -3q-6 -5 -6 -18v-38v-21v-25v-21zM231 110zM125 365q2 -6 10 -8q13 -1 19 -1h41h69
q31 2 51 22q22 22 19 55q-3 32 -29 50q-12 9 -27 12q-7 1 -20 1h-82h-33q-14 0 -18 -8q-1 -2 -1 -19v-42v-42q0 -18 1 -20z" />
    <glyph glyph-name="CYRILLICSMALLLETTERI" unicode="&#x435;" 
d="M87 0q-14 1 -41 1q-22 2 -26 22v11v53v93v113v115v96v60v10q0 18 18 25q5 1 16 1h27h97h114h92h23q11 0 19 -5t10 -16q1 -4 1 -14v-43q-2 -22 -24 -25h-15h-91h-112h-58q-14 -1 -14 -18v-44v-53q0 -22 5 -26q4 -5 17 -5h33h107h101q2 0 9 0.5t11 0t10 -1t10 -3.5t7 -7
q4 -6 4 -35v-26q0 -10 -1 -14q-8 -16 -25 -16h-6.5h-7.5h-6h-98h-109h-35q-14 0 -17 -2q-8 -4 -8 -23v-51v-48q0 -19 11 -21h16h37h111h95h17q21 -2 26 -20q1 0 1 -7l-1 -7v-28q0 -26 -6 -33q-8 -9 -42 -9h-88h-115h-99z" />
    <glyph glyph-name="CYRILLICSMALLLETTERK" unicode="&#x43a;" horiz-adv-x="461" 
d="M91 244zM415 0h-58l-5 1l-5 1q-1 0 -1 1l-4 2l-4 4l-4 4l-138 240l-2 2l-2 2l-2 2l-2 1h-3h-3l-3 -1h-2l-2 -2l-2 -2l-46 -55l-2 -2l-1 -2v-3l-1 -2v-165v-5l-2 -5l-2 -4v-1l-3 -3l-4 -3l-5 -3l-5 -1l-5 -1h-51l-5 1l-5 1l-5 3l-3 3l-4 4l-2 4v1l-2 4v5v548v5l2 5l2 4
q0 1 1 1l3 3l3 3l5 3l5 1l5 1h51l5 -1l5 -1h1l4 -3l4 -3l3 -3v-1l2 -4l2 -5v-5v-177l1 -3v-3l2 -3l2 -2l2 -2l3 -1l3 -1h3l3 1l2 1l3 1l2 2l170 204l4 4h1l4 3l6 2h5h67h5l5 -2l4 -1q1 0 1 -1l3 -3l3 -4l3 -4l2 -4v-1l1 -4l-1 -5v-5v-1l-2 -4l-3 -4l-165 -195l-1 -3l-2 -3
v-2v-3l1 -3l1 -3l177 -305l2 -5l1 -5v-4l-1 -5v-1l-1 -4l-3 -5l-3 -3l-4 -3v-1l-4 -2l-5 -1z" />
    <glyph glyph-name="uni043C" unicode="&#x43c;" horiz-adv-x="532" 
d="M512 576l-1 4l-1 5l-3 4l-3 4l-4 3l-4 2l-6 1l-5 1h-64l-5 -1l-5 -1l-5 -3l-5 -4l-3 -4l-117 -201l-2 -3l-2 -2l-3 -2l-3 -1h-4h-3h-3l-3 1l-3 2l-3 2l-1 3l-118 201l-3 4l-4 4l-5 3l-5 1l-6 1h-64l-5 -1l-5 -1l-4 -2l-4 -3l-4 -4l-2 -4l-2 -5v-4v-552v-4l2 -5l2 -4l4 -4
l4 -3l4 -2l5 -2h5h55h5l5 2l5 2l4 3l3 4l2 4l2 5v4v299l1 3l1 3l2 3l2 2l3 2l3 2l4 1h3l4 -1l3 -1l3 -2l3 -2l2 -3l82 -141l3 -4l3 -3l5 -3l4 -2h5h5h6l4 2l4 3l4 3l3 4l82 141l2 3l3 2l3 2l3 1l3 1h4l4 -1l3 -2l2 -2l3 -2l2 -3l1 -3v-3v-299l1 -4l1 -5l2 -4l4 -4l4 -3l4 -2
l5 -2h6h54h5l6 2l4 2l4 3l3 4l3 4l1 5l1 4v552z" />
    <glyph glyph-name="uni043D" unicode="&#x43d;" 
d="M93 243zM295 17zM399 0h-39q-20 2 -25 20q-1 6 -1 17v88v93v5v6v5q0 15 -16 15h-77h-92q-15 0 -19 -3q-7 -4 -7 -18v-80v-98v-9v-11t-1 -9t-4 -9.5t-7 -6.5q-7 -5 -32 -5h-25q-8 0 -13 1q-19 3 -21 24v7v48v81v102v107v97v73v33q2 15 10 21t30 6h38q20 -2 25 -21v-17v-38
v-104v-39l-1 -9q0 -8 1 -8q3 -13 18 -13h30h101h38q15 0 19 4q5 4 5 18v33v102v65q2 18 14 23q7 4 33 4h24q9 0 13 -1q19 -5 19 -25v-25v-67v-95v-106v-103v-86v-54q0 -26 -11 -33q-7 -5 -27 -5z" />
    <glyph glyph-name="CYRILLICSMALLLETTERO" unicode="&#x43e;" horiz-adv-x="540" 
d="M516 243q12 90 -14 180q-20 53 -36 75q-20 30 -56 57q-71 52 -161 44q-47 -5 -83 -23q-40 -20 -66 -46q-29 -29 -46 -66q-18 -35 -26 -82q-18 -89 4 -181q12 -48 30 -80q22 -37 52 -63q34 -29 69 -41q20 -9 42 -13q20 -4 45 -4q24 0 44 4q81 13 140 81q48 57 62 158z
M416 312v-29q-6 -72 -26 -108q-25 -47 -75 -64q-55 -19 -106 7q-48 24 -66 73q-10 24 -14 54q-5 28 -5 57q2 64 21 113q19 47 69 70q25 12 55 12q28 0 51 -10q22 -7 42 -26q18 -15 30 -40q9 -18 17 -52q5 -28 7 -57z" />
    <glyph glyph-name="CYRILLICSMALLLETTERP" unicode="&#x43f;" horiz-adv-x="20" 
 />
    <glyph glyph-name="uni0440" unicode="&#x440;" horiz-adv-x="457" 
d="M437 431l-1 13l-1 13l-2 12l-4 13l-4 11l-5 12l-6 11l-6 11l-8 10l-8 9l-9 10l-9 8l-10 7l-11 7l-11 6l-12 5l-12 4l-12 3l-12 2l-12 2h-13h-223h-5l-5 -2l-5 -2l-3 -3l-4 -5l-2 -4l-2 -5v-5v-547v-5l2 -5l2 -5l3 -4l5 -4l4 -2l6 -2h5h50h5l5 2l5 2l4 3l3 5l2 4l1 5l1 5
v223v3l1 3l1 2l2 2l2 2l3 1l2 1h3h132l13 1l12 1l12 2l12 4l12 4l12 5l11 6l11 6l10 8l9 8l9 9l8 9l8 11l6 10l6 11l5 12l4 12l4 12l2 12l1 13zM334 432l-1 -7l-1 -7l-2 -8l-3 -6l-3 -7l-4 -6l-5 -5l-5 -5l-7 -4l-6 -4l-7 -3l-7 -2l-7 -1h-8h-131h-3l-3 1l-2 1l-2 2l-2 2
l-1 3l-1 2l-1 3v101l1 3l1 3l1 2l2 2l2 2l3 2h2l3 1h132l7 -1l7 -1l7 -2l7 -2l7 -4l6 -4l5 -5l5 -5l4 -6l4 -7l2 -6l3 -8l1 -6v-8z" />
    <glyph glyph-name="CYRILLICSMALLLETTERE" unicode="&#x441;" horiz-adv-x="494" 
d="M358 18q-40 -18 -90 -18q-58 0 -103 22q-38 18 -68 48q-22 22 -37 48q-6 11 -11 21v1q-3 3 -15 44q-14 61 -14 115v2q0 57 14 115q10 39 15 44q0 3 11 22q15 26 37 48q30 30 68 48q45 22 103 22q52 0 90 -17q33 -13 61 -38q33 -31 54 -77q5 -10 -5 -16l-1 -1l-64 -27
q-12 -6 -17 5q-14 24 -35 40q-33 27 -81 27q-62 0 -98 -39q-17 -17 -30 -46q-10 -22 -15 -50l-5 -59v-1v-1q0 -32 5 -60q5 -29 15 -49q12 -29 30 -47q36 -38 98 -38q47 0 79 25q22 16 35 40q7 12 20 6l66 -31h-2q7 -5 3 -14q-17 -42 -53 -76q-25 -24 -60 -38z" />
    <glyph glyph-name="CYRILLICSMALLLETTERT" unicode="&#x442;" horiz-adv-x="456" 
d="M435 530q2 34 0 51q-3 13 -14 17q-3 2 -11 2h-26h-117h-139h-81q-19 0 -25 -15q-2 -6 -2 -19v-34q0 -12 2 -17q7 -13 18 -14q4 -1 13 -1h28h66h15q12 0 15 -10q1 -2 1 -17v-35v-120v-142v-114v-31q0 -13 5 -20q3 -4 6.5 -6.5t9 -3.5t8.5 -1h10.5h8.5h27q13 2 18 8
q7 7 7 22v30v112v143v121v36v5v6v5q4 13 16 13h12h66h13.5h15h12.5q14 2 19 11q3 6 3 18z" />
    <glyph glyph-name="CYRILLICSMALLLETTERU" unicode="&#x443;" horiz-adv-x="464" 
d="M173 0h-54q-16 4 -21 12q-8 11 -3 23q2 6 4.5 12t5.5 13t5 11q11 23 31 69q12 26 17 39q2 5 -3 20q-12 34 -14 40q-8 20 -22 60q-4 12 -13 35.5t-13 35.5q-18 48 -26 72q-16 42 -23 63q-3 7 -16 44q-3 6 -7 18t4 22t21 11h27h27q14 -2 20 -9q5 -7 6 -11q10 -28 15 -41
q16 -46 25 -69q4 -12 12.5 -35t12.5 -34q13 -37 16 -44q2 -6 4 -9q11 -10 21 0q3 2 5 8l8 16q16 38 25 57q6 14 16.5 38t14.5 32q18 40 26 60q1 3 5 11.5t7 13.5q5 12 18 15h21h35q14 0 20 -4q19 -12 8 -33q-1 -3 -3.5 -9t-3.5 -9q-3 -6 -8.5 -18t-8.5 -18q-7 -18 -23 -52
q-5 -10 -14 -31t-13 -31q-11 -23 -31 -69q-4 -9 -15 -33.5t-17 -37.5l-30 -69q-5 -12 -16 -35.5t-12 -26.5q-2 -3 -10 -22.5t-13 -29.5q-3 -7 -8.5 -20t-7.5 -17q-6 -12 -8 -18q-8 -16 -26 -16z" />
    <glyph glyph-name="CYRILLICSMALLLETTERH" unicode="&#x445;" horiz-adv-x="486" 
d="M416 1q-12 -1 -34 -1q-15 2 -22 13l-9 15q-30 48 -45 73q-7 11 -21.5 35t-21.5 35q-4 7 -8 13q-5 7 -12 7t-12 -7q-1 -2 -3.5 -6t-4.5 -6l-18 -30q-27 -43 -49 -80q-3 -4 -13.5 -22t-16.5 -27q-9 -12 -22 -12h-32h-21h-10q-18 4 -20 20q-2 9 12 35l39 63q9 13 25.5 40
t24.5 41q7 11 21 33.5t21 34.5q8 14 12 20q5 8 5 11q0 6 -5 13q-2 3 -5.5 9.5t-5.5 9.5q-7 11 -21 34t-21 34q-9 13 -25.5 40t-24.5 41q-13 22 -39 64q-15 25 -14 33q3 17 19 22q3 1 11 1h19h35q14 0 22 -13q4 -6 30 -47q4 -7 21.5 -35.5t27.5 -44.5q4 -7 13 -21.5t13 -21.5
q5 -7 13 -7t12 7q1 2 3.5 6t3.5 6q4 6 19.5 31t23.5 39l45 72q2 2 5 7.5t4 8.5q7 11 22 13h34h20q6 0 10 -1q17 -5 20 -21q1 -8 -4 -20q-15 -21 -26 -41q-8 -13 -23.5 -38t-23.5 -38t-24 -39.5t-24 -39.5q-5 -9 -15.5 -25.5t-15.5 -24.5t-5 -12q0 -2 5 -12q5 -8 15.5 -24.5
t15.5 -25.5q32 -52 48 -79q8 -13 23.5 -38t23.5 -37q8 -14 26 -42q5 -11 4 -20q-4 -17 -21 -21h-10h-19z" />
  </font>
</defs>
</svg>
