<?xml version="1.0" standalone="no"?>
<!DOCTYPE svg PUBLIC "-//W3C//DTD SVG 1.1//EN" "http://www.w3.org/Graphics/SVG/1.1/DTD/svg11.dtd" >
<svg xmlns="http://www.w3.org/2000/svg" xmlns:xlink="http://www.w3.org/1999/xlink" version="1.1">
<metadata>
Created by FontForge 20170731 at Mon Jul  4 09:39:28 2022
 By Aleksey,,,
Copyright (c) Olivier Gourvat - Mostardesign Studio, 2012. All rights reserved.
</metadata>
<defs>
<font id="SofiaPro" horiz-adv-x="1187" >
  <font-face 
    font-family="Sofia Pro"
    font-weight="400"
    font-stretch="normal"
    units-per-em="2048"
    panose-1="2 11 0 0 0 0 0 0 0 0"
    ascent="1536"
    descent="-512"
    x-height="956"
    cap-height="1411"
    bbox="-352 -514 2337 2234"
    underline-thickness="102"
    underline-position="-307"
    unicode-range="U+0020-FB04"
  />
<missing-glyph horiz-adv-x="1300" 
d="M164 0v1362h973v-1362h-973zM379 883h127q0 76 43 123t108 47t114.5 -42t49.5 -108q0 -60 -49 -102q-30 -34 -67 -43q-92 -28 -141.5 -79t-49.5 -147v-77h127v77q0 46 25.5 67.5t76.5 35.5q89 28 146 98t57 170q0 124 -84.5 200.5t-204.5 76.5q-117 0 -197.5 -82
t-80.5 -215zM485 268q0 -38 28 -63t67 -25q38 0 65 25t27 63t-27 63t-65 25q-39 0 -67 -25t-28 -63z" />
    <glyph glyph-name="f_f" unicode="ff" horiz-adv-x="1447" 
d="M1456 1477v-179h-104q-56 0 -93 -20t-54.5 -57.5t-24 -76t-6.5 -91.5v-97h221v-157h-221v-799h-189v799h-557v-799h-188v799h-185v157h185v97q0 198 90 311t276 113h105v-179h-105q-56 0 -93 -20t-54.5 -57.5t-24 -76t-6.5 -91.5v-97h557v97q0 198 90.5 311t276.5 113
h104z" />
    <glyph glyph-name="fi" unicode="fi" horiz-adv-x="1292" 
d="M956 0v799h-528v-799h-188v799h-185v157h185v97q0 198 90 311t276 113h105v-179h-105q-56 0 -93 -20t-54.5 -57.5t-24 -76t-6.5 -91.5v-97h713v-956h-185zM920 1309q0 53 37 87t92 34t92 -34t37 -87t-37 -87t-92 -34t-92 34t-37 87z" />
    <glyph glyph-name="fl" unicode="fl" horiz-adv-x="1261" 
d="M920 0v1298h-314q-56 0 -93 -20t-54.5 -57.5t-24 -76t-6.5 -91.5v-97h221v-157h-221v-799h-188v799h-185v157h185v97q0 198 90 311t276 113h500v-1477h-186z" />
    <glyph glyph-name="f_f_i" unicode="ffi" horiz-adv-x="2037" 
d="M1702 799h-528v-799h-189v799h-557v-799h-188v799h-185v157h185v97q0 198 90 311t276 113h105v-179h-105q-56 0 -93 -20t-54.5 -57.5t-24 -76t-6.5 -91.5v-97h557v97q0 198 90.5 311t276.5 113h104v-179h-104q-56 0 -93 -20t-54.5 -57.5t-24 -76t-6.5 -91.5v-97h712v-956
h-184v799zM1665 1309q0 53 37 87t92 34t92 -34t37 -87t-37 -87t-92 -34t-92 34t-37 87z" />
    <glyph glyph-name="f_f_l" unicode="ffl" horiz-adv-x="2007" 
d="M1665 0v1298h-313q-56 0 -93 -20t-54.5 -57.5t-24 -76t-6.5 -91.5v-97h221v-157h-221v-799h-189v799h-557v-799h-188v799h-185v157h185v97q0 198 90 311t276 113h105v-179h-105q-56 0 -93 -20t-54.5 -57.5t-24 -76t-6.5 -91.5v-97h557v97q0 198 90.5 311t276.5 113h499
v-1477h-186z" />
    <glyph glyph-name="f_f_j" unicode="ffj" horiz-adv-x="2021" 
d="M1399 -469v174h110q46 0 78.5 15t50.5 37t28 56t12.5 62.5t2.5 67.5v856h-507v-799h-189v799h-557v-799h-188v799h-185v157h185v97q0 198 90 311t276 113h105v-179h-105q-56 0 -93 -20t-54.5 -57.5t-24 -76t-6.5 -91.5v-97h557v97q0 198 90.5 311t276.5 113h104v-179
h-104q-56 0 -93 -20t-54.5 -57.5t-24 -76t-6.5 -91.5v-97h696v-1015q0 -410 -344 -410h-127zM1647 1309q0 53 37 87t92 34t92 -34t37 -87t-37 -87t-92 -34t-92 34t-37 87z" />
    <glyph glyph-name="f_j" unicode="fj" horiz-adv-x="1275" 
d="M653 -469v174h111q46 0 78.5 15t50.5 37t28 56t12.5 62.5t2.5 67.5v856h-508v-799h-188v799h-185v157h185v97q0 198 90 311t276 113h105v-179h-105q-56 0 -93 -20t-54.5 -57.5t-24 -76t-6.5 -91.5v-97h696v-1015q0 -410 -344 -410h-127zM901 1309q0 53 37 87t92 34
t92 -34t37 -87t-37 -87t-92 -34t-92 34t-37 87z" />
    <glyph glyph-name=".notdef" horiz-adv-x="1300" 
d="M164 0v1362h973v-1362h-973zM379 883h127q0 76 43 123t108 47t114.5 -42t49.5 -108q0 -60 -49 -102q-30 -34 -67 -43q-92 -28 -141.5 -79t-49.5 -147v-77h127v77q0 46 25.5 67.5t76.5 35.5q89 28 146 98t57 170q0 124 -84.5 200.5t-204.5 76.5q-117 0 -197.5 -82
t-80.5 -215zM485 268q0 -38 28 -63t67 -25q38 0 65 25t27 63t-27 63t-65 25q-39 0 -67 -25t-28 -63z" />
    <glyph glyph-name=".null" horiz-adv-x="0" 
 />
    <glyph glyph-name="nonmarkingreturn" horiz-adv-x="682" 
 />
    <glyph glyph-name="space" unicode=" " horiz-adv-x="532" 
 />
    <glyph glyph-name="space" unicode="&#xa0;" horiz-adv-x="532" 
 />
    <glyph glyph-name="exclam" unicode="!" horiz-adv-x="540" 
d="M362 1411l-18 -1032h-145l-21 1032h184zM135 106q0 55 39 92.5t94 37.5q56 0 95.5 -37.5t39.5 -92.5t-39.5 -90.5t-95.5 -35.5q-55 0 -94 35.5t-39 90.5z" />
    <glyph glyph-name="quotedbl" unicode="&#x22;" horiz-adv-x="727" 
d="M154 1411h145v-590h-145v590zM428 1411h145v-590h-145v590z" />
    <glyph glyph-name="numbersign" unicode="#" horiz-adv-x="1343" 
d="M1055 1055h215l-47 -174h-217l-99 -359h215l-47 -174h-215l-100 -348h-176l98 348h-219l-101 -348h-174l99 348h-213l47 174h213l96 359h-209l45 174h213l99 356h178l-99 -356h220l98 356h178zM608 881l-98 -359h219l98 359h-219z" />
    <glyph glyph-name="dollar" unicode="$" horiz-adv-x="1150" 
d="M643 -18v-226h-127v228q-185 24 -302.5 146t-117.5 278h191q0 -96 87 -173t216 -77q127 0 199 59.5t85 147.5q7 104 -62 166t-177 85l-182 46q-344 87 -344 368q0 161 117.5 268t289.5 125v205h127v-207q168 -21 272.5 -131t104.5 -276h-191q0 105 -74 168t-192 63
q-108 0 -186 -59.5t-78 -153.5q0 -147 201 -196l184 -45q202 -52 301 -164t76 -279q-18 -147 -129.5 -250.5t-288.5 -115.5z" />
    <glyph glyph-name="percent" unicode="%" horiz-adv-x="1396" 
d="M1090 1378l-674 -1378h-135l673 1378h136zM78 1104q0 116 78 195t194 79t195.5 -79.5t79.5 -194.5q0 -116 -79.5 -194.5t-195.5 -78.5q-117 0 -194.5 78t-77.5 195zM221 1104q0 -56 36.5 -92.5t92.5 -36.5q55 0 93 37t38 92q0 54 -38.5 92.5t-92.5 38.5q-55 0 -92 -38
t-37 -93zM774 252q0 116 78 195t195 79q115 0 194.5 -79t79.5 -195t-79 -194t-195 -78q-117 0 -195 77.5t-78 194.5zM918 252q0 -56 37 -92.5t92 -36.5t93 37t38 92q0 54 -38.5 92.5t-92.5 38.5q-55 0 -92 -38t-37 -93z" />
    <glyph glyph-name="ampersand" unicode="&#x26;" horiz-adv-x="1345" 
d="M580 864h276v183h176v-185h178v-149h-178v-281q0 -66 7.5 -110.5t29 -85.5t65.5 -61.5t111 -20.5v-172q-113 0 -196.5 41t-126.5 110q-53 -72 -147 -111.5t-202 -39.5q-201 0 -330.5 129t-129.5 321q0 116 55 213.5t154 159.5q-101 96 -101 254q0 147 107 249.5
t260 102.5q107 0 196 -54t144 -147l-152 -94q-31 55 -80 86t-108 31q-82 0 -135.5 -49.5t-53.5 -124.5q0 -76 52 -135.5t129 -59.5zM856 713h-281q-120 0 -202 -84.5t-82 -196.5q0 -118 78 -195t204 -77q120 0 199 74t84 186v293z" />
    <glyph glyph-name="quotesingle" unicode="'" horiz-adv-x="452" 
d="M154 1411h145v-590h-145v590z" />
    <glyph glyph-name="parenleft" unicode="(" horiz-adv-x="743" 
d="M100 475q0 439 153.5 695.5t408.5 256.5v-182q-177 0 -282.5 -208t-105.5 -562t105.5 -562t282.5 -208v-182q-255 0 -408.5 256.5t-153.5 695.5z" />
    <glyph glyph-name="parenright" unicode=")" horiz-adv-x="743" 
d="M643 475q0 -440 -153 -696t-408 -256v182q176 0 281.5 208.5t105.5 561.5t-105.5 561.5t-281.5 208.5v182q255 0 408 -256t153 -696z" />
    <glyph glyph-name="asterisk" unicode="*" horiz-adv-x="956" 
d="M324 717l-123 94l174 215l-269 76l27 78q3 13 12.5 37t12.5 34l256 -100l-17 276h162l-18 -276q33 12 260 100l47 -149l-266 -72l178 -221l-127 -88l-150 227z" />
    <glyph glyph-name="plus" unicode="+" horiz-adv-x="1062" 
d="M442 625v331h179v-331h331v-179h-331v-333h-179v333h-331v179h331z" />
    <glyph glyph-name="comma" unicode="," horiz-adv-x="526" 
d="M166 -258l-131 43q146 207 139 451h197q-11 -177 -70 -304.5t-135 -189.5z" />
    <glyph glyph-name="hyphen" unicode="-" horiz-adv-x="995" 
d="M141 567h713v-178h-713v178z" />
    <glyph glyph-name="period" unicode="." horiz-adv-x="544" 
d="M139 106q0 55 39 92.5t94 37.5q56 0 96 -37.5t40 -92.5t-39.5 -90.5t-96.5 -35.5q-55 0 -94 35.5t-39 90.5z" />
    <glyph glyph-name="slash" unicode="/" horiz-adv-x="1026" 
d="M963 1411l-697 -1411h-203l697 1411h203z" />
    <glyph glyph-name="zero" unicode="0" horiz-adv-x="1239" 
d="M135 666q0 100 9.5 184t31 163.5t58.5 140t89.5 106.5t128 70t169.5 24q112 0 197.5 -35.5t139 -96t87 -150.5t46.5 -187.5t13 -218.5q0 -120 -13 -217t-46.5 -186t-87 -149.5t-139 -96t-197.5 -35.5t-198 35.5t-140 96t-87.5 149.5t-47 186.5t-13.5 216.5zM319 666
q0 -87 8 -158.5t29 -137t54.5 -110t87 -70.5t123.5 -26t123 26t86.5 70.5t54.5 110t29 136.5t8 159t-8 159.5t-29 137.5t-54.5 110t-86.5 70t-123 26t-123.5 -26t-87 -70t-54.5 -109.5t-29 -137.5t-8 -160z" />
    <glyph glyph-name="one" unicode="1" horiz-adv-x="684" 
d="M303 0v1104l-217 -76v176l401 146v-1350h-184z" />
    <glyph glyph-name="two" unicode="2" horiz-adv-x="1079" 
d="M123 82l543 657q98 120 98 219q0 96 -68.5 153.5t-169.5 57.5q-94 0 -161 -56.5t-80 -154.5l-179 43q24 160 142.5 256.5t277.5 96.5q178 0 299 -111t121 -285q0 -185 -145 -346q-77 -89 -123.5 -144t-107.5 -128t-132 -156h510v-184h-825v82z" />
    <glyph glyph-name="three" unicode="3" horiz-adv-x="1095" 
d="M303 1051l-137 108q56 98 159.5 151t227.5 46q107 -5 193.5 -58.5t132.5 -136.5t43 -176q0 -35 -13 -82q-38 -121 -145 -182q99 -36 159 -143.5t52 -217.5q-17 -171 -159.5 -279.5t-330.5 -96.5q-132 10 -237 85t-160 193l162 88q32 -72 101.5 -125t148.5 -59h-2
q72 -5 137.5 23t107.5 80.5t45 115.5q4 96 -74.5 168t-183.5 72h-151v178h151q71 -1 122 42.5t63 110.5q15 86 -23 138q-49 67 -155 77q-146 11 -234 -120z" />
    <glyph glyph-name="four" unicode="4" horiz-adv-x="1212" 
d="M932 274v-274h-182v274h-697l742 1063h137v-888h192v-175h-192zM367 449h383v557z" />
    <glyph glyph-name="five" unicode="5" horiz-adv-x="1155" 
d="M98 285l158 86q39 -99 115 -156t172 -57q160 0 240.5 76t80.5 196q0 123 -79.5 189.5t-196.5 66.5q-85 0 -156 -24t-176 -87l-115 95l117 665h713v-176h-561l-74 -379q45 33 118 55.5t134 22.5q125 0 227 -47.5t165.5 -146.5t63.5 -234q0 -205 -138 -327.5t-363 -122.5
q-140 0 -262 83t-183 222z" />
    <glyph glyph-name="six" unicode="6" horiz-adv-x="1138" 
d="M1008 1096l-164 -70q-39 78 -100 116t-128 38q-139 0 -222.5 -133t-63.5 -334q60 151 274 151q119 0 216.5 -65t149 -169.5t48.5 -223.5q-8 -181 -139 -306t-310 -118q-179 8 -294 129.5t-132 328.5q-18 249 23 506q30 186 154.5 299t304.5 109q61 -2 111 -14.5t101 -40
t94.5 -78.5t76.5 -125zM328 434q0 -111 72 -186t178 -80q105 -4 179 67t79 179q4 109 -64 185t-174 81t-186 -67t-84 -179z" />
    <glyph glyph-name="seven" unicode="7" horiz-adv-x="1085" 
d="M1051 1337l-734 -1337h-215l637 1155h-612v182h924z" />
    <glyph glyph-name="eight" unicode="8" horiz-adv-x="1150" 
d="M219 1012q0 143 102 242.5t254 99.5q153 0 257 -100t104 -242q0 -141 -105 -236q98 -60 151.5 -153t53.5 -205q0 -183 -133 -309.5t-328 -126.5q-196 0 -328 126t-132 310q0 111 54 205.5t148 152.5q-98 95 -98 236zM299 418q0 -106 79.5 -180t196.5 -74t197 74t80 180
q0 105 -80.5 181.5t-196.5 76.5h-14q-112 -4 -187 -79t-75 -179zM401 1012q0 -66 46 -113t118 -51h17q73 4 121.5 51t48.5 113t-51 111.5t-126 45.5q-73 0 -123.5 -45.5t-50.5 -111.5z" />
    <glyph glyph-name="nine" unicode="9" horiz-adv-x="1136" 
d="M129 238l164 69q39 -78 99.5 -115.5t127.5 -37.5q140 0 222 132t65 335q-31 -78 -104 -115t-171 -37q-118 0 -215.5 65t-150 170.5t-47.5 223.5q8 181 138.5 306t309.5 118q179 -8 294 -130t132 -329q18 -253 -22 -506q-30 -184 -155 -299t-304 -108q-59 2 -109.5 14.5
t-102.5 40t-95.5 79t-75.5 124.5zM809 899q0 111 -72 186t-178 80q-105 4 -179 -66.5t-79 -178.5q-5 -109 63.5 -186t174.5 -81q106 -5 186 67t84 179z" />
    <glyph glyph-name="colon" unicode=":" horiz-adv-x="550" 
d="M141 106q0 55 39.5 92.5t95.5 37.5q55 0 94.5 -37.5t39.5 -92.5q0 -54 -39.5 -90t-94.5 -36q-56 0 -95.5 35.5t-39.5 90.5zM141 850q0 55 39.5 91t95.5 36q55 0 94.5 -36t39.5 -91t-39.5 -92t-94.5 -37q-56 0 -95.5 37t-39.5 92z" />
    <glyph glyph-name="semicolon" unicode=";" horiz-adv-x="581" 
d="M201 -258l-142 43q147 208 140 451h207q-11 -177 -70 -304.5t-135 -189.5zM170 850q0 55 38.5 91t94.5 36t95.5 -36t39.5 -91t-39.5 -92t-95.5 -37t-94.5 37t-38.5 92z" />
    <glyph glyph-name="less" unicode="&#x3c;" horiz-adv-x="1273" 
d="M1135 66l-1039 395v178l1039 397v-198l-781 -287l781 -291v-194z" />
    <glyph glyph-name="equal" unicode="=" horiz-adv-x="1245" 
d="M152 799h942v-178h-942v178zM152 403h942v-178h-942v178z" />
    <glyph glyph-name="greater" unicode="&#x3e;" horiz-adv-x="1271" 
d="M1176 461l-1037 -398v197l779 291l-779 287v198l1037 -397v-178z" />
    <glyph glyph-name="question" unicode="?" horiz-adv-x="989" 
d="M264 999h-176q0 192 117 310t287 118q172 0 295.5 -110.5t123.5 -288.5q0 -143 -84 -245.5t-211 -141.5q-74 -22 -109.5 -52.5t-35.5 -96.5l-4 -113h-180v113q0 137 70.5 210.5t203.5 114.5q66 15 117 78.5t51 132.5q0 96 -71 156.5t-166 60.5q-94 0 -161 -68t-67 -178z
M244 109q0 55 39.5 92t95.5 37t94.5 -37t38.5 -92t-38.5 -91t-94.5 -36t-95.5 36t-39.5 91z" />
    <glyph glyph-name="at" unicode="@" horiz-adv-x="1986" 
d="M1229 262v264q0 112 -76.5 188.5t-187.5 76.5t-188 -76.5t-77 -188.5q0 -109 77.5 -185.5t187.5 -76.5q104 0 202 98v-174q-96 -69 -202 -69q-168 0 -289 119.5t-121 287.5q0 171 121 290.5t289 119.5q166 0 282 -113q118 -112 127 -278v-297q0 -135 148 -135
q56 0 100 30t69.5 75.5t42 107t22 116t5.5 109.5q0 153 -62.5 288t-168.5 229t-248 148t-297 54q-154 0 -291.5 -59.5t-235.5 -161t-155 -240.5t-57 -293q0 -206 97 -377.5t266.5 -270.5t375.5 -99h47v-146h-47q-183 0 -347.5 70t-282 189.5t-186.5 284.5t-69 349t69 350
t186.5 286.5t282 191.5t347.5 71q247 0 458.5 -111t338.5 -310.5t127 -442.5q0 -76 -12 -153t-41.5 -155.5t-72 -138t-110.5 -97.5t-151 -38q-60 0 -110 15t-92.5 47.5t-66.5 91.5t-24 139z" />
    <glyph glyph-name="A" unicode="A" horiz-adv-x="1320" 
d="M428 530h467l-233 627zM961 358h-599l-137 -358h-202l536 1411h205l534 -1411h-200z" />
    <glyph glyph-name="B" unicode="B" horiz-adv-x="1286" 
d="M1108 1047q0 -64 -16 -119t-57.5 -104t-104.5 -72q75 -16 135 -72.5t89.5 -128.5t29.5 -143q0 -111 -48 -203t-143.5 -148.5t-222.5 -56.5h-577v1411h532q178 0 280.5 -98t102.5 -266zM385 825h340q90 0 139 62t49 153q0 92 -55.5 143.5t-152.5 51.5h-320v-410zM756 657
h-371v-479h377q101 0 163 68.5t62 163.5q0 93 -65.5 170t-165.5 77z" />
    <glyph glyph-name="C" unicode="C" horiz-adv-x="1398" 
d="M1206 344l144 -121q-96 -115 -234 -179t-301 -64q-147 0 -279.5 57t-228 153.5t-151.5 230t-56 281.5q0 147 56 281t151.5 231.5t228 155t279.5 57.5q161 0 298 -63t233 -176l-144 -119q-75 81 -174.5 127.5t-212.5 46.5q-146 0 -266.5 -72t-189 -196t-68.5 -273
t68.5 -272t189 -194.5t266.5 -71.5q117 0 217.5 47t173.5 133z" />
    <glyph glyph-name="D" unicode="D" horiz-adv-x="1482" 
d="M739 0h-546v1411h546q147 0 268 -54.5t200.5 -150t123 -225t43.5 -279.5t-43.5 -278.5t-123.5 -222.5t-200.5 -147.5t-267.5 -53.5zM383 178h356q107 0 192.5 40t140 111t83.5 166t29 207q0 151 -49 269.5t-151.5 190t-244.5 71.5h-356v-1055z" />
    <glyph glyph-name="E" unicode="E" horiz-adv-x="1157" 
d="M193 1411h835v-178h-645v-451h563v-178h-563v-426h666v-178h-856v1411z" />
    <glyph glyph-name="F" unicode="F" horiz-adv-x="1077" 
d="M193 1411h823v-178h-633v-451h502v-178h-502v-604h-190v1411z" />
    <glyph glyph-name="G" unicode="G" horiz-adv-x="1548" 
d="M1290 1241l-137 -127q-147 131 -340 131q-145 0 -265 -73t-188.5 -197.5t-68.5 -272.5t68.5 -272t188.5 -196t265 -72q192 0 318 103.5t133 277.5h-402v166h619q0 -363 -178 -546t-490 -183q-197 0 -361 96.5t-258 262t-94 363.5q0 197 94 363.5t258 264t361 97.5
q138 0 260.5 -49t216.5 -137z" />
    <glyph glyph-name="H" unicode="H" horiz-adv-x="1449" 
d="M1257 1411v-1411h-192v614h-682v-614h-190v1411h190v-623h682v623h192z" />
    <glyph glyph-name="I" unicode="I" horiz-adv-x="575" 
d="M193 1411h190v-1411h-190v1411z" />
    <glyph glyph-name="J" unicode="J" horiz-adv-x="575" 
d="M-205 -492l19 181q20 -7 68.5 -12t66.5 -5q85 0 141.5 38.5t79.5 97.5t23 137v1466h190v-1466q0 -77 -14.5 -143.5t-47.5 -125t-82 -100.5t-123 -66t-167 -24q-46 0 -154 22z" />
    <glyph glyph-name="K" unicode="K" horiz-adv-x="1183" 
d="M543 707l655 -707h-256l-559 602v-602h-190v1411h190v-610l467 610h235z" />
    <glyph glyph-name="L" unicode="L" horiz-adv-x="1013" 
d="M193 1411h190v-1233h575v-178h-765v1411z" />
    <glyph glyph-name="M" unicode="M" horiz-adv-x="1912" 
d="M956 375l498 1036h174l172 -1411h-188l-129 1061l-441 -905h-168l-444 905l-129 -1061h-188l172 1411h174z" />
    <glyph glyph-name="N" unicode="N" horiz-adv-x="1400" 
d="M1208 0h-182l-643 1063v-1063h-190v1411h188l637 -1055v1055h190v-1411z" />
    <glyph glyph-name="O" unicode="O" horiz-adv-x="1630" 
d="M100 702q0 197 94 363.5t258 264t361 97.5q198 0 363 -97.5t259.5 -264t94.5 -363.5q0 -198 -94.5 -363.5t-259.5 -262t-363 -96.5q-197 0 -361 96.5t-258 262t-94 363.5zM291 702q0 -148 68.5 -271.5t188.5 -195t265 -71.5q146 0 266.5 71.5t189 194.5t68.5 272
t-68.5 273t-189 196t-266.5 72q-145 0 -265 -72t-188.5 -196t-68.5 -273z" />
    <glyph glyph-name="P" unicode="P" horiz-adv-x="1241" 
d="M193 1411h563q108 0 191 -37.5t131.5 -101t73 -140.5t24.5 -163t-24.5 -162.5t-73 -140t-131.5 -101t-191 -37.5h-371v-528h-192v1411zM754 1233h-369v-526h358q82 0 138.5 39t80 96.5t23.5 126.5q0 68 -22.5 126t-76.5 98t-132 40z" />
    <glyph glyph-name="Q" unicode="Q" horiz-adv-x="1630" 
d="M1194 88l147 -233l-147 -91l-158 250q-106 -34 -223 -34q-197 0 -361 96.5t-258 262t-94 363.5q0 197 94 363.5t258 264t361 97.5q198 0 363 -97.5t259.5 -264t94.5 -363.5q0 -191 -90.5 -352.5t-245.5 -261.5zM934 506l160 -258q114 73 178.5 191.5t64.5 262.5
q0 149 -68.5 273t-189 196t-266.5 72q-145 0 -265 -72t-188.5 -196t-68.5 -273q0 -214 138 -366t347 -164q88 -6 156 8l-144 234z" />
    <glyph glyph-name="R" unicode="R" horiz-adv-x="1267" 
d="M784 535l377 -535h-231l-365 528h-180v-528h-192v1411h542q107 0 190 -37.5t131 -101t72.5 -140.5t24.5 -163q0 -81 -21 -153t-64 -133t-115.5 -100.5t-168.5 -47.5zM729 1233h-344v-526h336q62 0 109 22t73.5 60t39.5 83.5t13 96.5q0 69 -21.5 126.5t-74.5 97.5t-131 40
z" />
    <glyph glyph-name="S" unicode="S" horiz-adv-x="1173" 
d="M106 408h191q0 -96 87 -173t216 -77q127 0 199.5 60t85.5 147q4 55 -14.5 99t-54.5 73t-78 48t-93 31l-182 46q-344 87 -344 368q0 115 64 207t168 141t224 49q196 0 325.5 -113t129.5 -300h-190q0 105 -74.5 168t-192.5 63q-108 0 -186 -59.5t-78 -153.5
q0 -147 201 -196l184 -45q202 -52 301 -164t76 -279q-21 -161 -145 -264.5t-326 -103.5q-105 0 -198 36t-157 95t-101.5 137t-37.5 160z" />
    <glyph glyph-name="T" unicode="T" horiz-adv-x="1163" 
d="M57 1411h1049v-180h-428v-1231h-193v1231h-428v180z" />
    <glyph glyph-name="U" unicode="U" horiz-adv-x="1388" 
d="M694 164q135 0 229.5 88.5t94.5 232.5v926h192v-926q0 -112 -42 -208t-112.5 -160.5t-164.5 -100.5t-197 -36q-141 0 -258 61.5t-187.5 178t-70.5 265.5v926h193v-926q0 -144 94 -232.5t229 -88.5z" />
    <glyph glyph-name="V" unicode="V" horiz-adv-x="1150" 
d="M256 1411l319 -1089l320 1089h197l-424 -1411h-183l-428 1411h199z" />
    <glyph glyph-name="W" unicode="W" horiz-adv-x="1845" 
d="M1610 1411h205l-478 -1411h-166l-249 881l-248 -881h-166l-477 1411h205l354 -1104l260 914h145l260 -914z" />
    <glyph glyph-name="X" unicode="X" horiz-adv-x="1259" 
d="M743 758l494 -758h-229l-379 600l-379 -600h-227l491 758l-438 653h229l324 -498l325 498h230z" />
    <glyph glyph-name="Y" unicode="Y" horiz-adv-x="1286" 
d="M741 0h-196v649l-535 762h228l405 -571l410 571h229l-541 -762v-649z" />
    <glyph glyph-name="Z" unicode="Z" horiz-adv-x="1173" 
d="M86 166l745 1065h-716v180h958v-166l-749 -1065h749v-180h-987v166z" />
    <glyph glyph-name="bracketleft" unicode="[" horiz-adv-x="669" 
d="M172 -465v1876h412v-170h-228v-1536h228v-170h-412z" />
    <glyph glyph-name="backslash" unicode="\" horiz-adv-x="1026" 
d="M760 0l-697 1411h203l697 -1411h-203z" />
    <glyph glyph-name="bracketright" unicode="]" horiz-adv-x="669" 
d="M498 1411v-1876h-412v170h227v1536h-227v170h412z" />
    <glyph glyph-name="underscore" unicode="_" horiz-adv-x="1431" 
d="M141 -57h1149v-166h-1149v166z" />
    <glyph glyph-name="grave" unicode="`" horiz-adv-x="1048" 
d="M508 1135l-244 315h223l199 -315h-178z" />
    <glyph glyph-name="a" unicode="a" horiz-adv-x="1253" 
d="M913 0v147q-46 -77 -139 -122t-196 -45q-202 0 -344 139t-142 360q0 148 67 263t177 175t242 60q104 0 195.5 -42.5t139.5 -121.5v143h185v-956h-185zM911 481q0 145 -95.5 229.5t-221.5 84.5q-132 0 -221.5 -87.5t-89.5 -226.5t90 -229t221 -90q133 0 225 86t92 233z
" />
    <glyph glyph-name="b" unicode="b" horiz-adv-x="1253" 
d="M342 147v-147h-186v1477h186v-664q46 79 137 121.5t199 42.5q133 0 242 -60t175 -175t66 -263q0 -147 -67 -262.5t-177 -176t-241 -60.5q-103 0 -195.5 44.5t-138.5 122.5zM344 481q0 -147 92.5 -233t225.5 -86q131 0 220 90t89 229t-89 226.5t-220 87.5
q-60 0 -116 -20.5t-101.5 -59t-73 -99.5t-27.5 -135z" />
    <glyph glyph-name="c" unicode="c" horiz-adv-x="1048" 
d="M92 481q0 147 70 261.5t184.5 174.5t251.5 60q110 0 205.5 -40t163.5 -114l-142 -118q-90 90 -227 90q-134 0 -228 -87t-94 -227q0 -139 95 -230t227 -91q136 0 227 94l144 -119q-68 -74 -164.5 -114.5t-206.5 -40.5q-136 0 -251 61t-185 177t-70 263z" />
    <glyph glyph-name="d" unicode="d" horiz-adv-x="1253" 
d="M911 0v147q-46 -77 -139.5 -122t-196.5 -45q-131 0 -240.5 60.5t-176 176t-66.5 262.5q0 148 66 263t174.5 175t240.5 60q110 0 201 -42.5t137 -121.5v664h187v-1477h-187zM909 481q0 145 -95.5 229.5t-221.5 84.5q-131 0 -220 -87.5t-89 -226.5t89 -229t220 -90
q133 0 225 86t92 233z" />
    <glyph glyph-name="e" unicode="e" horiz-adv-x="1138" 
d="M279 553h593q-17 121 -94.5 188.5t-195.5 67.5q-120 0 -203 -68t-100 -188zM1057 481q0 -50 -2 -73h-776q17 -121 101 -191t208 -70q88 0 160.5 38.5t113.5 109.5q25 -12 80 -31.5t80 -30.5q-60 -124 -177.5 -188.5t-262.5 -64.5q-208 0 -349 139t-141 362
q0 222 140.5 359t349.5 137q207 0 341 -136t134 -360z" />
    <glyph glyph-name="f" unicode="f" horiz-adv-x="702" 
d="M711 1477v-179h-105q-56 0 -93 -20t-54.5 -57.5t-24 -76t-6.5 -91.5v-97h221v-157h-221v-799h-188v799h-185v157h185v97q0 198 90 311t276 113h105z" />
    <glyph glyph-name="g" unicode="g" horiz-adv-x="1251" 
d="M299 -137q41 -77 117.5 -120.5t158.5 -43.5q340 0 340 434q0 4 -1 11.5t-1 11.5q-43 -83 -136 -129.5t-199 -46.5q-132 0 -242 59.5t-177 174t-67 261.5t67 263t177.5 177.5t241.5 61.5q103 0 195 -45t140 -125v149h185v-811q0 -622 -523 -622q-136 0 -250 66.5
t-182 191.5q6 3 42.5 23t69.5 37.5t44 21.5zM911 477q0 148 -91.5 233t-225.5 85q-131 0 -221 -90t-90 -228q0 -144 89 -229.5t222 -85.5q126 0 221.5 85t95.5 230z" />
    <glyph glyph-name="h" unicode="h" 
d="M342 516v-516h-186v1477h186v-664q38 79 132 121.5t183 42.5q182 0 285 -111.5t102 -312.5v-553h-186v541q0 117 -62.5 185.5t-162.5 68.5q-52 0 -101 -15.5t-93 -46.5t-70.5 -87.5t-26.5 -129.5z" />
    <glyph glyph-name="i" unicode="i" horiz-adv-x="495" 
d="M340 956v-956h-184v956h184zM119 1309q0 53 37 87t92 34t92 -34t37 -87t-37 -87t-92 -34t-92 34t-37 87z" />
    <glyph glyph-name="j" unicode="j" horiz-adv-x="499" 
d="M-127 -469v174h111q46 0 78.5 15t50.5 37t28 56t12.5 62.5t2.5 67.5v1013h188v-1015q0 -410 -344 -410h-127zM121 1309q0 53 37 87t92 34t92 -34t37 -87t-37 -87t-92 -34t-92 34t-37 87z" />
    <glyph glyph-name="k" unicode="k" horiz-adv-x="1028" 
d="M340 467v-467h-184v1477h184v-854l330 333h254l-410 -413l508 -543h-246z" />
    <glyph glyph-name="l" unicode="l" horiz-adv-x="497" 
d="M156 1477h186v-1477h-186v1477z" />
    <glyph glyph-name="m" unicode="m" horiz-adv-x="1804" 
d="M1255 795q-116 0 -185 -78.5t-69 -200.5v-516h-186v543q0 117 -56 184.5t-151 67.5q-111 0 -188.5 -69.5t-77.5 -209.5v-516h-186v956h186v-143q33 72 112.5 113t151.5 47q56 3 105 -6q181 -27 250 -187q102 197 331 197q179 0 274 -110t95 -314v-553h-186v541
q0 119 -58 186.5t-162 67.5z" />
    <glyph glyph-name="n" unicode="n" horiz-adv-x="1153" 
d="M342 516v-516h-186v956h186v-143q38 80 124.5 122t174.5 42q179 0 274 -110t95 -314v-553h-187v541q0 121 -56 187.5t-155 66.5q-53 0 -99.5 -15.5t-85.5 -47.5t-62 -87.5t-23 -128.5z" />
    <glyph glyph-name="o" unicode="o" horiz-adv-x="1185" 
d="M592 -20q-136 0 -249.5 61t-182 177t-68.5 263t68.5 261.5t181.5 174.5t250 60t250.5 -60t182.5 -174.5t69 -261.5t-69 -263t-183 -177t-250 -61zM592 160q132 0 223.5 88.5t91.5 232.5q0 141 -91.5 227.5t-223.5 86.5q-134 0 -225 -86.5t-91 -227.5q0 -144 91 -232.5
t225 -88.5z" />
    <glyph glyph-name="p" unicode="p" horiz-adv-x="1247" 
d="M342 956v-149q48 80 139 125t195 45q201 0 340 -140t139 -362q0 -147 -65.5 -261.5t-173.5 -174t-240 -59.5q-105 0 -195.5 42t-138.5 121v-608h-186v1421h186zM344 473q0 -145 94 -228t219 -83q132 0 221 86t89 225q0 141 -89.5 231.5t-220.5 90.5t-222 -87.5
t-91 -234.5z" />
    <glyph glyph-name="q" unicode="q" horiz-adv-x="1247" 
d="M905 807v149h187v-1421h-187v608q-45 -81 -136 -122t-198 -41q-132 0 -240 59.5t-173.5 174t-65.5 261.5q0 222 139 362t340 140q103 0 195.5 -45.5t138.5 -124.5zM905 473q0 147 -91 234.5t-224 87.5q-131 0 -219 -90.5t-88 -231.5q0 -140 87.5 -225.5t219.5 -85.5
q80 0 150 34t117.5 106.5t47.5 170.5z" />
    <glyph glyph-name="r" unicode="r" horiz-adv-x="808" 
d="M342 348v-348h-186v956h186v-215q68 236 266 236q49 0 96.5 -11.5t69.5 -25.5l-29 -174q-67 33 -141 33q-89 0 -149 -61t-86.5 -160t-26.5 -230z" />
    <glyph glyph-name="s" unicode="s" horiz-adv-x="899" 
d="M504 391l-131 31q-138 37 -203 110t-53 201q12 104 107.5 174t224.5 70q63 0 118 -15t101.5 -46.5t76 -84.5t35.5 -124h-178q-7 52 -49 80t-100 28q-54 0 -93.5 -24t-50.5 -62q-12 -47 2 -76q22 -47 113 -73l141 -35q248 -62 248 -279q0 -130 -107.5 -208t-263.5 -78
q-88 0 -167 34.5t-132.5 106.5t-56.5 166h170q11 -76 78 -109q62 -39 151 -33q66 5 105.5 38t40.5 87q1 50 -33 79t-94 42z" />
    <glyph glyph-name="t" unicode="t" horiz-adv-x="671" 
d="M414 956h202v-157h-202v-799h-187v799h-172v157h172v361h187v-361z" />
    <glyph glyph-name="u" unicode="u" horiz-adv-x="1150" 
d="M809 440v516h186v-956h-186v143q-41 -80 -125.5 -121.5t-171.5 -41.5q-180 0 -275.5 110t-93.5 313v553h187v-540q0 -121 55 -187.5t154 -66.5q53 0 99.5 15t85.5 46.5t62 87t23 129.5z" />
    <glyph glyph-name="v" unicode="v" horiz-adv-x="1044" 
d="M35 956h196l291 -718l289 718h199l-400 -956h2h-180z" />
    <glyph glyph-name="w" unicode="w" horiz-adv-x="1617" 
d="M1221 0h-154l-260 702l-252 -702h-152l-364 956h199l239 -669l240 669h180l240 -669l239 669h199z" />
    <glyph glyph-name="x" unicode="x" horiz-adv-x="1024" 
d="M92 956h223l197 -280l199 280h223l-313 -432l378 -524h-221l-266 371l-268 -371h-219l378 524z" />
    <glyph glyph-name="y" unicode="y" horiz-adv-x="1042" 
d="M414 -465h-195l201 494l-383 927h199l286 -692l287 692h199z" />
    <glyph glyph-name="z" unicode="z" horiz-adv-x="1028" 
d="M928 956v-153l-580 -625h580v-178h-842v154l569 624h-536v178h809z" />
    <glyph glyph-name="braceleft" unicode="{" horiz-adv-x="819" 
d="M381 293v-356q0 -99 65 -169.5t156 -70.5h137v-162h-131q-171 0 -287 110.5t-116 291.5v356q0 42 -37 73t-88 31v166q51 0 88 31.5t37 73.5v360q0 180 116 289.5t287 109.5h131v-161h-137q-91 0 -156 -69.5t-65 -168.5v-360q0 -57 -26.5 -110.5t-73.5 -78.5
q44 -24 72 -77.5t28 -108.5z" />
    <glyph glyph-name="bar" unicode="|" horiz-adv-x="471" 
d="M299 1628v-1872h-127v1872h127z" />
    <glyph glyph-name="braceright" unicode="}" horiz-adv-x="819" 
d="M438 -63v356q0 55 28.5 108.5t72.5 77.5q-47 25 -74 78.5t-27 110.5v360q0 99 -65 168.5t-156 69.5h-137v161h131q171 0 287 -109.5t116 -289.5v-360q0 -42 37 -73.5t88 -31.5v-166q-51 0 -88 -31t-37 -73v-356q0 -181 -116 -291.5t-287 -110.5h-131v162h137
q91 0 156 70.5t65 169.5z" />
    <glyph glyph-name="exclamdown" unicode="&#xa1;" horiz-adv-x="493" 
d="M319 578l19 -1043h-184l20 1043h145zM111 850q0 55 39 91t94 36q56 0 95.5 -36t39.5 -91t-39.5 -92t-95.5 -37q-55 0 -94 37t-39 92z" />
    <glyph glyph-name="cent" unicode="&#xa2;" horiz-adv-x="1087" 
d="M514 -240v228q-179 30 -295.5 163.5t-116.5 329.5q0 194 116.5 326t295.5 162v217h127v-211q99 -4 185.5 -44t150.5 -108l-141 -118q-90 90 -228 90q-134 0 -227.5 -86.5t-93.5 -227.5q0 -139 94.5 -230t226.5 -91q137 0 228 94l143 -119q-128 -140 -338 -153v-222h-127z
" />
    <glyph glyph-name="sterling" unicode="&#xa3;" horiz-adv-x="1294" 
d="M287 713v315q0 119 59.5 211.5t154.5 140t206 47.5q170 0 286.5 -118t116.5 -310h-184q0 89 -41.5 151t-106.5 81q-57 15 -92 8q-87 -5 -152 -63t-65 -148v-315h313v-125h-313v-404h500q35 0 35 45v117h184v-100q0 -108 -50.5 -177t-146.5 -69h-893v184h189v404h-156v125
h156z" />
    <glyph glyph-name="currency" unicode="&#xa4;" horiz-adv-x="1249" 
d="M399 694q0 -94 66 -159.5t160 -65.5q93 0 160 66t67 159q0 92 -67.5 160t-159.5 68q-93 0 -159.5 -67.5t-66.5 -160.5zM403 362l-143 -145l-113 113l144 145q-66 97 -66 219q0 121 68 221l-146 146l113 113l146 -146q95 68 219 68q121 0 221 -68l143 146l113 -113
l-144 -146q68 -104 68 -221q0 -124 -68 -219l144 -145l-113 -113l-143 145q-98 -67 -221 -67q-124 0 -222 67z" />
    <glyph glyph-name="yen" unicode="&#xa5;" horiz-adv-x="1406" 
d="M799 518v-160h375v-131h-375v-227h-197v227h-371v131h371v160h-371v131h371l-534 762h227l405 -571l410 571h229l-540 -762h375v-131h-375z" />
    <glyph glyph-name="brokenbar" unicode="&#xa6;" horiz-adv-x="479" 
d="M176 829v799h127v-799h-127zM303 551v-795h-127v795h127z" />
    <glyph glyph-name="section" unicode="&#xa7;" horiz-adv-x="1056" 
d="M309 1006v-328q0 -100 66 -160.5t162 -60.5q60 0 114 22v-182q-66 -16 -114 -16q-171 0 -287.5 109.5t-116.5 287.5v328q0 180 116.5 289.5t287.5 109.5q130 0 235 -75t152 -204l-168 -49q-31 72 -89 112t-130 40q-95 0 -161.5 -61.5t-66.5 -161.5zM748 160v327
q0 100 -66.5 161t-161.5 61q-52 0 -110 -23v182q63 17 110 17q171 0 287.5 -110t116.5 -288v-327q0 -180 -116.5 -290t-287.5 -110q-130 0 -235 75t-152 204l168 49q31 -72 89 -111.5t130 -39.5q95 0 161.5 61.5t66.5 161.5z" />
    <glyph glyph-name="dieresis" unicode="&#xa8;" horiz-adv-x="1091" 
d="M246 1290q0 53 36 87t91 34q52 0 88.5 -34t36.5 -87t-36.5 -87t-88.5 -34q-55 0 -91 34t-36 87zM592 1290q0 53 36 87t91 34t91 -34t36 -87t-36 -87t-91 -34t-91 34t-36 87z" />
    <glyph glyph-name="copyright" unicode="&#xa9;" horiz-adv-x="1656" 
d="M1024 557l92 -102q-60 -63 -133.5 -98t-148.5 -35q-155 0 -262 108t-107 262t107 261.5t262 107.5q151 0 280 -135l-94 -97q-95 95 -186 95q-97 0 -163.5 -68.5t-66.5 -163.5q0 -97 66 -165t164 -68q92 0 190 98zM113 702q0 197 94.5 363.5t259 264t360.5 97.5
q147 0 280 -57.5t228.5 -155t152 -231.5t56.5 -281q0 -148 -56.5 -281.5t-152 -230t-228.5 -153.5t-280 -57t-279.5 57t-227.5 153.5t-151 230t-56 281.5zM238 702q0 -121 46.5 -231t125 -190t187.5 -127.5t230 -47.5q161 0 297 80t214.5 217t78.5 299q0 163 -78.5 300.5
t-214.5 217.5t-297 80q-121 0 -230 -47.5t-187.5 -127.5t-125 -190.5t-46.5 -232.5z" />
    <glyph glyph-name="ordfeminine" unicode="&#xaa;" horiz-adv-x="1034" 
d="M725 666v102q-31 -55 -96 -86t-137 -31q-142 0 -241 97t-99 253t99 252.5t241 96.5q73 0 137.5 -30t95.5 -85v100h129v-669h-129zM725 1004q0 100 -67.5 159.5t-155.5 59.5q-94 0 -155.5 -60.5t-61.5 -158.5q0 -99 62 -162.5t155 -63.5t158 62t65 164zM201 440v103h645
v-103h-645z" />
    <glyph glyph-name="guillemotleft" unicode="&#xab;" horiz-adv-x="1001" 
d="M94 477l283 424h162l-283 -424l283 -424h-162zM455 477l282 424h162l-283 -424l283 -424h-162z" />
    <glyph glyph-name="logicalnot" unicode="&#xac;" horiz-adv-x="1312" 
d="M1153 735v-493h-178v315h-823v178h1001z" />
    <glyph glyph-name="registered" unicode="&#xae;" horiz-adv-x="1656" 
d="M938 598l184 -260h-172l-180 250h-47v-250h-141v723h280q112 0 173 -70.5t61 -167.5q0 -80 -39 -141.5t-119 -83.5zM862 922h-139v-195h135q45 0 71.5 28.5t26.5 67.5q0 40 -26 69.5t-68 29.5zM113 702q0 197 94.5 363.5t259 264t360.5 97.5q147 0 280 -57.5t228.5 -155
t152 -231.5t56.5 -281q0 -148 -56.5 -281.5t-152 -230t-228.5 -153.5t-280 -57t-279.5 57t-227.5 153.5t-151 230t-56 281.5zM238 702q0 -121 46.5 -231t125 -190t187.5 -127.5t230 -47.5q161 0 297 80t214.5 217t78.5 299q0 163 -78.5 300.5t-214.5 217.5t-297 80
q-121 0 -230 -47.5t-187.5 -127.5t-125 -190.5t-46.5 -232.5z" />
    <glyph glyph-name="macron" unicode="&#xaf;" horiz-adv-x="1007" 
d="M246 1352h516v-164h-516v164z" />
    <glyph glyph-name="degree" unicode="&#xb0;" horiz-adv-x="757" 
d="M111 1159q0 110 79 189t189 79t189 -79t79 -189t-79 -189t-189 -79t-189 79t-79 189zM252 1159q0 -54 36.5 -90.5t90.5 -36.5t90.5 36.5t36.5 90.5t-36.5 90.5t-90.5 36.5t-90.5 -36.5t-36.5 -90.5z" />
    <glyph glyph-name="plusminus" unicode="&#xb1;" horiz-adv-x="1110" 
d="M465 745v293h178v-293h326v-178h-326v-297h-178v297h-324v178h324zM969 0h-828v168h828v-168z" />
    <glyph glyph-name="twosuperior" unicode="&#xb2;" horiz-adv-x="655" 
d="M76 938l323 391q56 70 56 125q0 54 -39.5 89.5t-96.5 35.5q-55 0 -95 -36t-50 -97l-108 29q17 101 87.5 161t165.5 60q107 0 180.5 -68t73.5 -174q0 -115 -88 -209l-206 -244h296v-120h-499v57z" />
    <glyph glyph-name="threesuperior" unicode="&#xb3;" horiz-adv-x="655" 
d="M178 1511l-82 66q36 58 97.5 89.5t134.5 27.5q97 -4 161.5 -69.5t59.5 -151.5q0 -26 -6 -50q-21 -71 -88 -110q62 -24 97 -85.5t30 -129.5q-7 -103 -94 -169.5t-199 -58.5q-78 6 -142.5 52t-97.5 116l98 54q20 -43 61 -75t89 -36h-2q66 -5 120 34t54 97q2 57 -44.5 100
t-109.5 43h-92v107h92q42 0 72.5 26.5t38.5 65.5q11 48 -14 82q-12 20 -37.5 32.5t-55.5 14.5q-87 8 -141 -72z" />
    <glyph glyph-name="acute" unicode="&#xb4;" horiz-adv-x="1048" 
d="M686 1450l-244 -315h-178l199 315h223z" />
    <glyph glyph-name="mu" unicode="&#xb5;" horiz-adv-x="1136" 
d="M170 -313v1269h186v-553q0 -112 49 -175.5t140 -63.5q51 0 97 15t86 46t63.5 85.5t23.5 125.5v520h186v-956h-186v117q-42 -65 -118.5 -100t-151.5 -35q-128 0 -189 61v-356h-186z" />
    <glyph glyph-name="paragraph" unicode="&#xb6;" horiz-adv-x="1333" 
d="M666 1411v-1526h-170v637q-177 12 -300.5 139.5t-123.5 305.5q0 185 129 314.5t315 129.5h150zM784 1411h191q115 0 197.5 -82.5t82.5 -198.5v-174h-168v174q0 43 -26 76t-66 33h-41v-1339q0 -105 -84 -191t-196 -90h-180v156h180q42 0 76 28t34 66v1542z" />
    <glyph glyph-name="periodcentered" unicode="&#xb7;" horiz-adv-x="550" 
d="M141 514q0 55 39 92t94 37q56 0 96 -37t40 -92t-40 -91t-96 -36q-55 0 -94 36t-39 91z" />
    <glyph glyph-name="cedilla" unicode="&#xb8;" horiz-adv-x="1069" 
d="M465 -240q14 -31 42.5 -44t59.5 -3q30 13 41.5 45t-0.5 64l-88 246h101l104 -195q16 -35 16 -86q0 -61 -34 -111.5t-95 -76.5q-43 -17 -80 -17q-60 0 -109 35t-75 96q-20 44 -20 101l131 -9v-16q0 -17 6 -29z" />
    <glyph glyph-name="onesuperior" unicode="&#xb9;" horiz-adv-x="425" 
d="M193 881v624l-140 -71v116l262 144v-813h-122z" />
    <glyph glyph-name="ordmasculine" unicode="&#xba;" horiz-adv-x="1017" 
d="M508 651q-147 0 -248.5 98t-101.5 255q0 154 101.5 250t248.5 96q146 0 249 -96t103 -250q0 -157 -103 -255t-249 -98zM508 778q95 0 158 62t63 164q0 97 -64 158t-157 61t-157 -61t-64 -158q0 -102 63 -164t158 -62zM174 440v103h678v-103h-678z" />
    <glyph glyph-name="guillemotright" unicode="&#xbb;" horiz-adv-x="1001" 
d="M907 477l-282 -424h-162l282 424l-282 424h162zM547 477l-283 -424h-162l283 424l-283 424h162z" />
    <glyph glyph-name="onequarter" unicode="&#xbc;" horiz-adv-x="1501" 
d="M334 553h-109v664l-131 -46v105l240 86v-809zM1192 604l-231 -336h231v336zM1417 164h-117v-164h-108v164h-418l445 639h81v-535h117v-104zM1221 1372l-922 -1392h-139l923 1392h138z" />
    <glyph glyph-name="onehalf" unicode="&#xbd;" horiz-adv-x="1579" 
d="M336 553h-109v664l-131 -46v105l240 86v-809zM979 0v49l326 395q59 72 59 131q0 58 -43.5 92.5t-106.5 34.5q-57 0 -97.5 -34t-47.5 -93l-100 27q17 97 87 154t165 57q106 0 179 -67t73 -171q0 -105 -89 -208q-136 -159 -217 -256h308v-111h-496zM1217 1372l-922 -1392
h-139l923 1392h138z" />
    <glyph glyph-name="threequarters" unicode="&#xbe;" horiz-adv-x="1662" 
d="M1122 268l232 336v-336h-232zM1462 164h117v104h-117v535h-82l-444 -639h418v-164h108v164zM213 1184l-82 65q33 58 95 89.5t136 27.5q97 -8 161.5 -71.5t60.5 -149.5q0 -47 -26 -91t-69 -69q60 -24 96 -86t31 -129q-7 -103 -93.5 -169t-200.5 -58q-78 6 -142.5 52
t-95.5 116l96 51q19 -43 61.5 -75t90.5 -36h-2q66 -5 118 34t56 99q4 57 -43.5 100.5t-110.5 43.5h-92v106h92q43 0 73 25.5t38 66.5q10 53 -21 88t-88 43q-84 8 -139 -73zM479 -20l922 1392h-137l-924 -1392h139z" />
    <glyph glyph-name="questiondown" unicode="&#xbf;" horiz-adv-x="966" 
d="M715 -49h176q0 -192 -117 -310t-287 -118q-172 0 -295.5 110.5t-123.5 288.5q0 143 83.5 245.5t210.5 141.5q74 22 110 53t36 97l4 121h180v-121q0 -138 -71 -211.5t-203 -114.5q-68 -21 -118 -80.5t-50 -130.5q0 -96 71 -156.5t166 -60.5q94 0 161 68t67 178zM735 850
q0 -55 -39.5 -92t-95.5 -37t-94.5 37t-38.5 92t38.5 91t94.5 36t95.5 -36t39.5 -91z" />
    <glyph glyph-name="Agrave" unicode="&#xc0;" horiz-adv-x="1320" 
d="M428 530h467l-233 627zM961 358h-599l-137 -358h-202l536 1411h205l534 -1411h-200zM584 1589l-244 316h223l199 -316h-178z" />
    <glyph glyph-name="Aacute" unicode="&#xc1;" horiz-adv-x="1320" 
d="M428 530h467l-233 627zM961 358h-599l-137 -358h-202l536 1411h205l534 -1411h-200zM987 1905l-244 -316h-178l199 316h223z" />
    <glyph glyph-name="Acircumflex" unicode="&#xc2;" horiz-adv-x="1320" 
d="M428 530h467l-233 627zM961 358h-599l-137 -358h-202l536 1411h205l534 -1411h-200zM813 1589l-154 178l-151 -178h-168l225 316h191l225 -316h-168z" />
    <glyph glyph-name="Atilde" unicode="&#xc3;" horiz-adv-x="1320" 
d="M428 530h467l-233 627zM961 358h-599l-137 -358h-202l536 1411h205l534 -1411h-200zM567 1704q-21 0 -37.5 -22t-17.5 -68h-125q7 124 59 181.5t121 57.5q26 0 51 -9t34.5 -15.5t33.5 -24.5q3 -2 9.5 -7.5t9.5 -7.5t8.5 -6t9 -6t8.5 -4t9.5 -3t9.5 -1q21 0 38.5 19.5
t18.5 64.5h125q-7 -123 -60 -178t-122 -55q-11 0 -21.5 1t-21 5t-16.5 6t-17 9.5t-13.5 9t-14.5 11t-13 9.5q-5 3 -17 11.5t-17.5 11.5t-14.5 6.5t-17 3.5z" />
    <glyph glyph-name="Adieresis" unicode="&#xc4;" horiz-adv-x="1320" 
d="M428 530h467l-233 627zM961 358h-599l-137 -358h-202l536 1411h205l534 -1411h-200zM360 1745q0 53 36 87t91 34q52 0 88.5 -34t36.5 -87t-36.5 -87t-88.5 -34q-55 0 -91 34t-36 87zM707 1745q0 53 36 87t91 34t91 -34t36 -87t-36 -87t-91 -34t-91 34t-36 87z" />
    <glyph glyph-name="Aring" unicode="&#xc5;" horiz-adv-x="1320" 
d="M428 530h467l-233 627zM961 358h-599l-137 -358h-202l536 1411h205l534 -1411h-200zM444 1776q0 92 61 154.5t152 62.5q93 0 156.5 -62.5t63.5 -154.5q0 -90 -63.5 -151.5t-156.5 -61.5q-91 0 -152 61t-61 152zM553 1776q0 -43 30.5 -74t73.5 -31q47 0 79 31t32 74
q0 47 -31.5 77.5t-79.5 30.5q-43 0 -73.5 -30.5t-30.5 -77.5z" />
    <glyph glyph-name="AE" unicode="&#xc6;" horiz-adv-x="1912" 
d="M451 354l-228 -354h-223l891 1411h891v-188h-641v-437h561v-188h-561v-410h663v-188h-852v354h-501zM563 537h389v610z" />
    <glyph glyph-name="Ccedilla" unicode="&#xc7;" horiz-adv-x="1400" 
d="M651 -240q13 -31 42.5 -44.5t60.5 -2.5q30 13 41.5 45t-0.5 64l-60 162q-178 19 -323 119t-227.5 257.5t-82.5 341.5q0 147 56 281t151.5 231.5t228 155t279.5 57.5q161 0 298 -63t233 -176l-144 -119q-75 81 -174.5 127.5t-212.5 46.5q-146 0 -266.5 -72t-189 -196
t-68.5 -273t68.5 -272t189 -194.5t266.5 -71.5q117 0 217.5 47t173.5 133l144 -121q-93 -108 -220 -171t-278 -70l57 -109q17 -38 17 -86q0 -61 -34 -111.5t-95 -76.5q-43 -17 -80 -17q-60 0 -109 35t-75 96q-21 46 -21 101l131 -9v-16q0 -17 6 -29z" />
    <glyph glyph-name="Egrave" unicode="&#xc8;" horiz-adv-x="1157" 
d="M193 1411h835v-178h-645v-451h563v-178h-563v-426h666v-178h-856v1411zM547 1589l-244 316h223l199 -316h-178z" />
    <glyph glyph-name="Eacute" unicode="&#xc9;" horiz-adv-x="1157" 
d="M193 1411h835v-178h-645v-451h563v-178h-563v-426h666v-178h-856v1411zM862 1905l-244 -316h-178l199 316h223z" />
    <glyph glyph-name="Ecircumflex" unicode="&#xca;" horiz-adv-x="1157" 
d="M193 1411h835v-178h-645v-451h563v-178h-563v-426h666v-178h-856v1411zM731 1589l-153 178l-152 -178h-168l225 316h191l225 -316h-168z" />
    <glyph glyph-name="Edieresis" unicode="&#xcb;" horiz-adv-x="1157" 
d="M193 1411h835v-178h-645v-451h563v-178h-563v-426h666v-178h-856v1411zM287 1745q0 53 36 87t91 34q52 0 88.5 -34t36.5 -87t-36.5 -87t-88.5 -34q-55 0 -91 34t-36 87zM633 1745q0 53 36 87t91 34t91 -34t36 -87t-36 -87t-91 -34t-91 34t-36 87z" />
    <glyph glyph-name="Igrave" unicode="&#xcc;" horiz-adv-x="575" 
d="M193 1411h190v-1411h-190v1411zM205 1589l-244 316h223l199 -316h-178z" />
    <glyph glyph-name="Iacute" unicode="&#xcd;" horiz-adv-x="575" 
d="M193 1411h190v-1411h-190v1411zM612 1905l-243 -316h-179l199 316h223z" />
    <glyph glyph-name="Icircumflex" unicode="&#xce;" horiz-adv-x="575" 
d="M193 1411h190v-1411h-190v1411zM440 1589l-153 178l-152 -178h-168l226 316h190l225 -316h-168z" />
    <glyph glyph-name="Idieresis" unicode="&#xcf;" horiz-adv-x="575" 
d="M193 1411h190v-1411h-190v1411zM-12 1745q0 53 36 87t91 34q52 0 88.5 -34t36.5 -87t-36.5 -87t-88.5 -34q-55 0 -91 34t-36 87zM334 1745q0 53 36 87t91 34t91 -34t36 -87t-36 -87t-91 -34t-91 34t-36 87z" />
    <glyph glyph-name="Eth" unicode="&#xd0;" horiz-adv-x="1482" 
d="M743 0h-538v637h-191v139h191v635h538q195 0 339.5 -94t217 -253.5t72.5 -361.5t-72.5 -359.5t-216.5 -250t-340 -92.5zM395 776h338v-139h-338v-449h348q210 0 324.5 142.5t114.5 371.5q0 150 -48.5 266t-149.5 185.5t-241 69.5h-348v-447z" />
    <glyph glyph-name="Ntilde" unicode="&#xd1;" horiz-adv-x="1400" 
d="M1208 0h-182l-643 1063v-1063h-190v1411h188l637 -1055v1055h190v-1411zM608 1704q-21 0 -37.5 -22t-17.5 -68h-125q7 124 59 181.5t121 57.5q26 0 51 -9t34.5 -15.5t33.5 -24.5q3 -2 9.5 -7.5t9.5 -7.5t8.5 -6t9 -6t8.5 -4t9.5 -3t9.5 -1q21 0 38.5 19.5t18.5 64.5h125
q-7 -123 -60 -178t-122 -55q-11 0 -21.5 1t-21 5t-16.5 6t-17 9.5t-13.5 9t-14.5 11t-13 9.5q-5 3 -17 11.5t-17.5 11.5t-14.5 6.5t-17 3.5z" />
    <glyph glyph-name="Ograve" unicode="&#xd2;" horiz-adv-x="1630" 
d="M100 702q0 197 94 363.5t258 264t361 97.5q198 0 363 -97.5t259.5 -264t94.5 -363.5q0 -198 -94.5 -363.5t-259.5 -262t-363 -96.5q-197 0 -361 96.5t-258 262t-94 363.5zM291 702q0 -148 68.5 -271.5t188.5 -195t265 -71.5q146 0 266.5 71.5t189 194.5t68.5 272
t-68.5 273t-189 196t-266.5 72q-145 0 -265 -72t-188.5 -196t-68.5 -273zM745 1589l-243 316h223l199 -316h-179z" />
    <glyph glyph-name="Oacute" unicode="&#xd3;" horiz-adv-x="1630" 
d="M100 702q0 197 94 363.5t258 264t361 97.5q198 0 363 -97.5t259.5 -264t94.5 -363.5q0 -198 -94.5 -363.5t-259.5 -262t-363 -96.5q-197 0 -361 96.5t-258 262t-94 363.5zM291 702q0 -148 68.5 -271.5t188.5 -195t265 -71.5q146 0 266.5 71.5t189 194.5t68.5 272
t-68.5 273t-189 196t-266.5 72q-145 0 -265 -72t-188.5 -196t-68.5 -273zM1104 1905l-244 -316h-178l199 316h223z" />
    <glyph glyph-name="Ocircumflex" unicode="&#xd4;" horiz-adv-x="1630" 
d="M100 702q0 197 94 363.5t258 264t361 97.5q198 0 363 -97.5t259.5 -264t94.5 -363.5q0 -198 -94.5 -363.5t-259.5 -262t-363 -96.5q-197 0 -361 96.5t-258 262t-94 363.5zM291 702q0 -148 68.5 -271.5t188.5 -195t265 -71.5q146 0 266.5 71.5t189 194.5t68.5 272
t-68.5 273t-189 196t-266.5 72q-145 0 -265 -72t-188.5 -196t-68.5 -273zM967 1589l-154 178l-151 -178h-168l225 316h190l226 -316h-168z" />
    <glyph glyph-name="Otilde" unicode="&#xd5;" horiz-adv-x="1630" 
d="M100 702q0 197 94 363.5t258 264t361 97.5q198 0 363 -97.5t259.5 -264t94.5 -363.5q0 -198 -94.5 -363.5t-259.5 -262t-363 -96.5q-197 0 -361 96.5t-258 262t-94 363.5zM291 702q0 -148 68.5 -271.5t188.5 -195t265 -71.5q146 0 266.5 71.5t189 194.5t68.5 272
t-68.5 273t-189 196t-266.5 72q-145 0 -265 -72t-188.5 -196t-68.5 -273zM723 1704q-21 0 -37.5 -22t-17.5 -68h-125q7 124 59 181.5t121 57.5q26 0 51 -9t34.5 -15.5t33.5 -24.5q2 -2 12.5 -10t13.5 -10.5t11 -7t13.5 -6t12.5 -1.5q21 0 39 19.5t19 64.5h124
q-7 -123 -60 -178t-122 -55q-11 0 -21.5 1t-21 5t-16.5 6t-17 9.5t-13.5 9t-14.5 11t-13 9.5q-6 4 -17 11.5t-16.5 11t-14.5 7t-17 3.5z" />
    <glyph glyph-name="Odieresis" unicode="&#xd6;" horiz-adv-x="1630" 
d="M100 702q0 197 94 363.5t258 264t361 97.5q198 0 363 -97.5t259.5 -264t94.5 -363.5q0 -198 -94.5 -363.5t-259.5 -262t-363 -96.5q-197 0 -361 96.5t-258 262t-94 363.5zM291 702q0 -148 68.5 -271.5t188.5 -195t265 -71.5q146 0 266.5 71.5t189 194.5t68.5 272
t-68.5 273t-189 196t-266.5 72q-145 0 -265 -72t-188.5 -196t-68.5 -273zM514 1745q0 53 36 87t91 34q52 0 88.5 -34t36.5 -87t-36.5 -87t-88.5 -34q-55 0 -91 34t-36 87zM860 1745q0 53 36 87t91 34t91 -34t36 -87t-36 -87t-91 -34t-91 34t-36 87z" />
    <glyph glyph-name="multiply" unicode="&#xd7;" horiz-adv-x="1017" 
d="M385 559l-256 254l127 123l252 -252l258 256l123 -129l-254 -252l254 -254l-123 -129l-258 256l-252 -252l-127 123z" />
    <glyph glyph-name="Oslash" unicode="&#xd8;" horiz-adv-x="1628" 
d="M365 135l-164 -168l-97 96l164 168q-170 207 -170 471q0 197 94 363.5t258 264t361 97.5q264 0 459 -165l162 165l96 -94l-164 -168q164 -203 164 -463q0 -198 -94.5 -363.5t-259.5 -262t-363 -96.5q-251 0 -446 155zM289 702q0 -194 110 -335l740 759q-143 117 -328 117
q-145 0 -265 -72t-188.5 -196t-68.5 -273zM811 164q146 0 266.5 71.5t189 194.5t68.5 272q0 184 -104 326l-735 -758q137 -106 315 -106z" />
    <glyph glyph-name="Ugrave" unicode="&#xd9;" horiz-adv-x="1388" 
d="M694 164q135 0 229.5 88.5t94.5 232.5v926h192v-926q0 -112 -42 -208t-112.5 -160.5t-164.5 -100.5t-197 -36q-141 0 -258 61.5t-187.5 178t-70.5 265.5v926h193v-926q0 -144 94 -232.5t229 -88.5zM643 1589l-244 316h224l198 -316h-178z" />
    <glyph glyph-name="Uacute" unicode="&#xda;" horiz-adv-x="1388" 
d="M694 164q135 0 229.5 88.5t94.5 232.5v926h192v-926q0 -112 -42 -208t-112.5 -160.5t-164.5 -100.5t-197 -36q-141 0 -258 61.5t-187.5 178t-70.5 265.5v926h193v-926q0 -144 94 -232.5t229 -88.5zM969 1905l-244 -316h-178l198 316h224z" />
    <glyph glyph-name="Ucircumflex" unicode="&#xdb;" horiz-adv-x="1388" 
d="M694 164q135 0 229.5 88.5t94.5 232.5v926h192v-926q0 -112 -42 -208t-112.5 -160.5t-164.5 -100.5t-197 -36q-141 0 -258 61.5t-187.5 178t-70.5 265.5v926h193v-926q0 -144 94 -232.5t229 -88.5zM846 1589l-154 178l-151 -178h-168l225 316h190l226 -316h-168z" />
    <glyph glyph-name="Udieresis" unicode="&#xdc;" horiz-adv-x="1388" 
d="M694 164q135 0 229.5 88.5t94.5 232.5v926h192v-926q0 -112 -42 -208t-112.5 -160.5t-164.5 -100.5t-197 -36q-141 0 -258 61.5t-187.5 178t-70.5 265.5v926h193v-926q0 -144 94 -232.5t229 -88.5zM393 1745q0 53 36 87t91 34q52 0 88.5 -34t36.5 -87t-36.5 -87
t-88.5 -34q-55 0 -91 34t-36 87zM739 1745q0 53 36 87t91 34t91 -34t36 -87t-36 -87t-91 -34t-91 34t-36 87z" />
    <glyph glyph-name="Yacute" unicode="&#xdd;" horiz-adv-x="1286" 
d="M741 0h-196v649l-535 762h228l405 -571l410 571h229l-541 -762v-649zM940 1905l-244 -316h-178l199 316h223z" />
    <glyph glyph-name="Thorn" unicode="&#xde;" horiz-adv-x="1171" 
d="M670 283h-287v-283h-190v1411h190v-252h287q184 0 308 -120t124 -314q0 -197 -124 -319.5t-308 -122.5zM383 467h287q105 0 174 71.5t69 186.5q0 114 -74 180t-186 74l-270 2v-514z" />
    <glyph glyph-name="germandbls" unicode="&#xdf;" horiz-adv-x="1630" 
d="M1522 788q18 -159 -29 -308t-141.5 -258.5t-235 -175.5t-301.5 -66t-302 66t-236.5 175.5t-143 258.5t-29.5 308h1225q-16 107 -69 196.5t-126.5 147.5t-166.5 87.5t-186 25t-187 -49t-168 -126.5l-145 119q71 83 161.5 138.5t185.5 80t196 21.5t195 -31t180 -83.5
t152.5 -130.5t111.5 -177t59 -218zM1329 616h-1030q16 -109 65 -196t120 -141t155.5 -82.5t175.5 -28.5q90 0 174 28.5t155 82.5t120 141t65 196z" />
    <glyph glyph-name="germandbls" unicode="&#x42f;" horiz-adv-x="1630" 
d="M1522 788q18 -159 -29 -308t-141.5 -258.5t-235 -175.5t-301.5 -66t-302 66t-236.5 175.5t-143 258.5t-29.5 308h1225q-16 107 -69 196.5t-126.5 147.5t-166.5 87.5t-186 25t-187 -49t-168 -126.5l-145 119q71 83 161.5 138.5t185.5 80t196 21.5t195 -31t180 -83.5
t152.5 -130.5t111.5 -177t59 -218zM1329 616h-1030q16 -109 65 -196t120 -141t155.5 -82.5t175.5 -28.5q90 0 174 28.5t155 82.5t120 141t65 196z" />
    <glyph glyph-name="germandbls" unicode="&#x18f;" horiz-adv-x="1630" 
d="M1522 788q18 -159 -29 -308t-141.5 -258.5t-235 -175.5t-301.5 -66t-302 66t-236.5 175.5t-143 258.5t-29.5 308h1225q-16 107 -69 196.5t-126.5 147.5t-166.5 87.5t-186 25t-187 -49t-168 -126.5l-145 119q71 83 161.5 138.5t185.5 80t196 21.5t195 -31t180 -83.5
t152.5 -130.5t111.5 -177t59 -218zM1329 616h-1030q16 -109 65 -196t120 -141t155.5 -82.5t175.5 -28.5q90 0 174 28.5t155 82.5t120 141t65 196z" />
    <glyph glyph-name="agrave" unicode="&#xe0;" horiz-adv-x="1253" 
d="M913 0v147q-46 -77 -139 -122t-196 -45q-202 0 -344 139t-142 360q0 148 67 263t177 175t242 60q104 0 195.5 -42.5t139.5 -121.5v143h185v-956h-185zM911 481q0 145 -95.5 229.5t-221.5 84.5q-132 0 -221.5 -87.5t-89.5 -226.5t90 -229t221 -90q133 0 225 86t92 233z
M586 1135l-244 315h223l199 -315h-178z" />
    <glyph glyph-name="aacute" unicode="&#xe1;" horiz-adv-x="1253" 
d="M913 0v147q-46 -77 -139 -122t-196 -45q-202 0 -344 139t-142 360q0 148 67 263t177 175t242 60q104 0 195.5 -42.5t139.5 -121.5v143h185v-956h-185zM911 481q0 145 -95.5 229.5t-221.5 84.5q-132 0 -221.5 -87.5t-89.5 -226.5t90 -229t221 -90q133 0 225 86t92 233z
M877 1450l-244 -315h-178l198 315h224z" />
    <glyph glyph-name="acircumflex" unicode="&#xe2;" horiz-adv-x="1253" 
d="M913 0v147q-46 -77 -139 -122t-196 -45q-202 0 -344 139t-142 360q0 148 67 263t177 175t242 60q104 0 195.5 -42.5t139.5 -121.5v143h185v-956h-185zM911 481q0 145 -95.5 229.5t-221.5 84.5q-132 0 -221.5 -87.5t-89.5 -226.5t90 -229t221 -90q133 0 225 86t92 233z
M743 1135l-153 178l-152 -178h-168l226 315h190l225 -315h-168z" />
    <glyph glyph-name="atilde" unicode="&#xe3;" horiz-adv-x="1253" 
d="M913 0v147q-46 -77 -139 -122t-196 -45q-202 0 -344 139t-142 360q0 148 67 263t177 175t242 60q104 0 195.5 -42.5t139.5 -121.5v143h185v-956h-185zM911 481q0 145 -95.5 229.5t-221.5 84.5q-132 0 -221.5 -87.5t-89.5 -226.5t90 -229t221 -90q133 0 225 86t92 233z
M532 1249q-21 0 -37.5 -22t-17.5 -68h-125q7 124 59 182t121 58q26 0 51 -9t34.5 -15.5t33.5 -24.5q3 -2 9.5 -7.5t9.5 -7.5t8.5 -6t9 -6t8.5 -4t9.5 -3t9.5 -1q21 0 38.5 19.5t18.5 64.5h125q-7 -123 -60 -178.5t-122 -55.5q-13 0 -26 3t-21 5t-21 10t-16.5 10t-18.5 13
l-14 11q-4 2 -17 11t-17.5 11.5t-14 6t-17.5 3.5z" />
    <glyph glyph-name="adieresis" unicode="&#xe4;" horiz-adv-x="1253" 
d="M913 0v147q-46 -77 -139 -122t-196 -45q-202 0 -344 139t-142 360q0 148 67 263t177 175t242 60q104 0 195.5 -42.5t139.5 -121.5v143h185v-956h-185zM911 481q0 145 -95.5 229.5t-221.5 84.5q-132 0 -221.5 -87.5t-89.5 -226.5t90 -229t221 -90q133 0 225 86t92 233z
M295 1290q0 53 36 87t91 34q52 0 88.5 -34t36.5 -87t-36.5 -87t-88.5 -34q-55 0 -91 34t-36 87zM641 1290q0 53 36 87t91 34t91 -34t36 -87t-36 -87t-91 -34t-91 34t-36 87z" />
    <glyph glyph-name="aring" unicode="&#xe5;" horiz-adv-x="1253" 
d="M913 0v147q-46 -77 -139 -122t-196 -45q-202 0 -344 139t-142 360q0 148 67 263t177 175t242 60q104 0 195.5 -42.5t139.5 -121.5v143h185v-956h-185zM911 481q0 145 -95.5 229.5t-221.5 84.5q-132 0 -221.5 -87.5t-89.5 -226.5t90 -229t221 -90q133 0 225 86t92 233z
M379 1321q0 92 61 154.5t152 62.5q92 0 155.5 -62.5t63.5 -154.5q0 -91 -63.5 -152t-155.5 -61q-91 0 -152 61t-61 152zM487 1321q0 -43 31 -73.5t74 -30.5q47 0 78.5 30.5t31.5 73.5q0 47 -31.5 78t-78.5 31q-43 0 -74 -31t-31 -78z" />
    <glyph glyph-name="ae" unicode="&#xe6;" horiz-adv-x="1959" 
d="M1098 956v-77q125 98 305 98q207 0 341 -136t134 -360q0 -50 -2 -73h-776q17 -121 101 -191t208 -70q88 0 160.5 38.5t113.5 109.5q25 -12 80 -31.5t80 -30.5q-60 -124 -177.5 -188.5t-262.5 -64.5q-181 0 -305 100v-80h-185v147q-46 -77 -139 -122t-196 -45
q-202 0 -344 139t-142 360q0 148 67 263t177 175t242 60q104 0 195.5 -42.5t139.5 -121.5v143h185zM911 481q0 145 -95.5 229.5t-221.5 84.5q-132 0 -221.5 -87.5t-89.5 -226.5t90 -229t221 -90q133 0 225 86t92 233zM1100 553h594q-17 121 -95 188.5t-196 67.5
q-120 0 -203 -68t-100 -188z" />
    <glyph glyph-name="ccedilla" unicode="&#xe7;" horiz-adv-x="1048" 
d="M647 -16l60 -111q16 -35 16 -86q0 -61 -34 -111.5t-95 -76.5q-42 -17 -80 -17q-60 0 -109 35t-75 96q-21 47 -21 101l131 -9v-16q0 -17 6 -29q13 -31 42.5 -44.5t60.5 -2.5q30 13 41.5 45t-0.5 64l-60 162q-186 21 -312 157.5t-126 339.5q0 147 70 261.5t184.5 174.5
t251.5 60q110 0 205.5 -40t163.5 -114l-142 -118q-90 90 -227 90q-134 0 -228 -87t-94 -227q0 -139 95 -230t227 -91q136 0 227 94l144 -119q-123 -136 -322 -151z" />
    <glyph glyph-name="egrave" unicode="&#xe8;" horiz-adv-x="1138" 
d="M279 553h593q-17 121 -94.5 188.5t-195.5 67.5q-120 0 -203 -68t-100 -188zM1057 481q0 -50 -2 -73h-776q17 -121 101 -191t208 -70q88 0 160.5 38.5t113.5 109.5q25 -12 80 -31.5t80 -30.5q-60 -124 -177.5 -188.5t-262.5 -64.5q-208 0 -349 139t-141 362
q0 222 140.5 359t349.5 137q207 0 341 -136t134 -360zM506 1135l-244 315h223l199 -315h-178z" />
    <glyph glyph-name="eacute" unicode="&#xe9;" horiz-adv-x="1138" 
d="M279 553h593q-17 121 -94.5 188.5t-195.5 67.5q-120 0 -203 -68t-100 -188zM1057 481q0 -50 -2 -73h-776q17 -121 101 -191t208 -70q88 0 160.5 38.5t113.5 109.5q25 -12 80 -31.5t80 -30.5q-60 -124 -177.5 -188.5t-262.5 -64.5q-208 0 -349 139t-141 362
q0 222 140.5 359t349.5 137q207 0 341 -136t134 -360zM866 1450l-243 -315h-179l199 315h223z" />
    <glyph glyph-name="ecircumflex" unicode="&#xea;" horiz-adv-x="1138" 
d="M279 553h593q-17 121 -94.5 188.5t-195.5 67.5q-120 0 -203 -68t-100 -188zM1057 481q0 -50 -2 -73h-776q17 -121 101 -191t208 -70q88 0 160.5 38.5t113.5 109.5q25 -12 80 -31.5t80 -30.5q-60 -124 -177.5 -188.5t-262.5 -64.5q-208 0 -349 139t-141 362
q0 222 140.5 359t349.5 137q207 0 341 -136t134 -360zM727 1135l-154 178l-151 -178h-168l225 315h191l225 -315h-168z" />
    <glyph glyph-name="edieresis" unicode="&#xeb;" horiz-adv-x="1138" 
d="M279 553h593q-17 121 -94.5 188.5t-195.5 67.5q-120 0 -203 -68t-100 -188zM1057 481q0 -50 -2 -73h-776q17 -121 101 -191t208 -70q88 0 160.5 38.5t113.5 109.5q25 -12 80 -31.5t80 -30.5q-60 -124 -177.5 -188.5t-262.5 -64.5q-208 0 -349 139t-141 362
q0 222 140.5 359t349.5 137q207 0 341 -136t134 -360zM274 1290q0 53 36 87t91 34q52 0 88.5 -34t36.5 -87t-36.5 -87t-88.5 -34q-55 0 -91 34t-36 87zM621 1290q0 53 36 87t91 34t90.5 -33.5t35.5 -87.5t-35.5 -87.5t-90.5 -33.5t-91 34t-36 87z" />
    <glyph glyph-name="igrave" unicode="&#xec;" horiz-adv-x="493" 
d="M338 956v-956h-182v956h182zM158 1135l-244 315h223l199 -315h-178z" />
    <glyph glyph-name="iacute" unicode="&#xed;" horiz-adv-x="493" 
d="M338 956v-956h-182v956h182zM575 1450l-243 -315h-178l198 315h223z" />
    <glyph glyph-name="icircumflex" unicode="&#xee;" horiz-adv-x="493" 
d="M338 956v-956h-182v956h182zM410 1135l-154 178l-152 -178h-167l225 315h190l226 -315h-168z" />
    <glyph glyph-name="idieresis" unicode="&#xef;" horiz-adv-x="493" 
d="M338 956v-956h-182v956h182zM-43 1290q0 53 36 87t91 34q52 0 88.5 -34t36.5 -87t-36.5 -87t-88.5 -34q-55 0 -91 34t-36 87zM303 1290q0 53 36 87t91 34t91 -34t36 -87t-36 -87t-91 -34t-91 34t-36 87z" />
    <glyph glyph-name="eth" unicode="&#xf0;" horiz-adv-x="1183" 
d="M565 1311l133 82l74 -86l-127 -86l350 -441q95 -132 95 -299q0 -146 -68.5 -262t-181.5 -177.5t-248 -61.5q-136 0 -249.5 61.5t-182 177t-68.5 262.5q0 110 40 204.5t106.5 157.5t154 98.5t182.5 35.5q39 0 74 -21l-151 170l-174 -108l-66 96l164 103l-154 194h215z
M592 156q134 0 228.5 90.5t94.5 234.5t-94 232t-229 88q-136 0 -230 -88t-94 -232t94 -234.5t230 -90.5z" />
    <glyph glyph-name="ntilde" unicode="&#xf1;" horiz-adv-x="1153" 
d="M342 516v-516h-186v956h186v-143q38 80 124.5 122t174.5 42q179 0 274 -110t95 -314v-553h-187v541q0 121 -56 187.5t-155 66.5q-53 0 -99.5 -15.5t-85.5 -47.5t-62 -87.5t-23 -128.5zM485 1249q-21 0 -37.5 -22t-17.5 -68h-125q7 124 59 182t121 58q26 0 51 -9
t34.5 -15.5t33.5 -24.5q3 -2 9.5 -7.5t9.5 -7.5t8.5 -6t9 -6t8.5 -4t9.5 -3t9.5 -1q21 0 38.5 19.5t18.5 64.5h125q-7 -123 -60 -178.5t-122 -55.5q-13 0 -26 3t-21 5t-21 10t-16.5 10t-17.5 13l-15 11q-4 2 -17 11t-17.5 11.5t-14 6t-17.5 3.5z" />
    <glyph glyph-name="ograve" unicode="&#xf2;" horiz-adv-x="1185" 
d="M592 -20q-136 0 -249.5 61t-182 177t-68.5 263t68.5 261.5t181.5 174.5t250 60t250.5 -60t182.5 -174.5t69 -261.5t-69 -263t-183 -177t-250 -61zM592 160q132 0 223.5 88.5t91.5 232.5q0 141 -91.5 227.5t-223.5 86.5q-134 0 -225 -86.5t-91 -227.5q0 -144 91 -232.5
t225 -88.5zM518 1135l-244 315h224l198 -315h-178z" />
    <glyph glyph-name="oacute" unicode="&#xf3;" horiz-adv-x="1185" 
d="M592 -20q-136 0 -249.5 61t-182 177t-68.5 263t68.5 261.5t181.5 174.5t250 60t250.5 -60t182.5 -174.5t69 -261.5t-69 -263t-183 -177t-250 -61zM592 160q132 0 223.5 88.5t91.5 232.5q0 141 -91.5 227.5t-223.5 86.5q-134 0 -225 -86.5t-91 -227.5q0 -144 91 -232.5
t225 -88.5zM893 1450l-244 -315h-178l199 315h223z" />
    <glyph glyph-name="ocircumflex" unicode="&#xf4;" horiz-adv-x="1185" 
d="M592 -20q-136 0 -249.5 61t-182 177t-68.5 263t68.5 261.5t181.5 174.5t250 60t250.5 -60t182.5 -174.5t69 -261.5t-69 -263t-183 -177t-250 -61zM592 160q132 0 223.5 88.5t91.5 232.5q0 141 -91.5 227.5t-223.5 86.5q-134 0 -225 -86.5t-91 -227.5q0 -144 91 -232.5
t225 -88.5zM745 1135l-153 178l-152 -178h-168l226 315h190l225 -315h-168z" />
    <glyph glyph-name="otilde" unicode="&#xf5;" horiz-adv-x="1185" 
d="M592 -20q-136 0 -249.5 61t-182 177t-68.5 263t68.5 261.5t181.5 174.5t250 60t250.5 -60t182.5 -174.5t69 -261.5t-69 -263t-183 -177t-250 -61zM592 160q132 0 223.5 88.5t91.5 232.5q0 141 -91.5 227.5t-223.5 86.5q-134 0 -225 -86.5t-91 -227.5q0 -144 91 -232.5
t225 -88.5zM500 1249q-21 0 -38 -22t-18 -68h-125q7 124 59.5 182t121.5 58q9 0 17.5 -0.5t17 -3t14 -4t14 -6t12 -5.5t12 -7t10 -7t11.5 -8l10 -8q3 -2 9.5 -7.5t9.5 -7.5t8.5 -6t9 -6t8.5 -4t9.5 -3t9.5 -1q21 0 38.5 19.5t18.5 64.5h125q-7 -123 -60 -178.5t-122 -55.5
q-13 0 -26 3t-21 5t-21 10t-16.5 10t-17.5 13l-15 11q-5 3 -17 11t-17 11.5t-14 6.5t-17 3z" />
    <glyph glyph-name="odieresis" unicode="&#xf6;" horiz-adv-x="1185" 
d="M592 -20q-136 0 -249.5 61t-182 177t-68.5 263t68.5 261.5t181.5 174.5t250 60t250.5 -60t182.5 -174.5t69 -261.5t-69 -263t-183 -177t-250 -61zM592 160q132 0 223.5 88.5t91.5 232.5q0 141 -91.5 227.5t-223.5 86.5q-134 0 -225 -86.5t-91 -227.5q0 -144 91 -232.5
t225 -88.5zM293 1290q0 53 36 87t91 34q52 0 88.5 -34t36.5 -87t-36.5 -87t-88.5 -34q-55 0 -91 34t-36 87zM639 1290q0 53 36 87t91 34t91 -34t36 -87t-36 -87t-91 -34t-91 34t-36 87z" />
    <glyph glyph-name="divide" unicode="&#xf7;" horiz-adv-x="1099" 
d="M416 184q0 56 39 92.5t94 36.5q56 0 95.5 -36.5t39.5 -92.5q0 -55 -39.5 -91t-95.5 -36q-55 0 -94 36t-39 91zM416 868q0 55 39 91t94 36q56 0 95.5 -36t39.5 -91t-39.5 -92t-95.5 -37q-55 0 -94 37t-39 92zM971 438h-842v170h842v-170z" />
    <glyph glyph-name="oslash" unicode="&#xf8;" horiz-adv-x="1181" 
d="M295 68l-117 -119l-96 96l115 117q-107 132 -107 319q0 147 68.5 261.5t181.5 174.5t250 60q173 0 307 -96l102 104l97 -94l-103 -105q99 -129 99 -305q0 -147 -69 -263t-183 -177t-250 -61q-170 0 -295 88zM590 795q-134 0 -225 -86.5t-91 -227.5q0 -108 52 -184
l440 448q-77 50 -176 50zM590 160q132 0 223.5 88.5t91.5 232.5q0 90 -45 168l-434 -446q70 -43 164 -43z" />
    <glyph glyph-name="ugrave" unicode="&#xf9;" horiz-adv-x="1150" 
d="M530 1135l-243 315h223l199 -315h-179zM809 440v516h186v-956h-186v143q-41 -80 -125.5 -121.5t-171.5 -41.5q-180 0 -275.5 110t-93.5 313v553h187v-540q0 -121 55 -187.5t154 -66.5q53 0 99.5 15t85.5 46.5t62 87t23 129.5z" />
    <glyph glyph-name="uacute" unicode="&#xfa;" horiz-adv-x="1150" 
d="M889 1450l-244 -315h-178l199 315h223zM809 440v516h186v-956h-186v143q-41 -80 -125.5 -121.5t-171.5 -41.5q-180 0 -275.5 110t-93.5 313v553h187v-540q0 -121 55 -187.5t154 -66.5q53 0 99.5 15t85.5 46.5t62 87t23 129.5z" />
    <glyph glyph-name="ucircumflex" unicode="&#xfb;" horiz-adv-x="1150" 
d="M709 1135l-154 178l-152 -178h-167l225 315h190l226 -315h-168zM809 440v516h186v-956h-186v143q-41 -80 -125.5 -121.5t-171.5 -41.5q-180 0 -275.5 110t-93.5 313v553h187v-540q0 -121 55 -187.5t154 -66.5q53 0 99.5 15t85.5 46.5t62 87t23 129.5z" />
    <glyph glyph-name="udieresis" unicode="&#xfc;" horiz-adv-x="1150" 
d="M289 1290q0 53 36 87t91 34q52 0 88.5 -34t36.5 -87t-36.5 -87t-88.5 -34q-55 0 -91 34t-36 87zM635 1290q0 53 36 87t91 34t91 -34t36 -87t-36 -87t-91 -34t-91 34t-36 87zM809 440v516h186v-956h-186v143q-41 -80 -125.5 -121.5t-171.5 -41.5q-180 0 -275.5 110
t-93.5 313v553h187v-540q0 -121 55 -187.5t154 -66.5q53 0 99.5 15t85.5 46.5t62 87t23 129.5z" />
    <glyph glyph-name="yacute" unicode="&#xfd;" horiz-adv-x="1042" 
d="M414 -465h-195l201 494l-383 927h199l286 -692l287 692h199zM786 1450l-243 -315h-178l198 315h223z" />
    <glyph glyph-name="thorn" unicode="&#xfe;" horiz-adv-x="1232" 
d="M156 -436v1911h186v-637q49 67 133 102t178 35q136 0 246.5 -60t176 -174t65.5 -262q0 -147 -65.5 -262t-176 -176t-246.5 -61q-93 0 -177 37t-134 104v-557h-186zM956 479q0 138 -86.5 223.5t-216.5 85.5q-58 0 -112.5 -20t-99 -57t-72 -97.5t-27.5 -134.5
q0 -148 88.5 -231.5t222.5 -83.5q129 0 216 89t87 226z" />
    <glyph glyph-name="ydieresis" unicode="&#xff;" horiz-adv-x="1138" 
d="M868 401h-594q17 -121 95 -188.5t196 -67.5q120 0 203 68t100 188zM90 473q0 51 2 74h776q-17 121 -101 190.5t-208 69.5q-88 0 -160.5 -38.5t-113.5 -109.5q-25 12 -80 31.5t-80 30.5q60 124 178 189t262 65q208 0 349 -139.5t141 -362.5q0 -222 -140.5 -359
t-349.5 -137q-207 0 -341 136t-134 360z" />
    <glyph glyph-name="ydieresis" unicode="&#x44f;" horiz-adv-x="1138" 
d="M868 401h-594q17 -121 95 -188.5t196 -67.5q120 0 203 68t100 188zM90 473q0 51 2 74h776q-17 121 -101 190.5t-208 69.5q-88 0 -160.5 -38.5t-113.5 -109.5q-25 12 -80 31.5t-80 30.5q60 124 178 189t262 65q208 0 349 -139.5t141 -362.5q0 -222 -140.5 -359
t-349.5 -137q-207 0 -341 136t-134 360z" />
    <glyph glyph-name="ydieresis" unicode="&#x259;" horiz-adv-x="1138" 
d="M868 401h-594q17 -121 95 -188.5t196 -67.5q120 0 203 68t100 188zM90 473q0 51 2 74h776q-17 121 -101 190.5t-208 69.5q-88 0 -160.5 -38.5t-113.5 -109.5q-25 12 -80 31.5t-80 30.5q60 124 178 189t262 65q208 0 349 -139.5t141 -362.5q0 -222 -140.5 -359
t-349.5 -137q-207 0 -341 136t-134 360z" />
    <glyph glyph-name="Amacron" unicode="&#x100;" horiz-adv-x="1320" 
d="M428 530h467l-233 627zM961 358h-599l-137 -358h-202l536 1411h205l534 -1411h-200zM401 1806h517v-164h-517v164z" />
    <glyph glyph-name="amacron" unicode="&#x101;" horiz-adv-x="1253" 
d="M913 0v147q-46 -77 -139 -122t-196 -45q-202 0 -344 139t-142 360q0 148 67 263t177 175t242 60q104 0 195.5 -42.5t139.5 -121.5v143h185v-956h-185zM911 481q0 145 -95.5 229.5t-221.5 84.5q-132 0 -221.5 -87.5t-89.5 -226.5t90 -229t221 -90q133 0 225 86t92 233z
M367 1352h516v-164h-516v164z" />
    <glyph glyph-name="Abreve" unicode="&#x102;" horiz-adv-x="1320" 
d="M428 530h467l-233 627zM961 358h-599l-137 -358h-202l536 1411h205l534 -1411h-200zM393 1853h152q0 -55 30.5 -87.5t83.5 -32.5q51 0 82 37t31 83h156q0 -122 -72.5 -192t-196.5 -70q-133 0 -199.5 75t-66.5 187z" />
    <glyph glyph-name="abreve" unicode="&#x103;" horiz-adv-x="1253" 
d="M913 0v147q-46 -77 -139 -122t-196 -45q-202 0 -344 139t-142 360q0 148 67 263t177 175t242 60q104 0 195.5 -42.5t139.5 -121.5v143h185v-956h-185zM911 481q0 145 -95.5 229.5t-221.5 84.5q-132 0 -221.5 -87.5t-89.5 -226.5t90 -229t221 -90q133 0 225 86t92 233z
M358 1399h152q0 -55 31 -88t84 -33q51 0 81.5 37t30.5 84h156q0 -122 -72 -192t-196 -70q-133 0 -200 75t-67 187z" />
    <glyph glyph-name="Aogonek" unicode="&#x104;" horiz-adv-x="1320" 
d="M428 530h467l-233 627zM1096 2l-135 356h-599l-137 -358h-202l536 1411h205l534 -1411h-90l-63 -178q-12 -32 -0.5 -64t41.5 -45q31 -10 59.5 3t42.5 44q6 12 6 29v16l131 9q0 -57 -20 -101q-26 -61 -75 -96t-109 -35q-37 0 -80 17q-61 26 -95 76.5t-34 111.5q0 51 16 86
z" />
    <glyph glyph-name="aogonek" unicode="&#x105;" horiz-adv-x="1253" 
d="M1104 -240q6 12 6 29v16l131 9q0 -57 -20 -101q-26 -61 -75.5 -96t-109.5 -35q-38 0 -80 17q-61 26 -95 76.5t-34 111.5q0 48 17 86l69 129v145q-46 -77 -139 -122t-196 -45q-202 0 -344 139t-142 360q0 148 67 263t177 175t242 60q104 0 195.5 -42.5t139.5 -121.5v143
h185v-956h-74l-63 -178q-13 -32 -1.5 -64t41.5 -45q31 -11 60.5 2.5t42.5 44.5zM911 481q0 145 -95.5 229.5t-221.5 84.5q-132 0 -221.5 -87.5t-89.5 -226.5t90 -229t221 -90q133 0 225 86t92 233z" />
    <glyph glyph-name="Cacute" unicode="&#x106;" horiz-adv-x="1398" 
d="M1206 344l144 -121q-96 -115 -234 -179t-301 -64q-147 0 -279.5 57t-228 153.5t-151.5 230t-56 281.5q0 147 56 281t151.5 231.5t228 155t279.5 57.5q161 0 298 -63t233 -176l-144 -119q-75 81 -174.5 127.5t-212.5 46.5q-146 0 -266.5 -72t-189 -196t-68.5 -273
t68.5 -272t189 -194.5t266.5 -71.5q117 0 217.5 47t173.5 133zM1096 1905l-244 -316h-178l198 316h224z" />
    <glyph glyph-name="cacute" unicode="&#x107;" horiz-adv-x="1048" 
d="M92 481q0 147 70 261.5t184.5 174.5t251.5 60q110 0 205.5 -40t163.5 -114l-142 -118q-90 90 -227 90q-134 0 -228 -87t-94 -227q0 -139 95 -230t227 -91q136 0 227 94l144 -119q-68 -74 -164.5 -114.5t-206.5 -40.5q-136 0 -251 61t-185 177t-70 263zM860 1450
l-244 -315h-178l199 315h223z" />
    <glyph glyph-name="Ccircumflex" unicode="&#x108;" horiz-adv-x="1398" 
d="M1206 344l144 -121q-96 -115 -234 -179t-301 -64q-147 0 -279.5 57t-228 153.5t-151.5 230t-56 281.5q0 147 56 281t151.5 231.5t228 155t279.5 57.5q161 0 298 -63t233 -176l-144 -119q-75 81 -174.5 127.5t-212.5 46.5q-146 0 -266.5 -72t-189 -196t-68.5 -273
t68.5 -272t189 -194.5t266.5 -71.5q117 0 217.5 47t173.5 133zM965 1589l-154 178l-152 -178h-167l225 316h190l226 -316h-168z" />
    <glyph glyph-name="ccircumflex" unicode="&#x109;" horiz-adv-x="1048" 
d="M92 481q0 147 70 261.5t184.5 174.5t251.5 60q110 0 205.5 -40t163.5 -114l-142 -118q-90 90 -227 90q-134 0 -228 -87t-94 -227q0 -139 95 -230t227 -91q136 0 227 94l144 -119q-68 -74 -164.5 -114.5t-206.5 -40.5q-136 0 -251 61t-185 177t-70 263zM743 1135l-153 178
l-152 -178h-168l226 315h190l225 -315h-168z" />
    <glyph glyph-name="Cdotaccent" unicode="&#x10a;" horiz-adv-x="1398" 
d="M1206 344l144 -121q-96 -115 -234 -179t-301 -64q-147 0 -279.5 57t-228 153.5t-151.5 230t-56 281.5q0 147 56 281t151.5 231.5t228 155t279.5 57.5q161 0 298 -63t233 -176l-144 -119q-75 81 -174.5 127.5t-212.5 46.5q-146 0 -266.5 -72t-189 -196t-68.5 -273
t68.5 -272t189 -194.5t266.5 -71.5q117 0 217.5 47t173.5 133zM651 1763q0 53 37 87t92 34t92 -34t37 -87t-37 -87t-92 -34t-92 34t-37 87z" />
    <glyph glyph-name="cdotaccent" unicode="&#x10b;" horiz-adv-x="1048" 
d="M92 481q0 147 70 261.5t184.5 174.5t251.5 60q110 0 205.5 -40t163.5 -114l-142 -118q-90 90 -227 90q-134 0 -228 -87t-94 -227q0 -139 95 -230t227 -91q136 0 227 94l144 -119q-68 -74 -164.5 -114.5t-206.5 -40.5q-136 0 -251 61t-185 177t-70 263zM461 1309
q0 53 37 87t92 34t92 -34t37 -87t-37 -87t-92 -34t-92 34t-37 87z" />
    <glyph glyph-name="Ccaron" unicode="&#x10c;" horiz-adv-x="1398" 
d="M1206 344l144 -121q-96 -115 -234 -179t-301 -64q-147 0 -279.5 57t-228 153.5t-151.5 230t-56 281.5q0 147 56 281t151.5 231.5t228 155t279.5 57.5q161 0 298 -63t233 -176l-144 -119q-75 81 -174.5 127.5t-212.5 46.5q-146 0 -266.5 -72t-189 -196t-68.5 -273
t68.5 -272t189 -194.5t266.5 -71.5q117 0 217.5 47t173.5 133zM782 1726l154 179h168l-225 -316h-191l-225 316h168z" />
    <glyph glyph-name="ccaron" unicode="&#x10d;" horiz-adv-x="1048" 
d="M92 481q0 147 70 261.5t184.5 174.5t251.5 60q110 0 205.5 -40t163.5 -114l-142 -118q-90 90 -227 90q-134 0 -228 -87t-94 -227q0 -139 95 -230t227 -91q136 0 227 94l144 -119q-68 -74 -164.5 -114.5t-206.5 -40.5q-136 0 -251 61t-185 177t-70 263zM571 1272l154 178
h168l-225 -315h-191l-225 315h168z" />
    <glyph glyph-name="Dcaron" unicode="&#x10e;" horiz-adv-x="1482" 
d="M739 0h-546v1411h546q147 0 268 -54.5t200.5 -150t123 -225t43.5 -279.5t-43.5 -278.5t-123.5 -222.5t-200.5 -147.5t-267.5 -53.5zM383 178h356q107 0 192.5 40t140 111t83.5 166t29 207q0 151 -49 269.5t-151.5 190t-244.5 71.5h-356v-1055zM766 1726l154 179h167
l-225 -316h-190l-226 316h168z" />
    <glyph glyph-name="dcaron" unicode="&#x10f;" horiz-adv-x="1232" 
d="M1077 1444v-1444h-180v125q-52 -69 -137.5 -106t-177.5 -37q-136 0 -247 60.5t-177 175.5t-66 263q0 222 140.5 358t349.5 136q92 0 175.5 -34.5t135.5 -100.5v604h184zM276 481q0 -137 88 -226t218 -89t220.5 84t90.5 231q0 74 -27.5 134.5t-73 98t-100 57.5t-110.5 20
q-131 0 -218.5 -85.5t-87.5 -224.5zM1282 1016l-119 39q62 83 83.5 158t10.5 198h185q0 -268 -160 -395z" />
    <glyph glyph-name="Dcroat" unicode="&#x110;" horiz-adv-x="1482" 
d="M743 0h-538v637h-191v139h191v635h538q195 0 339.5 -94t217 -253.5t72.5 -361.5t-72.5 -359.5t-216.5 -250t-340 -92.5zM395 776h338v-139h-338v-449h348q210 0 324.5 142.5t114.5 371.5q0 150 -48.5 266t-149.5 185.5t-241 69.5h-348v-447z" />
    <glyph glyph-name="dcroat" unicode="&#x111;" horiz-adv-x="1253" 
d="M1098 1145v-2v-1143h-187v147q-46 -77 -139.5 -122t-196.5 -45q-131 0 -240.5 60.5t-176 176t-66.5 262.5q0 148 66 263t174.5 175t240.5 60q110 0 201 -42.5t137 -121.5v332h-307v127h307v205h187v-205h153v-127h-153zM909 481q0 145 -95.5 229.5t-221.5 84.5
q-131 0 -220 -87.5t-89 -226.5t89 -229t220 -90q133 0 225 86t92 233z" />
    <glyph glyph-name="Emacron" unicode="&#x112;" horiz-adv-x="1157" 
d="M193 1411h835v-178h-645v-451h563v-178h-563v-426h666v-178h-856v1411zM358 1806h516v-164h-516v164z" />
    <glyph glyph-name="emacron" unicode="&#x113;" horiz-adv-x="1138" 
d="M279 553h593q-17 121 -94.5 188.5t-195.5 67.5q-120 0 -203 -68t-100 -188zM1057 481q0 -50 -2 -73h-776q17 -121 101 -191t208 -70q88 0 160.5 38.5t113.5 109.5q25 -12 80 -31.5t80 -30.5q-60 -124 -177.5 -188.5t-262.5 -64.5q-208 0 -349 139t-141 362
q0 222 140.5 359t349.5 137q207 0 341 -136t134 -360zM315 1352h516v-164h-516v164z" />
    <glyph glyph-name="Ebreve" unicode="&#x114;" horiz-adv-x="1157" 
d="M193 1411h835v-178h-645v-451h563v-178h-563v-426h666v-178h-856v1411zM311 1853h152q0 -55 31 -87.5t84 -32.5q51 0 81.5 37t30.5 83h156q0 -122 -72 -192t-196 -70q-133 0 -200 75t-67 187z" />
    <glyph glyph-name="ebreve" unicode="&#x115;" horiz-adv-x="1138" 
d="M279 553h593q-17 121 -94.5 188.5t-195.5 67.5q-120 0 -203 -68t-100 -188zM1057 481q0 -50 -2 -73h-776q17 -121 101 -191t208 -70q88 0 160.5 38.5t113.5 109.5q25 -12 80 -31.5t80 -30.5q-60 -124 -177.5 -188.5t-262.5 -64.5q-208 0 -349 139t-141 362
q0 222 140.5 359t349.5 137q207 0 341 -136t134 -360zM307 1399h152q0 -55 30.5 -88t83.5 -33q51 0 82 37.5t31 83.5h156q0 -122 -72.5 -192t-196.5 -70q-133 0 -199.5 75t-66.5 187z" />
    <glyph glyph-name="Edotaccent" unicode="&#x116;" horiz-adv-x="1157" 
d="M193 1411h835v-178h-645v-451h563v-178h-563v-426h666v-178h-856v1411zM496 1763q0 53 37 87t92 34t92 -34t37 -87t-37 -87t-92 -34t-92 34t-37 87z" />
    <glyph glyph-name="edotaccent" unicode="&#x117;" horiz-adv-x="1138" 
d="M279 553h593q-17 121 -94.5 188.5t-195.5 67.5q-120 0 -203 -68t-100 -188zM1057 481q0 -50 -2 -73h-776q17 -121 101 -191t208 -70q88 0 160.5 38.5t113.5 109.5q25 -12 80 -31.5t80 -30.5q-60 -124 -177.5 -188.5t-262.5 -64.5q-208 0 -349 139t-141 362
q0 222 140.5 359t349.5 137q207 0 341 -136t134 -360zM455 1309q0 53 37 87t92 34t92 -34t37 -87t-37 -87t-92 -34t-92 34t-37 87z" />
    <glyph glyph-name="Eogonek" unicode="&#x118;" horiz-adv-x="1157" 
d="M1038 0l-55 -156q-12 -32 -0.5 -63.5t41.5 -44.5q31 -10 59.5 3t42.5 44q7 14 7 29v16l131 8q0 -54 -21 -100q-26 -61 -75 -96t-109 -35q-40 0 -80 16q-61 26 -95 77t-34 112q0 51 16 86l56 104h-729v1411h835v-178h-645v-451h563v-178h-563v-426h666v-178h-11z" />
    <glyph glyph-name="eogonek" unicode="&#x119;" horiz-adv-x="1140" 
d="M776 -178q-11 -32 0 -64t41 -45q31 -11 60.5 2.5t42.5 44.5q6 12 6 29v16l131 9q0 -54 -21 -101q-26 -61 -75 -96t-109 -35q-38 0 -80 17q-61 26 -95 76.5t-34 111.5q0 51 16 86l68 125q-71 -18 -145 -18q-208 0 -349 139t-141 362q0 222 140.5 359t349.5 137
q207 0 341 -136t134 -360q0 -50 -2 -73h-776q17 -121 101 -191t208 -70q88 0 160.5 38.5t113.5 109.5l160 -62q-11 -22 -43 -58.5t-64 -73.5t-71.5 -111.5t-67.5 -167.5zM279 553h593q-17 121 -94.5 188.5t-195.5 67.5q-120 0 -203 -68t-100 -188z" />
    <glyph glyph-name="Ecaron" unicode="&#x11a;" horiz-adv-x="1157" 
d="M193 1411h835v-178h-645v-451h563v-178h-563v-426h666v-178h-856v1411zM578 1726l153 179h168l-225 -316h-191l-225 316h168z" />
    <glyph glyph-name="ecaron" unicode="&#x11b;" horiz-adv-x="1138" 
d="M279 553h593q-17 121 -94.5 188.5t-195.5 67.5q-120 0 -203 -68t-100 -188zM1057 481q0 -50 -2 -73h-776q17 -121 101 -191t208 -70q88 0 160.5 38.5t113.5 109.5q25 -12 80 -31.5t80 -30.5q-60 -124 -177.5 -188.5t-262.5 -64.5q-208 0 -349 139t-141 362
q0 222 140.5 359t349.5 137q207 0 341 -136t134 -360zM573 1272l154 178h168l-225 -315h-191l-225 315h168z" />
    <glyph glyph-name="Gcircumflex" unicode="&#x11c;" horiz-adv-x="1548" 
d="M1290 1241l-137 -127q-147 131 -340 131q-145 0 -265 -73t-188.5 -197.5t-68.5 -272.5t68.5 -272t188.5 -196t265 -72q192 0 318 103.5t133 277.5h-402v166h619q0 -363 -178 -546t-490 -183q-197 0 -361 96.5t-258 262t-94 363.5q0 197 94 363.5t258 264t361 97.5
q138 0 260.5 -49t216.5 -137zM934 1589l-154 178l-151 -178h-168l225 316h191l225 -316h-168z" />
    <glyph glyph-name="gcircumflex" unicode="&#x11d;" horiz-adv-x="1251" 
d="M299 -137q41 -77 117.5 -120.5t158.5 -43.5q340 0 340 434q0 4 -1 11.5t-1 11.5q-43 -83 -136 -129.5t-199 -46.5q-132 0 -242 59.5t-177 174t-67 261.5t67 263t177.5 177.5t241.5 61.5q103 0 195 -45t140 -125v149h185v-811q0 -622 -523 -622q-136 0 -250 66.5
t-182 191.5q6 3 42.5 23t69.5 37.5t44 21.5zM911 477q0 148 -91.5 233t-225.5 85q-131 0 -221 -90t-90 -228q0 -144 89 -229.5t222 -85.5q126 0 221.5 85t95.5 230zM778 1135l-153 178l-152 -178h-168l225 315h191l225 -315h-168z" />
    <glyph glyph-name="Gbreve" unicode="&#x11e;" horiz-adv-x="1548" 
d="M1290 1241l-137 -127q-147 131 -340 131q-145 0 -265 -73t-188.5 -197.5t-68.5 -272.5t68.5 -272t188.5 -196t265 -72q192 0 318 103.5t133 277.5h-402v166h619q0 -363 -178 -546t-490 -183q-197 0 -361 96.5t-258 262t-94 363.5q0 197 94 363.5t258 264t361 97.5
q138 0 260.5 -49t216.5 -137zM514 1853h152q0 -55 30.5 -87.5t83.5 -32.5q51 0 82 37t31 83h156q0 -122 -72.5 -192t-196.5 -70q-133 0 -199.5 75t-66.5 187z" />
    <glyph glyph-name="gbreve" unicode="&#x11f;" horiz-adv-x="1251" 
d="M299 -137q41 -77 117.5 -120.5t158.5 -43.5q340 0 340 434q0 4 -1 11.5t-1 11.5q-43 -83 -136 -129.5t-199 -46.5q-132 0 -242 59.5t-177 174t-67 261.5t67 263t177.5 177.5t241.5 61.5q103 0 195 -45t140 -125v149h185v-811q0 -622 -523 -622q-136 0 -250 66.5
t-182 191.5q6 3 42.5 23t69.5 37.5t44 21.5zM911 477q0 148 -91.5 233t-225.5 85q-131 0 -221 -90t-90 -228q0 -144 89 -229.5t222 -85.5q126 0 221.5 85t95.5 230zM358 1399h152q0 -55 31 -88t84 -33q51 0 81.5 37t30.5 84h156q0 -122 -72 -192t-196 -70q-133 0 -200 75
t-67 187z" />
    <glyph glyph-name="Gdotaccent" unicode="&#x120;" horiz-adv-x="1548" 
d="M1290 1241l-137 -127q-147 131 -340 131q-145 0 -265 -73t-188.5 -197.5t-68.5 -272.5t68.5 -272t188.5 -196t265 -72q192 0 318 103.5t133 277.5h-402v166h619q0 -363 -178 -546t-490 -183q-197 0 -361 96.5t-258 262t-94 363.5q0 197 94 363.5t258 264t361 97.5
q138 0 260.5 -49t216.5 -137zM678 1763q0 53 37 87t92 34t92 -34t37 -87t-37 -87t-92 -34t-92 34t-37 87z" />
    <glyph glyph-name="gdotaccent" unicode="&#x121;" horiz-adv-x="1251" 
d="M299 -137q41 -77 117.5 -120.5t158.5 -43.5q340 0 340 434q0 4 -1 11.5t-1 11.5q-43 -83 -136 -129.5t-199 -46.5q-132 0 -242 59.5t-177 174t-67 261.5t67 263t177.5 177.5t241.5 61.5q103 0 195 -45t140 -125v149h185v-811q0 -622 -523 -622q-136 0 -250 66.5
t-182 191.5q6 3 42.5 23t69.5 37.5t44 21.5zM911 477q0 148 -91.5 233t-225.5 85q-131 0 -221 -90t-90 -228q0 -144 89 -229.5t222 -85.5q126 0 221.5 85t95.5 230zM496 1309q0 53 37 87t92 34t92 -34t37 -87t-37 -87t-92 -34t-92 34t-37 87z" />
    <glyph glyph-name="Gcommaaccent" unicode="&#x122;" horiz-adv-x="1548" 
d="M1290 1241l-137 -127q-147 131 -340 131q-145 0 -265 -73t-188.5 -197.5t-68.5 -272.5t68.5 -272t188.5 -196t265 -72q192 0 318 103.5t133 277.5h-402v166h619q0 -363 -178 -546t-490 -183q-197 0 -361 96.5t-258 262t-94 363.5q0 197 94 363.5t258 264t361 97.5
q138 0 260.5 -49t216.5 -137zM760 -512l-119 39q62 83 83.5 158t10.5 198h185q0 -268 -160 -395z" />
    <glyph glyph-name="gcommaaccent" unicode="&#x123;" horiz-adv-x="1251" 
d="M299 -137q41 -77 117.5 -120.5t158.5 -43.5q340 0 340 434q0 4 -1 11.5t-1 11.5q-43 -83 -136 -129.5t-199 -46.5q-132 0 -242 59.5t-177 174t-67 261.5t67 263t177.5 177.5t241.5 61.5q103 0 195 -45t140 -125v149h185v-811q0 -622 -523 -622q-136 0 -250 66.5
t-182 191.5q6 3 42.5 23t69.5 37.5t44 21.5zM911 477q0 148 -91.5 233t-225.5 85q-131 0 -221 -90t-90 -228q0 -144 89 -229.5t222 -85.5q126 0 221.5 85t95.5 230zM635 1534l119 -39q-42 -60 -63 -104t-30.5 -106t-1.5 -146h-184q0 268 160 395z" />
    <glyph glyph-name="Hcircumflex" unicode="&#x124;" horiz-adv-x="1449" 
d="M1257 1411v-1411h-192v614h-682v-614h-190v1411h190v-623h682v623h192zM877 1589l-154 178l-152 -178h-168l226 316h190l225 -316h-167z" />
    <glyph glyph-name="hcircumflex" unicode="&#x125;" 
d="M342 516v-516h-186v1477h186v-664q38 79 132 121.5t183 42.5q182 0 285 -111.5t102 -312.5v-553h-186v541q0 117 -62.5 185.5t-162.5 68.5q-52 0 -101 -15.5t-93 -46.5t-70.5 -87.5t-26.5 -129.5zM403 1567l-153 178l-152 -178h-168l226 315h190l225 -315h-168z" />
    <glyph glyph-name="Hbar" unicode="&#x126;" horiz-adv-x="1466" 
d="M1264 1155h143v-127h-143v-1028h-191v610h-680v-610h-190v1028h-142v127h142v256h190v-256h680v256h191v-256zM393 791h680v237h-680v-237z" />
    <glyph glyph-name="hbar" unicode="&#x127;" 
d="M342 1145v-332q38 79 132 121.5t183 42.5q182 0 285 -111.5t102 -312.5v-553h-186v541q0 117 -62.5 185.5t-162.5 68.5q-52 0 -101 -15.5t-93 -46.5t-70.5 -87.5t-26.5 -129.5v-516h-186v1145h-144v127h144v205h186v-205h266v-127h-266z" />
    <glyph glyph-name="Itilde" unicode="&#x128;" horiz-adv-x="575" 
d="M193 1411h190v-1411h-190v1411zM197 1704q-21 0 -38 -22t-18 -68h-125q7 124 59.5 181.5t121.5 57.5q9 0 17.5 -0.5t17 -3t14 -4t14 -6t12 -5.5t12 -7t10 -7t11.5 -8l10 -8q3 -2 9.5 -7.5t9.5 -7.5t8.5 -6t9 -6t8.5 -4t9.5 -3t9.5 -1q21 0 38.5 19.5t18.5 64.5h125
q-7 -123 -60 -178t-122 -55q-11 0 -21.5 1t-21 5t-16.5 6t-17 9.5t-13.5 9t-14.5 11t-13 9.5q-6 4 -17 11.5t-16.5 11t-14.5 7t-17 3.5z" />
    <glyph glyph-name="itilde" unicode="&#x129;" horiz-adv-x="493" 
d="M338 956v-956h-182v956h182zM164 1249q-21 0 -37.5 -22t-17.5 -68h-125q7 124 59 182t121 58q26 0 51 -9t34.5 -15.5t33.5 -24.5q2 -2 12.5 -10t13.5 -10.5t11 -7t13.5 -6t12.5 -1.5q21 0 38.5 19.5t18.5 64.5h125q-7 -123 -60 -178.5t-122 -55.5q-13 0 -26 3t-21 5
t-21 10t-16.5 10t-17.5 13l-15 11q-5 3 -17 11t-17 11.5t-14 6.5t-17 3z" />
    <glyph glyph-name="Imacron" unicode="&#x12a;" horiz-adv-x="575" 
d="M193 1411h190v-1411h-190v1411zM31 1806h516v-164h-516v164z" />
    <glyph glyph-name="imacron" unicode="&#x12b;" horiz-adv-x="493" 
d="M338 956v-956h-182v956h182zM-2 1352h516v-164h-516v164z" />
    <glyph glyph-name="Ibreve" unicode="&#x12c;" horiz-adv-x="575" 
d="M193 1411h190v-1411h-190v1411zM20 1853h152q0 -55 31 -87.5t84 -32.5q51 0 81.5 37t30.5 83h156q0 -122 -72 -192t-196 -70q-133 0 -200 75t-67 187z" />
    <glyph glyph-name="ibreve" unicode="&#x12d;" horiz-adv-x="493" 
d="M338 956v-956h-182v956h182zM-10 1399h151q0 -55 31 -88t84 -33q51 0 82 37.5t31 83.5h155q0 -122 -72 -192t-196 -70q-133 0 -199.5 75t-66.5 187z" />
    <glyph glyph-name="Iogonek" unicode="&#x12e;" horiz-adv-x="575" 
d="M303 0l-63 -178q-12 -32 -0.5 -64t41.5 -45q31 -10 59.5 3t42.5 44q6 12 6 29v16l131 9q0 -57 -20 -101q-26 -61 -75.5 -96t-109.5 -35q-37 0 -79 17q-61 26 -95.5 76.5t-34.5 111.5q0 48 17 86l70 129v1409h190v-1411h-80z" />
    <glyph glyph-name="iogonek" unicode="&#x12f;" horiz-adv-x="495" 
d="M268 0l-63 -178q-12 -32 -0.5 -64t41.5 -45q31 -10 59.5 3t42.5 44q6 12 6 29v16l131 9q0 -57 -20 -101q-26 -61 -75 -96t-109 -35q-37 0 -80 17q-61 26 -95 76.5t-34 111.5q0 51 16 86l68 127v956h184v-956h-72zM150 1309q0 53 37 87t92 34t92 -34t37 -87t-37 -87
t-92 -34t-92 34t-37 87z" />
    <glyph glyph-name="Idotaccent" unicode="&#x130;" horiz-adv-x="575" 
d="M193 1411h190v-1411h-190v1411zM160 1763q0 53 37 87t92 34t92 -34t37 -87t-37 -87t-92 -34t-92 34t-37 87z" />
    <glyph glyph-name="dotlessi" unicode="&#x131;" horiz-adv-x="495" 
d="M340 956v-956h-184v956h184z" />
    <glyph glyph-name="IJ" unicode="&#x132;" horiz-adv-x="1150" 
d="M193 1411h190v-1411h-190v1411zM371 -492l18 181q20 -7 68.5 -12t66.5 -5q85 0 141.5 38.5t79.5 97.5t23 137v1466h190v-1466q0 -77 -14.5 -143.5t-47.5 -125t-82 -100.5t-123 -66t-167 -24q-45 0 -153 22z" />
    <glyph glyph-name="ij" unicode="&#x133;" horiz-adv-x="995" 
d="M340 956v-956h-184v956h184zM119 1309q0 53 37 87t92 34t92 -34t37 -87t-37 -87t-92 -34t-92 34t-37 87zM369 -469v174h110q46 0 78.5 15t50.5 37t28 56t12.5 62.5t2.5 67.5v1013h189v-1015q0 -410 -344 -410h-127zM616 1309q0 53 37 87t92 34t92 -34t37 -87t-37 -87
t-92 -34t-92 34t-37 87z" />
    <glyph glyph-name="Jcircumflex" unicode="&#x134;" horiz-adv-x="575" 
d="M-205 -492l19 181q20 -7 68.5 -12t66.5 -5q85 0 141.5 38.5t79.5 97.5t23 137v1466h190v-1466q0 -77 -14.5 -143.5t-47.5 -125t-82 -100.5t-123 -66t-167 -24q-46 0 -154 22zM426 1589l-154 178l-151 -178h-168l225 316h191l225 -316h-168z" />
    <glyph glyph-name="jcircumflex" unicode="&#x135;" horiz-adv-x="499" 
d="M-127 -469v174h111q46 0 78.5 15t50.5 37t28 56t12.5 62.5t2.5 67.5v1013h188v-1015q0 -410 -344 -410h-127zM412 1135l-154 178l-152 -178h-167l225 315h190l226 -315h-168z" />
    <glyph glyph-name="Kcommaaccent" unicode="&#x136;" horiz-adv-x="1183" 
d="M616 -512l-118 39q62 83 83.5 158t10.5 198h184q0 -268 -160 -395zM543 707l655 -707h-256l-559 602v-602h-190v1411h190v-610l467 610h235z" />
    <glyph glyph-name="kcommaaccent" unicode="&#x137;" horiz-adv-x="1028" 
d="M340 467v-467h-184v1477h184v-854l330 333h254l-410 -413l508 -543h-246zM506 -512l-119 39q62 83 83.5 158t10.5 198h185q0 -268 -160 -395z" />
    <glyph glyph-name="kgreenlandic" unicode="&#x138;" horiz-adv-x="1011" 
d="M340 383v-383h-184v956h184v-383l365 383h243l-444 -473l487 -483h-258z" />
    <glyph glyph-name="Lacute" unicode="&#x139;" horiz-adv-x="1013" 
d="M193 1411h190v-1233h575v-178h-765v1411zM627 1882l-244 -315h-178l198 315h224z" />
    <glyph glyph-name="lacute" unicode="&#x13a;" horiz-adv-x="497" 
d="M156 1477h186v-1477h-186v1477zM580 1907l-244 -316h-178l198 316h224z" />
    <glyph glyph-name="Lcommaaccent" unicode="&#x13b;" horiz-adv-x="1013" 
d="M193 1411h190v-1233h575v-178h-765v1411zM492 -512l-119 39q62 83 83.5 158t10.5 198h184q0 -269 -159 -395z" />
    <glyph glyph-name="lcommaaccent" unicode="&#x13c;" horiz-adv-x="497" 
d="M156 1477h186v-1477h-186v1477zM182 -512l-119 39q62 83 84 158t11 198h184q0 -268 -160 -395z" />
    <glyph glyph-name="Lcaron" unicode="&#x13d;" horiz-adv-x="1013" 
d="M193 1411h190v-1233h575v-178h-765v1411zM637 1016l-119 39q62 83 83.5 158t10.5 198h185q0 -268 -160 -395z" />
    <glyph glyph-name="lcaron" unicode="&#x13e;" horiz-adv-x="497" 
d="M156 1477h186v-1477h-186v1477zM547 1081l-119 39q62 83 83.5 158.5t10.5 198.5h185q0 -269 -160 -396z" />
    <glyph glyph-name="Ldot" unicode="&#x13f;" horiz-adv-x="1013" 
d="M193 1411h190v-1233h575v-178h-765v1411zM545 535q0 55 39 92t94 37q56 0 95.5 -37t39.5 -92t-39.5 -91t-95.5 -36q-55 0 -94 36t-39 91z" />
    <glyph glyph-name="ldot" unicode="&#x140;" horiz-adv-x="690" 
d="M156 1477h186v-1477h-186v1477zM457 535q0 55 39 92t94 37q56 0 95.5 -37t39.5 -92t-39.5 -91t-95.5 -36q-55 0 -94 36t-39 91z" />
    <glyph glyph-name="Lslash" unicode="&#x141;" horiz-adv-x="1021" 
d="M391 926l213 133v-135l-213 -133v-603h574v-188h-762v672l-133 -84v135l133 84v604h188v-485z" />
    <glyph glyph-name="lslash" unicode="&#x142;" horiz-adv-x="522" 
d="M356 1477v-576l158 103v-132l-158 -102v-770h-184v653l-137 -88v131l137 88v693h184z" />
    <glyph glyph-name="Nacute" unicode="&#x143;" horiz-adv-x="1400" 
d="M1208 0h-182l-643 1063v-1063h-190v1411h188l637 -1055v1055h190v-1411zM973 1905l-244 -316h-178l199 316h223z" />
    <glyph glyph-name="nacute" unicode="&#x144;" horiz-adv-x="1153" 
d="M342 516v-516h-186v956h186v-143q38 80 124.5 122t174.5 42q179 0 274 -110t95 -314v-553h-187v541q0 121 -56 187.5t-155 66.5q-53 0 -99.5 -15.5t-85.5 -47.5t-62 -87.5t-23 -128.5zM866 1450l-243 -315h-179l199 315h223z" />
    <glyph glyph-name="Ncommaaccent" unicode="&#x145;" horiz-adv-x="1400" 
d="M1208 0h-182l-643 1063v-1063h-190v1411h188l637 -1055v1055h190v-1411zM651 -512l-119 39q62 83 84 158t11 198h184q0 -268 -160 -395z" />
    <glyph glyph-name="ncommaaccent" unicode="&#x146;" horiz-adv-x="1153" 
d="M342 516v-516h-186v956h186v-143q38 80 124.5 122t174.5 42q179 0 274 -110t95 -314v-553h-187v541q0 121 -56 187.5t-155 66.5q-53 0 -99.5 -15.5t-85.5 -47.5t-62 -87.5t-23 -128.5zM518 -512l-119 39q62 83 84 158t11 198h184q0 -268 -160 -395z" />
    <glyph glyph-name="Ncaron" unicode="&#x147;" horiz-adv-x="1400" 
d="M1208 0h-182l-643 1063v-1063h-190v1411h188l637 -1055v1055h190v-1411zM698 1726l154 179h168l-225 -316h-191l-225 316h168z" />
    <glyph glyph-name="ncaron" unicode="&#x148;" horiz-adv-x="1153" 
d="M342 516v-516h-186v956h186v-143q38 80 124.5 122t174.5 42q179 0 274 -110t95 -314v-553h-187v541q0 121 -56 187.5t-155 66.5q-53 0 -99.5 -15.5t-85.5 -47.5t-62 -87.5t-23 -128.5zM575 1272l154 178h168l-225 -315h-191l-225 315h168z" />
    <glyph glyph-name="napostrophe" unicode="&#x149;" horiz-adv-x="1153" 
d="M18 961l-133 38q100 139 107 234q3 50 -8 121h194q0 -264 -160 -393zM342 516v-516h-186v956h186v-143q38 80 124.5 122t174.5 42q179 0 274 -110t95 -314v-553h-187v541q0 121 -56 187.5t-155 66.5q-53 0 -99.5 -15.5t-85.5 -47.5t-62 -87.5t-23 -128.5z" />
    <glyph glyph-name="Eng" unicode="&#x14a;" horiz-adv-x="1396" 
d="M1014 -47v67l-633 1035v-1055h-188v1411h186l635 -1055v1055h190v-1403q0 -87 -11 -158t-40.5 -139t-77 -114.5t-124.5 -74.5t-179 -28q-79 0 -156 23l19 190q69 -18 113 -18q84 -8 139 24q64 28 95.5 92t31.5 148z" />
    <glyph glyph-name="eng" unicode="&#x14b;" horiz-adv-x="1150" 
d="M1010 553l-2 -524q0 -80 -12.5 -147.5t-42.5 -130t-77.5 -106t-121.5 -69t-170 -25.5q-51 0 -150 21l17 186q22 -7 71 -15.5t62 -8.5q84 0 139.5 38t77.5 95.5t22 132.5v541q0 121 -56 187.5t-155 66.5q-53 0 -99.5 -15.5t-85.5 -47.5t-62 -87.5t-23 -128.5v-516h-186
v956h186v-143q38 80 124.5 122t174.5 42q179 0 275 -110.5t94 -313.5z" />
    <glyph glyph-name="Omacron" unicode="&#x14c;" horiz-adv-x="1630" 
d="M100 702q0 197 94 363.5t258 264t361 97.5q198 0 363 -97.5t259.5 -264t94.5 -363.5q0 -198 -94.5 -363.5t-259.5 -262t-363 -96.5q-197 0 -361 96.5t-258 262t-94 363.5zM291 702q0 -148 68.5 -271.5t188.5 -195t265 -71.5q146 0 266.5 71.5t189 194.5t68.5 272
t-68.5 273t-189 196t-266.5 72q-145 0 -265 -72t-188.5 -196t-68.5 -273zM557 1806h516v-164h-516v164z" />
    <glyph glyph-name="omacron" unicode="&#x14d;" horiz-adv-x="1185" 
d="M592 -20q-136 0 -249.5 61t-182 177t-68.5 263t68.5 261.5t181.5 174.5t250 60t250.5 -60t182.5 -174.5t69 -261.5t-69 -263t-183 -177t-250 -61zM592 160q132 0 223.5 88.5t91.5 232.5q0 141 -91.5 227.5t-223.5 86.5q-134 0 -225 -86.5t-91 -227.5q0 -144 91 -232.5
t225 -88.5zM315 1352h516v-164h-516v164z" />
    <glyph glyph-name="Obreve" unicode="&#x14e;" horiz-adv-x="1630" 
d="M100 702q0 197 94 363.5t258 264t361 97.5q198 0 363 -97.5t259.5 -264t94.5 -363.5q0 -198 -94.5 -363.5t-259.5 -262t-363 -96.5q-197 0 -361 96.5t-258 262t-94 363.5zM291 702q0 -148 68.5 -271.5t188.5 -195t265 -71.5q146 0 266.5 71.5t189 194.5t68.5 272
t-68.5 273t-189 196t-266.5 72q-145 0 -265 -72t-188.5 -196t-68.5 -273zM547 1853h151q0 -55 31 -87.5t84 -32.5q51 0 82 37t31 83h155q0 -122 -72 -192t-196 -70q-133 0 -199.5 75t-66.5 187z" />
    <glyph glyph-name="obreve" unicode="&#x14f;" horiz-adv-x="1185" 
d="M592 -20q-136 0 -249.5 61t-182 177t-68.5 263t68.5 261.5t181.5 174.5t250 60t250.5 -60t182.5 -174.5t69 -261.5t-69 -263t-183 -177t-250 -61zM592 160q132 0 223.5 88.5t91.5 232.5q0 141 -91.5 227.5t-223.5 86.5q-134 0 -225 -86.5t-91 -227.5q0 -144 91 -232.5
t225 -88.5zM326 1399h151q0 -55 31 -88t84 -33q51 0 82 37.5t31 83.5h155q0 -122 -72 -192t-196 -70q-133 0 -199.5 75t-66.5 187z" />
    <glyph glyph-name="Ohungarumlaut" unicode="&#x150;" horiz-adv-x="1630" 
d="M100 702q0 197 94 363.5t258 264t361 97.5q198 0 363 -97.5t259.5 -264t94.5 -363.5q0 -198 -94.5 -363.5t-259.5 -262t-363 -96.5q-197 0 -361 96.5t-258 262t-94 363.5zM291 702q0 -148 68.5 -271.5t188.5 -195t265 -71.5q146 0 266.5 71.5t189 194.5t68.5 272
t-68.5 273t-189 196t-266.5 72q-145 0 -265 -72t-188.5 -196t-68.5 -273zM928 1905l-183 -316h-170l164 316h189zM1223 1905l-209 -316h-166l182 316h193z" />
    <glyph glyph-name="ohungarumlaut" unicode="&#x151;" horiz-adv-x="1185" 
d="M592 -20q-136 0 -249.5 61t-182 177t-68.5 263t68.5 261.5t181.5 174.5t250 60t250.5 -60t182.5 -174.5t69 -261.5t-69 -263t-183 -177t-250 -61zM592 160q132 0 223.5 88.5t91.5 232.5q0 141 -91.5 227.5t-223.5 86.5q-134 0 -225 -86.5t-91 -227.5q0 -144 91 -232.5
t225 -88.5zM674 1450l-182 -315h-170l163 315h189zM969 1450l-209 -315h-166l182 315h193z" />
    <glyph glyph-name="OE" unicode="&#x152;" horiz-adv-x="2293" 
d="M1331 1411h832v-188h-641v-437h561v-188h-561v-410h663v-188h-854v221q-94 -113 -229 -177t-291 -64q-197 0 -360 96.5t-256 262t-93 363.5q0 197 93 363.5t256 264t360 97.5q156 0 290.5 -65t229.5 -178v227zM293 702q0 -146 67.5 -268t186.5 -193t264 -71q105 0 200 40
t163.5 108t110.5 162.5t46 199.5v45q-4 105 -46 200t-110.5 163.5t-163.5 108.5t-200 40q-145 0 -264 -72t-186.5 -194.5t-67.5 -268.5z" />
    <glyph glyph-name="oe" unicode="&#x153;" horiz-adv-x="1955" 
d="M1874 481q0 -50 -2 -73h-776q17 -121 101 -191t208 -70q88 0 160.5 38.5t113.5 109.5q25 -12 80 -31.5t80 -30.5q-60 -124 -177.5 -188.5t-262.5 -64.5q-124 0 -229 52t-171 146q-69 -94 -176 -146t-231 -52q-136 0 -249.5 61t-182 177t-68.5 263t68.5 261.5t181.5 174.5
t250 60q125 0 231.5 -51.5t175.5 -145.5q66 94 171 145.5t229 51.5q207 0 341 -136t134 -360zM592 160q132 0 223.5 88.5t91.5 232.5q0 141 -91.5 227.5t-223.5 86.5q-134 0 -225 -86.5t-91 -227.5q0 -144 91 -232.5t225 -88.5zM1096 553h594q-17 121 -95 188.5t-196 67.5
q-120 0 -203 -68t-100 -188z" />
    <glyph glyph-name="Racute" unicode="&#x154;" horiz-adv-x="1267" 
d="M784 535l377 -535h-231l-365 528h-180v-528h-192v1411h542q107 0 190 -37.5t131 -101t72.5 -140.5t24.5 -163q0 -81 -21 -153t-64 -133t-115.5 -100.5t-168.5 -47.5zM729 1233h-344v-526h336q62 0 109 22t73.5 60t39.5 83.5t13 96.5q0 69 -21.5 126.5t-74.5 97.5t-131 40
zM842 1905l-244 -316h-178l198 316h224z" />
    <glyph glyph-name="racute" unicode="&#x155;" horiz-adv-x="808" 
d="M342 348v-348h-186v956h186v-215q68 236 266 236q49 0 96.5 -11.5t69.5 -25.5l-29 -174q-67 33 -141 33q-89 0 -149 -61t-86.5 -160t-26.5 -230zM580 1450l-244 -315h-178l198 315h224z" />
    <glyph glyph-name="Rcommaaccent" unicode="&#x156;" horiz-adv-x="1267" 
d="M784 535l377 -535h-231l-365 528h-180v-528h-192v1411h542q107 0 190 -37.5t131 -101t72.5 -140.5t24.5 -163q0 -81 -21 -153t-64 -133t-115.5 -100.5t-168.5 -47.5zM729 1233h-344v-526h336q62 0 109 22t73.5 60t39.5 83.5t13 96.5q0 69 -21.5 126.5t-74.5 97.5t-131 40
zM586 -512l-119 39q62 83 83.5 158t10.5 198h184q0 -269 -159 -395z" />
    <glyph glyph-name="rcommaaccent" unicode="&#x157;" horiz-adv-x="808" 
d="M342 348v-348h-186v956h186v-215q68 236 266 236q49 0 96.5 -11.5t69.5 -25.5l-29 -174q-67 33 -141 33q-89 0 -149 -61t-86.5 -160t-26.5 -230zM182 -512l-119 39q62 83 84 158t11 198h184q0 -268 -160 -395z" />
    <glyph glyph-name="Rcaron" unicode="&#x158;" horiz-adv-x="1267" 
d="M784 535l377 -535h-231l-365 528h-180v-528h-192v1411h542q107 0 190 -37.5t131 -101t72.5 -140.5t24.5 -163q0 -81 -21 -153t-64 -133t-115.5 -100.5t-168.5 -47.5zM729 1233h-344v-526h336q62 0 109 22t73.5 60t39.5 83.5t13 96.5q0 69 -21.5 126.5t-74.5 97.5t-131 40
zM631 1726l153 179h168l-225 -316h-190l-226 316h168z" />
    <glyph glyph-name="rcaron" unicode="&#x159;" horiz-adv-x="808" 
d="M342 348v-348h-186v956h186v-215q68 236 266 236q49 0 96.5 -11.5t69.5 -25.5l-29 -174q-67 33 -141 33q-89 0 -149 -61t-86.5 -160t-26.5 -230zM420 1272l153 178h168l-225 -315h-190l-226 315h168z" />
    <glyph glyph-name="Sacute" unicode="&#x15a;" horiz-adv-x="1173" 
d="M106 408h191q0 -96 87 -173t216 -77q127 0 199.5 60t85.5 147q4 55 -14.5 99t-54.5 73t-78 48t-93 31l-182 46q-344 87 -344 368q0 115 64 207t168 141t224 49q196 0 325.5 -113t129.5 -300h-190q0 105 -74.5 168t-192.5 63q-108 0 -186 -59.5t-78 -153.5
q0 -147 201 -196l184 -45q202 -52 301 -164t76 -279q-21 -161 -145 -264.5t-326 -103.5q-105 0 -198 36t-157 95t-101.5 137t-37.5 160zM852 1905l-244 -316h-178l199 316h223z" />
    <glyph glyph-name="sacute" unicode="&#x15b;" horiz-adv-x="899" 
d="M504 391l-131 31q-138 37 -203 110t-53 201q12 104 107.5 174t224.5 70q63 0 118 -15t101.5 -46.5t76 -84.5t35.5 -124h-178q-7 52 -49 80t-100 28q-54 0 -93.5 -24t-50.5 -62q-12 -47 2 -76q22 -47 113 -73l141 -35q248 -62 248 -279q0 -130 -107.5 -208t-263.5 -78
q-88 0 -167 34.5t-132.5 106.5t-56.5 166h170q11 -76 78 -109q62 -39 151 -33q66 5 105.5 38t40.5 87q1 50 -33 79t-94 42zM717 1450l-244 -315h-178l199 315h223z" />
    <glyph glyph-name="Scircumflex" unicode="&#x15c;" horiz-adv-x="1173" 
d="M106 408h191q0 -96 87 -173t216 -77q127 0 199.5 60t85.5 147q4 55 -14.5 99t-54.5 73t-78 48t-93 31l-182 46q-344 87 -344 368q0 115 64 207t168 141t224 49q196 0 325.5 -113t129.5 -300h-190q0 105 -74.5 168t-192.5 63q-108 0 -186 -59.5t-78 -153.5
q0 -147 201 -196l184 -45q202 -52 301 -164t76 -279q-21 -161 -145 -264.5t-326 -103.5q-105 0 -198 36t-157 95t-101.5 137t-37.5 160zM721 1589l-154 178l-151 -178h-168l225 316h191l225 -316h-168z" />
    <glyph glyph-name="scircumflex" unicode="&#x15d;" horiz-adv-x="899" 
d="M504 391l-131 31q-138 37 -203 110t-53 201q12 104 107.5 174t224.5 70q63 0 118 -15t101.5 -46.5t76 -84.5t35.5 -124h-178q-7 52 -49 80t-100 28q-54 0 -93.5 -24t-50.5 -62q-12 -47 2 -76q22 -47 113 -73l141 -35q248 -62 248 -279q0 -130 -107.5 -208t-263.5 -78
q-88 0 -167 34.5t-132.5 106.5t-56.5 166h170q11 -76 78 -109q62 -39 151 -33q66 5 105.5 38t40.5 87q1 50 -33 79t-94 42zM602 1135l-153 178l-152 -178h-168l225 315h191l225 -315h-168z" />
    <glyph glyph-name="Scedilla" unicode="&#x15e;" horiz-adv-x="1173" 
d="M520 -240q13 -31 42.5 -44.5t60.5 -2.5q30 13 41.5 45t-0.5 64l-58 158h-6q-105 0 -198 36t-157 95t-101.5 137t-37.5 160h191q0 -96 87 -173t216 -77q127 0 199.5 60t85.5 147q7 104 -62.5 166t-177.5 85l-182 46q-344 87 -344 368q0 115 64 207t168 141t224 49
q196 0 325.5 -113t129.5 -300h-190q0 105 -74.5 168t-192.5 63q-108 0 -186 -59.5t-78 -153.5q0 -147 201 -196l184 -45q202 -52 301 -164t76 -279q-16 -132 -109 -230t-245 -126l63 -119q17 -38 17 -86q0 -61 -34 -111.5t-95 -76.5q-42 -17 -80 -17q-60 0 -109.5 35
t-75.5 96q-20 44 -20 101l131 -9v-16q0 -17 6 -29z" />
    <glyph glyph-name="scedilla" unicode="&#x15f;" horiz-adv-x="901" 
d="M573 -2l68 -125q16 -35 16 -86q0 -61 -34 -111.5t-95 -76.5q-42 -17 -79 -17q-60 0 -109.5 35t-75.5 96q-20 44 -20 101l131 -9v-16q0 -17 6 -29q14 -31 42.5 -44t59.5 -3q30 13 41.5 45t-0.5 64l-57 160q-4 0 -12.5 -1t-12.5 -1q-88 0 -167 34.5t-132.5 106.5t-56.5 166
h170q11 -76 78 -109q62 -39 151 -33q66 5 105.5 38t40.5 87q1 50 -33 79t-94 42l-131 31q-138 37 -203 110t-53 201q12 104 107.5 174t224.5 70q63 0 118 -15t101.5 -46.5t76 -84.5t35.5 -124h-178q-7 52 -49 80t-100 28q-54 0 -93.5 -24t-50.5 -62q-12 -47 2 -76
q22 -47 113 -73l141 -35q248 -62 248 -279q0 -101 -66 -171t-174 -97z" />
    <glyph glyph-name="Scaron" unicode="&#x160;" horiz-adv-x="1173" 
d="M106 408h191q0 -96 87 -173t216 -77q127 0 199.5 60t85.5 147q4 55 -14.5 99t-54.5 73t-78 48t-93 31l-182 46q-344 87 -344 368q0 115 64 207t168 141t224 49q196 0 325.5 -113t129.5 -300h-190q0 105 -74.5 168t-192.5 63q-108 0 -186 -59.5t-78 -153.5
q0 -147 201 -196l184 -45q202 -52 301 -164t76 -279q-21 -161 -145 -264.5t-326 -103.5q-105 0 -198 36t-157 95t-101.5 137t-37.5 160zM590 1726l153 179h168l-225 -316h-190l-226 316h168z" />
    <glyph glyph-name="scaron" unicode="&#x161;" horiz-adv-x="899" 
d="M504 391l-131 31q-138 37 -203 110t-53 201q12 104 107.5 174t224.5 70q63 0 118 -15t101.5 -46.5t76 -84.5t35.5 -124h-178q-7 52 -49 80t-100 28q-54 0 -93.5 -24t-50.5 -62q-12 -47 2 -76q22 -47 113 -73l141 -35q248 -62 248 -279q0 -130 -107.5 -208t-263.5 -78
q-88 0 -167 34.5t-132.5 106.5t-56.5 166h170q11 -76 78 -109q62 -39 151 -33q66 5 105.5 38t40.5 87q1 50 -33 79t-94 42zM449 1272l153 178h168l-225 -315h-191l-225 315h168z" />
    <glyph glyph-name="Tcommaaccent" unicode="&#x162;" horiz-adv-x="1163" 
d="M57 1411h1049v-180h-428v-1231h-193v1231h-428v180zM510 -512l-119 39q62 83 83.5 158t10.5 198h185q0 -268 -160 -395z" />
    <glyph glyph-name="tcommaaccent" unicode="&#x163;" horiz-adv-x="671" 
d="M414 956h202v-157h-202v-799h-187v799h-172v157h172v361h187v-361zM252 -512l-119 39q62 83 83.5 158t10.5 198h185q0 -268 -160 -395z" />
    <glyph glyph-name="Tcaron" unicode="&#x164;" horiz-adv-x="1163" 
d="M57 1411h1049v-180h-428v-1231h-193v1231h-428v180zM580 1726l153 179h168l-225 -316h-191l-225 316h168z" />
    <glyph glyph-name="tcaron" unicode="&#x165;" horiz-adv-x="671" 
d="M414 956h202v-157h-202v-799h-187v799h-172v157h172v361h187v-361zM612 1081l-118 39q62 83 83.5 158.5t10.5 198.5h184q0 -269 -160 -396z" />
    <glyph glyph-name="Tbar" unicode="&#x166;" horiz-adv-x="1161" 
d="M676 840h272v-135h-272v-705h-191v705h-270v135h270v383h-432v188h1055v-188h-432v-383z" />
    <glyph glyph-name="tbar" unicode="&#x167;" horiz-adv-x="675" 
d="M229 0v463h-139v125h139v211h-172v157h172v361h187v-361h202v-157h-202v-211h155v-125h-155v-463h-187z" />
    <glyph glyph-name="Utilde" unicode="&#x168;" horiz-adv-x="1388" 
d="M694 164q135 0 229.5 88.5t94.5 232.5v926h192v-926q0 -112 -42 -208t-112.5 -160.5t-164.5 -100.5t-197 -36q-141 0 -258 61.5t-187.5 178t-70.5 265.5v926h193v-926q0 -144 94 -232.5t229 -88.5zM602 1704q-21 0 -37.5 -22t-17.5 -68h-125q7 124 59 181.5t121 57.5
q26 0 51 -9t34.5 -15.5t33.5 -24.5q2 -2 12.5 -10t13.5 -10.5t11 -7t13.5 -6t12.5 -1.5q21 0 39 19.5t19 64.5h125q-7 -123 -60.5 -178t-122.5 -55q-11 0 -21.5 1.5t-20.5 5t-16.5 6t-16.5 9t-14 9t-14.5 10.5t-12.5 10q-5 3 -17 11.5t-17.5 11.5t-14.5 6.5t-17 3.5z" />
    <glyph glyph-name="utilde" unicode="&#x169;" horiz-adv-x="1150" 
d="M809 440v516h186v-956h-186v143q-41 -80 -125.5 -121.5t-171.5 -41.5q-180 0 -275.5 110t-93.5 313v553h187v-540q0 -121 55 -187.5t154 -66.5q53 0 99.5 15t85.5 46.5t62 87t23 129.5zM496 1249q-21 0 -38 -22t-18 -68h-125q7 124 59.5 182t121.5 58q9 0 17.5 -0.5
t17 -3t14 -4t14 -6t12 -5.5t12 -7t10 -7t11.5 -8l10 -8q3 -2 9.5 -7.5t9.5 -7.5t8.5 -6t9 -6t8.5 -4t9.5 -3t9.5 -1q21 0 38.5 19.5t18.5 64.5h125q-7 -123 -60 -178.5t-122 -55.5q-13 0 -26 3t-21 5t-21 10t-16.5 10t-17.5 13l-15 11q-5 3 -17 11t-17 11.5t-14 6.5t-17 3z
" />
    <glyph glyph-name="Umacron" unicode="&#x16a;" horiz-adv-x="1388" 
d="M694 164q135 0 229.5 88.5t94.5 232.5v926h192v-926q0 -112 -42 -208t-112.5 -160.5t-164.5 -100.5t-197 -36q-141 0 -258 61.5t-187.5 178t-70.5 265.5v926h193v-926q0 -144 94 -232.5t229 -88.5zM436 1806h516v-164h-516v164z" />
    <glyph glyph-name="umacron" unicode="&#x16b;" horiz-adv-x="1150" 
d="M809 440v516h186v-956h-186v143q-41 -80 -125.5 -121.5t-171.5 -41.5q-180 0 -275.5 110t-93.5 313v553h187v-540q0 -121 55 -187.5t154 -66.5q53 0 99.5 15t85.5 46.5t62 87t23 129.5zM330 1352h516v-164h-516v164z" />
    <glyph glyph-name="Ubreve" unicode="&#x16c;" horiz-adv-x="1388" 
d="M694 164q135 0 229.5 88.5t94.5 232.5v926h192v-926q0 -112 -42 -208t-112.5 -160.5t-164.5 -100.5t-197 -36q-141 0 -258 61.5t-187.5 178t-70.5 265.5v926h193v-926q0 -144 94 -232.5t229 -88.5zM426 1853h152q0 -55 30.5 -87.5t83.5 -32.5q51 0 82 37t31 83h156
q0 -122 -72.5 -192t-196.5 -70q-133 0 -199.5 75t-66.5 187z" />
    <glyph glyph-name="ubreve" unicode="&#x16d;" horiz-adv-x="1150" 
d="M809 440v516h186v-956h-186v143q-41 -80 -125.5 -121.5t-171.5 -41.5q-180 0 -275.5 110t-93.5 313v553h187v-540q0 -121 55 -187.5t154 -66.5q53 0 99.5 15t85.5 46.5t62 87t23 129.5zM322 1399h151q0 -55 31 -88t84 -33q51 0 81.5 37t30.5 84h156q0 -122 -72 -192
t-196 -70q-133 0 -199.5 75t-66.5 187z" />
    <glyph glyph-name="Uring" unicode="&#x16e;" horiz-adv-x="1388" 
d="M694 164q135 0 229.5 88.5t94.5 232.5v926h192v-926q0 -112 -42 -208t-112.5 -160.5t-164.5 -100.5t-197 -36q-141 0 -258 61.5t-187.5 178t-70.5 265.5v926h193v-926q0 -144 94 -232.5t229 -88.5zM477 1776q0 92 61 154.5t152 62.5q92 0 155.5 -62.5t63.5 -154.5
q0 -91 -63.5 -152t-155.5 -61q-91 0 -152 61t-61 152zM586 1776q0 -43 30.5 -74t73.5 -31q47 0 79 31t32 74q0 47 -31.5 77.5t-79.5 30.5q-43 0 -73.5 -30.5t-30.5 -77.5z" />
    <glyph glyph-name="uring" unicode="&#x16f;" horiz-adv-x="1150" 
d="M809 440v516h186v-956h-186v143q-41 -80 -125.5 -121.5t-171.5 -41.5q-180 0 -275.5 110t-93.5 313v553h187v-540q0 -121 55 -187.5t154 -66.5q53 0 99.5 15t85.5 46.5t62 87t23 129.5zM373 1321q0 92 61 154.5t152 62.5q92 0 155.5 -62.5t63.5 -154.5q0 -91 -63.5 -152
t-155.5 -61q-91 0 -152 61t-61 152zM481 1321q0 -43 31 -73.5t74 -30.5q47 0 78.5 30.5t31.5 73.5q0 47 -31.5 78t-78.5 31q-43 0 -74 -31t-31 -78z" />
    <glyph glyph-name="Uhungarumlaut" unicode="&#x170;" horiz-adv-x="1388" 
d="M694 164q135 0 229.5 88.5t94.5 232.5v926h192v-926q0 -112 -42 -208t-112.5 -160.5t-164.5 -100.5t-197 -36q-141 0 -258 61.5t-187.5 178t-70.5 265.5v926h193v-926q0 -144 94 -232.5t229 -88.5zM780 1905l-182 -316h-170l164 316h188zM1075 1905l-209 -316h-166
l183 316h192z" />
    <glyph glyph-name="uhungarumlaut" unicode="&#x171;" horiz-adv-x="1150" 
d="M809 440v516h186v-956h-186v143q-41 -80 -125.5 -121.5t-171.5 -41.5q-180 0 -275.5 110t-93.5 313v553h187v-540q0 -121 55 -187.5t154 -66.5q53 0 99.5 15t85.5 46.5t62 87t23 129.5zM657 1450l-182 -315h-170l164 315h188zM952 1450l-209 -315h-165l182 315h192z" />
    <glyph glyph-name="Uogonek" unicode="&#x172;" horiz-adv-x="1388" 
d="M848 -240q6 12 6 29v16l131 9q0 -57 -20 -101q-26 -61 -75.5 -96t-109.5 -35q-38 0 -80 17q-61 26 -95 76.5t-34 111.5q0 48 17 86l57 109q-129 12 -234.5 75.5t-169 175.5t-63.5 252v926h193v-926q0 -144 94 -232.5t229 -88.5t229.5 88.5t94.5 232.5v926h192v-926
q0 -207 -128 -343.5t-320 -157.5l-57 -162q-13 -32 -1.5 -64t41.5 -45q31 -11 60.5 2.5t42.5 44.5z" />
    <glyph glyph-name="uogonek" unicode="&#x173;" horiz-adv-x="1150" 
d="M1001 -240q7 14 7 29v16l131 9q0 -54 -21 -101q-26 -61 -75 -96t-109 -35q-38 0 -80 17q-61 26 -95 76.5t-34 111.5q0 51 16 86l68 127v143q-41 -80 -125.5 -121.5t-171.5 -41.5q-180 0 -275.5 110t-93.5 313v553h187v-540q0 -121 55 -187.5t154 -66.5q53 0 99.5 15
t85.5 46.5t62 87t23 129.5v516h186v-956h-73l-64 -178q-12 -32 -0.5 -64t41.5 -45q31 -10 59.5 3t42.5 44z" />
    <glyph glyph-name="Wcircumflex" unicode="&#x174;" horiz-adv-x="1845" 
d="M1610 1411h205l-478 -1411h-166l-249 881l-248 -881h-166l-477 1411h205l354 -1104l260 914h145l260 -914zM1075 1589l-153 178l-152 -178h-168l225 316h191l225 -316h-168z" />
    <glyph glyph-name="wcircumflex" unicode="&#x175;" horiz-adv-x="1617" 
d="M1221 0h-154l-260 702l-252 -702h-152l-364 956h199l239 -669l240 669h180l240 -669l239 669h199zM958 1135l-153 178l-152 -178h-168l226 315h190l225 -315h-168z" />
    <glyph glyph-name="Ycircumflex" unicode="&#x176;" horiz-adv-x="1286" 
d="M741 0h-196v649l-535 762h228l405 -571l410 571h229l-541 -762v-649zM799 1589l-154 178l-151 -178h-168l225 316h190l226 -316h-168z" />
    <glyph glyph-name="ycircumflex" unicode="&#x177;" horiz-adv-x="1042" 
d="M414 -465h-195l201 494l-383 927h199l286 -692l287 692h199zM680 1135l-154 178l-151 -178h-168l225 315h191l225 -315h-168z" />
    <glyph glyph-name="Ydieresis" unicode="&#x178;" horiz-adv-x="1286" 
d="M741 0h-196v649l-535 762h228l405 -571l410 571h229l-541 -762v-649zM346 1745q0 53 36 87t91 34q52 0 88.5 -34t36.5 -87t-36.5 -87t-88.5 -34q-55 0 -91 34t-36 87zM692 1745q0 53 36 87t91 34t91 -34t36 -87t-36 -87t-91 -34t-91 34t-36 87z" />
    <glyph glyph-name="Zacute" unicode="&#x179;" horiz-adv-x="1173" 
d="M86 166l745 1065h-716v180h958v-166l-749 -1065h749v-180h-987v166zM870 1905l-243 -316h-178l198 316h223z" />
    <glyph glyph-name="zacute" unicode="&#x17a;" horiz-adv-x="1028" 
d="M928 956v-153l-580 -625h580v-178h-842v154l569 624h-536v178h809zM782 1450l-243 -315h-179l199 315h223z" />
    <glyph glyph-name="Zdotaccent" unicode="&#x17b;" horiz-adv-x="1173" 
d="M86 166l745 1065h-716v180h958v-166l-749 -1065h749v-180h-987v166zM451 1763q0 53 37 87t92 34t92 -34t37 -87t-37 -87t-92 -34t-92 34t-37 87z" />
    <glyph glyph-name="zdotaccent" unicode="&#x17c;" horiz-adv-x="1028" 
d="M928 956v-153l-580 -625h580v-178h-842v154l569 624h-536v178h809zM379 1309q0 53 37 87t92 34t92 -34t37 -87t-37 -87t-92 -34t-92 34t-37 87z" />
    <glyph glyph-name="Zcaron" unicode="&#x17d;" horiz-adv-x="1173" 
d="M86 166l745 1065h-716v180h958v-166l-749 -1065h749v-180h-987v166zM578 1726l153 179h168l-225 -316h-191l-225 316h168z" />
    <glyph glyph-name="zcaron" unicode="&#x17e;" horiz-adv-x="1028" 
d="M928 956v-153l-580 -625h580v-178h-842v154l569 624h-536v178h809zM506 1272l153 178h168l-225 -315h-190l-226 315h168z" />
    <glyph glyph-name="longs" unicode="&#x17f;" horiz-adv-x="624" 
d="M711 1477v-179h-105q-56 0 -93 -20t-54.5 -57.5t-24 -76t-6.5 -91.5v-1053h-188v799h-185v157h185v97q0 198 90 311t276 113h105z" />
    <glyph glyph-name="florin" unicode="&#x192;" horiz-adv-x="1263" 
d="M430 33l164 751h-176l37 172h176l18 82q79 362 355 398q44 9 120 4l76 -4l-35 -170h-118q-33 0 -61 -9t-47.5 -22t-36.5 -36.5t-27 -43t-20.5 -50.5t-15 -50.5t-12 -52.5t-10.5 -46h221l-34 -172h-224q-17 -81 -48 -221t-56 -256t-47 -221q-20 -94 -47 -166.5t-69.5 -138
t-106 -106t-146.5 -52.5q-43 -10 -199 2l35 168h121q43 0 77.5 16t54.5 36.5t37.5 58t25 62.5t18.5 67z" />
    <glyph glyph-name="Aringacute" unicode="&#x1fa;" horiz-adv-x="1320" 
d="M961 358h-599l-137 -358h-202l536 1411h205l534 -1411h-200zM975 2234l-209 -270q52 -30 81.5 -79t29.5 -109q0 -90 -63.5 -151.5t-156.5 -61.5q-91 0 -152 61t-61 152q0 73 41 129.5t107 76.5l160 252h223zM428 530h467l-233 627zM553 1776q0 -43 30.5 -74t73.5 -31
q47 0 79 31t32 74q0 47 -31.5 77.5t-79.5 30.5q-43 0 -73.5 -30.5t-30.5 -77.5z" />
    <glyph glyph-name="aringacute" unicode="&#x1fb;" horiz-adv-x="1253" 
d="M913 0v147q-46 -77 -139 -122t-196 -45q-202 0 -344 139t-142 360q0 148 67 263t177 175t242 60q104 0 195.5 -42.5t139.5 -121.5v143h185v-956h-185zM911 481q0 145 -95.5 229.5t-221.5 84.5q-132 0 -221.5 -87.5t-89.5 -226.5t90 -229t221 -90q133 0 225 86t92 233z
M887 1763l-209 -270q52 -30 81 -78.5t29 -109.5q0 -91 -63.5 -152t-155.5 -61q-91 0 -152 61t-61 152q0 73 41 129.5t107 76.5l160 252h223zM465 1305q0 -43 30.5 -74t73.5 -31q47 0 79 31t32 74q0 47 -31.5 77.5t-79.5 30.5q-43 0 -73.5 -30.5t-30.5 -77.5z" />
    <glyph glyph-name="AEacute" unicode="&#x1fc;" horiz-adv-x="1912" 
d="M451 354l-228 -354h-223l891 1411h891v-188h-641v-437h561v-188h-561v-410h663v-188h-852v354h-501zM563 537h389v610zM1364 1905l-244 -316h-178l199 316h223z" />
    <glyph glyph-name="aeacute" unicode="&#x1fd;" horiz-adv-x="1959" 
d="M1098 956v-77q125 98 305 98q207 0 341 -136t134 -360q0 -50 -2 -73h-776q17 -121 101 -191t208 -70q88 0 160.5 38.5t113.5 109.5q25 -12 80 -31.5t80 -30.5q-60 -124 -177.5 -188.5t-262.5 -64.5q-181 0 -305 100v-80h-185v147q-46 -77 -139 -122t-196 -45
q-202 0 -344 139t-142 360q0 148 67 263t177 175t242 60q104 0 195.5 -42.5t139.5 -121.5v143h185zM911 481q0 145 -95.5 229.5t-221.5 84.5q-132 0 -221.5 -87.5t-89.5 -226.5t90 -229t221 -90q133 0 225 86t92 233zM1100 553h594q-17 121 -95 188.5t-196 67.5
q-120 0 -203 -68t-100 -188zM1282 1450l-244 -315h-178l199 315h223z" />
    <glyph glyph-name="Oslashacute" unicode="&#x1fe;" horiz-adv-x="1628" 
d="M1133 1905l-244 -316h-178l198 316h224zM365 135l-164 -168l-97 96l164 168q-170 207 -170 471q0 197 94 363.5t258 264t361 97.5q264 0 459 -165l162 165l96 -94l-164 -168q164 -203 164 -463q0 -198 -94.5 -363.5t-259.5 -262t-363 -96.5q-251 0 -446 155zM289 702
q0 -194 110 -335l740 759q-143 117 -328 117q-145 0 -265 -72t-188.5 -196t-68.5 -273zM811 164q146 0 266.5 71.5t189 194.5t68.5 272q0 184 -104 326l-735 -758q137 -106 315 -106z" />
    <glyph glyph-name="oslashacute" unicode="&#x1ff;" horiz-adv-x="1181" 
d="M891 1450l-244 -315h-178l199 315h223zM295 68l-117 -119l-96 96l115 117q-107 132 -107 319q0 147 68.5 261.5t181.5 174.5t250 60q173 0 307 -96l102 104l97 -94l-103 -105q99 -129 99 -305q0 -147 -69 -263t-183 -177t-250 -61q-170 0 -295 88zM590 795
q-134 0 -225 -86.5t-91 -227.5q0 -108 52 -184l440 448q-77 50 -176 50zM590 160q132 0 223.5 88.5t91.5 232.5q0 90 -45 168l-434 -446q70 -43 164 -43z" />
    <glyph glyph-name="Scommaaccent" unicode="&#x218;" horiz-adv-x="1173" 
d="M106 408h191q0 -96 87 -173t216 -77q127 0 199.5 60t85.5 147q13 114 -70 176q-63 52 -170 75l-182 46q-344 87 -344 368q0 115 64 207t168 141t224 49q196 0 325.5 -113t129.5 -300h-190q0 105 -74.5 168t-192.5 63q-108 0 -186 -59.5t-78 -153.5q0 -147 201 -196
l184 -45q202 -52 301 -164t76 -279q-21 -161 -145 -264.5t-326 -103.5q-105 0 -198 36t-157 95t-101.5 137t-37.5 160zM543 -512l-119 39q62 83 83.5 158t10.5 198h184q0 -269 -159 -395z" />
    <glyph glyph-name="scommaaccent" unicode="&#x219;" horiz-adv-x="899" 
d="M504 391l-131 31q-138 37 -203 110t-53 201q12 104 107.5 174t224.5 70q63 0 118 -15t101.5 -46.5t76 -84.5t35.5 -124h-178q-7 52 -49 80t-100 28q-54 0 -93.5 -24t-50.5 -62q-12 -47 2 -76q22 -47 113 -73l141 -35q248 -62 248 -279q0 -130 -107.5 -208t-263.5 -78
q-88 0 -167 34.5t-132.5 106.5t-56.5 166h170q11 -76 78 -109q62 -39 151 -33q66 5 105.5 38t40.5 87q1 50 -33 79t-94 42zM399 -512l-118 39q62 83 83.5 158t10.5 198h184q0 -268 -160 -395z" />
    <glyph glyph-name="circumflex" unicode="&#x2c6;" horiz-adv-x="1071" 
d="M688 1135l-153 178l-152 -178h-168l225 315h191l225 -315h-168z" />
    <glyph glyph-name="caron" unicode="&#x2c7;" horiz-adv-x="1071" 
d="M535 1272l153 178h168l-225 -315h-191l-225 315h168z" />
    <glyph glyph-name="breve" unicode="&#x2d8;" horiz-adv-x="985" 
d="M225 1399h152q0 -55 31 -88t84 -33q51 0 81.5 37t30.5 84h156q0 -122 -72 -192t-196 -70q-133 0 -200 75t-67 187z" />
    <glyph glyph-name="dotaccent" unicode="&#x2d9;" horiz-adv-x="1077" 
d="M410 1309q0 53 37 87t92 34t92 -34t37 -87t-37 -87t-92 -34t-92 34t-37 87z" />
    <glyph glyph-name="ring" unicode="&#x2da;" horiz-adv-x="1087" 
d="M328 1321q0 92 61 154.5t152 62.5q92 0 155.5 -62.5t63.5 -154.5q0 -91 -63.5 -152t-155.5 -61q-91 0 -152 61t-61 152zM436 1321q0 -43 31 -73.5t74 -30.5q47 0 78.5 30.5t31.5 73.5q0 47 -31.5 78t-78.5 31q-43 0 -74 -31t-31 -78z" />
    <glyph glyph-name="ogonek" unicode="&#x2db;" horiz-adv-x="1069" 
d="M604 -240q6 12 6 29v16l131 9q0 -57 -20 -101q-26 -61 -75 -96t-109 -35q-37 0 -80 17q-61 26 -95 76.5t-34 111.5q0 51 16 86l105 195h100l-88 -246q-12 -32 -0.5 -64t41.5 -45q31 -10 59.5 3t42.5 44z" />
    <glyph glyph-name="tilde" unicode="&#x2dc;" horiz-adv-x="872" 
d="M344 1249q-21 0 -37.5 -22t-17.5 -68h-125q7 124 59 182t121 58q26 0 51 -9t34.5 -15.5t33.5 -24.5q2 -2 12.5 -10t13.5 -10.5t11 -7t13.5 -6t12.5 -1.5q21 0 39 19.5t19 64.5h125q-7 -123 -60.5 -178.5t-122.5 -55.5q-13 0 -26 2.5t-21 5.5t-20.5 10t-16.5 10t-17 12.5
t-15 11.5q-4 2 -17 11t-17.5 11.5t-14 6t-17.5 3.5z" />
    <glyph glyph-name="hungarumlaut" unicode="&#x2dd;" horiz-adv-x="974" 
d="M516 1450l-182 -315h-170l164 315h188zM811 1450l-209 -315h-166l182 315h193z" />
    <glyph glyph-name="Wgrave" unicode="&#x1e80;" horiz-adv-x="1845" 
d="M1610 1411h205l-478 -1411h-166l-249 881l-248 -881h-166l-477 1411h205l354 -1104l260 914h145l260 -914zM838 1589l-244 316h223l199 -316h-178z" />
    <glyph glyph-name="wgrave" unicode="&#x1e81;" horiz-adv-x="1617" 
d="M1221 0h-154l-260 702l-252 -702h-152l-364 956h199l239 -669l240 669h180l240 -669l239 669h199zM723 1135l-244 315h223l199 -315h-178z" />
    <glyph glyph-name="Wacute" unicode="&#x1e82;" horiz-adv-x="1845" 
d="M1610 1411h205l-478 -1411h-166l-249 881l-248 -881h-166l-477 1411h205l354 -1104l260 914h145l260 -914zM1249 1905l-243 -316h-179l199 316h223z" />
    <glyph glyph-name="wacute" unicode="&#x1e83;" horiz-adv-x="1617" 
d="M1221 0h-154l-260 702l-252 -702h-152l-364 956h199l239 -669l240 669h180l240 -669l239 669h199zM1137 1450l-244 -315h-178l198 315h224z" />
    <glyph glyph-name="Wdieresis" unicode="&#x1e84;" horiz-adv-x="1845" 
d="M1610 1411h205l-478 -1411h-166l-249 881l-248 -881h-166l-477 1411h205l354 -1104l260 914h145l260 -914zM623 1745q0 53 36 87t91 34q52 0 88 -34t36 -87t-36 -87t-88 -34q-55 0 -91 34t-36 87zM969 1745q0 53 36 87t91 34t91 -34t36 -87t-36 -87t-91 -34t-91 34
t-36 87z" />
    <glyph glyph-name="wdieresis" unicode="&#x1e85;" horiz-adv-x="1617" 
d="M1221 0h-154l-260 702l-252 -702h-152l-364 956h199l239 -669l240 669h180l240 -669l239 669h199zM506 1290q0 53 36 87t91 34q52 0 88.5 -34t36.5 -87t-36.5 -87t-88.5 -34q-55 0 -91 34t-36 87zM852 1290q0 53 36 87t91 34t91 -34t36 -87t-36 -87t-91 -34t-91 34
t-36 87z" />
    <glyph glyph-name="Ygrave" unicode="&#x1ef2;" horiz-adv-x="1286" 
d="M741 0h-196v649l-535 762h228l405 -571l410 571h229l-541 -762v-649zM567 1589l-243 316h223l198 -316h-178z" />
    <glyph glyph-name="ygrave" unicode="&#x1ef3;" horiz-adv-x="1042" 
d="M414 -465h-195l201 494l-383 927h199l286 -692l287 692h199zM498 1135l-244 315h223l199 -315h-178z" />
    <glyph glyph-name="thinspace" unicode="&#x2009;" horiz-adv-x="28" 
 />
    <glyph glyph-name="endash" unicode="&#x2013;" horiz-adv-x="1218" 
d="M145 559h928v-160h-928v160z" />
    <glyph glyph-name="emdash" unicode="&#x2014;" horiz-adv-x="1640" 
d="M145 559h1350v-160h-1350v160z" />
    <glyph glyph-name="quoteleft" unicode="&#x2018;" horiz-adv-x="507" 
d="M313 1409l109 -39q-132 -185 -129 -432h-170q13 163 68 289t122 182z" />
    <glyph glyph-name="quoteright" unicode="&#x2019;" horiz-adv-x="501" 
d="M211 930l-109 39q132 185 129 432h170q-13 -163 -68 -289t-122 -182z" />
    <glyph glyph-name="quotesinglbase" unicode="&#x201a;" horiz-adv-x="495" 
d="M166 -133l-109 39q132 185 129 432h170q-13 -163 -68 -289t-122 -182z" />
    <glyph glyph-name="quotedblleft" unicode="&#x201c;" horiz-adv-x="813" 
d="M313 1411l109 -39q-132 -185 -129 -432h-170q13 163 68 289t122 182zM618 1411l109 -39q-132 -185 -129 -432h-170q13 163 68 289t122 182z" />
    <glyph glyph-name="quotedblright" unicode="&#x201d;" horiz-adv-x="808" 
d="M518 940l-108 39q132 185 129 432h170q-13 -162 -68 -288.5t-123 -182.5zM213 940l-109 39q132 185 129 432h170q-13 -163 -68 -289t-122 -182z" />
    <glyph glyph-name="quotedblbase" unicode="&#x201e;" horiz-adv-x="800" 
d="M471 -133l-109 39q133 187 130 432h170q-13 -162 -68 -288.5t-123 -182.5zM166 -133l-109 39q132 185 129 432h170q-13 -163 -68 -289t-122 -182z" />
    <glyph glyph-name="dagger" unicode="&#x2020;" horiz-adv-x="847" 
d="M514 1018h248v-184h-248v-1082h-182v1082h-246v184h246v366h182v-366z" />
    <glyph glyph-name="daggerdbl" unicode="&#x2021;" horiz-adv-x="917" 
d="M549 1018h248v-184h-248v-482h248v-182h-248v-418h-182v418h-246v182h246v482h-246v184h246v366h182v-366z" />
    <glyph glyph-name="bullet" unicode="&#x2022;" horiz-adv-x="944" 
d="M166 489q0 126 89.5 208.5t217.5 82.5q127 0 216 -82.5t89 -208.5q0 -127 -89 -209.5t-216 -82.5q-128 0 -217.5 82.5t-89.5 209.5z" />
    <glyph glyph-name="ellipsis" unicode="&#x2026;" horiz-adv-x="1470" 
d="M137 106q0 55 39 92.5t94 37.5q56 0 96 -37.5t40 -92.5t-39.5 -90.5t-96.5 -35.5q-55 0 -94 35.5t-39 90.5zM600 106q0 55 38.5 92.5t94.5 37.5t95.5 -37.5t39.5 -92.5t-39.5 -90.5t-95.5 -35.5t-94.5 35.5t-38.5 90.5zM1063 106q0 55 38.5 92.5t94.5 37.5t95.5 -37.5
t39.5 -92.5t-39.5 -90.5t-95.5 -35.5t-94.5 35.5t-38.5 90.5z" />
    <glyph glyph-name="perthousand" unicode="&#x2030;" horiz-adv-x="2029" 
d="M1092 1378l-674 -1378h-135l673 1378h136zM80 1104q0 116 78 195t194 79t195.5 -79.5t79.5 -194.5q0 -116 -79.5 -194.5t-195.5 -78.5q-117 0 -194.5 78t-77.5 195zM223 1104q0 -56 36.5 -92.5t92.5 -36.5q55 0 93 37t38 92q0 54 -38.5 92.5t-92.5 38.5q-55 0 -92 -38
t-37 -93zM776 252q0 116 78 195t195 79q115 0 194.5 -79t79.5 -195t-79 -194t-195 -78q-117 0 -195 77.5t-78 194.5zM920 252q0 -56 37 -92.5t92 -36.5t93 37t38 92q0 54 -38.5 92.5t-92.5 38.5q-55 0 -92 -38t-37 -93zM1409 252q0 116 78 195t194 79t195.5 -79.5
t79.5 -194.5q0 -116 -79.5 -194t-195.5 -78q-117 0 -194.5 77.5t-77.5 194.5zM1552 252q0 -56 37 -92.5t92 -36.5t93 37t38 92q0 54 -38.5 92.5t-92.5 38.5q-55 0 -92 -38t-37 -93z" />
    <glyph glyph-name="guilsinglleft" unicode="&#x2039;" horiz-adv-x="641" 
d="M94 477l283 424h162l-283 -424l283 -424h-162z" />
    <glyph glyph-name="guilsinglright" unicode="&#x203a;" horiz-adv-x="641" 
d="M547 477l-283 -424h-162l283 424l-283 424h162z" />
    <glyph glyph-name="fraction" unicode="&#x2044;" horiz-adv-x="368" 
d="M709 1372l-922 -1392h-139l923 1392h138z" />
    <glyph glyph-name="zerosuperior" unicode="&#x2070;" horiz-adv-x="745" 
d="M80 1280q0 92 13.5 162.5t45 130t91 91.5t143.5 32t143.5 -32t91 -91.5t45 -130t13.5 -162.5q0 -71 -8 -129t-28.5 -111.5t-52.5 -90t-84 -58t-120 -21.5t-120 21.5t-84 58t-52.5 90t-28.5 111.5t-8 129zM201 1280q0 -65 7.5 -114t26 -91t53.5 -64t85 -22t85 22t53.5 64
t26 91t7.5 114t-7.5 115t-26 92.5t-53.5 65t-85 22.5t-85 -22.5t-53.5 -65t-26 -92.5t-7.5 -115z" />
    <glyph glyph-name="foursuperior" unicode="&#x2074;" horiz-adv-x="735" 
d="M565 1042v-161h-121v161h-415l446 644h90v-529h115v-115h-115zM238 1157h206v307z" />
    <glyph glyph-name="fivesuperior" unicode="&#x2075;" horiz-adv-x="696" 
d="M53 1038l101 72q22 -58 72 -90.5t108 -32.5q82 0 129 44t47 110q0 67 -46.5 103t-107.5 36q-94 0 -227 -68l-37 48l72 423h411v-114h-311l-37 -197q61 27 129 27q115 0 194 -68t79 -190q0 -124 -80.5 -198.5t-214.5 -74.5q-88 0 -164.5 45t-116.5 125z" />
    <glyph glyph-name="sixsuperior" unicode="&#x2076;" horiz-adv-x="692" 
d="M614 1528l-108 -45q-46 94 -131 94q-78 0 -126 -75.5t-46 -194.5q49 96 164 96q109 0 182.5 -84.5t68.5 -196.5q-8 -114 -84.5 -187t-187.5 -69q-110 5 -181 78t-81 199q0 41 -1.5 90.5t5 103t16 105t32 97.5t53 81t78.5 54.5t108 17.5q38 -3 68 -10.5t62.5 -24.5
t60 -49.5t48.5 -79.5zM209 1141q0 -63 41.5 -106.5t101.5 -45.5q60 -4 100.5 36.5t45.5 102.5q4 63 -34.5 106.5t-98.5 45.5q-63 1 -107 -38t-49 -101z" />
    <glyph glyph-name="sevensuperior" unicode="&#x2077;" horiz-adv-x="669" 
d="M643 1686l-440 -805h-142l375 684h-356v121h563z" />
    <glyph glyph-name="eightsuperior" unicode="&#x2078;" horiz-adv-x="700" 
d="M133 1485q0 89 62 150t155 61q92 0 156.5 -61.5t64.5 -149.5q0 -71 -59 -137q55 -36 86 -92t31 -123q0 -111 -80.5 -187t-198.5 -76t-198 76t-80 187q0 68 29.5 124t84.5 91q-53 59 -53 137zM193 1133q0 -60 45 -102t112 -42q66 0 112 42t46 102q0 62 -46.5 107.5
t-111.5 45.5h-8q-64 0 -106.5 -45.5t-42.5 -107.5zM254 1485q0 -36 25 -64t65 -32h10q41 4 68 32t27 64q0 37 -29 63.5t-70 26.5t-68.5 -26.5t-27.5 -63.5z" />
    <glyph glyph-name="ninesuperior" unicode="&#x2079;" horiz-adv-x="692" 
d="M78 1032l108 45q46 -94 131 -94q78 0 126 75.5t46 194.5q-49 -96 -163 -96q-109 0 -183 84.5t-69 196.5q4 112 83.5 186.5t188.5 69.5q110 -5 181 -78t81 -199q0 -41 1.5 -90.5t-5 -103t-16 -105t-32 -97.5t-53 -81t-78.5 -54.5t-108 -17.5q-168 4 -239 164zM483 1419
q0 63 -41.5 106.5t-101.5 45.5q-60 4 -100 -36.5t-45 -102.5q-4 -63 34.5 -106.5t98.5 -45.5q63 -1 106.5 38t48.5 101z" />
    <glyph glyph-name="zeroinferior" unicode="&#x2080;" horiz-adv-x="745" 
d="M80 100q0 92 13.5 162.5t45 130t91 91.5t143.5 32t143.5 -32t91 -91.5t45 -130t13.5 -162.5q0 -71 -8 -128.5t-28.5 -111t-52.5 -90t-84 -58t-120 -21.5t-120 21.5t-84 58t-52.5 90t-28.5 111t-8 128.5zM201 100q0 -65 7.5 -114t26 -90.5t53.5 -63.5t85 -22t85 22
t53.5 63.5t26 90.5t7.5 114t-7.5 115t-26 92.5t-53.5 65t-85 22.5t-85 -22.5t-53.5 -65t-26 -92.5t-7.5 -115z" />
    <glyph glyph-name="oneinferior" unicode="&#x2081;" horiz-adv-x="423" 
d="M190 -299v625l-139 -72v117l262 143v-813h-123z" />
    <glyph glyph-name="twoinferior" unicode="&#x2082;" horiz-adv-x="665" 
d="M80 -242l323 392q56 70 56 124q0 55 -39 90t-96 35q-55 0 -95.5 -36t-50.5 -97l-108 29q17 101 88 161t166 60q107 0 180.5 -68t73.5 -174q0 -113 -89 -208l-206 -244h297v-121h-500v57z" />
    <glyph glyph-name="threeinferior" unicode="&#x2083;" horiz-adv-x="655" 
d="M178 332l-82 65q36 58 97.5 89.5t134.5 27.5q97 -4 161.5 -69.5t59.5 -151.5q0 -25 -6 -49q-22 -72 -88 -111q62 -24 97 -85.5t30 -129.5q-7 -103 -94 -169t-199 -58q-78 6 -142.5 52t-97.5 116l98 53q20 -43 61 -75t89 -36h-2q66 -5 120 34t54 97q2 57 -44.5 100.5
t-109.5 43.5h-92v106h92q42 0 72.5 26.5t38.5 65.5q11 48 -14 82q-12 20 -37.5 32.5t-55.5 14.5q-88 8 -141 -71z" />
    <glyph glyph-name="fourinferior" unicode="&#x2084;" horiz-adv-x="737" 
d="M567 -137v-162h-121v162h-415l446 643h90v-529h115v-114h-115zM240 -23h206v308z" />
    <glyph glyph-name="fiveinferior" unicode="&#x2085;" horiz-adv-x="692" 
d="M53 -141l101 71q22 -58 72 -90.5t108 -32.5q82 0 129 44t47 110q0 67 -46.5 103t-107.5 36q-96 0 -227 -67l-37 47l72 424h411v-115h-311l-37 -196q59 26 129 26q115 0 194 -68t79 -190q0 -124 -80.5 -198t-214.5 -74q-88 0 -164.5 45t-116.5 125z" />
    <glyph glyph-name="sixinferior" unicode="&#x2086;" horiz-adv-x="690" 
d="M614 348l-108 -45q-46 94 -131 94q-78 0 -126 -75.5t-46 -194.5q49 96 164 96q109 0 182.5 -84t68.5 -196q-8 -114 -84.5 -187t-187.5 -69q-110 5 -181 77.5t-81 198.5q0 41 -1.5 90.5t5 103t16 105t32 97.5t53 81t78.5 54.5t108 17.5q38 -3 68 -10.5t62.5 -24.5
t60 -49.5t48.5 -79.5zM209 -39q0 -63 41.5 -106t101.5 -45q60 -4 100.5 36.5t45.5 102.5q4 63 -34.5 106t-98.5 45q-63 1 -107 -38t-49 -101z" />
    <glyph glyph-name="seveninferior" unicode="&#x2087;" horiz-adv-x="655" 
d="M645 506l-440 -805h-142l375 684h-356v121h563z" />
    <glyph glyph-name="eightinferior" unicode="&#x2088;" horiz-adv-x="700" 
d="M133 305q0 89 62 150t155 61q92 0 156.5 -61.5t64.5 -149.5q0 -71 -59 -137q55 -36 86 -92t31 -123q0 -110 -80.5 -186t-198.5 -76t-198 75.5t-80 186.5q0 68 29.5 124t84.5 91q-53 59 -53 137zM193 -47q0 -60 45 -101.5t112 -41.5q66 0 112 41.5t46 101.5
q0 62 -46.5 107.5t-111.5 45.5h-8q-64 0 -106.5 -45.5t-42.5 -107.5zM254 305q0 -36 25 -64t65 -32h10q41 4 68 32t27 64q0 37 -29 63.5t-70 26.5t-68.5 -26.5t-27.5 -63.5z" />
    <glyph glyph-name="nineinferior" unicode="&#x2089;" horiz-adv-x="692" 
d="M80 -147l108 45q46 -95 131 -95q78 0 126.5 76t46.5 195q-50 -97 -164 -97q-109 0 -183 84.5t-69 196.5q4 112 83.5 186.5t188.5 69.5q110 -5 181 -77.5t81 -198.5q4 -45 4 -91t-5 -102t-16.5 -105.5t-34 -97t-54 -81.5t-79 -54t-106.5 -18q-168 4 -239 164zM485 240
q0 63 -41.5 106t-101.5 45q-60 4 -100 -36.5t-45 -102.5q-4 -63 34.5 -106.5t98.5 -45.5q63 -1 106.5 38.5t48.5 101.5z" />
    <glyph glyph-name="colonmonetary" unicode="&#x20a1;" horiz-adv-x="1437" 
d="M637 0l-80 -223l-96 35l78 221q-85 34 -154 88l-96 -268l-96 32l108 308q-98 100 -151.5 231t-53.5 278q0 185 84 344.5t232 260t329 116.5l80 226l97 -35l-68 -189q93 -3 176 -30l64 178l96 -33l-66 -182q122 -57 221 -170l-143 -119q-65 68 -141 111l-359 -1004
q56 -12 113 -12q117 0 217.5 47t173.5 133l144 -121q-96 -115 -234 -179t-301 -64q-95 0 -174 20zM811 1243h-27l-333 -936q63 -60 151 -100l361 1012q-70 24 -152 24zM287 702q0 -162 88 -303l295 824q-169 -46 -276 -191t-107 -330z" />
    <glyph glyph-name="lira" unicode="&#x20a4;" horiz-adv-x="1300" 
d="M295 815v213q0 119 59.5 211.5t154.5 140t206 47.5q170 0 286.5 -118t116.5 -310h-184q0 89 -41.5 151t-106.5 81q-57 15 -92 8q-87 -5 -152 -63t-65 -148v-213h314v-108h-314v-136h314v-108h-314v-279h500q35 0 35 45v117h184v-100q0 -108 -50.5 -177t-146.5 -69h-893
v184h189v279h-156v108h156v136h-156v108h156z" />
    <glyph glyph-name="uni20A6" unicode="&#x20a6;" horiz-adv-x="1550" 
d="M1274 0h-182l-310 512h-333v-512h-191v512h-141v113h141v151h-141v113h141v522h188l316 -522h321v522h191v-522h168v-113h-168v-151h168v-113h-168v-512zM449 776v-151h264l-90 151h-174zM829 776l93 -151h161v151h-254zM449 1063v-174h104zM989 512l94 -156v156h-94z
" />
    <glyph glyph-name="peseta" unicode="&#x20a7;" horiz-adv-x="1525" 
d="M272 817h-163v113h163v100h-163v113h163v268h564q148 0 244 -74t141 -194h213v-113h-185q6 -44 6 -84v-16h179v-113h-195q-35 -133 -133 -211t-270 -78h-371v-528h-193v817zM1065 930v16q0 32 -10 84h-590v-100h600zM465 707h358q156 0 213 110h-571v-110zM834 1233h-369
v-90h541q-64 90 -172 90z" />
    <glyph glyph-name="rupee" unicode="&#x20a8;" horiz-adv-x="1380" 
d="M379 528h-242v179h398q118 0 174 71t61 180h-633v113h621q-48 162 -215 162h-406l-2 178h1147v-113h-442q94 -89 118 -227h324v-113h-315q-2 -79 -24 -149t-64 -129.5t-114 -98t-167 -46.5l377 -535h-232z" />
    <glyph glyph-name="uni20A9" unicode="&#x20a9;" horiz-adv-x="2011" 
d="M399 561h-276v113h239l-69 205h-170v112h131l-141 420h204l136 -420h413l66 230h145l66 -230h413l136 420h204l-143 -420h135v-112h-172l-69 -205h241v-113h-278l-191 -561h-166l-159 561h-181l-157 -561h-166zM1174 879l59 -205h221l66 205h-346zM487 879l66 -205h223
l58 205h-347zM1264 561l73 -254l82 254h-155zM590 561l82 -254l71 254h-153zM1001 879l-57 -205h119l-59 205h-3z" />
    <glyph glyph-name="afii57636" unicode="&#x20aa;" horiz-adv-x="1538" 
d="M1032 680v-342h-182v342q0 102 -68.5 171t-181.5 69h-219v-920h-184v1102h403q193 0 312.5 -120.5t119.5 -301.5zM506 422v342h182v-342q0 -102 68.5 -171t181.5 -69h219v920h184v-1102h-403q-193 0 -312.5 120.5t-119.5 301.5z" />
    <glyph glyph-name="Euro" unicode="&#x20ac;" horiz-adv-x="1603" 
d="M1063 748h-957v114h209q56 235 233 386t421 151q287 0 512 -225l-129 -130q-176 173 -383 173q-166 0 -289.5 -99.5t-169.5 -255.5h553v-114zM106 623h957v-113h-551q45 -151 170 -248.5t287 -97.5q211 0 385 174l129 -131q-107 -107 -238.5 -166t-275.5 -59
q-242 0 -420.5 148t-231.5 380h-211v113z" />
    <glyph glyph-name="uni2113" unicode="&#x2113;" horiz-adv-x="804" 
d="M453 182h194v-182h-219q-281 0 -281 326v776q0 325 281 325q143 0 208.5 -89t65.5 -236v-389q0 -180 -81 -254t-291 -74v-59q0 -95 41 -125q36 -19 82 -19zM330 569h98q47 0 68.5 43.5t21.5 110.5v367q0 155 -90 155q-98 0 -98 -155v-521z" />
    <glyph glyph-name="afii61352" unicode="&#x2116;" horiz-adv-x="1984" 
d="M1341 1143q0 110 80 189t191 79q110 0 189 -79t79 -189t-79 -189.5t-189 -79.5t-190.5 79.5t-80.5 189.5zM1481 1143q0 -54 38.5 -92.5t92.5 -38.5t92.5 38.5t38.5 92.5t-38.5 92.5t-92.5 38.5t-92.5 -38.5t-38.5 -92.5zM1352 692v96h518v-96h-518zM1212 0h-182
l-643 1063v-1063h-190v1411h188l637 -1055v1055h190v-1411z" />
    <glyph glyph-name="trademark" unicode="&#x2122;" horiz-adv-x="1728" 
d="M135 1395h731l252 -553l252 553h119l94 -785h-133l-66 549l-208 -465h-113l-213 465l-64 -549h-135l78 664h-217v-664h-139v664h-238v121z" />
    <glyph glyph-name="estimated" unicode="&#x212e;" horiz-adv-x="1349" 
d="M1251 571h-878v-395q138 -129 311 -129q82 0 149 20t118 59t87.5 80.5t75.5 100.5l64 -39q-46 -69 -89 -116.5t-101.5 -89t-134 -62t-169.5 -20.5q-122 0 -227 47.5t-176.5 128t-111.5 189t-40 228.5q0 164 66.5 298t196.5 215t300 81q169 0 298 -82.5t195 -217
t66 -296.5zM1006 639v334q-60 55 -144 91t-170 36q-195 0 -319 -127v-334h633z" />
    <glyph glyph-name="minus" unicode="&#x2212;" horiz-adv-x="1179" 
d="M152 625h876v-168h-876v168z" />
    <glyph glyph-name="notequal" unicode="&#x2260;" horiz-adv-x="1216" 
d="M637 403h442v-178h-530l-111 -225h-143l111 225h-269v178h355l106 218h-461v178h547l111 225h145l-111 -225h250v-178h-338z" />
    <glyph glyph-name="lessequal" unicode="&#x2264;" horiz-adv-x="1339" 
d="M1171 289l-1036 397v178l1036 398v-199l-778 -287l778 -291v-196zM154 164h1017v-164h-1017v164z" />
    <glyph glyph-name="greaterequal" unicode="&#x2265;" horiz-adv-x="1339" 
d="M1204 686l-1036 -397v196l778 291l-778 287v199l1036 -398v-178zM168 164h1018v-164h-1018v164z" />
    <glyph glyph-name="commaaccent" unicode="&#xf6c3;" horiz-adv-x="567" 
d="M262 -512l-119 39q62 83 84 158t11 198h184q0 -268 -160 -395z" />
    <glyph glyph-name="rupiah" unicode="&#xf6dd;" horiz-adv-x="2408" 
d="M743 535l377 -535h-231l-365 528h-180v-528h-192v1411h542q107 0 190 -37.5t131 -101t72.5 -140.5t24.5 -163q0 -81 -21 -153t-64 -133t-115.5 -100.5t-168.5 -47.5zM688 1233h-344v-526h336q62 0 109 22t73.5 60t39.5 83.5t13 96.5q0 69 -21.5 126.5t-74.5 97.5t-131 40
zM1524 956v-149q48 80 139 125t195 45q201 0 340 -140t139 -362q0 -147 -65.5 -261.5t-173.5 -174t-240 -59.5q-105 0 -195.5 42t-138.5 121v-608h-187v1421h187zM1526 473q0 -145 94 -228t219 -83q132 0 220.5 85.5t88.5 225.5q0 141 -89 231.5t-220 90.5t-222 -87.5
t-91 -234.5z" />
    <glyph glyph-name="apple" unicode="&#xf8ff;" horiz-adv-x="1734" 
d="M1571 1407v-1407h-1407v1407h1407zM336 1219v-773h166l-152 154v365l522 -519l525 519v-365l-152 -154h172v773l-545 -539zM367 270h-31v-108h18v76l27 -76h20l23 76v-76h18v108h-28l-19 -73zM508 270q-25 0 -38 -15t-13 -40q0 -22 13 -37.5t38 -15.5q22 0 34.5 15.5
t12.5 37.5q0 24 -12.5 39.5t-34.5 15.5zM508 182q-16 0 -25.5 10.5t-9.5 22.5t9.5 23.5t25.5 11.5q12 0 18 -11t6 -24q0 -33 -24 -33zM582 203h-27q0 -20 12.5 -30.5t32.5 -10.5q25 0 35 8.5t10 26.5q0 22 -31 28l-10 2l-7.5 1.5t-5.5 1.5l-4.5 1.5t-2.5 1.5t-1.5 2t-0.5 3
q0 12 18 12q21 0 21 -12h18q0 32 -39 32q-15 0 -27 -8t-12 -24q0 -11 8 -17t25 -14q27 0 27 -10t-4.5 -12.5t-16.5 -2.5q-18 0 -18 21zM645 250h35v-88h16v88h31v20h-82v-20zM772 270h-18l-45 -108h24l8 26h45l7 -26h22zM766 244l14 -37h-32l12 37h6zM872 270h-57v-108h19
v45h26q19 0 19 -19v-26h26q-6 6 -6 26q0 19 -14 27q10 4 12 8t2 15q0 32 -27 32zM860 221h-26v29h26q19 0 19 -12q0 -17 -19 -17zM954 270h-41v-108h41q24 0 38 16.5t14 42.5q0 49 -52 49zM954 182h-16v68h8q22 0 28.5 -8t6.5 -27q0 -13 -8 -23t-19 -10zM1087 270h-75v-108
h82v20h-58v25h51v18h-51v25h51v20zM1112 203h-18q0 -41 45 -41q20 0 32.5 9t12.5 26q0 22 -31 28q-5 1 -10.5 2t-8.5 1.5t-6 1.5l-4.5 1.5t-3 1.5t-2 2t-0.5 3q0 12 15 12h5.5h5.5t4 -0.5t4 -1t2.5 -2t2 -3.5t0.5 -5h21q0 32 -39 32q-45 0 -45 -32q0 -11 9.5 -17.5
t29.5 -13.5q24 0 24 -10q0 -15 -18 -15q-27 0 -27 21zM1206 270h-14v-108h14v108zM1296 176l9 -14h12v59h-45v-18h24q-9 -21 -24 -21q-16 0 -24.5 10.5t-8.5 22.5t8.5 23.5t24.5 11.5q6 0 12 -6t6 -15h27q-8 41 -45 41q-24 0 -37.5 -15.5t-13.5 -39.5q0 -22 13.5 -37.5
t37.5 -15.5q18 0 24 14zM1346 270h-17v-108h17v67l45 -67h26v108h-26v-67z" />
    <glyph glyph-name="CR" horiz-adv-x="532" 
 />
    <glyph glyph-name="published" horiz-adv-x="1656" 
d="M893 573h-137v-249h-142v723h279q112 0 172.5 -70.5t60.5 -167.5q0 -41 -14 -81t-40.5 -75.5t-73 -57.5t-105.5 -22zM893 907h-137v-194h133q45 0 68.5 28t23.5 68q0 41 -23 69.5t-65 28.5zM113 702q0 197 94.5 363.5t259 264t360.5 97.5q147 0 280 -57.5t228.5 -155
t152 -231.5t56.5 -281q0 -148 -56.5 -281.5t-152 -230t-228.5 -153.5t-280 -57t-279.5 57t-227.5 153.5t-151 230t-56 281.5zM238 702q0 -121 46.5 -231t125 -190t187.5 -127.5t230 -47.5q161 0 297 80t214.5 217t78.5 299q0 163 -78.5 300.5t-214.5 217.5t-297 80
q-121 0 -230 -47.5t-187.5 -127.5t-125 -190.5t-46.5 -232.5z" />
    <glyph glyph-name="frenchfranc" horiz-adv-x="1486" 
d="M979 238v-238h-186v676h-410v-676h-184v1384h802v-184h-618v-340h596v-229q36 124 102.5 179.5t163.5 55.5q49 0 96.5 -11.5t69.5 -25.5l-29 -174q-67 33 -141 33q-89 0 -149 -60.5t-86.5 -159.5t-26.5 -230z" />
    <glyph glyph-name="parenleft.case" horiz-adv-x="743" 
d="M100 713q0 439 153.5 695.5t408.5 256.5v-182q-177 0 -282.5 -208t-105.5 -562t105.5 -562t282.5 -208v-183q-255 0 -408.5 257t-153.5 696z" />
    <glyph glyph-name="parenright.case" horiz-adv-x="743" 
d="M643 713q0 -440 -153 -696.5t-408 -256.5v183q176 0 281.5 208.5t105.5 561.5t-105.5 561.5t-281.5 208.5v182q255 0 408 -256t153 -696z" />
    <glyph glyph-name="hyphen.case" horiz-adv-x="995" 
d="M141 807h713v-178h-713v178z" />
    <glyph glyph-name="at.case" horiz-adv-x="1988" 
d="M1231 461v264q0 112 -76.5 188t-187.5 76t-188 -76t-77 -188q0 -109 77.5 -185.5t187.5 -76.5q104 0 202 98v-174q-97 -70 -202 -70q-168 0 -289 120t-121 288q0 171 121 290.5t289 119.5q166 0 282 -113q118 -112 127 -279v-297q0 -135 148 -135q56 0 100 30t69.5 76
t42 107.5t22 116t5.5 109.5q0 153 -62.5 288t-168.5 228.5t-248 147.5t-297 54q-154 0 -291.5 -59.5t-235.5 -160.5t-155 -240t-57 -293t57 -292.5t155 -238.5t235.5 -158.5t291.5 -58.5h47v-145h-47q-183 0 -347.5 70t-282 189.5t-186.5 284.5t-69 349t69 350t186.5 286.5
t282 191.5t347.5 71q247 0 458.5 -111t338.5 -310.5t127 -442.5q0 -76 -12 -153t-41.5 -155.5t-72 -138t-110.5 -97.5t-151 -38q-60 0 -110 15t-92.5 47.5t-66.5 91.5t-24 139z" />
    <glyph glyph-name="bracketleft.case" horiz-adv-x="669" 
d="M172 -219v1876h412v-170h-228v-1536h228v-170h-412z" />
    <glyph glyph-name="bracketright.case" horiz-adv-x="669" 
d="M498 1653v-1876h-412v170h227v1536h-227v170h412z" />
    <glyph glyph-name="braceleft.case" horiz-adv-x="819" 
d="M381 522v-356q0 -99 65 -169.5t156 -70.5h137v-162h-131q-171 0 -287 110.5t-116 291.5v356q0 42 -37 73.5t-88 31.5v166q51 0 88 31t37 73v360q0 180 116 290t287 110h131v-162h-137q-91 0 -156 -69.5t-65 -168.5v-360q0 -57 -26.5 -110t-73.5 -78q44 -24 72 -78
t28 -109z" />
    <glyph glyph-name="braceright.case" horiz-adv-x="819" 
d="M438 166v356q0 55 28.5 109t72.5 78q-47 25 -74 78t-27 110v360q0 99 -65 168.5t-156 69.5h-137v162h131q171 0 287 -110t116 -290v-360q0 -42 37 -73t88 -31v-166q-51 0 -88 -31.5t-37 -73.5v-356q0 -181 -116 -291.5t-287 -110.5h-131v162h137q91 0 156 70.5t65 169.5z
" />
    <glyph glyph-name="exclamdown.case" horiz-adv-x="538" 
d="M344 1028l18 -1030h-184l21 1030h145zM135 1300q0 55 39 91t94 36q56 0 95.5 -36t39.5 -91t-39.5 -92t-95.5 -37q-55 0 -94 37t-39 92z" />
    <glyph glyph-name="guillemotleft.case" horiz-adv-x="1054" 
d="M117 717l282 424h162l-282 -424l282 -424h-162zM477 717l283 424h162l-283 -424l283 -424h-162z" />
    <glyph glyph-name="periodcentered.case" horiz-adv-x="548" 
d="M141 723q0 55 39 92t94 37q56 0 96 -37t40 -92t-40 -91t-96 -36q-55 0 -94 36t-39 91z" />
    <glyph glyph-name="guillemotright.case" horiz-adv-x="1054" 
d="M938 717l-283 -424h-161l282 424l-282 424h161zM578 717l-283 -424h-162l283 424l-283 424h162z" />
    <glyph glyph-name="questiondown.case" horiz-adv-x="987" 
d="M717 408h184q0 -192 -116.5 -310t-286.5 -118q-112 0 -207 47.5t-154 140t-59 211.5q0 143 84 245.5t211 141.5q74 22 109.5 52.5t35.5 96.5l4 121h180v-121q0 -137 -70.5 -210.5t-203.5 -114.5q-54 -14 -98 -62q-70 -63 -70 -149q0 -96 71.5 -156.5t166.5 -60.5
q94 0 156.5 67t62.5 179zM745 1300q0 -55 -39.5 -92t-95.5 -37t-94.5 37t-38.5 92t38.5 91t94.5 36t95.5 -36t39.5 -91z" />
    <glyph glyph-name="endash.case" horiz-adv-x="1222" 
d="M147 797h928v-160h-928v160z" />
    <glyph glyph-name="emdash.case" horiz-adv-x="1644" 
d="M147 797h1350v-160h-1350v160z" />
    <glyph glyph-name="bullet.case" horiz-adv-x="948" 
d="M168 717q0 126 89.5 208.5t217.5 82.5q127 0 216 -82.5t89 -208.5q0 -127 -89 -210t-216 -83q-128 0 -217.5 83t-89.5 210z" />
    <glyph glyph-name="guilsinglleft.case" horiz-adv-x="694" 
d="M117 717l282 424h162l-282 -424l282 -424h-162z" />
    <glyph glyph-name="guilsinglright.case" horiz-adv-x="694" 
d="M578 717l-283 -424h-162l283 424l-283 424h162z" />
    <glyph glyph-name="cent.case" horiz-adv-x="1091" 
d="M516 0v219q-179 30 -295.5 164t-116.5 330q0 194 116.5 325.5t295.5 161.5v211h127v-205q99 -4 186 -43.5t150 -107.5l-141 -119q-90 90 -228 90q-134 0 -227.5 -86.5t-93.5 -226.5t94.5 -231t226.5 -91q137 0 228 94l143 -118q-129 -141 -338 -154v-213h-127z" />
    <glyph glyph-name="zero.tnum" 
d="M109 666q0 121 13 218.5t47 187.5t87.5 150.5t139.5 96t198 35.5t197.5 -35.5t139 -96t87 -150.5t46.5 -187.5t13 -218.5q0 -120 -13 -217t-46.5 -186t-87 -149.5t-139 -96t-197.5 -35.5t-198 35.5t-139.5 96t-87.5 149.5t-47 186.5t-13 216.5zM293 666q0 -88 8 -159
t29 -136.5t54.5 -110t86.5 -70.5t123 -26t123 26t86.5 70.5t54.5 110t29 136.5t8 159t-8 159.5t-29 137.5t-54.5 110t-86.5 70t-123 26t-123 -26t-86.5 -70t-54.5 -110t-29 -137.5t-8 -159.5z" />
    <glyph glyph-name="one.tnum" 
d="M555 0v1104l-217 -76v176l401 146v-1350h-184z" />
    <glyph glyph-name="two.tnum" 
d="M176 82l543 657q98 120 98 219q0 96 -68 153.5t-169 57.5q-94 0 -161.5 -56.5t-80.5 -154.5l-178 43q24 160 142.5 256.5t277.5 96.5q178 0 298.5 -111t120.5 -285q0 -185 -145 -346q-98 -113 -194.5 -229t-167.5 -199h509v-184h-825v82z" />
    <glyph glyph-name="three.tnum" 
d="M348 1051l-137 108q56 98 159.5 151t227.5 46q107 -5 193.5 -58.5t132.5 -136.5t43 -176q0 -35 -13 -82q-38 -121 -145 -182q99 -36 159 -143.5t52 -217.5q-17 -171 -159.5 -279.5t-330.5 -96.5q-132 10 -237 85t-160 193l162 88q32 -72 101.5 -125t148.5 -59h-2
q72 -5 138 23t108 80.5t45 115.5q4 96 -75 168t-184 72h-151v178h151q71 -1 122 42.5t63 110.5q15 86 -23 138q-49 67 -155 77q-146 11 -234 -120z" />
    <glyph glyph-name="four.tnum" 
d="M920 274v-274h-183v274h-696l741 1063h138v-888h192v-175h-192zM354 449h383v557z" />
    <glyph glyph-name="five.tnum" 
d="M115 285l157 86q39 -99 115 -156t172 -57q161 0 241.5 76t80.5 196q0 123 -79.5 189.5t-197.5 66.5q-85 0 -156 -24t-176 -87l-114 95l116 665h713v-176h-561l-74 -379q45 33 118 55.5t134 22.5q93 0 175.5 -28t145.5 -81t99.5 -135t36.5 -184q0 -204 -138.5 -327
t-363.5 -123q-140 0 -261.5 83t-182.5 222z" />
    <glyph glyph-name="six.tnum" 
d="M1032 1096l-164 -70q-39 78 -99.5 116t-127.5 38q-139 0 -223 -133t-64 -334q31 78 103.5 114.5t171.5 36.5q119 0 216 -65t148.5 -169.5t48.5 -223.5q-8 -181 -138.5 -306t-309.5 -118q-179 8 -294 129.5t-132 328.5q-18 253 22 506q30 186 154.5 299t304.5 109
q61 -2 111 -14.5t101 -40t94.5 -78.5t76.5 -125zM352 434q0 -111 72 -186t178 -80q105 -4 179 67t79 179q5 109 -63 185.5t-174 80.5q-106 5 -186.5 -67t-84.5 -179z" />
    <glyph glyph-name="seven.tnum" 
d="M1102 1337l-733 -1337h-215l637 1155h-613v182h924z" />
    <glyph glyph-name="eight.tnum" 
d="M238 1012q0 143 102 242.5t254 99.5q153 0 256.5 -100t103.5 -242t-104 -236q98 -60 151.5 -153t53.5 -205q0 -183 -133 -309.5t-328 -126.5q-196 0 -328.5 126t-132.5 310q0 111 54.5 205.5t148.5 152.5q-98 95 -98 236zM317 418q0 -106 80 -180t197 -74t196.5 74
t79.5 180q0 105 -80 181.5t-196 76.5h-14q-112 -4 -187.5 -79.5t-75.5 -178.5zM420 1012q0 -66 46 -113t118 -51h16q73 4 121.5 51t48.5 113t-50.5 111.5t-125.5 45.5q-73 0 -123.5 -45.5t-50.5 -111.5z" />
    <glyph glyph-name="nine.tnum" 
d="M154 238l163 69q39 -78 99.5 -115.5t128.5 -37.5q140 0 221.5 132t64.5 335q-31 -78 -103.5 -115t-170.5 -37q-118 0 -216 65t-150.5 170.5t-47.5 223.5q8 181 139 306t310 118q179 -8 294 -130t132 -329q21 -250 -23 -508v2q-30 -185 -154.5 -299.5t-303.5 -107.5
q-59 2 -109.5 14.5t-102.5 40t-95.5 79t-75.5 124.5zM834 899q0 111 -72 186t-178 80q-105 4 -179 -66.5t-79 -178.5q-5 -109 63 -186t174 -81q106 -5 186.5 67t84.5 179z" />
    <glyph glyph-name="zero.taboldstyle" 
d="M592 -20q-99 0 -189 38t-158 105.5t-108.5 167.5t-40.5 217q0 118 40.5 217.5t108.5 166.5t158 104.5t189 37.5q101 0 192 -37.5t159.5 -104.5t108.5 -166.5t40 -217.5q0 -155 -69 -277t-182.5 -186.5t-248.5 -64.5zM592 162q131 0 223 96.5t92 249.5q0 151 -92 246.5
t-223 95.5q-130 0 -221.5 -95.5t-91.5 -246.5q0 -153 91.5 -249.5t221.5 -96.5z" />
    <glyph glyph-name="one.taboldstyle" 
d="M793 1057v-1057h-185v758l-303 -158v195z" />
    <glyph glyph-name="two.taboldstyle" 
d="M205 84l481 520q74 74 74 135q0 54 -48 90.5t-122 36.5q-69 0 -116.5 -40.5t-53.5 -110.5l-180 30q12 137 116 221.5t242 84.5q153 0 252.5 -88t99.5 -224q0 -29 -4 -54t-15.5 -51.5t-19 -42t-29.5 -44t-30 -38.5t-38.5 -43.5t-37.5 -41.5l-231 -240h407v-184h-747v84z
" />
    <glyph glyph-name="six.taboldstyle" 
d="M1032 1096l-164 -70q-39 78 -99.5 116t-127.5 38q-139 0 -223 -133t-64 -334q31 78 103.5 114.5t171.5 36.5q119 0 216 -65t148.5 -169.5t48.5 -223.5q-8 -181 -138.5 -306t-309.5 -118q-179 8 -294 129.5t-132 328.5q-18 253 22 506q30 186 154.5 299t304.5 109
q61 -2 111 -14.5t101 -40t94.5 -78.5t76.5 -125zM352 434q0 -111 72 -186t178 -80q105 -4 179 67t79 179q5 109 -63 185.5t-174 80.5q-106 5 -186.5 -67t-84.5 -179z" />
    <glyph glyph-name="eight.taboldstyle" 
d="M238 1012q0 143 102 242.5t254 99.5q153 0 256.5 -100t103.5 -242t-104 -236q98 -60 151.5 -153t53.5 -205q0 -183 -133 -309.5t-328 -126.5q-196 0 -328.5 126t-132.5 310q0 111 54.5 205.5t148.5 152.5q-98 95 -98 236zM317 418q0 -106 80 -180t197 -74t196.5 74
t79.5 180q0 105 -80 181.5t-196 76.5h-14q-112 -4 -187.5 -79.5t-75.5 -178.5zM420 1012q0 -66 46 -113t118 -51h16q73 4 121.5 51t48.5 113t-50.5 111.5t-125.5 45.5q-73 0 -123.5 -45.5t-50.5 -111.5z" />
    <glyph glyph-name="three.taboldstyle" 
d="M354 666l-137 108q56 98 159.5 151t227.5 46q107 -5 193.5 -58.5t132.5 -136.5t43 -176q0 -38 -12 -82q-37 -120 -146 -182q99 -36 159 -143.5t52 -217.5q-17 -171 -159 -279.5t-330 -96.5q-132 10 -237.5 85t-160.5 193l162 88q32 -72 101.5 -125t148.5 -59h-2
q72 -5 138 23t108 80.5t45 115.5q4 96 -74.5 168t-183.5 72h-152v178h152q71 -1 121.5 42t62.5 111q15 86 -23 138q-49 67 -155 77q-146 11 -234 -120z" />
    <glyph glyph-name="four.taboldstyle" 
d="M920 -109v-274h-183v274h-696l741 1063h138v-888h192v-175h-192zM354 66h383v557z" />
    <glyph glyph-name="five.taboldstyle" 
d="M117 -98l157 86q39 -99 115 -156t172 -57q161 0 241.5 76t80.5 196q0 123 -79.5 189.5t-197.5 66.5q-85 0 -156.5 -24t-175.5 -86l-114 94l116 665h713v-176h-561l-74 -379q45 33 118 55.5t134 22.5q93 0 175.5 -28t145.5 -81t99.5 -135t36.5 -184q0 -204 -138.5 -327
t-363.5 -123q-140 0 -261.5 83t-182.5 222z" />
    <glyph glyph-name="seven.taboldstyle" 
d="M1104 952l-733 -1337h-215l637 1155h-613v182h924z" />
    <glyph glyph-name="nine.taboldstyle" 
d="M164 -150l164 70q39 -78 99.5 -115.5t127.5 -37.5q140 0 222 131.5t65 334.5q-31 -78 -103.5 -114.5t-171.5 -36.5q-118 0 -215.5 65t-150 170.5t-47.5 223.5q8 181 138.5 306t309.5 118q179 -8 294 -130t132 -329q22 -254 -22 -508v2q-30 -185 -155 -300t-304 -108
q-59 2 -109.5 14.5t-102.5 40t-95.5 79t-75.5 124.5zM844 512q0 111 -72 186t-178 80q-105 4 -179 -67t-79 -179q-5 -109 63 -185.5t174 -80.5q106 -5 186.5 67t84.5 179z" />
    <glyph glyph-name="zero.oldstyle" horiz-adv-x="1212" 
d="M604 -20q-99 0 -189 38t-157.5 105.5t-108 167.5t-40.5 217q0 118 40 217.5t108.5 166.5t158 104.5t188.5 37.5q101 0 192 -37.5t159.5 -104.5t108.5 -166.5t40 -217.5q0 -155 -69 -277t-182.5 -186.5t-248.5 -64.5zM604 162q131 0 223.5 96.5t92.5 249.5
q0 151 -92.5 246.5t-223.5 95.5q-130 0 -221.5 -95.5t-91.5 -246.5q0 -153 91.5 -249.5t221.5 -96.5z" />
    <glyph glyph-name="one.oldstyle" horiz-adv-x="747" 
d="M573 1057v-1057h-184v758l-303 -158v195z" />
    <glyph glyph-name="two.oldstyle" horiz-adv-x="972" 
d="M98 84l482 520q73 73 73 135q0 54 -48 90.5t-122 36.5q-69 0 -116.5 -40.5t-53.5 -110.5l-180 30q12 137 116.5 221.5t242.5 84.5q153 0 252.5 -88t99.5 -224q0 -29 -4 -54t-15.5 -51.5t-19 -42t-29.5 -44t-30 -38.5t-38.5 -43.5t-37.5 -41.5l-232 -240h408v-184h-748v84
z" />
    <glyph glyph-name="three.oldstyle" horiz-adv-x="1054" 
d="M287 666l-137 108q56 98 159.5 151t227.5 46q106 -5 192.5 -58.5t132.5 -136.5t43 -176q0 -38 -12 -82q-38 -121 -145 -182q99 -36 158.5 -143.5t51.5 -217.5q-17 -171 -159 -279.5t-330 -96.5q-132 10 -237 85t-160 193l161 88q32 -72 101.5 -125t148.5 -59h-2
q72 -5 138 23t108 80.5t45 115.5q4 96 -74.5 168t-183.5 72h-152v178h152q71 -1 121.5 42t62.5 111q15 87 -22 138q-48 67 -156 77q-145 11 -233 -120z" />
    <glyph glyph-name="four.oldstyle" 
d="M920 -109v-274h-183v274h-696l741 1063h138v-888h192v-175h-192zM354 66h383v557z" />
    <glyph glyph-name="five.oldstyle" horiz-adv-x="1122" 
d="M84 -98l158 86q39 -99 114.5 -156t171.5 -57q161 0 241.5 76t80.5 196q0 123 -79.5 189.5t-197.5 66.5q-85 0 -156 -24t-175 -86l-115 94l117 665h712v-176h-561l-73 -379q45 33 117.5 55.5t133.5 22.5q93 0 175.5 -28t145.5 -81t99.5 -135t36.5 -184q0 -204 -138.5 -327
t-363.5 -123q-140 0 -261.5 83t-182.5 222z" />
    <glyph glyph-name="six.oldstyle" horiz-adv-x="1138" 
d="M1008 1096l-164 -70q-39 78 -100 116t-128 38q-139 0 -222.5 -133t-63.5 -334q60 151 274 151q119 0 216.5 -65t149 -169.5t48.5 -223.5q-8 -181 -139 -306t-310 -118q-179 8 -294 129.5t-132 328.5q-18 249 23 506q30 186 154.5 299t304.5 109q61 -2 111 -14.5t101 -40
t94.5 -78.5t76.5 -125zM328 434q0 -111 72 -186t178 -80q105 -4 179 67t79 179q4 109 -64 185t-174 81t-186 -67t-84 -179z" />
    <glyph glyph-name="seven.oldstyle" horiz-adv-x="1036" 
d="M1028 952l-733 -1337h-215l637 1155h-613v182h924z" />
    <glyph glyph-name="eight.oldstyle" horiz-adv-x="1150" 
d="M219 1012q0 143 102 242.5t254 99.5q153 0 257 -100t104 -242q0 -141 -105 -236q98 -60 151.5 -153t53.5 -205q0 -183 -133 -309.5t-328 -126.5q-196 0 -328 126t-132 310q0 111 54 205.5t148 152.5q-98 95 -98 236zM299 418q0 -106 79.5 -180t196.5 -74t197 74t80 180
q0 105 -80.5 181.5t-196.5 76.5h-14q-112 -4 -187 -79t-75 -179zM401 1012q0 -66 46 -113t118 -51h17q73 4 121.5 51t48.5 113t-51 111.5t-126 45.5q-73 0 -123.5 -45.5t-50.5 -111.5z" />
    <glyph glyph-name="nine.oldstyle" horiz-adv-x="1093" 
d="M117 -150l164 70q39 -78 99.5 -115.5t127.5 -37.5q140 0 222 131.5t65 334.5q-31 -78 -103.5 -114.5t-171.5 -36.5q-118 0 -216 65t-150.5 170.5t-47.5 223.5q8 181 139 306t310 118q179 -8 294 -130t132 -329q21 -250 -23 -508v2q-30 -185 -154.5 -300t-303.5 -108
q-59 2 -109.5 14.5t-102.5 40t-95.5 79t-75.5 124.5zM797 512q0 111 -72 186t-178 80q-105 4 -179 -67t-79 -179q-5 -109 63 -185.5t174 -80.5q106 -5 186.5 67t84.5 179z" />
    <glyph glyph-name="Lslash.sc" horiz-adv-x="888" 
d="M362 795l179 110v-129l-179 -112v-494h482v-170h-654v557l-110 -72v131l110 72v508h172v-401z" />
    <glyph glyph-name="Zcaron.sc" horiz-adv-x="1038" 
d="M92 147l619 887h-594v162h817v-147l-625 -885h625v-164h-842v147zM510 1464l129 146h154l-199 -275h-164l-201 275h156z" />
    <glyph glyph-name="exclam.sc" horiz-adv-x="536" 
d="M352 1196l-16 -879h-133l-17 879h166zM162 94q0 44 30.5 74.5t73.5 30.5q44 0 75.5 -30.5t31.5 -74.5q0 -41 -31.5 -70.5t-75.5 -29.5q-43 0 -73.5 29.5t-30.5 70.5z" />
    <glyph glyph-name="ampersand.sc" horiz-adv-x="1181" 
d="M516 737h225v152h160v-154h150v-137h-150v-229q0 -52 6.5 -88.5t24.5 -70.5t55.5 -51.5t93.5 -17.5v-157q-95 0 -168 33.5t-112 86.5q-49 -57 -125.5 -88.5t-163.5 -31.5q-174 0 -284.5 110.5t-110.5 274.5q0 97 45.5 178.5t126.5 136.5q-78 78 -78 209q0 128 89.5 215.5
t223.5 87.5q90 0 168.5 -48t126.5 -128l-139 -88q-64 104 -156 104q-66 0 -109.5 -40.5t-43.5 -102.5q0 -63 40.5 -109.5t104.5 -46.5zM741 598h-227q-97 0 -166 -69t-69 -160q0 -95 65 -159.5t168 -64.5q97 0 160.5 60.5t68.5 152.5v240z" />
    <glyph glyph-name="question.sc" horiz-adv-x="872" 
d="M248 840h-160q0 166 100 267t246 101q147 0 253 -94t106 -244q0 -121 -73 -211.5t-179 -119.5q-61 -21 -90 -45t-29 -76l-2 -101h-164v101q0 119 59.5 182.5t173.5 97.5q56 14 98 63t42 109q0 76 -59 125t-136 49q-75 0 -130.5 -57t-55.5 -147zM219 96q0 50 35.5 83.5
t83.5 33.5q51 0 85 -33t34 -84q0 -49 -34 -80.5t-85 -31.5q-49 0 -84 32t-35 80z" />
    <glyph glyph-name="A.sc" horiz-adv-x="1167" 
d="M395 457h377q-32 86 -94 249.5t-94 249.5zM831 301h-493q-19 -48 -57 -150.5t-58 -150.5h-184l455 1196h180l454 -1196h-182z" />
    <glyph glyph-name="B.sc" horiz-adv-x="1132" 
d="M963 883q0 -78 -33.5 -143.5t-102.5 -100.5q90 -28 144.5 -113t54.5 -178q0 -147 -96 -247.5t-256 -100.5h-492v1196h453q154 0 241 -83.5t87 -229.5zM356 707h279q72 0 111.5 49.5t39.5 122.5q0 74 -45.5 115.5t-124.5 41.5h-260v-329zM662 553h-306v-391h310
q82 0 133 56t51 132q0 75 -53.5 139t-134.5 64z" />
    <glyph glyph-name="C.sc" horiz-adv-x="1228" 
d="M1040 303l129 -108q-83 -100 -201 -156.5t-255 -56.5q-125 0 -238 48.5t-194.5 130.5t-129 196t-47.5 239t47.5 238t129 195t194.5 130.5t238 48.5q135 0 250.5 -53t201.5 -151l-127 -109q-137 147 -325 147q-184 0 -310.5 -129.5t-126.5 -316.5t126.5 -316.5
t310.5 -129.5q96 0 180.5 41t146.5 112z" />
    <glyph glyph-name="D.sc" horiz-adv-x="1296" 
d="M647 0h-465v1196h465q167 0 290.5 -80t186 -215t62.5 -305q0 -171 -62.5 -305t-186 -212.5t-290.5 -78.5zM354 162h293q175 0 271 120.5t96 313.5q0 192 -96.5 316t-270.5 124h-293v-874z" />
    <glyph glyph-name="E.sc" horiz-adv-x="1021" 
d="M182 1196h713v-160h-541v-366h473v-162h-473v-346h557v-162h-729v1196z" />
    <glyph glyph-name="F.sc" horiz-adv-x="950" 
d="M182 1196h703v-160h-531v-366h420v-162h-420v-508h-172v1196z" />
    <glyph glyph-name="G.sc" horiz-adv-x="1349" 
d="M1116 1047l-123 -115q-118 112 -284 112q-183 0 -308 -130.5t-125 -317.5t125 -318t308 -131q156 0 259.5 84.5t110.5 223.5h-336v151h531q0 -310 -149.5 -467t-415.5 -157q-126 0 -238.5 48.5t-192.5 130.5t-127 195.5t-47 239.5q0 125 47 238t127 195t192.5 130.5
t238.5 48.5q243 0 407 -161z" />
    <glyph glyph-name="H.sc" horiz-adv-x="1269" 
d="M1087 1196v-1196h-174v516h-559v-516h-172v1196h172v-522h559v522h174z" />
    <glyph glyph-name="I.sc" horiz-adv-x="536" 
d="M182 1196h172v-1196h-172v1196z" />
    <glyph glyph-name="J.sc" horiz-adv-x="536" 
d="M-152 -412l17 166q39 -16 121 -16q102 0 149 61t47 160v1237h172v-1237q0 -83 -20 -151t-62 -122.5t-115 -85t-171 -30.5q-46 0 -138 18z" />
    <glyph glyph-name="K.sc" horiz-adv-x="1054" 
d="M487 598l566 -598h-236l-463 496v-496h-172v1196h172v-500l383 500h209z" />
    <glyph glyph-name="L.sc" horiz-adv-x="880" 
d="M182 1196h172v-1034h484v-162h-656v1196z" />
    <glyph glyph-name="M.sc" horiz-adv-x="1658" 
d="M827 338l416 858h156l145 -1196h-172l-104 874l-363 -743h-149l-365 743l-106 -874h-170l145 1196h156z" />
    <glyph glyph-name="N.sc" horiz-adv-x="1230" 
d="M1049 0h-164l-531 877v-877h-172v1196h168l527 -866v866h172v-1196z" />
    <glyph glyph-name="O.sc" horiz-adv-x="1421" 
d="M104 596q0 125 47 238t127 195t192.5 130.5t238.5 48.5q168 0 308 -82t220 -222.5t80 -307.5q0 -168 -80 -309t-220 -223t-308 -82q-126 0 -238.5 48.5t-192.5 130.5t-127 195.5t-47 239.5zM276 596q0 -187 124.5 -316.5t308.5 -129.5q183 0 308.5 130t125.5 316
t-125.5 316t-308.5 130q-184 0 -308.5 -129.5t-124.5 -316.5z" />
    <glyph glyph-name="P.sc" horiz-adv-x="1093" 
d="M182 1196h480q92 0 162.5 -32t112 -86.5t62.5 -120t21 -138.5q0 -75 -21 -141t-62.5 -119.5t-112 -85t-162.5 -31.5h-306v-442h-174v1196zM659 1036h-303v-432h295q97 0 147 63.5t50 151.5q0 87 -48 152t-141 65z" />
    <glyph glyph-name="Q.sc" horiz-adv-x="1421" 
d="M1038 80l123 -197l-135 -86l-133 213q-100 -28 -184 -28q-126 0 -238.5 48.5t-192.5 130.5t-127 195.5t-47 239.5q0 125 47 238t127 195t192.5 130.5t238.5 48.5q168 0 308 -82t220 -222.5t80 -307.5q0 -158 -76 -295.5t-203 -220.5zM811 440l133 -215q93 61 146 158
t53 213q0 186 -125.5 316t-308.5 130q-184 0 -308.5 -129.5t-124.5 -316.5q0 -170 117 -296.5t285 -143.5q94 0 119 6l-119 194z" />
    <glyph glyph-name="R.sc" horiz-adv-x="1118" 
d="M696 451l318 -451h-209l-305 442h-144v-442h-174v1196h461q91 0 161.5 -32t112.5 -86.5t63 -120t21 -138.5q0 -95 -29 -171t-99.5 -131t-176.5 -66zM639 1036h-283v-432h275q98 0 145 62.5t47 152.5q0 88 -46 152.5t-138 64.5z" />
    <glyph glyph-name="S.sc" horiz-adv-x="1034" 
d="M109 354h174q0 -85 69.5 -148t175.5 -63q105 0 163.5 48.5t70.5 119.5q11 84 -48.5 135t-148.5 72l-153 39q-291 67 -291 315q0 97 54.5 175t143 119.5t191.5 41.5q168 0 277.5 -97t109.5 -259h-172q0 87 -61 139.5t-156 52.5q-89 0 -152 -48t-63 -124q0 -21 6.5 -41
t23 -43t51 -42t83.5 -31l153 -39q169 -43 254 -141.5t68 -237.5q-21 -134 -130 -224.5t-274 -90.5q-180 0 -299.5 111.5t-119.5 260.5z" />
    <glyph glyph-name="T.sc" horiz-adv-x="987" 
d="M47 1196h893v-162h-360v-1034h-174v1034h-359v162z" />
    <glyph glyph-name="U.sc" horiz-adv-x="1218" 
d="M608 150q111 0 190 73.5t79 188.5v784h172v-784q0 -127 -60.5 -226t-160.5 -151.5t-220 -52.5q-182 0 -310 120t-128 310v784h174v-784q0 -115 77.5 -188.5t186.5 -73.5z" />
    <glyph glyph-name="V.sc" horiz-adv-x="1019" 
d="M246 1196l266 -897q48 168 143.5 493.5t118.5 403.5h178l-360 -1196h-162l-362 1196h178z" />
    <glyph glyph-name="W.sc" horiz-adv-x="1607" 
d="M1376 1196h185l-406 -1196h-147l-205 721l-203 -721h-147l-406 1196h184l293 -913q31 106 102.5 360t112.5 393h129l215 -753z" />
    <glyph glyph-name="X.sc" horiz-adv-x="1118" 
d="M664 641l417 -641h-209l-313 496l-313 -496h-207l416 643l-371 553h207l268 -410l270 410h205z" />
    <glyph glyph-name="Y.sc" horiz-adv-x="1153" 
d="M664 0h-177v549l-454 647h203l337 -477l342 477h209l-460 -647v-549z" />
    <glyph glyph-name="Z.sc" horiz-adv-x="1038" 
d="M92 147l619 887h-594v162h817v-147l-625 -885h625v-164h-842v147z" />
    <glyph glyph-name="Scaron.sc" horiz-adv-x="1034" 
d="M520 1464l129 146h156l-201 -275h-164l-200 275h155zM109 354h174q0 -85 69.5 -148t175.5 -63q105 0 163.5 48.5t70.5 119.5q11 84 -48.5 135t-148.5 72l-153 39q-291 67 -291 315q0 97 54.5 175t143 119.5t191.5 41.5q168 0 277.5 -97t109.5 -259h-172q0 87 -61 139.5
t-156 52.5q-89 0 -152 -48t-63 -124q0 -21 6.5 -41t23 -43t51 -42t83.5 -31l153 -39q169 -43 254 -141.5t68 -237.5q-21 -134 -130 -224.5t-274 -90.5q-180 0 -299.5 111.5t-119.5 260.5z" />
    <glyph glyph-name="OE.sc" horiz-adv-x="1974" 
d="M1135 1196h710v-170h-538v-354h471v-170h-471v-332h557v-170h-729v176q-81 -89 -193 -141.5t-237 -52.5q-124 0 -236 48.5t-191.5 130.5t-126.5 195.5t-47 239.5q0 167 79 307.5t217.5 222.5t304.5 82q126 0 238 -51.5t192 -140.5v180zM274 596q0 -184 124.5 -312
t306.5 -128q169 0 293.5 124.5t136.5 294.5v39q-12 172 -136.5 297t-293.5 125q-182 0 -306.5 -128t-124.5 -312z" />
    <glyph glyph-name="Ydieresis.sc" horiz-adv-x="1153" 
d="M664 0h-177v549l-454 647h203l337 -477l342 477h209l-460 -647v-549zM319 1470q0 47 32.5 77t80.5 30t79.5 -30t31.5 -77t-31.5 -77.5t-79.5 -30.5t-80.5 30.5t-32.5 77.5zM610 1470q0 47 32.5 77t80.5 30t80.5 -30t32.5 -77t-32.5 -77.5t-80.5 -30.5t-80.5 30.5
t-32.5 77.5z" />
    <glyph glyph-name="exclamdown.sc" horiz-adv-x="540" 
d="M154 1098q0 49 34 80.5t82 31.5q51 0 85 -31.5t34 -80.5t-34 -82t-85 -33q-48 0 -82 33t-34 82zM186 0l17 879h133l16 -879h-166z" />
    <glyph glyph-name="questiondown.sc" horiz-adv-x="872" 
d="M639 -29h166q0 -167 -100 -268.5t-244 -101.5q-95 0 -176 40.5t-132 119.5t-51 180q0 117 72.5 206t177.5 123q61 21 91 46t30 75l2 109h164v-109q0 -120 -60 -182t-176 -98q-45 -12 -77 -48q-58 -54 -58 -122q0 -79 58 -128t135 -49q75 0 126.5 56.5t51.5 150.5z
M674 719q0 -49 -34 -82t-85 -33t-84 32.5t-33 82.5q0 49 33 80.5t84 31.5t85 -31.5t34 -80.5z" />
    <glyph glyph-name="Agrave.sc" horiz-adv-x="1167" 
d="M395 457h377q-32 86 -94 249.5t-94 249.5zM831 301h-493q-19 -48 -57 -150.5t-58 -150.5h-184l455 1196h180l454 -1196h-182zM518 1335l-215 275h203l176 -275h-164z" />
    <glyph glyph-name="Aacute.sc" horiz-adv-x="1167" 
d="M868 1597l-213 -274h-163l174 274h202zM395 457h377q-32 86 -94 249.5t-94 249.5zM831 301h-493q-19 -48 -57 -150.5t-58 -150.5h-184l455 1196h180l454 -1196h-182z" />
    <glyph glyph-name="Acircumflex.sc" horiz-adv-x="1167" 
d="M395 457h377q-32 86 -94 249.5t-94 249.5zM831 301h-493q-19 -48 -57 -150.5t-58 -150.5h-184l455 1196h180l454 -1196h-182zM709 1335l-127 148l-125 -148h-154l199 275h164l200 -275h-157z" />
    <glyph glyph-name="Atilde.sc" horiz-adv-x="1167" 
d="M395 457h377q-32 86 -94 249.5t-94 249.5zM831 301h-493q-19 -48 -57 -150.5t-58 -150.5h-184l455 1196h180l454 -1196h-182zM506 1430q-14 0 -27 -18.5t-14 -55.5h-117q7 110 52 160.5t106 50.5q41 0 92 -37l-2 2q3 -1 6 -5t6 -5q32 -25 51 -25q15 0 27.5 16.5
t13.5 53.5h117q-7 -111 -52.5 -160t-105.5 -49q-49 0 -102 45l-20 12q-21 15 -31 15z" />
    <glyph glyph-name="Adieresis.sc" horiz-adv-x="1167" 
d="M326 1470q0 47 32 77t80 30t79.5 -30t31.5 -77t-31.5 -77.5t-79.5 -30.5t-80 30.5t-32 77.5zM616 1470q0 47 31.5 77t79.5 30t81.5 -30.5t33.5 -76.5q0 -47 -33.5 -77.5t-81.5 -30.5t-79.5 30.5t-31.5 77.5zM395 457h377q-32 86 -94 249.5t-94 249.5zM831 301h-493
q-19 -48 -57 -150.5t-58 -150.5h-184l455 1196h180l454 -1196h-182z" />
    <glyph glyph-name="Aring.sc" horiz-adv-x="1167" 
d="M395 1497q0 79 53.5 132.5t131.5 53.5q82 0 136 -53t54 -133q0 -78 -54.5 -131t-135.5 -53q-78 0 -131.5 53t-53.5 131zM500 1497q0 -35 23.5 -58.5t56.5 -23.5q37 0 62.5 23.5t25.5 58.5t-25.5 59.5t-62.5 24.5q-33 0 -56.5 -24.5t-23.5 -59.5zM395 457h377
q-32 86 -94 249.5t-94 249.5zM831 301h-493q-19 -48 -57 -150.5t-58 -150.5h-184l455 1196h180l454 -1196h-182z" />
    <glyph glyph-name="AE.sc" horiz-adv-x="1667" 
d="M418 297l-191 -297h-204l757 1196h758v-170h-539v-354h469v-170h-469v-332h557v-170h-729v297h-409zM520 463h307v481z" />
    <glyph glyph-name="Ccedilla.sc" horiz-adv-x="1230" 
d="M578 -193q10 -23 33 -33.5t46 -2.5q23 10 31 34t0 50l-49 131q-228 25 -381.5 199t-153.5 411q0 125 47.5 238t129 195t194.5 130.5t238 48.5q135 0 250.5 -53t201.5 -151l-127 -109q-137 147 -325 147q-184 0 -310.5 -129.5t-126.5 -316.5t126.5 -316.5t310.5 -129.5
q96 0 180.5 41t146.5 112l129 -108q-161 -190 -417 -211l45 -82q14 -32 14 -74q0 -53 -30.5 -97t-82.5 -69q-27 -12 -69 -12q-50 0 -93.5 30.5t-66.5 81.5q-18 49 -18 95l122 -9v-16q0 -5 5 -25z" />
    <glyph glyph-name="Egrave.sc" horiz-adv-x="1021" 
d="M182 1196h713v-160h-541v-366h473v-162h-473v-346h557v-162h-729v1196zM483 1335l-215 275h205l174 -275h-164z" />
    <glyph glyph-name="Eacute.sc" horiz-adv-x="1021" 
d="M762 1610l-215 -275h-164l174 275h205zM182 1196h713v-160h-541v-366h473v-162h-473v-346h557v-162h-729v1196z" />
    <glyph glyph-name="Ecircumflex.sc" horiz-adv-x="1021" 
d="M182 1196h713v-160h-541v-366h473v-162h-473v-346h557v-162h-729v1196zM639 1335l-127 148l-127 -148h-156l201 275h164l199 -275h-154z" />
    <glyph glyph-name="Edieresis.sc" horiz-adv-x="1021" 
d="M260 1470q0 46 33.5 76.5t81.5 30.5q45 0 77.5 -30.5t32.5 -76.5t-32.5 -77t-77.5 -31q-48 0 -81.5 30.5t-33.5 77.5zM551 1470q0 47 32.5 77t80.5 30t80 -30t32 -77t-32 -77.5t-80 -30.5t-80.5 30.5t-32.5 77.5zM182 1196h713v-160h-541v-366h473v-162h-473v-346h557
v-162h-729v1196z" />
    <glyph glyph-name="Igrave.sc" horiz-adv-x="534" 
d="M182 1196h170v-1196h-170v1196zM195 1335l-213 275h204l172 -275h-163z" />
    <glyph glyph-name="Iacute.sc" horiz-adv-x="534" 
d="M553 1610l-215 -275h-164l176 275h203zM182 1196h170v-1196h-170v1196z" />
    <glyph glyph-name="Icircumflex.sc" horiz-adv-x="536" 
d="M182 1196h172v-1196h-172v1196zM395 1335l-129 148l-125 -148h-155l200 275h164l201 -275h-156z" />
    <glyph glyph-name="Idieresis.sc" horiz-adv-x="534" 
d="M10 1470q0 47 32.5 77t80.5 30t80.5 -30t32.5 -77t-32.5 -77.5t-80.5 -30.5t-80.5 30.5t-32.5 77.5zM301 1470q0 47 31.5 77t79.5 30t81 -30t33 -77t-33 -77.5t-81 -30.5t-79.5 30.5t-31.5 77.5zM182 1196h170v-1196h-170v1196z" />
    <glyph glyph-name="Eth.sc" horiz-adv-x="1290" 
d="M647 0h-457v537h-159v122h159v537h457q167 0 289.5 -80t183 -214.5t60.5 -305.5q0 -172 -60.5 -305.5t-182.5 -212t-290 -78.5zM362 659h283v-122h-283v-367h285q174 0 268.5 118t94.5 308q0 191 -94.5 310.5t-268.5 119.5h-285v-367z" />
    <glyph glyph-name="Ntilde.sc" horiz-adv-x="1230" 
d="M1049 0h-164l-531 877v-877h-172v1196h168l527 -866v866h172v-1196zM539 1430q-15 0 -28 -18.5t-13 -55.5h-117q7 111 51.5 161t106.5 50q15 0 30.5 -4.5t21.5 -7t23.5 -13.5t18.5 -12l8 -6q31 -27 49 -27q16 0 28.5 16.5t12.5 53.5h119q-7 -111 -53.5 -160t-106.5 -49
q-47 0 -100 45l-21 12q-21 15 -30 15z" />
    <glyph glyph-name="Ograve.sc" horiz-adv-x="1421" 
d="M104 596q0 125 47 238t127 195t192.5 130.5t238.5 48.5q168 0 308 -82t220 -222.5t80 -307.5q0 -168 -80 -309t-220 -223t-308 -82q-126 0 -238.5 48.5t-192.5 130.5t-127 195.5t-47 239.5zM276 596q0 -187 124.5 -316.5t308.5 -129.5q183 0 308.5 130t125.5 316
t-125.5 316t-308.5 130q-184 0 -308.5 -129.5t-124.5 -316.5zM649 1335l-213 275h201l176 -275h-164z" />
    <glyph glyph-name="Oacute.sc" horiz-adv-x="1421" 
d="M965 1610l-213 -275h-164l174 275h203zM104 596q0 125 47 238t127 195t192.5 130.5t238.5 48.5q168 0 308 -82t220 -222.5t80 -307.5q0 -168 -80 -309t-220 -223t-308 -82q-126 0 -238.5 48.5t-192.5 130.5t-127 195.5t-47 239.5zM276 596q0 -187 124.5 -316.5
t308.5 -129.5q183 0 308.5 130t125.5 316t-125.5 316t-308.5 130q-184 0 -308.5 -129.5t-124.5 -316.5z" />
    <glyph glyph-name="Ocircumflex.sc" horiz-adv-x="1421" 
d="M104 596q0 125 47 238t127 195t192.5 130.5t238.5 48.5q168 0 308 -82t220 -222.5t80 -307.5q0 -168 -80 -309t-220 -223t-308 -82q-126 0 -238.5 48.5t-192.5 130.5t-127 195.5t-47 239.5zM276 596q0 -187 124.5 -316.5t308.5 -129.5q183 0 308.5 130t125.5 316
t-125.5 316t-308.5 130q-184 0 -308.5 -129.5t-124.5 -316.5zM836 1335l-127 148l-125 -148h-156l199 275h164l198 -275h-153z" />
    <glyph glyph-name="Otilde.sc" horiz-adv-x="1421" 
d="M104 596q0 125 47 238t127 195t192.5 130.5t238.5 48.5q168 0 308 -82t220 -222.5t80 -307.5q0 -168 -80 -309t-220 -223t-308 -82q-126 0 -238.5 48.5t-192.5 130.5t-127 195.5t-47 239.5zM276 596q0 -187 124.5 -316.5t308.5 -129.5q183 0 308.5 130t125.5 316
t-125.5 316t-308.5 130q-184 0 -308.5 -129.5t-124.5 -316.5zM633 1430q-14 0 -26 -18t-13 -56h-119q7 110 52 160.5t106 50.5q17 0 32.5 -4.5t22 -7.5t22.5 -13t19 -12l8 -6q31 -27 47 -27q40 0 43 70h117q-7 -112 -52 -160.5t-108 -48.5q-45 0 -98 45l-22 12
q-21 15 -31 15z" />
    <glyph glyph-name="Odieresis.sc" horiz-adv-x="1421" 
d="M451 1470q0 47 33 77t81 30q45 0 77 -30.5t32 -76.5t-32 -77t-77 -31q-48 0 -81 30.5t-33 77.5zM743 1470q0 47 31.5 77t79.5 30t80.5 -30t32.5 -77t-32.5 -77.5t-80.5 -30.5t-79.5 30.5t-31.5 77.5zM104 596q0 125 47 238t127 195t192.5 130.5t238.5 48.5q168 0 308 -82
t220 -222.5t80 -307.5q0 -168 -80 -309t-220 -223t-308 -82q-126 0 -238.5 48.5t-192.5 130.5t-127 195.5t-47 239.5zM276 596q0 -187 124.5 -316.5t308.5 -129.5q183 0 308.5 130t125.5 316t-125.5 316t-308.5 130q-184 0 -308.5 -129.5t-124.5 -316.5z" />
    <glyph glyph-name="Oslash.sc" horiz-adv-x="1417" 
d="M332 111l-137 -142l-89 90l138 142q-142 176 -142 395q0 125 47 238t127 195t192.5 130.5t238.5 48.5q216 0 383 -135l139 137l88 -86l-137 -139q135 -175 135 -389q0 -168 -80 -309t-220 -223t-308 -82q-211 0 -375 129zM274 596q0 -155 86 -274l613 628
q-116 92 -266 92q-184 0 -308.5 -129.5t-124.5 -316.5zM707 150q183 0 308.5 130t125.5 316q0 142 -82 266l-610 -629q109 -83 258 -83z" />
    <glyph glyph-name="Ugrave.sc" horiz-adv-x="1218" 
d="M565 1335l-215 275h205l174 -275h-164zM608 150q111 0 190 73.5t79 188.5v784h172v-784q0 -127 -60.5 -226t-160.5 -151.5t-220 -52.5q-182 0 -310 120t-128 310v784h174v-784q0 -115 77.5 -188.5t186.5 -73.5z" />
    <glyph glyph-name="Uacute.sc" horiz-adv-x="1218" 
d="M608 150q111 0 190 73.5t79 188.5v784h172v-784q0 -127 -60.5 -226t-160.5 -151.5t-220 -52.5q-182 0 -310 120t-128 310v784h174v-784q0 -115 77.5 -188.5t186.5 -73.5zM852 1610l-215 -275h-164l176 275h203z" />
    <glyph glyph-name="Ucircumflex.sc" horiz-adv-x="1218" 
d="M733 1335l-125 148l-125 -148h-155l198 275h164l199 -275h-156zM608 150q111 0 190 73.5t79 188.5v784h172v-784q0 -127 -60.5 -226t-160.5 -151.5t-220 -52.5q-182 0 -310 120t-128 310v784h174v-784q0 -115 77.5 -188.5t186.5 -73.5z" />
    <glyph glyph-name="Udieresis.sc" horiz-adv-x="1218" 
d="M608 150q111 0 190 73.5t79 188.5v784h172v-784q0 -127 -60.5 -226t-160.5 -151.5t-220 -52.5q-182 0 -310 120t-128 310v784h174v-784q0 -115 77.5 -188.5t186.5 -73.5zM350 1470q0 47 32.5 77t80.5 30t79 -30t31 -77t-31.5 -77.5t-78.5 -30.5q-48 0 -80.5 30.5
t-32.5 77.5zM641 1470q0 47 32.5 77t80.5 30t80 -30t32 -77t-32 -77.5t-80 -30.5t-80.5 30.5t-32.5 77.5z" />
    <glyph glyph-name="Yacute.sc" horiz-adv-x="1153" 
d="M664 0h-177v549l-454 647h203l337 -477l342 477h209l-460 -647v-549zM838 1610l-215 -275h-164l174 275h205z" />
    <glyph glyph-name="Thorn.sc" horiz-adv-x="1034" 
d="M588 238h-234v-238h-172v1196h172v-211h234q159 0 264.5 -101.5t105.5 -269.5q0 -169 -105.5 -272.5t-264.5 -103.5zM354 403h234q86 0 142 59t56 152q0 94 -60 148t-153 59q-37 0 -109.5 1t-109.5 1v-420z" />
    <glyph glyph-name="Amacron.sc" horiz-adv-x="1167" 
d="M395 457h377q-32 86 -94 249.5t-94 249.5zM831 301h-493q-19 -48 -57 -150.5t-58 -150.5h-184l455 1196h180l454 -1196h-182zM360 1528h445v-150h-445v150z" />
    <glyph glyph-name="Abreve.sc" horiz-adv-x="1167" 
d="M354 1567h140q0 -44 24 -72.5t64 -28.5q41 0 65.5 31t24.5 70h141q0 -108 -63 -170t-168 -62q-115 0 -171.5 66t-56.5 166zM395 457h377q-32 86 -94 249.5t-94 249.5zM831 301h-493q-19 -48 -57 -150.5t-58 -150.5h-184l455 1196h180l454 -1196h-182z" />
    <glyph glyph-name="Cacute.sc" horiz-adv-x="1228" 
d="M958 1610l-215 -275h-163l176 275h202zM1040 303l129 -108q-83 -100 -201 -156.5t-255 -56.5q-125 0 -238 48.5t-194.5 130.5t-129 196t-47.5 239t47.5 238t129 195t194.5 130.5t238 48.5q135 0 250.5 -53t201.5 -151l-127 -109q-137 147 -325 147q-184 0 -310.5 -129.5
t-126.5 -316.5t126.5 -316.5t310.5 -129.5q96 0 180.5 41t146.5 112z" />
    <glyph glyph-name="Ccircumflex.sc" horiz-adv-x="1228" 
d="M1040 303l129 -108q-83 -100 -201 -156.5t-255 -56.5q-125 0 -238 48.5t-194.5 130.5t-129 196t-47.5 239t47.5 238t129 195t194.5 130.5t238 48.5q135 0 250.5 -53t201.5 -151l-127 -109q-137 147 -325 147q-184 0 -310.5 -129.5t-126.5 -316.5t126.5 -316.5
t310.5 -129.5q96 0 180.5 41t146.5 112zM836 1335l-127 148l-127 -148h-154l199 275h164l200 -275h-155z" />
    <glyph glyph-name="Cdotaccent.sc" horiz-adv-x="1228" 
d="M569 1487q0 47 32.5 76.5t80.5 29.5t81.5 -30t33.5 -76q0 -47 -33.5 -78t-81.5 -31t-80.5 31t-32.5 78zM1040 303l129 -108q-83 -100 -201 -156.5t-255 -56.5q-125 0 -238 48.5t-194.5 130.5t-129 196t-47.5 239t47.5 238t129 195t194.5 130.5t238 48.5q135 0 250.5 -53
t201.5 -151l-127 -109q-137 147 -325 147q-184 0 -310.5 -129.5t-126.5 -316.5t126.5 -316.5t310.5 -129.5q96 0 180.5 41t146.5 112z" />
    <glyph glyph-name="Ccaron.sc" horiz-adv-x="1228" 
d="M684 1464l127 146h156l-201 -275h-164l-196 275h153zM1040 303l129 -108q-83 -100 -201 -156.5t-255 -56.5q-125 0 -238 48.5t-194.5 130.5t-129 196t-47.5 239t47.5 238t129 195t194.5 130.5t238 48.5q135 0 250.5 -53t201.5 -151l-127 -109q-137 147 -325 147
q-184 0 -310.5 -129.5t-126.5 -316.5t126.5 -316.5t310.5 -129.5q96 0 180.5 41t146.5 112z" />
    <glyph glyph-name="Dcaron.sc" horiz-adv-x="1282" 
d="M664 1464l127 146h153l-196 -275h-164l-201 275h156zM639 0h-457v1196h457q126 0 227.5 -46t168 -127.5t101.5 -190.5t35 -236q0 -128 -35 -236.5t-101.5 -189t-168 -125.5t-227.5 -45zM354 1026v-856h285q174 0 268 118t94 308q0 191 -94 310.5t-268 119.5h-285z" />
    <glyph glyph-name="Aogonek.sc" horiz-adv-x="1167" 
d="M397 457h375q-32 86 -94 249.5t-94 249.5zM942 8l-113 293h-491q-19 -48 -57 -150.5t-58 -150.5h-184l455 1196h180l454 -1196h-79l-52 -145q-10 -26 -1 -49.5t32 -34.5q24 -8 45 2t31 34q6 18 6 25v16l121 9q0 -42 -17 -95q-23 -53 -66 -82.5t-95 -29.5q-44 0 -68 12
q-54 25 -83.5 68.5t-29.5 97.5q0 40 15 74z" />
    <glyph glyph-name="Emacron.sc" horiz-adv-x="1021" 
d="M182 1196h713v-160h-541v-366h473v-162h-473v-346h557v-162h-729v1196zM322 1528h444v-150h-444v150z" />
    <glyph glyph-name="Ebreve.sc" horiz-adv-x="1021" 
d="M281 1567h139q0 -44 25 -72.5t67 -28.5q39 0 63.5 31t24.5 70h141q0 -108 -62 -170t-167 -62q-114 0 -172.5 66.5t-58.5 165.5zM182 1196h713v-160h-541v-366h473v-162h-473v-346h557v-162h-729v1196z" />
    <glyph glyph-name="Edotaccent.sc" horiz-adv-x="1021" 
d="M436 1487q0 47 32.5 76.5t80.5 29.5q50 0 83.5 -29.5t33.5 -76.5t-33.5 -78t-83.5 -31q-48 0 -80.5 31t-32.5 78zM182 1196h713v-160h-541v-366h473v-162h-473v-346h557v-162h-729v1196z" />
    <glyph glyph-name="Ecaron.sc" horiz-adv-x="1021" 
d="M512 1464l127 146h154l-199 -275h-164l-201 275h156zM182 1196h713v-160h-541v-366h473v-162h-473v-346h557v-162h-729v1196z" />
    <glyph glyph-name="Gcircumflex.sc" horiz-adv-x="1349" 
d="M1116 1047l-123 -115q-118 112 -284 112q-183 0 -308 -130.5t-125 -317.5t125 -318t308 -131q156 0 259.5 84.5t110.5 223.5h-336v151h531q0 -310 -149.5 -467t-415.5 -157q-126 0 -238.5 48.5t-192.5 130.5t-127 195.5t-47 239.5q0 125 47 238t127 195t192.5 130.5
t238.5 48.5q243 0 407 -161zM807 1335l-127 148l-123 -148h-156l199 275h162l201 -275h-156z" />
    <glyph glyph-name="Gbreve.sc" horiz-adv-x="1349" 
d="M451 1567h141q0 -44 24 -72.5t64 -28.5t64 30.5t24 70.5h145q0 -108 -63 -170t-170 -62q-114 0 -171.5 66.5t-57.5 165.5zM1116 1047l-123 -115q-118 112 -284 112q-183 0 -308 -130.5t-125 -317.5t125 -318t308 -131q156 0 259.5 84.5t110.5 223.5h-336v151h531
q0 -310 -149.5 -467t-415.5 -157q-126 0 -238.5 48.5t-192.5 130.5t-127 195.5t-47 239.5q0 125 47 238t127 195t192.5 130.5t238.5 48.5q243 0 407 -161z" />
    <glyph glyph-name="Eogonek.sc" horiz-adv-x="1021" 
d="M901 0l-43 -127q-11 -23 -1.5 -48.5t32.5 -35.5q23 -7 45 3.5t33 33.5q4 16 4 27v16l123 6q0 -43 -19 -94q-23 -52 -66 -82.5t-94 -30.5q-35 0 -69 15q-54 23 -82.5 65.5t-28.5 97.5q0 37 13 74l43 80h-609v1196h715v-160h-543v-366h473v-162h-473v-346h557l-4 -160z" />
    <glyph glyph-name="Dcroat.sc" horiz-adv-x="1292" 
d="M649 0h-456v532h-160v136h160v528h456q167 0 289.5 -80t183 -214.5t60.5 -305.5q0 -172 -60.5 -305.5t-182.5 -212t-290 -78.5zM365 668h282v-136h-282v-362h284q174 0 268.5 118t94.5 308q0 191 -94.5 310.5t-268.5 119.5h-284v-358z" />
    <glyph glyph-name="Gdotaccent.sc" horiz-adv-x="1349" 
d="M545 1487q0 47 32 76.5t80 29.5t81.5 -30t33.5 -76q0 -47 -33.5 -78t-81.5 -31t-80 31t-32 78zM1116 1047l-123 -115q-118 112 -284 112q-183 0 -308 -130.5t-125 -317.5t125 -318t308 -131q156 0 259.5 84.5t110.5 223.5h-336v151h531q0 -310 -149.5 -467t-415.5 -157
q-126 0 -238.5 48.5t-192.5 130.5t-127 195.5t-47 239.5q0 125 47 238t127 195t192.5 130.5t238.5 48.5q243 0 407 -161z" />
    <glyph glyph-name="Hcircumflex.sc" horiz-adv-x="1269" 
d="M1087 1196v-1196h-174v516h-559v-516h-172v1196h172v-522h559v522h174zM760 1335l-127 148l-125 -148h-154l199 275h164l198 -275h-155z" />
    <glyph glyph-name="Hbar.sc" horiz-adv-x="1286" 
d="M1094 981h120v-107h-120v-874h-172v512h-560v-512h-172v874h-116v107h116v215h172v-215h560v215h172v-215zM362 676h560v198h-560v-198z" />
    <glyph glyph-name="Itilde.sc" horiz-adv-x="536" 
d="M182 1196h172v-1196h-172v1196zM193 1430q-14 0 -27 -18.5t-14 -55.5h-117q7 110 52 160.5t106 50.5q17 0 31.5 -4t22 -8t22 -13t18.5 -12l8 -6q31 -27 49 -27q40 0 43 70h117q-7 -111 -53 -160t-107 -49q-47 0 -100 45l-21 12q-21 15 -30 15z" />
    <glyph glyph-name="Imacron.sc" horiz-adv-x="536" 
d="M182 1196h172v-1196h-172v1196zM47 1528h445v-150h-445v150z" />
    <glyph glyph-name="Iogonek.sc" horiz-adv-x="536" 
d="M285 0l-49 -145q-11 -26 -3 -50t31 -34q24 -8 46 2t32 34q6 18 6 25v16l121 9q0 -46 -18 -95q-23 -51 -66 -81.5t-94 -30.5q-44 0 -68 12q-54 25 -84 68.5t-30 97.5q0 42 14 74l59 108v1186h172v-1196h-69z" />
    <glyph glyph-name="IJ.sc" horiz-adv-x="1073" 
d="M182 1196h172v-1196h-172v1196zM385 -412l16 166q39 -16 121 -16q102 0 149.5 61t47.5 160v1237h172v-1237q0 -83 -20 -151t-62.5 -122.5t-115.5 -85t-171 -30.5q-45 0 -137 18z" />
    <glyph glyph-name="Jcircumflex.sc" horiz-adv-x="536" 
d="M381 1335l-127 148l-125 -148h-156l201 275h164l197 -275h-154zM-152 -412l17 166q39 -16 121 -16q102 0 149 61t47 160v1237h172v-1237q0 -83 -20 -151t-62 -122.5t-115 -85t-171 -30.5q-46 0 -138 18z" />
    <glyph glyph-name="Lacute.sc" horiz-adv-x="880" 
d="M563 1591l-213 -276h-164l174 276h203zM182 1196h172v-1034h484v-162h-656v1196z" />
    <glyph glyph-name="Lcaron.sc" horiz-adv-x="882" 
d="M182 1196h172v-1034h484v-162h-656v1196zM584 866l-113 29q40 59 59 110t19 119q0 16 -4 62h168q0 -216 -129 -320z" />
    <glyph glyph-name="Ldot.sc" horiz-adv-x="880" 
d="M182 1196h172v-1034h484v-162h-656v1196zM489 455q0 42 31.5 72t73.5 30q44 0 76 -29.5t32 -72.5q0 -42 -31.5 -71.5t-76.5 -29.5q-42 0 -73.5 29.5t-31.5 71.5z" />
    <glyph glyph-name="Nacute.sc" horiz-adv-x="1230" 
d="M856 1610l-215 -275h-164l174 275h205zM1049 0h-164l-531 877v-877h-172v1196h168l527 -866v866h172v-1196z" />
    <glyph glyph-name="Ncaron.sc" horiz-adv-x="1230" 
d="M612 1464l127 146h154l-197 -275h-164l-200 275h155zM1049 0h-164l-531 877v-877h-172v1196h168l527 -866v866h172v-1196z" />
    <glyph glyph-name="Omacron.sc" horiz-adv-x="1421" 
d="M104 596q0 125 47 238t127 195t192.5 130.5t238.5 48.5q168 0 308 -82t220 -222.5t80 -307.5q0 -168 -80 -309t-220 -223t-308 -82q-126 0 -238.5 48.5t-192.5 130.5t-127 195.5t-47 239.5zM276 596q0 -187 124.5 -316.5t308.5 -129.5q183 0 308.5 130t125.5 316
t-125.5 316t-308.5 130q-184 0 -308.5 -129.5t-124.5 -316.5zM487 1528h445v-150h-445v150z" />
    <glyph glyph-name="Obreve.sc" horiz-adv-x="1421" 
d="M479 1567h137q0 -44 25.5 -72.5t67.5 -28.5q40 0 64 30.5t24 70.5h141q0 -108 -62 -170t-167 -62q-114 0 -172 66.5t-58 165.5zM104 596q0 125 47 238t127 195t192.5 130.5t238.5 48.5q168 0 308 -82t220 -222.5t80 -307.5q0 -168 -80 -309t-220 -223t-308 -82
q-126 0 -238.5 48.5t-192.5 130.5t-127 195.5t-47 239.5zM276 596q0 -187 124.5 -316.5t308.5 -129.5q183 0 308.5 130t125.5 316t-125.5 316t-308.5 130q-184 0 -308.5 -129.5t-124.5 -316.5z" />
    <glyph glyph-name="Ohungarumlaut.sc" horiz-adv-x="1421" 
d="M817 1610l-162 -275h-157l143 275h176zM1063 1610l-184 -275h-154l162 275h176zM104 596q0 125 47 238t127 195t192.5 130.5t238.5 48.5q168 0 308 -82t220 -222.5t80 -307.5q0 -168 -80 -309t-220 -223t-308 -82q-126 0 -238.5 48.5t-192.5 130.5t-127 195.5t-47 239.5z
M276 596q0 -187 124.5 -316.5t308.5 -129.5q183 0 308.5 130t125.5 316t-125.5 316t-308.5 130q-184 0 -308.5 -129.5t-124.5 -316.5z" />
    <glyph glyph-name="Racute.sc" horiz-adv-x="1118" 
d="M743 1610l-213 -275h-163l176 275h200zM696 451l318 -451h-209l-305 442h-144v-442h-174v1196h461q91 0 161.5 -32t112.5 -86.5t63 -120t21 -138.5q0 -95 -29 -171t-99.5 -131t-176.5 -66zM639 1036h-283v-432h275q98 0 145 62.5t47 152.5q0 88 -46 152.5t-138 64.5z" />
    <glyph glyph-name="Rcaron.sc" horiz-adv-x="1118" 
d="M557 1464l127 146h154l-199 -275h-164l-201 275h156zM696 451l318 -451h-209l-305 442h-144v-442h-174v1196h461q91 0 161.5 -32t112.5 -86.5t63 -120t21 -138.5q0 -95 -29 -171t-99.5 -131t-176.5 -66zM639 1036h-283v-432h275q98 0 145 62.5t47 152.5q0 88 -46 152.5
t-138 64.5z" />
    <glyph glyph-name="Sacute.sc" horiz-adv-x="1034" 
d="M754 1610l-215 -275h-164l174 275h205zM109 354h174q0 -85 69.5 -148t175.5 -63q105 0 163.5 48.5t70.5 119.5q11 84 -48.5 135t-148.5 72l-153 39q-291 67 -291 315q0 97 54.5 175t143 119.5t191.5 41.5q168 0 277.5 -97t109.5 -259h-172q0 87 -61 139.5t-156 52.5
q-89 0 -152 -48t-63 -124q0 -21 6.5 -41t23 -43t51 -42t83.5 -31l153 -39q169 -43 254 -141.5t68 -237.5q-21 -134 -130 -224.5t-274 -90.5q-180 0 -299.5 111.5t-119.5 260.5z" />
    <glyph glyph-name="Scircumflex.sc" horiz-adv-x="1034" 
d="M629 1335l-125 148l-127 -148h-156l201 275h164l198 -275h-155zM109 354h174q0 -85 69.5 -148t175.5 -63q105 0 163.5 48.5t70.5 119.5q11 84 -48.5 135t-148.5 72l-153 39q-291 67 -291 315q0 97 54.5 175t143 119.5t191.5 41.5q168 0 277.5 -97t109.5 -259h-172
q0 87 -61 139.5t-156 52.5q-89 0 -152 -48t-63 -124q0 -21 6.5 -41t23 -43t51 -42t83.5 -31l153 -39q169 -43 254 -141.5t68 -237.5q-21 -134 -130 -224.5t-274 -90.5q-180 0 -299.5 111.5t-119.5 260.5z" />
    <glyph glyph-name="Scedilla.sc" horiz-adv-x="1036" 
d="M469 -193q10 -23 32.5 -33.5t45.5 -2.5q23 11 32 35t-1 49l-54 127q-118 0 -214.5 53.5t-148.5 138.5t-52 180h174q0 -82 70 -146.5t175 -64.5t163.5 48.5t70.5 119.5q11 84 -48.5 135t-148.5 72l-153 39q-291 67 -291 315q0 97 54.5 175t143 119.5t191.5 41.5
q168 0 277.5 -97t109.5 -259h-172q0 87 -61 139.5t-156 52.5q-89 0 -152 -48t-63 -124q0 -21 6.5 -41t23 -43t51 -42t83.5 -31l153 -39q169 -43 254 -141.5t68 -237.5q-18 -109 -95.5 -192.5t-197.5 -108.5l47 -94q14 -32 14 -74q0 -54 -29 -97.5t-83 -68.5q-27 -12 -70 -12
q-50 0 -93.5 30.5t-66.5 81.5q-16 54 -16 95l123 -9v-16q0 -21 4 -25z" />
    <glyph glyph-name="Utilde.sc" horiz-adv-x="1218" 
d="M532 1430q-13 0 -26 -18.5t-14 -55.5h-117q7 110 51.5 160.5t105.5 50.5q22 0 42.5 -7t29.5 -13t27 -19l8 -8q3 -2 11.5 -7.5t12.5 -8t10.5 -5t12.5 -2.5q15 0 28.5 16.5t14.5 53.5h115q-7 -111 -52.5 -160t-105.5 -49q-49 0 -102 45q-7 0 -13 6q-29 21 -39 21zM608 150
q111 0 190 73.5t79 188.5v784h172v-784q0 -127 -60.5 -226t-160.5 -151.5t-220 -52.5q-182 0 -310 120t-128 310v784h174v-784q0 -115 77.5 -188.5t186.5 -73.5z" />
    <glyph glyph-name="Umacron.sc" horiz-adv-x="1218" 
d="M387 1528h444v-150h-444v150zM608 150q111 0 190 73.5t79 188.5v784h172v-784q0 -127 -60.5 -226t-160.5 -151.5t-220 -52.5q-182 0 -310 120t-128 310v784h174v-784q0 -115 77.5 -188.5t186.5 -73.5z" />
    <glyph glyph-name="Ubreve.sc" horiz-adv-x="1218" 
d="M608 150q111 0 190 73.5t79 188.5v784h172v-784q0 -127 -60.5 -226t-160.5 -151.5t-220 -52.5q-182 0 -310 120t-128 310v784h174v-784q0 -115 77.5 -188.5t186.5 -73.5zM379 1567h139q0 -44 24.5 -72.5t65.5 -28.5q39 0 63.5 31t24.5 70h144q0 -108 -63.5 -170
t-168.5 -62q-117 0 -173 66t-56 166z" />
    <glyph glyph-name="Uring.sc" horiz-adv-x="1218" 
d="M608 150q111 0 190 73.5t79 188.5v784h172v-784q0 -127 -60.5 -226t-160.5 -151.5t-220 -52.5q-182 0 -310 120t-128 310v784h174v-784q0 -115 77.5 -188.5t186.5 -73.5zM420 1497q0 79 54 132.5t132 53.5q82 0 136.5 -53t54.5 -133q0 -78 -54.5 -131t-136.5 -53
q-78 0 -132 53t-54 131zM524 1497q0 -35 24.5 -58.5t57.5 -23.5q36 0 62 23.5t26 58.5t-26 59.5t-62 24.5q-33 0 -57.5 -24.5t-24.5 -59.5z" />
    <glyph glyph-name="Uhungarumlaut.sc" horiz-adv-x="1218" 
d="M608 150q111 0 190 73.5t79 188.5v784h172v-784q0 -127 -60.5 -226t-160.5 -151.5t-220 -52.5q-182 0 -310 120t-128 310v784h174v-784q0 -115 77.5 -188.5t186.5 -73.5zM694 1610l-162 -275h-155l143 275h174zM940 1610l-182 -275h-156l162 275h176z" />
    <glyph glyph-name="Uogonek.sc" horiz-adv-x="1222" 
d="M733 -193l2 3q4 12 4 22v16l123 9q0 -52 -16 -95q-24 -53 -68 -82.5t-94 -29.5q-46 0 -70 12q-52 25 -82 69t-30 97q0 42 14 74l45 84q-167 18 -278 134t-111 292v784h174v-784q0 -115 77.5 -188.5t186.5 -73.5q111 0 190 73.5t79 188.5v784h172v-784q0 -175 -107 -290
t-270 -136q-7 -24 -23.5 -66t-23.5 -65q-10 -26 -1.5 -49.5t31.5 -34.5q24 -8 45 2t31 34z" />
    <glyph glyph-name="Wcircumflex.sc" horiz-adv-x="1607" 
d="M1376 1196h185l-406 -1196h-147l-205 721l-203 -721h-147l-406 1196h184l293 -913q31 106 102.5 360t112.5 393h129l215 -753zM930 1335l-127 148l-125 -148h-156l199 275h164l200 -275h-155z" />
    <glyph glyph-name="Ycircumflex.sc" horiz-adv-x="1153" 
d="M702 1335l-127 148l-124 -148h-154l199 275h163l201 -275h-158zM664 0h-177v549l-454 647h203l337 -477l342 477h209l-460 -647v-549z" />
    <glyph glyph-name="Tcaron.sc" horiz-adv-x="987" 
d="M494 1464l124 146h156l-201 -275h-163l-199 275h156zM47 1196h893v-162h-360v-1034h-174v1034h-359v162z" />
    <glyph glyph-name="Tbar.sc" horiz-adv-x="989" 
d="M580 717h229v-117h-229v-600h-172v600h-226v117h226v309h-363v170h899v-170h-364v-309z" />
    <glyph glyph-name="Zacute.sc" horiz-adv-x="1038" 
d="M92 147l619 887h-594v162h817v-147l-625 -885h625v-164h-842v147zM770 1610l-217 -275h-164l176 275h205z" />
    <glyph glyph-name="Zdotaccent.sc" horiz-adv-x="1038" 
d="M92 147l619 887h-594v162h817v-147l-625 -885h625v-164h-842v147zM397 1487q0 46 33.5 76t81.5 30q50 0 82.5 -29.5t32.5 -76.5t-32.5 -78t-82.5 -31q-48 0 -81.5 31t-33.5 78z" />
    <glyph glyph-name="Wgrave.sc" horiz-adv-x="1607" 
d="M1376 1196h185l-406 -1196h-147l-205 721l-203 -721h-147l-406 1196h184l293 -913q31 106 102.5 360t112.5 393h129l215 -753zM731 1335l-217 275h205l176 -275h-164z" />
    <glyph glyph-name="Wacute.sc" horiz-adv-x="1607" 
d="M1090 1610l-216 -275h-163l176 275h203zM1376 1196h185l-406 -1196h-147l-205 721l-203 -721h-147l-406 1196h184l293 -913q31 106 102.5 360t112.5 393h129l215 -753z" />
    <glyph glyph-name="Wdieresis.sc" horiz-adv-x="1607" 
d="M545 1470q0 47 32 77t80 30t80.5 -30t32.5 -77t-32.5 -77.5t-80.5 -30.5t-80 30.5t-32 77.5zM836 1470q0 47 33 77t81 30t79.5 -30t31.5 -77t-31.5 -77.5t-79.5 -30.5t-81 30.5t-33 77.5zM1376 1196h185l-406 -1196h-147l-205 721l-203 -721h-147l-406 1196h184l293 -913
q31 106 102.5 360t112.5 393h129l215 -753z" />
    <glyph glyph-name="Aringacute.sc" horiz-adv-x="1167" 
d="M860 1886l-178 -229q41 -25 64.5 -67.5t23.5 -92.5q0 -78 -54.5 -131t-135.5 -53q-78 0 -131.5 53t-53.5 131q0 63 34.5 111t90.5 65l135 213h205zM500 1497q0 -35 23.5 -58.5t56.5 -23.5q37 0 62.5 23.5t25.5 58.5t-25.5 59.5t-62.5 24.5q-33 0 -56.5 -24.5t-23.5 -59.5
zM395 457h377q-32 86 -94 249.5t-94 249.5zM831 301h-493q-19 -48 -57 -150.5t-58 -150.5h-184l455 1196h180l454 -1196h-182z" />
    <glyph glyph-name="AEacute.sc" horiz-adv-x="1667" 
d="M1192 1610l-215 -275h-164l176 275h203zM418 297l-191 -297h-204l757 1196h758v-170h-539v-354h469v-170h-469v-332h557v-170h-729v297h-409zM520 463h307v481z" />
    <glyph glyph-name="Oslashacute.sc" horiz-adv-x="1417" 
d="M987 1610l-215 -275h-164l176 275h203zM332 111l-137 -142l-89 90l138 142q-142 176 -142 395q0 125 47 238t127 195t192.5 130.5t238.5 48.5q216 0 383 -135l139 137l88 -86l-137 -139q135 -175 135 -389q0 -168 -80 -309t-220 -223t-308 -82q-211 0 -375 129zM274 596
q0 -155 86 -274l613 628q-116 92 -266 92q-184 0 -308.5 -129.5t-124.5 -316.5zM707 150q183 0 308.5 130t125.5 316q0 142 -82 266l-610 -629q109 -83 258 -83z" />
    <glyph glyph-name="Ibreve.sc" horiz-adv-x="536" 
d="M39 1567h137q0 -44 24.5 -72.5t65.5 -28.5t65.5 31t24.5 70h142q0 -108 -63.5 -170t-168.5 -62q-115 0 -171 66t-56 166zM182 1196h172v-1196h-172v1196z" />
    <glyph glyph-name="Eng.sc" horiz-adv-x="1226" 
d="M870 -35v53l-518 850v-868h-170v1196h166l522 -866v866h174v-1184q0 -74 -9.5 -134.5t-35 -118t-66.5 -97t-107 -63t-152 -23.5q-74 0 -135 21l14 170l100 -15q63 -3 109 17q108 45 108 196z" />
    <glyph glyph-name="Ygrave.sc" horiz-adv-x="1153" 
d="M510 1335l-215 275h203l176 -275h-164zM664 0h-177v549l-454 647h203l337 -477l342 477h209l-460 -647v-549z" />
    <glyph glyph-name="Gcommaaccent.sc" horiz-adv-x="1349" 
d="M1116 1047l-123 -115q-118 112 -284 112q-183 0 -308 -130.5t-125 -317.5t125 -318t308 -131q156 0 259.5 84.5t110.5 223.5h-336v151h531q0 -310 -149.5 -467t-415.5 -157q-126 0 -238.5 48.5t-192.5 130.5t-127 195.5t-47 239.5q0 125 47 238t127 195t192.5 130.5
t238.5 48.5q243 0 407 -161zM657 -430l-110 35q47 66 67.5 117t20.5 120q0 24 -4 74h166q0 -227 -140 -346z" />
    <glyph glyph-name="Kcommaaccent.sc" horiz-adv-x="1054" 
d="M545 -430l-111 35q47 66 67.5 117t20.5 120q0 24 -4 74h166q0 -228 -139 -346zM487 598l566 -598h-236l-463 496v-496h-172v1196h172v-500l383 500h209z" />
    <glyph glyph-name="Lcommaaccent.sc" horiz-adv-x="880" 
d="M182 1196h172v-1034h484v-162h-656v1196zM449 -430l-111 35q47 66 67.5 117t20.5 120q0 24 -4 74h166q0 -228 -139 -346z" />
    <glyph glyph-name="Ncommaaccent.sc" horiz-adv-x="1230" 
d="M1049 0h-164l-531 877v-877h-172v1196h168l527 -866v866h172v-1196zM582 -430l-111 35q47 66 67.5 117t20.5 120q0 24 -4 74h166q0 -228 -139 -346z" />
    <glyph glyph-name="Rcommaaccent.sc" horiz-adv-x="1118" 
d="M696 451l318 -451h-209l-305 442h-144v-442h-174v1196h461q91 0 161.5 -32t112.5 -86.5t63 -120t21 -138.5q0 -95 -29 -171t-99.5 -131t-176.5 -66zM639 1036h-283v-432h275q98 0 145 62.5t47 152.5q0 88 -46 152.5t-138 64.5zM537 -430l-111 35q47 66 67.5 117t20.5 120
q0 24 -4 74h166q0 -228 -139 -346z" />
    <glyph glyph-name="Tcommaaccent.sc" horiz-adv-x="987" 
d="M47 1196h893v-162h-360v-1034h-174v1034h-359v162zM430 -430l-111 35q47 66 68 117t21 120q0 12 -5 74h166q0 -228 -139 -346z" />
    <glyph glyph-name="Scommaaccent.sc" horiz-adv-x="1034" 
d="M109 354h174q0 -85 69.5 -148t175.5 -63q105 0 163.5 48.5t70.5 119.5q11 84 -48.5 135t-148.5 72l-153 39q-291 67 -291 315q0 97 54.5 175t143 119.5t191.5 41.5q168 0 277.5 -97t109.5 -259h-172q0 87 -61 139.5t-156 52.5q-89 0 -152 -48t-63 -124q0 -21 6.5 -41
t23 -43t51 -42t83.5 -31l153 -39q169 -43 254 -141.5t68 -237.5q-21 -134 -130 -224.5t-274 -90.5q-180 0 -299.5 111.5t-119.5 260.5zM481 -430l-110 35q47 66 67.5 117t20.5 120q0 24 -4 74h166q0 -227 -140 -346z" />
    <glyph glyph-name="Idotaccent.sc" horiz-adv-x="536" 
d="M154 1487q0 46 33 76t81 30q50 0 82.5 -29.5t32.5 -76.5t-32.5 -78t-82.5 -31q-48 0 -81 31t-33 78zM182 1196h172v-1196h-172v1196z" />
    <glyph glyph-name="zero.numr" horiz-adv-x="745" 
d="M80 932q0 92 13.5 162.5t45 130t91 91.5t143.5 32t143.5 -32t91 -91.5t45 -130t13.5 -162.5q0 -71 -8 -129t-28.5 -111.5t-52.5 -90t-84 -58t-120 -21.5t-120 21.5t-84 58t-52.5 90t-28.5 111.5t-8 129zM201 932q0 -65 7.5 -114t26 -91t53.5 -64t85 -22t85 22t53.5 64
t26 91t7.5 114t-7.5 115t-26 92.5t-53.5 65t-85 22.5t-85 -22.5t-53.5 -65t-26 -92.5t-7.5 -115z" />
    <glyph glyph-name="one.numr" horiz-adv-x="428" 
d="M193 532v625l-140 -72v117l262 144v-814h-122z" />
    <glyph glyph-name="two.numr" horiz-adv-x="653" 
d="M74 590l323 391q56 70 56 125q0 54 -39.5 89.5t-96.5 35.5q-55 0 -95 -36t-50 -97l-109 28q17 101 88 161.5t166 60.5q107 0 180.5 -68t73.5 -174q0 -115 -88 -209l-207 -244h297v-121h-499v58z" />
    <glyph glyph-name="three.numr" horiz-adv-x="657" 
d="M180 1153l-92 74q35 60 99.5 93t138.5 28q100 -4 165 -71t60 -155q0 -89 -84 -155q115 -59 115 -197q0 -117 -81.5 -181.5t-197.5 -64.5q-75 0 -148 45t-106 115l103 59q18 -40 66 -69t93 -29q63 0 105 33.5t43 89.5q5 55 -31.5 95t-95.5 40h-115v117h96q40 0 67.5 23.5
t35.5 60.5q6 53 -24 88t-91 35q-71 0 -121 -74z" />
    <glyph glyph-name="four.numr" horiz-adv-x="739" 
d="M569 694v-162h-120v162h-416l446 643h90v-528h115v-115h-115zM242 809h207v307z" />
    <glyph glyph-name="five.numr" horiz-adv-x="696" 
d="M55 690l101 72q22 -58 72 -90.5t108 -32.5q82 0 129 44t47 110q0 67 -46.5 103t-107.5 36q-94 0 -227 -68l-37 47l72 424h412v-114h-312l-37 -197q61 27 129 27q115 0 194 -68t79 -190q0 -124 -80.5 -198.5t-214.5 -74.5q-88 0 -164.5 45t-116.5 125z" />
    <glyph glyph-name="six.numr" horiz-adv-x="692" 
d="M614 1180l-108 -45q-46 94 -131 94q-78 0 -126 -76t-46 -195q50 97 164 97q109 0 182.5 -84.5t68.5 -196.5q-8 -114 -84.5 -187t-187.5 -69q-110 5 -181 78t-81 199q0 41 -1.5 90.5t5 103t16 104.5t32 97.5t53 81t78.5 54t108 17.5q52 -3 90 -15t79.5 -49t69.5 -99z
M209 793q0 -63 41.5 -106.5t101.5 -45.5q60 -4 100.5 36.5t45.5 102.5q4 63 -34.5 106.5t-98.5 45.5q-63 1 -107 -38t-49 -101z" />
    <glyph glyph-name="seven.numr" horiz-adv-x="659" 
d="M639 1337l-440 -805h-142l375 685h-356v120h563z" />
    <glyph glyph-name="eight.numr" horiz-adv-x="700" 
d="M133 1137q0 89 62 150t155 61q92 0 156.5 -61.5t64.5 -149.5q0 -72 -59 -138q55 -36 86 -92t31 -123q0 -110 -80.5 -186t-198.5 -76t-198 75.5t-80 186.5q0 68 29.5 124t84.5 91q-53 59 -53 138zM193 784q0 -60 45 -101.5t112 -41.5q66 0 112 41.5t46 101.5
q0 62 -46.5 108t-111.5 46h-8q-64 0 -106.5 -46t-42.5 -108zM254 1137q0 -36 25 -64.5t65 -32.5h10q41 4 68 32.5t27 64.5q0 37 -29 63.5t-70 26.5t-68.5 -26.5t-27.5 -63.5z" />
    <glyph glyph-name="nine.numr" horiz-adv-x="690" 
d="M78 684l108 45q46 -94 131 -94q78 0 126 75.5t46 194.5q-49 -96 -163 -96q-109 0 -183 84.5t-69 196.5q4 112 83.5 186.5t188.5 69.5q110 -5 181 -78t81 -199q0 -41 1.5 -90.5t-5 -103t-16 -105t-32 -97.5t-53 -81t-78.5 -54.5t-108 -17.5q-168 4 -239 164zM483 1071
q0 63 -41.5 106.5t-101.5 45.5q-60 4 -100 -37t-45 -103q-4 -63 34.5 -106t98.5 -45q63 -1 106.5 38t48.5 101z" />
    <glyph glyph-name="zero.dnom" horiz-adv-x="745" 
d="M80 399q0 92 13.5 162.5t45 130t91 91.5t143.5 32t143.5 -32t91 -91.5t45 -130t13.5 -162.5q0 -71 -8 -128.5t-28.5 -111t-52.5 -90t-84 -58t-120 -21.5t-120 21.5t-84 58t-52.5 90t-28.5 111t-8 128.5zM201 399q0 -65 7.5 -114t26 -90.5t53.5 -63.5t85 -22t85 22
t53.5 63.5t26 90.5t7.5 114t-7.5 115t-26 92.5t-53.5 65t-85 22.5t-85 -22.5t-53.5 -65t-26 -92.5t-7.5 -115z" />
    <glyph glyph-name="one.dnom" horiz-adv-x="428" 
d="M193 0v625l-140 -72v117l262 143v-813h-122z" />
    <glyph glyph-name="two.dnom" horiz-adv-x="653" 
d="M74 57l323 392q56 70 56 124t-39.5 89.5t-96.5 35.5q-55 0 -95 -36t-50 -97l-109 29q17 101 88 161t166 60q107 0 180.5 -68t73.5 -174q0 -114 -88 -208l-207 -244h297v-121h-499v57z" />
    <glyph glyph-name="three.dnom" horiz-adv-x="657" 
d="M180 621l-92 73q35 60 99.5 93t138.5 28q100 -4 165 -70.5t60 -154.5q0 -90 -84 -156q115 -59 115 -196q0 -117 -81.5 -181.5t-197.5 -64.5q-75 0 -148 45t-106 115l103 59q18 -40 66 -69t93 -29q63 0 105 33.5t43 89.5q5 55 -31.5 95t-95.5 40h-115v116h96
q40 0 67.5 23.5t35.5 60.5q6 53 -24 88t-91 35q-72 0 -121 -73z" />
    <glyph glyph-name="four.dnom" horiz-adv-x="739" 
d="M569 162v-162h-120v162h-416l446 643h90v-529h115v-114h-115zM242 276h207v308z" />
    <glyph glyph-name="five.dnom" horiz-adv-x="696" 
d="M55 158l101 71q22 -58 72 -90.5t108 -32.5q82 0 129 44t47 110q0 67 -46.5 103t-107.5 36q-96 0 -227 -67l-37 47l72 424h412v-115h-312l-37 -196q59 26 129 26q115 0 194 -68t79 -190q0 -124 -80.5 -198t-214.5 -74q-88 0 -164.5 45t-116.5 125z" />
    <glyph glyph-name="six.dnom" horiz-adv-x="692" 
d="M614 647l-108 -45q-46 94 -131 94q-78 0 -126 -75.5t-46 -194.5q49 96 164 96q109 0 182.5 -84t68.5 -196q-8 -114 -84.5 -187t-187.5 -69q-110 5 -181 77.5t-81 198.5q0 41 -1.5 90.5t5 103t16 105t32 97.5t53 81t78.5 54.5t108 17.5q38 -3 68 -10.5t62.5 -24.5
t60 -49.5t48.5 -79.5zM209 260q0 -63 41.5 -106t101.5 -45q60 -4 100.5 36.5t45.5 102.5q4 63 -34.5 106t-98.5 45q-63 1 -107 -38t-49 -101z" />
    <glyph glyph-name="seven.dnom" horiz-adv-x="657" 
d="M639 805l-440 -805h-142l375 684h-356v121h563z" />
    <glyph glyph-name="eight.dnom" horiz-adv-x="700" 
d="M133 604q0 89 62 150t155 61q92 0 156.5 -61.5t64.5 -149.5q0 -71 -59 -137q55 -36 86 -92t31 -123q0 -110 -80.5 -186t-198.5 -76t-198 75.5t-80 186.5q0 68 29.5 124t84.5 91q-53 59 -53 137zM193 252q0 -60 45 -101.5t112 -41.5q66 0 112 41.5t46 101.5
q0 62 -46.5 108t-111.5 46h-8q-64 0 -106.5 -46t-42.5 -108zM254 604q0 -36 25 -64t65 -32h10q41 4 68 32t27 64q0 37 -29 63.5t-70 26.5t-68.5 -26.5t-27.5 -63.5z" />
    <glyph glyph-name="nine.dnom" horiz-adv-x="690" 
d="M78 152l108 45q46 -95 131 -95q78 0 126 76t46 195q-50 -97 -163 -97q-109 0 -183 84.5t-69 196.5q4 112 83.5 186.5t188.5 69.5q110 -5 181 -77.5t81 -198.5q0 -41 1.5 -90.5t-5 -103t-16 -105t-32 -97.5t-53 -81t-78.5 -54.5t-108 -17.5q-168 4 -239 164zM483 539
q0 63 -41.5 106t-101.5 45q-60 4 -100 -36.5t-45 -102.5q-4 -63 34.5 -106.5t98.5 -45.5q63 -1 106.5 38.5t48.5 101.5z" />
    <glyph glyph-name="l.alt1" horiz-adv-x="571" 
d="M567 174v-174h-80q-344 0 -344 410v1067h189v-1065q0 -39 2.5 -67.5t12.5 -62.5t28 -56t50.5 -37t78.5 -15h63z" />
    <glyph glyph-name="a.alt1" horiz-adv-x="1105" 
d="M446 145q85 0 184 42.5t146 119.5v70q-68 24 -149.5 36.5t-134.5 12.5q-70 0 -119 -14t-72.5 -38t-33 -47.5t-9.5 -50.5q0 -58 47.5 -94.5t140.5 -36.5zM244 686l-115 111q48 68 121.5 110.5t139 56t136.5 13.5q207 0 322 -103.5t115 -298.5v-122v-453h-185v123
q-51 -70 -144.5 -106.5t-191.5 -36.5q-166 0 -263 78t-97 218q0 134 99 218t311 84q118 0 286 -52v49q0 107 -69.5 170.5t-196.5 63.5q-72 0 -145.5 -32.5t-122.5 -90.5z" />
    <glyph glyph-name="y.alt1" horiz-adv-x="1040" 
d="M367 -98l53 127l-383 927h199l284 -688l287 688h199l-469 -1126q-76 -171 -158 -239t-229 -68q-61 0 -113 14v164q39 -6 108 -6q37 0 66 9t49 23.5t39.5 43.5t33.5 56t34 75z" />
    <glyph glyph-name="lslash.alt1" horiz-adv-x="593" 
d="M586 174v-174h-80q-344 0 -344 410v241l-135 -86v131l135 86v695h188v-574l156 101v-132l-156 -100v-360q0 -39 2.5 -67.5t12.5 -62.5t28 -56t50.5 -37t78.5 -15h64z" />
    <glyph glyph-name="lacute.alt1" horiz-adv-x="571" 
d="M567 1907l-243 -316h-179l199 316h223zM567 174v-174h-80q-344 0 -344 410v1067h189v-1065q0 -39 2.5 -67.5t12.5 -62.5t28 -56t50.5 -37t78.5 -15h63z" />
    <glyph glyph-name="lcommaaccent.alt1" horiz-adv-x="571" 
d="M344 -512l-119 39q62 83 83.5 158t10.5 198h185q0 -268 -160 -395zM567 174v-174h-80q-344 0 -344 410v1067h189v-1065q0 -39 2.5 -67.5t12.5 -62.5t28 -56t50.5 -37t78.5 -15h63z" />
    <glyph glyph-name="lcaron.alt1" horiz-adv-x="571" 
d="M537 1081l-119 39q62 83 83.5 158.5t10.5 198.5h184q0 -270 -159 -396zM567 174v-174h-80q-344 0 -344 410v1067h189v-1065q0 -39 2.5 -67.5t12.5 -62.5t28 -56t50.5 -37t78.5 -15h63z" />
    <glyph glyph-name="aacute.alt1" horiz-adv-x="1105" 
d="M848 1450l-244 -315h-178l199 315h223zM446 145q85 0 184 42.5t146 119.5v70q-68 24 -149.5 36.5t-134.5 12.5q-70 0 -119 -14t-72.5 -38t-33 -47.5t-9.5 -50.5q0 -58 47.5 -94.5t140.5 -36.5zM244 686l-115 111q48 68 121.5 110.5t139 56t136.5 13.5q207 0 322 -103.5
t115 -298.5v-122v-453h-185v123q-51 -70 -144.5 -106.5t-191.5 -36.5q-166 0 -263 78t-97 218q0 134 99 218t311 84q118 0 286 -52v49q0 107 -69.5 170.5t-196.5 63.5q-72 0 -145.5 -32.5t-122.5 -90.5z" />
    <glyph glyph-name="agrave.alt1" horiz-adv-x="1105" 
d="M471 1135l-244 315h224l198 -315h-178zM446 145q85 0 184 42.5t146 119.5v70q-68 24 -149.5 36.5t-134.5 12.5q-70 0 -119 -14t-72.5 -38t-33 -47.5t-9.5 -50.5q0 -58 47.5 -94.5t140.5 -36.5zM244 686l-115 111q48 68 121.5 110.5t139 56t136.5 13.5q207 0 322 -103.5
t115 -298.5v-122v-453h-185v123q-51 -70 -144.5 -106.5t-191.5 -36.5q-166 0 -263 78t-97 218q0 134 99 218t311 84q118 0 286 -52v49q0 107 -69.5 170.5t-196.5 63.5q-72 0 -145.5 -32.5t-122.5 -90.5z" />
    <glyph glyph-name="acircumflex.alt1" horiz-adv-x="1105" 
d="M674 1135l-154 178l-151 -178h-168l225 315h190l226 -315h-168zM446 145q85 0 184 42.5t146 119.5v70q-68 24 -149.5 36.5t-134.5 12.5q-70 0 -119 -14t-72.5 -38t-33 -47.5t-9.5 -50.5q0 -58 47.5 -94.5t140.5 -36.5zM244 686l-115 111q48 68 121.5 110.5t139 56
t136.5 13.5q207 0 322 -103.5t115 -298.5v-122v-453h-185v123q-51 -70 -144.5 -106.5t-191.5 -36.5q-166 0 -263 78t-97 218q0 134 99 218t311 84q118 0 286 -52v49q0 107 -69.5 170.5t-196.5 63.5q-72 0 -145.5 -32.5t-122.5 -90.5z" />
    <glyph glyph-name="adieresis.alt1" horiz-adv-x="1105" 
d="M248 1290q0 53 36 87t91 34q52 0 88.5 -34t36.5 -87t-36.5 -87t-88.5 -34q-55 0 -91 34t-36 87zM594 1290q0 53 36 87t91 34t91 -34t36 -87t-36 -87t-91 -34t-91 34t-36 87zM446 145q85 0 184 42.5t146 119.5v70q-68 24 -149.5 36.5t-134.5 12.5q-70 0 -119 -14
t-72.5 -38t-33 -47.5t-9.5 -50.5q0 -58 47.5 -94.5t140.5 -36.5zM244 686l-115 111q48 68 121.5 110.5t139 56t136.5 13.5q207 0 322 -103.5t115 -298.5v-122v-453h-185v123q-51 -70 -144.5 -106.5t-191.5 -36.5q-166 0 -263 78t-97 218q0 134 99 218t311 84q118 0 286 -52
v49q0 107 -69.5 170.5t-196.5 63.5q-72 0 -145.5 -32.5t-122.5 -90.5z" />
    <glyph glyph-name="atilde.alt1" horiz-adv-x="1105" 
d="M428 1249q-21 0 -37.5 -22t-17.5 -68h-125q7 124 59 182t121 58q26 0 51 -9t34.5 -15.5t33.5 -24.5q2 -2 12.5 -10t13.5 -10.5t11 -7t13.5 -6t12.5 -1.5q21 0 39 19.5t19 64.5h125q-7 -123 -60.5 -178.5t-122.5 -55.5q-13 0 -26 2.5t-21 5.5t-20.5 10t-16.5 10t-17 12.5
t-15 11.5q-4 2 -17 11t-17.5 11.5t-14 6t-17.5 3.5zM446 145q85 0 184 42.5t146 119.5v70q-68 24 -149.5 36.5t-134.5 12.5q-70 0 -119 -14t-72.5 -38t-33 -47.5t-9.5 -50.5q0 -58 47.5 -94.5t140.5 -36.5zM244 686l-115 111q48 68 121.5 110.5t139 56t136.5 13.5
q207 0 322 -103.5t115 -298.5v-122v-453h-185v123q-51 -70 -144.5 -106.5t-191.5 -36.5q-166 0 -263 78t-97 218q0 134 99 218t311 84q118 0 286 -52v49q0 107 -69.5 170.5t-196.5 63.5q-72 0 -145.5 -32.5t-122.5 -90.5z" />
    <glyph glyph-name="aring.alt1" horiz-adv-x="1105" 
d="M315 1321q0 92 61 154.5t152 62.5q93 0 156.5 -62.5t63.5 -154.5q0 -90 -63.5 -151.5t-156.5 -61.5q-91 0 -152 61t-61 152zM424 1321q0 -43 30.5 -73.5t73.5 -30.5q47 0 79 30.5t32 73.5q0 47 -32 78t-79 31q-43 0 -73.5 -31t-30.5 -78zM446 145q85 0 184 42.5
t146 119.5v70q-68 24 -149.5 36.5t-134.5 12.5q-70 0 -119 -14t-72.5 -38t-33 -47.5t-9.5 -50.5q0 -58 47.5 -94.5t140.5 -36.5zM244 686l-115 111q48 68 121.5 110.5t139 56t136.5 13.5q207 0 322 -103.5t115 -298.5v-122v-453h-185v123q-51 -70 -144.5 -106.5
t-191.5 -36.5q-166 0 -263 78t-97 218q0 134 99 218t311 84q118 0 286 -52v49q0 107 -69.5 170.5t-196.5 63.5q-72 0 -145.5 -32.5t-122.5 -90.5z" />
    <glyph glyph-name="amacron.alt1" horiz-adv-x="1105" 
d="M281 1352h516v-164h-516v164zM446 145q85 0 184 42.5t146 119.5v70q-68 24 -149.5 36.5t-134.5 12.5q-70 0 -119 -14t-72.5 -38t-33 -47.5t-9.5 -50.5q0 -58 47.5 -94.5t140.5 -36.5zM244 686l-115 111q48 68 121.5 110.5t139 56t136.5 13.5q207 0 322 -103.5t115 -298.5
v-122v-453h-185v123q-51 -70 -144.5 -106.5t-191.5 -36.5q-166 0 -263 78t-97 218q0 134 99 218t311 84q118 0 286 -52v49q0 107 -69.5 170.5t-196.5 63.5q-72 0 -145.5 -32.5t-122.5 -90.5z" />
    <glyph glyph-name="abreve.alt1" horiz-adv-x="1105" 
d="M283 1399h151q0 -55 31 -88t84 -33q51 0 82 37.5t31 83.5h155q0 -122 -72 -192t-196 -70q-133 0 -199.5 75t-66.5 187zM446 145q85 0 184 42.5t146 119.5v70q-68 24 -149.5 36.5t-134.5 12.5q-70 0 -119 -14t-72.5 -38t-33 -47.5t-9.5 -50.5q0 -58 47.5 -94.5
t140.5 -36.5zM244 686l-115 111q48 68 121.5 110.5t139 56t136.5 13.5q207 0 322 -103.5t115 -298.5v-122v-453h-185v123q-51 -70 -144.5 -106.5t-191.5 -36.5q-166 0 -263 78t-97 218q0 134 99 218t311 84q118 0 286 -52v49q0 107 -69.5 170.5t-196.5 63.5
q-72 0 -145.5 -32.5t-122.5 -90.5z" />
    <glyph glyph-name="aogonek.alt1" horiz-adv-x="1105" 
d="M244 686l-115 111q48 68 121.5 110.5t139 56t136.5 13.5q207 0 322 -103.5t115 -298.5v-575h-72l-64 -178q-12 -32 -0.5 -64t41.5 -45q31 -11 60.5 2.5t42.5 44.5q6 12 6 29v16l131 9q0 -54 -21 -101q-26 -61 -75 -96t-109 -35q-37 0 -80 17q-61 26 -95 76.5t-34 111.5
q0 48 17 86l67 127v123q-51 -70 -144.5 -106.5t-191.5 -36.5q-166 0 -263 78t-97 218q0 134 99 218t311 84q118 0 286 -52v49q0 107 -69.5 170.5t-196.5 63.5q-72 0 -145.5 -32.5t-122.5 -90.5zM446 145q85 0 184 42.5t146 119.5v70q-68 24 -149.5 36.5t-134.5 12.5
q-70 0 -119 -14t-72.5 -38t-33 -47.5t-9.5 -50.5q0 -58 47.5 -94.5t140.5 -36.5z" />
    <glyph glyph-name="yacute.alt1" horiz-adv-x="1040" 
d="M827 1450l-243 -315h-178l198 315h223zM367 -98l53 127l-383 927h199l284 -688l287 688h199l-469 -1126q-76 -171 -158 -239t-229 -68q-61 0 -113 14v164q39 -6 108 -6q37 0 66 9t49 23.5t39.5 43.5t33.5 56t34 75z" />
    <glyph glyph-name="ydieresis.alt1" horiz-adv-x="1040" 
d="M229 1290q0 53 36 87t91 34q52 0 88.5 -34t36.5 -87t-36.5 -87t-88.5 -34q-55 0 -91 34t-36 87zM575 1290q0 53 36 87t91 34t91 -34t36 -87t-36 -87t-91 -34t-91 34t-36 87zM367 -98l53 127l-383 927h199l284 -688l287 688h199l-469 -1126q-76 -171 -158 -239t-229 -68
q-61 0 -113 14v164q39 -6 108 -6q37 0 66 9t49 23.5t39.5 43.5t33.5 56t34 75z" />
    <glyph glyph-name="ae.alt1" horiz-adv-x="1822" 
d="M963 78v-78h-185v123q-51 -70 -144.5 -106.5t-191.5 -36.5q-166 0 -263 78t-97 218q0 134 99 218t311 84q118 0 286 -52v49q0 107 -69.5 170.5t-196.5 63.5q-72 0 -145.5 -32.5t-122.5 -90.5l-115 111q48 68 121.5 110.5t139 56t136.5 13.5q260 0 369 -158
q68 76 163.5 117t207.5 41q207 0 341 -136t134 -360q0 -50 -2 -73h-776q17 -121 101 -191t208 -70q88 0 160.5 38.5t113.5 109.5q25 -12 80 -31.5t80 -30.5q-60 -124 -177.5 -188.5t-262.5 -64.5q-178 0 -303 98zM963 553h593q-17 121 -94.5 188.5t-195.5 67.5
q-120 0 -203 -68t-100 -188zM446 145q85 0 184 42.5t146 119.5v70q-68 24 -149.5 36.5t-134.5 12.5q-70 0 -119 -14t-72.5 -38t-33 -47.5t-9.5 -50.5q0 -58 47.5 -94.5t140.5 -36.5z" />
    <glyph glyph-name="aeacute.alt1" horiz-adv-x="1822" 
d="M1253 1450l-243 -315h-179l199 315h223zM963 78v-78h-185v123q-51 -70 -144.5 -106.5t-191.5 -36.5q-166 0 -263 78t-97 218q0 134 99 218t311 84q118 0 286 -52v49q0 107 -69.5 170.5t-196.5 63.5q-72 0 -145.5 -32.5t-122.5 -90.5l-115 111q48 68 121.5 110.5t139 56
t136.5 13.5q260 0 369 -158q68 76 163.5 117t207.5 41q207 0 341 -136t134 -360q0 -50 -2 -73h-776q17 -121 101 -191t208 -70q88 0 160.5 38.5t113.5 109.5q25 -12 80 -31.5t80 -30.5q-60 -124 -177.5 -188.5t-262.5 -64.5q-178 0 -303 98zM963 553h593
q-17 121 -94.5 188.5t-195.5 67.5q-120 0 -203 -68t-100 -188zM446 145q85 0 184 42.5t146 119.5v70q-68 24 -149.5 36.5t-134.5 12.5q-70 0 -119 -14t-72.5 -38t-33 -47.5t-9.5 -50.5q0 -58 47.5 -94.5t140.5 -36.5z" />
    <glyph glyph-name="ycircumflex.alt1" horiz-adv-x="1040" 
d="M670 1135l-154 178l-151 -178h-168l225 315h190l226 -315h-168zM367 -98l53 127l-383 927h199l284 -688l287 688h199l-469 -1126q-76 -171 -158 -239t-229 -68q-61 0 -113 14v164q39 -6 108 -6q37 0 66 9t49 23.5t39.5 43.5t33.5 56t34 75z" />
    <glyph glyph-name="ldot.alt1" horiz-adv-x="694" 
d="M444 535q0 55 39.5 92t94.5 37q56 0 95.5 -37t39.5 -92t-39.5 -91t-95.5 -36q-55 0 -94.5 36t-39.5 91zM567 174v-174h-80q-344 0 -344 410v1067h189v-1065q0 -39 2.5 -67.5t12.5 -62.5t28 -56t50.5 -37t78.5 -15h63z" />
    <glyph glyph-name="t.alt1" horiz-adv-x="718" 
d="M645 174v-174h-72q-344 0 -344 410v389h-172v157h172v256l189 58v-314h200v-157h-200v-387q0 -39 2.5 -67.5t12.5 -62.5t28 -56t50.5 -37t78.5 -15h55z" />
    <glyph glyph-name="tcaron.alt1" horiz-adv-x="718" 
d="M614 1081l-118 39q62 83 83.5 158.5t10.5 198.5h184q0 -269 -160 -396zM645 174v-174h-72q-344 0 -344 410v389h-172v157h172v256l189 58v-314h200v-157h-200v-387q0 -39 2.5 -67.5t12.5 -62.5t28 -56t50.5 -37t78.5 -15h55z" />
    <glyph glyph-name="tbar.alt1" horiz-adv-x="722" 
d="M649 174v-174h-71q-345 0 -345 410v53h-139v125h139v211h-172v157h172v256l189 58v-314h201v-157h-201v-211h153v-125h-153v-51q0 -39 2.5 -67.5t12.5 -62.5t28 -56t50.5 -37t78.5 -15h55z" />
    <glyph glyph-name="tcommaaccent.alt1" horiz-adv-x="718" 
d="M395 -512l-119 39q62 83 84 158t11 198h184q0 -268 -160 -395zM645 174v-174h-72q-344 0 -344 410v389h-172v157h172v256l189 58v-314h200v-157h-200v-387q0 -39 2.5 -67.5t12.5 -62.5t28 -56t50.5 -37t78.5 -15h55z" />
    <glyph glyph-name="T.sc.alt1" horiz-adv-x="987" 
d="M47 1196h893v-162h-360v-1034h-174v1034h-359v162z" />
    <glyph glyph-name="Tcaron.sc.alt1" horiz-adv-x="987" 
d="M494 1464l124 146h156l-201 -275h-163l-199 275h156zM47 1196h893v-162h-360v-1034h-174v1034h-359v162z" />
    <glyph glyph-name="Tbar.sc.alt1" horiz-adv-x="989" 
d="M580 717h229v-117h-229v-600h-172v600h-226v117h226v309h-363v170h899v-170h-364v-309z" />
    <glyph glyph-name="Tcommaaccent.sc.alt1" horiz-adv-x="987" 
d="M47 1196h893v-162h-360v-1034h-174v1034h-359v162zM430 -430l-111 35q47 66 68 117t21 120q0 12 -5 74h166q0 -228 -139 -346z" />
    <glyph glyph-name="aringacute.alt1" horiz-adv-x="1105" 
d="M854 1763l-209 -270q52 -30 81.5 -79t29.5 -109q0 -91 -63.5 -152t-155.5 -61q-91 0 -152 61t-61 152q0 73 40.5 129.5t106.5 76.5l160 252h223zM432 1305q0 -43 31 -74t74 -31q47 0 78.5 31t31.5 74q0 47 -31.5 77.5t-78.5 30.5q-43 0 -74 -30.5t-31 -77.5zM446 145
q85 0 184 42.5t146 119.5v70q-123 43 -284 43q-70 0 -119 -13t-72.5 -36t-33 -45.5t-9.5 -49.5q0 -58 47.5 -94.5t140.5 -36.5zM244 686l-115 111q48 68 121.5 110.5t139 56t136.5 13.5q207 0 322 -103.5t115 -298.5v-122v-453h-185v123q-51 -70 -144.5 -106.5t-191.5 -36.5
q-166 0 -263 78t-97 218q0 134 99 218t311 84q118 0 286 -52v49q0 107 -69.5 170.5t-196.5 63.5q-72 0 -145.5 -32.5t-122.5 -90.5z" />
    </font>
</defs>
</svg>
