<?xml version="1.0" standalone="no"?>
<!DOCTYPE svg PUBLIC "-//W3C//DTD SVG 1.1//EN" "http://www.w3.org/Graphics/SVG/1.1/DTD/svg11.dtd" >
<svg xmlns="http://www.w3.org/2000/svg" xmlns:xlink="http://www.w3.org/1999/xlink" version="1.1">
<metadata>
Created by FontForge 20170731 at Mon Jul  4 09:39:30 2022
 By Aleksey,,,
Copyright (c) Olivier Gourvat - Mostardesign Studio, 2012. All rights reserved.
</metadata>
<defs>
<font id="SofiaPro-UltraLight" horiz-adv-x="1284" >
  <font-face 
    font-family="Sofia Pro"
    font-weight="250"
    font-stretch="normal"
    units-per-em="2048"
    panose-1="2 11 0 0 0 0 0 0 0 0"
    ascent="1536"
    descent="-512"
    x-height="956"
    cap-height="1411"
    bbox="-317 -479 2269 2060"
    underline-thickness="102"
    underline-position="-307"
    unicode-range="U+0020-FB04"
  />
<missing-glyph horiz-adv-x="1300" 
d="M164 0v1362h973v-1362h-973zM379 883h127q0 76 43 123t108 47t114.5 -42t49.5 -108q0 -60 -49 -102q-30 -34 -67 -43q-92 -28 -141.5 -79t-49.5 -147v-77h127v77q0 46 25.5 67.5t76.5 35.5q89 28 146 98t57 170q0 124 -84.5 200.5t-204.5 76.5q-117 0 -197.5 -82
t-80.5 -215zM485 268q0 -38 28 -63t67 -25q38 0 65 25t27 63t-27 63t-65 25q-39 0 -67 -25t-28 -63z" />
    <glyph glyph-name="f_f" unicode="ff" horiz-adv-x="1308" 
d="M934 901h-615v-901h-61v901h-197v55h197v162q0 88 16.5 158.5t53 126.5t100 86.5t150.5 30.5h69v-62h-69q-71 0 -122.5 -26t-80.5 -74t-42.5 -107t-13.5 -133v-162h615v162q0 88 16.5 158.5t52.5 126.5t99.5 86.5t150.5 30.5h70v-62h-70q-71 0 -122.5 -26t-80 -74
t-42 -107t-13.5 -133v-162h271v-55h-271v-901h-61v901z" />
    <glyph glyph-name="fi" unicode="fi" horiz-adv-x="1124" 
d="M889 0v901h-570v-901h-61v901h-197v55h197v162q0 88 16.5 158.5t53 126.5t100 86.5t150.5 30.5h69v-62h-69q-71 0 -122.5 -26t-80.5 -74t-42.5 -107t-13.5 -133v-162h631v-956h-61zM856 1309q0 26 18.5 42.5t45.5 16.5q29 0 47 -16.5t18 -42.5q0 -25 -18 -41.5t-47 -16.5
q-26 0 -45 16.5t-19 41.5z" />
    <glyph glyph-name="fl" unicode="fl" horiz-adv-x="1095" 
d="M856 0v1458h-278q-71 0 -122.5 -26t-80.5 -74t-42.5 -107t-13.5 -133v-162h271v-55h-271v-901h-61v901h-197v55h197v162q0 88 16.5 158.5t53 126.5t100 86.5t150.5 30.5h340v-1520h-62z" />
    <glyph glyph-name="f_f_i" unicode="ffi" horiz-adv-x="1800" 
d="M1565 0v901h-570v-901h-61v901h-615v-901h-61v901h-197v55h197v162q0 88 16.5 158.5t53 126.5t100 86.5t150.5 30.5h69v-62h-69q-71 0 -122.5 -26t-80.5 -74t-42.5 -107t-13.5 -133v-162h615v162q0 88 16.5 158.5t52.5 126.5t99.5 86.5t150.5 30.5h70v-62h-70
q-71 0 -122.5 -26t-80 -74t-42 -107t-13.5 -133v-162h631v-956h-61zM1532 1309q0 26 18 42.5t45 16.5q29 0 47.5 -16.5t18.5 -42.5q0 -25 -18.5 -41.5t-47.5 -16.5q-26 0 -44.5 16.5t-18.5 41.5z" />
    <glyph glyph-name="f_f_l" unicode="ffl" horiz-adv-x="1771" 
d="M1532 0v1458h-279q-71 0 -122.5 -26t-80 -74t-42 -107t-13.5 -133v-162h271v-55h-271v-901h-61v901h-615v-901h-61v901h-197v55h197v162q0 88 16.5 158.5t53 126.5t100 86.5t150.5 30.5h69v-62h-69q-71 0 -122.5 -26t-80.5 -74t-42.5 -107t-13.5 -133v-162h615v162
q0 88 16.5 158.5t52.5 126.5t99.5 86.5t150.5 30.5h340v-1520h-61z" />
    <glyph glyph-name="f_f_j" unicode="ffj" horiz-adv-x="1828" 
d="M1655 956v-1026q0 -88 -16.5 -158t-53 -126t-100 -86.5t-150.5 -30.5h-69v61h69q71 0 122.5 26t80 74t42 107t13.5 133v971h-598v-901h-61v901h-615v-901h-61v901h-197v55h197v162q0 88 16.5 158.5t53 126.5t100 86.5t150.5 30.5h69v-62h-69q-71 0 -122.5 -26t-80.5 -74
t-42.5 -107t-13.5 -133v-162h615v162q0 88 16.5 158.5t52.5 126.5t99.5 86.5t150.5 30.5h70v-62h-70q-71 0 -122.5 -26t-80 -74t-42 -107t-13.5 -133v-162h660zM1561 1309q0 26 18 42.5t45 16.5q29 0 47.5 -16.5t18.5 -42.5q0 -25 -18.5 -41.5t-47.5 -16.5q-26 0 -44.5 16.5
t-18.5 41.5z" />
    <glyph glyph-name="f_j" unicode="fj" horiz-adv-x="1153" 
d="M979 956v-1026q0 -88 -16.5 -158t-53 -126t-100 -86.5t-150.5 -30.5h-69v61h69q71 0 122.5 26t80.5 74t42.5 107t13.5 133v971h-599v-901h-61v901h-197v55h197v162q0 88 16.5 158.5t53 126.5t100 86.5t150.5 30.5h69v-62h-69q-71 0 -122.5 -26t-80.5 -74t-42.5 -107
t-13.5 -133v-162h660zM885 1309q0 26 18 42.5t45 16.5q29 0 47.5 -16.5t18.5 -42.5q0 -25 -18.5 -41.5t-47.5 -16.5q-26 0 -44.5 16.5t-18.5 41.5z" />
    <glyph glyph-name=".notdef" horiz-adv-x="1300" 
d="M164 0v1362h973v-1362h-973zM379 883h127q0 76 43 123t108 47t114.5 -42t49.5 -108q0 -60 -49 -102q-30 -34 -67 -43q-92 -28 -141.5 -79t-49.5 -147v-77h127v77q0 46 25.5 67.5t76.5 35.5q89 28 146 98t57 170q0 124 -84.5 200.5t-204.5 76.5q-117 0 -197.5 -82
t-80.5 -215zM485 268q0 -38 28 -63t67 -25q38 0 65 25t27 63t-27 63t-65 25q-39 0 -67 -25t-28 -63z" />
    <glyph glyph-name=".null" horiz-adv-x="0" 
 />
    <glyph glyph-name="nonmarkingreturn" horiz-adv-x="682" 
 />
    <glyph glyph-name="space" unicode=" " horiz-adv-x="561" 
 />
    <glyph glyph-name="space" unicode="&#xa0;" horiz-adv-x="561" 
 />
    <glyph glyph-name="exclam" unicode="!" horiz-adv-x="479" 
d="M209 1411h61v-1094h-61v1094zM176 49q0 26 18.5 43t45.5 17q29 0 47 -17t18 -43q0 -25 -18 -41t-47 -16q-27 0 -45.5 16.5t-18.5 40.5z" />
    <glyph glyph-name="quotedbl" unicode="&#x22;" horiz-adv-x="585" 
d="M170 1411h61v-506h-61v506zM354 1411h62v-506h-62v506z" />
    <glyph glyph-name="numbersign" unicode="#" horiz-adv-x="1488" 
d="M1108 1030h295l-17 -61h-294l-148 -535h295l-16 -61h-295l-103 -373h-61l102 373h-422l-102 -373h-61l102 373h-295l16 61h295l148 535h-295l16 61h297l105 381h61l-106 -381h424l104 381h61zM608 969l-147 -535h422l147 535h-422z" />
    <glyph glyph-name="dollar" unicode="$" horiz-adv-x="1116" 
d="M596 1632v-207q154 -12 258.5 -104.5t116.5 -237.5h-62q-12 128 -114.5 205.5t-247.5 77.5q-94 0 -178 -38t-136.5 -108.5t-52.5 -156.5q0 -213 271 -275l200 -47q87 -19 156 -52.5t123 -84.5t77 -127t9 -170q-10 -56 -42 -110t-83 -100.5t-127.5 -77.5t-167.5 -37v-234
h-61v232q-87 2 -164 33.5t-131 82t-88 114t-43 130.5h61q18 -122 122.5 -210.5t256.5 -88.5q172 0 277 82.5t130 195.5q12 77 -8.5 140t-67 106t-106.5 71.5t-135 45.5l-201 47q-319 67 -319 334q0 103 60 186.5t154.5 129t201.5 48.5v205h61z" />
    <glyph glyph-name="percent" unicode="%" horiz-adv-x="1335" 
d="M86 1130q0 103 71 175.5t175 72.5q103 0 175.5 -72.5t72.5 -175.5q0 -104 -72.5 -174.5t-175.5 -70.5q-104 0 -175 70.5t-71 174.5zM1018 1360l-660 -1360h-69l663 1360h66zM147 1130q0 -78 53.5 -131t131.5 -53t132 53t54 131t-54 132.5t-132 54.5t-131.5 -54.5
t-53.5 -132.5zM760 227q0 103 71 175.5t175 72.5q103 0 175 -72.5t72 -175.5q0 -104 -72 -174.5t-175 -70.5q-104 0 -175 70.5t-71 174.5zM821 227q0 -78 53.5 -131t131.5 -53t132 53t54 131t-54 132.5t-132 54.5t-131.5 -54.5t-53.5 -132.5z" />
    <glyph glyph-name="ampersand" unicode="&#x26;" horiz-adv-x="1347" 
d="M569 39q164 0 272 102t113 256v389h-383q-164 0 -275.5 -109t-111.5 -263q0 -158 108.5 -266.5t276.5 -108.5zM305 1106q0 -113 76.5 -187.5t193.5 -74.5h379v186h62v-188h196v-56h-196v-372q0 -65 4.5 -113.5t19 -97.5t40 -81t68.5 -54t103 -27v-61q-105 0 -183 62.5
t-97 186.5q-21 -65 -66.5 -115t-103 -79t-117 -43.5t-117.5 -14.5q-194 0 -319 126.5t-125 310.5q0 81 33 161.5t99.5 148t152.5 95.5q-77 46 -120.5 126t-43.5 161q0 134 98 227.5t242 93.5q186 0 284 -131l-49 -36q-79 106 -235 106q-117 0 -198 -76.5t-81 -183.5z" />
    <glyph glyph-name="quotesingle" unicode="'" horiz-adv-x="401" 
d="M170 1411h61v-506h-61v506z" />
    <glyph glyph-name="parenleft" unicode="(" horiz-adv-x="686" 
d="M121 473q0 433 131 682t356 270v-61q-193 -15 -311 -248q-115 -233 -115 -643t115 -643q118 -233 311 -248v-61q-224 17 -355.5 268t-131.5 684z" />
    <glyph glyph-name="parenright" unicode=")" horiz-adv-x="686" 
d="M565 473q0 -433 -131.5 -684t-355.5 -268v61q194 15 309 248q117 231 117 643t-117 643q-115 233 -309 248v61q225 -21 356 -270t131 -682z" />
    <glyph glyph-name="asterisk" unicode="*" horiz-adv-x="933" 
d="M291 786l-55 41l200 246l-305 86l23 66l292 -115l-18 317h74l-21 -317l301 115l19 -64l-305 -82l198 -252l-14 -10l-37 -24l-168 260z" />
    <glyph glyph-name="plus" unicode="+" horiz-adv-x="1060" 
d="M500 561v369h61v-369h371v-61h-371v-373h-61v373h-371v61h371z" />
    <glyph glyph-name="comma" unicode="," horiz-adv-x="454" 
d="M131 -289l-47 19q125 176 117 391h61q1 -129 -33 -225t-98 -185z" />
    <glyph glyph-name="hyphen" unicode="-" horiz-adv-x="972" 
d="M158 492h657v-62h-657v62z" />
    <glyph glyph-name="period" unicode="." horiz-adv-x="444" 
d="M158 37q0 26 18 42.5t45 16.5q29 0 47.5 -16.5t18.5 -42.5q0 -25 -18.5 -41t-47.5 -16q-27 0 -45 16t-18 41z" />
    <glyph glyph-name="slash" unicode="/" horiz-adv-x="911" 
d="M764 1411h67l-684 -1411h-67z" />
    <glyph glyph-name="zero" unicode="0" horiz-adv-x="1245" 
d="M150 678q0 123 12.5 222.5t45.5 191t85.5 153t136 97.5t193.5 36t193 -36t135 -97.5t84 -153t44.5 -190.5t12.5 -223q0 -122 -12.5 -221t-44.5 -190.5t-84 -152.5t-135 -97.5t-193 -36.5t-193.5 36.5t-136 98t-85.5 152.5t-45.5 190t-12.5 221zM211 678q0 -111 11 -201.5
t39.5 -173.5t74.5 -139t118.5 -89.5t168.5 -33.5t168 33.5t117 89.5t73 139.5t38.5 173.5t10.5 201q0 113 -10.5 203t-38.5 174t-73 140t-117 89t-168 33t-168.5 -33t-118.5 -89t-74.5 -139.5t-39.5 -174.5t-11 -203z" />
    <glyph glyph-name="one" unicode="1" horiz-adv-x="610" 
d="M330 0v1262l-244 -91v66l305 113v-1350h-61z" />
    <glyph glyph-name="two" unicode="2" horiz-adv-x="1034" 
d="M903 0h-780v23l575 679q133 150 133 304q0 138 -91 224.5t-232 86.5q-120 0 -209.5 -60t-118.5 -163l-59 16q35 124 140 196t247 72q167 0 276 -104.5t109 -267.5q0 -174 -148 -342l-509 -603h667v-61z" />
    <glyph glyph-name="three" unicode="3" horiz-adv-x="1118" 
d="M868 997q13 124 -70.5 217t-236.5 105q-95 7 -189 -41t-136 -123l-54 31q54 95 157.5 147t225.5 45q186 -12 284.5 -122.5t80.5 -262.5q-6 -82 -59 -153.5t-134 -106.5q77 -19 136.5 -79.5t88 -139.5t23.5 -158q-11 -111 -80 -199.5t-177 -135.5t-230 -39
q-132 10 -234.5 78t-150.5 173l8 5q13 4 18 8l29 12q42 -89 130.5 -147t203.5 -68q167 -8 284.5 81t137.5 238q0 158 -93.5 247t-224.5 89h-137v62h137q90 0 170.5 66.5t91.5 170.5z" />
    <glyph glyph-name="four" unicode="4" horiz-adv-x="1140" 
d="M838 297v-297h-62v297h-715l734 1063h43v-1002h217v-61h-217zM174 358h602v881z" />
    <glyph glyph-name="five" unicode="5" horiz-adv-x="1118" 
d="M336 1298l-103 -561q99 44 175.5 64t169.5 20q77 0 152 -27t137 -76.5t100.5 -129.5t38.5 -176q0 -186 -124.5 -307t-340.5 -121q-122 0 -245 73.5t-185 180.5l53 30q54 -96 161.5 -159.5t215.5 -63.5q188 0 295.5 104t107.5 263q0 108 -56.5 189.5t-138.5 120t-171 38.5
q-102 0 -183.5 -22t-204.5 -79l-24 33l119 668h628v-62h-577z" />
    <glyph glyph-name="six" unicode="6" horiz-adv-x="1128" 
d="M164 416q-7 89 -9.5 159.5t1 175t18 184.5t47 167.5t82.5 144.5t130 94t183 37q249 0 355 -235l-56 -25q-89 199 -301 199q-78 0 -140 -24.5t-103 -62t-70.5 -97t-45.5 -115.5t-25 -132t-11 -132t-2 -129v-54q39 128 149 193.5t240 60.5q116 -5 207.5 -63.5t141 -157.5
t46.5 -221q-8 -177 -130.5 -292t-299.5 -111q-169 4 -279.5 124t-127.5 312zM225 418q0 -160 99.5 -266t248.5 -111q150 -4 254.5 94.5t112.5 251.5q5 157 -89.5 263.5t-246.5 113.5q-100 3 -185.5 -40t-138 -124t-55.5 -182z" />
    <glyph glyph-name="seven" unicode="7" horiz-adv-x="1009" 
d="M145 0l717 1298h-743v62h846l-750 -1360h-70z" />
    <glyph glyph-name="eight" unicode="8" horiz-adv-x="1142" 
d="M242 1067q0 130 93.5 220.5t233.5 90.5q142 0 239 -90.5t97 -220.5q0 -92 -49.5 -166.5t-134.5 -112.5q134 -46 215.5 -151t81.5 -238q0 -177 -129.5 -298t-319.5 -121t-317 120.5t-127 298.5q0 135 79.5 241t211.5 151q-80 37 -127 110.5t-47 165.5zM186 399
q0 -153 109 -255.5t274 -102.5q164 0 275.5 103t111.5 255q0 93 -49 174.5t-136 131.5t-191 53h-27q-102 -3 -187 -53t-132.5 -131.5t-47.5 -174.5zM303 1067q0 -104 72.5 -176.5t181.5 -77.5h23q114 4 189 77t75 177t-80 177t-195 73q-113 0 -189.5 -72.5t-76.5 -177.5z
" />
    <glyph glyph-name="nine" unicode="9" horiz-adv-x="1128" 
d="M965 942q5 -67 7.5 -121.5t2.5 -133.5t-5 -143t-19 -139.5t-36 -133.5t-58 -114.5t-83 -94t-114 -60t-148 -22.5q-254 0 -354 235l55 25q89 -199 301 -199q78 0 140 24.5t103 62t70.5 97t45.5 115.5t25 132t11 132t2 129v45q-26 -82 -88.5 -140t-140 -83.5t-160.5 -22.5
q-116 5 -207.5 63.5t-141 158t-46.5 221.5q8 177 130.5 292t299.5 111q169 -4 280 -124t128 -312zM903 940q0 160 -99.5 266t-248.5 111q-150 4 -254.5 -94.5t-112.5 -251.5q-5 -155 90 -264t246 -113q100 -3 185.5 40t138 124t55.5 182z" />
    <glyph glyph-name="colon" unicode=":" horiz-adv-x="444" 
d="M158 918q0 26 18 42.5t45 16.5q29 0 47.5 -16.5t18.5 -42.5q0 -25 -18.5 -41.5t-47.5 -16.5q-26 0 -44.5 16.5t-18.5 41.5zM158 37q0 26 18 42.5t45 16.5q29 0 47.5 -16.5t18.5 -42.5q0 -25 -18.5 -41t-47.5 -16q-27 0 -45 16t-18 41z" />
    <glyph glyph-name="semicolon" unicode=";" horiz-adv-x="530" 
d="M186 -289l-47 19q125 176 117 391h61q1 -129 -33 -225t-98 -185zM221 918q0 26 18.5 42.5t45.5 16.5q29 0 47 -16.5t18 -42.5q0 -25 -18 -41.5t-47 -16.5q-26 0 -45 16.5t-19 41.5z" />
    <glyph glyph-name="less" unicode="&#x3c;" horiz-adv-x="1306" 
d="M182 516l969 -369v-65l-1042 399v74l1042 399v-65z" />
    <glyph glyph-name="equal" unicode="=" horiz-adv-x="1245" 
d="M166 752h913v-62h-913v62zM166 315h913v-61h-913v61z" />
    <glyph glyph-name="greater" unicode="&#x3e;" horiz-adv-x="1306" 
d="M156 147l968 369l-968 373v65l1042 -399v-74l-1042 -399v65z" />
    <glyph glyph-name="question" unicode="?" horiz-adv-x="968" 
d="M160 1083l-62 7q12 151 120.5 243t258.5 92q163 0 281.5 -105t118.5 -271q0 -136 -79 -232t-200 -135q-56 -17 -88.5 -32t-65.5 -41t-48 -66.5t-15 -98.5v-127h-62v127q0 59 13.5 104.5t34 75t56.5 53t70.5 36.5t86.5 28q101 29 168 112.5t67 195.5q0 138 -100.5 226.5
t-237.5 88.5q-127 0 -216 -76.5t-101 -204.5zM287 49q0 26 18 43t45 17q29 0 47.5 -17t18.5 -43q0 -25 -18.5 -41t-47.5 -16q-27 0 -45 16t-18 41z" />
    <glyph glyph-name="at" unicode="@" horiz-adv-x="2058" 
d="M1087 -410h-69q-250 0 -457.5 122.5t-326.5 332.5t-119 461q0 188 70.5 358t191 293.5t289 196.5t356.5 73q151 0 293.5 -42.5t260 -122t206.5 -187t138.5 -244.5t49.5 -286q0 -76 -11 -152.5t-38.5 -154.5t-68 -137t-105 -96.5t-143.5 -37.5q-53 0 -98 13t-84 41.5
t-61 81.5t-22 126v289q0 141 -99.5 240.5t-240.5 99.5t-240.5 -99.5t-99.5 -240.5t99.5 -240.5t240.5 -99.5q50 0 106 17t93 47v-68q-89 -57 -199 -57q-164 0 -282.5 118.5t-118.5 282.5q0 168 118 285t283 117t283.5 -117t118.5 -285v-289q0 -55 17 -95.5t46.5 -62.5
t64 -32t75.5 -10q66 0 119.5 33.5t87 86t56.5 122t32.5 138t9.5 136.5q0 174 -72 328t-192.5 261.5t-283 169.5t-339.5 62q-175 0 -332 -68t-269.5 -183.5t-178.5 -274.5t-66 -334t65.5 -332.5t177 -272t268 -182t331.5 -67.5h69v-62z" />
    <glyph glyph-name="A" unicode="A" horiz-adv-x="1265" 
d="M276 393l-151 -393h-66l541 1411h66l538 -1411h-65l-150 393h-713zM633 1325l-336 -876h672z" />
    <glyph glyph-name="B" unicode="B" horiz-adv-x="1265" 
d="M1067 1081q0 -109 -46 -198.5t-134 -128.5q76 -26 136.5 -90.5t92 -140t31.5 -146.5q0 -101 -45 -186t-133.5 -138t-202.5 -53h-549v1413h488q166 0 264 -86t98 -246zM737 721h-458v-660h487q143 0 231 93t88 223q0 115 -79.5 219t-204.5 123q-23 2 -64 2zM279 1352v-574
h479q25 0 39 2q102 21 155.5 105.5t53.5 195.5q0 131 -81.5 201t-219.5 70h-426z" />
    <glyph glyph-name="C" unicode="C" horiz-adv-x="1345" 
d="M1229 199l41 -45q-196 -174 -457 -174q-143 0 -272 57t-221.5 153.5t-146.5 230t-54 281.5q0 147 54 281t146.5 231.5t221.5 155t272 57.5q260 0 459 -176l-41 -45q-184 160 -418 160q-130 0 -247.5 -52.5t-202 -141.5t-134 -212t-49.5 -258t49.5 -257t134 -210.5
t202 -141t247.5 -52.5q234 0 416 158z" />
    <glyph glyph-name="D" unicode="D" horiz-adv-x="1482" 
d="M737 0h-520v1411h520q145 0 263 -54.5t195.5 -150t119 -224.5t41.5 -280q0 -202 -71.5 -359.5t-213 -250t-334.5 -92.5zM279 61h458q174 0 301.5 84.5t191.5 228.5t64 328q0 186 -64 331.5t-191.5 231t-301.5 85.5h-458v-1289z" />
    <glyph glyph-name="E" unicode="E" horiz-adv-x="1122" 
d="M217 1411h766v-61h-704v-627h616v-61h-616v-601h729v-61h-791v1411z" />
    <glyph glyph-name="F" unicode="F" horiz-adv-x="1046" 
d="M217 1411h756v-61h-694v-627h550v-61h-550v-662h-62v1411z" />
    <glyph glyph-name="G" unicode="G" horiz-adv-x="1562" 
d="M1413 590h-446v61h512q-5 -223 -88 -376t-226 -225.5t-338 -72.5q-148 0 -279.5 57t-225.5 154t-148.5 231t-54.5 283q0 147 54.5 281t148.5 231.5t226 155t279 57.5q228 0 416 -135l-37 -49q-168 123 -379 123q-179 0 -328 -89t-234 -241.5t-85 -333.5t85 -333.5
t234 -241t328 -88.5q250 0 405 142t181 409z" />
    <glyph glyph-name="H" unicode="H" horiz-adv-x="1458" 
d="M1241 1411v-1411h-61v674h-901v-674h-62v1411h62v-680h901v680h61z" />
    <glyph glyph-name="I" unicode="I" horiz-adv-x="495" 
d="M279 1411v-1411h-62v1411h62z" />
    <glyph glyph-name="J" unicode="J" horiz-adv-x="495" 
d="M-215 -471l8 61q47 -6 82 -6q91 0 158.5 29t106.5 81t58 117.5t19 145.5v1454h62v-1454q0 -93 -22 -169t-68.5 -136.5t-126.5 -94.5t-187 -34q-43 0 -90 6z" />
    <glyph glyph-name="K" unicode="K" horiz-adv-x="1060" 
d="M279 635v-635h-62v1411h62v-727l606 727h80l-627 -749l715 -662h-86z" />
    <glyph glyph-name="L" unicode="L" horiz-adv-x="972" 
d="M217 1411h62v-1350h632v-61h-694v1411z" />
    <glyph glyph-name="M" unicode="M" horiz-adv-x="1957" 
d="M381 1411l600 -1225l598 1225h63l181 -1411h-62l-166 1315l-581 -1182h-68l-584 1186l-167 -1319h-60l180 1411h66z" />
    <glyph glyph-name="N" unicode="N" horiz-adv-x="1402" 
d="M1186 1411v-1411h-74l-833 1319v-1319h-62v1411h74l833 -1325v1325h62z" />
    <glyph glyph-name="O" unicode="O" horiz-adv-x="1656" 
d="M119 702q0 197 93.5 363.5t256.5 264t358 97.5q147 0 279 -57.5t226.5 -155t150 -231.5t55.5 -281q0 -148 -55.5 -281.5t-150 -230t-226.5 -153.5t-279 -57q-146 0 -277.5 57t-226 153.5t-149.5 230t-55 281.5zM180 702q0 -135 50.5 -257t136.5 -210.5t206.5 -141
t253.5 -52.5q134 0 255 52.5t207.5 141t137 210.5t50.5 257q0 181 -85.5 333.5t-235.5 241.5t-329 89q-178 0 -327 -89t-234.5 -241.5t-85.5 -333.5z" />
    <glyph glyph-name="P" unicode="P" horiz-adv-x="1224" 
d="M279 582v-582h-62v1411h545q100 0 175.5 -34.5t119 -94t65 -132t21.5 -155.5t-21.5 -154.5t-66 -130.5t-122 -93.5t-181.5 -34.5h-473zM762 1350h-483v-707h473q70 0 126.5 19.5t94 52.5t62.5 78.5t35.5 95.5t10.5 106q0 70 -18 131.5t-54.5 113t-100 81t-146.5 29.5z
" />
    <glyph glyph-name="Q" unicode="Q" horiz-adv-x="1656" 
d="M119 702q0 197 93.5 363.5t256.5 264t358 97.5q147 0 279 -57.5t226.5 -155t150 -231.5t55.5 -281q0 -208 -101 -376.5t-274 -262.5l172 -268l-53 -33l-174 273q-138 -55 -281 -55q-146 0 -277.5 57t-226 153.5t-149.5 230t-55 281.5zM1073 88l-172 272l53 33l176 -278
q157 83 252 241t95 346q0 181 -85.5 333.5t-235.5 241.5t-329 89q-178 0 -327 -89t-234.5 -241.5t-85.5 -333.5q0 -135 50.5 -257t136.5 -210.5t206.5 -141t253.5 -52.5q128 0 246 47z" />
    <glyph glyph-name="R" unicode="R" horiz-adv-x="1230" 
d="M279 582v-582h-62v1411h516q100 0 175.5 -34.5t119 -94t65 -132t21.5 -155.5t-21.5 -154.5t-66 -130.5t-122 -93.5t-181.5 -34.5h-55l411 -582h-73l-414 582h-313zM733 1350h-454v-707h444q87 0 153 29t103.5 80t55.5 111.5t18 131.5q0 70 -18 131.5t-55 113t-100.5 81
t-146.5 29.5z" />
    <glyph glyph-name="S" unicode="S" horiz-adv-x="1144" 
d="M123 340h61q18 -122 122.5 -210.5t256.5 -88.5q89 0 163.5 24.5t123.5 65t79.5 88.5t41.5 100q12 77 -8.5 140t-67.5 106t-107 71.5t-135 45.5l-200 47q-320 67 -320 334q0 105 61.5 189.5t159 129.5t207.5 45q173 0 292.5 -93.5t131.5 -250.5h-61q-12 128 -114.5 205.5
t-248.5 77.5q-94 0 -177.5 -38t-136 -108.5t-52.5 -156.5q0 -213 270 -275l201 -47q69 -15 126.5 -38.5t108 -60.5t82.5 -84t45 -111t2 -140q-13 -61 -47.5 -117.5t-90.5 -104.5t-141.5 -76.5t-187.5 -28.5q-91 0 -170.5 30.5t-135 81.5t-90.5 115t-44 133z" />
    <glyph glyph-name="T" unicode="T" horiz-adv-x="1128" 
d="M55 1411h1018v-61h-479v-1350h-62v1350h-477v61z" />
    <glyph glyph-name="U" unicode="U" horiz-adv-x="1380" 
d="M1178 1411v-948q0 -143 -66.5 -255t-177.5 -171.5t-244 -59.5t-243.5 59.5t-177 171.5t-66.5 255v948h61v-948q0 -124 58 -221.5t155 -150t213 -52.5t213 52.5t155 150t58 221.5v948h62z" />
    <glyph glyph-name="V" unicode="V" horiz-adv-x="1103" 
d="M508 0l-424 1411h66l403 -1343l401 1343h66l-422 -1411h-90z" />
    <glyph glyph-name="W" unicode="W" horiz-adv-x="1892" 
d="M1759 1411h66l-479 -1411h-76l-324 1104l-323 -1104h-76l-479 1411h63l451 -1327l323 1102h82l322 -1104z" />
    <glyph glyph-name="X" unicode="X" horiz-adv-x="1157" 
d="M1051 1411l-437 -647l514 -764h-75l-475 715l-476 -715h-73l512 764l-435 647h74l398 -598l397 598h76z" />
    <glyph glyph-name="Y" unicode="Y" horiz-adv-x="1214" 
d="M1167 1411l-530 -735v-676h-62v678l-526 733h74l483 -676l488 676h73z" />
    <glyph glyph-name="Z" unicode="Z" horiz-adv-x="1071" 
d="M170 61h819v-61h-907v33l825 1317h-825v61h907v-41z" />
    <glyph glyph-name="bracketleft" unicode="[" horiz-adv-x="559" 
d="M197 -463v1874h272v-61h-211v-1751h211v-62h-272z" />
    <glyph glyph-name="backslash" unicode="\" horiz-adv-x="911" 
d="M80 1411h67l684 -1411h-67z" />
    <glyph glyph-name="bracketright" unicode="]" horiz-adv-x="559" 
d="M362 1411v-1874h-272v62h211v1751h-211v61h272z" />
    <glyph glyph-name="underscore" unicode="_" horiz-adv-x="1345" 
d="M156 -57h1034v-62h-1034v62z" />
    <glyph glyph-name="grave" unicode="`" horiz-adv-x="862" 
d="M444 1102l-180 260h74l162 -260h-56z" />
    <glyph glyph-name="a" unicode="a" 
d="M1044 0v238q-64 -118 -180.5 -188t-257.5 -70q-135 0 -249.5 66t-181 181t-66.5 252q0 135 66.5 249.5t181 181.5t249.5 67q141 0 257.5 -70t180.5 -188v237h62v-956h-62zM170 479q0 -118 59 -219t159.5 -160t217.5 -59q179 0 304.5 121t133.5 299v18q0 117 -59 217.5
t-160 159.5t-219 59q-117 0 -217.5 -59t-159.5 -159.5t-59 -217.5z" />
    <glyph glyph-name="b" unicode="b" 
d="M240 238v-238h-62v1520h62v-801q64 118 180.5 188t257.5 70q135 0 249.5 -67t181.5 -181.5t67 -249.5q0 -208 -146 -353.5t-352 -145.5q-141 0 -257.5 70t-180.5 188zM1114 479q0 117 -59 217.5t-159.5 159.5t-217.5 59q-118 0 -219 -59t-160 -159.5t-59 -217.5v-18
q3 -116 62.5 -212.5t159.5 -152t216 -55.5q117 0 217.5 59t159.5 160t59 219z" />
    <glyph glyph-name="c" unicode="c" horiz-adv-x="1021" 
d="M883 131l37 -49q-136 -102 -314 -102q-135 0 -248 61t-181 177t-68 263t68 261.5t180.5 174.5t248.5 60q168 0 312 -103l-35 -49q-124 90 -277 90q-183 0 -309.5 -120.5t-126.5 -313.5q0 -195 126.5 -317.5t309.5 -122.5q151 0 277 90z" />
    <glyph glyph-name="d" unicode="d" 
d="M1044 0v238q-64 -118 -180.5 -188t-257.5 -70q-135 0 -249.5 66t-181 181t-66.5 252q0 135 66.5 249.5t181 181.5t249.5 67q141 0 257.5 -70t180.5 -188v801h62v-1520h-62zM170 479q0 -118 59 -219t159.5 -160t217.5 -59q179 0 304.5 121t133.5 299v18q0 117 -59 217.5
t-160 159.5t-219 59q-117 0 -217.5 -59t-159.5 -159.5t-59 -217.5z" />
    <glyph glyph-name="e" unicode="e" horiz-adv-x="1150" 
d="M1059 481v-26h-887q7 -185 128 -299.5t292 -114.5q115 0 208 51t150 144l54 -33q-66 -105 -174 -164t-238 -59q-205 0 -343 139t-138 362q0 148 64.5 262t173.5 174t243 60q205 0 336 -136t131 -360zM592 915q-173 0 -290.5 -111t-129.5 -294h825q-7 184 -120 294.5
t-285 110.5z" />
    <glyph glyph-name="f" unicode="f" horiz-adv-x="632" 
d="M258 901h-197v55h197v162q0 88 16.5 158.5t53 126.5t100 86.5t150.5 30.5h69v-62h-69q-71 0 -122.5 -26t-80.5 -74t-42.5 -107t-13.5 -133v-162h271v-55h-271v-901h-61v901z" />
    <glyph glyph-name="g" unicode="g" 
d="M170 479q0 -118 59 -219t159.5 -160t217.5 -59q179 0 304.5 121t133.5 299v18q0 117 -59 217.5t-160 159.5t-219 59q-117 0 -217.5 -59t-159.5 -159.5t-59 -217.5zM201 -274l51 34q126 -176 340 -176q83 0 149.5 15.5t124.5 54.5t96 101t60 158t22 224v101
q-64 -118 -180.5 -188t-257.5 -70q-135 0 -249.5 66t-181 181t-66.5 252q0 135 66.5 249.5t181 181.5t249.5 67q141 0 257.5 -70t180.5 -188v237h62v-819q0 -141 -25 -247.5t-68.5 -175.5t-109 -112.5t-141 -61t-170.5 -17.5q-115 0 -217.5 51t-173.5 152z" />
    <glyph glyph-name="h" unicode="h" horiz-adv-x="1150" 
d="M178 0v1520h62v-775q26 81 84.5 135t126 75.5t143.5 21.5q170 0 280.5 -113t110.5 -301v-563h-61v563q0 161 -93.5 256.5t-236.5 95.5q-70 0 -130 -20t-111 -62t-81 -115t-32 -171v-547h-62z" />
    <glyph glyph-name="i" unicode="i" horiz-adv-x="417" 
d="M145 1309q0 26 18.5 42.5t45.5 16.5q29 0 47 -16.5t18 -42.5q0 -25 -18 -41.5t-47 -16.5q-26 0 -45 16.5t-19 41.5zM178 0v956h62v-956h-62z" />
    <glyph glyph-name="j" unicode="j" horiz-adv-x="417" 
d="M240 956v-1026q0 -88 -16.5 -158t-53 -126t-100 -86.5t-150.5 -30.5h-70v61h70q71 0 122.5 26t80 74t42 107t13.5 133v1026h62zM145 1309q0 26 18.5 42.5t45.5 16.5q29 0 47 -16.5t18 -42.5q0 -25 -18 -41.5t-47 -16.5q-26 0 -45 16.5t-19 41.5z" />
    <glyph glyph-name="k" unicode="k" horiz-adv-x="886" 
d="M874 0h-90l-544 520v-520h-62v1520h62v-971l397 407h88l-412 -419z" />
    <glyph glyph-name="l" unicode="l" horiz-adv-x="417" 
d="M178 0v1520h62v-1520h-62z" />
    <glyph glyph-name="m" unicode="m" horiz-adv-x="1894" 
d="M924 0v563q0 161 -93.5 256.5t-236.5 95.5q-70 0 -130 -20t-111 -62t-81 -115t-32 -171v-547h-62v956h62v-211q26 81 84.5 135t126 75.5t143.5 21.5q137 0 234.5 -72t132.5 -205q17 79 58.5 136t96.5 86t109.5 42t113.5 13q170 0 281 -113t111 -301v-563h-62v563
q0 161 -93.5 256.5t-236.5 95.5q-70 0 -130 -20t-111 -62t-81 -115t-32 -171v-547h-61z" />
    <glyph glyph-name="n" unicode="n" horiz-adv-x="1148" 
d="M178 0v956h62v-211q26 81 84.5 135t126 75.5t143.5 21.5q170 0 280.5 -113t110.5 -301v-563h-61v563q0 161 -93.5 256.5t-236.5 95.5q-70 0 -130 -20t-111 -62t-81 -115t-32 -171v-547h-62z" />
    <glyph glyph-name="o" unicode="o" horiz-adv-x="1216" 
d="M608 -20q-136 0 -249.5 61t-181.5 177t-68 263t68 261.5t181 174.5t250 60t250 -60t181.5 -174.5t68.5 -261.5t-68.5 -263t-182 -177t-249.5 -61zM608 41q185 0 312 121.5t127 318.5q0 129 -60 229.5t-159.5 152.5t-219.5 52t-219.5 -52t-159 -152.5t-59.5 -229.5
q0 -131 59.5 -232.5t159 -154.5t219.5 -53z" />
    <glyph glyph-name="p" unicode="p" 
d="M240 956v-237q64 118 180.5 188t257.5 70q135 0 249.5 -66.5t181.5 -181.5t67 -252q0 -135 -67 -249.5t-181.5 -181t-249.5 -66.5q-141 0 -257.5 70t-180.5 188v-701h-62v1419h62zM1114 477q0 118 -59 219t-159.5 160t-217.5 59q-177 0 -305.5 -122.5t-132.5 -296.5v-19
q0 -117 59 -217.5t160 -159.5t219 -59q117 0 217.5 59t159.5 159.5t59 217.5z" />
    <glyph glyph-name="q" unicode="q" 
d="M1044 719v237h62v-1419h-62v701q-64 -118 -180.5 -188t-257.5 -70q-101 0 -193 39.5t-158.5 106t-106 158.5t-39.5 193q0 137 66.5 252t181 181.5t249.5 66.5q141 0 257.5 -70t180.5 -188zM170 477q0 -117 59 -217.5t159.5 -159.5t217.5 -59q118 0 219 59t160 159.5
t59 217.5v19q-8 176 -133.5 297.5t-304.5 121.5q-117 0 -217.5 -59t-159.5 -160t-59 -219z" />
    <glyph glyph-name="r" unicode="r" horiz-adv-x="745" 
d="M178 0v956h62v-270q31 125 121 208t221 83q72 0 133 -19l-19 -59q-54 16 -114 16q-68 0 -122.5 -24.5t-90 -68.5t-61 -96t-39.5 -116t-20.5 -119t-8.5 -114v-377h-62z" />
    <glyph glyph-name="s" unicode="s" horiz-adv-x="858" 
d="M432 977q120 0 200.5 -63.5t90.5 -170.5h-64q-10 78 -72.5 125t-154.5 47t-157.5 -42t-75.5 -113q-5 -44 4.5 -80t26.5 -58.5t44.5 -40.5t51.5 -27t55 -17l141 -33q234 -58 234 -256q0 -122 -88.5 -195t-237.5 -73q-124 0 -219 63t-119 180h62q72 -182 276 -182
q122 0 193 57t71 150q0 149 -184 196l-143 33q-39 10 -69 21t-65 33.5t-57 52t-34 76.5t-5 106q12 96 95.5 153.5t199.5 57.5z" />
    <glyph glyph-name="t" unicode="t" horiz-adv-x="583" 
d="M530 901h-237v-901h-62v901h-174v55h174v406h62v-406h237v-55z" />
    <glyph glyph-name="u" unicode="u" horiz-adv-x="1148" 
d="M971 956v-956h-62v211q-26 -81 -84.5 -134.5t-126 -75t-143.5 -21.5q-170 0 -280.5 112.5t-110.5 300.5v563h61v-563q0 -161 93.5 -256.5t236.5 -95.5q71 0 131 20t110 62.5t79.5 115.5t33.5 171v546h62z" />
    <glyph glyph-name="v" unicode="v" horiz-adv-x="1019" 
d="M891 956h67l-409 -956h-80l-406 956h68l377 -893z" />
    <glyph glyph-name="w" unicode="w" horiz-adv-x="1689" 
d="M1620 956l-360 -956h-64l-354 915l-342 -915h-66l-368 956h65l336 -870l326 870h100l334 -866l327 866h66z" />
    <glyph glyph-name="x" unicode="x" horiz-adv-x="919" 
d="M805 956l-305 -426l381 -530h-78l-342 475l-344 -475h-78l383 530l-307 426h78l268 -372l266 372h78z" />
    <glyph glyph-name="y" unicode="y" horiz-adv-x="1019" 
d="M549 0l-199 -463h-67l190 453l-410 966h68l377 -893l383 893h67z" />
    <glyph glyph-name="z" unicode="z" horiz-adv-x="956" 
d="M868 0h-780v37l686 858h-686v61h780v-41l-682 -854h682v-61z" />
    <glyph glyph-name="braceleft" unicode="{" horiz-adv-x="729" 
d="M645 -463h-45q-158 0 -266.5 103.5t-108.5 269.5v360q0 63 -38.5 114.5t-98.5 68.5v53q60 17 98.5 68t38.5 114v367q0 110 52 196t137 131t186 45h45v-61h-45q-132 0 -222.5 -86t-90.5 -225v-367q0 -65 -30.5 -120t-82.5 -91q49 -37 81 -93t32 -114v-360
q0 -139 90.5 -225t222.5 -86h45v-62z" />
    <glyph glyph-name="bar" unicode="|" horiz-adv-x="454" 
d="M258 1632v-1896h-61v1896h61z" />
    <glyph glyph-name="braceright" unicode="}" horiz-adv-x="729" 
d="M129 -463h-45v62h45q132 0 222.5 86t90.5 225v360q0 58 32 114t81 93q-52 36 -82.5 91t-30.5 120v367q0 139 -90.5 225t-222.5 86h-45v61h45q101 0 186 -45t137 -131t52 -196v-367q0 -63 38.5 -114t98.5 -68v-53q-60 -17 -98.5 -68.5t-38.5 -114.5v-360
q0 -166 -108.5 -269.5t-266.5 -103.5z" />
    <glyph glyph-name="exclamdown" unicode="&#xa1;" horiz-adv-x="430" 
d="M246 -463h-62v1116h62v-1116zM152 922q0 25 18 41t45 16q29 0 47.5 -16t18.5 -41q0 -26 -18.5 -43t-47.5 -17q-27 0 -45 17t-18 43z" />
    <glyph glyph-name="cent" unicode="&#xa2;" horiz-adv-x="1064" 
d="M621 -20v-224h-62v226q-191 18 -316.5 154.5t-125.5 344.5q0 207 125 340t317 154v205h62v-203q155 -3 305 -103l-35 -49q-124 90 -277 90q-183 0 -309.5 -120.5t-126.5 -313.5q0 -195 126.5 -317.5t309.5 -122.5q151 0 277 90l37 -49q-132 -99 -307 -102z" />
    <glyph glyph-name="sterling" unicode="&#xa3;" horiz-adv-x="1290" 
d="M307 616h-174v58h174v389q0 110 57.5 198t148 133.5t194.5 45.5q152 0 259 -92t119 -244h-61q-12 125 -101.5 199.5t-215.5 74.5q-87 0 -163.5 -38.5t-125.5 -111.5t-49 -165v-389h247v-58h-247v-555h659q37 0 61.5 27t24.5 68v88h62v-88q0 -66 -43 -111t-105 -45h-932
v61h211v555z" />
    <glyph glyph-name="currency" unicode="&#xa4;" horiz-adv-x="1218" 
d="M164 1112l43 43l162 -162q103 86 238.5 84.5t238.5 -88.5l166 166l43 -43l-166 -166q86 -102 87.5 -237.5t-83.5 -239.5l164 -164l-43 -43l-164 164q-106 -91 -243.5 -92.5t-244.5 86.5l-155 -154l-43 43l155 154q-88 107 -87 245t92 244zM385 926q-93 -88 -93 -219.5
t93 -221.5q91 -90 218.5 -90t221.5 90q90 91 90 221t-90 220q-94 90 -221.5 90t-218.5 -90z" />
    <glyph glyph-name="yen" unicode="&#xa5;" horiz-adv-x="1259" 
d="M598 0v246h-338v61h338v189h-338v61h338v121l-526 733h73l484 -676l487 676h74l-531 -735v-119h338v-61h-338v-189h338v-61h-338v-246h-61z" />
    <glyph glyph-name="brokenbar" unicode="&#xa6;" horiz-adv-x="462" 
d="M201 899v733h61v-733h-61zM262 467v-731h-61v731h61z" />
    <glyph glyph-name="section" unicode="&#xa7;" horiz-adv-x="1015" 
d="M662 471v-63q-62 -21 -134 -21q-161 0 -271 104.5t-110 272.5v287q0 168 110 272t271 104q111 0 203 -52.5t139 -145.5l-55 -27q-36 77 -114 120.5t-173 43.5q-134 0 -226.5 -88t-92.5 -227v-287q0 -143 92 -229t227 -86q73 0 134 22zM356 692v64q59 20 133 20
q161 0 271 -104.5t110 -272.5v-286q0 -168 -110 -272.5t-271 -104.5q-111 0 -203 52.5t-139 145.5l56 27q36 -77 113.5 -120.5t172.5 -43.5q134 0 227 88.5t93 227.5v286q0 143 -92.5 229.5t-227.5 86.5q-69 0 -133 -23z" />
    <glyph glyph-name="dieresis" unicode="&#xa8;" horiz-adv-x="933" 
d="M246 1272q0 26 18 42.5t45 16.5q29 0 47.5 -16.5t18.5 -42.5q0 -25 -18.5 -41.5t-47.5 -16.5q-26 0 -44.5 16.5t-18.5 41.5zM559 1272q0 26 18.5 42.5t45.5 16.5q29 0 47 -16.5t18 -42.5q0 -25 -18 -41.5t-47 -16.5q-26 0 -45 16.5t-19 41.5z" />
    <glyph glyph-name="copyright" unicode="&#xa9;" horiz-adv-x="1685" 
d="M127 702q0 147 56 281t151.5 231.5t228 155t279.5 57.5t280 -57.5t228.5 -155t152 -231.5t56.5 -281q0 -148 -56.5 -281.5t-152 -230t-228.5 -153.5t-280 -57t-279.5 57t-228 153.5t-151.5 230t-56 281.5zM188 702q0 -135 51.5 -257t138.5 -210.5t208.5 -141t255.5 -52.5
q179 0 330 88.5t238 240.5t87 332q0 181 -87 333.5t-238 241.5t-330 89t-330 -89t-237.5 -241.5t-86.5 -333.5zM1040 475l41 -47q-99 -86 -229 -86q-145 0 -245.5 105.5t-100.5 254.5q0 151 100 257t246 106q135 0 229 -88l-41 -45q-75 72 -188 72q-119 0 -202 -88.5
t-83 -213.5q0 -124 83 -211.5t202 -87.5q110 0 188 72z" />
    <glyph glyph-name="ordfeminine" unicode="&#xaa;" horiz-adv-x="1001" 
d="M760 735v127q-44 -65 -114 -102t-154 -37q-135 0 -231.5 96t-96.5 232q0 135 96.5 231t231.5 96q85 0 155 -37t113 -104v127h61v-629h-61zM225 1051q0 -110 79 -189.5t188 -79.5t186 75t82 181v13q0 110 -79 188t-189 78q-109 0 -188 -78t-79 -188zM186 555v59h625v-59
h-625z" />
    <glyph glyph-name="guillemotleft" unicode="&#xab;" horiz-adv-x="821" 
d="M186 475l285 -424h-76l-282 424l282 424h74zM418 475l284 -424h-75l-283 424l283 424h73z" />
    <glyph glyph-name="logicalnot" unicode="&#xac;" horiz-adv-x="1339" 
d="M1174 680v-408h-62v346h-919v62h981z" />
    <glyph glyph-name="registered" unicode="&#xae;" horiz-adv-x="1685" 
d="M127 702q0 147 56 281t151.5 231.5t228 155t279.5 57.5t280 -57.5t228.5 -155t152 -231.5t56.5 -281q0 -148 -56.5 -281.5t-152 -230t-228.5 -153.5t-280 -57t-279.5 57t-228 153.5t-151.5 230t-56 281.5zM188 702q0 -135 51.5 -257t138.5 -210.5t208.5 -141t255.5 -52.5
q179 0 330 88.5t238 240.5t87 332q0 181 -87 333.5t-238 241.5t-330 89t-330 -89t-237.5 -241.5t-86.5 -333.5zM680 598v-260h-62v737h271q113 0 167 -69t54 -170q0 -93 -46 -159t-142 -77l170 -262h-70l-170 260h-172zM680 1014v-355h205q84 0 124 50.5t40 126.5
q0 75 -39 126.5t-121 51.5h-209z" />
    <glyph glyph-name="macron" unicode="&#xaf;" horiz-adv-x="958" 
d="M246 1288h467v-55h-467v55z" />
    <glyph glyph-name="degree" unicode="&#xb0;" horiz-adv-x="724" 
d="M133 1198q0 97 67 163t162 66t162.5 -66t67.5 -163q0 -94 -68 -161.5t-162 -67.5t-161.5 67.5t-67.5 161.5zM195 1198q0 -69 49 -118.5t118 -49.5t118.5 49.5t49.5 118.5q0 71 -49 119.5t-119 48.5t-118.5 -48.5t-48.5 -119.5z" />
    <glyph glyph-name="plusminus" unicode="&#xb1;" horiz-adv-x="1134" 
d="M537 561v336h61v-336h371v-61h-371v-340h-61v340h-371v61h371zM969 0h-803v61h803v-61z" />
    <glyph glyph-name="twosuperior" unicode="&#xb2;" horiz-adv-x="645" 
d="M559 1028v-61h-479v22l342 410q74 88 74 166q0 74 -52 121t-131 47q-67 0 -118.5 -37t-63.5 -97l-57 17q17 81 82.5 129.5t156.5 48.5q105 0 174.5 -63.5t69.5 -165.5q0 -103 -90 -207l-279 -330h371z" />
    <glyph glyph-name="threesuperior" unicode="&#xb3;" horiz-adv-x="663" 
d="M483 1571q5 66 -36 111t-123 51q-54 5 -104 -19t-73 -65l-51 30q33 56 96 87.5t136 27.5q112 -7 169.5 -73t49.5 -158q-4 -49 -35.5 -91t-81.5 -65q68 -17 110.5 -85.5t37.5 -141.5q-8 -101 -89.5 -166t-191.5 -58q-81 5 -134 36t-93 104l49 32q51 -100 182 -110
q87 -4 147 44t68 128q0 80 -54 132t-132 52h-80v60h80q58 0 103.5 39t49.5 98z" />
    <glyph glyph-name="acute" unicode="&#xb4;" horiz-adv-x="862" 
d="M500 1362l-181 -260h-55l162 260h74z" />
    <glyph glyph-name="mu" unicode="&#xb5;" horiz-adv-x="1148" 
d="M193 -283v1239h61v-563q0 -161 93.5 -256.5t236.5 -95.5q71 0 131 20t110 62.5t79.5 115.5t33.5 171v546h61v-956h-61v211q-26 -81 -84.5 -134.5t-126 -75t-143.5 -21.5q-107 0 -193.5 45.5t-136.5 130.5v-439h-61z" />
    <glyph glyph-name="paragraph" unicode="&#xb6;" horiz-adv-x="1216" 
d="M606 1411v-1561h-61v707q-195 0 -332 125t-137 303q0 177 125 301.5t303 124.5h102zM545 -336h80q67 0 115 49.5t48 116.5v1581h103q101 0 173.5 -72.5t72.5 -175.5v-129h-62v129q0 78 -53 132.5t-131 54.5h-41v-1520q0 -91 -67 -159t-158 -68h-80v61z" />
    <glyph glyph-name="periodcentered" unicode="&#xb7;" horiz-adv-x="444" 
d="M158 479q0 26 18 43t45 17q29 0 47.5 -17t18.5 -43q0 -25 -18.5 -41t-47.5 -16q-27 0 -45 16t-18 41z" />
    <glyph glyph-name="cedilla" unicode="&#xb8;" horiz-adv-x="1021" 
d="M614 10l64 -153q31 -73 3 -143t-101 -99q-69 -29 -137 -0.5t-99 100.5q-16 43 -16 80h59q0 -29 12 -59v2q37 -78 111 -78q31 0 47 8q78 37 78 113q0 26 -12 53l-74 176h65z" />
    <glyph glyph-name="onesuperior" unicode="&#xb9;" horiz-adv-x="385" 
d="M262 967h-61v727l-142 -49v61l203 74v-813z" />
    <glyph glyph-name="ordmasculine" unicode="&#xba;" horiz-adv-x="991" 
d="M494 723q-138 0 -234 91.5t-96 236.5q0 148 95 237.5t235 89.5q138 0 233.5 -89.5t95.5 -237.5q0 -144 -96 -236t-233 -92zM494 782q112 0 190 74.5t78 194.5t-78 193t-190 73q-114 0 -191.5 -73t-77.5 -193t78 -194.5t191 -74.5zM186 555v59h625v-59h-625z" />
    <glyph glyph-name="guillemotright" unicode="&#xbb;" horiz-adv-x="821" 
d="M350 51l285 424l-283 424h74l283 -424l-283 -424h-76zM119 51l284 424l-282 424h74l282 -424l-282 -424h-76z" />
    <glyph glyph-name="onequarter" unicode="&#xbc;" horiz-adv-x="1507" 
d="M303 543h-61v727l-142 -49v61l203 74v-813zM1231 694l-316 -461h316v461zM1419 176h-127v-176h-61v176h-428l444 641h45v-584h127v-57zM1176 1378l-918 -1398h-74l918 1398h74z" />
    <glyph glyph-name="onehalf" unicode="&#xbd;" horiz-adv-x="1593" 
d="M303 543h-61v727l-142 -49v61l203 74v-813zM1176 1378l-918 -1398h-74l918 1398h74zM1479 61v-61h-480v23l342 409q74 88 74 166q0 74 -51.5 121t-130.5 47q-67 0 -118.5 -36.5t-63.5 -96.5l-58 16q17 81 83 129.5t157 48.5q105 0 174.5 -63.5t69.5 -165.5t-91 -207
l-278 -330h371z" />
    <glyph glyph-name="threequarters" unicode="&#xbe;" horiz-adv-x="1736" 
d="M1460 694l-315 -461h315v461zM1649 176h-127v-176h-62v176h-428l445 641h45v-584h127v-57zM1405 1378l-918 -1398h-73l917 1398h74zM524 1147q5 66 -36 111t-123 51q-54 5 -104 -19t-73 -65l-51 30q33 56 96 87.5t136 27.5q112 -7 169.5 -73t49.5 -158q-4 -49 -35.5 -91
t-81.5 -65q68 -17 110 -85t37 -142q-8 -101 -89 -166t-191 -58q-81 5 -134 36t-93 104l49 33q52 -101 182 -111q87 -4 147 44t68 128q0 80 -54 132t-132 52h-80v60h80q58 0 103.5 39t49.5 98z" />
    <glyph glyph-name="questiondown" unicode="&#xbf;" horiz-adv-x="942" 
d="M797 -131l61 -6q-12 -152 -120.5 -244t-258.5 -92q-163 0 -281 105.5t-118 271.5q0 135 78.5 231t199.5 135q56 17 88.5 32t65.5 41t48 66.5t15 98.5v145h62v-145q0 -74 -18 -125.5t-56.5 -84t-79.5 -51t-106 -36.5q-103 -34 -169.5 -114t-66.5 -193q0 -138 100.5 -227
t237.5 -89q127 0 216.5 76.5t101.5 204.5zM670 922q0 -26 -18.5 -43t-45.5 -17q-29 0 -47 17t-18 43q0 25 18 41t47 16q27 0 45.5 -16.5t18.5 -40.5z" />
    <glyph glyph-name="Agrave" unicode="&#xc0;" horiz-adv-x="1265" 
d="M276 393l-151 -393h-66l541 1411h66l538 -1411h-65l-150 393h-713zM633 1325l-336 -876h672zM598 1556l-180 261h74l161 -261h-55z" />
    <glyph glyph-name="Aacute" unicode="&#xc1;" horiz-adv-x="1265" 
d="M276 393l-151 -393h-66l541 1411h66l538 -1411h-65l-150 393h-713zM633 1325l-336 -876h672zM862 1817l-180 -261h-55l161 261h74z" />
    <glyph glyph-name="Acircumflex" unicode="&#xc2;" horiz-adv-x="1265" 
d="M276 393l-151 -393h-66l541 1411h66l538 -1411h-65l-150 393h-713zM633 1325l-336 -876h672zM582 1817h98l225 -261h-61l-213 224l-213 -224h-62z" />
    <glyph glyph-name="Atilde" unicode="&#xc3;" horiz-adv-x="1265" 
d="M276 393l-151 -393h-66l541 1411h66l538 -1411h-65l-150 393h-713zM633 1325l-336 -876h672zM616 1657q-4 3 -14 11t-14.5 11t-13 8t-14 7t-14 4t-16.5 2q-28 0 -51 -22t-24 -68h-62q4 74 47 109.5t90 35.5q26 0 50 -9t34 -16t35 -26q46 -39 84 -39q28 0 51.5 22t24.5 68
h61q-4 -74 -47 -109.5t-90 -35.5q-26 0 -48.5 7.5t-34.5 15.5t-34 24z" />
    <glyph glyph-name="Adieresis" unicode="&#xc4;" horiz-adv-x="1265" 
d="M276 393l-151 -393h-66l541 1411h66l538 -1411h-65l-150 393h-713zM633 1325l-336 -876h672zM410 1726q0 26 18 43t45 17q29 0 47.5 -17t18.5 -43q0 -25 -18.5 -41t-47.5 -16q-27 0 -45 16t-18 41zM723 1726q0 26 18 43t45 17q29 0 47.5 -17t18.5 -43q0 -25 -18.5 -41
t-47.5 -16q-27 0 -45 16t-18 41z" />
    <glyph glyph-name="Aring" unicode="&#xc5;" horiz-adv-x="1265" 
d="M276 393l-151 -393h-66l541 1411h66l538 -1411h-65l-150 393h-713zM633 1325l-336 -876h672zM463 1763q0 72 48.5 122t117.5 50q72 0 122 -50.5t50 -121.5q0 -72 -50 -120t-122 -48q-69 0 -117.5 48.5t-48.5 119.5zM518 1763q0 -47 32 -79.5t79 -32.5q49 0 82.5 32.5
t33.5 79.5q0 50 -33.5 83.5t-82.5 33.5q-47 0 -79 -33.5t-32 -83.5z" />
    <glyph glyph-name="AE" unicode="&#xc6;" horiz-adv-x="1996" 
d="M1092 1350h-91l-585 -889h676v889zM971 1411h887v-61h-705v-627h616v-61h-616v-601h729v-61h-790v399h-715l-262 -399h-74z" />
    <glyph glyph-name="Ccedilla" unicode="&#xc7;" horiz-adv-x="1347" 
d="M795 -18l51 -125q31 -73 3 -143t-101 -99q-69 -29 -137 -0.5t-99 100.5q-16 43 -16 80h59q0 -29 12 -59v2q37 -78 111 -78q31 0 47 8q78 37 78 113q0 26 -12 53l-64 152q-171 21 -309.5 120.5t-217.5 256t-79 339.5q0 147 54 281t146.5 231.5t221.5 155t272 57.5
q260 0 459 -176l-41 -45q-184 160 -418 160q-130 0 -247.5 -52.5t-202 -141.5t-134 -212t-49.5 -258t49.5 -257t134 -210.5t202 -141t247.5 -52.5q234 0 416 158l41 -45q-196 -174 -457 -174q-4 0 -10.5 1t-9.5 1z" />
    <glyph glyph-name="Egrave" unicode="&#xc8;" horiz-adv-x="1122" 
d="M217 1411h766v-61h-704v-627h616v-61h-616v-601h729v-61h-791v1411zM582 1556l-181 261h74l162 -261h-55z" />
    <glyph glyph-name="Eacute" unicode="&#xc9;" horiz-adv-x="1122" 
d="M217 1411h766v-61h-704v-627h616v-61h-616v-601h729v-61h-791v1411zM733 1817l-180 -261h-55l161 261h74z" />
    <glyph glyph-name="Ecircumflex" unicode="&#xca;" horiz-adv-x="1122" 
d="M217 1411h766v-61h-704v-627h616v-61h-616v-601h729v-61h-791v1411zM522 1817h99l225 -261h-62l-213 224l-213 -224h-61z" />
    <glyph glyph-name="Edieresis" unicode="&#xcb;" horiz-adv-x="1122" 
d="M217 1411h766v-61h-704v-627h616v-61h-616v-601h729v-61h-791v1411zM350 1726q0 26 18.5 43t45.5 17q29 0 47 -17t18 -43q0 -25 -18 -41t-47 -16q-27 0 -45.5 16.5t-18.5 40.5zM664 1726q0 26 18 43t45 17q29 0 47.5 -17t18.5 -43q0 -25 -18.5 -41t-47.5 -16
q-27 0 -45 16t-18 41z" />
    <glyph glyph-name="Igrave" unicode="&#xcc;" horiz-adv-x="495" 
d="M279 1411v-1411h-62v1411h62zM219 1556l-180 261h74l161 -261h-55z" />
    <glyph glyph-name="Iacute" unicode="&#xcd;" horiz-adv-x="495" 
d="M279 1411v-1411h-62v1411h62zM451 1817l-181 -261h-55l162 261h74z" />
    <glyph glyph-name="Icircumflex" unicode="&#xce;" horiz-adv-x="495" 
d="M279 1411v-1411h-62v1411h62zM199 1817h98l225 -261h-61l-213 224l-213 -224h-62z" />
    <glyph glyph-name="Idieresis" unicode="&#xcf;" horiz-adv-x="495" 
d="M279 1411v-1411h-62v1411h62zM27 1726q0 26 18 43t45 17q29 0 47.5 -17t18.5 -43q0 -25 -18.5 -41t-47.5 -16q-27 0 -45 16t-18 41zM340 1726q0 26 18 43t45 17q29 0 47.5 -17t18.5 -43q0 -25 -18.5 -41t-47.5 -16q-27 0 -45 16t-18 41z" />
    <glyph glyph-name="Eth" unicode="&#xd0;" horiz-adv-x="1486" 
d="M741 0h-520v666h-201v57h201v688h520q145 0 263 -54.5t195.5 -150t119 -224.5t41.5 -280q0 -202 -71.5 -359.5t-213 -250t-334.5 -92.5zM283 723h395v-57h-395v-605h458q174 0 301.5 84.5t191.5 228.5t64 328q0 186 -64 331.5t-191.5 231t-301.5 85.5h-458v-627z" />
    <glyph glyph-name="Ntilde" unicode="&#xd1;" horiz-adv-x="1402" 
d="M1186 1411v-1411h-74l-833 1319v-1319h-62v1411h74l833 -1325v1325h62zM686 1657q-4 3 -14 11t-14.5 11t-13 8t-14 7t-14 4t-16.5 2q-28 0 -51.5 -22t-24.5 -68h-61q4 74 47 109.5t90 35.5q26 0 50 -9t34 -16t35 -26q46 -39 84 -39q28 0 51.5 22t24.5 68h61
q-4 -74 -47 -109.5t-90 -35.5q-26 0 -48.5 7.5t-34.5 15.5t-34 24z" />
    <glyph glyph-name="Ograve" unicode="&#xd2;" horiz-adv-x="1656" 
d="M119 702q0 197 93.5 363.5t256.5 264t358 97.5q147 0 279 -57.5t226.5 -155t150 -231.5t55.5 -281q0 -148 -55.5 -281.5t-150 -230t-226.5 -153.5t-279 -57q-146 0 -277.5 57t-226 153.5t-149.5 230t-55 281.5zM180 702q0 -135 50.5 -257t136.5 -210.5t206.5 -141
t253.5 -52.5q134 0 255 52.5t207.5 141t137 210.5t50.5 257q0 181 -85.5 333.5t-235.5 241.5t-329 89q-178 0 -327 -89t-234.5 -241.5t-85.5 -333.5zM797 1559l-181 260h74l162 -260h-55z" />
    <glyph glyph-name="Oacute" unicode="&#xd3;" horiz-adv-x="1656" 
d="M119 702q0 197 93.5 363.5t256.5 264t358 97.5q147 0 279 -57.5t226.5 -155t150 -231.5t55.5 -281q0 -148 -55.5 -281.5t-150 -230t-226.5 -153.5t-279 -57q-146 0 -277.5 57t-226 153.5t-149.5 230t-55 281.5zM180 702q0 -135 50.5 -257t136.5 -210.5t206.5 -141
t253.5 -52.5q134 0 255 52.5t207.5 141t137 210.5t50.5 257q0 181 -85.5 333.5t-235.5 241.5t-329 89q-178 0 -327 -89t-234.5 -241.5t-85.5 -333.5zM1018 1819l-180 -260h-56l162 260h74z" />
    <glyph glyph-name="Ocircumflex" unicode="&#xd4;" horiz-adv-x="1656" 
d="M119 702q0 197 93.5 363.5t256.5 264t358 97.5q147 0 279 -57.5t226.5 -155t150 -231.5t55.5 -281q0 -148 -55.5 -281.5t-150 -230t-226.5 -153.5t-279 -57q-146 0 -277.5 57t-226 153.5t-149.5 230t-55 281.5zM180 702q0 -135 50.5 -257t136.5 -210.5t206.5 -141
t253.5 -52.5q134 0 255 52.5t207.5 141t137 210.5t50.5 257q0 181 -85.5 333.5t-235.5 241.5t-329 89q-178 0 -327 -89t-234.5 -241.5t-85.5 -333.5zM786 1819h99l225 -260h-61l-213 223l-213 -223h-62z" />
    <glyph glyph-name="Otilde" unicode="&#xd5;" horiz-adv-x="1656" 
d="M119 702q0 197 93.5 363.5t256.5 264t358 97.5q147 0 279 -57.5t226.5 -155t150 -231.5t55.5 -281q0 -148 -55.5 -281.5t-150 -230t-226.5 -153.5t-279 -57q-146 0 -277.5 57t-226 153.5t-149.5 230t-55 281.5zM180 702q0 -135 50.5 -257t136.5 -210.5t206.5 -141
t253.5 -52.5q134 0 255 52.5t207.5 141t137 210.5t50.5 257q0 181 -85.5 333.5t-235.5 241.5t-329 89q-178 0 -327 -89t-234.5 -241.5t-85.5 -333.5zM821 1659q-4 3 -14 11t-14.5 11t-13 8t-14 7t-14 4t-16.5 2q-28 0 -51.5 -22t-24.5 -68h-61q4 74 47 109.5t90 35.5
q26 0 50 -9t34 -16t35 -26q46 -39 84 -39q28 0 51.5 22t24.5 68h61q-4 -74 -47 -109.5t-90 -35.5q-26 0 -48.5 7.5t-34.5 15.5t-34 24z" />
    <glyph glyph-name="Odieresis" unicode="&#xd6;" horiz-adv-x="1656" 
d="M119 702q0 197 93.5 363.5t256.5 264t358 97.5q147 0 279 -57.5t226.5 -155t150 -231.5t55.5 -281q0 -148 -55.5 -281.5t-150 -230t-226.5 -153.5t-279 -57q-146 0 -277.5 57t-226 153.5t-149.5 230t-55 281.5zM180 702q0 -135 50.5 -257t136.5 -210.5t206.5 -141
t253.5 -52.5q134 0 255 52.5t207.5 141t137 210.5t50.5 257q0 181 -85.5 333.5t-235.5 241.5t-329 89q-178 0 -327 -89t-234.5 -241.5t-85.5 -333.5zM614 1729q0 26 18.5 42.5t45.5 16.5q29 0 47 -16.5t18 -42.5q0 -25 -18 -41.5t-47 -16.5q-26 0 -45 16.5t-19 41.5z
M928 1729q0 26 18 42.5t45 16.5q29 0 47.5 -16.5t18.5 -42.5q0 -25 -18.5 -41.5t-47.5 -16.5q-26 0 -44.5 16.5t-18.5 41.5z" />
    <glyph glyph-name="multiply" unicode="&#xd7;" horiz-adv-x="937" 
d="M426 555l-260 260l43 43l260 -260l262 262l43 -43l-260 -262l262 -264l-43 -43l-264 262l-262 -260l-43 43z" />
    <glyph glyph-name="Oslash" unicode="&#xd8;" horiz-adv-x="1654" 
d="M344 170l-188 -190l-43 43l188 190q-184 210 -184 489q0 197 93.5 363.5t256.5 264t358 97.5q281 0 486 -192l190 192l43 -41l-192 -194q184 -210 184 -490q0 -148 -55.5 -281.5t-150 -230t-226.5 -153.5t-279 -57q-140 0 -263 49t-218 141zM178 702q0 -253 166 -446
l922 934q-186 176 -441 176q-178 0 -327 -89t-234.5 -241.5t-85.5 -333.5zM825 41q134 0 255 52.5t207.5 141t137 210.5t50.5 257q0 258 -166 445l-922 -934q187 -172 438 -172z" />
    <glyph glyph-name="Ugrave" unicode="&#xd9;" horiz-adv-x="1380" 
d="M1178 1411v-948q0 -143 -66.5 -255t-177.5 -171.5t-244 -59.5t-243.5 59.5t-177 171.5t-66.5 255v948h61v-948q0 -124 58 -221.5t155 -150t213 -52.5t213 52.5t155 150t58 221.5v948h62zM674 1556l-180 261h73l162 -261h-55z" />
    <glyph glyph-name="Uacute" unicode="&#xda;" horiz-adv-x="1380" 
d="M1178 1411v-948q0 -143 -66.5 -255t-177.5 -171.5t-244 -59.5t-243.5 59.5t-177 171.5t-66.5 255v948h61v-948q0 -124 58 -221.5t155 -150t213 -52.5t213 52.5t155 150t58 221.5v948h62zM866 1817l-180 -261h-55l162 261h73z" />
    <glyph glyph-name="Ucircumflex" unicode="&#xdb;" horiz-adv-x="1380" 
d="M1178 1411v-948q0 -143 -66.5 -255t-177.5 -171.5t-244 -59.5t-243.5 59.5t-177 171.5t-66.5 255v948h61v-948q0 -124 58 -221.5t155 -150t213 -52.5t213 52.5t155 150t58 221.5v948h62zM641 1817h98l226 -261h-62l-213 224l-213 -224h-61z" />
    <glyph glyph-name="Udieresis" unicode="&#xdc;" horiz-adv-x="1380" 
d="M1178 1411v-948q0 -143 -66.5 -255t-177.5 -171.5t-244 -59.5t-243.5 59.5t-177 171.5t-66.5 255v948h61v-948q0 -124 58 -221.5t155 -150t213 -52.5t213 52.5t155 150t58 221.5v948h62zM469 1726q0 26 18 43t45 17q29 0 47.5 -17t18.5 -43q0 -25 -18.5 -41t-47.5 -16
q-27 0 -45 16t-18 41zM782 1726q0 26 18.5 43t45.5 17q29 0 47 -17t18 -43q0 -25 -18 -41t-47 -16q-27 0 -45.5 16.5t-18.5 40.5z" />
    <glyph glyph-name="Yacute" unicode="&#xdd;" horiz-adv-x="1214" 
d="M1167 1411l-530 -735v-676h-62v678l-526 733h74l483 -676l488 676h73zM768 1817l-180 -261h-56l162 261h74z" />
    <glyph glyph-name="Thorn" unicode="&#xde;" horiz-adv-x="1159" 
d="M279 311v-311h-62v1411h62v-276h391q171 0 287 -113t116 -295q0 -185 -116 -300.5t-287 -115.5h-391zM279 373h391q145 0 243.5 98.5t98.5 255.5q0 155 -98 250.5t-244 95.5h-391v-700z" />
    <glyph glyph-name="germandbls" unicode="&#xdf;" horiz-adv-x="1656" 
d="M119 731h1358q-6 136 -59 254t-135.5 198t-190.5 128t-221 54.5t-231 -33.5t-216 -126l-39 45q108 96 239 139.5t257 36t246 -63t210.5 -146.5t145.5 -225.5t55 -289.5q0 -147 -55.5 -280t-149.5 -230t-226 -154.5t-278 -57.5q-151 0 -286 60t-230 161t-147.5 240
t-46.5 290zM1477 676h-1297q5 -174 93 -320t235.5 -230.5t320.5 -84.5q175 0 321 84.5t232.5 230t94.5 320.5z" />
    <glyph glyph-name="germandbls" unicode="&#x42f;" horiz-adv-x="1656" 
d="M119 731h1358q-6 136 -59 254t-135.5 198t-190.5 128t-221 54.5t-231 -33.5t-216 -126l-39 45q108 96 239 139.5t257 36t246 -63t210.5 -146.5t145.5 -225.5t55 -289.5q0 -147 -55.5 -280t-149.5 -230t-226 -154.5t-278 -57.5q-151 0 -286 60t-230 161t-147.5 240
t-46.5 290zM1477 676h-1297q5 -174 93 -320t235.5 -230.5t320.5 -84.5q175 0 321 84.5t232.5 230t94.5 320.5z" />
    <glyph glyph-name="germandbls" unicode="&#x18f;" horiz-adv-x="1656" 
d="M119 731h1358q-6 136 -59 254t-135.5 198t-190.5 128t-221 54.5t-231 -33.5t-216 -126l-39 45q108 96 239 139.5t257 36t246 -63t210.5 -146.5t145.5 -225.5t55 -289.5q0 -147 -55.5 -280t-149.5 -230t-226 -154.5t-278 -57.5q-151 0 -286 60t-230 161t-147.5 240
t-46.5 290zM1477 676h-1297q5 -174 93 -320t235.5 -230.5t320.5 -84.5q175 0 321 84.5t232.5 230t94.5 320.5z" />
    <glyph glyph-name="agrave" unicode="&#xe0;" 
d="M1044 0v238q-64 -118 -180.5 -188t-257.5 -70q-135 0 -249.5 66t-181 181t-66.5 252q0 135 66.5 249.5t181 181.5t249.5 67q141 0 257.5 -70t180.5 -188v237h62v-956h-62zM170 479q0 -118 59 -219t159.5 -160t217.5 -59q179 0 304.5 121t133.5 299v18q0 117 -59 217.5
t-160 159.5t-219 59q-117 0 -217.5 -59t-159.5 -159.5t-59 -217.5zM594 1102l-180 260h73l162 -260h-55z" />
    <glyph glyph-name="aacute" unicode="&#xe1;" 
d="M1044 0v238q-64 -118 -180.5 -188t-257.5 -70q-135 0 -249.5 66t-181 181t-66.5 252q0 135 66.5 249.5t181 181.5t249.5 67q141 0 257.5 -70t180.5 -188v237h62v-956h-62zM170 479q0 -118 59 -219t159.5 -160t217.5 -59q179 0 304.5 121t133.5 299v18q0 117 -59 217.5
t-160 159.5t-219 59q-117 0 -217.5 -59t-159.5 -159.5t-59 -217.5zM809 1362l-180 -260h-56l162 260h74z" />
    <glyph glyph-name="acircumflex" unicode="&#xe2;" 
d="M1044 0v238q-64 -118 -180.5 -188t-257.5 -70q-135 0 -249.5 66t-181 181t-66.5 252q0 135 66.5 249.5t181 181.5t249.5 67q141 0 257.5 -70t180.5 -188v237h62v-956h-62zM170 479q0 -118 59 -219t159.5 -160t217.5 -59q179 0 304.5 121t133.5 299v18q0 117 -59 217.5
t-160 159.5t-219 59q-117 0 -217.5 -59t-159.5 -159.5t-59 -217.5zM588 1362h98l225 -260h-61l-213 223l-213 -223h-62z" />
    <glyph glyph-name="atilde" unicode="&#xe3;" 
d="M1044 0v238q-64 -118 -180.5 -188t-257.5 -70q-135 0 -249.5 66t-181 181t-66.5 252q0 135 66.5 249.5t181 181.5t249.5 67q141 0 257.5 -70t180.5 -188v237h62v-956h-62zM170 479q0 -118 59 -219t159.5 -160t217.5 -59q179 0 304.5 121t133.5 299v18q0 117 -59 217.5
t-160 159.5t-219 59q-117 0 -217.5 -59t-159.5 -159.5t-59 -217.5zM623 1202q-4 3 -14 11t-14.5 11t-13 8t-14 7t-14 4t-16.5 2q-28 0 -51.5 -22t-24.5 -68h-62q3 51 27.5 85.5t53 47t57.5 12.5q8 0 16 -1t14 -2t13.5 -3.5l12 -4t12 -6t10 -5.5t11 -7t9.5 -7t11 -8l9 -7
q46 -39 84 -39q28 0 51.5 22t24.5 68h62q-3 -51 -27.5 -85.5t-53 -47t-57.5 -12.5q-26 0 -48.5 7.5t-34 15t-33.5 24.5z" />
    <glyph glyph-name="adieresis" unicode="&#xe4;" 
d="M1044 0v238q-64 -118 -180.5 -188t-257.5 -70q-135 0 -249.5 66t-181 181t-66.5 252q0 135 66.5 249.5t181 181.5t249.5 67q141 0 257.5 -70t180.5 -188v237h62v-956h-62zM170 479q0 -118 59 -219t159.5 -160t217.5 -59q179 0 304.5 121t133.5 299v18q0 117 -59 217.5
t-160 159.5t-219 59q-117 0 -217.5 -59t-159.5 -159.5t-59 -217.5zM416 1272q0 26 18 42.5t45 16.5q29 0 47.5 -16.5t18.5 -42.5q0 -25 -18.5 -41.5t-47.5 -16.5q-26 0 -44.5 16.5t-18.5 41.5zM729 1272q0 26 18.5 42.5t45.5 16.5q29 0 47 -16.5t18 -42.5q0 -25 -18 -41.5
t-47 -16.5q-26 0 -45 16.5t-19 41.5z" />
    <glyph glyph-name="aring" unicode="&#xe5;" 
d="M1044 0v238q-64 -118 -180.5 -188t-257.5 -70q-135 0 -249.5 66t-181 181t-66.5 252q0 135 66.5 249.5t181 181.5t249.5 67q141 0 257.5 -70t180.5 -188v237h62v-956h-62zM170 479q0 -118 59 -219t159.5 -160t217.5 -59q179 0 304.5 121t133.5 299v18q0 117 -59 217.5
t-160 159.5t-219 59q-117 0 -217.5 -59t-159.5 -159.5t-59 -217.5zM469 1309q0 72 48.5 122t117.5 50q72 0 122 -50.5t50 -121.5q0 -72 -50 -120t-122 -48q-69 0 -117.5 48.5t-48.5 119.5zM524 1309q0 -47 32 -80t79 -33q49 0 83 33t34 80q0 49 -33.5 82.5t-83.5 33.5
q-47 0 -79 -33.5t-32 -82.5z" />
    <glyph glyph-name="ae" unicode="&#xe6;" horiz-adv-x="2086" 
d="M170 479q0 -118 59 -219t159.5 -160t217.5 -59q179 0 304.5 121t133.5 299v18q0 117 -59 217.5t-160 159.5t-219 59q-117 0 -217.5 -59t-159.5 -159.5t-59 -217.5zM1106 956v-225q60 117 171 181.5t251 64.5q205 0 336 -136t131 -360v-26h-887q7 -185 128 -299.5
t292 -114.5q115 0 208 51t150 144l53 -33q-67 -105 -174.5 -164t-236.5 -59q-140 0 -251 65t-171 182v-227h-62v238q-64 -118 -180.5 -188t-257.5 -70q-135 0 -249.5 66t-181 181t-66.5 252q0 135 66.5 249.5t181 181.5t249.5 67q141 0 257.5 -70t180.5 -188v237h62z
M1528 915q-173 0 -290.5 -111t-129.5 -294h825q-7 184 -120 294.5t-285 110.5z" />
    <glyph glyph-name="ccedilla" unicode="&#xe7;" horiz-adv-x="1024" 
d="M604 -20l51 -123q31 -73 3 -143t-101 -99q-69 -29 -136.5 -0.5t-98.5 100.5q-17 46 -17 80h60q0 -29 12 -59v2q37 -78 110 -78q32 0 48 8q77 36 77 113q0 26 -12 53l-63 152q-186 26 -306 159t-120 336q0 147 68 261.5t180.5 174.5t248.5 60q168 0 312 -103l-35 -49
q-124 90 -277 90q-183 0 -309.5 -120.5t-126.5 -313.5q0 -195 126.5 -317.5t309.5 -122.5q151 0 277 90l37 -49q-136 -102 -314 -102h-4z" />
    <glyph glyph-name="egrave" unicode="&#xe8;" horiz-adv-x="1150" 
d="M1059 481v-26h-887q7 -185 128 -299.5t292 -114.5q115 0 208 51t150 144l54 -33q-66 -105 -174 -164t-238 -59q-205 0 -343 139t-138 362q0 148 64.5 262t173.5 174t243 60q205 0 336 -136t131 -360zM592 915q-173 0 -290.5 -111t-129.5 -294h825q-7 184 -120 294.5
t-285 110.5zM565 1102l-180 260h74l162 -260h-56z" />
    <glyph glyph-name="eacute" unicode="&#xe9;" horiz-adv-x="1150" 
d="M1059 481v-26h-887q7 -185 128 -299.5t292 -114.5q115 0 208 51t150 144l54 -33q-66 -105 -174 -164t-238 -59q-205 0 -343 139t-138 362q0 148 64.5 262t173.5 174t243 60q205 0 336 -136t131 -360zM592 915q-173 0 -290.5 -111t-129.5 -294h825q-7 184 -120 294.5
t-285 110.5zM776 1362l-180 -260h-55l161 260h74z" />
    <glyph glyph-name="ecircumflex" unicode="&#xea;" horiz-adv-x="1150" 
d="M1059 481v-26h-887q7 -185 128 -299.5t292 -114.5q115 0 208 51t150 144l54 -33q-66 -105 -174 -164t-238 -59q-205 0 -343 139t-138 362q0 148 64.5 262t173.5 174t243 60q205 0 336 -136t131 -360zM592 915q-173 0 -290.5 -111t-129.5 -294h825q-7 184 -120 294.5
t-285 110.5zM535 1362h98l225 -260h-61l-213 223l-213 -223h-62z" />
    <glyph glyph-name="edieresis" unicode="&#xeb;" horiz-adv-x="1150" 
d="M1059 481v-26h-887q7 -185 128 -299.5t292 -114.5q115 0 208 51t150 144l54 -33q-66 -105 -174 -164t-238 -59q-205 0 -343 139t-138 362q0 148 64.5 262t173.5 174t243 60q205 0 336 -136t131 -360zM592 915q-173 0 -290.5 -111t-129.5 -294h825q-7 184 -120 294.5
t-285 110.5zM362 1272q0 26 18.5 42.5t45.5 16.5q29 0 47.5 -16.5t18.5 -42.5q0 -25 -18.5 -41.5t-47.5 -16.5q-26 0 -45 16.5t-19 41.5zM676 1272q0 26 18 42.5t45 16.5q29 0 47.5 -16.5t18.5 -42.5q0 -25 -18.5 -41.5t-47.5 -16.5q-26 0 -44.5 16.5t-18.5 41.5z" />
    <glyph glyph-name="igrave" unicode="&#xec;" horiz-adv-x="419" 
d="M242 956v-956h-64v956h64zM186 1102l-180 260h74l162 -260h-56z" />
    <glyph glyph-name="iacute" unicode="&#xed;" horiz-adv-x="419" 
d="M242 956v-956h-64v956h64zM414 1362l-181 -260h-55l162 260h74z" />
    <glyph glyph-name="icircumflex" unicode="&#xee;" horiz-adv-x="419" 
d="M242 956v-956h-64v956h64zM152 1362h98l225 -260h-61l-213 223l-213 -223h-62z" />
    <glyph glyph-name="idieresis" unicode="&#xef;" horiz-adv-x="419" 
d="M242 956v-956h-64v956h64zM-20 1272q0 26 18 42.5t45 16.5q29 0 47.5 -16.5t18.5 -42.5q0 -25 -18.5 -41.5t-47.5 -16.5q-26 0 -44.5 16.5t-18.5 41.5zM293 1272q0 26 18 42.5t45 16.5q29 0 47.5 -16.5t18.5 -42.5q0 -25 -18.5 -41.5t-47.5 -16.5q-26 0 -44.5 16.5
t-18.5 41.5z" />
    <glyph glyph-name="eth" unicode="&#xf0;" horiz-adv-x="1222" 
d="M815 934l-285 350l-190 -123l-31 45l187 125l-148 189h76l125 -158l156 94l30 -41l-153 -96l436 -537q94 -121 94 -301q0 -148 -69 -264.5t-183 -178t-250 -61.5t-250 61.5t-182.5 178t-68.5 264.5q0 110 40 204.5t106.5 157.5t154 98.5t182.5 35.5q133 0 223 -43z
M610 41q119 0 219 54t160 156t60 230q0 131 -60.5 231t-159.5 151.5t-219 51.5t-219 -51.5t-159 -151.5t-60 -231q0 -129 60 -230.5t159.5 -155.5t218.5 -54z" />
    <glyph glyph-name="ntilde" unicode="&#xf1;" horiz-adv-x="1148" 
d="M178 0v956h62v-211q26 81 84.5 135t126 75.5t143.5 21.5q170 0 280.5 -113t110.5 -301v-563h-61v563q0 161 -93.5 256.5t-236.5 95.5q-70 0 -130 -20t-111 -62t-81 -115t-32 -171v-547h-62zM565 1202q-4 3 -14 11t-14.5 11t-13 8t-14 7t-14 4t-16.5 2q-28 0 -51.5 -22
t-24.5 -68h-61q4 74 47 109.5t90 35.5q26 0 50 -9t34 -16t35 -26q46 -39 84 -39q28 0 51.5 22t24.5 68h61q-4 -74 -47 -109.5t-90 -35.5q-26 0 -48.5 7.5t-34.5 15.5t-34 24z" />
    <glyph glyph-name="ograve" unicode="&#xf2;" horiz-adv-x="1216" 
d="M608 -20q-136 0 -249.5 61t-181.5 177t-68 263t68 261.5t181 174.5t250 60t250 -60t181.5 -174.5t68.5 -261.5t-68.5 -263t-182 -177t-249.5 -61zM608 41q185 0 312 121.5t127 318.5q0 129 -60 229.5t-159.5 152.5t-219.5 52t-219.5 -52t-159 -152.5t-59.5 -229.5
q0 -131 59.5 -232.5t159 -154.5t219.5 -53zM594 1102l-180 260h73l162 -260h-55z" />
    <glyph glyph-name="oacute" unicode="&#xf3;" horiz-adv-x="1216" 
d="M608 -20q-136 0 -249.5 61t-181.5 177t-68 263t68 261.5t181 174.5t250 60t250 -60t181.5 -174.5t68.5 -261.5t-68.5 -263t-182 -177t-249.5 -61zM608 41q185 0 312 121.5t127 318.5q0 129 -60 229.5t-159.5 152.5t-219.5 52t-219.5 -52t-159 -152.5t-59.5 -229.5
q0 -131 59.5 -232.5t159 -154.5t219.5 -53zM797 1362l-181 -260h-55l162 260h74z" />
    <glyph glyph-name="ocircumflex" unicode="&#xf4;" horiz-adv-x="1216" 
d="M608 -20q-136 0 -249.5 61t-181.5 177t-68 263t68 261.5t181 174.5t250 60t250 -60t181.5 -174.5t68.5 -261.5t-68.5 -263t-182 -177t-249.5 -61zM608 41q185 0 312 121.5t127 318.5q0 129 -60 229.5t-159.5 152.5t-219.5 52t-219.5 -52t-159 -152.5t-59.5 -229.5
q0 -131 59.5 -232.5t159 -154.5t219.5 -53zM559 1362h98l226 -260h-62l-213 223l-213 -223h-61z" />
    <glyph glyph-name="otilde" unicode="&#xf5;" horiz-adv-x="1216" 
d="M608 -20q-136 0 -249.5 61t-181.5 177t-68 263t68 261.5t181 174.5t250 60t250 -60t181.5 -174.5t68.5 -261.5t-68.5 -263t-182 -177t-249.5 -61zM608 41q185 0 312 121.5t127 318.5q0 129 -60 229.5t-159.5 152.5t-219.5 52t-219.5 -52t-159 -152.5t-59.5 -229.5
q0 -131 59.5 -232.5t159 -154.5t219.5 -53zM592 1202q-4 3 -14 11t-14.5 11t-13 8t-14 7t-14 4t-16.5 2q-28 0 -51.5 -22t-24.5 -68h-61q4 74 47 109.5t90 35.5q26 0 50 -9t34 -16t35 -26q46 -39 84 -39q28 0 51 22t24 68h62q-4 -74 -47 -109.5t-90 -35.5q-26 0 -48.5 7.5
t-34.5 15.5t-34 24z" />
    <glyph glyph-name="odieresis" unicode="&#xf6;" horiz-adv-x="1216" 
d="M608 -20q-136 0 -249.5 61t-181.5 177t-68 263t68 261.5t181 174.5t250 60t250 -60t181.5 -174.5t68.5 -261.5t-68.5 -263t-182 -177t-249.5 -61zM608 41q185 0 312 121.5t127 318.5q0 129 -60 229.5t-159.5 152.5t-219.5 52t-219.5 -52t-159 -152.5t-59.5 -229.5
q0 -131 59.5 -232.5t159 -154.5t219.5 -53zM387 1272q0 26 18.5 42.5t45.5 16.5q29 0 47 -16.5t18 -42.5q0 -25 -18 -41.5t-47 -16.5q-26 0 -45 16.5t-19 41.5zM700 1272q0 26 18.5 42.5t45.5 16.5q29 0 47 -16.5t18 -42.5q0 -25 -18 -41.5t-47 -16.5q-26 0 -45 16.5
t-19 41.5z" />
    <glyph glyph-name="divide" unicode="&#xf7;" horiz-adv-x="1173" 
d="M522 811q0 26 18.5 42.5t45.5 16.5q29 0 47 -16.5t18 -42.5q0 -25 -18 -41t-47 -16q-27 0 -45.5 16.5t-18.5 40.5zM522 96q0 26 18.5 43t45.5 17q29 0 47 -17t18 -43q0 -25 -18 -41t-47 -16q-27 0 -45.5 16.5t-18.5 40.5zM166 489h842v-61h-842v61z" />
    <glyph glyph-name="oslash" unicode="&#xf8;" horiz-adv-x="1216" 
d="M272 100l-118 -120l-43 43l118 118q-120 139 -120 340q0 147 68 261.5t181 174.5t250 60q193 0 334 -119l121 123l43 -41l-121 -123q123 -136 123 -336q0 -147 -68.5 -263t-182 -177t-249.5 -61q-198 0 -336 120zM608 41q185 0 312 121.5t127 318.5q0 171 -107 291
l-625 -629q120 -102 293 -102zM608 915q-120 0 -219.5 -52t-159 -152.5t-59.5 -229.5q0 -178 104 -295l623 629q-127 100 -289 100z" />
    <glyph glyph-name="ugrave" unicode="&#xf9;" horiz-adv-x="1148" 
d="M971 956v-956h-62v211q-26 -81 -84.5 -134.5t-126 -75t-143.5 -21.5q-170 0 -280.5 112.5t-110.5 300.5v563h61v-563q0 -161 93.5 -256.5t236.5 -95.5q71 0 131 20t110 62.5t79.5 115.5t33.5 171v546h62zM575 1102l-180 260h74l162 -260h-56z" />
    <glyph glyph-name="uacute" unicode="&#xfa;" horiz-adv-x="1148" 
d="M971 956v-956h-62v211q-26 -81 -84.5 -134.5t-126 -75t-143.5 -21.5q-170 0 -280.5 112.5t-110.5 300.5v563h61v-563q0 -161 93.5 -256.5t236.5 -95.5q71 0 131 20t110 62.5t79.5 115.5t33.5 171v546h62zM731 1362l-180 -260h-55l161 260h74z" />
    <glyph glyph-name="ucircumflex" unicode="&#xfb;" horiz-adv-x="1148" 
d="M971 956v-956h-62v211q-26 -81 -84.5 -134.5t-126 -75t-143.5 -21.5q-170 0 -280.5 112.5t-110.5 300.5v563h61v-563q0 -161 93.5 -256.5t236.5 -95.5q71 0 131 20t110 62.5t79.5 115.5t33.5 171v546h62zM518 1362h98l226 -260h-62l-213 223l-213 -223h-61z" />
    <glyph glyph-name="udieresis" unicode="&#xfc;" horiz-adv-x="1148" 
d="M971 956v-956h-62v211q-26 -81 -84.5 -134.5t-126 -75t-143.5 -21.5q-170 0 -280.5 112.5t-110.5 300.5v563h61v-563q0 -161 93.5 -256.5t236.5 -95.5q71 0 131 20t110 62.5t79.5 115.5t33.5 171v546h62zM348 1272q0 26 18.5 42.5t45.5 16.5q29 0 47 -16.5t18 -42.5
q0 -25 -18 -41.5t-47 -16.5q-26 0 -45 16.5t-19 41.5zM662 1272q0 26 18 42.5t45 16.5q29 0 47.5 -16.5t18.5 -42.5q0 -25 -18.5 -41.5t-47.5 -16.5q-26 0 -44.5 16.5t-18.5 41.5z" />
    <glyph glyph-name="yacute" unicode="&#xfd;" horiz-adv-x="1019" 
d="M549 0l-199 -463h-67l190 453l-410 966h68l377 -893l383 893h67zM666 1362l-181 -260h-55l162 260h74z" />
    <glyph glyph-name="thorn" unicode="&#xfe;" 
d="M240 238v-701h-62v1983h62v-801q64 118 180.5 188t257.5 70q135 0 249.5 -67t181.5 -181.5t67 -249.5q0 -208 -146 -353.5t-352 -145.5q-141 0 -257.5 70t-180.5 188zM1114 479q0 117 -59 217.5t-159.5 159.5t-217.5 59q-118 0 -219 -59t-160 -159.5t-59 -217.5v-18
q3 -116 62.5 -212.5t159.5 -152t216 -55.5q117 0 217.5 59t159.5 160t59 219z" />
    <glyph glyph-name="ydieresis" unicode="&#xff;" horiz-adv-x="1150" 
d="M109 473v27h886q-7 185 -128 299t-292 114q-115 0 -208 -50.5t-150 -143.5l-53 33q67 105 174.5 164t236.5 59q205 0 343.5 -139.5t138.5 -362.5q0 -148 -64.5 -262t-174 -174t-243.5 -60q-205 0 -335.5 135.5t-130.5 360.5zM575 39q173 0 290.5 111t129.5 294h-825
q7 -184 120 -294.5t285 -110.5z" />
    <glyph glyph-name="ydieresis" unicode="&#x44f;" horiz-adv-x="1150" 
d="M109 473v27h886q-7 185 -128 299t-292 114q-115 0 -208 -50.5t-150 -143.5l-53 33q67 105 174.5 164t236.5 59q205 0 343.5 -139.5t138.5 -362.5q0 -148 -64.5 -262t-174 -174t-243.5 -60q-205 0 -335.5 135.5t-130.5 360.5zM575 39q173 0 290.5 111t129.5 294h-825
q7 -184 120 -294.5t285 -110.5z" />
    <glyph glyph-name="ydieresis" unicode="&#x259;" horiz-adv-x="1150" 
d="M109 473v27h886q-7 185 -128 299t-292 114q-115 0 -208 -50.5t-150 -143.5l-53 33q67 105 174.5 164t236.5 59q205 0 343.5 -139.5t138.5 -362.5q0 -148 -64.5 -262t-174 -174t-243.5 -60q-205 0 -335.5 135.5t-130.5 360.5zM575 39q173 0 290.5 111t129.5 294h-825
q7 -184 120 -294.5t285 -110.5z" />
    <glyph glyph-name="Amacron" unicode="&#x100;" horiz-adv-x="1265" 
d="M276 393l-151 -393h-66l541 1411h66l538 -1411h-65l-150 393h-713zM633 1325l-336 -876h672zM397 1743h467v-55h-467v55z" />
    <glyph glyph-name="amacron" unicode="&#x101;" 
d="M1044 0v238q-64 -118 -180.5 -188t-257.5 -70q-135 0 -249.5 66t-181 181t-66.5 252q0 135 66.5 249.5t181 181.5t249.5 67q141 0 257.5 -70t180.5 -188v237h62v-956h-62zM170 479q0 -118 59 -219t159.5 -160t217.5 -59q179 0 304.5 121t133.5 299v18q0 117 -59 217.5
t-160 159.5t-219 59q-117 0 -217.5 -59t-159.5 -159.5t-59 -217.5zM403 1288h467v-55h-467v55z" />
    <glyph glyph-name="Abreve" unicode="&#x102;" horiz-adv-x="1265" 
d="M276 393l-151 -393h-66l541 1411h66l538 -1411h-65l-150 393h-713zM633 1325l-336 -876h672zM801 1786h55q0 -93 -61.5 -149t-163.5 -56q-111 0 -167 59.5t-56 145.5h55q0 -63 41.5 -106.5t126.5 -43.5q78 0 124 41t46 109z" />
    <glyph glyph-name="abreve" unicode="&#x103;" 
d="M1044 0v238q-64 -118 -180.5 -188t-257.5 -70q-135 0 -249.5 66t-181 181t-66.5 252q0 135 66.5 249.5t181 181.5t249.5 67q141 0 257.5 -70t180.5 -188v237h62v-956h-62zM170 479q0 -118 59 -219t159.5 -160t217.5 -59q179 0 304.5 121t133.5 299v18q0 117 -59 217.5
t-160 159.5t-219 59q-117 0 -217.5 -59t-159.5 -159.5t-59 -217.5zM807 1331h55q0 -93 -61.5 -149t-163.5 -56q-111 0 -167 59.5t-56 145.5h55q0 -63 41.5 -106t126.5 -43q78 0 124 40.5t46 108.5z" />
    <glyph glyph-name="Aogonek" unicode="&#x104;" horiz-adv-x="1265" 
d="M276 393l-151 -393h-66l541 1411h66l538 -1411l-69 -166q-13 -29 -13 -53q0 -76 78 -113q16 -8 47 -8q74 0 111 78v-2q12 30 12 59h60q0 -34 -17 -80q-31 -72 -98.5 -100.5t-136.5 0.5q-73 29 -101.5 99t2.5 143l60 143l-150 393h-713zM633 1325l-336 -876h672z" />
    <glyph glyph-name="aogonek" unicode="&#x105;" 
d="M170 479q0 -118 59 -219t159.5 -160t217.5 -59q179 0 304.5 121t133.5 299v18q0 117 -59 217.5t-160 159.5t-219 59q-117 0 -217.5 -59t-159.5 -159.5t-59 -217.5zM1106 0l-66 -166q-12 -36 -12 -53q0 -76 78 -113q16 -8 47 -8q74 0 111 78v-2q12 30 12 59h59
q0 -37 -16 -80q-31 -72 -99 -100.5t-137 0.5q-73 29 -101 99t3 143l59 143v238q-64 -118 -180.5 -188t-257.5 -70q-135 0 -249.5 66t-181 181t-66.5 252q0 135 66.5 249.5t181 181.5t249.5 67q141 0 257.5 -70t180.5 -188v237h62v-956z" />
    <glyph glyph-name="Cacute" unicode="&#x106;" horiz-adv-x="1345" 
d="M1229 199l41 -45q-196 -174 -457 -174q-143 0 -272 57t-221.5 153.5t-146.5 230t-54 281.5q0 147 54 281t146.5 231.5t221.5 155t272 57.5q260 0 459 -176l-41 -45q-184 160 -418 160q-130 0 -247.5 -52.5t-202 -141.5t-134 -212t-49.5 -258t49.5 -257t134 -210.5
t202 -141t247.5 -52.5q234 0 416 158zM971 1817l-180 -261h-56l162 261h74z" />
    <glyph glyph-name="cacute" unicode="&#x107;" horiz-adv-x="1021" 
d="M883 131l37 -49q-136 -102 -314 -102q-135 0 -248 61t-181 177t-68 263t68 261.5t180.5 174.5t248.5 60q168 0 312 -103l-35 -49q-124 90 -277 90q-183 0 -309.5 -120.5t-126.5 -313.5q0 -195 126.5 -317.5t309.5 -122.5q151 0 277 90zM770 1362l-180 -260h-55l161 260
h74z" />
    <glyph glyph-name="Ccircumflex" unicode="&#x108;" horiz-adv-x="1345" 
d="M1229 199l41 -45q-196 -174 -457 -174q-143 0 -272 57t-221.5 153.5t-146.5 230t-54 281.5q0 147 54 281t146.5 231.5t221.5 155t272 57.5q260 0 459 -176l-41 -45q-184 160 -418 160q-130 0 -247.5 -52.5t-202 -141.5t-134 -212t-49.5 -258t49.5 -257t134 -210.5
t202 -141t247.5 -52.5q234 0 416 158zM737 1817h99l225 -261h-62l-213 224l-213 -224h-61z" />
    <glyph glyph-name="ccircumflex" unicode="&#x109;" horiz-adv-x="1021" 
d="M883 131l37 -49q-136 -102 -314 -102q-135 0 -248 61t-181 177t-68 263t68 261.5t180.5 174.5t248.5 60q168 0 312 -103l-35 -49q-124 90 -277 90q-183 0 -309.5 -120.5t-126.5 -313.5q0 -195 126.5 -317.5t309.5 -122.5q151 0 277 90zM528 1362h99l225 -260h-61
l-213 223l-213 -223h-62z" />
    <glyph glyph-name="Cdotaccent" unicode="&#x10a;" horiz-adv-x="1345" 
d="M1229 199l41 -45q-196 -174 -457 -174q-143 0 -272 57t-221.5 153.5t-146.5 230t-54 281.5q0 147 54 281t146.5 231.5t221.5 155t272 57.5q260 0 459 -176l-41 -45q-184 160 -418 160q-130 0 -247.5 -52.5t-202 -141.5t-134 -212t-49.5 -258t49.5 -257t134 -210.5
t202 -141t247.5 -52.5q234 0 416 158zM723 1726q0 26 18 43t45 17q29 0 47.5 -17t18.5 -43q0 -25 -18.5 -41t-47.5 -16q-27 0 -45 16t-18 41z" />
    <glyph glyph-name="cdotaccent" unicode="&#x10b;" horiz-adv-x="1021" 
d="M883 131l37 -49q-136 -102 -314 -102q-135 0 -248 61t-181 177t-68 263t68 261.5t180.5 174.5t248.5 60q168 0 312 -103l-35 -49q-124 90 -277 90q-183 0 -309.5 -120.5t-126.5 -313.5q0 -195 126.5 -317.5t309.5 -122.5q151 0 277 90zM532 1272q0 26 18.5 42.5
t45.5 16.5q29 0 47.5 -16.5t18.5 -42.5q0 -25 -18.5 -41.5t-47.5 -16.5q-26 0 -45 16.5t-19 41.5z" />
    <glyph glyph-name="Ccaron" unicode="&#x10c;" horiz-adv-x="1345" 
d="M1229 199l41 -45q-196 -174 -457 -174q-143 0 -272 57t-221.5 153.5t-146.5 230t-54 281.5q0 147 54 281t146.5 231.5t221.5 155t272 57.5q260 0 459 -176l-41 -45q-184 160 -418 160q-130 0 -247.5 -52.5t-202 -141.5t-134 -212t-49.5 -258t49.5 -257t134 -210.5
t202 -141t247.5 -52.5q234 0 416 158zM834 1556h-99l-225 261h61l213 -224l213 224h62z" />
    <glyph glyph-name="ccaron" unicode="&#x10d;" horiz-adv-x="1021" 
d="M883 131l37 -49q-136 -102 -314 -102q-135 0 -248 61t-181 177t-68 263t68 261.5t180.5 174.5t248.5 60q168 0 312 -103l-35 -49q-124 90 -277 90q-183 0 -309.5 -120.5t-126.5 -313.5q0 -195 126.5 -317.5t309.5 -122.5q151 0 277 90zM633 1102h-98l-226 260h62
l213 -223l213 223h61z" />
    <glyph glyph-name="Dcaron" unicode="&#x10e;" horiz-adv-x="1482" 
d="M737 0h-520v1411h520q145 0 263 -54.5t195.5 -150t119 -224.5t41.5 -280q0 -202 -71.5 -359.5t-213 -250t-334.5 -92.5zM279 61h458q174 0 301.5 84.5t191.5 228.5t64 328q0 186 -64 331.5t-191.5 231t-301.5 85.5h-458v-1289zM756 1556h-99l-225 261h62l213 -224
l213 224h61z" />
    <glyph glyph-name="dcaron" unicode="&#x10f;" 
d="M1233 1157l-29 8q42 69 66 154t14 156h78q-3 -216 -129 -318zM1044 0v238q-64 -118 -180.5 -188t-257.5 -70q-135 0 -249.5 66t-181 181t-66.5 252q0 135 66.5 249.5t181 181.5t249.5 67q141 0 257.5 -70t180.5 -188v801h62v-1520h-62zM170 479q0 -118 59 -219
t159.5 -160t217.5 -59q179 0 304.5 121t133.5 299v18q0 117 -59 217.5t-160 159.5t-219 59q-117 0 -217.5 -59t-159.5 -159.5t-59 -217.5z" />
    <glyph glyph-name="Dcroat" unicode="&#x110;" horiz-adv-x="1486" 
d="M741 0h-520v666h-201v57h201v688h520q145 0 263 -54.5t195.5 -150t119 -224.5t41.5 -280q0 -202 -71.5 -359.5t-213 -250t-334.5 -92.5zM283 723h395v-57h-395v-605h458q174 0 301.5 84.5t191.5 228.5t64 328q0 186 -64 331.5t-191.5 231t-301.5 85.5h-458v-627z" />
    <glyph glyph-name="dcroat" unicode="&#x111;" 
d="M700 1268h344v252h62v-252h192v-54h-192v-1214h-62v238q-64 -118 -180.5 -188t-257.5 -70q-135 0 -249.5 66t-181 181t-66.5 252q0 135 66.5 249.5t181 181.5t249.5 67q141 0 257.5 -70t180.5 -188v495h-344v54zM170 479q0 -118 59 -219t159.5 -160t217.5 -59
q179 0 304.5 121t133.5 299v18q0 117 -59 217.5t-160 159.5t-219 59q-117 0 -217.5 -59t-159.5 -159.5t-59 -217.5z" />
    <glyph glyph-name="Emacron" unicode="&#x112;" horiz-adv-x="1122" 
d="M217 1411h766v-61h-704v-627h616v-61h-616v-601h729v-61h-791v1411zM350 1743h467v-55h-467v55z" />
    <glyph glyph-name="emacron" unicode="&#x113;" horiz-adv-x="1150" 
d="M1059 481v-26h-887q7 -185 128 -299.5t292 -114.5q115 0 208 51t150 144l54 -33q-66 -105 -174 -164t-238 -59q-205 0 -343 139t-138 362q0 148 64.5 262t173.5 174t243 60q205 0 336 -136t131 -360zM592 915q-173 0 -290.5 -111t-129.5 -294h825q-7 184 -120 294.5
t-285 110.5zM350 1288h467v-55h-467v55z" />
    <glyph glyph-name="Ebreve" unicode="&#x114;" horiz-adv-x="1122" 
d="M217 1411h766v-61h-704v-627h616v-61h-616v-601h729v-61h-791v1411zM782 1786h56q0 -92 -62 -148.5t-164 -56.5q-111 0 -167 59.5t-56 145.5h55q0 -63 41.5 -106.5t126.5 -43.5q78 0 124 41t46 109z" />
    <glyph glyph-name="ebreve" unicode="&#x115;" horiz-adv-x="1150" 
d="M1059 481v-26h-887q7 -185 128 -299.5t292 -114.5q115 0 208 51t150 144l54 -33q-66 -105 -174 -164t-238 -59q-205 0 -343 139t-138 362q0 148 64.5 262t173.5 174t243 60q205 0 336 -136t131 -360zM592 915q-173 0 -290.5 -111t-129.5 -294h825q-7 184 -120 294.5
t-285 110.5zM754 1331h55q0 -93 -61.5 -149t-163.5 -56q-111 0 -167.5 59.5t-56.5 145.5h56q0 -63 41.5 -106t126.5 -43q78 0 124 40.5t46 108.5z" />
    <glyph glyph-name="Edotaccent" unicode="&#x116;" horiz-adv-x="1122" 
d="M217 1411h766v-61h-704v-627h616v-61h-616v-601h729v-61h-791v1411zM543 1726q0 26 18 43t45 17q29 0 47.5 -17t18.5 -43q0 -25 -18.5 -41t-47.5 -16q-27 0 -45 16t-18 41z" />
    <glyph glyph-name="edotaccent" unicode="&#x117;" horiz-adv-x="1150" 
d="M1059 481v-26h-887q7 -185 128 -299.5t292 -114.5q115 0 208 51t150 144l54 -33q-66 -105 -174 -164t-238 -59q-205 0 -343 139t-138 362q0 148 64.5 262t173.5 174t243 60q205 0 336 -136t131 -360zM592 915q-173 0 -290.5 -111t-129.5 -294h825q-7 184 -120 294.5
t-285 110.5zM520 1272q0 26 18.5 42.5t45.5 16.5q29 0 47 -16.5t18 -42.5q0 -25 -18 -41.5t-47 -16.5q-26 0 -45 16.5t-19 41.5z" />
    <glyph glyph-name="Eogonek" unicode="&#x118;" horiz-adv-x="1122" 
d="M217 1411h766v-61h-704v-627h616v-61h-616v-601h729v-61l-70 -166q-12 -27 -12 -53q0 -76 78 -113q16 -8 47 -8q73 0 110 78v-2q13 33 13 59h59q0 -37 -16 -80q-31 -72 -99 -100.5t-137 0.5q-73 29 -101 99t3 143l59 143h-725v1411z" />
    <glyph glyph-name="eogonek" unicode="&#x119;" horiz-adv-x="1153" 
d="M1059 481v-26h-887q7 -185 128 -299.5t292 -114.5q115 0 208 51t150 144l54 -33q-32 -43 -67.5 -77.5t-63.5 -56.5t-56.5 -49.5t-57.5 -73.5t-57 -112q-23 -51 -3.5 -98.5t69.5 -67.5q16 -8 47 -8q74 0 111 78v-2q12 30 12 59h59q0 -37 -16 -80q-31 -72 -99 -100.5
t-137 0.5q-72 29 -99 98.5t1 143.5q20 62 88 149q-25 -11 -68 -18.5t-75 -7.5q-205 0 -343 139t-138 362q0 148 64.5 262t173.5 174t243 60q205 0 336 -136t131 -360zM592 915q-173 0 -290.5 -111t-129.5 -294h825q-7 184 -120 294.5t-285 110.5z" />
    <glyph glyph-name="Ecaron" unicode="&#x11a;" horiz-adv-x="1122" 
d="M217 1411h766v-61h-704v-627h616v-61h-616v-601h729v-61h-791v1411zM635 1556h-98l-226 261h62l213 -224l213 224h61z" />
    <glyph glyph-name="ecaron" unicode="&#x11b;" horiz-adv-x="1150" 
d="M1059 481v-26h-887q7 -185 128 -299.5t292 -114.5q115 0 208 51t150 144l54 -33q-66 -105 -174 -164t-238 -59q-205 0 -343 139t-138 362q0 148 64.5 262t173.5 174t243 60q205 0 336 -136t131 -360zM592 915q-173 0 -290.5 -111t-129.5 -294h825q-7 184 -120 294.5
t-285 110.5zM633 1102h-98l-226 260h62l213 -223l213 223h61z" />
    <glyph glyph-name="Gcircumflex" unicode="&#x11c;" horiz-adv-x="1562" 
d="M1413 590h-446v61h512q-5 -223 -88 -376t-226 -225.5t-338 -72.5q-148 0 -279.5 57t-225.5 154t-148.5 231t-54.5 283q0 147 54.5 281t148.5 231.5t226 155t279 57.5q228 0 416 -135l-37 -49q-168 123 -379 123q-179 0 -328 -89t-234 -241.5t-85 -333.5t85 -333.5
t234 -241t328 -88.5q250 0 405 142t181 409zM741 1817h99l225 -261h-61l-213 224l-213 -224h-62z" />
    <glyph glyph-name="gcircumflex" unicode="&#x11d;" 
d="M170 479q0 -118 59 -219t159.5 -160t217.5 -59q179 0 304.5 121t133.5 299v18q0 117 -59 217.5t-160 159.5t-219 59q-117 0 -217.5 -59t-159.5 -159.5t-59 -217.5zM201 -274l51 34q126 -176 340 -176q83 0 149.5 15.5t124.5 54.5t96 101t60 158t22 224v101
q-64 -118 -180.5 -188t-257.5 -70q-135 0 -249.5 66t-181 181t-66.5 252q0 135 66.5 249.5t181 181.5t249.5 67q141 0 257.5 -70t180.5 -188v237h62v-819q0 -141 -25 -247.5t-68.5 -175.5t-109 -112.5t-141 -61t-170.5 -17.5q-115 0 -217.5 51t-173.5 152zM588 1362h98
l225 -260h-61l-213 223l-213 -223h-62z" />
    <glyph glyph-name="Gbreve" unicode="&#x11e;" horiz-adv-x="1562" 
d="M1413 590h-446v61h512q-5 -223 -88 -376t-226 -225.5t-338 -72.5q-148 0 -279.5 57t-225.5 154t-148.5 231t-54.5 283q0 147 54.5 281t148.5 231.5t226 155t279 57.5q228 0 416 -135l-37 -49q-168 123 -379 123q-179 0 -328 -89t-234 -241.5t-85 -333.5t85 -333.5
t234 -241t328 -88.5q250 0 405 142t181 409zM991 1786h56q0 -92 -62 -148.5t-164 -56.5q-111 0 -167 59.5t-56 145.5h55q0 -63 41.5 -106.5t126.5 -43.5q78 0 124 41t46 109z" />
    <glyph glyph-name="gbreve" unicode="&#x11f;" 
d="M170 479q0 -118 59 -219t159.5 -160t217.5 -59q179 0 304.5 121t133.5 299v18q0 117 -59 217.5t-160 159.5t-219 59q-117 0 -217.5 -59t-159.5 -159.5t-59 -217.5zM201 -274l51 34q126 -176 340 -176q83 0 149.5 15.5t124.5 54.5t96 101t60 158t22 224v101
q-64 -118 -180.5 -188t-257.5 -70q-135 0 -249.5 66t-181 181t-66.5 252q0 135 66.5 249.5t181 181.5t249.5 67q141 0 257.5 -70t180.5 -188v237h62v-819q0 -141 -25 -247.5t-68.5 -175.5t-109 -112.5t-141 -61t-170.5 -17.5q-115 0 -217.5 51t-173.5 152zM778 1331h56
q0 -92 -62 -148.5t-164 -56.5q-111 0 -167 59.5t-56 145.5h55q0 -63 41.5 -106t126.5 -43q78 0 124 40.5t46 108.5z" />
    <glyph glyph-name="Gdotaccent" unicode="&#x120;" horiz-adv-x="1562" 
d="M1413 590h-446v61h512q-5 -223 -88 -376t-226 -225.5t-338 -72.5q-148 0 -279.5 57t-225.5 154t-148.5 231t-54.5 283q0 147 54.5 281t148.5 231.5t226 155t279 57.5q228 0 416 -135l-37 -49q-168 123 -379 123q-179 0 -328 -89t-234 -241.5t-85 -333.5t85 -333.5
t234 -241t328 -88.5q250 0 405 142t181 409zM756 1726q0 26 18 43t45 17q29 0 47.5 -17t18.5 -43q0 -25 -18.5 -41t-47.5 -16q-27 0 -45 16t-18 41z" />
    <glyph glyph-name="gdotaccent" unicode="&#x121;" 
d="M170 479q0 -118 59 -219t159.5 -160t217.5 -59q179 0 304.5 121t133.5 299v18q0 117 -59 217.5t-160 159.5t-219 59q-117 0 -217.5 -59t-159.5 -159.5t-59 -217.5zM201 -274l51 34q126 -176 340 -176q83 0 149.5 15.5t124.5 54.5t96 101t60 158t22 224v101
q-64 -118 -180.5 -188t-257.5 -70q-135 0 -249.5 66t-181 181t-66.5 252q0 135 66.5 249.5t181 181.5t249.5 67q141 0 257.5 -70t180.5 -188v237h62v-819q0 -141 -25 -247.5t-68.5 -175.5t-109 -112.5t-141 -61t-170.5 -17.5q-115 0 -217.5 51t-173.5 152zM539 1272
q0 26 18 42.5t45 16.5q29 0 47.5 -16.5t18.5 -42.5q0 -25 -18.5 -41.5t-47.5 -16.5q-26 0 -44.5 16.5t-18.5 41.5z" />
    <glyph glyph-name="Gcommaaccent" unicode="&#x122;" horiz-adv-x="1562" 
d="M1413 590h-446v61h512q-5 -223 -88 -376t-226 -225.5t-338 -72.5q-148 0 -279.5 57t-225.5 154t-148.5 231t-54.5 283q0 147 54.5 281t148.5 231.5t226 155t279 57.5q228 0 416 -135l-37 -49q-168 123 -379 123q-179 0 -328 -89t-234 -241.5t-85 -333.5t85 -333.5
t234 -241t328 -88.5q250 0 405 142t181 409zM715 -440h-56q131 138 142 299h67q-22 -194 -153 -299z" />
    <glyph glyph-name="gcommaaccent" unicode="&#x123;" 
d="M170 479q0 -118 59 -219t159.5 -160t217.5 -59q179 0 304.5 121t133.5 299v18q0 117 -59 217.5t-160 159.5t-219 59q-117 0 -217.5 -59t-159.5 -159.5t-59 -217.5zM201 -274l51 34q126 -176 340 -176q83 0 149.5 15.5t124.5 54.5t96 101t60 158t22 224v101
q-64 -118 -180.5 -188t-257.5 -70q-135 0 -249.5 66t-181 181t-66.5 252q0 135 66.5 249.5t181 181.5t249.5 67q141 0 257.5 -70t180.5 -188v237h62v-819q0 -141 -25 -247.5t-68.5 -175.5t-109 -112.5t-141 -61t-170.5 -17.5q-115 0 -217.5 51t-173.5 152zM629 1135h-60
q0 115 29.5 188t83.5 133l31 -18q-87 -111 -84 -303z" />
    <glyph glyph-name="Hcircumflex" unicode="&#x124;" horiz-adv-x="1458" 
d="M1241 1411v-1411h-61v674h-901v-674h-62v1411h62v-680h901v680h61zM680 1817h98l226 -261h-62l-213 224l-213 -224h-61z" />
    <glyph glyph-name="hcircumflex" unicode="&#x125;" horiz-adv-x="1150" 
d="M178 0v1520h62v-775q26 81 84.5 135t126 75.5t143.5 21.5q170 0 280.5 -113t110.5 -301v-563h-61v563q0 161 -93.5 256.5t-236.5 95.5q-70 0 -130 -20t-111 -62t-81 -115t-32 -171v-547h-62zM160 1837h98l225 -260h-61l-213 223l-213 -223h-62z" />
    <glyph glyph-name="Hbar" unicode="&#x126;" horiz-adv-x="1486" 
d="M1194 1077h-901v-346h901v346zM1255 1077v-1077h-61v674h-901v-674h-62v1077h-135v53h135v281h62v-281h901v281h61v-281h156v-53h-156z" />
    <glyph glyph-name="hbar" unicode="&#x127;" horiz-adv-x="1148" 
d="M178 0v1214h-184v54h184v252h62v-252h352v-54h-352v-469q26 81 84.5 135t126 75.5t143.5 21.5q170 0 280.5 -113t110.5 -301v-563h-61v563q0 161 -93.5 256.5t-236.5 95.5q-70 0 -130 -20t-111 -62t-81 -115t-32 -171v-547h-62z" />
    <glyph glyph-name="Itilde" unicode="&#x128;" horiz-adv-x="495" 
d="M279 1411v-1411h-62v1411h62zM233 1657q-4 3 -14 11t-14.5 11t-13 8t-14 7t-14 4t-16.5 2q-28 0 -51 -22t-24 -68h-62q4 74 47 109.5t90 35.5q26 0 50 -9t34 -16t35 -26q46 -39 84 -39q28 0 51.5 22t24.5 68h61q-4 -74 -47 -109.5t-90 -35.5q-26 0 -48.5 7.5t-34.5 15.5
t-34 24z" />
    <glyph glyph-name="itilde" unicode="&#x129;" horiz-adv-x="419" 
d="M242 956v-956h-64v956h64zM186 1202q-4 3 -14 11t-14.5 11t-13 8t-14 7t-14 4t-16.5 2q-28 0 -51 -22t-24 -68h-62q4 74 47 109.5t90 35.5q26 0 50 -9t34 -16t35 -26q46 -39 84 -39q28 0 51.5 22t24.5 68h61q-4 -74 -47 -109.5t-90 -35.5q-26 0 -48.5 7.5t-34.5 15.5
t-34 24z" />
    <glyph glyph-name="Imacron" unicode="&#x12a;" horiz-adv-x="495" 
d="M279 1411v-1411h-62v1411h62zM14 1743h467v-55h-467v55z" />
    <glyph glyph-name="imacron" unicode="&#x12b;" horiz-adv-x="419" 
d="M242 956v-956h-64v956h64zM-27 1288h467v-55h-467v55z" />
    <glyph glyph-name="Ibreve" unicode="&#x12c;" horiz-adv-x="495" 
d="M279 1411v-1411h-62v1411h62zM418 1786h55q0 -93 -61.5 -149t-163.5 -56q-111 0 -167 59.5t-56 145.5h55q0 -63 41.5 -106.5t126.5 -43.5q78 0 124 41t46 109z" />
    <glyph glyph-name="ibreve" unicode="&#x12d;" horiz-adv-x="419" 
d="M242 956v-956h-64v956h64zM371 1331h55q0 -93 -61.5 -149t-163.5 -56q-111 0 -167.5 59.5t-56.5 145.5h56q0 -63 41.5 -106t126.5 -43q78 0 124 40.5t46 108.5z" />
    <glyph glyph-name="Iogonek" unicode="&#x12e;" horiz-adv-x="495" 
d="M217 0v1411h62v-1411l-66 -166q-12 -27 -12 -53q0 -76 78 -113q16 -8 47 -8q73 0 110 78v-2q13 32 13 59h59q0 -37 -16 -80q-31 -72 -99 -100.5t-137 0.5q-73 29 -101 99t3 143z" />
    <glyph glyph-name="iogonek" unicode="&#x12f;" horiz-adv-x="417" 
d="M119 -143l59 143v956h62v-956l-66 -166q-12 -36 -12 -53q0 -76 78 -113q16 -8 47 -8q73 0 110 78v-2q13 32 13 59h59q0 -37 -16 -80q-31 -72 -99 -100.5t-137 0.5q-73 29 -101 99t3 143zM143 1309q0 26 18.5 42.5t45.5 16.5q29 0 47 -16.5t18 -42.5q0 -25 -18 -41.5
t-47 -16.5q-26 0 -45 16.5t-19 41.5z" />
    <glyph glyph-name="Idotaccent" unicode="&#x130;" horiz-adv-x="495" 
d="M279 1411v-1411h-62v1411h62zM184 1726q0 26 18.5 43t45.5 17q29 0 47 -17t18 -43q0 -25 -18 -41t-47 -16q-27 0 -45.5 16.5t-18.5 40.5z" />
    <glyph glyph-name="dotlessi" unicode="&#x131;" horiz-adv-x="417" 
d="M178 0v956h62v-956h-62z" />
    <glyph glyph-name="IJ" unicode="&#x132;" horiz-adv-x="991" 
d="M279 1411v-1411h-62v1411h62zM281 -471l8 61q47 -6 82 -6q91 0 158.5 29t106.5 81t58 117.5t19 145.5v1454h61v-1454q0 -93 -22 -169t-68 -136.5t-126 -94.5t-187 -34q-43 0 -90 6z" />
    <glyph glyph-name="ij" unicode="&#x133;" horiz-adv-x="835" 
d="M145 1309q0 26 18.5 42.5t45.5 16.5q29 0 47 -16.5t18 -42.5q0 -25 -18 -41.5t-47 -16.5q-26 0 -45 16.5t-19 41.5zM178 0v956h62v-956h-62zM657 956v-1026q0 -88 -16.5 -158t-52.5 -126t-99.5 -86.5t-150.5 -30.5h-70v61h70q71 0 122.5 26t80 74t42 107t13.5 133v1026
h61zM563 1309q0 26 18.5 42.5t45.5 16.5q29 0 47 -16.5t18 -42.5q0 -25 -18 -41.5t-47 -16.5q-26 0 -45 16.5t-19 41.5z" />
    <glyph glyph-name="Jcircumflex" unicode="&#x134;" horiz-adv-x="495" 
d="M-215 -471l8 61q47 -6 82 -6q91 0 158.5 29t106.5 81t58 117.5t19 145.5v1454h62v-1454q0 -93 -22 -169t-68.5 -136.5t-126.5 -94.5t-187 -34q-43 0 -90 6zM201 1817h98l225 -261h-61l-213 224l-213 -224h-62z" />
    <glyph glyph-name="jcircumflex" unicode="&#x135;" horiz-adv-x="417" 
d="M240 956v-1026q0 -88 -16.5 -158t-53 -126t-100 -86.5t-150.5 -30.5h-70v61h70q71 0 122.5 26t80 74t42 107t13.5 133v1026h62zM147 1362h99l225 -260h-61l-213 223l-213 -223h-62z" />
    <glyph glyph-name="Kcommaaccent" unicode="&#x136;" horiz-adv-x="1060" 
d="M279 635v-635h-62v1411h62v-727l606 727h80l-627 -749l715 -662h-86zM485 -440h-55q130 137 141 299h68q-22 -193 -154 -299z" />
    <glyph glyph-name="kcommaaccent" unicode="&#x137;" horiz-adv-x="886" 
d="M874 0h-90l-544 520v-520h-62v1520h62v-971l397 407h88l-412 -419zM389 -440h-55q130 137 141 299h68q-22 -193 -154 -299z" />
    <glyph glyph-name="kgreenlandic" unicode="&#x138;" horiz-adv-x="815" 
d="M240 418v-418h-62v956h62v-489l407 489h80l-428 -512l479 -444h-86z" />
    <glyph glyph-name="Lacute" unicode="&#x139;" horiz-adv-x="972" 
d="M217 1411h62v-1350h632v-61h-694v1411zM457 1817l-181 -261h-55l162 261h74z" />
    <glyph glyph-name="lacute" unicode="&#x13a;" horiz-adv-x="417" 
d="M178 0v1520h62v-1520h-62zM420 1907l-180 -260h-56l162 260h74z" />
    <glyph glyph-name="Lcommaaccent" unicode="&#x13b;" horiz-adv-x="972" 
d="M217 1411h62v-1350h632v-61h-694v1411zM446 -440h-55q130 137 141 299h68q-22 -193 -154 -299z" />
    <glyph glyph-name="lcommaaccent" unicode="&#x13c;" horiz-adv-x="417" 
d="M178 0v1520h62v-1520h-62zM94 -440h-55q130 137 141 299h68q-22 -193 -154 -299z" />
    <glyph glyph-name="Lcaron" unicode="&#x13d;" horiz-adv-x="972" 
d="M217 1411h62v-1350h632v-61h-694v1411zM549 1411h59q0 -115 -29 -188t-83 -133l-31 18q87 111 84 303z" />
    <glyph glyph-name="lcaron" unicode="&#x13e;" horiz-adv-x="417" 
d="M178 0v1520h62v-1520h-62zM422 1520h59q0 -115 -29 -188.5t-83 -133.5l-31 19q87 111 84 303z" />
    <glyph glyph-name="Ldot" unicode="&#x13f;" horiz-adv-x="972" 
d="M217 1411h62v-1350h632v-61h-694v1411zM502 528q0 31 22.5 51.5t57.5 20.5q32 0 54.5 -20.5t22.5 -51.5t-22 -51t-55 -20q-35 0 -57.5 20t-22.5 51z" />
    <glyph glyph-name="ldot" unicode="&#x140;" horiz-adv-x="555" 
d="M178 0v1520h62v-1520h-62zM408 528q0 31 22 51.5t57 20.5q32 0 55 -20.5t23 -51.5q0 -30 -22.5 -50.5t-55.5 -20.5q-35 0 -57 20t-22 51z" />
    <glyph glyph-name="Lslash" unicode="&#x141;" horiz-adv-x="987" 
d="M231 715l-172 -107v60l172 106v637h62v-598l227 143v-59l-227 -143v-693h633v-61h-695v715z" />
    <glyph glyph-name="lslash" unicode="&#x142;" horiz-adv-x="481" 
d="M20 608v60l175 108v744h61v-705l225 141v-59l-225 -141v-756h-61v717z" />
    <glyph glyph-name="Nacute" unicode="&#x143;" horiz-adv-x="1402" 
d="M1186 1411v-1411h-74l-833 1319v-1319h-62v1411h74l833 -1325v1325h62zM872 1817l-180 -261h-55l162 261h73z" />
    <glyph glyph-name="nacute" unicode="&#x144;" horiz-adv-x="1148" 
d="M178 0v956h62v-211q26 81 84.5 135t126 75.5t143.5 21.5q170 0 280.5 -113t110.5 -301v-563h-61v563q0 161 -93.5 256.5t-236.5 95.5q-70 0 -130 -20t-111 -62t-81 -115t-32 -171v-547h-62zM780 1362l-180 -260h-55l162 260h73z" />
    <glyph glyph-name="Ncommaaccent" unicode="&#x145;" horiz-adv-x="1402" 
d="M1186 1411v-1411h-74l-833 1319v-1319h-62v1411h74l833 -1325v1325h62zM590 -440h-55q130 137 141 299h67q-22 -194 -153 -299z" />
    <glyph glyph-name="ncommaaccent" unicode="&#x146;" horiz-adv-x="1148" 
d="M178 0v956h62v-211q26 81 84.5 135t126 75.5t143.5 21.5q170 0 280.5 -113t110.5 -301v-563h-61v563q0 161 -93.5 256.5t-236.5 95.5q-70 0 -130 -20t-111 -62t-81 -115t-32 -171v-547h-62zM483 -440h-55q130 137 141 299h68q-22 -193 -154 -299z" />
    <glyph glyph-name="Ncaron" unicode="&#x147;" horiz-adv-x="1402" 
d="M1186 1411v-1411h-74l-833 1319v-1319h-62v1411h74l833 -1325v1325h62zM750 1556h-99l-225 261h61l213 -224l213 224h62z" />
    <glyph glyph-name="ncaron" unicode="&#x148;" horiz-adv-x="1148" 
d="M178 0v956h62v-211q26 81 84.5 135t126 75.5t143.5 21.5q170 0 280.5 -113t110.5 -301v-563h-61v563q0 161 -93.5 256.5t-236.5 95.5q-70 0 -130 -20t-111 -62t-81 -115t-32 -171v-547h-62zM631 1102h-99l-225 260h62l213 -223l213 223h61z" />
    <glyph glyph-name="napostrophe" unicode="&#x149;" horiz-adv-x="1148" 
d="M53 1063l-28 8q91 149 77 291h62q0 -179 -111 -299zM178 0v956h62v-211q26 81 84.5 135t126 75.5t143.5 21.5q170 0 280.5 -113t110.5 -301v-563h-61v563q0 161 -93.5 256.5t-236.5 95.5q-70 0 -130 -20t-111 -62t-81 -115t-32 -171v-547h-62z" />
    <glyph glyph-name="Eng" unicode="&#x14a;" horiz-adv-x="1402" 
d="M1186 1411v-1454q0 -93 -22 -169t-68.5 -136.5t-126.5 -94.5t-187 -34q-44 0 -90 6l8 61q46 -6 82 -6q91 0 158.5 29t106.5 81t58 117.5t19 145.5v43l-845 1319v-1319h-62v1411h74l833 -1311v1311h62z" />
    <glyph glyph-name="eng" unicode="&#x14b;" horiz-adv-x="1148" 
d="M924 -43v606q0 161 -93.5 256.5t-236.5 95.5q-70 0 -130 -20t-111 -62t-81 -115t-32 -171v-547h-62v956h62v-211q26 81 84.5 135t126 75.5t143.5 21.5q170 0 280.5 -113t110.5 -301v-606q0 -93 -22 -169t-68 -136.5t-126 -94.5t-187 -34q-44 0 -90 6l8 61q46 -6 82 -6
q91 0 158.5 29t106.5 81t58 117.5t19 145.5z" />
    <glyph glyph-name="Omacron" unicode="&#x14c;" horiz-adv-x="1656" 
d="M119 702q0 197 93.5 363.5t256.5 264t358 97.5q147 0 279 -57.5t226.5 -155t150 -231.5t55.5 -281q0 -148 -55.5 -281.5t-150 -230t-226.5 -153.5t-279 -57q-146 0 -277.5 57t-226 153.5t-149.5 230t-55 281.5zM180 702q0 -135 50.5 -257t136.5 -210.5t206.5 -141
t253.5 -52.5q134 0 255 52.5t207.5 141t137 210.5t50.5 257q0 181 -85.5 333.5t-235.5 241.5t-329 89q-178 0 -327 -89t-234.5 -241.5t-85.5 -333.5zM602 1745h467v-55h-467v55z" />
    <glyph glyph-name="omacron" unicode="&#x14d;" horiz-adv-x="1216" 
d="M608 -20q-136 0 -249.5 61t-181.5 177t-68 263t68 261.5t181 174.5t250 60t250 -60t181.5 -174.5t68.5 -261.5t-68.5 -263t-182 -177t-249.5 -61zM608 41q185 0 312 121.5t127 318.5q0 129 -60 229.5t-159.5 152.5t-219.5 52t-219.5 -52t-159 -152.5t-59.5 -229.5
q0 -131 59.5 -232.5t159 -154.5t219.5 -53zM375 1288h467v-55h-467v55z" />
    <glyph glyph-name="Obreve" unicode="&#x14e;" horiz-adv-x="1656" 
d="M119 702q0 197 93.5 363.5t256.5 264t358 97.5q147 0 279 -57.5t226.5 -155t150 -231.5t55.5 -281q0 -148 -55.5 -281.5t-150 -230t-226.5 -153.5t-279 -57q-146 0 -277.5 57t-226 153.5t-149.5 230t-55 281.5zM180 702q0 -135 50.5 -257t136.5 -210.5t206.5 -141
t253.5 -52.5q134 0 255 52.5t207.5 141t137 210.5t50.5 257q0 181 -85.5 333.5t-235.5 241.5t-329 89q-178 0 -327 -89t-234.5 -241.5t-85.5 -333.5zM1006 1788h55q0 -93 -61.5 -149t-163.5 -56q-111 0 -167.5 59.5t-56.5 145.5h56q0 -63 41.5 -106.5t126.5 -43.5
q78 0 124 41t46 109z" />
    <glyph glyph-name="obreve" unicode="&#x14f;" horiz-adv-x="1216" 
d="M608 -20q-136 0 -249.5 61t-181.5 177t-68 263t68 261.5t181 174.5t250 60t250 -60t181.5 -174.5t68.5 -261.5t-68.5 -263t-182 -177t-249.5 -61zM608 41q185 0 312 121.5t127 318.5q0 129 -60 229.5t-159.5 152.5t-219.5 52t-219.5 -52t-159 -152.5t-59.5 -229.5
q0 -131 59.5 -232.5t159 -154.5t219.5 -53zM776 1331h55q0 -93 -61.5 -149t-163.5 -56q-111 0 -167 59.5t-56 145.5h55q0 -63 41.5 -106t126.5 -43q78 0 124 40.5t46 108.5z" />
    <glyph glyph-name="Ohungarumlaut" unicode="&#x150;" horiz-adv-x="1656" 
d="M119 702q0 197 93.5 363.5t256.5 264t358 97.5q147 0 279 -57.5t226.5 -155t150 -231.5t55.5 -281q0 -148 -55.5 -281.5t-150 -230t-226.5 -153.5t-279 -57q-146 0 -277.5 57t-226 153.5t-149.5 230t-55 281.5zM180 702q0 -135 50.5 -257t136.5 -210.5t206.5 -141
t253.5 -52.5q134 0 255 52.5t207.5 141t137 210.5t50.5 257q0 181 -85.5 333.5t-235.5 241.5t-329 89q-178 0 -327 -89t-234.5 -241.5t-85.5 -333.5zM909 1819l-180 -260h-55l162 260h73zM1135 1819l-181 -260h-55l162 260h74z" />
    <glyph glyph-name="ohungarumlaut" unicode="&#x151;" horiz-adv-x="1216" 
d="M608 -20q-136 0 -249.5 61t-181.5 177t-68 263t68 261.5t181 174.5t250 60t250 -60t181.5 -174.5t68.5 -261.5t-68.5 -263t-182 -177t-249.5 -61zM608 41q185 0 312 121.5t127 318.5q0 129 -60 229.5t-159.5 152.5t-219.5 52t-219.5 -52t-159 -152.5t-59.5 -229.5
q0 -131 59.5 -232.5t159 -154.5t219.5 -53zM688 1362l-180 -260h-55l161 260h74zM913 1362l-180 -260h-55l162 260h73z" />
    <glyph glyph-name="OE" unicode="&#x152;" horiz-adv-x="2383" 
d="M1479 1411h766v-61h-705v-627h617v-61h-617v-601h729v-61h-790v410q-83 -195 -258.5 -312.5t-393.5 -117.5q-146 0 -277.5 57t-226 153.5t-149.5 230t-55 281.5q0 197 93.5 363.5t256.5 264t358 97.5q217 0 392 -119t260 -313v416zM180 702q0 -135 50.5 -257
t136.5 -210.5t206.5 -141t253.5 -52.5q134 0 255 52.5t207.5 141t137 210.5t50.5 257q0 181 -85.5 333.5t-235.5 241.5t-329 89q-178 0 -327 -89t-234.5 -241.5t-85.5 -333.5z" />
    <glyph glyph-name="oe" unicode="&#x153;" horiz-adv-x="2086" 
d="M1995 481v-26h-887q7 -185 128 -299.5t292 -114.5q115 0 208 51t150 144l53 -33q-67 -105 -174.5 -164t-236.5 -59q-159 0 -280.5 84t-172.5 231q-53 -146 -180 -230.5t-287 -84.5q-136 0 -249.5 61t-181.5 177t-68 263t68 261.5t181 174.5t250 60q160 0 287 -83.5
t180 -229.5q51 147 172.5 230t280.5 83q205 0 336 -136t131 -360zM608 41q181 0 306.5 116t132.5 304v20v19q-5 125 -65.5 220.5t-158 145t-215.5 49.5q-120 0 -219.5 -52t-159 -152.5t-59.5 -229.5q0 -131 59.5 -232.5t159 -154.5t219.5 -53zM1528 915q-173 0 -290.5 -111
t-129.5 -294h825q-7 184 -120 294.5t-285 110.5z" />
    <glyph glyph-name="Racute" unicode="&#x154;" horiz-adv-x="1230" 
d="M279 582v-582h-62v1411h516q100 0 175.5 -34.5t119 -94t65 -132t21.5 -155.5t-21.5 -154.5t-66 -130.5t-122 -93.5t-181.5 -34.5h-55l411 -582h-73l-414 582h-313zM733 1350h-454v-707h444q87 0 153 29t103.5 80t55.5 111.5t18 131.5q0 70 -18 131.5t-55 113t-100.5 81
t-146.5 29.5zM797 1817l-181 -261h-55l162 261h74z" />
    <glyph glyph-name="racute" unicode="&#x155;" horiz-adv-x="745" 
d="M178 0v956h62v-270q31 125 121 208t221 83q72 0 133 -19l-19 -59q-54 16 -114 16q-68 0 -122.5 -24.5t-90 -68.5t-61 -96t-39.5 -116t-20.5 -119t-8.5 -114v-377h-62zM414 1362l-181 -260h-55l162 260h74z" />
    <glyph glyph-name="Rcommaaccent" unicode="&#x156;" horiz-adv-x="1230" 
d="M279 582v-582h-62v1411h516q100 0 175.5 -34.5t119 -94t65 -132t21.5 -155.5t-21.5 -154.5t-66 -130.5t-122 -93.5t-181.5 -34.5h-55l411 -582h-73l-414 582h-313zM733 1350h-454v-707h444q87 0 153 29t103.5 80t55.5 111.5t18 131.5q0 70 -18 131.5t-55 113t-100.5 81
t-146.5 29.5zM494 -440h-56q131 138 142 299h67q-22 -194 -153 -299z" />
    <glyph glyph-name="rcommaaccent" unicode="&#x157;" horiz-adv-x="745" 
d="M178 0v956h62v-270q31 125 121 208t221 83q72 0 133 -19l-19 -59q-54 16 -114 16q-68 0 -122.5 -24.5t-90 -68.5t-61 -96t-39.5 -116t-20.5 -119t-8.5 -114v-377h-62zM92 -440h-55q130 137 141 299h68q-22 -193 -154 -299z" />
    <glyph glyph-name="Rcaron" unicode="&#x158;" horiz-adv-x="1230" 
d="M279 582v-582h-62v1411h516q100 0 175.5 -34.5t119 -94t65 -132t21.5 -155.5t-21.5 -154.5t-66 -130.5t-122 -93.5t-181.5 -34.5h-55l411 -582h-73l-414 582h-313zM733 1350h-454v-707h444q87 0 153 29t103.5 80t55.5 111.5t18 131.5q0 70 -18 131.5t-55 113t-100.5 81
t-146.5 29.5zM670 1556h-99l-225 261h62l213 -224l213 224h61z" />
    <glyph glyph-name="rcaron" unicode="&#x159;" horiz-adv-x="745" 
d="M178 0v956h62v-270q31 125 121 208t221 83q72 0 133 -19l-19 -59q-54 16 -114 16q-68 0 -122.5 -24.5t-90 -68.5t-61 -96t-39.5 -116t-20.5 -119t-8.5 -114v-377h-62zM453 1102h-99l-225 260h61l213 -223l213 223h62z" />
    <glyph glyph-name="Sacute" unicode="&#x15a;" horiz-adv-x="1144" 
d="M123 340h61q18 -122 122.5 -210.5t256.5 -88.5q89 0 163.5 24.5t123.5 65t79.5 88.5t41.5 100q12 77 -8.5 140t-67.5 106t-107 71.5t-135 45.5l-200 47q-320 67 -320 334q0 105 61.5 189.5t159 129.5t207.5 45q173 0 292.5 -93.5t131.5 -250.5h-61q-12 128 -114.5 205.5
t-248.5 77.5q-94 0 -177.5 -38t-136 -108.5t-52.5 -156.5q0 -213 270 -275l201 -47q69 -15 126.5 -38.5t108 -60.5t82.5 -84t45 -111t2 -140q-13 -61 -47.5 -117.5t-90.5 -104.5t-141.5 -76.5t-187.5 -28.5q-91 0 -170.5 30.5t-135 81.5t-90.5 115t-44 133zM756 1817
l-181 -261h-55l162 261h74z" />
    <glyph glyph-name="sacute" unicode="&#x15b;" horiz-adv-x="858" 
d="M432 977q120 0 200.5 -63.5t90.5 -170.5h-64q-10 78 -72.5 125t-154.5 47t-157.5 -42t-75.5 -113q-5 -44 4.5 -80t26.5 -58.5t44.5 -40.5t51.5 -27t55 -17l141 -33q234 -58 234 -256q0 -122 -88.5 -195t-237.5 -73q-124 0 -219 63t-119 180h62q72 -182 276 -182
q122 0 193 57t71 150q0 149 -184 196l-143 33q-39 10 -69 21t-65 33.5t-57 52t-34 76.5t-5 106q12 96 95.5 153.5t199.5 57.5zM616 1362l-180 -260h-55l162 260h73z" />
    <glyph glyph-name="Scircumflex" unicode="&#x15c;" horiz-adv-x="1144" 
d="M123 340h61q18 -122 122.5 -210.5t256.5 -88.5q89 0 163.5 24.5t123.5 65t79.5 88.5t41.5 100q12 77 -8.5 140t-67.5 106t-107 71.5t-135 45.5l-200 47q-320 67 -320 334q0 105 61.5 189.5t159 129.5t207.5 45q173 0 292.5 -93.5t131.5 -250.5h-61q-12 128 -114.5 205.5
t-248.5 77.5q-94 0 -177.5 -38t-136 -108.5t-52.5 -156.5q0 -213 270 -275l201 -47q69 -15 126.5 -38.5t108 -60.5t82.5 -84t45 -111t2 -140q-13 -61 -47.5 -117.5t-90.5 -104.5t-141.5 -76.5t-187.5 -28.5q-91 0 -170.5 30.5t-135 81.5t-90.5 115t-44 133zM530 1817h99
l225 -261h-61l-213 224l-213 -224h-62z" />
    <glyph glyph-name="scircumflex" unicode="&#x15d;" horiz-adv-x="858" 
d="M432 977q120 0 200.5 -63.5t90.5 -170.5h-64q-10 78 -72.5 125t-154.5 47t-157.5 -42t-75.5 -113q-5 -44 4.5 -80t26.5 -58.5t44.5 -40.5t51.5 -27t55 -17l141 -33q234 -58 234 -256q0 -122 -88.5 -195t-237.5 -73q-124 0 -219 63t-119 180h62q72 -182 276 -182
q122 0 193 57t71 150q0 149 -184 196l-143 33q-39 10 -69 21t-65 33.5t-57 52t-34 76.5t-5 106q12 96 95.5 153.5t199.5 57.5zM375 1362h98l225 -260h-61l-213 223l-213 -223h-61z" />
    <glyph glyph-name="Scedilla" unicode="&#x15e;" horiz-adv-x="1144" 
d="M123 340h61q18 -122 122.5 -210.5t256.5 -88.5q89 0 163.5 24.5t123.5 65t79.5 88.5t41.5 100q12 77 -8.5 140t-67.5 106t-107 71.5t-135 45.5l-200 47q-320 67 -320 334q0 105 61.5 189.5t159 129.5t207.5 45q173 0 292.5 -93.5t131.5 -250.5h-61q-12 128 -114.5 205.5
t-248.5 77.5q-94 0 -177.5 -38t-136 -108.5t-52.5 -156.5q0 -213 270 -275l201 -47q69 -15 126.5 -38.5t108 -60.5t82.5 -84t45 -111t2 -140q-22 -120 -129.5 -213.5t-282.5 -109.5l54 -127q31 -73 2.5 -143t-101.5 -99q-69 -29 -136.5 -0.5t-98.5 100.5q-16 43 -16 80h59
q0 -29 12 -59v2q37 -78 111 -78q31 0 47 8q78 37 78 113q0 24 -13 53l-61 146q-118 3 -214 55t-151 132.5t-67 172.5z" />
    <glyph glyph-name="scedilla" unicode="&#x15f;" horiz-adv-x="862" 
d="M479 -18l53 -125q31 -73 3 -143t-101 -99q-69 -29 -136.5 -0.5t-98.5 100.5q-17 46 -17 80h60q0 -29 12 -59v2q37 -78 111 -78q31 0 47 8q77 36 77 113q0 26 -12 53l-61 146q-119 5 -208.5 68t-113.5 175h62q71 -182 276 -182q122 0 193 57t71 150q0 149 -184 196
l-143 33q-39 10 -69 21t-65 33.5t-57 52t-34 76.5t-5 106q12 96 95.5 153.5t199.5 57.5q120 0 200.5 -63.5t90.5 -170.5h-63q-10 78 -73 125t-155 47t-157.5 -42t-75.5 -113q-5 -44 4.5 -80t26.5 -58.5t44.5 -40.5t51.5 -27t55 -17l141 -33q234 -58 234 -256
q0 -110 -75 -182t-204 -84z" />
    <glyph glyph-name="Scaron" unicode="&#x160;" horiz-adv-x="1144" 
d="M123 340h61q18 -122 122.5 -210.5t256.5 -88.5q89 0 163.5 24.5t123.5 65t79.5 88.5t41.5 100q12 77 -8.5 140t-67.5 106t-107 71.5t-135 45.5l-200 47q-320 67 -320 334q0 105 61.5 189.5t159 129.5t207.5 45q173 0 292.5 -93.5t131.5 -250.5h-61q-12 128 -114.5 205.5
t-248.5 77.5q-94 0 -177.5 -38t-136 -108.5t-52.5 -156.5q0 -213 270 -275l201 -47q69 -15 126.5 -38.5t108 -60.5t82.5 -84t45 -111t2 -140q-13 -61 -47.5 -117.5t-90.5 -104.5t-141.5 -76.5t-187.5 -28.5q-91 0 -170.5 30.5t-135 81.5t-90.5 115t-44 133zM629 1556h-99
l-225 261h62l213 -224l213 224h61z" />
    <glyph glyph-name="scaron" unicode="&#x161;" horiz-adv-x="858" 
d="M432 977q120 0 200.5 -63.5t90.5 -170.5h-64q-10 78 -72.5 125t-154.5 47t-157.5 -42t-75.5 -113q-5 -44 4.5 -80t26.5 -58.5t44.5 -40.5t51.5 -27t55 -17l141 -33q234 -58 234 -256q0 -122 -88.5 -195t-237.5 -73q-124 0 -219 63t-119 180h62q72 -182 276 -182
q122 0 193 57t71 150q0 149 -184 196l-143 33q-39 10 -69 21t-65 33.5t-57 52t-34 76.5t-5 106q12 96 95.5 153.5t199.5 57.5zM473 1102h-98l-225 260h61l213 -223l213 223h61z" />
    <glyph glyph-name="Tcommaaccent" unicode="&#x162;" horiz-adv-x="1128" 
d="M55 1411h1018v-61h-479v-1350h-62v1350h-477v61zM449 -440h-56q131 138 142 299h67q-22 -194 -153 -299z" />
    <glyph glyph-name="tcommaaccent" unicode="&#x163;" horiz-adv-x="583" 
d="M530 901h-237v-901h-62v901h-174v55h174v406h62v-406h237v-55zM147 -440h-55q130 137 141 299h68q-22 -193 -154 -299z" />
    <glyph glyph-name="Tcaron" unicode="&#x164;" horiz-adv-x="1128" 
d="M55 1411h1018v-61h-479v-1350h-62v1350h-477v61zM612 1556h-98l-225 261h61l213 -224l213 224h62z" />
    <glyph glyph-name="tcaron" unicode="&#x165;" horiz-adv-x="583" 
d="M530 901h-237v-901h-62v901h-174v55h174v406h62v-406h237v-55zM500 1362h59q0 -115 -29.5 -188.5t-83.5 -133.5l-30 19q87 111 84 303z" />
    <glyph glyph-name="Tbar" unicode="&#x166;" horiz-adv-x="1128" 
d="M532 743h-258v62h258v545h-477v61h1018v-61h-479v-545h256v-62h-256v-743h-62v743z" />
    <glyph glyph-name="tbar" unicode="&#x167;" horiz-adv-x="589" 
d="M236 0v485h-132v56h132v360h-175v55h175v406h61v-406h238v-55h-238v-360h152v-56h-152v-485h-61z" />
    <glyph glyph-name="Utilde" unicode="&#x168;" horiz-adv-x="1380" 
d="M1178 1411v-948q0 -143 -66.5 -255t-177.5 -171.5t-244 -59.5t-243.5 59.5t-177 171.5t-66.5 255v948h61v-948q0 -124 58 -221.5t155 -150t213 -52.5t213 52.5t155 150t58 221.5v948h62zM674 1657q-4 3 -14 11t-14.5 11t-13 8t-14 7t-14 4t-16.5 2q-28 0 -51.5 -22
t-24.5 -68h-61q4 74 47 109.5t90 35.5q26 0 50 -9t34 -16t35 -26q46 -39 84 -39q28 0 51 22t24 68h62q-4 -74 -47 -109.5t-90 -35.5q-26 0 -48.5 7.5t-34.5 15.5t-34 24z" />
    <glyph glyph-name="utilde" unicode="&#x169;" horiz-adv-x="1148" 
d="M971 956v-956h-62v211q-26 -81 -84.5 -134.5t-126 -75t-143.5 -21.5q-170 0 -280.5 112.5t-110.5 300.5v563h61v-563q0 -161 93.5 -256.5t236.5 -95.5q71 0 131 20t110 62.5t79.5 115.5t33.5 171v546h62zM571 1202q-4 3 -14 11t-14.5 11t-13 8t-14 7t-14 4t-16.5 2
q-28 0 -51 -22t-24 -68h-62q4 74 47 109.5t90 35.5q26 0 50 -9t34 -16t35 -26q46 -39 84 -39q28 0 51.5 22t24.5 68h61q-4 -74 -47 -109.5t-90 -35.5q-26 0 -48.5 7.5t-34.5 15.5t-34 24z" />
    <glyph glyph-name="Umacron" unicode="&#x16a;" horiz-adv-x="1380" 
d="M1178 1411v-948q0 -143 -66.5 -255t-177.5 -171.5t-244 -59.5t-243.5 59.5t-177 171.5t-66.5 255v948h61v-948q0 -124 58 -221.5t155 -150t213 -52.5t213 52.5t155 150t58 221.5v948h62zM457 1743h467v-55h-467v55z" />
    <glyph glyph-name="umacron" unicode="&#x16b;" horiz-adv-x="1148" 
d="M971 956v-956h-62v211q-26 -81 -84.5 -134.5t-126 -75t-143.5 -21.5q-170 0 -280.5 112.5t-110.5 300.5v563h61v-563q0 -161 93.5 -256.5t236.5 -95.5q71 0 131 20t110 62.5t79.5 115.5t33.5 171v546h62zM354 1288h467v-55h-467v55z" />
    <glyph glyph-name="Ubreve" unicode="&#x16c;" horiz-adv-x="1380" 
d="M1178 1411v-948q0 -143 -66.5 -255t-177.5 -171.5t-244 -59.5t-243.5 59.5t-177 171.5t-66.5 255v948h61v-948q0 -124 58 -221.5t155 -150t213 -52.5t213 52.5t155 150t58 221.5v948h62zM858 1786h55q0 -93 -61.5 -149t-163.5 -56q-111 0 -167 59.5t-56 145.5h55
q0 -63 41.5 -106.5t126.5 -43.5q78 0 124 41t46 109z" />
    <glyph glyph-name="ubreve" unicode="&#x16d;" horiz-adv-x="1148" 
d="M971 956v-956h-62v211q-26 -81 -84.5 -134.5t-126 -75t-143.5 -21.5q-170 0 -280.5 112.5t-110.5 300.5v563h61v-563q0 -161 93.5 -256.5t236.5 -95.5q71 0 131 20t110 62.5t79.5 115.5t33.5 171v546h62zM725 1331h55q0 -93 -61.5 -149t-163.5 -56q-111 0 -167 59.5
t-56 145.5h55q0 -63 41.5 -106t126.5 -43q78 0 124 40.5t46 108.5z" />
    <glyph glyph-name="Uring" unicode="&#x16e;" horiz-adv-x="1380" 
d="M1178 1411v-948q0 -143 -66.5 -255t-177.5 -171.5t-244 -59.5t-243.5 59.5t-177 171.5t-66.5 255v948h61v-948q0 -124 58 -221.5t155 -150t213 -52.5t213 52.5t155 150t58 221.5v948h62zM520 1763q0 72 48.5 122t117.5 50q72 0 122 -50.5t50 -121.5q0 -72 -50 -120
t-122 -48q-70 0 -118 48.5t-48 119.5zM575 1763q0 -47 32 -79.5t79 -32.5q49 0 83 32.5t34 79.5q0 49 -33.5 83t-83.5 34q-47 0 -79 -33.5t-32 -83.5z" />
    <glyph glyph-name="uring" unicode="&#x16f;" horiz-adv-x="1148" 
d="M971 956v-956h-62v211q-26 -81 -84.5 -134.5t-126 -75t-143.5 -21.5q-170 0 -280.5 112.5t-110.5 300.5v563h61v-563q0 -161 93.5 -256.5t236.5 -95.5q71 0 131 20t110 62.5t79.5 115.5t33.5 171v546h62zM391 1309q0 72 48.5 122t117.5 50q72 0 122 -50.5t50 -121.5
q0 -72 -50 -120t-122 -48q-69 0 -117.5 48.5t-48.5 119.5zM446 1309q0 -47 32 -80t79 -33q49 0 83 33t34 80q0 49 -33.5 82.5t-83.5 33.5q-47 0 -79 -33.5t-32 -82.5z" />
    <glyph glyph-name="Uhungarumlaut" unicode="&#x170;" horiz-adv-x="1380" 
d="M1178 1411v-948q0 -143 -66.5 -255t-177.5 -171.5t-244 -59.5t-243.5 59.5t-177 171.5t-66.5 255v948h61v-948q0 -124 58 -221.5t155 -150t213 -52.5t213 52.5t155 150t58 221.5v948h62zM750 1817l-181 -261h-55l162 261h74zM975 1817l-180 -261h-56l162 261h74z" />
    <glyph glyph-name="uhungarumlaut" unicode="&#x171;" horiz-adv-x="1148" 
d="M971 956v-956h-62v211q-26 -81 -84.5 -134.5t-126 -75t-143.5 -21.5q-170 0 -280.5 112.5t-110.5 300.5v563h61v-563q0 -161 93.5 -256.5t236.5 -95.5q71 0 131 20t110 62.5t79.5 115.5t33.5 171v546h62zM631 1362l-180 -260h-56l162 260h74zM856 1362l-180 -260h-55
l161 260h74z" />
    <glyph glyph-name="Uogonek" unicode="&#x172;" horiz-adv-x="1380" 
d="M1178 1411v-948q0 -210 -135 -344t-334 -142l-60 -143q-12 -27 -12 -53q0 -76 78 -113q16 -8 47 -8q73 0 110 78v-2q13 32 13 59h59q0 -37 -16 -80q-31 -72 -99 -100.5t-137 0.5q-73 29 -101 99t3 143l49 123q-190 18 -315 148.5t-125 334.5v948h61v-948
q0 -124 58 -221.5t155 -150t213 -52.5t213 52.5t155 150t58 221.5v948h62z" />
    <glyph glyph-name="uogonek" unicode="&#x173;" horiz-adv-x="1148" 
d="M971 956v-956l-66 -166q-12 -36 -12 -53q0 -76 78 -113q16 -8 47 -8q73 0 110 78v-2q13 33 13 59h59q0 -37 -16 -80q-31 -72 -99 -100.5t-137 0.5q-73 29 -101 99t3 143l59 143v211q-26 -81 -84.5 -134.5t-126 -75t-143.5 -21.5q-170 0 -280.5 112.5t-110.5 300.5v563h61
v-563q0 -161 93.5 -256.5t236.5 -95.5q71 0 131 20t110 62.5t79.5 115.5t33.5 171v546h62z" />
    <glyph glyph-name="Wcircumflex" unicode="&#x174;" horiz-adv-x="1892" 
d="M1759 1411h66l-479 -1411h-70l-330 1104l-330 -1104h-69l-479 1411h63l451 -1327l329 1102h70l328 -1104zM897 1817h98l226 -261h-62l-213 224l-213 -224h-61z" />
    <glyph glyph-name="wcircumflex" unicode="&#x175;" horiz-adv-x="1689" 
d="M1620 956l-360 -956h-64l-354 915l-342 -915h-66l-368 956h65l336 -870l326 870h100l334 -866l327 866h66zM793 1362h98l225 -260h-61l-213 223l-213 -223h-62z" />
    <glyph glyph-name="Ycircumflex" unicode="&#x176;" horiz-adv-x="1214" 
d="M1167 1411l-530 -735v-676h-62v678l-526 733h74l483 -676l488 676h73zM559 1817h98l226 -261h-62l-213 224l-213 -224h-61z" />
    <glyph glyph-name="ycircumflex" unicode="&#x177;" horiz-adv-x="1019" 
d="M549 0l-199 -463h-67l190 453l-410 966h68l377 -893l383 893h67zM463 1362h98l225 -260h-61l-213 223l-213 -223h-61z" />
    <glyph glyph-name="Ydieresis" unicode="&#x178;" horiz-adv-x="1214" 
d="M1167 1411l-530 -735v-676h-62v678l-526 733h74l483 -676l488 676h73zM387 1726q0 26 18.5 43t45.5 17q29 0 47 -17t18 -43q0 -25 -18 -41t-47 -16q-27 0 -45.5 16.5t-18.5 40.5zM700 1726q0 26 18.5 43t45.5 17q29 0 47 -17t18 -43q0 -25 -18 -41t-47 -16
q-27 0 -45.5 16.5t-18.5 40.5z" />
    <glyph glyph-name="Zacute" unicode="&#x179;" horiz-adv-x="1071" 
d="M170 61h819v-61h-907v33l825 1317h-825v61h907v-41zM686 1817l-180 -261h-55l161 261h74z" />
    <glyph glyph-name="zacute" unicode="&#x17a;" horiz-adv-x="956" 
d="M868 0h-780v37l686 858h-686v61h780v-41l-682 -854h682v-61zM625 1362l-181 -260h-55l162 260h74z" />
    <glyph glyph-name="Zdotaccent" unicode="&#x17b;" horiz-adv-x="1071" 
d="M170 61h819v-61h-907v33l825 1317h-825v61h907v-41zM471 1726q0 26 18.5 43t45.5 17q29 0 47 -17t18 -43q0 -25 -18 -41t-47 -16q-27 0 -45.5 16.5t-18.5 40.5z" />
    <glyph glyph-name="zdotaccent" unicode="&#x17c;" horiz-adv-x="956" 
d="M868 0h-780v37l686 858h-686v61h780v-41l-682 -854h682v-61zM414 1272q0 26 18 42.5t45 16.5q29 0 47.5 -16.5t18.5 -42.5q0 -25 -18.5 -41.5t-47.5 -16.5q-26 0 -44.5 16.5t-18.5 41.5z" />
    <glyph glyph-name="Zcaron" unicode="&#x17d;" horiz-adv-x="1071" 
d="M170 61h819v-61h-907v33l825 1317h-825v61h907v-41zM584 1556h-99l-225 261h62l213 -224l213 224h61z" />
    <glyph glyph-name="zcaron" unicode="&#x17e;" horiz-adv-x="956" 
d="M868 0h-780v37l686 858h-686v61h780v-41l-682 -854h682v-61zM528 1102h-98l-225 260h61l213 -223l213 223h62z" />
    <glyph glyph-name="longs" unicode="&#x17f;" horiz-adv-x="538" 
d="M258 901h-197v55h197v162q0 88 16.5 158.5t53 126.5t100 86.5t150.5 30.5h69v-62h-69q-71 0 -122.5 -26t-80.5 -74t-42.5 -107t-13.5 -133v-1118h-61v901z" />
    <glyph glyph-name="florin" unicode="&#x192;" horiz-adv-x="1175" 
d="M678 901l-158 -958q-70 -402 -385 -402h-69l10 62h69q254 0 314 340l157 958h-196l10 55h197l26 162q70 402 385 402h70l-10 -62h-70q-253 0 -313 -340l-27 -162h270l-10 -55h-270z" />
    <glyph glyph-name="Aringacute" unicode="&#x1fa;" horiz-adv-x="1265" 
d="M276 393l-151 -393h-66l541 1411h66l538 -1411h-65l-150 393h-713zM633 1325l-336 -876h672zM805 2060l-143 -205q60 -10 99.5 -57.5t39.5 -109.5q0 -72 -50 -120t-122 -48q-69 0 -117.5 48t-48.5 120q0 65 40 112t101 58l127 202h74zM518 1688q0 -47 32 -80t79 -33
q49 0 82.5 33t33.5 80q0 50 -33.5 83t-82.5 33q-47 0 -79 -33.5t-32 -82.5z" />
    <glyph glyph-name="aringacute" unicode="&#x1fb;" 
d="M1044 0v238q-64 -118 -180.5 -188t-257.5 -70q-135 0 -249.5 66t-181 181t-66.5 252q0 135 66.5 249.5t181 181.5t249.5 67q141 0 257.5 -70t180.5 -188v237h62v-956h-62zM170 479q0 -118 59 -219t159.5 -160t217.5 -59q179 0 304.5 121t133.5 299v18q0 117 -59 217.5
t-160 159.5t-219 59q-117 0 -217.5 -59t-159.5 -159.5t-59 -217.5zM788 1640l-143 -204q60 -10 99.5 -58t39.5 -110q0 -72 -50 -120t-122 -48q-70 0 -118 48t-48 120q0 65 40.5 112t101.5 58l127 202h73zM502 1268q0 -48 31.5 -80.5t78.5 -32.5q49 0 83 33t34 80
q0 49 -33.5 82.5t-83.5 33.5q-47 0 -78.5 -33t-31.5 -83z" />
    <glyph glyph-name="AEacute" unicode="&#x1fc;" horiz-adv-x="1996" 
d="M1092 1350h-91l-585 -889h676v889zM971 1411h887v-61h-705v-627h616v-61h-616v-601h729v-61h-790v399h-715l-262 -399h-74zM1257 1819l-180 -260h-55l162 260h73z" />
    <glyph glyph-name="aeacute" unicode="&#x1fd;" horiz-adv-x="2086" 
d="M170 479q0 -118 59 -219t159.5 -160t217.5 -59q179 0 304.5 121t133.5 299v18q0 117 -59 217.5t-160 159.5t-219 59q-117 0 -217.5 -59t-159.5 -159.5t-59 -217.5zM1106 956v-225q60 117 171 181.5t251 64.5q205 0 336 -136t131 -360v-26h-887q7 -185 128 -299.5
t292 -114.5q115 0 208 51t150 144l53 -33q-67 -105 -174.5 -164t-236.5 -59q-140 0 -251 65t-171 182v-227h-62v238q-64 -118 -180.5 -188t-257.5 -70q-135 0 -249.5 66t-181 181t-66.5 252q0 135 66.5 249.5t181 181.5t249.5 67q141 0 257.5 -70t180.5 -188v237h62z
M1528 915q-173 0 -290.5 -111t-129.5 -294h825q-7 184 -120 294.5t-285 110.5zM1274 1362l-180 -260h-56l162 260h74z" />
    <glyph glyph-name="Oslashacute" unicode="&#x1fe;" horiz-adv-x="1654" 
d="M344 170l-188 -190l-43 43l188 190q-184 210 -184 489q0 197 93.5 363.5t256.5 264t358 97.5q281 0 486 -192l190 192l43 -41l-192 -194q184 -210 184 -490q0 -148 -55.5 -281.5t-150 -230t-226.5 -153.5t-279 -57q-140 0 -263 49t-218 141zM178 702q0 -253 166 -446
l922 934q-186 176 -441 176q-178 0 -327 -89t-234.5 -241.5t-85.5 -333.5zM825 41q134 0 255 52.5t207.5 141t137 210.5t50.5 257q0 258 -166 445l-922 -934q187 -172 438 -172zM1032 1819l-180 -260h-55l161 260h74z" />
    <glyph glyph-name="oslashacute" unicode="&#x1ff;" horiz-adv-x="1216" 
d="M272 100l-118 -120l-43 43l118 118q-120 139 -120 340q0 147 68 261.5t181 174.5t250 60q193 0 334 -119l121 123l43 -41l-121 -123q123 -136 123 -336q0 -147 -68.5 -263t-182 -177t-249.5 -61q-198 0 -336 120zM608 41q185 0 312 121.5t127 318.5q0 171 -107 291
l-625 -629q120 -102 293 -102zM608 915q-120 0 -219.5 -52t-159 -152.5t-59.5 -229.5q0 -178 104 -295l623 629q-127 100 -289 100zM813 1362l-180 -260h-55l161 260h74z" />
    <glyph glyph-name="Scommaaccent" unicode="&#x218;" horiz-adv-x="1144" 
d="M123 340h61q18 -122 122.5 -210.5t256.5 -88.5q89 0 163.5 24.5t123.5 65t79.5 88.5t41.5 100q12 77 -8.5 140t-67.5 106t-107 71.5t-135 45.5l-200 47q-320 67 -320 334q0 105 61.5 189.5t159 129.5t207.5 45q173 0 292.5 -93.5t131.5 -250.5h-61q-12 128 -114.5 205.5
t-248.5 77.5q-94 0 -177.5 -38t-136 -108.5t-52.5 -156.5q0 -213 270 -275l201 -47q69 -15 126.5 -38.5t108 -60.5t82.5 -84t45 -111t2 -140q-13 -61 -47.5 -117.5t-90.5 -104.5t-141.5 -76.5t-187.5 -28.5q-91 0 -170.5 30.5t-135 81.5t-90.5 115t-44 133zM461 -440h-55
q130 137 141 299h67q-22 -194 -153 -299z" />
    <glyph glyph-name="scommaaccent" unicode="&#x219;" horiz-adv-x="858" 
d="M432 977q120 0 200.5 -63.5t90.5 -170.5h-64q-10 78 -72.5 125t-154.5 47t-157.5 -42t-75.5 -113q-5 -44 4.5 -80t26.5 -58.5t44.5 -40.5t51.5 -27t55 -17l141 -33q234 -58 234 -256q0 -122 -88.5 -195t-237.5 -73q-124 0 -219 63t-119 180h62q72 -182 276 -182
q122 0 193 57t71 150q0 149 -184 196l-143 33q-39 10 -69 21t-65 33.5t-57 52t-34 76.5t-5 106q12 96 95.5 153.5t199.5 57.5zM317 -440h-55q130 137 141 299h68q-22 -193 -154 -299z" />
    <glyph glyph-name="circumflex" unicode="&#x2c6;" horiz-adv-x="978" 
d="M440 1362h99l225 -260h-62l-213 223l-213 -223h-61z" />
    <glyph glyph-name="caron" unicode="&#x2c7;" horiz-adv-x="978" 
d="M539 1102h-99l-225 260h61l213 -223l213 223h62z" />
    <glyph glyph-name="breve" unicode="&#x2d8;" horiz-adv-x="1103" 
d="M721 1331h55q0 -93 -61.5 -149t-163.5 -56q-111 0 -167 59.5t-56 145.5h55q0 -63 41.5 -106t126.5 -43q78 0 124 40.5t46 108.5z" />
    <glyph glyph-name="dotaccent" unicode="&#x2d9;" horiz-adv-x="948" 
d="M410 1272q0 26 18 42.5t45 16.5q29 0 47.5 -16.5t18.5 -42.5q0 -25 -18.5 -41.5t-47.5 -16.5q-26 0 -44.5 16.5t-18.5 41.5z" />
    <glyph glyph-name="ring" unicode="&#x2da;" horiz-adv-x="993" 
d="M328 1309q0 72 48.5 122t117.5 50q72 0 122 -50.5t50 -121.5q0 -72 -50 -120t-122 -48q-70 0 -118 48.5t-48 119.5zM383 1309q0 -47 32 -80t79 -33q49 0 82.5 33t33.5 80q0 49 -33 82.5t-83 33.5q-47 0 -79 -33.5t-32 -82.5z" />
    <glyph glyph-name="ogonek" unicode="&#x2db;" horiz-adv-x="1021" 
d="M344 -143l64 153h65l-74 -176q-12 -27 -12 -53q0 -76 78 -113q16 -8 47 -8q74 0 111 78v-2q12 30 12 59h59q0 -37 -16 -80q-31 -72 -99 -100.5t-137 0.5q-73 29 -101 99t3 143z" />
    <glyph glyph-name="tilde" unicode="&#x2dc;" horiz-adv-x="968" 
d="M469 1202q-4 3 -14 11t-14.5 11t-13 8t-14 7t-14 4t-16.5 2q-28 0 -51.5 -22t-24.5 -68h-61q4 74 47 109.5t90 35.5q26 0 50 -9t34 -16t35 -26q46 -39 84 -39q28 0 51.5 22t24.5 68h61q-4 -74 -47 -109.5t-90 -35.5q-26 0 -48.5 7.5t-34.5 15.5t-34 24z" />
    <glyph glyph-name="hungarumlaut" unicode="&#x2dd;" horiz-adv-x="788" 
d="M399 1362l-180 -260h-55l162 260h73zM625 1362l-181 -260h-55l162 260h74z" />
    <glyph glyph-name="Wgrave" unicode="&#x1e80;" horiz-adv-x="1892" 
d="M1759 1411h66l-479 -1411h-76l-324 1104l-323 -1104h-76l-479 1411h63l451 -1327l323 1102h82l322 -1104zM903 1556l-180 261h74l161 -261h-55z" />
    <glyph glyph-name="wgrave" unicode="&#x1e81;" horiz-adv-x="1689" 
d="M1620 956l-360 -956h-64l-354 915l-342 -915h-66l-368 956h65l336 -870l326 870h100l334 -866l327 866h66zM817 1102l-180 260h74l161 -260h-55z" />
    <glyph glyph-name="Wacute" unicode="&#x1e82;" horiz-adv-x="1892" 
d="M1759 1411h66l-479 -1411h-76l-324 1104l-323 -1104h-76l-479 1411h63l451 -1327l323 1102h82l322 -1104zM1149 1817l-180 -261h-56l162 261h74z" />
    <glyph glyph-name="wacute" unicode="&#x1e83;" horiz-adv-x="1689" 
d="M1620 956l-360 -956h-64l-354 915l-342 -915h-66l-368 956h65l336 -870l326 870h100l334 -866l327 866h66zM1040 1362l-180 -260h-55l162 260h73z" />
    <glyph glyph-name="Wdieresis" unicode="&#x1e84;" horiz-adv-x="1892" 
d="M1759 1411h66l-479 -1411h-76l-324 1104l-323 -1104h-76l-479 1411h63l451 -1327l323 1102h82l322 -1104zM725 1726q0 26 18 43t45 17q29 0 47.5 -17t18.5 -43q0 -25 -18.5 -41t-47.5 -16q-27 0 -45 16t-18 41zM1038 1726q0 26 18.5 43t45.5 17q29 0 47 -17t18 -43
q0 -25 -18 -41t-47 -16q-27 0 -45.5 16.5t-18.5 40.5z" />
    <glyph glyph-name="wdieresis" unicode="&#x1e85;" horiz-adv-x="1689" 
d="M1620 956l-360 -956h-64l-354 915l-342 -915h-66l-368 956h65l336 -870l326 870h100l334 -866l327 866h66zM621 1272q0 26 18 42.5t45 16.5q29 0 47.5 -16.5t18.5 -42.5q0 -25 -18.5 -41.5t-47.5 -16.5q-26 0 -44.5 16.5t-18.5 41.5zM934 1272q0 26 18 42.5t45 16.5
q29 0 47.5 -16.5t18.5 -42.5q0 -25 -18.5 -41.5t-47.5 -16.5q-26 0 -44.5 16.5t-18.5 41.5z" />
    <glyph glyph-name="Ygrave" unicode="&#x1ef2;" horiz-adv-x="1214" 
d="M1167 1411l-530 -735v-676h-62v678l-526 733h74l483 -676l488 676h73zM580 1556l-181 261h74l162 -261h-55z" />
    <glyph glyph-name="ygrave" unicode="&#x1ef3;" horiz-adv-x="1019" 
d="M549 0l-199 -463h-67l190 453l-410 966h68l377 -893l383 893h67zM508 1102l-180 260h73l162 -260h-55z" />
    <glyph glyph-name="thinspace" unicode="&#x2009;" horiz-adv-x="28" 
 />
    <glyph glyph-name="endash" unicode="&#x2013;" horiz-adv-x="1210" 
d="M158 483h895v-61h-895v61z" />
    <glyph glyph-name="emdash" unicode="&#x2014;" horiz-adv-x="1622" 
d="M158 483h1306v-61h-1306v61z" />
    <glyph glyph-name="quoteleft" unicode="&#x2018;" horiz-adv-x="438" 
d="M283 1430l47 -19q-125 -176 -117 -391h-61q-4 128 31 223t100 187z" />
    <glyph glyph-name="quoteright" unicode="&#x2019;" horiz-adv-x="440" 
d="M174 1001l-47 19q125 176 117 391h61q1 -129 -33 -225t-98 -185z" />
    <glyph glyph-name="quotesinglbase" unicode="&#x201a;" horiz-adv-x="428" 
d="M121 -176l-47 18q124 174 116 391h62q1 -129 -33 -224t-98 -185z" />
    <glyph glyph-name="quotedblleft" unicode="&#x201c;" horiz-adv-x="630" 
d="M475 1430l47 -19q-124 -174 -116 -391h-62q-4 128 31 223t100 187zM283 1430l47 -19q-125 -176 -117 -391h-61q-4 128 31 223t100 187z" />
    <glyph glyph-name="quotedblright" unicode="&#x201d;" horiz-adv-x="632" 
d="M174 1001l-47 19q125 176 117 391h61q1 -129 -33 -225t-98 -185zM367 1001l-48 19q125 176 117 391h62q1 -129 -33 -225t-98 -185z" />
    <glyph glyph-name="quotedblbase" unicode="&#x201e;" horiz-adv-x="620" 
d="M121 -176l-47 18q124 174 116 391h62q1 -129 -33 -224t-98 -185zM313 -176l-47 18q125 176 117 391h61q1 -129 -33 -224t-98 -185z" />
    <glyph glyph-name="dagger" unicode="&#x2020;" horiz-adv-x="815" 
d="M438 999h277v-61h-277v-1214h-61v1214h-277v61h277v412h61v-412z" />
    <glyph glyph-name="daggerdbl" unicode="&#x2021;" horiz-adv-x="860" 
d="M461 999h276v-61h-276v-686h276v-62h-276v-466h-62v466h-276v62h276v686h-276v61h276v412h62v-412z" />
    <glyph glyph-name="bullet" unicode="&#x2022;" horiz-adv-x="862" 
d="M193 477q0 96 69 160.5t168 64.5t169.5 -64.5t70.5 -160.5t-70.5 -160.5t-169.5 -64.5t-168 64.5t-69 160.5z" />
    <glyph glyph-name="ellipsis" unicode="&#x2026;" horiz-adv-x="1236" 
d="M158 37q0 26 18 42.5t45 16.5q29 0 47.5 -16.5t18.5 -42.5q0 -25 -18.5 -41t-47.5 -16q-27 0 -45 16t-18 41zM553 37q0 26 18 42.5t45 16.5q29 0 47.5 -16.5t18.5 -42.5q0 -25 -18.5 -41t-47.5 -16q-27 0 -45 16t-18 41zM948 37q0 26 18.5 42.5t45.5 16.5q29 0 47 -16.5
t18 -42.5q0 -25 -18 -41t-47 -16q-27 0 -45.5 16.5t-18.5 40.5z" />
    <glyph glyph-name="perthousand" unicode="&#x2030;" horiz-adv-x="1908" 
d="M88 1130q0 103 71 175.5t175 72.5q103 0 175.5 -72.5t72.5 -175.5q0 -104 -72.5 -174.5t-175.5 -70.5q-104 0 -175 70.5t-71 174.5zM1020 1360l-660 -1360h-69l663 1360h66zM150 1130q0 -78 53 -131t131 -53t132 53t54 131t-54 132.5t-132 54.5t-131 -54.5t-53 -132.5z
M762 227q0 103 71 175.5t175 72.5q103 0 175 -72.5t72 -175.5q0 -104 -72 -174.5t-175 -70.5q-104 0 -175 70.5t-71 174.5zM823 227q0 -78 53.5 -131t131.5 -53t132 53t54 131t-54 132.5t-132 54.5t-131.5 -54.5t-53.5 -132.5zM1339 227q0 103 71 175.5t175 72.5
q103 0 175.5 -72.5t72.5 -175.5q0 -104 -72.5 -174.5t-175.5 -70.5q-104 0 -175 70.5t-71 174.5zM1401 227q0 -78 53 -131t131 -53t132.5 53t54.5 131t-54.5 132.5t-132.5 54.5t-131 -54.5t-53 -132.5z" />
    <glyph glyph-name="guilsinglleft" unicode="&#x2039;" horiz-adv-x="589" 
d="M186 475l285 -424h-76l-282 424l282 424h74z" />
    <glyph glyph-name="guilsinglright" unicode="&#x203a;" horiz-adv-x="589" 
d="M119 51l284 424l-282 424h74l282 -424l-282 -424h-76z" />
    <glyph glyph-name="fraction" unicode="&#x2044;" horiz-adv-x="368" 
d="M674 1378l-918 -1398h-73l917 1398h74z" />
    <glyph glyph-name="zerosuperior" unicode="&#x2070;" horiz-adv-x="727" 
d="M92 1360q0 71 7.5 128t26.5 109.5t49 88t78.5 56.5t111.5 21q78 0 132 -30.5t83 -88.5t41 -126t12 -158t-12 -158.5t-41 -126t-83 -88.5t-132 -31q-79 0 -134 31t-84.5 88.5t-42 126.5t-12.5 158zM154 1360q0 -76 9.5 -133.5t32 -107t65 -75.5t104.5 -26q48 0 85 18
t59.5 48t36.5 75t19.5 93t5.5 108t-5.5 108t-19.5 93t-36.5 75t-59.5 48t-85 18q-62 0 -104.5 -26t-65 -75.5t-32 -107t-9.5 -133.5z" />
    <glyph glyph-name="foursuperior" unicode="&#x2074;" horiz-adv-x="722" 
d="M473 1661l-315 -461h315v461zM662 1143h-127v-176h-62v176h-428l444 641h46v-584h127v-57z" />
    <glyph glyph-name="fivesuperior" unicode="&#x2075;" horiz-adv-x="696" 
d="M565 1720h-338l-55 -299q111 52 184 52q107 0 186 -68.5t79 -185.5q0 -119 -77 -191t-210 -72q-79 0 -154 46t-112 116l53 37q29 -60 88 -97.5t125 -37.5q106 0 164.5 55.5t58.5 143.5t-62.5 139t-138.5 51q-60 0 -103.5 -12.5t-125.5 -48.5l-23 30l70 406h391v-64z" />
    <glyph glyph-name="sixsuperior" unicode="&#x2076;" horiz-adv-x="692" 
d="M98 1225q-7 62 -5 129t7 131t25.5 121t50.5 100t82 67t121 23q153 -3 213 -139l-55 -25q-46 100 -160 103q-56 2 -98 -21.5t-65.5 -61t-37 -91t-17 -103.5t-1.5 -106q24 62 84.5 95t126.5 28q107 -4 177.5 -83t65.5 -188q-8 -107 -83 -179.5t-181 -68.5
q-106 5 -174.5 76.5t-75.5 192.5zM160 1225q0 -86 54.5 -144t135.5 -63q81 -4 138.5 51.5t62.5 138.5q4 85 -48.5 142.5t-135.5 62.5q-82 5 -142.5 -50t-64.5 -138z" />
    <glyph glyph-name="sevensuperior" unicode="&#x2077;" horiz-adv-x="634" 
d="M156 967h-74l418 755h-422v62h526z" />
    <glyph glyph-name="eightsuperior" unicode="&#x2078;" horiz-adv-x="708" 
d="M211 1602q0 -57 38 -96.5t97 -39.5h14q59 0 99.5 40t40.5 96t-42.5 94.5t-103.5 38.5t-102 -38.5t-41 -94.5zM143 1212q0 -82 60 -138t151 -56q90 0 150.5 56t60.5 138q0 81 -60.5 140t-148.5 59q-89 0 -151 -59.5t-62 -139.5zM150 1602q0 82 58.5 138t145.5 56
q88 0 147.5 -56t59.5 -138q0 -103 -90 -160q70 -30 113 -91.5t43 -138.5q0 -108 -78.5 -182t-194.5 -74t-194 74t-78 182q0 77 42 139t112 93q-86 52 -86 158z" />
    <glyph glyph-name="ninesuperior" unicode="&#x2079;" horiz-adv-x="692" 
d="M594 1526q7 -62 5 -128.5t-7 -130.5t-25.5 -121t-50.5 -100t-82 -67t-121 -23q-158 4 -217 140l56 22q44 -96 163 -100q69 -2 116.5 32t69 94t29.5 121.5t5 133.5q-24 -62 -84.5 -95t-126.5 -28q-107 4 -178 83.5t-66 186.5q4 110 81 181.5t183 66.5t174.5 -76t75.5 -192
zM532 1528q0 86 -54.5 143t-135.5 62q-82 4 -138 -51t-61 -138q-4 -85 48 -142.5t135 -62.5q82 -5 142 50t64 139z" />
    <glyph glyph-name="zeroinferior" unicode="&#x2080;" horiz-adv-x="727" 
d="M92 14q0 89 12.5 158t42 126.5t84.5 88.5t134 31q78 0 132 -31t83 -88.5t41 -126t12 -158.5t-12 -158t-41 -126t-83 -88.5t-132 -30.5q-63 0 -111.5 21t-78.5 56.5t-49 88t-26.5 109.5t-7.5 128zM154 14q0 -76 9.5 -133.5t32 -107t65 -75.5t104.5 -26q48 0 85 18t59.5 48
t36.5 75t19.5 93t5.5 108t-5.5 108t-19.5 93t-36.5 75t-59.5 48t-85 18q-62 0 -104.5 -26t-65 -75.5t-32 -107t-9.5 -133.5z" />
    <glyph glyph-name="oneinferior" unicode="&#x2081;" horiz-adv-x="382" 
d="M260 -379h-61v727l-142 -49v61l203 74v-813z" />
    <glyph glyph-name="twoinferior" unicode="&#x2082;" horiz-adv-x="647" 
d="M559 -317v-62h-479v23l342 409q74 88 74 166q0 74 -52 121t-131 47q-67 0 -118.5 -36.5t-63.5 -96.5l-57 16q17 82 82.5 130.5t156.5 48.5q105 0 174.5 -64t69.5 -166q0 -103 -90 -207l-279 -329h371z" />
    <glyph glyph-name="threeinferior" unicode="&#x2083;" horiz-adv-x="663" 
d="M483 225q5 66 -36 111t-123 51q-54 5 -104 -19t-73 -65l-51 31q33 56 96 87.5t136 27.5q112 -7 169.5 -73.5t49.5 -158.5q-4 -49 -35.5 -91t-81.5 -65q68 -17 110.5 -85.5t37.5 -141.5q-7 -101 -89 -166t-192 -57q-81 5 -134 35.5t-93 103.5l49 33q52 -101 182 -111
q87 -4 147 44t68 128q0 80 -54 132.5t-132 52.5h-80v59h80q58 0 103.5 39t49.5 98z" />
    <glyph glyph-name="fourinferior" unicode="&#x2084;" horiz-adv-x="720" 
d="M473 315l-315 -460h315v460zM662 -203h-127v-176h-62v176h-428l444 641h46v-583h127v-58z" />
    <glyph glyph-name="fiveinferior" unicode="&#x2085;" horiz-adv-x="692" 
d="M565 375h-338l-55 -299q109 51 184 51q107 0 186 -68.5t79 -185.5q0 -119 -77 -190.5t-210 -71.5q-79 0 -154 46t-112 116l53 37q29 -60 88 -98t125 -38q106 0 164.5 55.5t58.5 143.5t-62.5 139t-138.5 51q-60 0 -103.5 -12.5t-125.5 -48.5l-23 31l70 405h391v-63z" />
    <glyph glyph-name="sixinferior" unicode="&#x2086;" horiz-adv-x="690" 
d="M98 -121q-7 62 -5 129t7 131t25.5 121.5t50.5 100t82 67t121 23.5q152 -3 213 -140l-55 -24q-45 99 -160 102q-56 2 -98 -21.5t-65.5 -61t-37 -91t-17 -103.5t-1.5 -106q24 62 84.5 95t126.5 28q107 -4 177.5 -82.5t65.5 -187.5q-8 -107 -83 -179.5t-181 -68.5
q-106 5 -174.5 76t-75.5 192zM160 -121q0 -86 54.5 -144t135.5 -63q81 -4 138.5 52t62.5 139q4 85 -48.5 142.5t-135.5 62.5q-82 4 -142 -51t-65 -138z" />
    <glyph glyph-name="seveninferior" unicode="&#x2087;" horiz-adv-x="624" 
d="M152 -379h-74l418 756h-422v61h526z" />
    <glyph glyph-name="eightinferior" unicode="&#x2088;" horiz-adv-x="708" 
d="M211 256q0 -57 38 -96t97 -39h14q59 0 99.5 39.5t40.5 95.5t-42.5 94.5t-103.5 38.5t-102 -38.5t-41 -94.5zM143 -133q0 -83 60 -139t151 -56q90 0 150.5 56.5t60.5 138.5q0 81 -60.5 140t-148.5 59q-89 0 -151 -59.5t-62 -139.5zM150 256q0 82 58.5 138.5t145.5 56.5
q88 0 147.5 -56.5t59.5 -138.5q0 -103 -90 -160q70 -30 113 -91t43 -138q0 -108 -78.5 -182t-194.5 -74t-194 74t-78 182q0 77 42 138.5t112 92.5q-86 52 -86 158z" />
    <glyph glyph-name="nineinferior" unicode="&#x2089;" horiz-adv-x="696" 
d="M596 180q7 -62 5 -128.5t-7 -130.5t-25.5 -121t-50.5 -99.5t-82 -66.5t-121 -23q-159 4 -217 139l56 23q45 -97 163 -101q69 -2 116.5 32t69 94t29.5 121.5t5 133.5q-24 -62 -84.5 -95t-126.5 -28q-106 4 -177.5 84t-66.5 187q4 110 81 181.5t183 66.5t174.5 -76.5
t75.5 -192.5zM535 182q0 86 -55 143t-136 62q-82 4 -138 -50.5t-61 -137.5q-4 -85 48 -142.5t135 -62.5q82 -5 142.5 49.5t64.5 138.5z" />
    <glyph glyph-name="colonmonetary" unicode="&#x20a1;" horiz-adv-x="1382" 
d="M561 25l-80 -213l-59 22l82 217q-67 30 -146 96l-102 -274l-59 23l112 301q-94 100 -145 229.5t-51 275.5q0 191 86 354t237.5 262t333.5 107l76 199l59 -22l-65 -175q88 -6 168 -30l63 166l59 -23l-61 -166q115 -49 197 -123l-41 -45q-86 73 -178 111l-465 -1235
q109 -41 225 -41q234 0 416 158l41 -45q-196 -174 -457 -174q-130 0 -246 45zM174 702q0 -255 160 -442l414 1102q-121 -12 -227 -68.5t-182.5 -143t-120.5 -203.5t-44 -245zM817 1366l-434 -1157q67 -61 141 -100l463 1230q-92 24 -170 27z" />
    <glyph glyph-name="lira" unicode="&#x20a4;" horiz-adv-x="1300" 
d="M317 690h-174v58h174v315q0 110 57.5 198t148 133.5t194.5 45.5q153 0 260 -92t119 -244h-62q-12 125 -101.5 199.5t-215.5 74.5q-87 0 -163.5 -38.5t-125.5 -111.5t-49 -165v-315h248v-58h-248v-176h248v-57h-248v-396h659q37 0 61.5 27t24.5 68v88h62v-88
q0 -66 -43 -111t-105 -45h-932v61h211v396h-174v57h174v176z" />
    <glyph glyph-name="uni20A6" unicode="&#x20a6;" horiz-adv-x="1468" 
d="M1214 885h129v-62h-129v-196h129v-62h-129v-565h-73l-359 565h-475v-565h-61v565h-121v62h121v196h-121v62h121v526h73l330 -526h504v526h61v-526zM688 823l125 -196h340v196h-465zM307 823v-196h436l-122 196h-314zM852 565l301 -479v479h-301zM307 1319v-434h275z" />
    <glyph glyph-name="peseta" unicode="&#x20a7;" horiz-adv-x="1470" 
d="M1171 1149h191v-62h-178q8 -36 8 -92q0 -43 -6 -84h176v-61h-188q-80 -268 -373 -268h-473v-582h-62v850h-143v61h143v176h-143v62h143v262h545q146 0 235.5 -72t124.5 -190zM328 643h473q240 0 307 207h-780v-207zM811 1350h-483v-201h778q-33 91 -106.5 146t-188.5 55z
M1130 995q0 51 -8 92h-794v-176h794q8 36 8 84z" />
    <glyph glyph-name="rupee" unicode="&#x20a8;" horiz-adv-x="1351" 
d="M172 582v61h506q87 0 153 29t103.5 80t55.5 111.5t18 131.5q0 19 -2 33h-834v62h827q-22 115 -99.5 187.5t-211.5 72.5h-516v61h516h21h538v-61h-338q125 -84 152 -260h186v-62h-180q2 -14 2 -33q0 -83 -21.5 -154.5t-66 -130.5t-122 -93.5t-181.5 -34.5h-55l411 -582
h-73l-414 582h-375z" />
    <glyph glyph-name="uni20A9" unicode="&#x20a9;" horiz-adv-x="2031" 
d="M1698 838h196v-62h-217l-71 -211h288v-61h-309l-170 -504h-76l-147 504h-352l-148 -504h-76l-172 504h-309v61h289l-72 211h-217v62h197l-195 573h64l194 -573h477l103 348h82l100 -348h477l195 573h65zM416 776l71 -211h306l61 211h-438zM1176 776l61 -211h305l72 211
h-438zM1255 504l123 -422l144 422h-267zM508 504l143 -420l123 420h-266zM920 776l-62 -211h316l-62 211h-192zM1016 1104l-78 -266h156z" />
    <glyph glyph-name="afii57636" unicode="&#x20aa;" horiz-adv-x="1525" 
d="M281 1032v-1032h-62v1094h336q185 0 299.5 -116t114.5 -286v-311h-62v311q0 145 -97 242.5t-255 97.5h-274zM1245 61v1033h62v-1094h-336q-185 0 -299.5 115.5t-114.5 285.5v312h61v-312q0 -144 97.5 -242t255.5 -98h274z" />
    <glyph glyph-name="Euro" unicode="&#x20ac;" horiz-adv-x="1611" 
d="M1026 774h-913v57h202q42 257 235 426.5t449 169.5q260 0 459 -176l-41 -45q-184 160 -418 160q-230 0 -406 -153t-216 -382h649v-57zM113 637h913v-57h-649q42 -233 216 -386t406 -153q234 0 416 158l41 -45q-196 -174 -457 -174q-128 0 -245 46t-206.5 125.5
t-151 190.5t-81.5 238h-202v57z" />
    <glyph glyph-name="uni2113" unicode="&#x2113;" horiz-adv-x="763" 
d="M416 61h180v-61h-180q-71 0 -120.5 23t-77 65.5t-39 94.5t-11.5 120v864q0 68 11.5 119.5t39 94t77 65t120.5 22.5q127 0 184 -81.5t57 -219.5v-417q0 -139 -57 -221.5t-184 -82.5h-187v-143q0 -114 42 -178t145 -64zM229 508h187q94 0 137 65.5t43 176.5v417
q0 111 -43 176.5t-137 65.5q-103 0 -145 -64t-42 -178v-659z" />
    <glyph glyph-name="afii61352" unicode="&#x2116;" horiz-adv-x="1961" 
d="M1395 1198q0 97 67 163t162 66q98 0 163.5 -65.5t65.5 -163.5q0 -95 -66 -162t-163 -67q-94 0 -161.5 67.5t-67.5 161.5zM1186 1411v-1411h-74l-833 1319v-1319h-62v1411h74l833 -1325v1325h62zM1456 1198q0 -69 49.5 -118.5t118.5 -49.5q71 0 119.5 49t48.5 119
q0 72 -48 120t-120 48q-70 0 -119 -48.5t-49 -119.5zM1845 827h-440v56h440v-56z" />
    <glyph glyph-name="trademark" unicode="&#x2122;" horiz-adv-x="1775" 
d="M715 606h-62l97 744h-299v-744h-62v744h-258v61h664l342 -657l342 657h37l102 -805h-59l-86 682l-314 -612h-45l-315 612z" />
    <glyph glyph-name="estimated" unicode="&#x212e;" horiz-adv-x="1374" 
d="M1264 571h-879v-395q138 -129 311 -129q82 0 149 20t118 59t87.5 80.5t75.5 100.5l64 -39q-46 -69 -89 -116.5t-101.5 -89t-134 -62t-169.5 -20.5q-122 0 -227 47.5t-176.5 128t-111.5 189t-40 228.5q0 164 67 298t197 215t300 81q169 0 298 -82.5t195 -217t66 -296.5z
M1018 639v334q-60 55 -143.5 91t-169.5 36q-196 0 -320 -127v-334h633z" />
    <glyph glyph-name="minus" unicode="&#x2212;" horiz-adv-x="1173" 
d="M166 569h842v-61h-842v61z" />
    <glyph glyph-name="notequal" unicode="&#x2260;" horiz-adv-x="1243" 
d="M1077 254h-635l-170 -221h-73l170 221h-205v61h252l286 375h-538v62h586l157 204h74l-158 -204h254v-62h-301l-287 -375h588v-61z" />
    <glyph glyph-name="lessequal" unicode="&#x2264;" horiz-adv-x="1343" 
d="M217 618l969 -368v-66l-1043 400v73l1043 400v-66zM162 61h1024v-61h-1024v61z" />
    <glyph glyph-name="greaterequal" unicode="&#x2265;" horiz-adv-x="1343" 
d="M158 250l968 368l-968 373v66l1042 -400v-73l-1042 -400v66zM158 61h1024v-61h-1024v61z" />
    <glyph glyph-name="commaaccent" unicode="&#xf6c3;" horiz-adv-x="495" 
d="M199 -440h-56q131 138 142 299h67q-22 -194 -153 -299z" />
    <glyph glyph-name="rupiah" unicode="&#xf6dd;" horiz-adv-x="2328" 
d="M223 582v-582h-61v1411h516q100 0 175.5 -34.5t119 -94t65 -132t21.5 -155.5t-21.5 -154.5t-66 -130.5t-122 -93.5t-181.5 -34.5h-56l412 -582h-74l-413 582h-314zM678 1350h-455v-707h445q70 0 126.5 19.5t94 52.5t62.5 78.5t35.5 95.5t10.5 106q0 70 -18 131.5
t-54.5 113t-100 81t-146.5 29.5zM1317 956v-237q64 118 180.5 188t257.5 70q135 0 249.5 -66.5t181.5 -181.5t67 -252q0 -135 -67 -249.5t-181.5 -181t-249.5 -66.5q-141 0 -257.5 70t-180.5 188v-701h-62v1419h62zM2191 477q0 118 -59 219t-159.5 160t-217.5 59
q-177 0 -305.5 -122.5t-132.5 -296.5v-19q0 -117 59 -217.5t160 -159.5t219 -59q117 0 217.5 59t159.5 159.5t59 217.5z" />
    <glyph glyph-name="apple" unicode="&#xf8ff;" horiz-adv-x="1734" 
d="M1571 1407v-1407h-1407v1407h1407zM336 1219v-773h166l-152 154v365l522 -519l525 519v-365l-152 -154h172v773l-545 -539zM367 270h-31v-108h18v76l27 -76h20l23 76v-76h18v108h-28l-19 -73zM508 270q-25 0 -38 -15t-13 -40q0 -22 13 -37.5t38 -15.5q22 0 34.5 15.5
t12.5 37.5q0 24 -12.5 39.5t-34.5 15.5zM508 182q-16 0 -25.5 10.5t-9.5 22.5t9.5 23.5t25.5 11.5q12 0 18 -11t6 -24q0 -33 -24 -33zM582 203h-27q0 -20 12.5 -30.5t32.5 -10.5q25 0 35 8.5t10 26.5q0 22 -31 28l-10 2l-7.5 1.5t-5.5 1.5l-4.5 1.5t-2.5 1.5t-1.5 2t-0.5 3
q0 12 18 12q21 0 21 -12h18q0 32 -39 32q-15 0 -27 -8t-12 -24q0 -11 8 -17t25 -14q27 0 27 -10t-4.5 -12.5t-16.5 -2.5q-18 0 -18 21zM645 250h35v-88h16v88h31v20h-82v-20zM772 270h-18l-45 -108h24l8 26h45l7 -26h22zM766 244l14 -37h-32l12 37h6zM872 270h-57v-108h19
v45h26q19 0 19 -19v-26h26q-6 6 -6 26q0 19 -14 27q10 4 12 8t2 15q0 32 -27 32zM860 221h-26v29h26q19 0 19 -12q0 -17 -19 -17zM954 270h-41v-108h41q24 0 38 16.5t14 42.5q0 49 -52 49zM954 182h-16v68h8q22 0 28.5 -8t6.5 -27q0 -13 -8 -23t-19 -10zM1087 270h-75v-108
h82v20h-58v25h51v18h-51v25h51v20zM1112 203h-18q0 -41 45 -41q20 0 32.5 9t12.5 26q0 22 -31 28q-5 1 -10.5 2t-8.5 1.5t-6 1.5l-4.5 1.5t-3 1.5t-2 2t-0.5 3q0 12 15 12h5.5h5.5t4 -0.5t4 -1t2.5 -2t2 -3.5t0.5 -5h21q0 32 -39 32q-45 0 -45 -32q0 -11 9.5 -17.5
t29.5 -13.5q24 0 24 -10q0 -15 -18 -15q-27 0 -27 21zM1206 270h-14v-108h14v108zM1296 176l9 -14h12v59h-45v-18h24q-9 -21 -24 -21q-16 0 -24.5 10.5t-8.5 22.5t8.5 23.5t24.5 11.5q6 0 12 -6t6 -15h27q-8 41 -45 41q-24 0 -37.5 -15.5t-13.5 -39.5q0 -22 13.5 -37.5
t37.5 -15.5q18 0 24 14zM1346 270h-17v-108h17v67l45 -67h26v108h-26v-67z" />
    <glyph glyph-name="CR" horiz-adv-x="561" 
 />
    <glyph glyph-name="published" horiz-adv-x="1685" 
d="M127 702q0 147 56 281t151.5 231.5t228 155t279.5 57.5t280 -57.5t228.5 -155t152 -231.5t56.5 -281q0 -148 -56.5 -281.5t-152 -230t-228.5 -153.5t-280 -57t-279.5 57t-228 153.5t-151.5 230t-56 281.5zM188 702q0 -135 51.5 -257t138.5 -210.5t208.5 -141t255.5 -52.5
q179 0 330 88.5t238 240.5t87 332q0 181 -87 333.5t-238 241.5t-330 89t-330 -89t-237.5 -241.5t-86.5 -333.5zM700 598v-260h-61v737h270q113 0 167 -69t54 -170q0 -46 -11 -85.5t-35.5 -75t-70.5 -56.5t-108 -21h-205zM700 1014v-355h205q84 0 124 50.5t40 126.5
q0 75 -39 126.5t-121 51.5h-209z" />
    <glyph glyph-name="frenchfranc" horiz-adv-x="1417" 
d="M279 803h567v-219q63 239 342 239q76 0 133 -18l-18 -60q-57 17 -115 17q-68 0 -122 -16.5t-90.5 -47.5t-61.5 -69.5t-39 -89t-20.5 -98.5t-8.5 -105v-336h-62v741h-505v-741h-62v1411h756v-61h-694v-547z" />
    <glyph glyph-name="parenleft.case" horiz-adv-x="686" 
d="M121 698q0 433 131 682.5t356 270.5v-62q-193 -15 -311 -248q-115 -233 -115 -643q0 -412 115 -645q117 -231 311 -246v-61q-224 17 -355.5 268t-131.5 684z" />
    <glyph glyph-name="parenright.case" horiz-adv-x="686" 
d="M565 698q0 -433 -131.5 -684t-355.5 -268v61q195 15 309 246q117 231 117 645q0 412 -117 643q-115 233 -309 248v62q225 -21 356 -270.5t131 -682.5z" />
    <glyph glyph-name="hyphen.case" horiz-adv-x="972" 
d="M158 717h657v-62h-657v62z" />
    <glyph glyph-name="at.case" horiz-adv-x="2058" 
d="M1087 -236h-69q-250 0 -457.5 122.5t-326.5 332.5t-119 461t119.5 462.5t328.5 335.5t459 124q188 0 362 -67.5t303 -183t206 -281t77 -351.5q0 -76 -11 -152.5t-38.5 -154.5t-68 -137t-105 -96.5t-143.5 -37.5q-53 0 -98 13t-84 41.5t-61 81.5t-22 126v289
q0 141 -99.5 240.5t-240.5 99.5t-240.5 -99.5t-99.5 -240.5t99.5 -240.5t240.5 -99.5q50 0 106 17t93 47v-68q-89 -57 -199 -57q-164 0 -282.5 118.5t-118.5 282.5q0 168 118 285t283 117t283.5 -117t118.5 -285v-289q0 -55 17 -95.5t46.5 -62.5t64 -32t75.5 -10
q66 0 119.5 33.5t87 86t56.5 122t32.5 138t9.5 136.5q0 174 -72 328t-192.5 261.5t-283 169.5t-339.5 62q-175 0 -332 -68t-269.5 -183.5t-178.5 -274.5t-66 -334t65.5 -332.5t177 -272t268 -182t331.5 -67.5h69v-62z" />
    <glyph glyph-name="bracketleft.case" horiz-adv-x="559" 
d="M197 -238v1874h272v-61h-211v-1751h211v-62h-272z" />
    <glyph glyph-name="bracketright.case" horiz-adv-x="559" 
d="M362 1636v-1874h-272v62h211v1751h-211v61h272z" />
    <glyph glyph-name="braceleft.case" horiz-adv-x="731" 
d="M647 -238h-45q-158 0 -266.5 103.5t-108.5 269.5v361q0 63 -38.5 114t-98.5 68v53q60 17 98.5 68t38.5 114v367q0 110 52 196.5t137 131.5t186 45h45v-62h-45q-132 0 -222.5 -86t-90.5 -225v-367q0 -65 -30.5 -120t-82.5 -91q49 -37 81 -92.5t32 -113.5v-361
q0 -139 90.5 -225t222.5 -86h45v-62z" />
    <glyph glyph-name="braceright.case" horiz-adv-x="731" 
d="M129 -238h-45v62h45q132 0 222.5 86t90.5 225v361q0 58 32 113.5t81 92.5q-52 36 -82.5 91t-30.5 120v367q0 139 -90.5 225t-222.5 86h-45v62h45q101 0 186 -45t137 -131.5t52 -196.5v-367q0 -63 38.5 -114t98.5 -68v-53q-60 -17 -98.5 -68t-38.5 -114v-361
q0 -166 -108.5 -269.5t-266.5 -103.5z" />
    <glyph glyph-name="exclamdown.case" horiz-adv-x="477" 
d="M268 0h-61v1102h61v-1102zM174 1370q0 24 18.5 40.5t45.5 16.5q29 0 47 -16t18 -41q0 -26 -18 -42.5t-47 -16.5q-27 0 -45.5 16.5t-18.5 42.5z" />
    <glyph glyph-name="guillemotleft.case" horiz-adv-x="872" 
d="M207 700l285 -424h-76l-283 424l283 424h73zM438 700l285 -424h-76l-282 424l282 424h74z" />
    <glyph glyph-name="periodcentered.case" horiz-adv-x="444" 
d="M158 705q0 26 18 42.5t45 16.5q29 0 47.5 -16.5t18.5 -42.5q0 -25 -18.5 -41.5t-47.5 -16.5q-26 0 -44.5 16.5t-18.5 41.5z" />
    <glyph glyph-name="guillemotright.case" horiz-adv-x="872" 
d="M381 276l285 424l-283 424h74l282 -424l-282 -424h-76zM150 276l284 424l-282 424h73l283 -424l-283 -424h-75z" />
    <glyph glyph-name="questiondown.case" horiz-adv-x="964" 
d="M807 322l61 -7q-12 -151 -120.5 -243t-258.5 -92q-163 0 -281 105t-118 271q0 135 79 231.5t200 135.5q56 17 88.5 32t65.5 41t48 66.5t15 98.5v145h61v-145q0 -74 -18 -125.5t-56.5 -84t-79.5 -51t-106 -36.5q-103 -34 -169 -114.5t-66 -193.5q0 -138 100 -226.5
t237 -88.5q127 0 216.5 76.5t101.5 204.5zM680 1370q0 -26 -18.5 -42.5t-45.5 -16.5q-29 0 -47 16.5t-18 42.5q0 25 18 41t47 16q27 0 45.5 -16.5t18.5 -40.5z" />
    <glyph glyph-name="endash.case" horiz-adv-x="1210" 
d="M158 709h895v-62h-895v62z" />
    <glyph glyph-name="emdash.case" horiz-adv-x="1622" 
d="M158 709h1306v-62h-1306v62z" />
    <glyph glyph-name="bullet.case" horiz-adv-x="854" 
d="M188 702q0 96 69.5 161t168.5 65t169.5 -65t70.5 -161t-70.5 -160.5t-169.5 -64.5t-168.5 64.5t-69.5 160.5z" />
    <glyph glyph-name="guilsinglleft.case" horiz-adv-x="641" 
d="M207 700l285 -424h-76l-283 424l283 424h73z" />
    <glyph glyph-name="guilsinglright.case" horiz-adv-x="641" 
d="M150 276l284 424l-282 424h73l283 -424l-283 -424h-75z" />
    <glyph glyph-name="cent.case" horiz-adv-x="1069" 
d="M621 211v-211h-62v213q-190 18 -316 155t-126 345q0 206 125 339t317 154v205h62v-203q157 -3 305 -102l-35 -49q-124 90 -277 90q-183 0 -309.5 -120.5t-126.5 -313.5q0 -195 126.5 -318t309.5 -123q151 0 277 90l37 -49q-132 -99 -307 -102z" />
    <glyph glyph-name="zero.tnum" horiz-adv-x="1187" 
d="M121 678q0 123 12.5 222.5t45.5 191t85.5 153t136 97.5t193.5 36t193 -36t135 -97.5t84 -153t44.5 -190.5t12.5 -223q0 -122 -12.5 -221t-44.5 -190.5t-84 -152.5t-135 -97.5t-193 -36.5t-193.5 36.5t-136 98t-85.5 152.5t-45.5 190t-12.5 221zM182 678q0 -111 11 -201.5
t39.5 -173.5t74.5 -139t118.5 -89.5t168.5 -33.5t168 33.5t117 89.5t73 139.5t38.5 173.5t10.5 201q0 113 -10.5 203t-38.5 174t-73 140t-117 89t-168 33t-168.5 -33t-118.5 -89t-74.5 -139.5t-39.5 -174.5t-11 -203z" />
    <glyph glyph-name="one.tnum" horiz-adv-x="1187" 
d="M618 0v1262l-243 -91v66l305 113v-1350h-62z" />
    <glyph glyph-name="two.tnum" horiz-adv-x="1187" 
d="M979 0h-780v23l575 679q133 150 133 304q0 138 -91 224.5t-232 86.5q-120 0 -209.5 -60t-118.5 -163l-59 16q35 124 140 196t247 72q167 0 276 -104.5t109 -267.5q0 -174 -148 -342l-510 -603h668v-61z" />
    <glyph glyph-name="three.tnum" horiz-adv-x="1187" 
d="M903 997q13 124 -70.5 217t-236.5 105q-95 7 -189.5 -41t-136.5 -123l-53 31q54 95 157.5 147t225.5 45q186 -12 284.5 -122.5t80.5 -262.5q-6 -82 -59 -153.5t-134 -106.5q77 -19 136.5 -79.5t88 -139.5t23.5 -158q-11 -111 -80 -199.5t-177.5 -135.5t-230.5 -39
q-132 10 -234.5 78t-150.5 173l9 5q13 4 18 8l29 12q42 -89 130.5 -147t203.5 -68q167 -7 284 81.5t137 237.5q0 158 -93 247t-224 89h-137v62h137q90 0 170.5 66.5t91.5 170.5z" />
    <glyph glyph-name="four.tnum" horiz-adv-x="1187" 
d="M860 297v-297h-61v297h-715l733 1063h43v-1002h217v-61h-217zM197 358h602v881z" />
    <glyph glyph-name="five.tnum" horiz-adv-x="1187" 
d="M371 1298l-103 -561q100 45 175.5 64.5t168.5 19.5q77 0 152 -27t137 -76.5t100.5 -129.5t38.5 -176q0 -186 -124.5 -307t-340.5 -121q-122 0 -245 73.5t-185 180.5l54 30q54 -96 161 -159.5t215 -63.5q188 0 296 104t108 263q0 82 -33 149.5t-86.5 110t-117.5 65.5
t-130 23q-102 0 -183 -22t-204 -79l-24 33l118 668h629v-62h-577z" />
    <glyph glyph-name="six.tnum" horiz-adv-x="1187" 
d="M193 416q-7 89 -9.5 159.5t1 175t18 184.5t47 167.5t82.5 144.5t130 94t183 37q248 0 354 -235l-55 -25q-89 199 -301 199q-78 0 -140 -24.5t-103 -62t-70.5 -97t-45.5 -115.5t-25 -132t-11 -132t-2 -129v-54q39 128 149 193.5t240 60.5q116 -5 207.5 -63.5t141 -157.5
t46.5 -221q-8 -177 -130.5 -292t-299.5 -111q-169 4 -279.5 124t-127.5 312zM254 418q0 -160 99.5 -266t248.5 -111q150 -4 254.5 94.5t112.5 251.5q5 157 -89.5 263.5t-246.5 113.5q-100 3 -185.5 -40t-138 -124t-55.5 -182z" />
    <glyph glyph-name="seven.tnum" horiz-adv-x="1187" 
d="M233 0l717 1298h-743v62h846l-750 -1360h-70z" />
    <glyph glyph-name="eight.tnum" horiz-adv-x="1187" 
d="M264 1067q0 130 94 220.5t234 90.5q142 0 239 -90.5t97 -220.5q0 -92 -50 -166t-135 -113q134 -46 215.5 -151t81.5 -238q0 -177 -129 -298t-319 -121t-317.5 120.5t-127.5 298.5q0 135 79.5 241t211.5 151q-80 37 -127 110.5t-47 165.5zM209 399q0 -153 109 -255.5
t274 -102.5q164 0 275.5 103t111.5 255q0 93 -49.5 174.5t-136.5 131.5t-191 53h-27q-102 -3 -186.5 -53t-132 -131.5t-47.5 -174.5zM326 1067q0 -104 72.5 -176.5t181.5 -77.5h22q114 4 189 77t75 177q0 105 -79.5 177.5t-194.5 72.5q-113 0 -189.5 -72.5t-76.5 -177.5z
" />
    <glyph glyph-name="nine.tnum" horiz-adv-x="1187" 
d="M993 942q7 -89 9.5 -159.5t-1 -175t-18 -184.5t-47 -167.5t-82.5 -144.5t-130 -94t-183 -37q-255 0 -355 235l56 25q89 -199 301 -199q78 0 140 24.5t103 62t70.5 97t45.5 115.5t25 132t11 132t2 129v53q-42 -129 -149.5 -194t-239.5 -60q-116 5 -207.5 63.5t-141 158
t-46.5 221.5q8 177 130.5 292t299.5 111q169 -4 279.5 -124t127.5 -312zM932 940q0 160 -99.5 266t-248.5 111q-150 4 -254.5 -94.5t-112.5 -251.5q-5 -155 90 -264t246 -113q100 -3 185.5 40t138 124t55.5 182z" />
    <glyph glyph-name="zero.taboldstyle" horiz-adv-x="1187" 
d="M592 -23q-101 0 -192 39t-159.5 107.5t-108.5 170t-40 220.5q0 120 40 221.5t108.5 169.5t159.5 106t192 38t192.5 -38t160 -106t109 -169.5t40.5 -221.5q0 -118 -40.5 -220t-109 -170.5t-160 -107.5t-192.5 -39zM592 39q183 0 311.5 132.5t128.5 342.5q0 212 -128 342.5
t-312 130.5q-88 0 -168 -33.5t-139.5 -93.5t-95 -150t-35.5 -196q0 -139 60.5 -249t160 -168t217.5 -58z" />
    <glyph glyph-name="one.taboldstyle" horiz-adv-x="1187" 
d="M750 1036v-1036h-62v948l-358 -137v61z" />
    <glyph glyph-name="two.taboldstyle" horiz-adv-x="1187" 
d="M258 53l494 516q108 108 108 211q0 98 -76.5 161t-193.5 63q-101 0 -177 -44t-94 -120l-59 14q24 99 115 155t215 56q144 0 238 -79.5t94 -205.5q0 -132 -125 -254l-445 -465h578v-61h-672v53z" />
    <glyph glyph-name="six.taboldstyle" horiz-adv-x="1187" 
d="M193 416q-7 89 -9.5 159.5t1 175t18 184.5t47 167.5t82.5 144.5t130 94t183 37q248 0 354 -235l-55 -25q-89 199 -301 199q-78 0 -140 -24.5t-103 -62t-70.5 -97t-45.5 -115.5t-25 -132t-11 -132t-2 -129v-54q39 128 149 193.5t240 60.5q116 -5 207.5 -63.5t141 -157.5
t46.5 -221q-8 -177 -130.5 -292t-299.5 -111q-169 4 -279.5 124t-127.5 312zM254 418q0 -160 99.5 -266t248.5 -111q150 -4 254.5 94.5t112.5 251.5q5 157 -89.5 263.5t-246.5 113.5q-100 3 -185.5 -40t-138 -124t-55.5 -182z" />
    <glyph glyph-name="eight.taboldstyle" horiz-adv-x="1187" 
d="M264 1067q0 130 94 220.5t234 90.5q142 0 239 -90.5t97 -220.5q0 -92 -50 -166t-135 -113q134 -46 215.5 -151t81.5 -238q0 -177 -129 -298t-319 -121t-317.5 120.5t-127.5 298.5q0 135 79.5 241t211.5 151q-80 37 -127 110.5t-47 165.5zM209 399q0 -153 109 -255.5
t274 -102.5q164 0 275.5 103t111.5 255q0 93 -49.5 174.5t-136.5 131.5t-191 53h-27q-102 -3 -186.5 -53t-132 -131.5t-47.5 -174.5zM326 1067q0 -104 72.5 -176.5t181.5 -77.5h22q114 4 189 77t75 177q0 105 -79.5 177.5t-194.5 72.5q-113 0 -189.5 -72.5t-76.5 -177.5z
" />
    <glyph glyph-name="three.taboldstyle" horiz-adv-x="1187" 
d="M905 596q13 124 -70.5 217t-236.5 105q-95 7 -189.5 -41t-136.5 -123l-53 30q55 95 158 147.5t225 45.5q186 -12 284.5 -122.5t80.5 -262.5q-6 -82 -59 -153.5t-134 -106.5q77 -19 136.5 -79.5t88 -139.5t23.5 -158q-11 -111 -80 -200t-177 -136t-230 -39
q-132 10 -234.5 78.5t-150.5 173.5l8 4q13 4 18 8l29 13q42 -89 130.5 -147t203.5 -68q167 -8 284.5 81t137.5 238q0 158 -93.5 247t-224.5 89h-137v61h137q57 0 113.5 28t98.5 84t50 126z" />
    <glyph glyph-name="four.taboldstyle" horiz-adv-x="1187" 
d="M864 -106v-297h-61v297h-715l733 1062h43v-1001h217v-61h-217zM201 -45h602v881z" />
    <glyph glyph-name="five.taboldstyle" horiz-adv-x="1187" 
d="M373 893l-103 -561q100 45 175.5 64.5t168.5 19.5q77 0 152 -27t137 -77t100.5 -130t38.5 -176q0 -186 -124 -307t-340 -121q-122 0 -245.5 73.5t-185.5 180.5l54 31q54 -96 161.5 -159.5t215.5 -63.5q188 0 295.5 103.5t107.5 262.5q0 82 -33 149.5t-86.5 110
t-117.5 65.5t-130 23q-102 0 -183.5 -22t-203.5 -78l-24 33l119 667h628v-61h-577z" />
    <glyph glyph-name="seven.taboldstyle" horiz-adv-x="1187" 
d="M236 -403l716 1298h-743v61h846l-750 -1359h-69z" />
    <glyph glyph-name="nine.taboldstyle" horiz-adv-x="1187" 
d="M1004 541q5 -67 7.5 -121.5t2.5 -133.5t-5 -143t-19 -139.5t-36 -134t-58 -115t-83 -93.5t-114 -60t-148 -23q-253 0 -354 236l55 24q89 -198 301 -198q78 0 140 24.5t103 62t70.5 97t45.5 115.5t25 132t11 132t2 129v53q-42 -129 -149.5 -194t-239.5 -60
q-116 5 -207.5 63.5t-141 157.5t-46.5 221q8 177 130.5 292.5t299.5 111.5q169 -4 280 -124t128 -312zM942 539q0 160 -99.5 265.5t-248.5 110.5q-150 4 -254.5 -94.5t-112.5 -251.5q-5 -155 90 -263.5t246 -112.5q100 -3 185.5 40t138 124t55.5 182z" />
    <glyph glyph-name="zero.oldstyle" horiz-adv-x="1245" 
d="M621 -23q-101 0 -192 39t-159.5 107.5t-108.5 170t-40 220.5q0 120 40 221.5t108.5 169.5t159.5 106t192 38t192 -38t159.5 -106t109 -169.5t40.5 -221.5q0 -118 -40.5 -220t-109 -170.5t-159.5 -107.5t-192 -39zM621 39q183 0 311.5 132.5t128.5 342.5q0 212 -128 342.5
t-312 130.5q-88 0 -168 -33.5t-140 -93.5t-95.5 -150t-35.5 -196q0 -105 35.5 -195t95.5 -150.5t140 -95t168 -34.5z" />
    <glyph glyph-name="one.oldstyle" horiz-adv-x="704" 
d="M508 1036v-1036h-62v948l-358 -137v61z" />
    <glyph glyph-name="two.oldstyle" horiz-adv-x="956" 
d="M143 53l494 516q108 108 108 211q0 98 -76.5 161t-193.5 63q-101 0 -176.5 -44t-93.5 -120l-60 14q24 99 115 155t215 56q144 0 238 -79.5t94 -205.5q0 -132 -125 -254l-444 -465h577v-61h-672v53z" />
    <glyph glyph-name="three.oldstyle" horiz-adv-x="1075" 
d="M850 596q13 124 -70.5 217t-236.5 105q-95 7 -189.5 -41t-136.5 -123l-53 30q55 95 158 147.5t225 45.5q186 -12 284 -122.5t80 -262.5q-6 -82 -58.5 -153.5t-133.5 -106.5q77 -19 136.5 -79.5t88 -139.5t23.5 -158q-11 -111 -80 -200t-177.5 -136t-230.5 -39
q-132 10 -234.5 78.5t-150.5 173.5l8 4q15 5 19 8l29 13q42 -89 130 -147t203 -68q167 -8 284.5 81t137.5 238q0 158 -93 247t-224 89h-137v61h137q57 0 113.5 28t98.5 84t50 126z" />
    <glyph glyph-name="four.oldstyle" horiz-adv-x="1128" 
d="M836 -106v-297h-62v297h-715l734 1062h43v-1001h217v-61h-217zM172 -45h602v881z" />
    <glyph glyph-name="five.oldstyle" horiz-adv-x="1089" 
d="M324 893l-103 -561q100 45 175.5 64.5t168.5 19.5q77 0 152 -27t137 -77t100.5 -130t38.5 -176q0 -186 -124.5 -307t-340.5 -121q-122 0 -245 73.5t-185 180.5l54 31q54 -96 161 -159.5t215 -63.5q188 0 296 103.5t108 262.5q0 82 -33 149.5t-86.5 110t-117.5 65.5
t-130 23q-102 0 -183.5 -22t-203.5 -78l-24 33l118 667h629v-61h-577z" />
    <glyph glyph-name="six.oldstyle" horiz-adv-x="1128" 
d="M164 416q-7 89 -9.5 159.5t1 175t18 184.5t47 167.5t82.5 144.5t130 94t183 37q249 0 355 -235l-56 -25q-89 199 -301 199q-78 0 -140 -24.5t-103 -62t-70.5 -97t-45.5 -115.5t-25 -132t-11 -132t-2 -129v-54q39 128 149 193.5t240 60.5q116 -5 207.5 -63.5t141 -157.5
t46.5 -221q-8 -177 -130.5 -292t-299.5 -111q-169 4 -279.5 124t-127.5 312zM225 418q0 -160 99.5 -266t248.5 -111q150 -4 254.5 94.5t112.5 251.5q5 157 -89.5 263.5t-246.5 113.5q-100 3 -185.5 -40t-138 -124t-55.5 -182z" />
    <glyph glyph-name="seven.oldstyle" horiz-adv-x="958" 
d="M121 -403l717 1298h-744v61h846l-750 -1359h-69z" />
    <glyph glyph-name="eight.oldstyle" horiz-adv-x="1142" 
d="M242 1067q0 130 93.5 220.5t233.5 90.5q142 0 239 -90.5t97 -220.5q0 -92 -49.5 -166.5t-134.5 -112.5q134 -46 215.5 -151t81.5 -238q0 -177 -129.5 -298t-319.5 -121t-317 120.5t-127 298.5q0 135 79.5 241t211.5 151q-80 37 -127 110.5t-47 165.5zM186 399
q0 -153 109 -255.5t274 -102.5q164 0 275.5 103t111.5 255q0 93 -49 174.5t-136 131.5t-191 53h-27q-102 -3 -187 -53t-132.5 -131.5t-47.5 -174.5zM303 1067q0 -104 72.5 -176.5t181.5 -77.5h23q114 4 189 77t75 177t-80 177t-195 73q-113 0 -189.5 -72.5t-76.5 -177.5z
" />
    <glyph glyph-name="nine.oldstyle" horiz-adv-x="1081" 
d="M950 541q5 -67 7.5 -121t3 -133.5t-5 -143.5t-19 -139.5t-35.5 -134t-58 -115t-83 -93.5t-114 -60t-148 -23q-254 0 -355 236l56 24q89 -198 301 -198q78 0 140 24.5t103 62t70.5 97t45.5 115.5t25 132t11 132t2 129v53q-42 -129 -149.5 -194t-239.5 -60
q-116 5 -207.5 63.5t-141 157.5t-46.5 221q8 177 130.5 292.5t299.5 111.5q169 -4 279.5 -124t127.5 -312zM889 539q0 160 -99.5 265.5t-248.5 110.5q-150 4 -254.5 -94.5t-112.5 -251.5q-5 -155 90 -263.5t246 -112.5q100 -3 185.5 40t138 124t55.5 182z" />
    <glyph glyph-name="Lslash.sc" horiz-adv-x="870" 
d="M205 0v604l-142 -88v57l142 89v538h61v-500l193 123v-59l-193 -121v-582h535v-61h-596z" />
    <glyph glyph-name="Zcaron.sc" horiz-adv-x="960" 
d="M174 61h694v-61h-778v41l698 1098h-694v61h774v-47zM715 1550l-189 -223h-92l-188 223h61l172 -184l174 184h62z" />
    <glyph glyph-name="exclam.sc" horiz-adv-x="485" 
d="M215 279l-2 921h61l-2 -921h-57zM182 47q0 24 17.5 39.5t42.5 15.5q27 0 44 -15.5t17 -39.5t-17 -39.5t-44 -15.5q-25 0 -42.5 15.5t-17.5 39.5z" />
    <glyph glyph-name="ampersand.sc" horiz-adv-x="1193" 
d="M510 41q139 0 226.5 84t92.5 213v324h-317q-136 0 -229 -92t-93 -218q0 -131 90.5 -221t229.5 -90zM293 936q0 -94 62.5 -155.5t160.5 -61.5h313v158h62v-160h166v-55h-166v-310q0 -54 4 -95t16.5 -82t34 -68t58 -45t86.5 -21v-61q-91 0 -157.5 53t-84.5 153
q-23 -68 -82 -116.5t-125 -69t-133 -20.5q-165 0 -272 107.5t-107 264.5q0 107 64.5 204.5t171.5 137.5q-64 40 -99 106.5t-35 135.5q0 116 84 195t207 79q162 0 248 -116q-3 -1 -25.5 -17.5t-25.5 -17.5q-66 90 -197 90q-98 0 -163.5 -61t-65.5 -152z" />
    <glyph glyph-name="question.sc" horiz-adv-x="868" 
d="M166 913l-62 7q12 133 103.5 212.5t222.5 79.5q140 0 240 -90t100 -233q0 -118 -68 -201.5t-170 -112.5q-47 -15 -72.5 -26.5t-54 -33t-41 -55t-12.5 -81.5v-100h-61v100q0 62 15 106t48.5 72.5t68.5 44.5t91 33q84 26 139.5 93t55.5 161q0 116 -83 189t-196 73
q-107 0 -182 -65t-82 -173zM262 47q0 24 17.5 39.5t42.5 15.5q27 0 44 -15.5t17 -39.5t-17 -39.5t-44 -15.5q-25 0 -42.5 15.5t-17.5 39.5z" />
    <glyph glyph-name="A.sc" horiz-adv-x="1124" 
d="M840 387l-279 727l-276 -727h555zM862 332h-600l-127 -332h-65l460 1200h64l459 -1200h-66z" />
    <glyph glyph-name="B.sc" horiz-adv-x="1120" 
d="M932 918q0 -93 -39 -168t-115 -109q96 -32 158.5 -127t62.5 -190q0 -135 -89 -229.5t-236 -94.5h-469v1200h418q143 0 226 -72.5t83 -209.5zM651 608h-385v-547h406q119 0 192.5 77.5t73.5 185.5q0 109 -81 196.5t-206 87.5zM266 1139v-473h410q92 0 143 78t51 174
q0 107 -67.5 164t-181.5 57h-355z" />
    <glyph glyph-name="C.sc" horiz-adv-x="1189" 
d="M1063 178l41 -45q-166 -153 -393 -153q-123 0 -233 48.5t-188 131.5t-123.5 196.5t-45.5 239.5t45.5 239t124 195.5t188 131t232.5 48.5q229 0 395 -153q-1 -1 -11.5 -12.5t-19.5 -20.5t-12 -10q-148 135 -352 135q-147 0 -268.5 -74t-191 -201t-69.5 -278t69.5 -278
t191 -201t268.5 -74q198 0 352 135z" />
    <glyph glyph-name="D.sc" horiz-adv-x="1302" 
d="M266 1139v-1078h383q218 0 341.5 150.5t123.5 386.5q0 153 -53 274.5t-160 194t-252 72.5h-383zM649 0h-444v1200h444q123 0 223.5 -46t166.5 -127.5t101.5 -191t35.5 -237.5q0 -127 -35.5 -236t-101.5 -189.5t-166.5 -126.5t-223.5 -46z" />
    <glyph glyph-name="E.sc" horiz-adv-x="997" 
d="M205 0v1200h655v-61h-594v-521h520v-61h-520v-496h615v-61h-676z" />
    <glyph glyph-name="F.sc" horiz-adv-x="933" 
d="M205 0v1200h647v-61h-586v-521h465v-61h-465v-557h-61z" />
    <glyph glyph-name="G.sc" horiz-adv-x="1363" 
d="M1210 496h-374v61h442q-7 -287 -152.5 -432t-402.5 -145q-167 0 -305.5 82t-217.5 223.5t-79 310.5q0 168 79 309t217.5 223t305.5 82q201 0 358 -116l-39 -50q-140 105 -319 105q-149 0 -273.5 -74t-196 -201.5t-71.5 -277.5q0 -113 42.5 -216t114.5 -177t172 -118
t212 -44q211 0 339 117t148 338z" />
    <glyph glyph-name="H.sc" horiz-adv-x="1282" 
d="M1016 1200h61v-1200h-61v567h-750v-567h-61v1200h61v-575h750v575z" />
    <glyph glyph-name="I.sc" horiz-adv-x="471" 
d="M205 1200h61v-1200h-61v1200z" />
    <glyph glyph-name="J.sc" horiz-adv-x="471" 
d="M-160 -406l8 62q25 -6 74 -6q145 0 214 85.5t69 223.5v1241h61v-1241q0 -79 -19 -144t-58 -117t-107 -81t-160 -29q-42 0 -82 6z" />
    <glyph glyph-name="K.sc" horiz-adv-x="954" 
d="M266 543v-543h-61v1200h61v-614l506 614h78l-522 -633l602 -567h-86z" />
    <glyph glyph-name="L.sc" horiz-adv-x="870" 
d="M205 0v1200h61v-1139h535v-61h-596z" />
    <glyph glyph-name="M.sc" horiz-adv-x="1699" 
d="M350 1200l502 -1026l500 1026h63l152 -1200h-62l-137 1100l-483 -983h-68l-485 985l-139 -1102h-60l152 1200h65z" />
    <glyph glyph-name="N.sc" horiz-adv-x="1236" 
d="M971 1200h61v-1200h-71l-695 1104v-1104h-61v1200h71l695 -1108v1108z" />
    <glyph glyph-name="O.sc" horiz-adv-x="1447" 
d="M182 596q0 -150 71.5 -277.5t196 -201.5t273.5 -74q112 0 213 44t173 118t114.5 176t42.5 215t-42.5 215t-114.5 176t-173 118t-213 44q-149 0 -273.5 -74t-196 -201.5t-71.5 -277.5zM121 596q0 168 79.5 309t218 223t304.5 82t305 -82t219 -223t80 -309t-80 -309.5
t-219 -224t-305 -82.5t-304.5 82.5t-218 224t-79.5 309.5z" />
    <glyph glyph-name="P.sc" horiz-adv-x="1085" 
d="M670 1139h-404v-586h393q73 0 128 24t86 66t46 92t15 109q0 58 -15 109.5t-45.5 94t-82.5 67t-121 24.5zM662 492h-396v-492h-61v1200h465q86 0 150.5 -30t101.5 -81t55 -112.5t18 -132.5q0 -56 -11 -106t-36 -95.5t-62.5 -78.5t-94.5 -52.5t-129 -19.5z" />
    <glyph glyph-name="Q.sc" horiz-adv-x="1447" 
d="M121 596q0 168 79.5 309t218 223t304.5 82t305 -82t219 -223t80 -309q0 -175 -85.5 -319.5t-229.5 -223.5l143 -223l-51 -33l-148 230q-109 -47 -233 -47q-166 0 -304.5 82.5t-218 224t-79.5 309.5zM922 78l-146 231l53 33l150 -238q131 73 209 204t78 288
q0 113 -42.5 215t-114.5 176t-173 118t-213 44q-149 0 -273.5 -74t-196 -201.5t-71.5 -277.5t71.5 -277.5t196 -201.5t273.5 -74q103 0 199 35z" />
    <glyph glyph-name="R.sc" horiz-adv-x="1089" 
d="M645 1139h-379v-586h369q73 0 127 24t85 66t45.5 92t14.5 109t-14.5 110t-44.5 93.5t-82 67t-121 24.5zM524 492h-258v-492h-61v1200h440q85 0 149.5 -30t101.5 -81t55 -113t18 -132q0 -67 -18.5 -128t-54.5 -111t-96.5 -79.5t-137.5 -29.5h-64l348 -496h-74z" />
    <glyph glyph-name="S.sc" horiz-adv-x="1017" 
d="M125 295h61q13 -102 101 -177t215 -75q73 0 134.5 20t102.5 53.5t66.5 73.5t34.5 82q34 230 -265 301l-167 39q-275 63 -275 287q0 68 31 127t82 98.5t117.5 62.5t136.5 23q150 0 250 -80.5t112 -218.5h-61q-10 109 -94 173.5t-207 64.5q-121 0 -213 -71.5t-92 -178.5
q0 -176 225 -227l170 -39q351 -84 309 -373q-11 -51 -40.5 -99.5t-77.5 -89.5t-120.5 -66t-158.5 -25q-155 0 -259.5 94.5t-117.5 220.5z" />
    <glyph glyph-name="T.sc" horiz-adv-x="1003" 
d="M68 1139v61h868v-61h-404v-1139h-61v1139h-403z" />
    <glyph glyph-name="U.sc" horiz-adv-x="1212" 
d="M1022 1198v-805q0 -183 -120.5 -298t-295.5 -115t-295.5 115t-120.5 298v805h62v-805q0 -158 101.5 -255t252.5 -97t253 97t102 255v805h61z" />
    <glyph glyph-name="V.sc" horiz-adv-x="978" 
d="M530 0h-81l-361 1200h66l335 -1124l336 1124h66z" />
    <glyph glyph-name="W.sc" horiz-adv-x="1642" 
d="M1126 86l377 1114h66l-408 -1200h-71l-269 920l-270 -920h-70l-407 1200h63l377 -1112l270 926h74z" />
    <glyph glyph-name="X.sc" horiz-adv-x="1032" 
d="M848 1200h76l-373 -551l436 -649h-76l-397 598l-395 -598h-74l432 649l-368 551h73l332 -502z" />
    <glyph glyph-name="Y.sc" horiz-adv-x="1077" 
d="M1020 1200l-451 -629v-571h-61v573l-449 627h74l406 -567l407 567h74z" />
    <glyph glyph-name="Z.sc" horiz-adv-x="960" 
d="M174 61h694v-61h-778v41l698 1098h-694v61h774v-47z" />
    <glyph glyph-name="Scaron.sc" horiz-adv-x="1017" 
d="M750 1550l-189 -223h-92l-188 223h61l172 -184l174 184h62zM125 295h61q13 -102 101 -177t215 -75q73 0 134.5 20t102.5 53.5t66.5 73.5t34.5 82q34 230 -265 301l-167 39q-275 63 -275 287q0 68 31 127t82 98.5t117.5 62.5t136.5 23q150 0 250 -80.5t112 -218.5h-61
q-10 109 -94 173.5t-207 64.5q-121 0 -213 -71.5t-92 -178.5q0 -176 225 -227l170 -39q351 -84 309 -373q-11 -51 -40.5 -99.5t-77.5 -89.5t-120.5 -66t-158.5 -25q-155 0 -259.5 94.5t-117.5 220.5z" />
    <glyph glyph-name="OE.sc" horiz-adv-x="2060" 
d="M182 596q0 -150 71.5 -277.5t196 -201.5t273.5 -74q150 0 275 74.5t196.5 202t71.5 278.5q0 113 -42.5 214.5t-114.5 175.5t-173 117.5t-213 43.5q-149 0 -273.5 -74t-196 -201.5t-71.5 -277.5zM1268 860v340h655v-61h-594v-521h520v-61h-520v-496h615v-61h-676v330
q-75 -159 -219.5 -254.5t-325.5 -95.5q-166 0 -304.5 82.5t-218 224t-79.5 309.5t79.5 309t218 223t304.5 82q181 0 325.5 -95.5t219.5 -254.5z" />
    <glyph glyph-name="Ydieresis.sc" horiz-adv-x="1077" 
d="M344 1466q0 24 17 40t42 16t42.5 -16t17.5 -40q0 -23 -17.5 -38t-42.5 -15t-42 15t-17 38zM616 1466q0 24 17.5 40t42.5 16t42 -16t17 -40q0 -23 -17 -38t-42 -15t-42.5 15t-17.5 38zM1020 1200l-451 -629v-571h-61v573l-449 627h74l406 -567l407 567h74z" />
    <glyph glyph-name="exclamdown.sc" horiz-adv-x="481" 
d="M211 -8l2 921h57l2 -921h-61zM180 1145q0 24 17.5 39.5t42.5 15.5q27 0 44 -15.5t17 -39.5t-17 -39.5t-44 -15.5q-25 0 -42.5 15.5t-17.5 39.5z" />
    <glyph glyph-name="questiondown.sc" horiz-adv-x="866" 
d="M702 281l62 -5q-10 -134 -101 -213t-223 -79q-139 0 -240.5 89t-101.5 232q0 114 68.5 200.5t169.5 115.5q47 15 72.5 26.5t54 33t41 55t12.5 81.5v115h62v-115q0 -62 -15.5 -106t-48.5 -72.5t-68.5 -44.5t-91.5 -33q-84 -26 -139 -94t-55 -162q0 -115 83.5 -187.5
t196.5 -72.5q107 0 181 64t81 172zM606 1161q0 -24 -17 -39.5t-42 -15.5q-27 0 -44.5 15.5t-17.5 39.5q0 25 17.5 40.5t44.5 15.5q25 0 42 -16t17 -40z" />
    <glyph glyph-name="Agrave.sc" horiz-adv-x="1124" 
d="M526 1321l-151 223h74l135 -223h-58zM840 387l-279 727l-276 -727h555zM862 332h-600l-127 -332h-65l460 1200h64l459 -1200h-66z" />
    <glyph glyph-name="Aacute.sc" horiz-adv-x="1124" 
d="M684 1544h74l-152 -223h-57zM840 387l-279 727l-276 -727h555zM862 332h-600l-127 -332h-65l460 1200h64l459 -1200h-66z" />
    <glyph glyph-name="Acircumflex.sc" horiz-adv-x="1124" 
d="M326 1321l188 223h94l187 -223h-62l-172 184l-174 -184h-61zM840 387l-279 727l-276 -727h555zM862 332h-600l-127 -332h-65l460 1200h64l459 -1200h-66z" />
    <glyph glyph-name="Atilde.sc" horiz-adv-x="1124" 
d="M475 1444q-22 0 -42 -19t-21 -59h-58q4 67 40 99t79 34q23 0 31 -2q30 -5 74 -39.5t69 -34.5q22 0 42.5 19t21.5 57h57q-4 -66 -39.5 -98.5t-77.5 -32.5q-38 0 -91 38t-85 38zM840 387l-279 727l-276 -727h555zM862 332h-600l-127 -332h-65l460 1200h64l459 -1200h-66z
" />
    <glyph glyph-name="Adieresis.sc" horiz-adv-x="1124" 
d="M362 1466q0 24 17.5 40t42.5 16q26 0 43.5 -15.5t17.5 -40.5q0 -23 -17.5 -38t-43.5 -15q-25 0 -42.5 15t-17.5 38zM635 1466q0 24 17 40t42 16q27 0 44.5 -15.5t17.5 -40.5q0 -23 -18 -38t-44 -15q-25 0 -42 15t-17 38zM840 387l-279 727l-276 -727h555zM862 332h-600
l-127 -332h-65l460 1200h64l459 -1200h-66z" />
    <glyph glyph-name="Aring.sc" horiz-adv-x="1124" 
d="M414 1497q0 62 41.5 106t101.5 44q63 0 106.5 -44t43.5 -106t-43.5 -104.5t-106.5 -42.5q-60 0 -101.5 42.5t-41.5 104.5zM467 1497q0 -41 25.5 -67.5t64.5 -26.5q41 0 68.5 26.5t27.5 67.5t-27.5 68.5t-68.5 27.5q-38 0 -64 -27.5t-26 -68.5zM840 387l-279 727
l-276 -727h555zM862 332h-600l-127 -332h-65l460 1200h64l459 -1200h-66z" />
    <glyph glyph-name="AE.sc" horiz-adv-x="1732" 
d="M57 0l787 1200h751v-61h-594v-521h521v-61h-521v-496h615v-61h-676v336h-590l-219 -336h-74zM940 397v742h-63l-488 -742h551z" />
    <glyph glyph-name="Ccedilla.sc" horiz-adv-x="1191" 
d="M700 -18l43 -105q26 -66 2.5 -124.5t-86.5 -84.5q-76 -29 -146.5 16.5t-70.5 139.5l56 -2q0 -59 43.5 -90.5t95.5 -12.5q31 13 48 39.5t15 57.5q0 23 -8 39l-55 131q-146 19 -263.5 104.5t-184 218.5t-66.5 287q0 126 45.5 239t124 195.5t188 131t232.5 48.5
q229 0 395 -153l-43 -43q-148 135 -352 135q-147 0 -268.5 -74t-191 -201t-69.5 -278t69.5 -278t191 -201t268.5 -74q198 0 352 135l41 -45q-154 -142 -379 -151h-27z" />
    <glyph glyph-name="Egrave.sc" horiz-adv-x="997" 
d="M514 1321l-154 223h76l135 -223h-57zM205 0v1200h655v-61h-594v-521h520v-61h-520v-496h615v-61h-676z" />
    <glyph glyph-name="Eacute.sc" horiz-adv-x="997" 
d="M580 1544h73l-151 -223h-58zM205 0v1200h655v-61h-594v-521h520v-61h-520v-496h615v-61h-676z" />
    <glyph glyph-name="Ecircumflex.sc" horiz-adv-x="997" 
d="M274 1321l187 223h94l188 -223h-63l-172 184l-172 -184h-62zM205 0v1200h655v-61h-594v-521h520v-61h-520v-496h615v-61h-676z" />
    <glyph glyph-name="Edieresis.sc" horiz-adv-x="997" 
d="M326 1466q0 24 17 40t42 16q26 0 43.5 -15.5t17.5 -40.5q0 -23 -17.5 -38t-43.5 -15q-25 0 -42 15t-17 38zM598 1466q0 24 17 40t42 16q27 0 44.5 -15.5t17.5 -40.5q0 -23 -18 -38t-44 -15q-25 0 -42 15t-17 38zM205 0v1200h655v-61h-594v-521h520v-61h-520v-496h615v-61
h-676z" />
    <glyph glyph-name="Igrave.sc" horiz-adv-x="471" 
d="M205 1321l-152 223h74l135 -223h-57zM205 1200h61v-1200h-61v1200z" />
    <glyph glyph-name="Iacute.sc" horiz-adv-x="471" 
d="M338 1544h74l-152 -223h-57zM205 1200h61v-1200h-61v1200z" />
    <glyph glyph-name="Icircumflex.sc" horiz-adv-x="471" 
d="M2 1321l188 223h93l188 -223h-61l-174 184l-173 -184h-61zM205 1200h61v-1200h-61v1200z" />
    <glyph glyph-name="Idieresis.sc" horiz-adv-x="471" 
d="M39 1466q0 24 17 40t42 16t42.5 -16t17.5 -40q0 -23 -17.5 -38t-42.5 -15t-42 15t-17 38zM311 1466q0 24 17.5 40t42.5 16t42 -16t17 -40q0 -23 -17 -38t-42 -15t-42.5 15t-17.5 38zM205 1200h61v-1200h-61v1200z" />
    <glyph glyph-name="Eth.sc" horiz-adv-x="1304" 
d="M268 1139v-518h332v-58h-332v-502h383q218 0 341.5 150.5t123.5 386.5q0 153 -53 274.5t-160 194t-252 72.5h-383zM651 0h-444v563h-170v58h170v579h444q123 0 223.5 -46t166.5 -127.5t101.5 -191t35.5 -237.5q0 -127 -35.5 -236t-101.5 -189.5t-166.5 -126.5t-223.5 -46
z" />
    <glyph glyph-name="Ntilde.sc" horiz-adv-x="1236" 
d="M530 1444q-22 0 -42 -19t-21 -59h-57q4 67 39.5 99t78.5 34q23 0 31 -2q30 -5 74 -39.5t69 -34.5q22 0 42.5 19t21.5 57h57q-4 -66 -39 -98.5t-77 -32.5q-38 0 -91.5 38t-85.5 38zM971 1200h61v-1200h-71l-695 1104v-1104h-61v1200h71l695 -1108v1108z" />
    <glyph glyph-name="Ograve.sc" horiz-adv-x="1447" 
d="M696 1323l-153 223h75l136 -223h-58zM182 596q0 -150 71.5 -277.5t196 -201.5t273.5 -74q112 0 213 44t173 118t114.5 176t42.5 215t-42.5 215t-114.5 176t-173 118t-213 44q-149 0 -273.5 -74t-196 -201.5t-71.5 -277.5zM121 596q0 168 79.5 309t218 223t304.5 82
t305 -82t219 -223t80 -309t-80 -309.5t-219 -224t-305 -82.5t-304.5 82.5t-218 224t-79.5 309.5z" />
    <glyph glyph-name="Oacute.sc" horiz-adv-x="1447" 
d="M813 1546h76l-154 -223h-57zM182 596q0 -150 71.5 -277.5t196 -201.5t273.5 -74q112 0 213 44t173 118t114.5 176t42.5 215t-42.5 215t-114.5 176t-173 118t-213 44q-149 0 -273.5 -74t-196 -201.5t-71.5 -277.5zM121 596q0 168 79.5 309t218 223t304.5 82t305 -82
t219 -223t80 -309t-80 -309.5t-219 -224t-305 -82.5t-304.5 82.5t-218 224t-79.5 309.5z" />
    <glyph glyph-name="Ocircumflex.sc" horiz-adv-x="1447" 
d="M496 1323l186 223h94l189 -223h-64l-172 184l-172 -184h-61zM182 596q0 -150 71.5 -277.5t196 -201.5t273.5 -74q112 0 213 44t173 118t114.5 176t42.5 215t-42.5 215t-114.5 176t-173 118t-213 44q-149 0 -273.5 -74t-196 -201.5t-71.5 -277.5zM121 596q0 168 79.5 309
t218 223t304.5 82t305 -82t219 -223t80 -309t-80 -309.5t-219 -224t-305 -82.5t-304.5 82.5t-218 224t-79.5 309.5z" />
    <glyph glyph-name="Otilde.sc" horiz-adv-x="1447" 
d="M639 1444q-22 0 -42.5 -19t-21.5 -59h-57q4 67 40 99t79 34q23 0 31 -2q30 -5 74 -39.5t69 -34.5q22 0 42 19t21 57h58q-4 -66 -39.5 -98.5t-77.5 -32.5q-38 0 -91 38t-85 38zM182 596q0 -150 71.5 -277.5t196 -201.5t273.5 -74q112 0 213 44t173 118t114.5 176t42.5 215
t-42.5 215t-114.5 176t-173 118t-213 44q-149 0 -273.5 -74t-196 -201.5t-71.5 -277.5zM121 596q0 168 79.5 309t218 223t304.5 82t305 -82t219 -223t80 -309t-80 -309.5t-219 -224t-305 -82.5t-304.5 82.5t-218 224t-79.5 309.5z" />
    <glyph glyph-name="Odieresis.sc" horiz-adv-x="1447" 
d="M535 1468q0 24 17 40t42 16t43 -16t18 -40q0 -23 -18 -38t-43 -15t-42 15t-17 38zM807 1468q0 24 17 40t42 16q27 0 44.5 -15.5t17.5 -40.5q0 -23 -18 -38t-44 -15q-25 0 -42 15t-17 38zM182 596q0 -150 71.5 -277.5t196 -201.5t273.5 -74q112 0 213 44t173 118
t114.5 176t42.5 215t-42.5 215t-114.5 176t-173 118t-213 44q-149 0 -273.5 -74t-196 -201.5t-71.5 -277.5zM121 596q0 168 79.5 309t218 223t304.5 82t305 -82t219 -223t80 -309t-80 -309.5t-219 -224t-305 -82.5t-304.5 82.5t-218 224t-79.5 309.5z" />
    <glyph glyph-name="Oslash.sc" horiz-adv-x="1445" 
d="M723 43q112 0 213 44t173 118t114.5 176t42.5 215q0 215 -138 369l-768 -783q152 -139 363 -139zM182 596q0 -220 137 -373l771 783q-156 143 -367 143q-149 0 -273.5 -74t-196 -201.5t-71.5 -277.5zM317 139l-157 -159l-41 40l157 160q-155 172 -155 416q0 168 79.5 309
t218 223t304.5 82q238 0 410 -159l161 161l39 -38l-162 -164q156 -184 156 -414q0 -168 -80 -309.5t-219 -224t-305 -82.5q-237 0 -406 159z" />
    <glyph glyph-name="Ugrave.sc" horiz-adv-x="1212" 
d="M586 1321l-152 223h74l135 -223h-57zM1022 1198v-805q0 -183 -120.5 -298t-295.5 -115t-295.5 115t-120.5 298v805h62v-805q0 -158 101.5 -255t252.5 -97t253 97t102 255v805h61z" />
    <glyph glyph-name="Uacute.sc" horiz-adv-x="1212" 
d="M772 1544l-151 -223h-58l135 223h74zM1022 1198v-805q0 -183 -120.5 -298t-295.5 -115t-295.5 115t-120.5 298v805h62v-805q0 -158 101.5 -255t252.5 -97t253 97t102 255v805h61z" />
    <glyph glyph-name="Ucircumflex.sc" horiz-adv-x="1212" 
d="M1022 1198v-805q0 -183 -120.5 -298t-295.5 -115t-295.5 115t-120.5 298v805h62v-805q0 -158 101.5 -255t252.5 -97t253 97t102 255v805h61zM381 1323l186 223h95l188 -223h-64l-172 184l-172 -184h-61z" />
    <glyph glyph-name="Udieresis.sc" horiz-adv-x="1212" 
d="M410 1466q0 24 17 40t42 16q26 0 43.5 -15.5t17.5 -40.5q0 -23 -17.5 -38t-43.5 -15q-25 0 -42 15t-17 38zM682 1466q0 24 17 40t42 16q27 0 44.5 -15.5t17.5 -40.5q0 -23 -18 -38t-44 -15q-25 0 -42 15t-17 38zM1022 1198v-805q0 -183 -120.5 -298t-295.5 -115
t-295.5 115t-120.5 298v805h62v-805q0 -158 101.5 -255t252.5 -97t253 97t102 255v805h61z" />
    <glyph glyph-name="Yacute.sc" horiz-adv-x="1077" 
d="M1020 1200l-451 -629v-571h-61v573l-449 627h74l406 -567l407 567h74zM713 1544l-152 -223h-57l135 223h74z" />
    <glyph glyph-name="Thorn.sc" horiz-adv-x="1028" 
d="M266 905v-581h326q121 0 201.5 81.5t80.5 212.5q0 128 -80.5 207.5t-201.5 79.5h-326zM592 262h-326v-262h-61v1200h61v-233h326q147 0 245.5 -96.5t98.5 -252.5q0 -159 -98.5 -257.5t-245.5 -98.5z" />
    <glyph glyph-name="Amacron.sc" horiz-adv-x="1124" 
d="M840 387l-279 727l-276 -727h555zM862 332h-600l-127 -332h-65l460 1200h64l459 -1200h-66zM369 1403v55h399v-55h-399z" />
    <glyph glyph-name="Abreve.sc" horiz-adv-x="1124" 
d="M700 1528h54q0 -82 -53.5 -131t-141.5 -49q-96 0 -144 52.5t-48 127.5h53q0 -53 35.5 -89t103.5 -36q65 0 103 34.5t38 90.5zM840 387l-279 727l-276 -727h555zM862 332h-600l-127 -332h-65l460 1200h64l459 -1200h-66z" />
    <glyph glyph-name="Cacute.sc" horiz-adv-x="1189" 
d="M770 1550h74l-152 -223h-57zM1063 178l41 -45q-166 -153 -393 -153q-123 0 -233 48.5t-188 131.5t-123.5 196.5t-45.5 239.5t45.5 239t124 195.5t188 131t232.5 48.5q229 0 395 -153q-1 -1 -11.5 -12.5t-19.5 -20.5t-12 -10q-148 135 -352 135q-147 0 -268.5 -74
t-191 -201t-69.5 -278t69.5 -278t191 -201t268.5 -74q198 0 352 135z" />
    <glyph glyph-name="Ccircumflex.sc" horiz-adv-x="1189" 
d="M455 1327l186 223h94l187 -223h-62l-172 184l-172 -184h-61zM1063 178l41 -45q-166 -153 -393 -153q-123 0 -233 48.5t-188 131.5t-123.5 196.5t-45.5 239.5t45.5 239t124 195.5t188 131t232.5 48.5q229 0 395 -153q-1 -1 -11.5 -12.5t-19.5 -20.5t-12 -10
q-148 135 -352 135q-147 0 -268.5 -74t-191 -201t-69.5 -278t69.5 -278t191 -201t268.5 -74q198 0 352 135z" />
    <glyph glyph-name="Cdotaccent.sc" horiz-adv-x="1189" 
d="M627 1473q0 24 17 39.5t42 15.5q27 0 44.5 -15.5t17.5 -39.5q0 -23 -18 -38.5t-44 -15.5q-25 0 -42 15.5t-17 38.5zM1063 178l41 -45q-166 -153 -393 -153q-123 0 -233 48.5t-188 131.5t-123.5 196.5t-45.5 239.5t45.5 239t124 195.5t188 131t232.5 48.5q229 0 395 -153
q-1 -1 -11.5 -12.5t-19.5 -20.5t-12 -10q-148 135 -352 135q-147 0 -268.5 -74t-191 -201t-69.5 -278t69.5 -278t191 -201t268.5 -74q198 0 352 135z" />
    <glyph glyph-name="Ccaron.sc" horiz-adv-x="1189" 
d="M920 1550l-189 -223h-94l-186 223h61l172 -184l174 184h62zM1063 178l41 -45q-166 -153 -393 -153q-123 0 -233 48.5t-188 131.5t-123.5 196.5t-45.5 239.5t45.5 239t124 195.5t188 131t232.5 48.5q229 0 395 -153q-1 -1 -11.5 -12.5t-19.5 -20.5t-12 -10
q-148 135 -352 135q-147 0 -268.5 -74t-191 -201t-69.5 -278t69.5 -278t191 -201t268.5 -74q198 0 352 135z" />
    <glyph glyph-name="Dcaron.sc" horiz-adv-x="1302" 
d="M858 1550l-186 -223h-94l-189 223h64l172 -184l172 184h61zM266 1139v-1078h383q218 0 341.5 150.5t123.5 386.5q0 153 -53 274.5t-160 194t-252 72.5h-383zM649 0h-444v1200h444q123 0 223.5 -46t166.5 -127.5t101.5 -191t35.5 -237.5q0 -127 -35.5 -236t-101.5 -189.5
t-166.5 -126.5t-223.5 -46z" />
    <glyph glyph-name="Aogonek.sc" horiz-adv-x="1124" 
d="M262 332l-127 -332h-65l460 1200h64l459 -1200l-56 -121q-13 -30 -16 -61q-2 -31 14.5 -57.5t46.5 -39.5q50 -20 96 12.5t46 90.5l55 2q0 -94 -71.5 -141.5t-145.5 -14.5q-63 26 -86.5 84.5t2.5 124.5l49 121l-125 332h-600zM561 1114l-276 -727h555z" />
    <glyph glyph-name="Emacron.sc" horiz-adv-x="997" 
d="M205 0v1200h655v-61h-594v-521h520v-61h-520v-496h615v-61h-676zM338 1403v55h399v-55h-399z" />
    <glyph glyph-name="Ebreve.sc" horiz-adv-x="997" 
d="M680 1528h53q0 -82 -53 -131t-143 -49q-95 0 -144 53t-49 127h53q2 -54 37 -89.5t103 -35.5q65 0 103 34.5t40 90.5zM205 0v1200h655v-61h-594v-521h520v-61h-520v-496h615v-61h-676z" />
    <glyph glyph-name="Edotaccent.sc" horiz-adv-x="997" 
d="M479 1473q0 24 17.5 39.5t42.5 15.5t42 -15.5t17 -39.5q0 -23 -17 -38.5t-42 -15.5t-42.5 15.5t-17.5 38.5zM205 0v1200h655v-61h-594v-521h520v-61h-520v-496h615v-61h-676z" />
    <glyph glyph-name="Ecaron.sc" horiz-adv-x="997" 
d="M758 1550l-189 -223h-94l-186 223h61l172 -184l174 184h62zM205 0v1200h655v-61h-594v-521h520v-61h-520v-496h615v-61h-676z" />
    <glyph glyph-name="Gcircumflex.sc" horiz-adv-x="1363" 
d="M457 1327l188 223h94l187 -223h-62l-172 184l-172 -184h-63zM1210 496h-374v61h442q-7 -287 -152.5 -432t-402.5 -145q-167 0 -305.5 82t-217.5 223.5t-79 310.5q0 168 79 309t217.5 223t305.5 82q201 0 358 -116l-39 -50q-140 105 -319 105q-149 0 -273.5 -74
t-196 -201.5t-71.5 -277.5q0 -113 42.5 -216t114.5 -177t172 -118t212 -44q211 0 339 117t148 338z" />
    <glyph glyph-name="Gbreve.sc" horiz-adv-x="1363" 
d="M858 1528h53q0 -82 -53 -131t-141 -49q-96 0 -145.5 52.5t-49.5 127.5h53q2 -54 37.5 -89.5t104.5 -35.5q65 0 102 34t39 91zM1210 496h-374v61h442q-7 -287 -152.5 -432t-402.5 -145q-167 0 -305.5 82t-217.5 223.5t-79 310.5q0 168 79 309t217.5 223t305.5 82
q201 0 358 -116l-39 -50q-140 105 -319 105q-149 0 -273.5 -74t-196 -201.5t-71.5 -277.5q0 -113 42.5 -216t114.5 -177t172 -118t212 -44q211 0 339 117t148 338z" />
    <glyph glyph-name="Eogonek.sc" horiz-adv-x="997" 
d="M205 1200h655v-61h-594v-521h520v-61h-520v-496h615v-61l-60 -143q-8 -16 -8 -39q-2 -31 14.5 -57.5t46.5 -39.5q50 -20 95 12.5t45 90.5l57 2q0 -94 -71.5 -141.5t-145.5 -14.5q-64 27 -88 85t4 124l53 121h-618v1200z" />
    <glyph glyph-name="Dcroat.sc" horiz-adv-x="1304" 
d="M268 1139v-518h332v-58h-332v-502h383q218 0 341.5 150.5t123.5 386.5q0 153 -53 274.5t-160 194t-252 72.5h-383zM651 0h-444v563h-170v58h170v579h444q123 0 223.5 -46t166.5 -127.5t101.5 -191t35.5 -237.5q0 -127 -35.5 -236t-101.5 -189.5t-166.5 -126.5t-223.5 -46
z" />
    <glyph glyph-name="Gdotaccent.sc" horiz-adv-x="1363" 
d="M655 1473q0 24 17.5 39.5t42.5 15.5t42 -15.5t17 -39.5q0 -23 -17 -38.5t-42 -15.5t-42.5 15.5t-17.5 38.5zM1210 496h-374v61h442q-7 -287 -152.5 -432t-402.5 -145q-167 0 -305.5 82t-217.5 223.5t-79 310.5q0 168 79 309t217.5 223t305.5 82q201 0 358 -116l-39 -50
q-140 105 -319 105q-149 0 -273.5 -74t-196 -201.5t-71.5 -277.5q0 -113 42.5 -216t114.5 -177t172 -118t212 -44q211 0 339 117t148 338z" />
    <glyph glyph-name="Hcircumflex.sc" horiz-adv-x="1282" 
d="M408 1327l186 223h94l189 -223h-64l-172 184l-172 -184h-61zM1016 1200h61v-1200h-61v567h-750v-567h-61v1200h61v-575h750v575z" />
    <glyph glyph-name="Hbar.sc" horiz-adv-x="1302" 
d="M1219 911h-132v-911h-61v567h-750v-567h-61v911h-117v54h117v235h61v-235h750v235h61v-235h132v-54zM1026 625v286h-750v-286h750z" />
    <glyph glyph-name="Itilde.sc" horiz-adv-x="471" 
d="M205 1200h61v-1200h-61v1200zM150 1444q-22 0 -42.5 -19t-21.5 -59h-57q4 67 39.5 99t78.5 34q23 0 31 -2q30 -5 74.5 -39.5t69.5 -34.5q22 0 42 19t21 57h57q-4 -66 -39 -98.5t-77 -32.5q-38 0 -91 38t-85 38z" />
    <glyph glyph-name="Imacron.sc" horiz-adv-x="471" 
d="M35 1403v55h399v-55h-399zM205 1200h61v-1200h-61v1200z" />
    <glyph glyph-name="Iogonek.sc" horiz-adv-x="471" 
d="M203 0v1200h61v-1200h-8l-53 -143q-8 -19 -8 -39q0 -71 63 -97q54 -20 96.5 11t42.5 92l58 2q0 -94 -71.5 -141.5t-145.5 -14.5q-64 27 -89 84.5t3 124.5z" />
    <glyph glyph-name="IJ.sc" horiz-adv-x="942" 
d="M205 1200h61v-1200h-61v1200zM311 -406l8 62q25 -6 74 -6q145 0 214 85.5t69 223.5v1241h61v-1241q0 -79 -19 -144t-58 -117t-107 -81t-160 -29q-41 0 -82 6z" />
    <glyph glyph-name="Jcircumflex.sc" horiz-adv-x="471" 
d="M-160 -406l8 62q25 -6 74 -6q145 0 214 85.5t69 223.5v1241h61v-1241q0 -79 -19 -144t-58 -117t-107 -81t-160 -29q-42 0 -82 6zM2 1327l186 223h95l188 -223h-63l-172 184l-173 -184h-61z" />
    <glyph glyph-name="Lacute.sc" horiz-adv-x="870" 
d="M342 1550h76l-152 -223h-59zM205 0v1200h61v-1139h535v-61h-596z" />
    <glyph glyph-name="Lcaron.sc" horiz-adv-x="870" 
d="M205 0v1200h61v-1139h535v-61h-596zM561 1198h60q0 -115 -29.5 -188t-83.5 -133l-31 18q87 111 84 303z" />
    <glyph glyph-name="Ldot.sc" horiz-adv-x="870" 
d="M205 0v1200h61v-1139h535v-61h-596zM451 365q0 24 17 39.5t42 15.5t42 -15.5t17 -39.5q0 -23 -17 -38.5t-42 -15.5t-42 15.5t-17 38.5z" />
    <glyph glyph-name="Nacute.sc" horiz-adv-x="1236" 
d="M698 1550h74l-151 -223h-58zM971 1200h61v-1200h-71l-695 1104v-1104h-61v1200h71l695 -1108v1108z" />
    <glyph glyph-name="Ncaron.sc" horiz-adv-x="1236" 
d="M852 1550l-188 -223h-93l-188 223h61l172 -184l175 184h61zM971 1200h61v-1200h-71l-695 1104v-1104h-61v1200h71l695 -1108v1108z" />
    <glyph glyph-name="Omacron.sc" horiz-adv-x="1447" 
d="M524 1403v55h400v-55h-400zM182 596q0 -150 71.5 -277.5t196 -201.5t273.5 -74q112 0 213 44t173 118t114.5 176t42.5 215t-42.5 215t-114.5 176t-173 118t-213 44q-149 0 -273.5 -74t-196 -201.5t-71.5 -277.5zM121 596q0 168 79.5 309t218 223t304.5 82t305 -82
t219 -223t80 -309t-80 -309.5t-219 -224t-305 -82.5t-304.5 82.5t-218 224t-79.5 309.5z" />
    <glyph glyph-name="Obreve.sc" horiz-adv-x="1447" 
d="M860 1530h53q0 -82 -53 -131t-141 -49q-96 0 -145.5 52.5t-49.5 127.5h54q2 -54 37.5 -90.5t103.5 -36.5q65 0 103 35.5t38 91.5zM182 596q0 -150 71.5 -277.5t196 -201.5t273.5 -74q112 0 213 44t173 118t114.5 176t42.5 215t-42.5 215t-114.5 176t-173 118t-213 44
q-149 0 -273.5 -74t-196 -201.5t-71.5 -277.5zM121 596q0 168 79.5 309t218 223t304.5 82t305 -82t219 -223t80 -309t-80 -309.5t-219 -224t-305 -82.5t-304.5 82.5t-218 224t-79.5 309.5z" />
    <glyph glyph-name="Ohungarumlaut.sc" horiz-adv-x="1447" 
d="M913 1552h76l-153 -223h-58zM719 1552h74l-150 -223h-59zM182 596q0 -150 71.5 -277.5t196 -201.5t273.5 -74q112 0 213 44t173 118t114.5 176t42.5 215t-42.5 215t-114.5 176t-173 118t-213 44q-149 0 -273.5 -74t-196 -201.5t-71.5 -277.5zM121 596q0 168 79.5 309
t218 223t304.5 82t305 -82t219 -223t80 -309t-80 -309.5t-219 -224t-305 -82.5t-304.5 82.5t-218 224t-79.5 309.5z" />
    <glyph glyph-name="Racute.sc" horiz-adv-x="1089" 
d="M623 1550h73l-151 -223h-58zM645 1139h-379v-586h369q73 0 127 24t85 66t45.5 92t14.5 109t-14.5 110t-44.5 93.5t-82 67t-121 24.5zM524 492h-258v-492h-61v1200h440q85 0 149.5 -30t101.5 -81t55 -113t18 -132q0 -67 -18.5 -128t-54.5 -111t-96.5 -79.5t-137.5 -29.5
h-64l348 -496h-74z" />
    <glyph glyph-name="Rcaron.sc" horiz-adv-x="1089" 
d="M784 1550l-188 -223h-92l-189 223h62l172 -184l174 184h61zM645 1139h-379v-586h369q73 0 127 24t85 66t45.5 92t14.5 109t-14.5 110t-44.5 93.5t-82 67t-121 24.5zM524 492h-258v-492h-61v1200h440q85 0 149.5 -30t101.5 -81t55 -113t18 -132q0 -67 -18.5 -128
t-54.5 -111t-96.5 -79.5t-137.5 -29.5h-64l348 -496h-74z" />
    <glyph glyph-name="Sacute.sc" horiz-adv-x="1017" 
d="M594 1550h74l-152 -223h-57zM125 295h61q13 -102 101 -177t215 -75q73 0 134.5 20t102.5 53.5t66.5 73.5t34.5 82q34 230 -265 301l-167 39q-275 63 -275 287q0 68 31 127t82 98.5t117.5 62.5t136.5 23q150 0 250 -80.5t112 -218.5h-61q-10 109 -94 173.5t-207 64.5
q-121 0 -213 -71.5t-92 -178.5q0 -176 225 -227l170 -39q351 -84 309 -373q-11 -51 -40.5 -99.5t-77.5 -89.5t-120.5 -66t-158.5 -25q-155 0 -259.5 94.5t-117.5 220.5z" />
    <glyph glyph-name="Scircumflex.sc" horiz-adv-x="1017" 
d="M281 1327l188 223h92l189 -223h-62l-174 184l-172 -184h-61zM125 295h61q13 -102 101 -177t215 -75q73 0 134.5 20t102.5 53.5t66.5 73.5t34.5 82q34 230 -265 301l-167 39q-275 63 -275 287q0 68 31 127t82 98.5t117.5 62.5t136.5 23q150 0 250 -80.5t112 -218.5h-61
q-10 109 -94 173.5t-207 64.5q-121 0 -213 -71.5t-92 -178.5q0 -176 225 -227l170 -39q351 -84 309 -373q-11 -51 -40.5 -99.5t-77.5 -89.5t-120.5 -66t-158.5 -25q-155 0 -259.5 94.5t-117.5 220.5z" />
    <glyph glyph-name="Scedilla.sc" horiz-adv-x="1021" 
d="M127 295h61q13 -102 101 -177t215 -75q73 0 134.5 20t102.5 53.5t66.5 73.5t34.5 82q10 65 -7 117t-57 87.5t-89 58.5t-111 38l-168 39q-275 63 -275 287q0 68 31 127t82 98.5t117.5 62.5t136.5 23q150 0 250 -80.5t112 -218.5h-61q-10 109 -94 173.5t-207 64.5
t-214 -69.5t-91 -180.5q0 -176 225 -227l170 -39q351 -84 309 -373q-11 -47 -37 -92t-67 -84t-102.5 -65.5t-135.5 -32.5l45 -109q28 -66 4 -124t-88 -85q-76 -33 -146.5 14.5t-70.5 141.5l57 -2q0 -58 45 -90.5t95 -12.5q30 13 46.5 39.5t14.5 57.5q0 23 -8 39l-53 125
q-151 0 -255.5 95.5t-117.5 219.5z" />
    <glyph glyph-name="Utilde.sc" horiz-adv-x="1212" 
d="M1022 1198v-805q0 -183 -120.5 -298t-295.5 -115t-295.5 115t-120.5 298v805h62v-805q0 -158 101.5 -255t252.5 -97t253 97t102 255v805h61zM530 1444q-22 0 -42 -19t-21 -59h-57q4 67 39.5 99t78.5 34q23 0 31 -2q30 -5 74 -39.5t69 -34.5q22 0 42.5 19t21.5 57h57
q-4 -66 -39 -98.5t-77 -32.5q-38 0 -91.5 38t-85.5 38z" />
    <glyph glyph-name="Umacron.sc" horiz-adv-x="1212" 
d="M1022 1198v-805q0 -183 -120.5 -298t-295.5 -115t-295.5 115t-120.5 298v805h62v-805q0 -158 101.5 -255t252.5 -97t253 97t102 255v805h61zM414 1403v55h399v-55h-399z" />
    <glyph glyph-name="Ubreve.sc" horiz-adv-x="1212" 
d="M748 1528h53q0 -82 -53.5 -131t-143.5 -49q-96 0 -144 52.5t-48 127.5h53q2 -54 36.5 -89.5t102.5 -35.5q65 0 103.5 34.5t40.5 90.5zM1022 1198v-805q0 -183 -120.5 -298t-295.5 -115t-295.5 115t-120.5 298v805h62v-805q0 -158 101.5 -255t252.5 -97t253 97t102 255
v805h61z" />
    <glyph glyph-name="Uring.sc" horiz-adv-x="1212" 
d="M459 1501q0 63 41.5 107.5t101.5 44.5q63 0 107.5 -44.5t44.5 -107.5q0 -61 -44.5 -103t-107.5 -42q-60 0 -101.5 42t-41.5 103zM512 1501q0 -38 27 -65t65 -27q41 0 68.5 26.5t27.5 65.5q0 41 -27.5 68.5t-68.5 27.5q-39 0 -65.5 -27.5t-26.5 -68.5zM1022 1198v-805
q0 -183 -120.5 -298t-295.5 -115t-295.5 115t-120.5 298v805h62v-805q0 -158 101.5 -255t252.5 -97t253 97t102 255v805h61z" />
    <glyph glyph-name="Uhungarumlaut.sc" horiz-adv-x="1212" 
d="M1022 1198v-805q0 -183 -120.5 -298t-295.5 -115t-295.5 115t-120.5 298v805h62v-805q0 -158 101.5 -255t252.5 -97t253 97t102 255v805h61zM791 1552h75l-153 -223h-58zM596 1552h74l-150 -223h-59z" />
    <glyph glyph-name="Uogonek.sc" horiz-adv-x="1214" 
d="M1024 1198v-805q0 -177 -112.5 -291t-280.5 -122l-51 -125q-9 -18 -9 -39q-2 -31 15.5 -57.5t48.5 -39.5q53 -21 96 13t43 90l55 2q0 -94 -71.5 -141.5t-145.5 -14.5q-64 27 -88 85t4 124l43 103q-162 12 -270 125.5t-108 287.5v805h61v-805q0 -158 101.5 -255t252.5 -97
t253 97t102 255v805h61z" />
    <glyph glyph-name="Wcircumflex.sc" horiz-adv-x="1642" 
d="M586 1327l188 223h94l187 -223h-62l-172 184l-172 -184h-63zM1126 86l377 1114h66l-408 -1200h-71l-269 920l-270 -920h-70l-407 1200h63l377 -1112l270 926h74z" />
    <glyph glyph-name="Ycircumflex.sc" horiz-adv-x="1077" 
d="M1020 1200l-451 -629v-571h-61v573l-449 627h74l406 -567l407 567h74zM303 1327l189 223h94l186 -223h-61l-172 184l-172 -184h-64z" />
    <glyph glyph-name="Tcaron.sc" horiz-adv-x="1003" 
d="M68 1139v61h868v-61h-404v-1139h-61v1139h-403zM733 1550l-188 -223h-94l-187 223h62l172 -184l174 184h61z" />
    <glyph glyph-name="Tbar.sc" horiz-adv-x="1003" 
d="M471 0v629h-223v57h223v453h-403v61h868v-61h-404v-453h222v-57h-222v-629h-61z" />
    <glyph glyph-name="Zacute.sc" horiz-adv-x="960" 
d="M174 61h694v-61h-778v41l698 1098h-694v61h774v-47zM543 1552h73l-151 -223h-57z" />
    <glyph glyph-name="Zdotaccent.sc" horiz-adv-x="960" 
d="M420 1473q0 24 17 39.5t42 15.5t42.5 -15.5t17.5 -39.5q0 -23 -17.5 -38.5t-42.5 -15.5t-42 15.5t-17 38.5zM174 61h694v-61h-778v41l698 1098h-694v61h774v-47z" />
    <glyph glyph-name="Wgrave.sc" horiz-adv-x="1642" 
d="M780 1327l-153 223h75l136 -223h-58zM1126 86l377 1114h66l-408 -1200h-71l-269 920l-270 -920h-70l-407 1200h63l377 -1112l270 926h74z" />
    <glyph glyph-name="Wacute.sc" horiz-adv-x="1642" 
d="M926 1550h75l-153 -223h-57zM1126 86l377 1114h66l-408 -1200h-71l-269 920l-270 -920h-70l-407 1200h63l377 -1112l270 926h74z" />
    <glyph glyph-name="Wdieresis.sc" horiz-adv-x="1642" 
d="M625 1473q0 24 17 39.5t42 15.5q27 0 44 -15.5t17 -39.5q0 -23 -17.5 -38.5t-43.5 -15.5q-25 0 -42 15.5t-17 38.5zM897 1473q0 24 17 39.5t42 15.5q27 0 44.5 -15.5t17.5 -39.5q0 -23 -18 -38.5t-44 -15.5q-25 0 -42 15.5t-17 38.5zM1126 86l377 1114h66l-408 -1200h-71
l-269 920l-270 -920h-70l-407 1200h63l377 -1112l270 926h74z" />
    <glyph glyph-name="Aringacute.sc" horiz-adv-x="1124" 
d="M467 1448q0 -41 26.5 -67.5t65.5 -26.5q41 0 68.5 26.5t27.5 67.5t-27.5 67.5t-68.5 26.5q-39 0 -65.5 -26.5t-26.5 -67.5zM641 1772h74l-123 -181q51 -11 84 -51t33 -94q0 -61 -43.5 -103.5t-106.5 -42.5q-60 0 -102.5 42.5t-42.5 103.5q0 55 33 95.5t85 51.5zM840 387
l-279 727l-276 -727h555zM862 332h-600l-127 -332h-65l460 1200h64l459 -1200h-66z" />
    <glyph glyph-name="AEacute.sc" horiz-adv-x="1732" 
d="M1016 1552h74l-152 -223h-57zM57 0l787 1200h751v-61h-594v-521h521v-61h-521v-496h615v-61h-676v336h-590l-219 -336h-74zM940 397v742h-63l-488 -742h551z" />
    <glyph glyph-name="Oslashacute.sc" horiz-adv-x="1445" 
d="M825 1552h74l-151 -223h-58zM723 43q112 0 213 44t173 118t114.5 176t42.5 215q0 215 -138 369l-768 -783q152 -139 363 -139zM182 596q0 -220 137 -373l771 783q-156 143 -367 143q-149 0 -273.5 -74t-196 -201.5t-71.5 -277.5zM317 139l-157 -159l-41 40l157 160
q-155 172 -155 416q0 168 79.5 309t218 223t304.5 82q238 0 410 -159l161 161l39 -38l-162 -164q156 -184 156 -414q0 -168 -80 -309.5t-219 -224t-305 -82.5q-237 0 -406 159z" />
    <glyph glyph-name="Ibreve.sc" horiz-adv-x="471" 
d="M377 1528h53q0 -82 -53 -131t-141 -49q-96 0 -145.5 52.5t-49.5 127.5h53q2 -54 37.5 -89.5t104.5 -35.5q65 0 102 34t39 91zM205 1200h61v-1200h-61v1200z" />
    <glyph glyph-name="Eng.sc" horiz-adv-x="1236" 
d="M971 0l-705 1104v-1104h-61v1200h71l695 -1096v1096h61v-1200v-41q0 -79 -19 -144t-58 -117t-107 -81t-160 -29q-42 0 -82 6l8 62q25 -6 74 -6q145 0 214 85.5t69 223.5v41z" />
    <glyph glyph-name="Ygrave.sc" horiz-adv-x="1077" 
d="M514 1327l-154 223h76l135 -223h-57zM1020 1200l-451 -629v-571h-61v573l-449 627h74l406 -567l407 567h74z" />
    <glyph glyph-name="Gcommaaccent.sc" horiz-adv-x="1363" 
d="M1210 496h-374v61h442q-7 -287 -152.5 -432t-402.5 -145q-167 0 -305.5 82t-217.5 223.5t-79 310.5q0 168 79 309t217.5 223t305.5 82q201 0 358 -116l-39 -50q-140 105 -319 105q-149 0 -273.5 -74t-196 -201.5t-71.5 -277.5q0 -113 42.5 -216t114.5 -177t172 -118
t212 -44q211 0 339 117t148 338zM614 -383l-53 4q107 115 115 260h67q-15 -173 -129 -264z" />
    <glyph glyph-name="Kcommaaccent.sc" horiz-adv-x="954" 
d="M449 -383l-54 4q107 115 115 260h68q-15 -173 -129 -264zM266 543v-543h-61v1200h61v-614l506 614h78l-522 -633l602 -567h-86z" />
    <glyph glyph-name="Lcommaaccent.sc" horiz-adv-x="870" 
d="M414 -383l-54 4q107 115 115 260h68q-15 -173 -129 -264zM205 0v1200h61v-1139h535v-61h-596z" />
    <glyph glyph-name="Ncommaaccent.sc" horiz-adv-x="1236" 
d="M508 -383l-53 4q106 114 114 260h68q-15 -173 -129 -264zM971 1200h61v-1200h-71l-695 1104v-1104h-61v1200h71l695 -1108v1108z" />
    <glyph glyph-name="Rcommaaccent.sc" horiz-adv-x="1089" 
d="M449 -383l-54 4q107 115 115 260h68q-15 -173 -129 -264zM645 1139h-379v-586h369q73 0 127 24t85 66t45.5 92t14.5 109t-14.5 110t-44.5 93.5t-82 67t-121 24.5zM524 492h-258v-492h-61v1200h440q85 0 149.5 -30t101.5 -81t55 -113t18 -132q0 -67 -18.5 -128t-54.5 -111
t-96.5 -79.5t-137.5 -29.5h-64l348 -496h-74z" />
    <glyph glyph-name="Tcommaaccent.sc" horiz-adv-x="1003" 
d="M406 -383l-54 4q107 115 115 260h68q-15 -173 -129 -264zM68 1139v61h868v-61h-404v-1139h-61v1139h-403z" />
    <glyph glyph-name="Scommaaccent.sc" horiz-adv-x="1017" 
d="M420 -383l-53 4q106 114 114 260h68q-15 -173 -129 -264zM125 295h61q13 -102 101 -177t215 -75q73 0 134.5 20t102.5 53.5t66.5 73.5t34.5 82q34 230 -265 301l-167 39q-275 63 -275 287q0 68 31 127t82 98.5t117.5 62.5t136.5 23q150 0 250 -80.5t112 -218.5h-61
q-10 109 -94 173.5t-207 64.5q-121 0 -213 -71.5t-92 -178.5q0 -176 225 -227l170 -39q351 -84 309 -373q-11 -51 -40.5 -99.5t-77.5 -89.5t-120.5 -66t-158.5 -25q-155 0 -259.5 94.5t-117.5 220.5z" />
    <glyph glyph-name="Idotaccent.sc" horiz-adv-x="471" 
d="M176 1473q0 24 17.5 39.5t42.5 15.5t42 -15.5t17 -39.5q0 -23 -17 -38.5t-42 -15.5t-42.5 15.5t-17.5 38.5zM205 1200h61v-1200h-61v1200z" />
    <glyph glyph-name="zero.numr" horiz-adv-x="727" 
d="M92 936q0 71 7.5 128t26.5 109.5t49 88t78.5 56.5t111.5 21q78 0 132 -30.5t83 -88.5t41 -126t12 -158t-12 -158.5t-41 -126t-83 -88.5t-132 -31q-79 0 -134 31t-84.5 88.5t-42 126.5t-12.5 158zM154 936q0 -76 9.5 -133.5t32 -107t65 -75.5t104.5 -26q48 0 85 18
t59.5 48t36.5 75t19.5 93t5.5 108t-5.5 108t-19.5 93t-36.5 75t-59.5 48t-85 18q-62 0 -104.5 -26t-65 -75.5t-32 -107t-9.5 -133.5z" />
    <glyph glyph-name="one.numr" horiz-adv-x="382" 
d="M260 543h-61v727l-142 -49v61l203 74v-813z" />
    <glyph glyph-name="two.numr" horiz-adv-x="647" 
d="M559 604v-61h-479v22l342 410q74 88 74 166q0 74 -52 121t-131 47q-67 0 -118.5 -36.5t-63.5 -96.5l-57 16q17 81 82.5 129.5t156.5 48.5q105 0 174.5 -63.5t69.5 -165.5q0 -103 -90 -207l-279 -330h371z" />
    <glyph glyph-name="three.numr" horiz-adv-x="661" 
d="M481 1147q5 66 -36 111t-123 51q-54 5 -104 -19t-73 -65l-51 30q33 56 96 87.5t136 27.5q112 -7 169.5 -73t49.5 -158q-4 -49 -35.5 -91t-81.5 -65q68 -17 110 -85t37 -142q-8 -101 -89 -166t-191 -58q-81 5 -134 36t-93 104l49 33q52 -101 182 -111q87 -4 147 44t68 128
q0 80 -54 132t-132 52h-80v60h80q58 0 103.5 39t49.5 98z" />
    <glyph glyph-name="four.numr" horiz-adv-x="716" 
d="M469 1237l-315 -461h315v461zM657 719h-127v-176h-61v176h-428l444 641h45v-584h127v-57z" />
    <glyph glyph-name="five.numr" horiz-adv-x="692" 
d="M565 1296h-338l-55 -299q111 52 184 52q107 0 186 -68.5t79 -185.5q0 -119 -77 -191t-210 -72q-79 0 -154 46t-112 116l53 37q29 -60 88 -97.5t125 -37.5q106 0 164.5 55.5t58.5 143.5t-62.5 139t-138.5 51q-60 0 -103.5 -12.5t-125.5 -48.5l-23 30l70 406h391v-64z" />
    <glyph glyph-name="six.numr" horiz-adv-x="692" 
d="M98 801q-7 62 -5 129t7 131t25.5 121t50.5 100t82 67t121 23q153 -3 213 -139l-55 -25q-46 100 -160 103q-56 2 -98 -21.5t-65.5 -61t-37 -91t-17 -103.5t-1.5 -106q24 62 84.5 95t126.5 28q107 -4 177.5 -83t65.5 -188q-8 -107 -83 -179.5t-181 -68.5
q-106 5 -174.5 76.5t-75.5 192.5zM160 801q0 -86 54.5 -144t135.5 -63q81 -4 138.5 51.5t62.5 138.5q4 85 -48.5 142.5t-135.5 62.5q-82 5 -142.5 -50t-64.5 -138z" />
    <glyph glyph-name="seven.numr" horiz-adv-x="626" 
d="M152 543h-74l418 755h-422v62h526z" />
    <glyph glyph-name="eight.numr" horiz-adv-x="708" 
d="M211 1178q0 -57 38 -96.5t97 -39.5h14q59 0 99.5 40t40.5 96t-42.5 94.5t-103.5 38.5t-102 -38.5t-41 -94.5zM143 788q0 -82 60 -138t151 -56q90 0 150.5 56t60.5 138q0 81 -60.5 140t-148.5 59q-89 0 -151 -59.5t-62 -139.5zM150 1178q0 82 58.5 138t145.5 56
q88 0 147.5 -56t59.5 -138q0 -103 -90 -160q70 -30 113 -91.5t43 -138.5q0 -108 -78.5 -182t-194.5 -74t-194 74t-78 182q0 77 42 139t112 93q-86 52 -86 158z" />
    <glyph glyph-name="nine.numr" horiz-adv-x="692" 
d="M594 1102q7 -62 5 -128.5t-7 -130.5t-25.5 -121t-50.5 -100t-82 -67t-121 -23q-158 4 -217 140l56 22q44 -96 163 -100q69 -2 116.5 32t69 94t29.5 121.5t5 133.5q-24 -62 -84.5 -95t-126.5 -28q-107 4 -178 83.5t-66 186.5q4 110 81 181.5t183 66.5t174.5 -76t75.5 -192
zM532 1104q0 86 -54.5 143t-135.5 62q-82 4 -138 -51t-61 -138q-4 -85 48 -142.5t135 -62.5q82 -5 142 50t64 139z" />
    <glyph glyph-name="zero.dnom" horiz-adv-x="727" 
d="M92 393q0 89 12.5 158t42 126.5t84.5 88.5t134 31q78 0 132 -31t83 -88.5t41 -126t12 -158.5t-12 -158t-41 -126t-83 -88.5t-132 -30.5q-63 0 -111.5 21t-78.5 56.5t-49 88t-26.5 109.5t-7.5 128zM154 393q0 -76 9.5 -133.5t32 -107t65 -75.5t104.5 -26q48 0 85 18
t59.5 48t36.5 75t19.5 93t5.5 108t-5.5 108t-19.5 93t-36.5 75t-59.5 48t-85 18q-62 0 -104.5 -26t-65 -75.5t-32 -107t-9.5 -133.5z" />
    <glyph glyph-name="one.dnom" horiz-adv-x="382" 
d="M260 0h-61v727l-142 -49v61l203 74v-813z" />
    <glyph glyph-name="two.dnom" horiz-adv-x="647" 
d="M559 61v-61h-479v23l342 409q74 88 74 166q0 74 -52 121t-131 47q-67 0 -118.5 -36.5t-63.5 -96.5l-57 16q17 81 82.5 129.5t156.5 48.5q105 0 174.5 -63.5t69.5 -165.5q0 -103 -90 -207l-279 -330h371z" />
    <glyph glyph-name="three.dnom" horiz-adv-x="663" 
d="M483 604q5 66 -36 111t-123 51q-54 5 -104 -19t-73 -65l-51 31q32 56 95.5 87t136.5 27q112 -7 169.5 -73t49.5 -158q-4 -49 -35.5 -91t-81.5 -65q68 -17 110.5 -85.5t37.5 -141.5q-7 -101 -89 -166t-192 -57q-81 5 -134 35.5t-93 103.5l49 33q52 -101 182 -111
q87 -4 147 44t68 128q0 80 -54 132.5t-132 52.5h-80v59h80q58 0 103.5 39t49.5 98z" />
    <glyph glyph-name="four.dnom" horiz-adv-x="720" 
d="M473 694l-315 -461h315v461zM662 176h-127v-176h-62v176h-428l444 641h46v-584h127v-57z" />
    <glyph glyph-name="five.dnom" horiz-adv-x="694" 
d="M565 754h-338l-55 -299q109 51 184 51q107 0 186 -68.5t79 -185.5q0 -119 -77 -190.5t-210 -71.5q-79 0 -154 46t-112 116l53 36q29 -60 88 -97.5t125 -37.5q106 0 164.5 55.5t58.5 143.5t-62.5 139t-138.5 51q-60 0 -103.5 -12.5t-125.5 -48.5l-23 31l70 405h391v-63z
" />
    <glyph glyph-name="six.dnom" horiz-adv-x="690" 
d="M98 258q-7 62 -5 129t7 131t25.5 121t50.5 100t82 67t121 23q153 -3 213 -139l-55 -24q-45 99 -160 102q-56 2 -98 -21.5t-65.5 -61t-37 -91t-17 -103.5t-1.5 -106q24 62 84.5 95t126.5 28q107 -4 177.5 -82.5t65.5 -187.5q-8 -107 -83 -179.5t-181 -68.5
q-106 5 -174.5 76t-75.5 192zM160 258q0 -86 54.5 -144t135.5 -63q81 -4 138.5 52t62.5 139q4 85 -48.5 142t-135.5 62q-82 5 -142.5 -50t-64.5 -138z" />
    <glyph glyph-name="seven.dnom" horiz-adv-x="624" 
d="M152 0h-74l418 756h-422v61h526z" />
    <glyph glyph-name="eight.dnom" horiz-adv-x="708" 
d="M211 635q0 -57 38 -96t97 -39h14q59 0 99.5 39.5t40.5 95.5t-42.5 94.5t-103.5 38.5t-102 -38.5t-41 -94.5zM143 246q0 -83 60 -139t151 -56q90 0 150.5 56.5t60.5 138.5q0 81 -60.5 139.5t-148.5 58.5q-89 0 -151 -59.5t-62 -138.5zM150 635q0 82 58.5 138t145.5 56
q88 0 147.5 -56t59.5 -138q0 -103 -90 -160q70 -30 113 -91t43 -138q0 -108 -78.5 -182t-194.5 -74t-194 74t-78 182q0 77 42 138.5t112 92.5q-86 52 -86 158z" />
    <glyph glyph-name="nine.dnom" horiz-adv-x="692" 
d="M594 559q7 -62 5 -128.5t-7 -130.5t-25.5 -121t-50.5 -99.5t-82 -66.5t-121 -23q-159 4 -217 139l56 23q45 -97 163 -101q69 -2 116.5 32t69 94t29.5 121.5t5 133.5q-24 -62 -84.5 -95t-126.5 -28q-106 4 -177.5 84t-66.5 187q4 110 81 181t183 66t174.5 -76t75.5 -192z
M532 561q0 86 -54.5 143t-135.5 62q-82 4 -138 -50.5t-61 -137.5q-4 -85 48 -142.5t135 -62.5q82 -5 142 49.5t64 138.5z" />
    <glyph glyph-name="l.alt1" horiz-adv-x="485" 
d="M512 0h-25q-173 0 -246 88.5t-73 265.5v1166h61v-1166q0 -156 57.5 -224.5t200.5 -68.5h25v-61z" />
    <glyph glyph-name="a.alt1" horiz-adv-x="1103" 
d="M430 39q113 0 245 58t199 167v123q-96 37 -210.5 57.5t-180.5 20.5q-100 0 -169 -18.5t-102 -52t-45.5 -68t-12.5 -78.5q0 -94 68.5 -151.5t207.5 -57.5zM506 915q-96 0 -167.5 -28.5t-139.5 -89.5q-9 10 -16 18t-12 13.5t-13 13.5q129 135 366 135q202 0 308 -99
t106 -290v-588h-61v176q-50 -58 -112 -99.5t-124 -62t-114 -29t-101 -8.5q-156 0 -245 71.5t-89 199.5q0 126 92 202t299 76q74 0 185.5 -20t208.5 -57v139q0 174 -97 250.5t-274 76.5z" />
    <glyph glyph-name="y.alt1" horiz-adv-x="1019" 
d="M432 -119l41 109l-410 966h68l377 -893l383 893h67l-479 -1122q-66 -155 -156 -233t-225 -78q-34 0 -55 4v61q17 -4 55 -4q116 0 192.5 70.5t141.5 226.5z" />
    <glyph glyph-name="lslash.alt1" horiz-adv-x="512" 
d="M188 715l-172 -107v60l172 106v746h62v-707l227 143v-59l-227 -143v-400q0 -156 57.5 -224.5t200.5 -68.5h24v-61h-24q-173 0 -246.5 88.5t-73.5 265.5v361z" />
    <glyph glyph-name="lacute.alt1" horiz-adv-x="485" 
d="M403 1907l-180 -260h-55l162 260h73zM512 0h-25q-173 0 -246 88.5t-73 265.5v1166h61v-1166q0 -156 57.5 -224.5t200.5 -68.5h25v-61z" />
    <glyph glyph-name="lcommaaccent.alt1" horiz-adv-x="485" 
d="M311 -440h-55q130 137 141 299h68q-22 -193 -154 -299zM512 0h-25q-173 0 -246 88.5t-73 265.5v1166h61v-1166q0 -156 57.5 -224.5t200.5 -68.5h25v-61z" />
    <glyph glyph-name="lcaron.alt1" horiz-adv-x="485" 
d="M412 1520h59q0 -115 -29.5 -188.5t-83.5 -133.5l-30 19q87 111 84 303zM512 0h-25q-173 0 -246 88.5t-73 265.5v1166h61v-1166q0 -156 57.5 -224.5t200.5 -68.5h25v-61z" />
    <glyph glyph-name="aacute.alt1" horiz-adv-x="1103" 
d="M707 1362l-181 -260h-55l162 260h74zM430 39q113 0 245 58t199 167v123q-96 37 -210.5 57.5t-180.5 20.5q-100 0 -169 -18.5t-102 -52t-45.5 -68t-12.5 -78.5q0 -94 68.5 -151.5t207.5 -57.5zM506 915q-96 0 -167.5 -28.5t-139.5 -89.5q-9 10 -16 18t-12 13.5t-13 13.5
q129 135 366 135q202 0 308 -99t106 -290v-588h-61v176q-50 -58 -112 -99.5t-124 -62t-114 -29t-101 -8.5q-156 0 -245 71.5t-89 199.5q0 126 92 202t299 76q74 0 185.5 -20t208.5 -57v139q0 174 -97 250.5t-274 76.5z" />
    <glyph glyph-name="agrave.alt1" horiz-adv-x="1103" 
d="M481 1102l-180 260h74l162 -260h-56zM430 39q113 0 245 58t199 167v123q-96 37 -210.5 57.5t-180.5 20.5q-100 0 -169 -18.5t-102 -52t-45.5 -68t-12.5 -78.5q0 -94 68.5 -151.5t207.5 -57.5zM506 915q-96 0 -167.5 -28.5t-139.5 -89.5q-9 10 -16 18t-12 13.5t-13 13.5
q129 135 366 135q202 0 308 -99t106 -290v-588h-61v176q-50 -58 -112 -99.5t-124 -62t-114 -29t-101 -8.5q-156 0 -245 71.5t-89 199.5q0 126 92 202t299 76q74 0 185.5 -20t208.5 -57v139q0 174 -97 250.5t-274 76.5z" />
    <glyph glyph-name="acircumflex.alt1" horiz-adv-x="1103" 
d="M475 1362h98l226 -260h-62l-213 223l-213 -223h-61zM430 39q113 0 245 58t199 167v123q-96 37 -210.5 57.5t-180.5 20.5q-100 0 -169 -18.5t-102 -52t-45.5 -68t-12.5 -78.5q0 -94 68.5 -151.5t207.5 -57.5zM506 915q-96 0 -167.5 -28.5t-139.5 -89.5q-9 10 -16 18
t-12 13.5t-13 13.5q129 135 366 135q202 0 308 -99t106 -290v-588h-61v176q-50 -58 -112 -99.5t-124 -62t-114 -29t-101 -8.5q-156 0 -245 71.5t-89 199.5q0 126 92 202t299 76q74 0 185.5 -20t208.5 -57v139q0 174 -97 250.5t-274 76.5z" />
    <glyph glyph-name="adieresis.alt1" horiz-adv-x="1103" 
d="M293 1272q0 26 18 42.5t45 16.5q29 0 47.5 -16.5t18.5 -42.5q0 -25 -18.5 -41.5t-47.5 -16.5q-26 0 -44.5 16.5t-18.5 41.5zM606 1272q0 26 18.5 42.5t45.5 16.5q29 0 47 -16.5t18 -42.5q0 -25 -18 -41.5t-47 -16.5q-26 0 -45 16.5t-19 41.5zM430 39q113 0 245 58
t199 167v123q-96 37 -210.5 57.5t-180.5 20.5q-100 0 -169 -18.5t-102 -52t-45.5 -68t-12.5 -78.5q0 -94 68.5 -151.5t207.5 -57.5zM506 915q-96 0 -167.5 -28.5t-139.5 -89.5q-9 10 -16 18t-12 13.5t-13 13.5q129 135 366 135q202 0 308 -99t106 -290v-588h-61v176
q-50 -58 -112 -99.5t-124 -62t-114 -29t-101 -8.5q-156 0 -245 71.5t-89 199.5q0 126 92 202t299 76q74 0 185.5 -20t208.5 -57v139q0 174 -97 250.5t-274 76.5z" />
    <glyph glyph-name="atilde.alt1" horiz-adv-x="1103" 
d="M500 1202q-4 3 -14 11t-14.5 11t-13 8t-14 7t-14 4t-16.5 2q-28 0 -51.5 -22t-24.5 -68h-62q3 51 27.5 85.5t53 47t57.5 12.5q8 0 16 -1t14 -2t13.5 -3.5l12 -4t12 -6t10 -5.5t11 -7t9.5 -7t10 -8l10 -7q46 -39 84 -39q28 0 51.5 22t24.5 68h62q-3 -51 -27.5 -85.5
t-53 -47t-57.5 -12.5q-26 0 -48.5 7.5t-34 15t-33.5 24.5zM430 39q113 0 245 58t199 167v123q-96 37 -210.5 57.5t-180.5 20.5q-100 0 -169 -18.5t-102 -52t-45.5 -68t-12.5 -78.5q0 -94 68.5 -151.5t207.5 -57.5zM506 915q-96 0 -167.5 -28.5t-139.5 -89.5q-9 10 -16 18
t-12 13.5t-13 13.5q129 135 366 135q202 0 308 -99t106 -290v-588h-61v176q-50 -58 -112 -99.5t-124 -62t-114 -29t-101 -8.5q-156 0 -245 71.5t-89 199.5q0 126 92 202t299 76q74 0 185.5 -20t208.5 -57v139q0 174 -97 250.5t-274 76.5z" />
    <glyph glyph-name="aring.alt1" horiz-adv-x="1103" 
d="M358 1309q0 72 48.5 122t117.5 50q72 0 122 -50.5t50 -121.5q0 -72 -50 -120t-122 -48q-70 0 -118 48.5t-48 119.5zM414 1309q0 -48 31.5 -80.5t78.5 -32.5q49 0 83 33t34 80q0 49 -33.5 82.5t-83.5 33.5q-47 0 -78.5 -33t-31.5 -83zM430 39q113 0 245 58t199 167v123
q-96 37 -210.5 57.5t-180.5 20.5q-100 0 -169 -18.5t-102 -52t-45.5 -68t-12.5 -78.5q0 -94 68.5 -151.5t207.5 -57.5zM506 915q-96 0 -167.5 -28.5t-139.5 -89.5q-9 10 -16 18t-12 13.5t-13 13.5q129 135 366 135q202 0 308 -99t106 -290v-588h-61v176q-50 -58 -112 -99.5
t-124 -62t-114 -29t-101 -8.5q-156 0 -245 71.5t-89 199.5q0 126 92 202t299 76q74 0 185.5 -20t208.5 -57v139q0 174 -97 250.5t-274 76.5z" />
    <glyph glyph-name="amacron.alt1" horiz-adv-x="1103" 
d="M303 1288h467v-55h-467v55zM430 39q113 0 245 58t199 167v123q-96 37 -210.5 57.5t-180.5 20.5q-100 0 -169 -18.5t-102 -52t-45.5 -68t-12.5 -78.5q0 -94 68.5 -151.5t207.5 -57.5zM506 915q-96 0 -167.5 -28.5t-139.5 -89.5q-9 10 -16 18t-12 13.5t-13 13.5
q129 135 366 135q202 0 308 -99t106 -290v-588h-61v176q-50 -58 -112 -99.5t-124 -62t-114 -29t-101 -8.5q-156 0 -245 71.5t-89 199.5q0 126 92 202t299 76q74 0 185.5 -20t208.5 -57v139q0 174 -97 250.5t-274 76.5z" />
    <glyph glyph-name="abreve.alt1" horiz-adv-x="1103" 
d="M692 1331h56q0 -92 -62 -148.5t-164 -56.5q-111 0 -167 59.5t-56 145.5h55q0 -63 41.5 -106t126.5 -43q78 0 124 40.5t46 108.5zM430 39q113 0 245 58t199 167v123q-96 37 -210.5 57.5t-180.5 20.5q-100 0 -169 -18.5t-102 -52t-45.5 -68t-12.5 -78.5q0 -94 68.5 -151.5
t207.5 -57.5zM506 915q-96 0 -167.5 -28.5t-139.5 -89.5q-9 10 -16 18t-12 13.5t-13 13.5q129 135 366 135q202 0 308 -99t106 -290v-588h-61v176q-50 -58 -112 -99.5t-124 -62t-114 -29t-101 -8.5q-156 0 -245 71.5t-89 199.5q0 126 92 202t299 76q74 0 185.5 -20
t208.5 -57v139q0 174 -97 250.5t-274 76.5z" />
    <glyph glyph-name="aogonek.alt1" horiz-adv-x="1103" 
d="M430 39q113 0 245 58t199 167v123q-96 37 -210.5 57.5t-180.5 20.5q-100 0 -169 -18.5t-102 -52t-45.5 -68t-12.5 -78.5q0 -94 68.5 -151.5t207.5 -57.5zM938 588v-588l-66 -166q-12 -27 -12 -53q0 -76 78 -113q16 -8 47 -8q74 0 111 78v-2q12 30 12 59h59q0 -37 -16 -80
q-31 -72 -99 -100.5t-137 0.5q-73 29 -101 99t3 143l60 143v176q-50 -58 -112 -99.5t-124 -62t-114 -29t-101 -8.5q-156 0 -245 71.5t-89 199.5q0 126 92 202t299 76q74 0 185.5 -20t208.5 -57v139q0 174 -97 250.5t-274 76.5q-96 0 -167.5 -28.5t-139.5 -89.5q-9 10 -16 18
t-12 13.5t-13 13.5q129 135 366 135q202 0 308 -99t106 -290z" />
    <glyph glyph-name="yacute.alt1" horiz-adv-x="1019" 
d="M700 1362l-180 -260h-55l162 260h73zM432 -119l41 109l-410 966h68l377 -893l383 893h67l-479 -1122q-66 -155 -156 -233t-225 -78q-34 0 -55 4v61q17 -4 55 -4q116 0 192.5 70.5t141.5 226.5z" />
    <glyph glyph-name="ydieresis.alt1" horiz-adv-x="1019" 
d="M311 1272q0 26 18.5 42.5t45.5 16.5q29 0 47 -16.5t18 -42.5q0 -25 -18 -41.5t-47 -16.5q-26 0 -45 16.5t-19 41.5zM625 1272q0 26 18 42.5t45 16.5q29 0 47.5 -16.5t18.5 -42.5q0 -25 -18.5 -41.5t-47.5 -16.5q-26 0 -44.5 16.5t-18.5 41.5zM432 -119l41 109l-410 966
h68l377 -893l383 893h67l-479 -1122q-66 -155 -156 -233t-225 -78q-34 0 -55 4v61q17 -4 55 -4q116 0 192.5 70.5t141.5 226.5z" />
    <glyph glyph-name="ae.alt1" horiz-adv-x="1916" 
d="M1358 915q-173 0 -290.5 -111t-129.5 -294h825q-7 184 -120 294.5t-285 110.5zM430 39q113 0 245 58t199 167v123q-96 37 -210.5 57.5t-180.5 20.5q-100 0 -169 -18.5t-102 -52t-45.5 -68t-12.5 -78.5q0 -94 68.5 -151.5t207.5 -57.5zM924 711q60 125 174.5 195.5
t259.5 70.5q205 0 336 -136t131 -360v-26h-887q7 -185 128 -299.5t292 -114.5q115 0 208 51t150 144l53 -33q-67 -105 -174.5 -164t-236.5 -59q-138 0 -248.5 63.5t-171.5 179.5v-223h-61v176q-50 -58 -112 -99.5t-124 -62t-114 -29t-101 -8.5q-156 0 -245 71.5t-89 199.5
q0 126 92 202t299 76q74 0 185.5 -20t208.5 -57v55v84q0 174 -97 250.5t-274 76.5q-96 0 -167.5 -28.5t-139.5 -89.5q-9 10 -16 18t-12 13.5t-13 13.5q129 135 366 135q166 0 267.5 -67.5t132.5 -198.5z" />
    <glyph glyph-name="aeacute.alt1" horiz-adv-x="1916" 
d="M1151 1362l-180 -260h-56l162 260h74zM1358 915q-173 0 -290.5 -111t-129.5 -294h825q-7 184 -120 294.5t-285 110.5zM430 39q113 0 245 58t199 167v123q-96 37 -210.5 57.5t-180.5 20.5q-100 0 -169 -18.5t-102 -52t-45.5 -68t-12.5 -78.5q0 -94 68.5 -151.5
t207.5 -57.5zM924 711q60 125 174.5 195.5t259.5 70.5q205 0 336 -136t131 -360v-26h-887q7 -185 128 -299.5t292 -114.5q115 0 208 51t150 144l53 -33q-67 -105 -174.5 -164t-236.5 -59q-138 0 -248.5 63.5t-171.5 179.5v-223h-61v176q-50 -58 -112 -99.5t-124 -62
t-114 -29t-101 -8.5q-156 0 -245 71.5t-89 199.5q0 126 92 202t299 76q74 0 185.5 -20t208.5 -57v55v84q0 174 -97 250.5t-274 76.5q-96 0 -167.5 -28.5t-139.5 -89.5q-9 10 -16 18t-12 13.5t-13 13.5q129 135 366 135q166 0 267.5 -67.5t132.5 -198.5z" />
    <glyph glyph-name="ycircumflex.alt1" horiz-adv-x="1019" 
d="M475 1362h98l226 -260h-62l-213 223l-213 -223h-61zM432 -119l41 109l-410 966h68l377 -893l383 893h67l-479 -1122q-66 -155 -156 -233t-225 -78q-34 0 -55 4v61q17 -4 55 -4q116 0 192.5 70.5t141.5 226.5z" />
    <glyph glyph-name="ldot.alt1" horiz-adv-x="493" 
d="M367 528q0 31 22 51.5t57 20.5q32 0 55 -20.5t23 -51.5q0 -30 -22.5 -50.5t-55.5 -20.5q-35 0 -57 20t-22 51zM512 0h-25q-173 0 -246 88.5t-73 265.5v1166h61v-1166q0 -156 57.5 -224.5t200.5 -68.5h25v-61z" />
    <glyph glyph-name="t.alt1" horiz-adv-x="614" 
d="M240 901h-174v55h174v287l61 23v-310h238v-55h-238v-547q0 -154 57.5 -223.5t200.5 -69.5h27v-61h-27q-173 0 -246 88.5t-73 265.5v547z" />
    <glyph glyph-name="tcaron.alt1" horiz-adv-x="614" 
d="M487 1362h60q0 -115 -29.5 -188.5t-83.5 -133.5l-31 19q87 111 84 303zM240 901h-174v55h174v287l61 23v-310h238v-55h-238v-547q0 -154 57.5 -223.5t200.5 -69.5h27v-61h-27q-173 0 -246 88.5t-73 265.5v547z" />
    <glyph glyph-name="tbar.alt1" horiz-adv-x="620" 
d="M457 485h-150v-131q0 -154 57.5 -223.5t200.5 -69.5h27v-61h-27q-173 0 -246 88.5t-73 265.5v131h-133v56h133v360h-174v55h174v287l61 23v-310h238v-55h-238v-360h150v-56z" />
    <glyph glyph-name="tcommaaccent.alt1" horiz-adv-x="614" 
d="M371 -440h-56q131 138 142 299h67q-22 -194 -153 -299zM240 901h-174v55h174v287l61 23v-310h238v-55h-238v-547q0 -154 57.5 -223.5t200.5 -69.5h27v-61h-27q-173 0 -246 88.5t-73 265.5v547z" />
    <glyph glyph-name="T.sc.alt1" horiz-adv-x="1003" 
d="M68 1139v61h868v-61h-404v-1139h-61v1139h-403z" />
    <glyph glyph-name="Tcaron.sc.alt1" horiz-adv-x="1003" 
d="M68 1139v61h868v-61h-404v-1139h-61v1139h-403zM733 1550l-188 -223h-94l-187 223h62l172 -184l174 184h61z" />
    <glyph glyph-name="Tbar.sc.alt1" horiz-adv-x="1003" 
d="M471 0v629h-223v57h223v453h-403v61h868v-61h-404v-453h222v-57h-222v-629h-61z" />
    <glyph glyph-name="Tcommaaccent.sc.alt1" horiz-adv-x="1003" 
d="M406 -383l-54 4q107 115 115 260h68q-15 -173 -129 -264zM68 1139v61h868v-61h-404v-1139h-61v1139h-403z" />
    <glyph glyph-name="aringacute.alt1" horiz-adv-x="1105" 
d="M756 1640l-144 -204q60 -10 100 -58t40 -110q0 -72 -50 -120t-122 -48q-70 0 -118 48t-48 120q0 65 40 112t101 58l127 202h74zM469 1268q0 -47 32 -80t79 -33q49 0 82.5 33t33.5 80q0 50 -33 83t-83 33q-47 0 -79 -33.5t-32 -82.5zM432 39q113 0 245.5 58t199.5 167v123
q-96 37 -211 57.5t-181 20.5q-100 0 -169 -18.5t-102 -52t-45.5 -68t-12.5 -78.5q0 -94 68.5 -151.5t207.5 -57.5zM508 915q-96 0 -167.5 -28.5t-139.5 -89.5q-9 10 -16 18t-12 13.5t-13 13.5q129 135 366 135q202 0 308 -99t106 -290v-588h-61v176q-50 -58 -112 -99.5
t-124 -62t-114 -29t-101 -8.5q-156 0 -245 71.5t-89 199.5q0 126 92 202t299 76q74 0 185.5 -20t208.5 -57v139q0 174 -97 250.5t-274 76.5z" />
    </font>
</defs>
</svg>
