<?xml version="1.0" standalone="no"?>
<!DOCTYPE svg PUBLIC "-//W3C//DTD SVG 1.1//EN" "http://www.w3.org/Graphics/SVG/1.1/DTD/svg11.dtd" >
<svg xmlns="http://www.w3.org/2000/svg" xmlns:xlink="http://www.w3.org/1999/xlink" version="1.1">
<metadata>
Created by FontForge 20170731 at Mon Jul  4 09:39:29 2022
 By Aleksey,,,
Copyright (c) Olivier Gourvat - Mostardesign Studio, 2012. All rights reserved.
</metadata>
<defs>
<font id="SofiaPro-Italic" horiz-adv-x="1187" >
  <font-face 
    font-family="Sofia Pro"
    font-weight="400"
    font-style="italic"
    font-stretch="normal"
    units-per-em="2048"
    panose-1="2 11 0 0 0 0 0 0 0 0"
    ascent="1536"
    descent="-512"
    x-height="956"
    cap-height="1411"
    bbox="-354 -514 2429.39 2234"
    underline-thickness="102"
    underline-position="-307"
    slope="-12"
    unicode-range="U+0020-FB04"
  />
<missing-glyph horiz-adv-x="1300" 
d="M164 0l239 1362h973l-239 -1362h-973zM532 883h127q17 77 69 123.5t116 46.5q65 0 106 -42t29 -108q-10 -61 -66 -102q-36 -33 -75 -43q-95 -26 -153.5 -78t-76.5 -148l-14 -77h127l12 77q10 46 39 67.5t82 35.5q95 27 163.5 97.5t86.5 170.5q24 123 -49 200t-191 77
t-213 -82t-119 -215zM530 268q-7 -38 16 -63t62 -25q37 0 69.5 25t39.5 63q7 37 -16.5 62.5t-61.5 25.5q-39 0 -70.5 -25t-38.5 -63z" />
    <glyph glyph-name="f_f" unicode="ff" horiz-adv-x="1447" 
d="M1716 1477l-33 -179h-104q-56 0 -96.5 -20t-64.5 -58t-37 -76t-23 -91l-17 -97h222l-29 -157h-221l-139 -799h-189l139 799h-557l-139 -799h-188l139 799h-184l28 157h185l16 97q34 197 144.5 310.5t297.5 113.5h105l-33 -179h-104q-56 0 -96.5 -20t-65 -57.5t-37.5 -76
t-23 -91.5l-16 -97h557l16 97q34 197 145 310.5t298 113.5h104z" />
    <glyph glyph-name="fi" unicode="fi" horiz-adv-x="1292" 
d="M956 0l140 799h-529l-139 -799h-188l139 799h-184l28 157h185l16 97q34 197 144.5 310.5t297.5 113.5h105l-33 -179h-104q-56 0 -96.5 -20t-65 -57.5t-37.5 -76t-23 -91.5l-16 -97h713l-168 -956h-185zM1149 1309q10 53 53 87t98 34t86 -34t21 -87t-52.5 -87t-97.5 -34
t-86.5 34t-21.5 87z" />
    <glyph glyph-name="fl" unicode="fl" horiz-adv-x="1261" 
d="M920 0l227 1298h-313q-56 0 -96.5 -20t-65 -57.5t-37.5 -76t-23 -91.5l-16 -97h221l-29 -157h-221l-139 -799h-188l139 799h-184l28 157h185l18 97q34 197 144.5 310.5t295.5 113.5h500l-260 -1477h-186z" />
    <glyph glyph-name="f_f_i" unicode="ffi" horiz-adv-x="2037" 
d="M1841 799h-528l-139 -799h-189l139 799h-557l-139 -799h-188l139 799h-184l28 157h185l16 97q34 197 144.5 310.5t297.5 113.5h105l-33 -179h-104q-56 0 -96.5 -20t-65 -57.5t-37.5 -76t-23 -91.5l-16 -97h557l16 97q34 197 145 310.5t298 113.5h104l-33 -179h-104
q-56 0 -96.5 -20t-64.5 -58t-37 -76t-23 -91l-17 -97h713l-168 -956h-184zM1894 1309q10 53 53.5 87t98.5 34t85.5 -34t20.5 -87q-10 -54 -52.5 -87.5t-96.5 -33.5q-55 0 -87 34t-22 87z" />
    <glyph glyph-name="f_f_l" unicode="ffl" horiz-adv-x="2007" 
d="M1665 0l227 1298h-313q-56 0 -96.5 -20t-64.5 -58t-37 -76t-23 -91l-17 -97h222l-29 -157h-221l-139 -799h-189l139 799h-557l-139 -799h-188l139 799h-184l28 157h185l16 97q34 197 144.5 310.5t297.5 113.5h105l-33 -179h-104q-56 0 -96.5 -20t-65 -57.5t-37.5 -76
t-23 -91.5l-16 -97h557l18 97q34 197 145 310.5t296 113.5h499l-260 -1477h-186z" />
    <glyph glyph-name="f_f_j" unicode="ffj" horiz-adv-x="2021" 
d="M1313 -469l30 174h111q180 0 215 238l152 856h-508l-139 -799h-189l139 799h-557l-139 -799h-188l139 799h-184l28 157h185l16 97q34 197 144.5 310.5t297.5 113.5h105l-33 -179h-104q-56 0 -96.5 -20t-65 -57.5t-37.5 -76t-23 -91.5l-16 -97h557l16 97q34 197 145 310.5
t298 113.5h104l-33 -179h-104q-56 0 -96.5 -20t-64.5 -58t-37 -76t-23 -91l-17 -97h697l-180 -1015q-74 -410 -418 -410h-127zM1876 1309q10 53 53.5 87t98.5 34t85.5 -34t20.5 -87q-10 -54 -52.5 -87.5t-96.5 -33.5q-55 0 -87 34t-22 87z" />
    <glyph glyph-name="f_j" unicode="fj" horiz-adv-x="1275" 
d="M567 -469l31 174h111q180 0 215 238l151 856h-508l-139 -799h-188l139 799h-184l28 157h185l16 97q34 197 144.5 310.5t297.5 113.5h105l-33 -179h-104q-56 0 -96.5 -20t-65 -57.5t-37.5 -76t-23 -91.5l-16 -97h696l-180 -1015q-74 -410 -418 -410h-127zM1130 1309
q10 53 53.5 87t98.5 34t86 -34t21 -87t-52.5 -87t-97.5 -34t-87 34t-22 87z" />
    <glyph glyph-name=".notdef" horiz-adv-x="1300" 
d="M164 0l239 1362h973l-239 -1362h-973zM532 883h127q17 77 69 123.5t116 46.5q65 0 106 -42t29 -108q-10 -61 -66 -102q-36 -33 -75 -43q-95 -26 -153.5 -78t-76.5 -148l-14 -77h127l12 77q10 46 39 67.5t82 35.5q95 27 163.5 97.5t86.5 170.5q24 123 -49 200t-191 77
t-213 -82t-119 -215zM530 268q-7 -38 16 -63t62 -25q37 0 69.5 25t39.5 63q7 37 -16.5 62.5t-61.5 25.5q-39 0 -70.5 -25t-38.5 -63z" />
    <glyph glyph-name=".null" horiz-adv-x="0" 
 />
    <glyph glyph-name="nonmarkingreturn" horiz-adv-x="682" 
 />
    <glyph glyph-name="space" unicode=" " horiz-adv-x="532" 
 />
    <glyph glyph-name="space" unicode="&#xa0;" horiz-adv-x="532" 
 />
    <glyph glyph-name="exclam" unicode="!" horiz-adv-x="540" 
d="M610 1411l-200 -1032h-146l162 1032h184zM154 106q10 55 54.5 92.5t98.5 37.5q56 0 90.5 -37.5t24.5 -92.5t-56.5 -90.5t-103.5 -35.5q-55 0 -86.5 35.5t-21.5 90.5z" />
    <glyph glyph-name="quotedbl" unicode="&#x22;" horiz-adv-x="727" 
d="M401 1411h146l-103 -590h-145zM676 1411h145l-102 -590h-146z" />
    <glyph glyph-name="numbersign" unicode="#" horiz-adv-x="1343" 
d="M1241 1055h215l-80 -174h-217l-160 -359h215l-77 -174h-215l-162 -348h-176l159 348h-219l-162 -348h-174l160 348h-213l78 174h213l158 359h-209l78 174h213l159 356h179l-160 -356h219l160 356h178zM762 881l-160 -359h219l160 359h-219z" />
    <glyph glyph-name="dollar" unicode="$" horiz-adv-x="1150" 
d="M639 -18l-41 -226h-127l41 228q-182 24 -276.5 145t-69.5 279h190q-16 -97 57 -173.5t201 -76.5q127 0 211 60t111 147q12 57 3.5 99t-40.5 73t-71 49.5t-89 29.5l-172 46q-69 18 -121.5 44.5t-83 58t-49.5 63.5t-25 69t-5.5 67.5t6.5 65.5q19 108 91.5 195t173 136.5
t212.5 61.5l37 205h127l-37 -207q165 -24 249.5 -131.5t55.5 -275.5h-190q19 105 -44.5 168t-181.5 63q-106 0 -195 -60t-106 -153q-24 -148 164 -196l178 -45q193 -48 271 -161.5t28 -281.5q-47 -148 -175 -251t-308 -115z" />
    <glyph glyph-name="percent" unicode="%" horiz-adv-x="1396" 
d="M1333 1378l-917 -1378h-135l917 1378h135zM272 1104q20 115 114 194.5t208 79.5q115 0 180 -79t45 -195q-22 -116 -115 -194.5t-208 -78.5q-116 0 -181 78.5t-43 194.5zM416 1104q-10 -55 20 -92t86 -37q54 0 99 37t55 92q10 54 -21.5 92.5t-85.5 38.5q-55 0 -98.5 -38
t-54.5 -93zM817 252q20 116 112.5 195t209.5 79q115 0 180 -79t45 -195q-22 -116 -115.5 -194t-208.5 -78q-116 0 -179.5 77.5t-43.5 194.5zM961 252q-11 -56 19 -92.5t85 -36.5t100.5 37t55.5 92q10 54 -22.5 92.5t-86.5 38.5q-55 0 -97.5 -38t-53.5 -93z" />
    <glyph glyph-name="ampersand" unicode="&#x26;" horiz-adv-x="1345" 
d="M729 864h277l34 183h177l-35 -185h178l-29 -149h-178l-47 -281q-10 -52 -12.5 -89.5t3.5 -75t25 -61t55.5 -38t90.5 -14.5l-27 -172q-114 0 -192.5 41.5t-108.5 109.5q-65 -72 -164 -111.5t-207 -39.5q-201 0 -308.5 129t-74.5 321q20 116 93 213.5t184 159.5
q-86 95 -57 254q28 147 152 249.5t278 102.5q107 0 186 -54t117 -147l-168 -94q-50 117 -168 117q-82 0 -143.5 -49.5t-75.5 -124.5q-13 -78 27 -136.5t118 -58.5zM977 713h-281q-120 0 -215 -84.5t-116 -196.5q-22 -118 43 -195t190 -77q120 0 212.5 74t117.5 186z" />
    <glyph glyph-name="quotesingle" unicode="'" horiz-adv-x="452" 
d="M401 1411h146l-103 -590h-145z" />
    <glyph glyph-name="parenleft" unicode="(" horiz-adv-x="743" 
d="M182 475q77 439 276.5 695.5t454.5 256.5l-32 -182q-176 0 -320 -209t-205 -561q-61 -354 7 -562t245 -208l-33 -182q-256 0 -363.5 256t-29.5 696z" />
    <glyph glyph-name="parenright" unicode=")" horiz-adv-x="743" 
d="M725 475q-51 -291 -158.5 -507.5t-253.5 -330.5t-313 -114l27 182q176 0 319.5 209t204.5 561q39 239 24 410t-86 265.5t-188 94.5l33 182q169 0 275.5 -115.5t136 -327.5t-20.5 -509z" />
    <glyph glyph-name="asterisk" unicode="*" horiz-adv-x="956" 
d="M449 717l-105 94l213 215l-256 76l39 78q3 6 39 71l239 -100l31 276h162l-66 -276q33 12 131 47.5t146 52.5l20 -149l-278 -72l137 -221l-143 -88l-109 227z" />
    <glyph glyph-name="plus" unicode="+" horiz-adv-x="1062" 
d="M549 625l61 331h178l-61 -331h332l-29 -179h-332l-59 -333h-178l59 333h-332l29 179h332z" />
    <glyph glyph-name="comma" unicode="," horiz-adv-x="526" 
d="M119 -258l-121 43q177 208 215 451h197q-40 -176 -122.5 -303.5t-168.5 -190.5z" />
    <glyph glyph-name="hyphen" unicode="-" horiz-adv-x="995" 
d="M240 567h712l-30 -178h-713z" />
    <glyph glyph-name="period" unicode="." horiz-adv-x="544" 
d="M158 106q10 55 54.5 92.5t98.5 37.5q56 0 90.5 -37.5t24.5 -92.5t-56.5 -90.5t-103.5 -35.5q-55 0 -86.5 35.5t-21.5 90.5z" />
    <glyph glyph-name="slash" unicode="/" horiz-adv-x="1026" 
d="M1210 1411l-944 -1411h-203l945 1411h202z" />
    <glyph glyph-name="zero" unicode="0" horiz-adv-x="1239" 
d="M254 666q21 120 51.5 218.5t80 188t114.5 150t156.5 96t203.5 35.5q95 0 166 -24t115 -70t70 -106.5t33 -140.5t1.5 -163.5t-22.5 -183.5q-21 -119 -51.5 -216.5t-80 -186.5t-114 -149.5t-156 -96t-203.5 -35.5q-81 0 -145 18.5t-108 51t-73.5 81t-44 105.5t-17.5 128
t3 143.5t21 156.5zM436 666q-20 -111 -21.5 -196t18 -157t74 -110.5t142.5 -38.5t155.5 38.5t112 110.5t73 157t48.5 196q16 89 20.5 160t-4.5 137t-34.5 110t-74 70t-118.5 26q-87 0 -154.5 -38t-113 -110t-74.5 -157.5t-49 -197.5z" />
    <glyph glyph-name="one" unicode="1" horiz-adv-x="684" 
d="M303 0l193 1104l-230 -76l29 176l430 146l-238 -1350h-184z" />
    <glyph glyph-name="two" unicode="2" horiz-adv-x="1079" 
d="M135 82l660 657q118 118 137 219q17 96 -40.5 153.5t-158.5 57.5q-94 0 -171 -56.5t-109 -154.5l-172 43q56 161 190 257t293 96q177 0 278 -110.5t72 -285.5q-32 -181 -207 -346l-438 -428h510l-31 -184h-825z" />
    <glyph glyph-name="three" unicode="3" horiz-adv-x="1095" 
d="M489 1051l-118 108q72 97 186 150.5t236 46.5q106 -5 183 -58.5t108 -136.5t12 -176q-10 -44 -27 -82q-57 -120 -180 -182q94 -36 135.5 -144t11.5 -217q-44 -170 -207 -279t-348 -97q-130 10 -223 85t-125 193l178 88q18 -71 79 -124.5t138 -59.5h-2q109 -8 208.5 57.5
t119.5 161.5q20 97 -44.5 168.5t-170.5 71.5h-152l33 178h152q71 0 129 43t82 110q30 89 2 138q-36 67 -142 77q-139 11 -254 -120z" />
    <glyph glyph-name="four" unicode="4" horiz-adv-x="1212" 
d="M979 274l-47 -274h-182l47 274h-697l930 1063h137l-155 -888h192l-33 -175h-192zM446 449h383l99 557z" />
    <glyph glyph-name="five" unicode="5" horiz-adv-x="1155" 
d="M147 285l172 86q20 -99 87 -156t163 -57q159 0 253.5 76t117.5 196q24 121 -44.5 188.5t-184.5 67.5q-86 0 -160 -24t-193 -87l-98 95l234 665h712l-28 -176h-562l-143 -379q49 33 127 55.5t139 22.5q195 0 305.5 -113.5t75.5 -314.5q-37 -205 -195 -327.5t-386 -122.5
q-141 0 -247.5 82t-144.5 223z" />
    <glyph glyph-name="six" unicode="6" horiz-adv-x="1138" 
d="M1200 1096l-174 -70q-25 77 -80 115.5t-123 38.5q-140 0 -245 -132t-125 -335q91 151 303 151q119 0 205 -65t119.5 -170t9.5 -223q-42 -182 -193.5 -306.5t-329.5 -117.5q-179 8 -272.5 129.5t-73.5 328.5q22 238 111 506q64 186 208.5 299t323.5 109q59 -2 107 -14.5
t94 -40t80.5 -79t54.5 -124.5zM406 434q-20 -112 37.5 -186.5t162.5 -79.5q104 -4 190 67t111 179q25 110 -29 185.5t-159 80.5q-108 5 -198 -65.5t-115 -180.5z" />
    <glyph glyph-name="seven" unicode="7" horiz-adv-x="1085" 
d="M1286 1337l-969 -1337h-215l840 1155h-612l32 182h924z" />
    <glyph glyph-name="eight" unicode="8" horiz-adv-x="1150" 
d="M399 1012q25 143 144 242.5t272 99.5q151 0 238.5 -100t62.5 -242q-23 -138 -147 -236q87 -60 124 -153t17 -205q-32 -183 -187 -309.5t-350 -126.5q-196 0 -306.5 126t-78.5 310q20 111 91.5 205.5t175.5 152.5q-80 90 -56 236zM373 418q-20 -106 47 -180t184 -74
q119 0 210 73.5t112 180.5q18 106 -47.5 182t-182.5 76l-14 -2q-112 -8 -203 -82t-106 -174zM582 1012q-12 -67 25.5 -115.5t105.5 -48.5l16 2q76 6 133.5 51.5t69.5 110.5q12 66 -30.5 111.5t-117.5 45.5q-73 0 -131.5 -45.5t-70.5 -111.5z" />
    <glyph glyph-name="nine" unicode="9" horiz-adv-x="1136" 
d="M168 238l176 69q25 -78 79 -115.5t122 -37.5q140 0 245 132t125 335q-88 -152 -301 -152q-119 0 -204.5 65t-118 170t-8.5 224q42 182 194.5 306.5t329.5 117.5q178 -8 270 -129.5t72 -329.5q-22 -238 -111 -506q-63 -186 -208 -300t-324 -107q-59 2 -107 14.5t-94.5 40
t-81.5 79t-55 124.5zM967 899q20 111 -39.5 186t-163.5 80q-106 4 -191 -66t-110 -179q-23 -110 30.5 -186.5t157.5 -80.5q107 -5 199.5 66t116.5 180z" />
    <glyph glyph-name="colon" unicode=":" horiz-adv-x="550" 
d="M160 106q10 55 54.5 92.5t100.5 37.5q55 0 89 -38t24 -92t-56.5 -90t-101.5 -36q-56 0 -88 35.5t-22 90.5zM291 850q10 55 56 91t102 36q55 0 87.5 -36t22.5 -91t-56.5 -92t-101.5 -37q-56 0 -88 37t-22 92z" />
    <glyph glyph-name="semicolon" unicode=";" horiz-adv-x="581" 
d="M154 -258l-136 43q181 205 220 451h206q-41 -177 -122 -304.5t-168 -189.5zM319 850q10 55 55 91t101 36q57 0 90 -36t23 -91t-57 -92t-103 -37t-87.5 37t-21.5 92z" />
    <glyph glyph-name="less" unicode="&#x3c;" horiz-adv-x="1273" 
d="M1143 66l-967 395l31 178l1110 397l-37 -198l-829 -287l727 -291z" />
    <glyph glyph-name="equal" unicode="=" horiz-adv-x="1245" 
d="M291 799h942l-31 -178h-942zM219 403h942l-28 -178h-943z" />
    <glyph glyph-name="greater" unicode="&#x3e;" horiz-adv-x="1271" 
d="M1255 461l-1108 -398l33 197l834 291l-731 287l39 198l964 -397z" />
    <glyph glyph-name="question" unicode="?" horiz-adv-x="989" 
d="M440 999h-176q36 192 172.5 310t306.5 118q173 0 277.5 -110.5t73.5 -288.5q-28 -143 -129.5 -245.5t-235.5 -141.5q-78 -22 -119 -52.5t-53 -96.5l-22 -113h-183l21 113q14 73 43.5 128t74.5 92t95 61t119 44q72 23 133.5 82t72.5 129q17 96 -43 156.5t-155 60.5
q-93 0 -173 -68t-100 -178zM262 109q10 55 55 92t101 37t89 -37t23 -92t-54.5 -91t-100.5 -36q-57 0 -90 36t-23 91z" />
    <glyph glyph-name="at" unicode="@" horiz-adv-x="1986" 
d="M1274 262l47 264q22 111 -42.5 188t-174.5 77q-109 0 -199 -76.5t-112 -188.5q-20 -108 44 -185t173 -77q107 0 219 98l-29 -174q-111 -69 -217 -69q-169 0 -267 119t-69 288q29 170 171.5 290t311.5 120q162 0 261 -113q100 -114 79 -278l-55 -297q-27 -135 125 -135
q57 0 106 30.5t82.5 75.5t60.5 107t42.5 115t26.5 110q26 153 -12.5 288t-127.5 229t-221.5 148t-288.5 54q-154 0 -302 -59.5t-264 -161t-197.5 -240.5t-108.5 -293q-28 -154 4 -292.5t112 -238t207 -158t281 -58.5h47l-24 -146h-48q-183 0 -335 70t-248.5 189t-136 284.5
t-5.5 349.5q32 184 130.5 350t237 286.5t315.5 191.5t360 71q185 0 343 -65.5t263.5 -179t151.5 -275t14 -344.5q-14 -76 -40 -153t-69 -155.5t-97 -138t-128.5 -97.5t-157.5 -38q-46 0 -85 9t-74.5 30t-56 54.5t-29 83t5.5 116.5z" />
    <glyph glyph-name="A" unicode="A" horiz-adv-x="1320" 
d="M520 530h467l-121 627zM1022 358h-598l-199 -358h-202l784 1411h205l286 -1411h-200z" />
    <glyph glyph-name="B" unicode="B" horiz-adv-x="1286" 
d="M1292 1047q-19 -101 -74.5 -180t-154.5 -115q73 -16 121 -72t64.5 -127.5t4.5 -144.5q-31 -171 -163 -289.5t-320 -118.5h-577l247 1411h533q178 0 263 -98t56 -266zM528 825h340q89 0 149.5 61.5t78.5 153.5q17 92 -30 143.5t-144 51.5h-320zM870 657h-370l-86 -479h377
q100 0 175 68.5t93 163.5q18 92 -35 169.5t-154 77.5z" />
    <glyph glyph-name="C" unicode="C" horiz-adv-x="1398" 
d="M1266 344l123 -121q-120 -115 -269 -179t-311 -64q-148 0 -270.5 57t-200.5 153.5t-110 230t-5 281.5q36 197 159.5 363.5t305 264t377.5 97.5q161 0 286.5 -63t200.5 -176l-166 -119q-59 81 -149 127.5t-203 46.5q-145 0 -278.5 -72t-225 -196.5t-118.5 -272.5t21 -272
t156.5 -195t252.5 -71q117 0 227 47t197 133z" />
    <glyph glyph-name="D" unicode="D" horiz-adv-x="1482" 
d="M739 0h-546l247 1411h547q196 0 325.5 -94t175 -253.5t9.5 -361.5q-27 -151 -93 -279t-162 -222t-226 -147.5t-277 -53.5zM412 178h356q212 0 356.5 147t182.5 377q21 111 7 208t-54.5 169t-119 113t-186.5 41h-356z" />
    <glyph glyph-name="E" unicode="E" horiz-adv-x="1157" 
d="M440 1411h836l-33 -178h-645l-78 -451h563l-32 -178h-564l-75 -426h665l-28 -178h-856z" />
    <glyph glyph-name="F" unicode="F" horiz-adv-x="1077" 
d="M440 1411h824l-33 -178h-633l-78 -451h502l-33 -178h-502l-104 -604h-190z" />
    <glyph glyph-name="G" unicode="G" horiz-adv-x="1548" 
d="M1507 1241l-159 -127q-131 131 -316 131q-146 0 -279.5 -73t-224 -197.5t-116.5 -272.5q-27 -148 19.5 -272t154 -196t252.5 -72q193 0 336 103t184 278h-402l29 166h619q-64 -363 -274.5 -546t-522.5 -183q-197 0 -344 96.5t-211 262t-29 363.5q27 147 106 281
t190.5 231.5t254 155t289.5 57.5q276 0 444 -186z" />
    <glyph glyph-name="H" unicode="H" horiz-adv-x="1449" 
d="M1505 1411l-248 -1411h-192l106 614h-682l-106 -614h-190l247 1411h191l-111 -623h682l111 623h192z" />
    <glyph glyph-name="I" unicode="I" horiz-adv-x="575" 
d="M440 1411h191l-248 -1411h-190z" />
    <glyph glyph-name="J" unicode="J" horiz-adv-x="575" 
d="M-291 -492l49 181q21 -7 67.5 -12t65.5 -5q123 0 195 76.5t94 196.5l260 1466h191l-260 -1466q-18 -97 -56 -177t-99 -145t-152 -101t-205 -36q-47 0 -150 22z" />
    <glyph glyph-name="K" unicode="K" horiz-adv-x="1183" 
d="M666 707l532 -707h-256l-455 602l-104 -602h-190l247 1411h191l-107 -610l574 610h235z" />
    <glyph glyph-name="L" unicode="L" horiz-adv-x="1013" 
d="M440 1411h191l-219 -1233h575l-29 -178h-765z" />
    <glyph glyph-name="M" unicode="M" horiz-adv-x="1912" 
d="M1020 375l682 1036h174l-76 -1411h-188l57 1061l-600 -905h-168l-285 905l-315 -1061h-188l419 1411h175z" />
    <glyph glyph-name="N" unicode="N" horiz-adv-x="1400" 
d="M1208 0h-182l-457 1063l-186 -1063h-190l247 1411h189l448 -1055l189 1055h190z" />
    <glyph glyph-name="O" unicode="O" horiz-adv-x="1630" 
d="M223 702q27 147 106 281t190.5 231.5t254 155t289.5 57.5q148 0 271.5 -57.5t202 -155t111 -231.5t5.5 -281q-36 -198 -159 -363.5t-305.5 -262t-381.5 -96.5q-197 0 -344 96.5t-211 262t-29 363.5zM414 702q-27 -148 19.5 -272t154 -195t252.5 -71q146 0 278.5 71.5
t222.5 194.5t117 272q27 148 -19.5 272.5t-154 196.5t-252.5 72q-220 0 -400.5 -158t-217.5 -383z" />
    <glyph glyph-name="P" unicode="P" horiz-adv-x="1241" 
d="M440 1411h564q87 0 154 -25t106.5 -67t64 -99t25.5 -120.5t-8 -130.5q-15 -86 -53.5 -162.5t-99 -140t-150.5 -101t-197 -37.5h-371l-90 -528h-192zM969 1233h-369l-92 -526h358q119 0 194.5 77t94.5 185q12 68 -0.5 126t-60 98t-125.5 40z" />
    <glyph glyph-name="Q" unicode="Q" horiz-adv-x="1630" 
d="M1208 88l105 -233l-162 -91l-117 250q-106 -34 -227 -34q-197 0 -344 96.5t-211 262t-29 363.5q27 147 106 281t190.5 231.5t254 155t289.5 57.5q197 0 345.5 -97.5t214 -264t30.5 -363.5q-35 -192 -153.5 -353t-291.5 -261zM1020 506l113 -258q129 72 214 190t111 264
q27 148 -19.5 272.5t-154 196.5t-252.5 72q-221 0 -398.5 -157t-219.5 -384q-24 -141 17.5 -259.5t139 -190.5t232.5 -80q88 -6 158 8l-103 234z" />
    <glyph glyph-name="R" unicode="R" horiz-adv-x="1267" 
d="M877 535l284 -535h-231l-275 528h-180l-90 -528h-192l247 1411h543q86 0 153 -25t106 -67t63.5 -99t25.5 -120.5t-8 -130.5q-15 -81 -49 -152.5t-87.5 -133t-133 -101t-176.5 -47.5zM944 1233h-344l-92 -526h336q61 0 112 22t84.5 60t55 83.5t30.5 96.5q19 108 -24.5 186
t-157.5 78z" />
    <glyph glyph-name="S" unicode="S" horiz-adv-x="1173" 
d="M176 408h191q-16 -97 57 -173.5t201 -76.5q125 0 208.5 60t110.5 147q14 45 6.5 82t-22.5 63.5t-45.5 47.5t-61.5 34t-71 24l-172 46q-60 16 -107 38t-77.5 46.5t-52 54t-32 57t-14 59.5t-2.5 58t6 55q19 115 99.5 207.5t193 141t233.5 48.5q197 0 306 -113t77 -300h-190
q19 105 -44 168t-181 63q-106 0 -196.5 -60t-107.5 -153q-24 -148 164 -196l181 -45q193 -48 271 -161.5t28 -281.5q-52 -161 -195 -264.5t-344 -103.5q-105 0 -192 36t-140.5 95t-77 137t-8.5 160z" />
    <glyph glyph-name="T" unicode="T" horiz-adv-x="1163" 
d="M305 1411h1049l-31 -180h-428l-217 -1231h-193l217 1231h-428z" />
    <glyph glyph-name="U" unicode="U" horiz-adv-x="1388" 
d="M721 164q134 0 245.5 89t135.5 232l164 926h190l-164 -926q-27 -149 -119 -266t-219 -178t-266 -61q-103 0 -191 36t-147.5 100.5t-84.5 160.5t-5 208l164 926h192l-163 -926q-24 -143 55 -232t213 -89z" />
    <glyph glyph-name="V" unicode="V" horiz-adv-x="1150" 
d="M504 1411l127 -1089l512 1089h196l-671 -1411h-183l-180 1411h199z" />
    <glyph glyph-name="W" unicode="W" horiz-adv-x="1845" 
d="M1858 1411h204l-725 -1411h-166l-94 881l-403 -881h-166l-229 1411h204l158 -1104l424 914h145l97 -914z" />
    <glyph glyph-name="X" unicode="X" horiz-adv-x="1259" 
d="M877 758l360 -758h-229l-275 600l-483 -600h-227l624 758l-323 653h229l235 -498l414 498h230z" />
    <glyph glyph-name="Y" unicode="Y" horiz-adv-x="1286" 
d="M741 0h-196l112 649l-399 762h227l306 -571l509 571h230l-676 -762z" />
    <glyph glyph-name="Z" unicode="Z" horiz-adv-x="1173" 
d="M115 166l934 1065h-717l30 180h959l-29 -166l-940 -1065h750l-29 -180h-987z" />
    <glyph glyph-name="bracketleft" unicode="[" horiz-adv-x="669" 
d="M86 -465l334 1876h411l-30 -170h-228l-270 -1536h227l-32 -170h-412z" />
    <glyph glyph-name="backslash" unicode="\" horiz-adv-x="1026" 
d="M760 0l-449 1411h203l449 -1411h-203z" />
    <glyph glyph-name="bracketright" unicode="]" horiz-adv-x="669" 
d="M745 1411l-333 -1876h-408l29 170h227l270 1536h-227l31 170h411z" />
    <glyph glyph-name="underscore" unicode="_" horiz-adv-x="1431" 
d="M131 -57h1149l-33 -166h-1149z" />
    <glyph glyph-name="grave" unicode="`" horiz-adv-x="1048" 
d="M709 1135l-189 315h223l144 -315h-178z" />
    <glyph glyph-name="a" unicode="a" horiz-adv-x="1253" 
d="M913 0l23 147q-59 -79 -160 -123t-205 -44q-98 0 -180 36t-137.5 99.5t-77.5 158t-2 205.5q27 148 114 263t207.5 175t252.5 60q104 0 189.5 -42.5t119.5 -121.5l22 143h185l-166 -956h-185zM993 481q14 74 -2.5 135t-55.5 99.5t-91 59t-111 20.5q-131 0 -237.5 -88
t-130.5 -226q-24 -140 48.5 -229.5t204.5 -89.5q134 0 240.5 86t134.5 233z" />
    <glyph glyph-name="b" unicode="b" horiz-adv-x="1253" 
d="M367 147l-25 -147h-186l260 1477h186l-117 -664q60 79 158.5 121.5t206.5 42.5q204 0 318.5 -137.5t74.5 -360.5q-27 -147 -114 -262.5t-207.5 -176t-251.5 -60.5q-103 0 -186 44t-117 123zM426 481q-28 -146 50 -232.5t212 -86.5q130 0 235.5 90t129.5 229t-48 226.5
t-204 87.5q-125 0 -236 -84.5t-139 -229.5z" />
    <glyph glyph-name="c" unicode="c" horiz-adv-x="1048" 
d="M174 481q27 147 116.5 261.5t214.5 174.5t263 60q110 0 199 -40t143 -114l-162 -118q-75 90 -211 90q-133 0 -244 -87t-135 -227q-24 -139 54.5 -230t210.5 -91q138 0 243 94l123 -119q-82 -74 -185 -114.5t-212 -40.5q-101 0 -186.5 36t-143.5 100t-82.5 159t-5.5 206z
" />
    <glyph glyph-name="d" unicode="d" horiz-adv-x="1253" 
d="M911 0l23 147q-59 -79 -160 -123t-205 -44q-202 0 -318.5 139t-76.5 360q27 148 113.5 263t205.5 175t250 60q109 0 193.5 -42.5t118.5 -121.5l116 664h187l-260 -1477h-187zM991 481q14 74 -2.5 135t-55.5 99.5t-91 59t-111 20.5q-132 0 -237 -87.5t-129 -226.5t48 -229
t203 -90q133 0 240 86t135 233z" />
    <glyph glyph-name="e" unicode="e" horiz-adv-x="1138" 
d="M375 553h594q1 121 -64 188.5t-182 67.5q-122 0 -217 -68.5t-131 -187.5zM1139 481q-3 -11 -7.5 -36.5t-7.5 -36.5h-776q-6 -120 66 -190.5t196 -70.5q88 0 168 38.5t133 109.5q25 -12 77 -32t75 -30q-84 -124 -213.5 -188.5t-274.5 -64.5q-208 0 -324 139t-77 362
q27 148 113 262t207.5 174t257.5 60q101 0 182.5 -35t133.5 -99.5t72 -156t-1 -205.5z" />
    <glyph glyph-name="f" unicode="f" horiz-adv-x="702" 
d="M971 1477l-33 -179h-104q-188 0 -220 -245l-18 -97h221l-29 -157h-221l-139 -799h-188l139 799h-184l28 157h185l18 97q34 197 144.5 310.5t295.5 113.5h105z" />
    <glyph glyph-name="g" unicode="g" horiz-adv-x="1251" 
d="M272 -137q28 -77 97 -120.5t151 -43.5q163 0 269 102.5t147 331.5l4 23q-54 -82 -159 -129t-210 -47q-98 0 -180 35t-137 98t-77 157t-3 205q26 147 113.5 263t209 177.5t253.5 61.5q105 0 189.5 -44.5t115.5 -125.5l26 149h185l-144 -811q-113 -622 -633 -622
q-136 0 -238.5 66.5t-148.5 191.5q11 5 83.5 41t86.5 41zM993 477q28 148 -49 233t-211 85q-131 0 -237.5 -90t-130.5 -228q-24 -144 49 -229.5t207 -85.5q126 0 235 84.5t137 230.5z" />
    <glyph glyph-name="h" unicode="h" 
d="M432 516l-90 -516h-186l260 1477h186l-117 -664q52 79 153 121.5t191 42.5q182 0 266 -111.5t46 -312.5l-97 -553h-186l94 541q23 116 -28.5 185t-151.5 69q-51 0 -103.5 -15.5t-102 -46.5t-86 -87.5t-48.5 -129.5z" />
    <glyph glyph-name="i" unicode="i" horiz-adv-x="495" 
d="M508 956l-168 -956h-184l168 956h184zM348 1309q10 53 53.5 87t98.5 34t85.5 -34t20.5 -87q-10 -54 -52.5 -87.5t-96.5 -33.5q-55 0 -87 34t-22 87z" />
    <glyph glyph-name="j" unicode="j" horiz-adv-x="499" 
d="M-209 -469l33 174h110q54 0 94 21t62.5 58.5t34 74.5t18.5 84l181 1013h188l-180 -1015q-74 -410 -414 -410h-127zM350 1309q10 53 53.5 87t98.5 34t85.5 -34t20.5 -87q-10 -54 -52.5 -87.5t-96.5 -33.5q-55 0 -87 34t-22 87z" />
    <glyph glyph-name="k" unicode="k" horiz-adv-x="1028" 
d="M422 467l-82 -467h-184l260 1477h184l-151 -854l389 333h254l-484 -413l414 -543h-246z" />
    <glyph glyph-name="l" unicode="l" horiz-adv-x="497" 
d="M416 1477h186l-260 -1477h-186z" />
    <glyph glyph-name="m" unicode="m" horiz-adv-x="1804" 
d="M1395 795q-115 0 -198.5 -78.5t-104.5 -200.5l-91 -516h-186l94 543q23 117 -21.5 184.5t-139.5 67.5q-51 0 -100.5 -16t-94 -48t-77 -87.5t-44.5 -127.5l-90 -516h-186l168 956h186l-25 -143q49 72 134 113.5t157 46.5q56 3 105 -6q174 -27 215 -187q142 197 368 197
q179 0 254.5 -110.5t38.5 -313.5l-96 -553h-186l94 541q23 118 -23.5 186t-150.5 68z" />
    <glyph glyph-name="n" unicode="n" horiz-adv-x="1153" 
d="M432 516l-90 -516h-186l168 956h186l-25 -143q53 80 147 122t181 42q179 0 254.5 -110.5t38.5 -313.5l-96 -553h-187l95 541q23 120 -22 187t-144 67q-53 0 -103 -15.5t-95 -47.5t-77.5 -87.5t-44.5 -128.5z" />
    <glyph glyph-name="o" unicode="o" horiz-adv-x="1185" 
d="M586 -20q-101 0 -185.5 36t-141.5 100.5t-80.5 159t-4.5 205.5q27 148 115 262t212 174t261 60q101 0 186 -35.5t143 -98.5t81.5 -157t3.5 -205q-26 -147 -115 -263t-214 -177t-261 -61zM616 160q132 0 240.5 89t132.5 232q24 142 -50 228t-208 86q-132 0 -240.5 -87
t-132.5 -227q-24 -145 50 -233t208 -88z" />
    <glyph glyph-name="p" unicode="p" horiz-adv-x="1247" 
d="M510 956l-27 -149q61 80 161.5 125t203.5 45q201 0 315 -140t74 -362q-26 -147 -111.5 -261.5t-204.5 -174t-251 -59.5q-106 0 -188.5 41t-116.5 122l-109 -608h-186l254 1421h186zM426 473q-26 -145 53.5 -228t204.5 -83q131 0 236 86t129 225q24 141 -48.5 231.5
t-203.5 90.5q-132 0 -237.5 -87t-133.5 -235z" />
    <glyph glyph-name="q" unicode="q" horiz-adv-x="1247" 
d="M1049 807l24 149h187l-254 -1421h-187l109 608q-59 -79 -157.5 -121t-203.5 -42q-97 0 -178.5 35t-135.5 98t-76 157t-3 205q27 148 112.5 263.5t205 177t251.5 61.5q104 0 190 -45.5t116 -124.5zM987 473q28 147 -47.5 234.5t-208.5 87.5q-131 0 -236.5 -90.5
t-129.5 -231.5q-24 -140 47.5 -225.5t203.5 -85.5q81 0 157 34t136 106.5t78 170.5z" />
    <glyph glyph-name="r" unicode="r" horiz-adv-x="808" 
d="M403 348l-61 -348h-186l168 956h186l-39 -215q111 236 309 236q49 0 94.5 -11.5t63.5 -25.5l-59 -174q-62 33 -136 33q-90 0 -160.5 -61t-113.5 -159.5t-66 -230.5z" />
    <glyph glyph-name="s" unicode="s" horiz-adv-x="899" 
d="M569 391l-123 31q-130 39 -182.5 112t-17.5 199q29 104 136 174t236 70q134 0 215 -66t70 -204h-178q1 52 -35 80t-94 28q-54 0 -98.5 -24t-61.5 -62q-20 -45 -12 -76q12 -47 102 -73l133 -35q231 -59 199 -279q-24 -131 -144.5 -208.5t-277.5 -77.5q-137 0 -229.5 83.5
t-73.5 223.5h170q0 -73 59 -109q69 -41 148 -33q66 5 111 38t55 87q18 91 -107 121z" />
    <glyph glyph-name="t" unicode="t" horiz-adv-x="671" 
d="M582 956h202l-28 -157h-203l-139 -799h-187l140 799h-172l28 157h172l64 361h186z" />
    <glyph glyph-name="u" unicode="u" horiz-adv-x="1150" 
d="M885 440l92 516h186l-168 -956h-186l22 143q-53 -80 -145 -121.5t-180 -41.5q-179 0 -254.5 110t-38.5 313l98 553h187l-97 -540q-23 -121 21 -187.5t143 -66.5q115 0 204.5 67.5t115.5 210.5z" />
    <glyph glyph-name="v" unicode="v" horiz-adv-x="1044" 
d="M203 956h196l162 -718l418 718h199l-568 -956h2h-180z" />
    <glyph glyph-name="w" unicode="w" horiz-adv-x="1617" 
d="M1221 0h-154l-137 702l-375 -702h-152l-196 956h199l120 -669l359 669h180l121 -669l358 669h199z" />
    <glyph glyph-name="x" unicode="x" horiz-adv-x="1024" 
d="M260 956h223l148 -280l248 280h223l-389 -432l286 -524h-221l-203 371l-331 -371h-219l471 524z" />
    <glyph glyph-name="y" unicode="y" horiz-adv-x="1042" 
d="M328 -465h-195l289 494l-217 927h198l164 -692l410 692h199z" />
    <glyph glyph-name="z" unicode="z" horiz-adv-x="1028" 
d="M1096 956l-27 -153l-692 -625h579l-28 -178h-842l25 154l680 624h-537l33 178h809z" />
    <glyph glyph-name="braceleft" unicode="{" horiz-adv-x="819" 
d="M432 293l-63 -356q-21 -98 33 -169t145 -71h137l-31 -162h-131q-170 0 -265 110t-64 292l63 356q8 42 -23.5 73t-82.5 31l30 166q50 0 92 31.5t50 73.5l65 360q21 120 92 212t170.5 139.5t210.5 47.5h131l-26 -161h-138q-91 0 -169 -69.5t-95 -168.5l-65 -360
q-11 -58 -47 -111t-89 -78q41 -24 59.5 -76.5t10.5 -109.5z" />
    <glyph glyph-name="bar" unicode="|" horiz-adv-x="471" 
d="M586 1628l-332 -1872h-127l332 1872h127z" />
    <glyph glyph-name="braceright" unicode="}" horiz-adv-x="819" 
d="M424 -63l65 356q7 52 46 106.5t86 79.5q-42 25 -59.5 79t-6.5 110l63 360q17 99 -35 168.5t-143 69.5h-137l29 161h131q83 0 152 -28t115.5 -78.5t64.5 -126.5t0 -166l-64 -360q-8 -42 24 -73.5t83 -31.5l-29 -166q-51 0 -93 -31t-50 -73l-64 -356q-33 -181 -170 -291.5
t-307 -110.5h-127l27 162h137q91 0 165.5 69.5t96.5 170.5z" />
    <glyph glyph-name="exclamdown" unicode="&#xa1;" horiz-adv-x="493" 
d="M420 578l-168 -1043h-184l206 1043h146zM260 850q10 55 55.5 91t100.5 36q56 0 89 -36t23 -91t-56.5 -92t-102.5 -37q-55 0 -87 37t-22 92z" />
    <glyph glyph-name="cent" unicode="&#xa2;" horiz-adv-x="1087" 
d="M471 -240l39 228q-173 30 -267.5 164t-58.5 329t175.5 326.5t324.5 161.5l39 217h127l-37 -211q97 -4 176 -44t131 -108l-162 -118q-75 90 -210 90q-133 0 -244 -87t-135 -227t54 -230.5t210 -90.5q138 0 246 94l122 -119q-159 -141 -364 -153l-39 -222h-127z" />
    <glyph glyph-name="sterling" unicode="&#xa3;" horiz-adv-x="1294" 
d="M410 713l57 315q21 119 97 211.5t179.5 140t214.5 47.5q81 0 149 -30t113.5 -85.5t63.5 -135t0 -177.5h-184q17 90 -13 151.5t-92 80.5q-38 11 -92 8q-86 -5 -161.5 -64.5t-92.5 -146.5l-57 -315h313l-20 -125h-314l-71 -404h499q33 0 43 45l21 117h184l-18 -100
q-20 -109 -81.5 -177.5t-156.5 -68.5h-893l31 184h188l72 404h-156l21 125h156z" />
    <glyph glyph-name="currency" unicode="&#xa4;" horiz-adv-x="1249" 
d="M522 694q-17 -94 37 -159.5t148 -65.5q93 0 172 66t96 159q17 92 -39 160t-150 68q-93 0 -170 -67.5t-94 -160.5zM465 362l-168 -145l-92 113l168 145q-47 90 -25 219q20 116 107 221l-121 146l131 113l121 -146q109 68 229 68q125 0 211 -68l168 146l94 -113l-168 -146
q48 -97 27 -221q-20 -120 -107 -219l119 -145l-133 -113l-119 145q-107 -67 -233 -67q-121 0 -209 67z" />
    <glyph glyph-name="yen" unicode="&#xa5;" horiz-adv-x="1406" 
d="M889 518l-29 -160h375l-23 -131h-374l-39 -227h-197l39 227h-371l23 131h371l28 160h-370l22 131h371l-400 762h228l305 -571l510 571h229l-676 -762h375l-22 -131h-375z" />
    <glyph glyph-name="brokenbar" unicode="&#xa6;" horiz-adv-x="479" 
d="M322 829l141 799h127l-141 -799h-127zM399 551l-141 -795h-127l141 795h127z" />
    <glyph glyph-name="section" unicode="&#xa7;" horiz-adv-x="1056" 
d="M487 1006l-57 -328q-18 -101 36 -161t150 -60q63 0 117 22l-31 -182q-66 -16 -116 -16q-169 0 -266 109.5t-66 287.5l57 328q31 179 167 289t306 110q130 0 221.5 -75t116.5 -204l-178 -49q-19 72 -68.5 112t-121.5 40q-94 0 -172 -62t-95 -161zM774 160l57 327
q18 101 -37 161.5t-151 60.5q-55 0 -113 -23l33 182q66 17 113 17q169 0 266 -110t66 -288l-58 -327q-21 -120 -92.5 -212t-171 -140t-209.5 -48q-130 0 -222.5 75t-115.5 204l178 49q17 -72 68 -111.5t123 -39.5q94 0 170 62t96 161z" />
    <glyph glyph-name="dieresis" unicode="&#xa8;" horiz-adv-x="1091" 
d="M473 1290q10 54 52 87.5t96 33.5q52 0 83 -34t21 -87t-51.5 -87t-93.5 -34q-55 0 -86 34t-21 87zM819 1290q10 54 52 87.5t96 33.5q55 0 85.5 -34t20.5 -87q-10 -54 -51.5 -87.5t-95.5 -33.5q-55 0 -86 34t-21 87z" />
    <glyph glyph-name="copyright" unicode="&#xa9;" horiz-adv-x="1656" 
d="M1120 557l76 -102q-155 -133 -307 -133q-156 0 -243.5 108t-59.5 262q29 155 153.5 262t280.5 107q148 0 258 -135l-113 -97q-81 95 -170 95q-96 0 -174.5 -68.5t-95.5 -163.5q-15 -98 38.5 -165.5t149.5 -67.5q87 0 207 98zM236 702q36 197 159.5 363.5t304.5 264
t377 97.5t344.5 -97.5t214.5 -264.5t31 -363q-27 -148 -107 -281.5t-193 -230t-256 -153.5t-290 -57q-148 0 -270.5 57t-200 153.5t-109.5 230t-5 281.5zM360 702q-22 -121 5 -231t91.5 -190t166.5 -127.5t223 -47.5q162 0 311.5 80t251.5 217t131 299q30 162 -25 300
t-178 218t-284 80q-162 0 -311 -80.5t-250.5 -217.5t-131.5 -300z" />
    <glyph glyph-name="ordfeminine" unicode="&#xaa;" horiz-adv-x="1034" 
d="M842 666l16 102q-40 -55 -111 -86t-143 -31q-143 0 -225 97t-53 253t145 252.5t258 96.5q72 0 131.5 -30t81.5 -85l16 100h129l-116 -669h-129zM901 1004q19 100 -39 159.5t-147 59.5q-93 0 -165 -60.5t-89 -158.5q-17 -99 33 -162.5t143 -63.5q95 0 169.5 60.5
t94.5 165.5zM276 440l19 103h645l-18 -103h-646z" />
    <glyph glyph-name="guillemotleft" unicode="&#xab;" horiz-adv-x="1001" 
d="M176 477l359 424h161l-358 -424l209 -424h-162zM537 477l358 424h162l-359 -424l209 -424h-162z" />
    <glyph glyph-name="logicalnot" unicode="&#xac;" horiz-adv-x="1312" 
d="M1280 735l-86 -493h-178l55 315h-823l31 178h1001z" />
    <glyph glyph-name="registered" unicode="&#xae;" horiz-adv-x="1656" 
d="M1040 598l142 -260h-172l-138 250h-47l-43 -250h-141l127 723h281q111 0 158.5 -70t31.5 -168q-13 -79 -64 -141t-135 -84zM1024 922h-139l-37 -195h135q45 0 78 28.5t39 67.5q6 41 -14 70t-62 29zM236 702q36 197 159.5 363.5t304.5 264t377 97.5t344.5 -97.5
t214.5 -264.5t31 -363q-27 -148 -107 -281.5t-193 -230t-256 -153.5t-290 -57q-148 0 -270.5 57t-200 153.5t-109.5 230t-5 281.5zM360 702q-22 -121 5 -231t91.5 -190t166.5 -127.5t223 -47.5q162 0 311.5 80t251.5 217t131 299q30 162 -25 300t-178 218t-284 80
q-162 0 -311 -80.5t-250.5 -217.5t-131.5 -300z" />
    <glyph glyph-name="macron" unicode="&#xaf;" horiz-adv-x="1007" 
d="M485 1352h516l-30 -164h-516z" />
    <glyph glyph-name="degree" unicode="&#xb0;" horiz-adv-x="757" 
d="M315 1159q17 110 111 189t203 79q112 0 176 -78.5t47 -189.5q-20 -111 -112.5 -189.5t-204.5 -78.5q-109 0 -174.5 79t-45.5 189zM457 1159q-10 -54 20 -90.5t84 -36.5t96.5 36.5t53.5 90.5q10 54 -20.5 90.5t-84.5 36.5t-96 -36.5t-53 -90.5z" />
    <glyph glyph-name="plusminus" unicode="&#xb1;" horiz-adv-x="1110" 
d="M596 745l51 293h178l-51 -293h326l-33 -178h-326l-51 -297h-178l51 297h-323l32 178h324zM969 0h-828l29 168h827z" />
    <glyph glyph-name="twosuperior" unicode="&#xb2;" horiz-adv-x="655" 
d="M242 938l389 391q67 67 78 125q10 54 -23 89.5t-90 35.5q-55 0 -102.5 -36.5t-65.5 -96.5l-102 29q35 101 115 161t175 60q108 0 168.5 -67.5t42.5 -174.5q-20 -113 -122 -209l-252 -244h297l-21 -120h-500z" />
    <glyph glyph-name="threesuperior" unicode="&#xb3;" horiz-adv-x="655" 
d="M444 1511l-71 66q45 58 113 89.5t139 27.5q98 -4 150 -69t34 -152q-2 -6 -6.5 -23.5t-9.5 -26.5q-35 -72 -107 -110q56 -24 80.5 -86t7.5 -129q-29 -104 -126 -170t-208 -58q-77 6 -132.5 52t-76.5 116l109 54q11 -43 46 -75t81 -36h-2q69 -5 128 33.5t71 97.5
q13 59 -25 101t-102 42h-93l19 107h92q42 0 77.5 26.5t49.5 65.5q18 49 0 82q-7 20 -30.5 32.5t-53.5 14.5q-87 8 -154 -72z" />
    <glyph glyph-name="acute" unicode="&#xb4;" horiz-adv-x="1048" 
d="M940 1450l-299 -315h-178l254 315h223z" />
    <glyph glyph-name="mu" unicode="&#xb5;" horiz-adv-x="1136" 
d="M113 -313l225 1269h186l-98 -553q-20 -112 18 -175.5t129 -63.5q50 0 99 15t94.5 46t79 85.5t45.5 125.5l92 520h186l-168 -956h-186l21 117q-53 -67 -135.5 -101t-159.5 -34q-128 0 -179 61l-63 -356h-186z" />
    <glyph glyph-name="paragraph" unicode="&#xb6;" horiz-adv-x="1333" 
d="M913 1411l-270 -1526h-170l115 637q-175 12 -276.5 139.5t-69.5 305.5q32 185 183.5 314.5t338.5 129.5h149zM1032 1411h191q114 0 183.5 -83t49.5 -198l-33 -174h-168l33 174q6 43 -14 76t-60 33h-40l-240 -1339q-21 -106 -118.5 -191.5t-211.5 -89.5h-180l27 156h180
q42 0 82.5 28.5t46.5 65.5z" />
    <glyph glyph-name="periodcentered" unicode="&#xb7;" horiz-adv-x="550" 
d="M229 514q10 55 55.5 92t100.5 37q56 0 89.5 -37t23.5 -92t-56 -91t-102 -36q-55 0 -88 36.5t-23 90.5z" />
    <glyph glyph-name="cedilla" unicode="&#xb8;" horiz-adv-x="1069" 
d="M422 -240q11 -32 35.5 -44.5t58.5 -2.5q32 13 48.5 44.5t10.5 64.5l-45 246h103l67 -195q9 -46 0 -86q-11 -61 -52.5 -111.5t-106.5 -76.5q-46 -17 -84 -17q-60 0 -102.5 34.5t-59.5 96.5q-12 51 -2 101l129 -9q-2 -6 -2 -16q0 -3 -1 -9.5t-0.5 -11t3.5 -8.5z" />
    <glyph glyph-name="onesuperior" unicode="&#xb9;" horiz-adv-x="425" 
d="M348 881l111 624l-154 -71l21 116l288 144l-143 -813h-123z" />
    <glyph glyph-name="ordmasculine" unicode="&#xba;" horiz-adv-x="1017" 
d="M621 651q-146 0 -230.5 98t-56.5 255q27 154 145.5 250t265.5 96t232.5 -96t58.5 -250q-29 -157 -148.5 -255t-266.5 -98zM643 778q94 0 168 62.5t94 163.5q17 97 -37 158t-147 61t-167 -60.5t-91 -158.5q-18 -102 33.5 -164t146.5 -62zM250 440l18 103h678l-18 -103
h-678z" />
    <glyph glyph-name="guillemotright" unicode="&#xbb;" horiz-adv-x="1001" 
d="M989 477l-356 -424h-162l356 424l-204 424h161zM629 477l-357 -424h-161l356 424l-205 424h162z" />
    <glyph glyph-name="onequarter" unicode="&#xbc;" horiz-adv-x="1501" 
d="M430 553h-108l116 664l-137 -46l18 105l254 86zM1296 604l-290 -336h231zM1444 164h-117l-27 -164h-108l27 164h-418l559 639h82l-96 -535h116zM1462 1372l-1169 -1392h-139l1171 1392h137z" />
    <glyph glyph-name="onehalf" unicode="&#xbd;" horiz-adv-x="1579" 
d="M432 553h-108l116 664l-137 -46l19 105l253 86zM979 0l6 49l397 395q73 76 82 131q10 58 -27 92.5t-100 34.5q-57 0 -103.5 -34t-64.5 -93l-96 27q32 96 113.5 153.5t177.5 57.5q106 0 166.5 -67t42.5 -171q-19 -109 -125 -208q-185 -178 -262 -256h307l-18 -111h-496z
M1458 1372l-1169 -1392h-139l1171 1392h137z" />
    <glyph glyph-name="threequarters" unicode="&#xbe;" horiz-adv-x="1662" 
d="M1167 268l291 336l-59 -336h-232zM1491 164h117l16 104h-117l97 535h-82l-557 -639h417l-28 -164h108zM420 1184l-70 65q43 58 111 89.5t141 27.5q98 -7 148.5 -70.5t33.5 -150.5q-8 -48 -40.5 -91.5t-79.5 -68.5q54 -25 79.5 -87t8.5 -128q-29 -103 -126.5 -168.5
t-209.5 -58.5q-77 6 -132.5 52t-76.5 116l108 51q11 -43 47 -75t84 -36h-2q67 -5 126 34.5t71 98.5q13 59 -25.5 101.5t-101.5 42.5h-92l18 106h92q42 0 74.5 25t50.5 67q18 53 -5.5 88t-78.5 43q-82 8 -153 -73zM473 -20l1169 1392h-137l-1171 -1392h139z" />
    <glyph glyph-name="questiondown" unicode="&#xbf;" horiz-adv-x="966" 
d="M705 -49h176q-36 -192 -173 -310t-307 -118q-173 0 -277 110.5t-73 288.5q24 143 126.5 245.5t240.5 141.5q76 22 117 53t53 97l26 121h181l-23 -121q-27 -138 -110.5 -211.5t-223.5 -114.5q-71 -22 -132.5 -81.5t-72.5 -129.5q-17 -96 45 -156.5t156 -60.5t172.5 68
t98.5 178zM885 850q-10 -55 -57 -92t-103 -37t-87.5 37t-21.5 92t55 91t101 36q57 0 90 -36t23 -91z" />
    <glyph glyph-name="Agrave" unicode="&#xc0;" horiz-adv-x="1320" 
d="M520 530h467l-121 627zM1022 358h-598l-199 -358h-202l784 1411h205l286 -1411h-200zM862 1589l-186 316h223l141 -316h-178z" />
    <glyph glyph-name="Aacute" unicode="&#xc1;" horiz-adv-x="1320" 
d="M520 530h467l-121 627zM1022 358h-598l-199 -358h-202l784 1411h205l286 -1411h-200zM1323 1905l-301 -316h-178l256 316h223z" />
    <glyph glyph-name="Acircumflex" unicode="&#xc2;" horiz-adv-x="1320" 
d="M520 530h467l-121 627zM1022 358h-598l-199 -358h-202l784 1411h205l286 -1411h-200zM1092 1589l-121 178l-185 -178h-168l283 316h191l168 -316h-168z" />
    <glyph glyph-name="Atilde" unicode="&#xc3;" horiz-adv-x="1320" 
d="M520 530h467l-121 627zM1022 358h-598l-199 -358h-202l784 1411h205l286 -1411h-200zM866 1704q-20 0 -39.5 -21.5t-29.5 -68.5h-125q30 124 92 181.5t131 57.5q26 0 49.5 -9.5t30.5 -15t29 -24.5q6 -5 15 -13t14 -11.5t12.5 -7t15.5 -3.5q22 0 43.5 19.5t30.5 64.5h125
q-20 -85 -60 -139.5t-80.5 -74t-83.5 -19.5q-11 0 -21 1.5t-20 5t-15.5 6t-15 9.5t-12.5 8.5t-13 10.5t-11 10q-5 3 -15.5 11.5t-16 11.5t-14 6.5t-16.5 3.5z" />
    <glyph glyph-name="Adieresis" unicode="&#xc4;" horiz-adv-x="1320" 
d="M520 530h467l-121 627zM1022 358h-598l-199 -358h-202l784 1411h205l286 -1411h-200zM670 1745q10 54 51.5 87.5t95.5 33.5q53 0 84 -34t21 -87t-53 -87t-95 -34q-55 0 -84.5 34t-19.5 87zM1016 1745q10 54 51.5 87.5t95.5 33.5q55 0 86 -34t21 -87t-52.5 -87t-97.5 -34
t-84.5 34t-19.5 87z" />
    <glyph glyph-name="Aring" unicode="&#xc5;" horiz-adv-x="1320" 
d="M520 530h467l-121 627zM1022 358h-598l-199 -358h-202l784 1411h205l286 -1411h-200zM758 1776q17 92 89 154.5t163 62.5q93 0 145 -62.5t35 -154.5q-17 -91 -90.5 -152t-165.5 -61q-91 0 -142 61.5t-34 151.5zM866 1776q-8 -43 17.5 -74t68.5 -31q47 0 84 31t45 74
q7 47 -19 77.5t-73 30.5q-44 0 -80 -31t-43 -77z" />
    <glyph glyph-name="AE" unicode="&#xc6;" horiz-adv-x="1912" 
d="M510 354l-287 -354h-223l1139 1411h891l-33 -188h-641l-78 -437h561l-33 -188h-561l-74 -410h664l-31 -188h-852l60 354h-502zM655 537h389l111 610z" />
    <glyph glyph-name="Ccedilla" unicode="&#xc7;" horiz-adv-x="1400" 
d="M606 -240q11 -32 35.5 -44.5t58.5 -2.5q34 13 50 44t10 65l-31 162q-175 19 -301.5 119t-181 257.5t-21.5 341.5q27 147 106.5 281t191.5 231.5t255 155t291 57.5q161 0 285.5 -63t201.5 -176l-165 -119q-134 174 -355 174t-399.5 -157.5t-220.5 -383.5
q-27 -148 20.5 -272t155.5 -195t252 -71q117 0 227 47t197 133l123 -121q-112 -108 -251 -171t-290 -70l37 -109q9 -46 0 -86q-11 -61 -54 -111.5t-108 -76.5q-46 -17 -84 -17q-59 0 -101 34.5t-59 96.5q-12 52 -4 101l129 -9q-2 -6 -2 -16q0 -3 -1 -9.5t-0.5 -11t3.5 -8.5z
" />
    <glyph glyph-name="Egrave" unicode="&#xc8;" horiz-adv-x="1157" 
d="M440 1411h836l-33 -178h-645l-78 -451h563l-32 -178h-564l-75 -426h665l-28 -178h-856zM825 1589l-186 316h223l142 -316h-179z" />
    <glyph glyph-name="Eacute" unicode="&#xc9;" horiz-adv-x="1157" 
d="M440 1411h836l-33 -178h-645l-78 -451h563l-32 -178h-564l-75 -426h665l-28 -178h-856zM1198 1905l-301 -316h-178l256 316h223z" />
    <glyph glyph-name="Ecircumflex" unicode="&#xca;" horiz-adv-x="1157" 
d="M440 1411h836l-33 -178h-645l-78 -451h563l-32 -178h-564l-75 -426h665l-28 -178h-856zM1010 1589l-121 178l-184 -178h-168l282 316h191l168 -316h-168z" />
    <glyph glyph-name="Edieresis" unicode="&#xcb;" horiz-adv-x="1157" 
d="M440 1411h836l-33 -178h-645l-78 -451h563l-32 -178h-564l-75 -426h665l-28 -178h-856zM596 1745q10 54 51.5 87.5t95.5 33.5q53 0 84 -34t21 -87t-53 -87t-95 -34q-55 0 -84.5 34t-19.5 87zM942 1745q10 54 52 87.5t96 33.5q55 0 85.5 -34t20.5 -87q-10 -54 -52.5 -87.5
t-96.5 -33.5q-55 0 -85 34t-20 87z" />
    <glyph glyph-name="Igrave" unicode="&#xcc;" horiz-adv-x="575" 
d="M440 1411h191l-248 -1411h-190zM483 1589l-186 316h223l142 -316h-179z" />
    <glyph glyph-name="Iacute" unicode="&#xcd;" horiz-adv-x="575" 
d="M440 1411h191l-248 -1411h-190zM948 1905l-301 -316h-178l256 316h223z" />
    <glyph glyph-name="Icircumflex" unicode="&#xce;" horiz-adv-x="575" 
d="M440 1411h191l-248 -1411h-190zM719 1589l-121 178l-184 -178h-168l282 316h191l168 -316h-168z" />
    <glyph glyph-name="Idieresis" unicode="&#xcf;" horiz-adv-x="575" 
d="M440 1411h191l-248 -1411h-190zM297 1745q10 54 51.5 87.5t95.5 33.5q53 0 84 -34t21 -87t-53 -87t-95 -34q-55 0 -84.5 34t-19.5 87zM643 1745q10 54 52 87.5t96 33.5q55 0 85.5 -34t20.5 -87q-10 -54 -52.5 -87.5t-96.5 -33.5q-55 0 -85 34t-20 87z" />
    <glyph glyph-name="Eth" unicode="&#xd0;" horiz-adv-x="1482" 
d="M743 0h-538l112 637h-190l25 139h190l111 635h538q196 0 324 -94t172 -253.5t8 -361.5q-27 -151 -92 -279t-160 -222.5t-224 -147.5t-276 -53zM532 776h338l-24 -139h-338l-80 -449h348q211 0 351 142.5t178 371.5q25 151 -2.5 266.5t-115.5 185t-229 69.5h-348z" />
    <glyph glyph-name="Ntilde" unicode="&#xd1;" horiz-adv-x="1400" 
d="M1208 0h-182l-457 1063l-186 -1063h-190l247 1411h189l448 -1055l189 1055h190zM907 1704q-20 0 -39.5 -21.5t-29.5 -68.5h-125q30 124 92 181.5t131 57.5q10 0 20 -1.5t17 -3t15.5 -5.5t12.5 -6t12 -7.5t10.5 -7.5t10.5 -9.5t10 -8.5q6 -4 15.5 -12.5t14 -12t12.5 -7
t16 -3.5q22 0 43.5 19.5t30.5 64.5h124q-15 -64 -41.5 -111.5t-57.5 -73t-62 -37t-62 -11.5q-11 0 -21 1.5t-20 5t-15.5 6t-15 9.5t-12.5 8.5t-13 10.5t-11 10q-5 3 -15.5 11.5t-16 11.5t-14 6.5t-16.5 3.5z" />
    <glyph glyph-name="Ograve" unicode="&#xd2;" horiz-adv-x="1630" 
d="M223 702q27 147 106 281t190.5 231.5t254 155t289.5 57.5q148 0 271.5 -57.5t202 -155t111 -231.5t5.5 -281q-36 -198 -159 -363.5t-305.5 -262t-381.5 -96.5q-197 0 -344 96.5t-211 262t-29 363.5zM414 702q-27 -148 19.5 -272t154 -195t252.5 -71q146 0 278.5 71.5
t222.5 194.5t117 272q27 148 -19.5 272.5t-154 196.5t-252.5 72q-220 0 -400.5 -158t-217.5 -383zM1024 1589l-188 316h223l143 -316h-178z" />
    <glyph glyph-name="Oacute" unicode="&#xd3;" horiz-adv-x="1630" 
d="M223 702q27 147 106 281t190.5 231.5t254 155t289.5 57.5q148 0 271.5 -57.5t202 -155t111 -231.5t5.5 -281q-36 -198 -159 -363.5t-305.5 -262t-381.5 -96.5q-197 0 -344 96.5t-211 262t-29 363.5zM414 702q-27 -148 19.5 -272t154 -195t252.5 -71q146 0 278.5 71.5
t222.5 194.5t117 272q27 148 -19.5 272.5t-154 196.5t-252.5 72q-220 0 -400.5 -158t-217.5 -383zM1438 1905l-299 -316h-178l253 316h224z" />
    <glyph glyph-name="Ocircumflex" unicode="&#xd4;" horiz-adv-x="1630" 
d="M223 702q27 147 106 281t190.5 231.5t254 155t289.5 57.5q148 0 271.5 -57.5t202 -155t111 -231.5t5.5 -281q-36 -198 -159 -363.5t-305.5 -262t-381.5 -96.5q-197 0 -344 96.5t-211 262t-29 363.5zM414 702q-27 -148 19.5 -272t154 -195t252.5 -71q146 0 278.5 71.5
t222.5 194.5t117 272q27 148 -19.5 272.5t-154 196.5t-252.5 72q-220 0 -400.5 -158t-217.5 -383zM1245 1589l-121 178l-184 -178h-168l281 316h190l170 -316h-168z" />
    <glyph glyph-name="Otilde" unicode="&#xd5;" horiz-adv-x="1630" 
d="M223 702q27 147 106 281t190.5 231.5t254 155t289.5 57.5q148 0 271.5 -57.5t202 -155t111 -231.5t5.5 -281q-36 -198 -159 -363.5t-305.5 -262t-381.5 -96.5q-197 0 -344 96.5t-211 262t-29 363.5zM414 702q-27 -148 19.5 -272t154 -195t252.5 -71q146 0 278.5 71.5
t222.5 194.5t117 272q27 148 -19.5 272.5t-154 196.5t-252.5 72q-220 0 -400.5 -158t-217.5 -383zM1022 1704q-20 0 -40 -21.5t-30 -68.5h-125q27 124 90.5 181.5t133.5 57.5q10 0 20 -1.5t17 -3t15.5 -5.5t12.5 -6t12 -7.5t10.5 -7.5t10.5 -9.5t10 -8.5q6 -4 15.5 -12.5
t14 -12t12.5 -7t16 -3.5q21 0 41.5 19.5t31.5 64.5h125q-15 -64 -41.5 -111.5t-57.5 -73t-62 -37t-62 -11.5q-25 0 -48.5 9.5t-32.5 16.5t-30 25q-6 4 -15.5 11.5t-14.5 11.5t-13 7t-16 3z" />
    <glyph glyph-name="Odieresis" unicode="&#xd6;" horiz-adv-x="1630" 
d="M223 702q27 147 106 281t190.5 231.5t254 155t289.5 57.5q148 0 271.5 -57.5t202 -155t111 -231.5t5.5 -281q-36 -198 -159 -363.5t-305.5 -262t-381.5 -96.5q-197 0 -344 96.5t-211 262t-29 363.5zM414 702q-27 -148 19.5 -272t154 -195t252.5 -71q146 0 278.5 71.5
t222.5 194.5t117 272q27 148 -19.5 272.5t-154 196.5t-252.5 72q-220 0 -400.5 -158t-217.5 -383zM821 1745q10 53 52.5 87t97.5 34q52 0 82 -34t20 -87t-51.5 -87t-93.5 -34q-55 0 -86 34t-21 87zM1167 1745q10 53 52.5 87t97.5 34t84.5 -34t19.5 -87q-10 -54 -51.5 -87.5
t-95.5 -33.5q-55 0 -86 34t-21 87z" />
    <glyph glyph-name="multiply" unicode="&#xd7;" horiz-adv-x="1017" 
d="M483 559l-211 254l150 123l205 -252l303 256l102 -129l-299 -252l207 -254l-145 -129l-213 256l-297 -252l-105 123z" />
    <glyph glyph-name="Oslash" unicode="&#xd8;" horiz-adv-x="1628" 
d="M385 135l-192 -168l-80 96l196 168q-137 201 -88 471q27 147 106 281t190.5 231.5t254 155t289.5 57.5q265 0 430 -165l190 165l80 -94l-192 -168q127 -205 82 -463q-36 -198 -159 -363.5t-305.5 -262t-381.5 -96.5q-256 0 -420 155zM412 702q-33 -187 49 -335l874 759
q-123 117 -305 117q-220 0 -400.5 -158t-217.5 -383zM838 164q146 0 278.5 71.5t222.5 194.5t117 272q35 188 -45 326l-870 -758q118 -106 297 -106z" />
    <glyph glyph-name="Ugrave" unicode="&#xd9;" horiz-adv-x="1388" 
d="M721 164q134 0 245.5 89t135.5 232l164 926h190l-164 -926q-27 -149 -119 -266t-219 -178t-266 -61q-103 0 -191 36t-147.5 100.5t-84.5 160.5t-5 208l164 926h192l-163 -926q-24 -143 55 -232t213 -89zM922 1589l-189 316h223l144 -316h-178z" />
    <glyph glyph-name="Uacute" unicode="&#xda;" horiz-adv-x="1388" 
d="M721 164q134 0 245.5 89t135.5 232l164 926h190l-164 -926q-27 -149 -119 -266t-219 -178t-266 -61q-103 0 -191 36t-147.5 100.5t-84.5 160.5t-5 208l164 926h192l-163 -926q-24 -143 55 -232t213 -89zM1303 1905l-299 -316h-179l254 316h224z" />
    <glyph glyph-name="Ucircumflex" unicode="&#xdb;" horiz-adv-x="1388" 
d="M721 164q134 0 245.5 89t135.5 232l164 926h190l-164 -926q-27 -149 -119 -266t-219 -178t-266 -61q-103 0 -191 36t-147.5 100.5t-84.5 160.5t-5 208l164 926h192l-163 -926q-24 -143 55 -232t213 -89zM1124 1589l-123 178l-182 -178h-168l281 316h190l170 -316h-168z
" />
    <glyph glyph-name="Udieresis" unicode="&#xdc;" horiz-adv-x="1388" 
d="M721 164q134 0 245.5 89t135.5 232l164 926h190l-164 -926q-27 -149 -119 -266t-219 -178t-266 -61q-103 0 -191 36t-147.5 100.5t-84.5 160.5t-5 208l164 926h192l-163 -926q-24 -143 55 -232t213 -89zM700 1745q10 53 52.5 87t97.5 34q52 0 82 -34t20 -87t-51.5 -87
t-93.5 -34q-55 0 -86 34t-21 87zM1047 1745q10 54 52.5 87.5t96.5 33.5q55 0 84.5 -34t19.5 -87q-10 -54 -51.5 -87.5t-95.5 -33.5q-55 0 -85.5 34t-20.5 87z" />
    <glyph glyph-name="Yacute" unicode="&#xdd;" horiz-adv-x="1286" 
d="M741 0h-196l112 649l-399 762h227l306 -571l509 571h230l-676 -762zM1276 1905l-301 -316h-178l256 316h223z" />
    <glyph glyph-name="Thorn" unicode="&#xde;" horiz-adv-x="1171" 
d="M719 283h-287l-49 -283h-190l247 1411h191l-43 -252h286q184 0 287.5 -120t67.5 -314q-36 -198 -180 -320t-330 -122zM465 467h287q103 0 185 71.5t103 186.5q20 113 -44 181.5t-171 68.5l-270 6z" />
    <glyph glyph-name="germandbls" unicode="&#xdf;" horiz-adv-x="1630" 
d="M1663 786q-10 -159 -83 -307.5t-186.5 -258t-265.5 -175t-313 -65.5q-107 0 -202 30t-167.5 83.5t-125.5 129t-80 164t-27.5 191.5t29.5 208h1228q2 108 -36 197.5t-102.5 147t-152 87t-181.5 24.5t-195.5 -49t-188.5 -126l-127 123q112 110 249 170.5t268.5 68
t255.5 -33t215.5 -121t143.5 -207.5t44 -281zM1442 614h-1036q-2 -109 33 -196.5t97.5 -141t142 -82t169.5 -28.5q122 0 237 48t212.5 151.5t144.5 248.5z" />
    <glyph glyph-name="germandbls" unicode="&#x42f;" horiz-adv-x="1630" 
d="M1663 786q-10 -159 -83 -307.5t-186.5 -258t-265.5 -175t-313 -65.5q-107 0 -202 30t-167.5 83.5t-125.5 129t-80 164t-27.5 191.5t29.5 208h1228q2 108 -36 197.5t-102.5 147t-152 87t-181.5 24.5t-195.5 -49t-188.5 -126l-127 123q112 110 249 170.5t268.5 68
t255.5 -33t215.5 -121t143.5 -207.5t44 -281zM1442 614h-1036q-2 -109 33 -196.5t97.5 -141t142 -82t169.5 -28.5q122 0 237 48t212.5 151.5t144.5 248.5z" />
    <glyph glyph-name="germandbls" unicode="&#x18f;" horiz-adv-x="1630" 
d="M1663 786q-10 -159 -83 -307.5t-186.5 -258t-265.5 -175t-313 -65.5q-107 0 -202 30t-167.5 83.5t-125.5 129t-80 164t-27.5 191.5t29.5 208h1228q2 108 -36 197.5t-102.5 147t-152 87t-181.5 24.5t-195.5 -49t-188.5 -126l-127 123q112 110 249 170.5t268.5 68
t255.5 -33t215.5 -121t143.5 -207.5t44 -281zM1442 614h-1036q-2 -109 33 -196.5t97.5 -141t142 -82t169.5 -28.5q122 0 237 48t212.5 151.5t144.5 248.5z" />
    <glyph glyph-name="agrave" unicode="&#xe0;" horiz-adv-x="1253" 
d="M913 0l23 147q-59 -79 -160 -123t-205 -44q-98 0 -180 36t-137.5 99.5t-77.5 158t-2 205.5q27 148 114 263t207.5 175t252.5 60q104 0 189.5 -42.5t119.5 -121.5l22 143h185l-166 -956h-185zM993 481q14 74 -2.5 135t-55.5 99.5t-91 59t-111 20.5q-131 0 -237.5 -88
t-130.5 -226q-24 -140 48.5 -229.5t204.5 -89.5q134 0 240.5 86t134.5 233zM784 1135l-188 315h223l144 -315h-179z" />
    <glyph glyph-name="aacute" unicode="&#xe1;" horiz-adv-x="1253" 
d="M913 0l23 147q-59 -79 -160 -123t-205 -44q-98 0 -180 36t-137.5 99.5t-77.5 158t-2 205.5q27 148 114 263t207.5 175t252.5 60q104 0 189.5 -42.5t119.5 -121.5l22 143h185l-166 -956h-185zM993 481q14 74 -2.5 135t-55.5 99.5t-91 59t-111 20.5q-131 0 -237.5 -88
t-130.5 -226q-24 -140 48.5 -229.5t204.5 -89.5q134 0 240.5 86t134.5 233zM1130 1450l-299 -315h-178l254 315h223z" />
    <glyph glyph-name="acircumflex" unicode="&#xe2;" horiz-adv-x="1253" 
d="M913 0l23 147q-59 -79 -160 -123t-205 -44q-98 0 -180 36t-137.5 99.5t-77.5 158t-2 205.5q27 148 114 263t207.5 175t252.5 60q104 0 189.5 -42.5t119.5 -121.5l22 143h185l-166 -956h-185zM993 481q14 74 -2.5 135t-55.5 99.5t-91 59t-111 20.5q-131 0 -237.5 -88
t-130.5 -226q-24 -140 48.5 -229.5t204.5 -89.5q134 0 240.5 86t134.5 233zM942 1135l-123 178l-182 -178h-168l281 315h190l170 -315h-168z" />
    <glyph glyph-name="atilde" unicode="&#xe3;" horiz-adv-x="1253" 
d="M913 0l23 147q-59 -79 -160 -123t-205 -44q-98 0 -180 36t-137.5 99.5t-77.5 158t-2 205.5q27 148 114 263t207.5 175t252.5 60q104 0 189.5 -42.5t119.5 -121.5l22 143h185l-166 -956h-185zM993 481q14 74 -2.5 135t-55.5 99.5t-91 59t-111 20.5q-131 0 -237.5 -88
t-130.5 -226q-24 -140 48.5 -229.5t204.5 -89.5q134 0 240.5 86t134.5 233zM752 1249q-20 0 -40 -21.5t-30 -68.5h-125q27 124 90 182t133 58q26 0 49.5 -9.5t30.5 -15t29 -24.5q6 -5 14.5 -13t13 -12t12 -7t15.5 -3q22 0 43.5 19.5t32.5 64.5h125q-15 -64 -42 -112
t-58.5 -73t-62.5 -37t-62 -12q-25 0 -48 9.5t-32.5 17.5t-28.5 25q-4 3 -9.5 7.5t-8.5 7t-7.5 5.5t-8 5t-7.5 4t-8.5 2.5t-9.5 0.5z" />
    <glyph glyph-name="adieresis" unicode="&#xe4;" horiz-adv-x="1253" 
d="M913 0l23 147q-59 -79 -160 -123t-205 -44q-98 0 -180 36t-137.5 99.5t-77.5 158t-2 205.5q27 148 114 263t207.5 175t252.5 60q104 0 189.5 -42.5t119.5 -121.5l22 143h185l-166 -956h-185zM993 481q14 74 -2.5 135t-55.5 99.5t-91 59t-111 20.5q-131 0 -237.5 -88
t-130.5 -226q-24 -140 48.5 -229.5t204.5 -89.5q134 0 240.5 86t134.5 233zM522 1290q10 54 51 87.5t95 33.5q53 0 84.5 -34t21.5 -87t-51.5 -87t-93.5 -34q-55 0 -86 34t-21 87zM868 1290q10 54 51 87.5t95 33.5q55 0 86.5 -34t21.5 -87q-10 -54 -51.5 -87.5t-95.5 -33.5
q-55 0 -86 34t-21 87z" />
    <glyph glyph-name="aring" unicode="&#xe5;" horiz-adv-x="1253" 
d="M913 0l23 147q-59 -79 -160 -123t-205 -44q-98 0 -180 36t-137.5 99.5t-77.5 158t-2 205.5q27 148 114 263t207.5 175t252.5 60q104 0 189.5 -42.5t119.5 -121.5l22 143h185l-166 -956h-185zM993 481q14 74 -2.5 135t-55.5 99.5t-91 59t-111 20.5q-131 0 -237.5 -88
t-130.5 -226q-24 -140 48.5 -229.5t204.5 -89.5q134 0 240.5 86t134.5 233zM610 1321q17 92 89 154.5t161 62.5q93 0 146 -62.5t36 -154.5q-17 -91 -91 -152t-167 -61q-90 0 -140.5 61.5t-33.5 151.5zM719 1321q-7 -43 18 -73.5t68 -30.5q47 0 84 30.5t45 73.5q7 47 -19 78
t-73 31q-43 0 -79.5 -31t-43.5 -78z" />
    <glyph glyph-name="ae" unicode="&#xe6;" horiz-adv-x="1959" 
d="M1264 956l-13 -77q140 98 322 98q101 0 182.5 -35t133.5 -99.5t72 -156t-1 -205.5q-3 -11 -7 -36t-7 -37h-777q-6 -120 66.5 -190.5t196.5 -70.5q88 0 168 38.5t133 109.5q25 -12 76.5 -32t74.5 -30q-84 -124 -213.5 -188.5t-273.5 -64.5q-184 0 -287 100l-12 -80h-185
l23 147q-59 -79 -160 -123t-205 -44q-98 0 -180 36t-137.5 99.5t-77.5 158t-2 205.5q27 148 114 263t207.5 175t252.5 60q104 0 189.5 -42.5t119.5 -121.5l22 143h185zM993 481q14 74 -2.5 135t-55.5 99.5t-91 59t-111 20.5q-131 0 -237.5 -88t-130.5 -226
q-24 -140 48.5 -229.5t204.5 -89.5q134 0 240.5 86t134.5 233zM1196 553h594q1 121 -64 188.5t-182 67.5q-122 0 -217 -68.5t-131 -187.5z" />
    <glyph glyph-name="ccedilla" unicode="&#xe7;" horiz-adv-x="1048" 
d="M643 -16l39 -111q9 -46 0 -86q-11 -61 -54 -111.5t-108 -76.5q-46 -17 -84 -17q-59 0 -101 34.5t-59 96.5q-12 52 -4 101l129 -9q-2 -6 -2 -16q0 -3 -1 -9.5t-0.5 -11t3.5 -8.5q11 -31 35.5 -44t59.5 -3q34 13 49.5 44t9.5 65l-31 162q-119 14 -206.5 78t-127.5 173.5
t-16 245.5q27 147 116.5 261.5t214.5 174.5t263 60q110 0 199 -40t143 -114l-162 -118q-75 90 -211 90q-133 0 -244 -87t-135 -227q-24 -139 54.5 -230t210.5 -91q137 0 245 94l123 -119q-151 -136 -348 -151z" />
    <glyph glyph-name="egrave" unicode="&#xe8;" horiz-adv-x="1138" 
d="M375 553h594q1 121 -64 188.5t-182 67.5q-122 0 -217 -68.5t-131 -187.5zM1139 481q-3 -11 -7.5 -36.5t-7.5 -36.5h-776q-6 -120 66 -190.5t196 -70.5q88 0 168 38.5t133 109.5q25 -12 77 -32t75 -30q-84 -124 -213.5 -188.5t-274.5 -64.5q-208 0 -324 139t-77 362
q27 148 113 262t207.5 174t257.5 60q101 0 182.5 -35t133.5 -99.5t72 -156t-1 -205.5zM705 1135l-189 315h223l144 -315h-178z" />
    <glyph glyph-name="eacute" unicode="&#xe9;" horiz-adv-x="1138" 
d="M375 553h594q1 121 -64 188.5t-182 67.5q-122 0 -217 -68.5t-131 -187.5zM1139 481q-3 -11 -7.5 -36.5t-7.5 -36.5h-776q-6 -120 66 -190.5t196 -70.5q88 0 168 38.5t133 109.5q25 -12 77 -32t75 -30q-84 -124 -213.5 -188.5t-274.5 -64.5q-208 0 -324 139t-77 362
q27 148 113 262t207.5 174t257.5 60q101 0 182.5 -35t133.5 -99.5t72 -156t-1 -205.5zM1120 1450l-299 -315h-178l254 315h223z" />
    <glyph glyph-name="ecircumflex" unicode="&#xea;" horiz-adv-x="1138" 
d="M375 553h594q1 121 -64 188.5t-182 67.5q-122 0 -217 -68.5t-131 -187.5zM1139 481q-3 -11 -7.5 -36.5t-7.5 -36.5h-776q-6 -120 66 -190.5t196 -70.5q88 0 168 38.5t133 109.5q25 -12 77 -32t75 -30q-84 -124 -213.5 -188.5t-274.5 -64.5q-208 0 -324 139t-77 362
q27 148 113 262t207.5 174t257.5 60q101 0 182.5 -35t133.5 -99.5t72 -156t-1 -205.5zM926 1135l-123 178l-182 -178h-168l280 315h191l170 -315h-168z" />
    <glyph glyph-name="edieresis" unicode="&#xeb;" horiz-adv-x="1138" 
d="M375 553h594q1 121 -64 188.5t-182 67.5q-122 0 -217 -68.5t-131 -187.5zM1139 481q-3 -11 -7.5 -36.5t-7.5 -36.5h-776q-6 -120 66 -190.5t196 -70.5q88 0 168 38.5t133 109.5q25 -12 77 -32t75 -30q-84 -124 -213.5 -188.5t-274.5 -64.5q-208 0 -324 139t-77 362
q27 148 113 262t207.5 174t257.5 60q101 0 182.5 -35t133.5 -99.5t72 -156t-1 -205.5zM502 1290q10 54 50.5 87.5t94.5 33.5q53 0 85 -34.5t22 -86.5q-10 -53 -52 -87t-94 -34q-55 0 -85.5 34t-20.5 87zM848 1290q10 54 50.5 87.5t94.5 33.5q55 0 87 -34t22 -87
q-10 -54 -52 -87.5t-96 -33.5q-55 0 -85.5 34t-20.5 87z" />
    <glyph glyph-name="igrave" unicode="&#xec;" horiz-adv-x="493" 
d="M506 956l-168 -956h-182l168 956h182zM356 1135l-186 315h223l142 -315h-179z" />
    <glyph glyph-name="iacute" unicode="&#xed;" horiz-adv-x="493" 
d="M506 956l-168 -956h-182l168 956h182zM831 1450l-301 -315h-178l256 315h223z" />
    <glyph glyph-name="icircumflex" unicode="&#xee;" horiz-adv-x="493" 
d="M506 956l-168 -956h-182l168 956h182zM608 1135l-123 178l-182 -178h-168l281 315h190l170 -315h-168z" />
    <glyph glyph-name="idieresis" unicode="&#xef;" horiz-adv-x="493" 
d="M506 956l-168 -956h-182l168 956h182zM184 1290q10 54 52 87.5t96 33.5q52 0 83 -34t21 -87t-51.5 -87t-93.5 -34q-55 0 -86 34t-21 87zM530 1290q10 54 52 87.5t96 33.5q55 0 85.5 -34t20.5 -87q-10 -54 -51.5 -87.5t-95.5 -33.5q-55 0 -86 34t-21 87z" />
    <glyph glyph-name="eth" unicode="&#xf0;" horiz-adv-x="1183" 
d="M795 1311l149 82l55 -86l-141 -86l272 -441q71 -126 41 -299q-41 -220 -209 -360.5t-376 -140.5q-101 0 -186 36.5t-142 100.5t-80.5 159t-3.5 205q27 147 115 262t207.5 174.5t248.5 59.5q35 0 70 -21l-121 170l-192 -108l-49 96l182 103l-119 194h215zM616 156
q134 0 245.5 91t135.5 234q24 144 -52 232t-212 88t-247.5 -88.5t-135.5 -231.5q-24 -145 53 -235t213 -90z" />
    <glyph glyph-name="ntilde" unicode="&#xf1;" horiz-adv-x="1153" 
d="M432 516l-90 -516h-186l168 956h186l-25 -143q53 80 147 122t181 42q179 0 254.5 -110.5t38.5 -313.5l-96 -553h-187l95 541q23 120 -22 187t-144 67q-53 0 -103 -15.5t-95 -47.5t-77.5 -87.5t-44.5 -128.5zM705 1249q-20 0 -40 -21.5t-30 -68.5h-125q30 124 92 182
t131 58q26 0 49.5 -9.5t30.5 -15t29 -24.5q6 -5 15 -13t14 -11.5t12.5 -7t15.5 -3.5q22 0 43.5 19.5t30.5 64.5h125q-20 -84 -61 -139.5t-82 -75t-83 -19.5q-25 0 -48 10t-31.5 17t-28.5 25q-4 3 -9.5 7.5t-8.5 7t-7.5 5.5t-8 5t-7.5 4t-8.5 2.5t-9.5 0.5z" />
    <glyph glyph-name="ograve" unicode="&#xf2;" horiz-adv-x="1185" 
d="M586 -20q-101 0 -185.5 36t-141.5 100.5t-80.5 159t-4.5 205.5q27 148 115 262t212 174t261 60q101 0 186 -35.5t143 -98.5t81.5 -157t3.5 -205q-26 -147 -115 -263t-214 -177t-261 -61zM616 160q132 0 240.5 89t132.5 232q24 142 -50 228t-208 86q-132 0 -240.5 -87
t-132.5 -227q-24 -145 50 -233t208 -88zM717 1135l-189 315h224l143 -315h-178z" />
    <glyph glyph-name="oacute" unicode="&#xf3;" horiz-adv-x="1185" 
d="M586 -20q-101 0 -185.5 36t-141.5 100.5t-80.5 159t-4.5 205.5q27 148 115 262t212 174t261 60q101 0 186 -35.5t143 -98.5t81.5 -157t3.5 -205q-26 -147 -115 -263t-214 -177t-261 -61zM616 160q132 0 240.5 89t132.5 232q24 142 -50 228t-208 86q-132 0 -240.5 -87
t-132.5 -227q-24 -145 50 -233t208 -88zM1147 1450l-299 -315h-178l254 315h223z" />
    <glyph glyph-name="ocircumflex" unicode="&#xf4;" horiz-adv-x="1185" 
d="M586 -20q-101 0 -185.5 36t-141.5 100.5t-80.5 159t-4.5 205.5q27 148 115 262t212 174t261 60q101 0 186 -35.5t143 -98.5t81.5 -157t3.5 -205q-26 -147 -115 -263t-214 -177t-261 -61zM616 160q132 0 240.5 89t132.5 232q24 142 -50 228t-208 86q-132 0 -240.5 -87
t-132.5 -227q-24 -145 50 -233t208 -88zM944 1135l-123 178l-182 -178h-168l281 315h190l170 -315h-168z" />
    <glyph glyph-name="otilde" unicode="&#xf5;" horiz-adv-x="1185" 
d="M586 -20q-101 0 -185.5 36t-141.5 100.5t-80.5 159t-4.5 205.5q27 148 115 262t212 174t261 60q101 0 186 -35.5t143 -98.5t81.5 -157t3.5 -205q-26 -147 -115 -263t-214 -177t-261 -61zM616 160q132 0 240.5 89t132.5 232q24 142 -50 228t-208 86q-132 0 -240.5 -87
t-132.5 -227q-24 -145 50 -233t208 -88zM719 1249q-20 0 -40 -21.5t-30 -68.5h-125q27 124 90.5 182t133.5 58q10 0 20 -1.5t17 -3t15.5 -5.5t12.5 -6t12 -7.5t10.5 -7.5t10.5 -9.5t10 -8.5q6 -5 14.5 -13t13 -12t12 -7t15.5 -3q22 0 43.5 19.5t32.5 64.5h125
q-15 -64 -42 -112t-58.5 -73t-62.5 -37t-62 -12q-25 0 -48 9.5t-32.5 17.5t-28.5 25q-4 3 -9.5 7.5t-8.5 7t-7.5 5.5t-8 5t-7.5 4t-8.5 2.5t-9.5 0.5z" />
    <glyph glyph-name="odieresis" unicode="&#xf6;" horiz-adv-x="1185" 
d="M586 -20q-101 0 -185.5 36t-141.5 100.5t-80.5 159t-4.5 205.5q27 148 115 262t212 174t261 60q101 0 186 -35.5t143 -98.5t81.5 -157t3.5 -205q-26 -147 -115 -263t-214 -177t-261 -61zM616 160q132 0 240.5 89t132.5 232q24 142 -50 228t-208 86q-132 0 -240.5 -87
t-132.5 -227q-24 -145 50 -233t208 -88zM520 1290q10 54 51 87.5t95 33.5q53 0 84.5 -34t21.5 -87t-51.5 -87t-93.5 -34q-55 0 -86 34t-21 87zM866 1290q10 54 51 87.5t95 33.5q55 0 86.5 -34t21.5 -87q-10 -54 -51.5 -87.5t-95.5 -33.5q-55 0 -86 34t-21 87z" />
    <glyph glyph-name="divide" unicode="&#xf7;" horiz-adv-x="1099" 
d="M446 184q10 56 55.5 92.5t100.5 36.5q57 0 90 -36.5t23 -92.5q-10 -55 -57 -91t-103 -36q-55 0 -87 36t-22 91zM567 868q10 55 55.5 91t100.5 36q57 0 90 -36t23 -91t-57 -92t-103 -37q-55 0 -87 37t-22 92zM1047 438h-842l31 170h841z" />
    <glyph glyph-name="oslash" unicode="&#xf8;" horiz-adv-x="1181" 
d="M307 68l-139 -119l-80 96l135 117q-85 129 -51 319q27 147 116 261.5t213 174.5t261 60q169 0 291 -96l121 104l79 -94l-120 -105q75 -132 43 -305q-26 -147 -115 -263t-214 -177t-261 -61q-168 0 -279 88zM731 795q-132 0 -240.5 -87t-132.5 -227q-18 -111 19 -184
l520 448q-68 50 -166 50zM616 160q132 0 240.5 89t132.5 232q17 77 -14 168l-512 -446q61 -43 153 -43z" />
    <glyph glyph-name="ugrave" unicode="&#xf9;" horiz-adv-x="1150" 
d="M729 1135l-186 315h223l141 -315h-178zM885 440l92 516h186l-168 -956h-186l22 143q-53 -80 -145 -121.5t-180 -41.5q-179 0 -254.5 110t-38.5 313l98 553h187l-97 -540q-23 -121 21 -187.5t143 -66.5q115 0 204.5 67.5t115.5 210.5z" />
    <glyph glyph-name="uacute" unicode="&#xfa;" horiz-adv-x="1150" 
d="M1145 1450l-301 -315h-178l256 315h223zM885 440l92 516h186l-168 -956h-186l22 143q-53 -80 -145 -121.5t-180 -41.5q-179 0 -254.5 110t-38.5 313l98 553h187l-97 -540q-23 -121 21 -187.5t143 -66.5q115 0 204.5 67.5t115.5 210.5z" />
    <glyph glyph-name="ucircumflex" unicode="&#xfb;" horiz-adv-x="1150" 
d="M907 1135l-121 178l-184 -178h-168l283 315h190l168 -315h-168zM885 440l92 516h186l-168 -956h-186l22 143q-53 -80 -145 -121.5t-180 -41.5q-179 0 -254.5 110t-38.5 313l98 553h187l-97 -540q-23 -121 21 -187.5t143 -66.5q115 0 204.5 67.5t115.5 210.5z" />
    <glyph glyph-name="udieresis" unicode="&#xfc;" horiz-adv-x="1150" 
d="M516 1290q10 54 52 87.5t96 33.5q52 0 83 -34t21 -87t-51.5 -87t-93.5 -34q-55 0 -86 34t-21 87zM862 1290q10 54 52 87.5t96 33.5q55 0 85.5 -34t20.5 -87q-10 -54 -51.5 -87.5t-95.5 -33.5q-55 0 -86 34t-21 87zM885 440l92 516h186l-168 -956h-186l22 143
q-53 -80 -145 -121.5t-180 -41.5q-179 0 -254.5 110t-38.5 313l98 553h187l-97 -540q-23 -121 21 -187.5t143 -66.5q115 0 204.5 67.5t115.5 210.5z" />
    <glyph glyph-name="yacute" unicode="&#xfd;" horiz-adv-x="1042" 
d="M328 -465h-195l289 494l-217 927h198l164 -692l410 692h199zM1042 1450l-301 -315h-178l256 315h223z" />
    <glyph glyph-name="thorn" unicode="&#xfe;" horiz-adv-x="1232" 
d="M76 -436l342 1911h186l-117 -637q64 67 154 102t184 35q209 0 324.5 -137t75.5 -359q-41 -222 -205.5 -360.5t-372.5 -138.5q-94 0 -172 37t-115 104l-98 -557h-186zM1040 479q24 139 -46.5 224t-200.5 85q-78 0 -153.5 -33.5t-136 -105.5t-79.5 -170q-28 -147 48.5 -231
t209.5 -84q129 0 231 89t127 226z" />
    <glyph glyph-name="ydieresis" unicode="&#xff;" horiz-adv-x="1138" 
d="M936 401h-594q-1 -121 64 -188.5t182 -67.5q122 0 217 68.5t131 187.5zM172 473q3 11 7 36.5t7 37.5h777q6 120 -66.5 190t-196.5 70q-88 0 -168 -38.5t-133 -109.5q-25 12 -76.5 32t-74.5 30q84 124 213.5 189t273.5 65q207 0 324.5 -140t77.5 -362q-39 -222 -204 -359
t-374 -137q-207 0 -316.5 136t-70.5 360z" />
    <glyph glyph-name="ydieresis" unicode="&#x44f;" horiz-adv-x="1138" 
d="M936 401h-594q-1 -121 64 -188.5t182 -67.5q122 0 217 68.5t131 187.5zM172 473q3 11 7 36.5t7 37.5h777q6 120 -66.5 190t-196.5 70q-88 0 -168 -38.5t-133 -109.5q-25 12 -76.5 32t-74.5 30q84 124 213.5 189t273.5 65q207 0 324.5 -140t77.5 -362q-39 -222 -204 -359
t-374 -137q-207 0 -316.5 136t-70.5 360z" />
    <glyph glyph-name="ydieresis" unicode="&#x259;" horiz-adv-x="1138" 
d="M936 401h-594q-1 -121 64 -188.5t182 -67.5q122 0 217 68.5t131 187.5zM172 473q3 11 7 36.5t7 37.5h777q6 120 -66.5 190t-196.5 70q-88 0 -168 -38.5t-133 -109.5q-25 12 -76.5 32t-74.5 30q84 124 213.5 189t273.5 65q207 0 324.5 -140t77.5 -362q-39 -222 -204 -359
t-374 -137q-207 0 -316.5 136t-70.5 360z" />
    <glyph glyph-name="Amacron" unicode="&#x100;" horiz-adv-x="1320" 
d="M520 530h467l-121 627zM1022 358h-598l-199 -358h-202l784 1411h205l286 -1411h-200zM721 1806h516l-29 -164h-516z" />
    <glyph glyph-name="amacron" unicode="&#x101;" horiz-adv-x="1253" 
d="M913 0l23 147q-59 -79 -160 -123t-205 -44q-98 0 -180 36t-137.5 99.5t-77.5 158t-2 205.5q27 148 114 263t207.5 175t252.5 60q104 0 189.5 -42.5t119.5 -121.5l22 143h185l-166 -956h-185zM993 481q14 74 -2.5 135t-55.5 99.5t-91 59t-111 20.5q-131 0 -237.5 -88
t-130.5 -226q-24 -140 48.5 -229.5t204.5 -89.5q134 0 240.5 86t134.5 233zM604 1352h516l-30 -164h-517z" />
    <glyph glyph-name="Abreve" unicode="&#x102;" horiz-adv-x="1320" 
d="M520 530h467l-121 627zM1022 358h-598l-199 -358h-202l784 1411h205l286 -1411h-200zM721 1853h151q-11 -54 14 -87t79 -33q51 0 89 37t46 83h155q-23 -123 -107.5 -192.5t-207.5 -69.5q-89 0 -144.5 38t-72 96t-2.5 128z" />
    <glyph glyph-name="abreve" unicode="&#x103;" horiz-adv-x="1253" 
d="M913 0l23 147q-59 -79 -160 -123t-205 -44q-98 0 -180 36t-137.5 99.5t-77.5 158t-2 205.5q27 148 114 263t207.5 175t252.5 60q104 0 189.5 -42.5t119.5 -121.5l22 143h185l-166 -956h-185zM993 481q14 74 -2.5 135t-55.5 99.5t-91 59t-111 20.5q-131 0 -237.5 -88
t-130.5 -226q-24 -140 48.5 -229.5t204.5 -89.5q134 0 240.5 86t134.5 233zM606 1399h152q-12 -54 13 -87.5t79 -33.5q50 0 86.5 36.5t48.5 84.5h156q-23 -122 -108.5 -192t-209.5 -70q-133 0 -186 76t-31 186z" />
    <glyph glyph-name="Aogonek" unicode="&#x104;" horiz-adv-x="1320" 
d="M520 530h467l-121 627zM1094 2l-72 356h-598l-199 -358h-202l784 1411h205l286 -1411h-90l-98 -178q-18 -32 -12 -64t35 -45q30 -11 61 2t51 45q7 10 10 29q2 6 2 16l134 9q-13 -64 -39 -101q-37 -61 -92 -96t-115 -35q-39 0 -78 17q-56 26 -81.5 76.5t-14.5 111.5
q6 45 33 86z" />
    <glyph glyph-name="aogonek" unicode="&#x105;" horiz-adv-x="1253" 
d="M1059 -240q7 10 10 29q2 6 2 16l133 9q-14 -68 -37 -101q-37 -61 -93 -96t-116 -35q-36 0 -75 17q-56 26 -82 76.5t-15 111.5q6 45 33 86l90 129l27 145q-59 -79 -160 -123t-205 -44q-98 0 -180 36t-137.5 99.5t-77.5 158t-2 205.5q27 148 114 263t207.5 175t252.5 60
q104 0 189.5 -42.5t119.5 -121.5l22 143h185l-166 -956h-74l-98 -178q-18 -32 -12.5 -64t34.5 -45q29 -11 60 2t51 45zM993 481q14 74 -2.5 135t-55.5 99.5t-91 59t-111 20.5q-131 0 -237.5 -88t-130.5 -226q-24 -140 48.5 -229.5t204.5 -89.5q134 0 240.5 86t134.5 233z
" />
    <glyph glyph-name="Cacute" unicode="&#x106;" horiz-adv-x="1398" 
d="M1266 344l123 -121q-120 -115 -269 -179t-311 -64q-148 0 -270.5 57t-200.5 153.5t-110 230t-5 281.5q36 197 159.5 363.5t305 264t377.5 97.5q161 0 286.5 -63t200.5 -176l-166 -119q-59 81 -149 127.5t-203 46.5q-145 0 -278.5 -72t-225 -196.5t-118.5 -272.5t21 -272
t156.5 -195t252.5 -71q117 0 227 47t197 133zM1430 1905l-300 -316h-178l254 316h224z" />
    <glyph glyph-name="cacute" unicode="&#x107;" horiz-adv-x="1048" 
d="M174 481q27 147 116.5 261.5t214.5 174.5t263 60q110 0 199 -40t143 -114l-162 -118q-75 90 -211 90q-133 0 -244 -87t-135 -227q-24 -139 54.5 -230t210.5 -91q138 0 243 94l123 -119q-82 -74 -185 -114.5t-212 -40.5q-101 0 -186.5 36t-143.5 100t-82.5 159t-5.5 206z
M1114 1450l-299 -315h-178l254 315h223z" />
    <glyph glyph-name="Ccircumflex" unicode="&#x108;" horiz-adv-x="1398" 
d="M1266 344l123 -121q-120 -115 -269 -179t-311 -64q-148 0 -270.5 57t-200.5 153.5t-110 230t-5 281.5q36 197 159.5 363.5t305 264t377.5 97.5q161 0 286.5 -63t200.5 -176l-166 -119q-59 81 -149 127.5t-203 46.5q-145 0 -278.5 -72t-225 -196.5t-118.5 -272.5t21 -272
t156.5 -195t252.5 -71q117 0 227 47t197 133zM1243 1589l-121 178l-184 -178h-168l281 316h190l170 -316h-168z" />
    <glyph glyph-name="ccircumflex" unicode="&#x109;" horiz-adv-x="1048" 
d="M174 481q27 147 116.5 261.5t214.5 174.5t263 60q110 0 199 -40t143 -114l-162 -118q-75 90 -211 90q-133 0 -244 -87t-135 -227q-24 -139 54.5 -230t210.5 -91q138 0 243 94l123 -119q-82 -74 -185 -114.5t-212 -40.5q-101 0 -186.5 36t-143.5 100t-82.5 159t-5.5 206z
M942 1135l-123 178l-182 -178h-168l281 315h190l170 -315h-168z" />
    <glyph glyph-name="Cdotaccent" unicode="&#x10a;" horiz-adv-x="1398" 
d="M1266 344l123 -121q-120 -115 -269 -179t-311 -64q-148 0 -270.5 57t-200.5 153.5t-110 230t-5 281.5q36 197 159.5 363.5t305 264t377.5 97.5q161 0 286.5 -63t200.5 -176l-166 -119q-59 81 -149 127.5t-203 46.5q-145 0 -278.5 -72t-225 -196.5t-118.5 -272.5t21 -272
t156.5 -195t252.5 -71q117 0 227 47t197 133zM963 1763q10 54 52.5 87.5t96.5 33.5q55 0 87 -34t22 -87t-52.5 -87t-97.5 -34t-86.5 34t-21.5 87z" />
    <glyph glyph-name="cdotaccent" unicode="&#x10b;" horiz-adv-x="1048" 
d="M174 481q27 147 116.5 261.5t214.5 174.5t263 60q110 0 199 -40t143 -114l-162 -118q-75 90 -211 90q-133 0 -244 -87t-135 -227q-24 -139 54.5 -230t210.5 -91q138 0 243 94l123 -119q-82 -74 -185 -114.5t-212 -40.5q-101 0 -186.5 36t-143.5 100t-82.5 159t-5.5 206z
M690 1309q10 53 52.5 87t97.5 34t86.5 -34t21.5 -87t-53 -87t-98 -34t-86 34t-21 87z" />
    <glyph glyph-name="Ccaron" unicode="&#x10c;" horiz-adv-x="1398" 
d="M1266 344l123 -121q-120 -115 -269 -179t-311 -64q-148 0 -270.5 57t-200.5 153.5t-110 230t-5 281.5q36 197 159.5 363.5t305 264t377.5 97.5q161 0 286.5 -63t200.5 -176l-166 -119q-59 81 -149 127.5t-203 46.5q-145 0 -278.5 -72t-225 -196.5t-118.5 -272.5t21 -272
t156.5 -195t252.5 -71q117 0 227 47t197 133zM1087 1726l183 179h168l-281 -316h-190l-170 316h168z" />
    <glyph glyph-name="ccaron" unicode="&#x10d;" horiz-adv-x="1048" 
d="M174 481q27 147 116.5 261.5t214.5 174.5t263 60q110 0 199 -40t143 -114l-162 -118q-75 90 -211 90q-133 0 -244 -87t-135 -227q-24 -139 54.5 -230t210.5 -91q138 0 243 94l123 -119q-82 -74 -185 -114.5t-212 -40.5q-101 0 -186.5 36t-143.5 100t-82.5 159t-5.5 206z
M795 1272l184 178h168l-281 -315h-190l-170 315h168z" />
    <glyph glyph-name="Dcaron" unicode="&#x10e;" horiz-adv-x="1482" 
d="M739 0h-546l247 1411h547q196 0 325.5 -94t175 -253.5t9.5 -361.5q-27 -151 -93 -279t-162 -222t-226 -147.5t-277 -53.5zM412 178h356q212 0 356.5 147t182.5 377q21 111 7 208t-54.5 169t-119 113t-186.5 41h-356zM1071 1726l184 179h168l-282 -316h-191l-168 316h168z
" />
    <glyph glyph-name="dcaron" unicode="&#x10f;" horiz-adv-x="1232" 
d="M1329 1444l-252 -1444h-180l16 125q-61 -69 -152 -106t-183 -37q-208 0 -326 138.5t-78 360.5q27 148 113 261.5t207.5 173t257.5 59.5q93 0 171 -34.5t115 -100.5l107 604h184zM358 481q-25 -137 47.5 -226t202.5 -89q131 0 235 83.5t132 231.5q27 144 -53 227t-201 83
q-132 0 -235.5 -86t-127.5 -224zM1460 1016l-110 39q77 80 111.5 156.5t41.5 199.5h185q-41 -261 -228 -395z" />
    <glyph glyph-name="Dcroat" unicode="&#x110;" horiz-adv-x="1482" 
d="M743 0h-538l112 637h-190l25 139h190l111 635h538q196 0 324 -94t172 -253.5t8 -361.5q-27 -151 -92 -279t-160 -222.5t-224 -147.5t-276 -53zM532 776h338l-24 -139h-338l-80 -449h348q211 0 351 142.5t178 371.5q25 151 -2.5 266.5t-115.5 185t-229 69.5h-348z" />
    <glyph glyph-name="dcroat" unicode="&#x111;" horiz-adv-x="1253" 
d="M1298 1145v-2l-200 -1143h-187l23 147q-59 -79 -160 -123t-205 -44q-202 0 -318.5 139t-76.5 360q27 148 113.5 263t205.5 175t250 60q109 0 193.5 -42.5t118.5 -121.5l57 332h-307l22 127h308l36 205h187l-37 -205h154l-23 -127h-154zM991 481q14 74 -2.5 135
t-55.5 99.5t-91 59t-111 20.5q-132 0 -237 -87.5t-129 -226.5t48 -229t203 -90q133 0 240 86t135 233z" />
    <glyph glyph-name="Emacron" unicode="&#x112;" horiz-adv-x="1157" 
d="M440 1411h836l-33 -178h-645l-78 -451h563l-32 -178h-564l-75 -426h665l-28 -178h-856zM678 1806h516l-29 -164h-516z" />
    <glyph glyph-name="emacron" unicode="&#x113;" horiz-adv-x="1138" 
d="M375 553h594q1 121 -64 188.5t-182 67.5q-122 0 -217 -68.5t-131 -187.5zM1139 481q-3 -11 -7.5 -36.5t-7.5 -36.5h-776q-6 -120 66 -190.5t196 -70.5q88 0 168 38.5t133 109.5q25 -12 77 -32t75 -30q-84 -124 -213.5 -188.5t-274.5 -64.5q-208 0 -324 139t-77 362
q27 148 113 262t207.5 174t257.5 60q101 0 182.5 -35t133.5 -99.5t72 -156t-1 -205.5zM553 1352h516l-31 -164h-516z" />
    <glyph glyph-name="Ebreve" unicode="&#x114;" horiz-adv-x="1157" 
d="M440 1411h836l-33 -178h-645l-78 -451h563l-32 -178h-564l-75 -426h665l-28 -178h-856zM639 1853h152q-11 -55 14 -87.5t78 -32.5q51 0 89 37t46 83h156q-23 -123 -107.5 -192.5t-208.5 -69.5q-89 0 -144.5 38t-72 96t-2.5 128z" />
    <glyph glyph-name="ebreve" unicode="&#x115;" horiz-adv-x="1138" 
d="M375 553h594q1 121 -64 188.5t-182 67.5q-122 0 -217 -68.5t-131 -187.5zM1139 481q-3 -11 -7.5 -36.5t-7.5 -36.5h-776q-6 -120 66 -190.5t196 -70.5q88 0 168 38.5t133 109.5q25 -12 77 -32t75 -30q-84 -124 -213.5 -188.5t-274.5 -64.5q-208 0 -324 139t-77 362
q27 148 113 262t207.5 174t257.5 60q101 0 182.5 -35t133.5 -99.5t72 -156t-1 -205.5zM555 1399h152q-12 -54 13 -87.5t79 -33.5q50 0 86.5 36.5t48.5 84.5h156q-23 -122 -108.5 -192t-209.5 -70q-133 0 -186 76t-31 186z" />
    <glyph glyph-name="Edotaccent" unicode="&#x116;" horiz-adv-x="1157" 
d="M440 1411h836l-33 -178h-645l-78 -451h563l-32 -178h-564l-75 -426h665l-28 -178h-856zM807 1763q10 54 52.5 87.5t96.5 33.5q55 0 87 -34t22 -87t-52.5 -87t-97.5 -34t-86.5 34t-21.5 87z" />
    <glyph glyph-name="edotaccent" unicode="&#x117;" horiz-adv-x="1138" 
d="M375 553h594q1 121 -64 188.5t-182 67.5q-122 0 -217 -68.5t-131 -187.5zM1139 481q-3 -11 -7.5 -36.5t-7.5 -36.5h-776q-6 -120 66 -190.5t196 -70.5q88 0 168 38.5t133 109.5q25 -12 77 -32t75 -30q-84 -124 -213.5 -188.5t-274.5 -64.5q-208 0 -324 139t-77 362
q27 148 113 262t207.5 174t257.5 60q101 0 182.5 -35t133.5 -99.5t72 -156t-1 -205.5zM684 1309q10 53 52.5 87t97.5 34t86.5 -34t21.5 -87t-53 -87t-98 -34t-86 34t-21 87z" />
    <glyph glyph-name="Eogonek" unicode="&#x118;" horiz-adv-x="1157" 
d="M1038 0l-86 -156q-19 -32 -12.5 -63.5t35.5 -44.5q29 -10 60 3t50 44q8 13 11 29l4 16l131 8q-7 -45 -37 -100q-37 -61 -93 -96t-116 -35q-39 0 -76 16q-56 26 -81.5 77t-14.5 112q6 39 33 86l76 104h-729l247 1411h836l-33 -178h-645l-78 -451h563l-32 -178h-564
l-75 -426h665l-28 -178h-11z" />
    <glyph glyph-name="eogonek" unicode="&#x119;" horiz-adv-x="1140" 
d="M741 -178q-18 -32 -12 -64t35 -45q29 -11 59.5 2t50.5 45q8 12 11 29q2 6 2 16l133 9q-14 -68 -37 -101q-37 -61 -93 -96t-116 -35q-37 0 -76 17q-56 26 -81.5 76.5t-14.5 111.5q6 45 33 86l90 125q-73 -18 -150 -18q-208 0 -324 139t-77 362q27 148 113 262t207.5 174
t257.5 60q101 0 182.5 -35t133.5 -99.5t72 -156t-1 -205.5q-3 -11 -7.5 -36.5t-7.5 -36.5h-776q-6 -120 66 -190.5t196 -70.5q88 0 168 38.5t133 109.5l152 -62q-13 -19 -40.5 -45t-59 -56t-68 -69.5t-77.5 -102t-77 -138.5zM375 553h594q1 121 -64 188.5t-182 67.5
q-122 0 -217 -68.5t-131 -187.5z" />
    <glyph glyph-name="Ecaron" unicode="&#x11a;" horiz-adv-x="1157" 
d="M440 1411h836l-33 -178h-645l-78 -451h563l-32 -178h-564l-75 -426h665l-28 -178h-856zM883 1726l184 179h168l-283 -316h-190l-168 316h168z" />
    <glyph glyph-name="ecaron" unicode="&#x11b;" horiz-adv-x="1138" 
d="M375 553h594q1 121 -64 188.5t-182 67.5q-122 0 -217 -68.5t-131 -187.5zM1139 481q-3 -11 -7.5 -36.5t-7.5 -36.5h-776q-6 -120 66 -190.5t196 -70.5q88 0 168 38.5t133 109.5q25 -12 77 -32t75 -30q-84 -124 -213.5 -188.5t-274.5 -64.5q-208 0 -324 139t-77 362
q27 148 113 262t207.5 174t257.5 60q101 0 182.5 -35t133.5 -99.5t72 -156t-1 -205.5zM797 1272l184 178h168l-281 -315h-190l-170 315h168z" />
    <glyph glyph-name="Gcircumflex" unicode="&#x11c;" horiz-adv-x="1548" 
d="M1507 1241l-159 -127q-131 131 -316 131q-146 0 -279.5 -73t-224 -197.5t-116.5 -272.5q-27 -148 19.5 -272t154 -196t252.5 -72q193 0 336 103t184 278h-402l29 166h619q-64 -363 -274.5 -546t-522.5 -183q-197 0 -344 96.5t-211 262t-29 363.5q27 147 106 281
t190.5 231.5t254 155t289.5 57.5q276 0 444 -186zM1212 1589l-120 178l-185 -178h-168l281 316h190l170 -316h-168z" />
    <glyph glyph-name="gcircumflex" unicode="&#x11d;" horiz-adv-x="1251" 
d="M272 -137q28 -77 97 -120.5t151 -43.5q163 0 269 102.5t147 331.5l4 23q-54 -82 -159 -129t-210 -47q-98 0 -180 35t-137 98t-77 157t-3 205q26 147 113.5 263t209 177.5t253.5 61.5q105 0 189.5 -44.5t115.5 -125.5l26 149h185l-144 -811q-113 -622 -633 -622
q-136 0 -238.5 66.5t-148.5 191.5q11 5 83.5 41t86.5 41zM993 477q28 148 -49 233t-211 85q-131 0 -237.5 -90t-130.5 -228q-24 -144 49 -229.5t207 -85.5q126 0 235 84.5t137 230.5zM977 1135l-121 178l-184 -178h-168l282 315h191l168 -315h-168z" />
    <glyph glyph-name="Gbreve" unicode="&#x11e;" horiz-adv-x="1548" 
d="M1507 1241l-159 -127q-131 131 -316 131q-146 0 -279.5 -73t-224 -197.5t-116.5 -272.5q-27 -148 19.5 -272t154 -196t252.5 -72q193 0 336 103t184 278h-402l29 166h619q-64 -363 -274.5 -546t-522.5 -183q-197 0 -344 96.5t-211 262t-29 363.5q27 147 106 281
t190.5 231.5t254 155t289.5 57.5q276 0 444 -186zM842 1853h151q-11 -55 14 -87.5t78 -32.5q50 0 87 36.5t49 83.5h155q-23 -123 -107.5 -192.5t-207.5 -69.5q-89 0 -144.5 38t-72 96t-2.5 128z" />
    <glyph glyph-name="gbreve" unicode="&#x11f;" horiz-adv-x="1251" 
d="M272 -137q28 -77 97 -120.5t151 -43.5q163 0 269 102.5t147 331.5l4 23q-54 -82 -159 -129t-210 -47q-98 0 -180 35t-137 98t-77 157t-3 205q26 147 113.5 263t209 177.5t253.5 61.5q105 0 189.5 -44.5t115.5 -125.5l26 149h185l-144 -811q-113 -622 -633 -622
q-136 0 -238.5 66.5t-148.5 191.5q11 5 83.5 41t86.5 41zM993 477q28 148 -49 233t-211 85q-131 0 -237.5 -90t-130.5 -228q-24 -144 49 -229.5t207 -85.5q126 0 235 84.5t137 230.5zM606 1399h152q-11 -55 14 -88t78 -33q51 0 89 37.5t46 83.5h156q-23 -122 -108.5 -192
t-209.5 -70q-133 0 -186 76t-31 186z" />
    <glyph glyph-name="Gdotaccent" unicode="&#x120;" horiz-adv-x="1548" 
d="M1507 1241l-159 -127q-131 131 -316 131q-146 0 -279.5 -73t-224 -197.5t-116.5 -272.5q-27 -148 19.5 -272t154 -196t252.5 -72q193 0 336 103t184 278h-402l29 166h619q-64 -363 -274.5 -546t-522.5 -183q-197 0 -344 96.5t-211 262t-29 363.5q27 147 106 281
t190.5 231.5t254 155t289.5 57.5q276 0 444 -186zM989 1763q10 53 52.5 87t97.5 34t86.5 -34t21.5 -87q-10 -54 -52.5 -87.5t-96.5 -33.5q-55 0 -87 34t-22 87z" />
    <glyph glyph-name="gdotaccent" unicode="&#x121;" horiz-adv-x="1251" 
d="M272 -137q28 -77 97 -120.5t151 -43.5q163 0 269 102.5t147 331.5l4 23q-54 -82 -159 -129t-210 -47q-98 0 -180 35t-137 98t-77 157t-3 205q26 147 113.5 263t209 177.5t253.5 61.5q105 0 189.5 -44.5t115.5 -125.5l26 149h185l-144 -811q-113 -622 -633 -622
q-136 0 -238.5 66.5t-148.5 191.5q11 5 83.5 41t86.5 41zM993 477q28 148 -49 233t-211 85q-131 0 -237.5 -90t-130.5 -228q-24 -144 49 -229.5t207 -85.5q126 0 235 84.5t137 230.5zM725 1309q10 53 53.5 87t98.5 34t85.5 -34t20.5 -87q-10 -54 -52.5 -87.5t-96.5 -33.5
q-55 0 -87 34t-22 87z" />
    <glyph glyph-name="Gcommaaccent" unicode="&#x122;" horiz-adv-x="1548" 
d="M1507 1241l-159 -127q-131 131 -316 131q-146 0 -279.5 -73t-224 -197.5t-116.5 -272.5q-27 -148 19.5 -272t154 -196t252.5 -72q193 0 336 103t184 278h-402l29 166h619q-64 -363 -274.5 -546t-522.5 -183q-197 0 -344 96.5t-211 262t-29 363.5q27 147 106 281
t190.5 231.5t254 155t289.5 57.5q276 0 444 -186zM666 -512l-111 39q77 82 113 158.5t43 197.5h184q-49 -267 -229 -395z" />
    <glyph glyph-name="gcommaaccent" unicode="&#x123;" horiz-adv-x="1251" 
d="M272 -137q28 -77 97 -120.5t151 -43.5q163 0 269 102.5t147 331.5l4 23q-54 -82 -159 -129t-210 -47q-98 0 -180 35t-137 98t-77 157t-3 205q26 147 113.5 263t209 177.5t253.5 61.5q105 0 189.5 -44.5t115.5 -125.5l26 149h185l-144 -811q-113 -622 -633 -622
q-136 0 -238.5 66.5t-148.5 191.5q11 5 83.5 41t86.5 41zM993 477q28 148 -49 233t-211 85q-131 0 -237.5 -90t-130.5 -228q-24 -144 49 -229.5t207 -85.5q126 0 235 84.5t137 230.5zM905 1534l113 -39q-78 -87 -112.5 -160t-45.5 -196h-184q49 267 229 395z" />
    <glyph glyph-name="Hcircumflex" unicode="&#x124;" horiz-adv-x="1449" 
d="M1505 1411l-248 -1411h-192l106 614h-682l-106 -614h-190l247 1411h191l-111 -623h682l111 623h192zM1155 1589l-121 178l-184 -178h-168l283 316h190l168 -316h-168z" />
    <glyph glyph-name="hcircumflex" unicode="&#x125;" 
d="M432 516l-90 -516h-186l260 1477h186l-117 -664q52 79 153 121.5t191 42.5q182 0 266 -111.5t46 -312.5l-97 -553h-186l94 541q23 116 -28.5 185t-151.5 69q-51 0 -103.5 -15.5t-102 -46.5t-86 -87.5t-48.5 -129.5zM680 1567l-121 178l-184 -178h-168l280 315h191
l170 -315h-168z" />
    <glyph glyph-name="Hbar" unicode="&#x126;" horiz-adv-x="1466" 
d="M1466 1155h144l-23 -127h-143l-180 -1028h-191l107 610h-680l-107 -610h-190l180 1028h-141l22 127h142l45 256h190l-45 -256h680l45 256h190zM532 791h680l41 237h-680z" />
    <glyph glyph-name="hbar" unicode="&#x127;" 
d="M543 1145l-58 -332q52 79 153 121.5t191 42.5q182 0 266 -111.5t46 -312.5l-97 -553h-186l94 541q23 116 -28.5 185t-151.5 69q-51 0 -103.5 -15.5t-102 -46.5t-86 -87.5t-48.5 -129.5l-90 -516h-186l200 1145h-143l23 127h143l37 205h186l-37 -205h266l-22 -127h-266z
" />
    <glyph glyph-name="Itilde" unicode="&#x128;" horiz-adv-x="575" 
d="M440 1411h191l-248 -1411h-190zM496 1704q-20 0 -40 -21.5t-30 -68.5h-125q30 124 92 181.5t131 57.5q26 0 49.5 -9.5t30.5 -15t29 -24.5q6 -5 15 -13t14 -11.5t12.5 -7t15.5 -3.5q22 0 43.5 19.5t30.5 64.5h125q-15 -64 -41.5 -111.5t-57.5 -73t-62 -37t-62 -11.5
q-10 0 -19.5 1.5t-16.5 3t-16 6l-13 6.5t-12.5 8.5t-10.5 8t-11 9t-10 8.5q-5 4 -15.5 11.5t-15.5 11t-13.5 7t-16.5 3.5z" />
    <glyph glyph-name="itilde" unicode="&#x129;" horiz-adv-x="493" 
d="M506 956l-168 -956h-182l168 956h182zM383 1249q-20 0 -40 -21.5t-30 -68.5h-125q30 124 92.5 182t131.5 58q10 0 20 -1.5t17 -3t15.5 -5.5t12.5 -6t12 -7.5t10.5 -7.5t10.5 -9.5t10 -8.5q6 -4 15.5 -12.5t14 -12t12.5 -7t16 -3.5q21 0 42.5 19.5t30.5 64.5h125
q-15 -64 -42 -112t-58.5 -73t-62.5 -37t-62 -12q-25 0 -48 9.5t-32.5 17.5t-28.5 25q-4 3 -9.5 7.5t-8.5 7t-7.5 5.5t-8 5t-7.5 4t-8.5 2.5t-9.5 0.5z" />
    <glyph glyph-name="Imacron" unicode="&#x12a;" horiz-adv-x="575" 
d="M440 1411h191l-248 -1411h-190zM350 1806h516l-28 -164h-516z" />
    <glyph glyph-name="imacron" unicode="&#x12b;" horiz-adv-x="493" 
d="M506 956l-168 -956h-182l168 956h182zM236 1352h516l-29 -164h-516z" />
    <glyph glyph-name="Ibreve" unicode="&#x12c;" horiz-adv-x="575" 
d="M440 1411h191l-248 -1411h-190zM348 1853h152q-11 -55 13.5 -87.5t78.5 -32.5q51 0 89 37t46 83h156q-23 -123 -107.5 -192.5t-208.5 -69.5q-89 0 -144.5 38t-72 96t-2.5 128z" />
    <glyph glyph-name="ibreve" unicode="&#x12d;" horiz-adv-x="493" 
d="M506 956l-168 -956h-182l168 956h182zM238 1399h151q-11 -55 14 -88t78 -33q51 0 89 37.5t46 83.5h156q-23 -122 -108 -192t-209 -70q-133 0 -186 76t-31 186z" />
    <glyph glyph-name="Iogonek" unicode="&#x12e;" horiz-adv-x="575" 
d="M303 0l-98 -178q-18 -32 -12.5 -64t34.5 -45q29 -11 60 2t51 45q7 10 10 29q2 6 2 16l133 9q-14 -68 -37 -101q-37 -61 -92.5 -96t-115.5 -35q-37 0 -76 17q-56 26 -81.5 76.5t-14.5 111.5q6 47 32 86l90 129l250 1409h191l-246 -1411h-80z" />
    <glyph glyph-name="iogonek" unicode="&#x12f;" horiz-adv-x="495" 
d="M268 0l-98 -178q-18 -32 -12 -64t35 -45q29 -11 59.5 2t50.5 45q7 10 10 29q2 6 2 16l134 9q-14 -68 -37 -101q-37 -61 -93 -96t-116 -35q-37 0 -76 17q-56 26 -81.5 76.5t-14.5 111.5q6 47 32 86l93 127l166 956h184l-166 -956h-72zM379 1309q10 54 52.5 87.5t96.5 33.5
q55 0 87 -34t22 -87t-53.5 -87t-98.5 -34t-85.5 34t-20.5 87z" />
    <glyph glyph-name="Idotaccent" unicode="&#x130;" horiz-adv-x="575" 
d="M440 1411h191l-248 -1411h-190zM471 1763q10 53 52.5 87t97.5 34t86.5 -34t21.5 -87q-10 -54 -52.5 -87.5t-96.5 -33.5q-55 0 -87 34t-22 87z" />
    <glyph glyph-name="dotlessi" unicode="&#x131;" horiz-adv-x="495" 
d="M508 956l-168 -956h-184l168 956h184z" />
    <glyph glyph-name="IJ" unicode="&#x132;" horiz-adv-x="1150" 
d="M440 1411h191l-248 -1411h-190zM281 -492l51 181q18 -7 65.5 -12t65.5 -5q127 0 199 76t94 197l260 1466h190l-260 -1466q-14 -77 -40.5 -143.5t-69.5 -125t-100 -100.5t-135 -66t-171 -24q-46 0 -149 22z" />
    <glyph glyph-name="ij" unicode="&#x133;" horiz-adv-x="995" 
d="M508 956l-168 -956h-184l168 956h184zM348 1309q10 53 53.5 87t98.5 34t85.5 -34t20.5 -87q-10 -54 -52.5 -87.5t-96.5 -33.5q-55 0 -87 34t-22 87zM283 -469l32 174h111q56 0 96.5 21t63 58.5t34.5 74.5t19 84l180 1013h189l-181 -1015q-74 -410 -417 -410h-127z
M846 1309q10 53 53 87t98 34t86 -34t21 -87t-52.5 -87t-97.5 -34t-86.5 34t-21.5 87z" />
    <glyph glyph-name="Jcircumflex" unicode="&#x134;" horiz-adv-x="575" 
d="M-291 -492l49 181q21 -7 67.5 -12t65.5 -5q123 0 195 76.5t94 196.5l260 1466h191l-260 -1466q-18 -97 -56 -177t-99 -145t-152 -101t-205 -36q-47 0 -150 22zM705 1589l-121 178l-185 -178h-168l283 316h191l167 -316h-167z" />
    <glyph glyph-name="jcircumflex" unicode="&#x135;" horiz-adv-x="499" 
d="M-209 -469l33 174h110q54 0 94 21t62.5 58.5t34 74.5t18.5 84l181 1013h188l-180 -1015q-74 -410 -414 -410h-127zM610 1135l-121 178l-184 -178h-168l283 315h190l168 -315h-168z" />
    <glyph glyph-name="Kcommaaccent" unicode="&#x136;" horiz-adv-x="1183" 
d="M522 -512l-110 39q77 82 112.5 158.5t42.5 197.5h185q-23 -143 -86 -242t-144 -153zM666 707l532 -707h-256l-455 602l-104 -602h-190l247 1411h191l-107 -610l574 610h235z" />
    <glyph glyph-name="kcommaaccent" unicode="&#x137;" horiz-adv-x="1028" 
d="M422 467l-82 -467h-184l260 1477h184l-151 -854l389 333h254l-484 -413l414 -543h-246zM412 -512l-111 39q77 82 113 158.5t43 197.5h184q-23 -143 -86 -242t-143 -153z" />
    <glyph glyph-name="kgreenlandic" unicode="&#x138;" horiz-adv-x="1011" 
d="M406 383l-66 -383h-184l168 956h184l-68 -383l432 383h244l-528 -473l403 -483h-258z" />
    <glyph glyph-name="Lacute" unicode="&#x139;" horiz-adv-x="1013" 
d="M440 1411h191l-219 -1233h575l-29 -178h-765zM958 1882l-299 -315h-178l254 315h223z" />
    <glyph glyph-name="lacute" unicode="&#x13a;" horiz-adv-x="497" 
d="M416 1477h186l-260 -1477h-186zM915 1907l-299 -316h-178l254 316h223z" />
    <glyph glyph-name="Lcommaaccent" unicode="&#x13b;" horiz-adv-x="1013" 
d="M440 1411h191l-219 -1233h575l-29 -178h-765zM397 -512l-110 39q77 82 112.5 158.5t42.5 197.5h185q-23 -143 -86 -242t-144 -153z" />
    <glyph glyph-name="lcommaaccent" unicode="&#x13c;" horiz-adv-x="497" 
d="M416 1477h186l-260 -1477h-186zM88 -512l-106 39q76 84 110 159t41 197h184q-23 -143 -86 -242t-143 -153z" />
    <glyph glyph-name="Lcaron" unicode="&#x13d;" horiz-adv-x="1013" 
d="M440 1411h191l-219 -1233h575l-29 -178h-765zM815 1016l-110 39q76 81 109.5 156t45.5 200h184q-23 -143 -86 -242t-143 -153z" />
    <glyph glyph-name="lcaron" unicode="&#x13e;" horiz-adv-x="497" 
d="M416 1477h186l-260 -1477h-186zM737 1081l-112 39q77 82 111 157t46 200h185q-23 -143 -86.5 -242.5t-143.5 -153.5z" />
    <glyph glyph-name="Ldot" unicode="&#x13f;" horiz-adv-x="1013" 
d="M440 1411h191l-219 -1233h575l-29 -178h-765zM637 535q10 55 55.5 92t100.5 37q56 0 89 -37t23 -92t-54.5 -91t-100.5 -36q-55 0 -89 36.5t-24 90.5z" />
    <glyph glyph-name="ldot" unicode="&#x140;" horiz-adv-x="690" 
d="M416 1477h186l-260 -1477h-186zM549 535q10 55 55.5 92t100.5 37q56 0 89 -37t23 -92t-54.5 -91t-100.5 -36q-55 0 -89 36.5t-24 90.5z" />
    <glyph glyph-name="Lslash" unicode="&#x141;" horiz-adv-x="1021" 
d="M555 926l233 133l-22 -135l-236 -133l-108 -603h573l-30 -188h-762l116 672l-147 -84l25 135l147 84l107 604h188z" />
    <glyph glyph-name="lslash" unicode="&#x142;" horiz-adv-x="522" 
d="M616 1477l-102 -576l176 103l-24 -132l-177 -102l-133 -770h-184l113 653l-152 -88l25 131l151 88l123 693h184z" />
    <glyph glyph-name="Nacute" unicode="&#x143;" horiz-adv-x="1400" 
d="M1208 0h-182l-457 1063l-186 -1063h-190l247 1411h189l448 -1055l189 1055h190zM1309 1905l-301 -316h-179l256 316h224z" />
    <glyph glyph-name="nacute" unicode="&#x144;" horiz-adv-x="1153" 
d="M432 516l-90 -516h-186l168 956h186l-25 -143q53 80 147 122t181 42q179 0 254.5 -110.5t38.5 -313.5l-96 -553h-187l95 541q23 120 -22 187t-144 67q-53 0 -103 -15.5t-95 -47.5t-77.5 -87.5t-44.5 -128.5zM1122 1450l-301 -315h-178l256 315h223z" />
    <glyph glyph-name="Ncommaaccent" unicode="&#x145;" horiz-adv-x="1400" 
d="M1208 0h-182l-457 1063l-186 -1063h-190l247 1411h189l448 -1055l189 1055h190zM557 -512l-111 39q77 82 113 158.5t43 197.5h184q-23 -143 -86 -242t-143 -153z" />
    <glyph glyph-name="ncommaaccent" unicode="&#x146;" horiz-adv-x="1153" 
d="M432 516l-90 -516h-186l168 956h186l-25 -143q53 80 147 122t181 42q179 0 254.5 -110.5t38.5 -313.5l-96 -553h-187l95 541q23 120 -22 187t-144 67q-53 0 -103 -15.5t-95 -47.5t-77.5 -87.5t-44.5 -128.5zM424 -512l-111 39q77 82 113 158.5t43 197.5h184
q-23 -143 -86 -242t-143 -153z" />
    <glyph glyph-name="Ncaron" unicode="&#x147;" horiz-adv-x="1400" 
d="M1208 0h-182l-457 1063l-186 -1063h-190l247 1411h189l448 -1055l189 1055h190zM1004 1726l184 179h168l-283 -316h-190l-168 316h168z" />
    <glyph glyph-name="ncaron" unicode="&#x148;" horiz-adv-x="1153" 
d="M432 516l-90 -516h-186l168 956h186l-25 -143q53 80 147 122t181 42q179 0 254.5 -110.5t38.5 -313.5l-96 -553h-187l95 541q23 120 -22 187t-144 67q-53 0 -103 -15.5t-95 -47.5t-77.5 -87.5t-44.5 -128.5zM799 1272l186 178h168l-283 -315h-190l-168 315h168z" />
    <glyph glyph-name="napostrophe" unicode="&#x149;" horiz-adv-x="1153" 
d="M184 961l-125 38q118 131 148 234q2 7 14 121h195q-40 -261 -232 -393zM430 516l-88 -516h-186l166 956h186l-23 -143q53 80 146 122t180 42q179 0 254.5 -110t40.5 -314l-98 -553h-185l95 541q23 120 -22 187t-144 67q-53 0 -103 -15.5t-95.5 -47.5t-78.5 -87.5
t-45 -128.5z" />
    <glyph glyph-name="Eng" unicode="&#x14a;" horiz-adv-x="1396" 
d="M1004 -47l12 67l-449 1035l-186 -1055h-188l247 1411h187l446 -1055l189 1055h188l-248 -1403q-16 -87 -39.5 -158t-65 -139t-96.5 -114.5t-137 -74.5t-184 -28q-75 0 -152 23l52 190q69 -18 110 -18q81 -8 146 22q69 29 111.5 93.5t56.5 148.5z" />
    <glyph glyph-name="eng" unicode="&#x14b;" horiz-adv-x="1150" 
d="M1106 553l-96 -524q-92 -478 -508 -478q-56 0 -146 21l50 186q20 -7 68 -15.5t61 -8.5q122 0 194 75t94 191l95 541q23 120 -22 187t-144 67q-53 0 -103 -15.5t-95 -47.5t-77.5 -87.5t-44.5 -128.5l-90 -516h-186l168 956h186l-25 -143q53 80 147 122t181 42
q180 0 255.5 -110.5t37.5 -313.5z" />
    <glyph glyph-name="Omacron" unicode="&#x14c;" horiz-adv-x="1630" 
d="M223 702q27 147 106 281t190.5 231.5t254 155t289.5 57.5q148 0 271.5 -57.5t202 -155t111 -231.5t5.5 -281q-36 -198 -159 -363.5t-305.5 -262t-381.5 -96.5q-197 0 -344 96.5t-211 262t-29 363.5zM414 702q-27 -148 19.5 -272t154 -195t252.5 -71q146 0 278.5 71.5
t222.5 194.5t117 272q27 148 -19.5 272.5t-154 196.5t-252.5 72q-220 0 -400.5 -158t-217.5 -383zM874 1806h517l-27 -164h-516z" />
    <glyph glyph-name="omacron" unicode="&#x14d;" horiz-adv-x="1185" 
d="M586 -20q-101 0 -185.5 36t-141.5 100.5t-80.5 159t-4.5 205.5q27 148 115 262t212 174t261 60q101 0 186 -35.5t143 -98.5t81.5 -157t3.5 -205q-26 -147 -115 -263t-214 -177t-261 -61zM616 160q132 0 240.5 89t132.5 232q24 142 -50 228t-208 86q-132 0 -240.5 -87
t-132.5 -227q-24 -145 50 -233t208 -88zM553 1352h516l-31 -164h-516z" />
    <glyph glyph-name="Obreve" unicode="&#x14e;" horiz-adv-x="1630" 
d="M223 702q27 147 106 281t190.5 231.5t254 155t289.5 57.5q148 0 271.5 -57.5t202 -155t111 -231.5t5.5 -281q-36 -198 -159 -363.5t-305.5 -262t-381.5 -96.5q-197 0 -344 96.5t-211 262t-29 363.5zM414 702q-27 -148 19.5 -272t154 -195t252.5 -71q146 0 278.5 71.5
t222.5 194.5t117 272q27 148 -19.5 272.5t-154 196.5t-252.5 72q-220 0 -400.5 -158t-217.5 -383zM874 1853h152q-11 -55 13.5 -87.5t78.5 -32.5q50 0 86.5 36.5t48.5 83.5h156q-23 -123 -107.5 -192.5t-207.5 -69.5q-89 0 -144.5 38t-72.5 96t-3 128z" />
    <glyph glyph-name="obreve" unicode="&#x14f;" horiz-adv-x="1185" 
d="M586 -20q-101 0 -185.5 36t-141.5 100.5t-80.5 159t-4.5 205.5q27 148 115 262t212 174t261 60q101 0 186 -35.5t143 -98.5t81.5 -157t3.5 -205q-26 -147 -115 -263t-214 -177t-261 -61zM616 160q132 0 240.5 89t132.5 232q24 142 -50 228t-208 86q-132 0 -240.5 -87
t-132.5 -227q-24 -145 50 -233t208 -88zM573 1399h152q-12 -54 13 -87.5t79 -33.5q50 0 86.5 36.5t48.5 84.5h156q-23 -122 -108 -192t-209 -70q-133 0 -186.5 76t-31.5 186z" />
    <glyph glyph-name="Ohungarumlaut" unicode="&#x150;" horiz-adv-x="1630" 
d="M223 702q27 147 106 281t190.5 231.5t254 155t289.5 57.5q148 0 271.5 -57.5t202 -155t111 -231.5t5.5 -281q-36 -198 -159 -363.5t-305.5 -262t-381.5 -96.5q-197 0 -344 96.5t-211 262t-29 363.5zM414 702q-27 -148 19.5 -272t154 -195t252.5 -71q146 0 278.5 71.5
t222.5 194.5t117 272q27 148 -19.5 272.5t-154 196.5t-252.5 72q-220 0 -400.5 -158t-217.5 -383zM1262 1905l-238 -316h-170l219 316h189zM1556 1905l-264 -316h-166l238 316h192z" />
    <glyph glyph-name="ohungarumlaut" unicode="&#x151;" horiz-adv-x="1185" 
d="M586 -20q-101 0 -185.5 36t-141.5 100.5t-80.5 159t-4.5 205.5q27 148 115 262t212 174t261 60q101 0 186 -35.5t143 -98.5t81.5 -157t3.5 -205q-26 -147 -115 -263t-214 -177t-261 -61zM616 160q132 0 240.5 89t132.5 232q24 142 -50 228t-208 86q-132 0 -240.5 -87
t-132.5 -227q-24 -145 50 -233t208 -88zM928 1450l-238 -315h-170l219 315h189zM1223 1450l-265 -315h-165l237 315h193z" />
    <glyph glyph-name="OE" unicode="&#x152;" horiz-adv-x="2293" 
d="M1579 1411h831l-34 -188h-641l-76 -437h561l-35 -188h-561l-72 -410h664l-31 -188h-854l37 221q-115 -113 -261 -177t-302 -64q-197 0 -343 96.5t-209.5 262t-27.5 363.5q36 197 158 363.5t302 264t376 97.5q156 0 278.5 -65t196.5 -178zM416 702q-24 -146 20.5 -267.5
t150.5 -193t251 -71.5q213 0 387.5 147t224.5 363l6 45q19 141 -29 258t-153 185.5t-246 68.5q-144 0 -276.5 -72t-222 -195t-113.5 -268z" />
    <glyph glyph-name="oe" unicode="&#x153;" horiz-adv-x="1955" 
d="M1956 481q-3 -11 -7 -36t-7 -37h-777q-6 -120 66 -190.5t196 -70.5q88 0 168.5 38.5t133.5 109.5q25 -12 76.5 -32t74.5 -30q-84 -124 -213.5 -188.5t-273.5 -64.5q-124 0 -219.5 52t-145.5 146q-87 -94 -202.5 -146t-239.5 -52q-101 0 -185.5 36t-141.5 100.5t-80.5 159
t-4.5 205.5q27 148 115 262t212 174t261 60q124 0 221.5 -51.5t151.5 -145.5q85 94 197.5 145.5t236.5 51.5q101 0 182.5 -35t133.5 -99.5t72 -156t-1 -205.5zM616 160q132 0 240.5 89t132.5 232q24 142 -50 228t-208 86q-132 0 -240.5 -87t-132.5 -227q-24 -145 50 -233
t208 -88zM1192 553h594q1 121 -64 188.5t-182 67.5q-122 0 -217 -68.5t-131 -187.5z" />
    <glyph glyph-name="Racute" unicode="&#x154;" horiz-adv-x="1267" 
d="M877 535l284 -535h-231l-275 528h-180l-90 -528h-192l247 1411h543q86 0 153 -25t106 -67t63.5 -99t25.5 -120.5t-8 -130.5q-15 -81 -49 -152.5t-87.5 -133t-133 -101t-176.5 -47.5zM944 1233h-344l-92 -526h336q61 0 112 22t84.5 60t55 83.5t30.5 96.5q19 108 -24.5 186
t-157.5 78zM1178 1905l-301 -316h-179l256 316h224z" />
    <glyph glyph-name="racute" unicode="&#x155;" horiz-adv-x="808" 
d="M403 348l-61 -348h-186l168 956h186l-39 -215q111 236 309 236q49 0 94.5 -11.5t63.5 -25.5l-59 -174q-62 33 -136 33q-90 0 -160.5 -61t-113.5 -159.5t-66 -230.5zM836 1450l-301 -315h-179l256 315h224z" />
    <glyph glyph-name="Rcommaaccent" unicode="&#x156;" horiz-adv-x="1267" 
d="M877 535l284 -535h-231l-275 528h-180l-90 -528h-192l247 1411h543q86 0 153 -25t106 -67t63.5 -99t25.5 -120.5t-8 -130.5q-15 -81 -49 -152.5t-87.5 -133t-133 -101t-176.5 -47.5zM944 1233h-344l-92 -526h336q61 0 112 22t84.5 60t55 83.5t30.5 96.5q19 108 -24.5 186
t-157.5 78zM492 -512l-111 39q77 82 113 158.5t43 197.5h184q-23 -143 -86 -242t-143 -153z" />
    <glyph glyph-name="rcommaaccent" unicode="&#x157;" horiz-adv-x="808" 
d="M403 348l-61 -348h-186l168 956h186l-39 -215q111 236 309 236q49 0 94.5 -11.5t63.5 -25.5l-59 -174q-62 33 -136 33q-90 0 -160.5 -61t-113.5 -159.5t-66 -230.5zM88 -512l-106 39q76 84 110 159t41 197h184q-23 -143 -86 -242t-143 -153z" />
    <glyph glyph-name="Rcaron" unicode="&#x158;" horiz-adv-x="1267" 
d="M877 535l284 -535h-231l-275 528h-180l-90 -528h-192l247 1411h543q86 0 153 -25t106 -67t63.5 -99t25.5 -120.5t-8 -130.5q-15 -81 -49 -152.5t-87.5 -133t-133 -101t-176.5 -47.5zM944 1233h-344l-92 -526h336q61 0 112 22t84.5 60t55 83.5t30.5 96.5q19 108 -24.5 186
t-157.5 78zM936 1726l184 179h168l-282 -316h-191l-168 316h168z" />
    <glyph glyph-name="rcaron" unicode="&#x159;" horiz-adv-x="808" 
d="M403 348l-61 -348h-186l168 956h186l-39 -215q111 236 309 236q49 0 94.5 -11.5t63.5 -25.5l-59 -174q-62 33 -136 33q-90 0 -160.5 -61t-113.5 -159.5t-66 -230.5zM643 1272l186 178h168l-282 -315h-191l-168 315h168z" />
    <glyph glyph-name="Sacute" unicode="&#x15a;" horiz-adv-x="1173" 
d="M1186 1905l-299 -316h-178l254 316h223zM176 408h191q-16 -97 57 -173.5t201 -76.5q125 0 208.5 60t110.5 147q18 72 -6.5 125.5t-71.5 81.5t-116 44l-172 46q-60 16 -107 38t-77.5 46.5t-52 54t-32 57t-14 59.5t-2.5 58t6 55q19 115 99.5 207.5t193 141t233.5 48.5
q197 0 306 -113t77 -300h-190q19 105 -44 168t-181 63q-106 0 -196.5 -60t-107.5 -153q-24 -148 164 -196l181 -45q193 -48 271 -161.5t28 -281.5q-47 -160 -192.5 -264t-346.5 -104q-105 0 -192 36t-140.5 95t-77 137t-8.5 160z" />
    <glyph glyph-name="sacute" unicode="&#x15b;" horiz-adv-x="899" 
d="M569 391l-123 31q-130 39 -182.5 112t-17.5 199q29 104 136 174t236 70q134 0 215 -66t70 -204h-178q1 52 -35 80t-94 28q-54 0 -98.5 -24t-61.5 -62q-20 -45 -12 -76q12 -47 102 -73l133 -35q231 -59 199 -279q-24 -131 -144.5 -208.5t-277.5 -77.5q-137 0 -229.5 83.5
t-73.5 223.5h170q0 -73 59 -109q69 -41 148 -33q66 5 111 38t55 87q18 91 -107 121zM971 1450l-299 -315h-178l254 315h223z" />
    <glyph glyph-name="Scircumflex" unicode="&#x15c;" horiz-adv-x="1173" 
d="M999 1589l-120 178l-185 -178h-168l281 316h190l170 -316h-168zM176 408h191q-16 -97 57 -173.5t201 -76.5q125 0 208.5 60t110.5 147q18 72 -6.5 125.5t-71.5 81.5t-116 44l-172 46q-60 16 -107 38t-77.5 46.5t-52 54t-32 57t-14 59.5t-2.5 58t6 55q19 115 99.5 207.5
t193 141t233.5 48.5q197 0 306 -113t77 -300h-190q19 105 -44 168t-181 63q-106 0 -196.5 -60t-107.5 -153q-24 -148 164 -196l181 -45q193 -48 271 -161.5t28 -281.5q-47 -160 -192.5 -264t-346.5 -104q-105 0 -192 36t-140.5 95t-77 137t-8.5 160z" />
    <glyph glyph-name="scircumflex" unicode="&#x15d;" horiz-adv-x="899" 
d="M569 391l-123 31q-130 39 -182.5 112t-17.5 199q29 104 136 174t236 70q134 0 215 -66t70 -204h-178q1 52 -35 80t-94 28q-54 0 -98.5 -24t-61.5 -62q-20 -45 -12 -76q12 -47 102 -73l133 -35q231 -59 199 -279q-24 -131 -144.5 -208.5t-277.5 -77.5q-137 0 -229.5 83.5
t-73.5 223.5h170q0 -73 59 -109q69 -41 148 -33q66 5 111 38t55 87q18 91 -107 121zM801 1135l-121 178l-184 -178h-168l280 315h191l170 -315h-168z" />
    <glyph glyph-name="Scedilla" unicode="&#x15e;" horiz-adv-x="1173" 
d="M475 -240q11 -32 35.5 -44.5t58.5 -2.5q34 13 50 44t10 65l-31 158h-4q-105 0 -192 36t-140.5 95t-77 137t-8.5 160h191q-16 -97 57 -173.5t201 -76.5q125 0 208.5 60t110.5 147q27 105 -30 166.5t-164 84.5l-172 46q-60 16 -107 38t-77.5 46.5t-52 54t-32 57t-14 59.5
t-2.5 58t6 55q19 115 99.5 207.5t193 141t233.5 48.5q197 0 306 -113t77 -300h-190q19 105 -44 168t-181 63q-106 0 -196.5 -60t-107.5 -153q-24 -148 164 -196l181 -45q193 -48 271 -161.5t28 -281.5q-36 -130 -150 -229.5t-268 -126.5l41 -119q9 -46 0 -86
q-11 -61 -54 -111.5t-108 -76.5q-46 -17 -84 -17q-59 0 -101 34.5t-59 96.5q-13 55 -4 101l129 -9q-2 -6 -2 -16q0 -3 -1 -9.5t-0.5 -11t3.5 -8.5z" />
    <glyph glyph-name="scedilla" unicode="&#x15f;" horiz-adv-x="901" 
d="M571 -2l45 -125q9 -46 0 -86q-11 -61 -53.5 -111.5t-107.5 -76.5q-46 -17 -84 -17q-59 0 -101 34.5t-59 96.5q-12 52 -4 101l129 -9q-2 -6 -2 -16q0 -3 -1 -9.5t-0.5 -11t3.5 -8.5q11 -32 35.5 -44.5t58.5 -2.5q34 13 51 44.5t11 64.5l-29 160q-4 0 -13.5 -1t-13.5 -1
q-137 0 -229.5 83.5t-73.5 223.5h170q0 -76 59 -109q54 -39 148 -33q66 5 111 38t55 87q18 91 -107 121l-123 31q-130 39 -182.5 112t-17.5 199q29 104 136.5 174t235.5 70q134 0 215 -66t70 -204h-178q1 52 -35 80t-94 28q-54 0 -98.5 -24t-61.5 -62q-20 -45 -12 -76
q12 -47 102 -73l133 -35q68 -18 113 -49.5t62.5 -67.5t24 -78.5t-2.5 -83.5q-18 -100 -96 -170.5t-189 -97.5z" />
    <glyph glyph-name="Scaron" unicode="&#x160;" horiz-adv-x="1173" 
d="M895 1726l182 179h168l-280 -316h-191l-170 316h168zM176 408h191q-16 -97 57 -173.5t201 -76.5q125 0 208.5 60t110.5 147q18 72 -6.5 125.5t-71.5 81.5t-116 44l-172 46q-60 16 -107 38t-77.5 46.5t-52 54t-32 57t-14 59.5t-2.5 58t6 55q19 115 99.5 207.5t193 141
t233.5 48.5q197 0 306 -113t77 -300h-190q19 105 -44 168t-181 63q-106 0 -196.5 -60t-107.5 -153q-24 -148 164 -196l181 -45q193 -48 271 -161.5t28 -281.5q-47 -160 -192.5 -264t-346.5 -104q-105 0 -192 36t-140.5 95t-77 137t-8.5 160z" />
    <glyph glyph-name="scaron" unicode="&#x161;" horiz-adv-x="899" 
d="M569 391l-123 31q-130 39 -182.5 112t-17.5 199q29 104 136 174t236 70q134 0 215 -66t70 -204h-178q1 52 -35 80t-94 28q-54 0 -98.5 -24t-61.5 -62q-20 -45 -12 -76q12 -47 102 -73l133 -35q231 -59 199 -279q-24 -131 -144.5 -208.5t-277.5 -77.5q-137 0 -229.5 83.5
t-73.5 223.5h170q0 -73 59 -109q69 -41 148 -33q66 5 111 38t55 87q18 91 -107 121zM672 1272l184 178h168l-281 -315h-190l-170 315h168z" />
    <glyph glyph-name="Tcommaaccent" unicode="&#x162;" horiz-adv-x="1163" 
d="M305 1411h1049l-31 -180h-428l-217 -1231h-193l217 1231h-428zM418 -512l-111 39q77 80 112 156.5t42 199.5h184q-41 -262 -227 -395z" />
    <glyph glyph-name="tcommaaccent" unicode="&#x163;" horiz-adv-x="671" 
d="M582 956h202l-28 -157h-203l-139 -799h-187l140 799h-172l28 157h172l64 361h186zM158 -512l-111 39q77 82 113 158.5t43 197.5h184q-23 -143 -86 -242t-143 -153z" />
    <glyph glyph-name="Tcaron" unicode="&#x164;" horiz-adv-x="1163" 
d="M305 1411h1049l-31 -180h-428l-217 -1231h-193l217 1231h-428zM887 1726l182 179h168l-281 -316h-190l-170 316h168z" />
    <glyph glyph-name="tcaron" unicode="&#x165;" horiz-adv-x="671" 
d="M582 956h202l-28 -157h-203l-139 -799h-187l140 799h-172l28 157h172l64 361h186zM803 1081l-113 39q76 81 111 157.5t47 199.5h184q-23 -144 -86 -243t-143 -153z" />
    <glyph glyph-name="Tbar" unicode="&#x166;" horiz-adv-x="1161" 
d="M823 840h273l-25 -135h-272l-123 -705h-191l123 705h-270l24 135h271l67 383h-432l33 188h1055l-33 -188h-432z" />
    <glyph glyph-name="tbar" unicode="&#x167;" horiz-adv-x="675" 
d="M229 0l82 463h-139l21 125h139l37 211h-172l28 157h172l64 361h186l-63 -361h202l-28 -157h-203l-37 -211h156l-21 -125h-155l-82 -463h-187z" />
    <glyph glyph-name="Utilde" unicode="&#x168;" horiz-adv-x="1388" 
d="M721 164q134 0 245.5 89t135.5 232l164 926h190l-164 -926q-27 -149 -119 -266t-219 -178t-266 -61q-103 0 -191 36t-147.5 100.5t-84.5 160.5t-5 208l164 926h192l-163 -926q-24 -143 55 -232t213 -89zM901 1704q-20 0 -40 -21.5t-30 -68.5h-124q27 124 90 181.5
t133 57.5q10 0 20 -1.5t17 -3t15.5 -5.5t12.5 -6t12 -7.5t10.5 -7.5t10.5 -9.5t10 -8.5q6 -5 15 -13t13.5 -11.5t12 -7t15.5 -3.5q21 0 42.5 19.5t32.5 64.5h125q-15 -64 -41.5 -111.5t-57.5 -73t-62 -37t-62 -11.5q-25 0 -48.5 10t-31.5 16t-30 25q-6 4 -15.5 11.5
t-15 11.5t-13.5 7t-16 3z" />
    <glyph glyph-name="utilde" unicode="&#x169;" horiz-adv-x="1150" 
d="M885 440l92 516h186l-168 -956h-186l22 143q-53 -80 -145 -121.5t-180 -41.5q-179 0 -254.5 110t-38.5 313l98 553h187l-97 -540q-23 -121 21 -187.5t143 -66.5q115 0 204.5 67.5t115.5 210.5zM717 1249q-21 0 -41.5 -22t-30.5 -68h-125q30 124 92 182t131 58
q26 0 49.5 -9.5t30.5 -15t29 -24.5q6 -5 15 -13t14 -11.5t12.5 -7t15.5 -3.5q22 0 43.5 19.5t30.5 64.5h125q-15 -64 -42 -112t-58.5 -73t-62.5 -37t-62 -12q-25 0 -48 9.5t-32.5 17.5t-28.5 25q-4 3 -14.5 12t-14.5 11.5t-12 5.5t-16 3z" />
    <glyph glyph-name="Umacron" unicode="&#x16a;" horiz-adv-x="1388" 
d="M721 164q134 0 245.5 89t135.5 232l164 926h190l-164 -926q-27 -149 -119 -266t-219 -178t-266 -61q-103 0 -191 36t-147.5 100.5t-84.5 160.5t-5 208l164 926h192l-163 -926q-24 -143 55 -232t213 -89zM754 1806h516l-27 -164h-516z" />
    <glyph glyph-name="umacron" unicode="&#x16b;" horiz-adv-x="1150" 
d="M885 440l92 516h186l-168 -956h-186l22 143q-53 -80 -145 -121.5t-180 -41.5q-179 0 -254.5 110t-38.5 313l98 553h187l-97 -540q-23 -121 21 -187.5t143 -66.5q115 0 204.5 67.5t115.5 210.5zM569 1352h516l-30 -164h-516z" />
    <glyph glyph-name="Ubreve" unicode="&#x16c;" horiz-adv-x="1388" 
d="M721 164q134 0 245.5 89t135.5 232l164 926h190l-164 -926q-27 -149 -119 -266t-219 -178t-266 -61q-103 0 -191 36t-147.5 100.5t-84.5 160.5t-5 208l164 926h192l-163 -926q-24 -143 55 -232t213 -89zM754 1853h151q-11 -55 14 -87.5t78 -32.5q50 0 87 36.5t49 83.5
h155q-23 -123 -107.5 -192.5t-207.5 -69.5q-89 0 -144.5 38t-72 96t-2.5 128z" />
    <glyph glyph-name="ubreve" unicode="&#x16d;" horiz-adv-x="1150" 
d="M885 440l92 516h186l-168 -956h-186l22 143q-53 -80 -145 -121.5t-180 -41.5q-179 0 -254.5 110t-38.5 313l98 553h187l-97 -540q-23 -121 21 -187.5t143 -66.5q115 0 204.5 67.5t115.5 210.5zM569 1399h152q-11 -55 14 -88t78 -33q51 0 89 37.5t46 83.5h156
q-23 -122 -108.5 -192t-209.5 -70q-133 0 -186 76t-31 186z" />
    <glyph glyph-name="Uring" unicode="&#x16e;" horiz-adv-x="1388" 
d="M721 164q134 0 245.5 89t135.5 232l164 926h190l-164 -926q-27 -149 -119 -266t-219 -178t-266 -61q-103 0 -191 36t-147.5 100.5t-84.5 160.5t-5 208l164 926h192l-163 -926q-24 -143 55 -232t213 -89zM788 1776q17 92 90.5 154.5t163.5 62.5q93 0 144.5 -62.5
t34.5 -154.5q-17 -91 -90.5 -152t-165.5 -61q-91 0 -142.5 61.5t-34.5 151.5zM899 1776q-8 -43 16.5 -74t67.5 -31q47 0 85 31t46 74q7 47 -19.5 77.5t-74.5 30.5q-43 0 -78.5 -30.5t-42.5 -77.5z" />
    <glyph glyph-name="uring" unicode="&#x16f;" horiz-adv-x="1150" 
d="M885 440l92 516h186l-168 -956h-186l22 143q-53 -80 -145 -121.5t-180 -41.5q-179 0 -254.5 110t-38.5 313l98 553h187l-97 -540q-23 -121 21 -187.5t143 -66.5q115 0 204.5 67.5t115.5 210.5zM606 1321q17 92 89 154.5t161 62.5q93 0 146 -62.5t36 -154.5
q-17 -91 -91 -152t-167 -61q-90 0 -140.5 61.5t-33.5 151.5zM715 1321q-7 -43 18 -73.5t68 -30.5q47 0 84 30.5t45 73.5q7 47 -19 78t-73 31q-43 0 -79.5 -31t-43.5 -78z" />
    <glyph glyph-name="Uhungarumlaut" unicode="&#x170;" horiz-adv-x="1388" 
d="M721 164q134 0 245.5 89t135.5 232l164 926h190l-164 -926q-27 -149 -119 -266t-219 -178t-266 -61q-103 0 -191 36t-147.5 100.5t-84.5 160.5t-5 208l164 926h192l-163 -926q-24 -143 55 -232t213 -89zM1114 1905l-237 -316h-170l219 316h188zM1409 1905l-264 -316h-166
l238 316h192z" />
    <glyph glyph-name="uhungarumlaut" unicode="&#x171;" horiz-adv-x="1150" 
d="M885 440l92 516h186l-168 -956h-186l22 143q-53 -80 -145 -121.5t-180 -41.5q-179 0 -254.5 110t-38.5 313l98 553h187l-97 -540q-23 -121 21 -187.5t143 -66.5q115 0 204.5 67.5t115.5 210.5zM913 1450l-239 -315h-170l221 315h188zM1208 1450l-266 -315h-166l240 315
h192z" />
    <glyph glyph-name="Uogonek" unicode="&#x172;" horiz-adv-x="1388" 
d="M803 -240q7 10 10 29q2 6 2 16l133 9q-9 -61 -37 -101q-37 -61 -93 -96t-116 -35q-36 0 -75 17q-56 26 -82 76.5t-15 111.5q6 45 33 86l78 109q-197 18 -306 155t-73 348l164 926h192l-163 -926q-24 -144 53.5 -232.5t212.5 -88.5q134 0 245.5 89t135.5 232l164 926h190
l-162 -926q-36 -206 -188.5 -343t-347.5 -158l-88 -162q-18 -32 -12.5 -64t34.5 -45q29 -11 60 2t51 45z" />
    <glyph glyph-name="uogonek" unicode="&#x173;" horiz-adv-x="1150" 
d="M958 -240q8 12 11 29q2 6 2 16l133 9q-14 -68 -37 -101q-37 -61 -93 -96t-116 -35q-37 0 -76 17q-57 26 -83 76.5t-15 111.5q6 45 33 86l92 127l22 143q-53 -80 -145 -121.5t-180 -41.5q-179 0 -254.5 110t-38.5 313l98 553h187l-97 -540q-23 -121 21 -187.5t143 -66.5
q115 0 204.5 67.5t115.5 210.5l92 516h186l-168 -956h-71l-99 -178q-18 -32 -12 -64t35 -45q29 -11 59.5 2t50.5 45z" />
    <glyph glyph-name="Wcircumflex" unicode="&#x174;" horiz-adv-x="1845" 
d="M1858 1411h204l-725 -1411h-166l-94 881l-403 -881h-166l-229 1411h204l158 -1104l424 914h145l97 -914zM1354 1589l-121 178l-184 -178h-168l282 316h191l168 -316h-168z" />
    <glyph glyph-name="wcircumflex" unicode="&#x175;" horiz-adv-x="1617" 
d="M1221 0h-154l-137 702l-375 -702h-152l-196 956h199l120 -669l359 669h180l121 -669l358 669h199zM1157 1135l-121 178l-184 -178h-168l283 315h190l168 -315h-168z" />
    <glyph glyph-name="Ycircumflex" unicode="&#x176;" horiz-adv-x="1286" 
d="M741 0h-196l112 649l-399 762h227l306 -571l509 571h230l-676 -762zM1077 1589l-121 178l-184 -178h-168l283 316h190l168 -316h-168z" />
    <glyph glyph-name="ycircumflex" unicode="&#x177;" horiz-adv-x="1042" 
d="M328 -465h-195l289 494l-217 927h198l164 -692l410 692h199zM879 1135l-121 178l-185 -178h-167l282 315h191l168 -315h-168z" />
    <glyph glyph-name="Ydieresis" unicode="&#x178;" horiz-adv-x="1286" 
d="M741 0h-196l112 649l-399 762h227l306 -571l509 571h230l-676 -762zM655 1745q10 54 52 87.5t96 33.5q52 0 83 -34t21 -87t-52.5 -87t-94.5 -34q-55 0 -85 34t-20 87zM1001 1745q10 54 52 87.5t96 33.5q55 0 85.5 -34t20.5 -87q-10 -54 -52.5 -87.5t-96.5 -33.5
q-55 0 -85 34t-20 87z" />
    <glyph glyph-name="Zacute" unicode="&#x179;" horiz-adv-x="1173" 
d="M115 166l934 1065h-717l30 180h959l-29 -166l-940 -1065h750l-29 -180h-987zM1206 1905l-301 -316h-178l256 316h223z" />
    <glyph glyph-name="zacute" unicode="&#x17a;" horiz-adv-x="1028" 
d="M1096 956l-27 -153l-692 -625h579l-28 -178h-842l25 154l680 624h-537l33 178h809zM1038 1450l-301 -315h-178l256 315h223z" />
    <glyph glyph-name="Zdotaccent" unicode="&#x17b;" horiz-adv-x="1173" 
d="M115 166l934 1065h-717l30 180h959l-29 -166l-940 -1065h750l-29 -180h-987zM762 1763q10 54 52.5 87.5t96.5 33.5q55 0 87 -34t22 -87t-52.5 -87t-97.5 -34t-86.5 34t-21.5 87z" />
    <glyph glyph-name="zdotaccent" unicode="&#x17c;" horiz-adv-x="1028" 
d="M1096 956l-27 -153l-692 -625h579l-28 -178h-842l25 154l680 624h-537l33 178h809zM608 1309q10 53 53.5 87t98.5 34t85.5 -34t20.5 -87q-10 -54 -52.5 -87.5t-96.5 -33.5q-55 0 -87 34t-22 87z" />
    <glyph glyph-name="Zcaron" unicode="&#x17d;" horiz-adv-x="1173" 
d="M115 166l934 1065h-717l30 180h959l-29 -166l-940 -1065h750l-29 -180h-987zM883 1726l184 179h168l-283 -316h-190l-168 316h168z" />
    <glyph glyph-name="zcaron" unicode="&#x17e;" horiz-adv-x="1028" 
d="M1096 956l-27 -153l-692 -625h579l-28 -178h-842l25 154l680 624h-537l33 178h809zM729 1272l186 178h168l-282 -315h-191l-168 315h168z" />
    <glyph glyph-name="longs" unicode="&#x17f;" horiz-adv-x="624" 
d="M971 1477l-33 -179h-104q-56 0 -96.5 -20t-65 -57.5t-37.5 -76t-23 -91.5l-184 -1053h-188l139 799h-184l28 157h185l16 97q34 197 144.5 310.5t297.5 113.5h105z" />
    <glyph glyph-name="florin" unicode="&#x192;" horiz-adv-x="1263" 
d="M434 33l297 751h-176l68 172h176l32 82q141 353 426 398q45 9 121 4l76 -4l-65 -170h-119q-33 0 -63 -9t-52 -22t-43.5 -36.5t-34.5 -43t-29 -51t-23.5 -50.5t-20.5 -52t-19 -46h221l-65 -172h-223l-277 -698q-38 -95 -77.5 -166.5t-93 -137.5t-124.5 -106.5t-156 -52.5
q-43 -10 -192 2l59 168h121q42 0 79 15.5t62 37.5t48.5 57t37.5 63.5t29 66.5z" />
    <glyph glyph-name="Aringacute" unicode="&#x1fa;" horiz-adv-x="1320" 
d="M1022 358h-598l-199 -358h-202l784 1411h205l286 -1411h-200zM1368 2234l-256 -270q48 -29 68 -78t10 -110q-17 -91 -90.5 -152t-165.5 -61q-91 0 -142 61.5t-34 151.5q13 73 64 129.5t120 76.5l203 252h223zM520 530h467l-121 627zM866 1776q-8 -43 17.5 -74t68.5 -31
q47 0 84 31t45 74q7 47 -19 77.5t-73 30.5q-44 0 -80 -31t-43 -77z" />
    <glyph glyph-name="aringacute" unicode="&#x1fb;" horiz-adv-x="1253" 
d="M913 0l23 147q-59 -79 -160 -123t-205 -44q-98 0 -180 36t-137.5 99.5t-77.5 158t-2 205.5q27 148 114 263t207.5 175t252.5 60q104 0 189.5 -42.5t119.5 -121.5l22 143h185l-166 -956h-185zM993 481q14 74 -2.5 135t-55.5 99.5t-91 59t-111 20.5q-131 0 -237.5 -88
t-130.5 -226q-24 -140 48.5 -229.5t204.5 -89.5q134 0 240.5 86t134.5 233zM1196 1763l-256 -270q98 -61 76 -188q-17 -91 -90.5 -152t-165.5 -61q-90 0 -140.5 61.5t-33.5 151.5q13 73 64.5 129t119.5 77l203 252h223zM694 1305q-8 -43 16.5 -74t67.5 -31q47 0 85 31t46 74
q7 47 -19.5 77.5t-74.5 30.5q-43 0 -78.5 -30.5t-42.5 -77.5z" />
    <glyph glyph-name="AEacute" unicode="&#x1fc;" horiz-adv-x="1912" 
d="M510 354l-287 -354h-223l1139 1411h891l-33 -188h-641l-78 -437h561l-33 -188h-561l-74 -410h664l-31 -188h-852l60 354h-502zM655 537h389l111 610zM1700 1905l-301 -316h-178l256 316h223z" />
    <glyph glyph-name="aeacute" unicode="&#x1fd;" horiz-adv-x="1959" 
d="M1264 956l-13 -77q140 98 322 98q101 0 182.5 -35t133.5 -99.5t72 -156t-1 -205.5q-3 -11 -7 -36t-7 -37h-777q-6 -120 66.5 -190.5t196.5 -70.5q88 0 168 38.5t133 109.5q25 -12 76.5 -32t74.5 -30q-84 -124 -213.5 -188.5t-273.5 -64.5q-184 0 -287 100l-12 -80h-185
l23 147q-59 -79 -160 -123t-205 -44q-98 0 -180 36t-137.5 99.5t-77.5 158t-2 205.5q27 148 114 263t207.5 175t252.5 60q104 0 189.5 -42.5t119.5 -121.5l22 143h185zM993 481q14 74 -2.5 135t-55.5 99.5t-91 59t-111 20.5q-131 0 -237.5 -88t-130.5 -226
q-24 -140 48.5 -229.5t204.5 -89.5q134 0 240.5 86t134.5 233zM1196 553h594q1 121 -64 188.5t-182 67.5q-122 0 -217 -68.5t-131 -187.5zM1536 1450l-299 -315h-178l254 315h223z" />
    <glyph glyph-name="Oslashacute" unicode="&#x1fe;" horiz-adv-x="1628" 
d="M1466 1905l-299 -316h-178l254 316h223zM385 135l-192 -168l-80 96l196 168q-137 201 -88 471q27 147 106 281t190.5 231.5t254 155t289.5 57.5q265 0 430 -165l190 165l80 -94l-192 -168q127 -205 82 -463q-36 -198 -159 -363.5t-305.5 -262t-381.5 -96.5
q-256 0 -420 155zM412 702q-33 -187 49 -335l874 759q-123 117 -305 117q-220 0 -400.5 -158t-217.5 -383zM838 164q146 0 278.5 71.5t222.5 194.5t117 272q35 188 -45 326l-870 -758q118 -106 297 -106z" />
    <glyph glyph-name="oslashacute" unicode="&#x1ff;" horiz-adv-x="1181" 
d="M1147 1450l-299 -315h-178l254 315h223zM307 68l-139 -119l-80 96l135 117q-85 129 -51 319q27 147 116 261.5t213 174.5t261 60q169 0 291 -96l121 104l79 -94l-120 -105q75 -132 43 -305q-26 -147 -115 -263t-214 -177t-261 -61q-168 0 -279 88zM731 795
q-132 0 -240.5 -87t-132.5 -227q-18 -111 19 -184l520 448q-68 50 -166 50zM616 160q132 0 240.5 89t132.5 232q17 77 -14 168l-512 -446q61 -43 153 -43z" />
    <glyph glyph-name="Scommaaccent" unicode="&#x218;" horiz-adv-x="1173" 
d="M449 -512l-111 39q77 82 113 158.5t43 197.5h184q-49 -267 -229 -395zM176 408h191q-16 -97 57 -173.5t201 -76.5q125 0 208.5 60t110.5 147q18 72 -6.5 125.5t-71.5 81.5t-116 44l-172 46q-60 16 -107 38t-77.5 46.5t-52 54t-32 57t-14 59.5t-2.5 58t6 55
q19 115 99.5 207.5t193 141t233.5 48.5q197 0 306 -113t77 -300h-190q19 105 -44 168t-181 63q-106 0 -196.5 -60t-107.5 -153q-24 -148 164 -196l181 -45q193 -48 271 -161.5t28 -281.5q-47 -160 -192.5 -264t-346.5 -104q-105 0 -192 36t-140.5 95t-77 137t-8.5 160z" />
    <glyph glyph-name="scommaaccent" unicode="&#x219;" horiz-adv-x="899" 
d="M569 391l-123 31q-130 39 -182.5 112t-17.5 199q29 104 136 174t236 70q134 0 215 -66t70 -204h-178q1 52 -35 80t-94 28q-54 0 -98.5 -24t-61.5 -62q-20 -45 -12 -76q12 -47 102 -73l133 -35q231 -59 199 -279q-24 -131 -144.5 -208.5t-277.5 -77.5q-137 0 -229.5 83.5
t-73.5 223.5h170q0 -73 59 -109q69 -41 148 -33q66 5 111 38t55 87q18 91 -107 121zM305 -512l-110 39q77 82 112.5 158.5t42.5 197.5h185q-23 -143 -86 -242t-144 -153z" />
    <glyph glyph-name="circumflex" unicode="&#x2c6;" horiz-adv-x="1071" 
d="M887 1135l-123 178l-182 -178h-168l280 315h191l170 -315h-168z" />
    <glyph glyph-name="caron" unicode="&#x2c7;" horiz-adv-x="1071" 
d="M760 1272l184 178h168l-281 -315h-190l-170 315h168z" />
    <glyph glyph-name="breve" unicode="&#x2d8;" horiz-adv-x="985" 
d="M473 1399h152q-12 -54 13 -87.5t79 -33.5q50 0 86.5 36.5t48.5 84.5h156q-23 -122 -108.5 -192t-209.5 -70q-133 0 -186 76t-31 186z" />
    <glyph glyph-name="dotaccent" unicode="&#x2d9;" horiz-adv-x="1077" 
d="M639 1309q10 54 52.5 87.5t96.5 33.5q55 0 87 -34t22 -87t-53.5 -87t-98.5 -34t-85.5 34t-20.5 87z" />
    <glyph glyph-name="ring" unicode="&#x2da;" horiz-adv-x="1087" 
d="M561 1321q17 92 89 154.5t161 62.5q93 0 146 -62.5t36 -154.5q-17 -91 -91 -152t-167 -61q-90 0 -140.5 61.5t-33.5 151.5zM670 1321q-7 -43 18 -73.5t68 -30.5q47 0 84 30.5t45 73.5q7 47 -19 78t-73 31q-43 0 -79.5 -31t-43.5 -78z" />
    <glyph glyph-name="ogonek" unicode="&#x2db;" horiz-adv-x="1069" 
d="M559 -240q7 10 10 29q2 6 2 16l134 9q-14 -68 -37 -101q-37 -61 -93 -96t-116 -35q-37 0 -76 17q-56 26 -81.5 76.5t-14.5 111.5q6 47 32 86l140 195h100l-133 -246q-19 -32 -12.5 -64t35.5 -45q29 -11 59.5 2t50.5 45z" />
    <glyph glyph-name="tilde" unicode="&#x2dc;" horiz-adv-x="872" 
d="M563 1249q-20 0 -39.5 -21.5t-29.5 -68.5h-125q27 124 90 182t133 58q10 0 20 -1.5t17 -3t15.5 -5.5t12.5 -6t12 -7.5t10.5 -7.5t10.5 -9.5t10 -8.5q6 -4 15.5 -12.5t14 -12t12.5 -7t16 -3.5q21 0 42.5 19.5t30.5 64.5h125q-15 -64 -42 -112t-58.5 -73t-62.5 -37t-62 -12
q-25 0 -48 10t-31.5 17t-28.5 25q-2 2 -10.5 8.5t-10.5 8t-8.5 6t-10 5.5t-9 2.5t-11.5 1.5z" />
    <glyph glyph-name="hungarumlaut" unicode="&#x2dd;" horiz-adv-x="974" 
d="M770 1450l-238 -315h-170l220 315h188zM1065 1450l-264 -315h-166l237 315h193z" />
    <glyph glyph-name="Wgrave" unicode="&#x1e80;" horiz-adv-x="1845" 
d="M1858 1411h204l-725 -1411h-166l-94 881l-403 -881h-166l-229 1411h204l158 -1104l424 914h145l97 -914zM1116 1589l-186 316h223l141 -316h-178z" />
    <glyph glyph-name="wgrave" unicode="&#x1e81;" horiz-adv-x="1617" 
d="M1221 0h-154l-137 702l-375 -702h-152l-196 956h199l120 -669l359 669h180l121 -669l358 669h199zM922 1135l-187 315h223l142 -315h-178z" />
    <glyph glyph-name="Wacute" unicode="&#x1e82;" horiz-adv-x="1845" 
d="M1858 1411h204l-725 -1411h-166l-94 881l-403 -881h-166l-229 1411h204l158 -1104l424 914h145l97 -914zM1585 1905l-301 -316h-178l256 316h223z" />
    <glyph glyph-name="wacute" unicode="&#x1e83;" horiz-adv-x="1617" 
d="M1221 0h-154l-137 702l-375 -702h-152l-196 956h199l120 -669l359 669h180l121 -669l358 669h199zM1393 1450l-301 -315h-179l256 315h224z" />
    <glyph glyph-name="Wdieresis" unicode="&#x1e84;" horiz-adv-x="1845" 
d="M1858 1411h204l-725 -1411h-166l-94 881l-403 -881h-166l-229 1411h204l158 -1104l424 914h145l97 -914zM932 1745q10 54 51.5 87.5t95.5 33.5q53 0 84 -34t21 -87t-53 -87t-95 -34q-55 0 -84.5 34t-19.5 87zM1278 1745q10 54 51.5 87.5t95.5 33.5q55 0 86 -34t21 -87
t-52.5 -87t-97.5 -34t-84.5 34t-19.5 87z" />
    <glyph glyph-name="wdieresis" unicode="&#x1e85;" horiz-adv-x="1617" 
d="M1221 0h-154l-137 702l-375 -702h-152l-196 956h199l120 -669l359 669h180l121 -669l358 669h199zM733 1290q10 54 52 87.5t96 33.5q52 0 83 -34t21 -87t-51.5 -87t-93.5 -34q-55 0 -86 34t-21 87zM1079 1290q10 54 52 87.5t96 33.5q55 0 85.5 -34t20.5 -87
q-10 -54 -51.5 -87.5t-95.5 -33.5q-55 0 -86 34t-21 87z" />
    <glyph glyph-name="Ygrave" unicode="&#x1ef2;" horiz-adv-x="1286" 
d="M741 0h-196l112 649l-399 762h227l306 -571l509 571h230l-676 -762zM846 1589l-187 316h224l141 -316h-178z" />
    <glyph glyph-name="ygrave" unicode="&#x1ef3;" horiz-adv-x="1042" 
d="M328 -465h-195l289 494l-217 927h198l164 -692l410 692h199zM696 1135l-186 315h223l141 -315h-178z" />
    <glyph glyph-name="thinspace" unicode="&#x2009;" horiz-adv-x="28" 
 />
    <glyph glyph-name="endash" unicode="&#x2013;" horiz-adv-x="1218" 
d="M246 559h928l-31 -160h-928z" />
    <glyph glyph-name="emdash" unicode="&#x2014;" horiz-adv-x="1640" 
d="M246 559h1349l-30 -160h-1350z" />
    <glyph glyph-name="quoteleft" unicode="&#x2018;" horiz-adv-x="507" 
d="M561 1409l103 -39q-169 -191 -205 -432h-170q41 162 118.5 288.5t153.5 182.5z" />
    <glyph glyph-name="quoteright" unicode="&#x2019;" horiz-adv-x="501" 
d="M375 930l-103 39q165 186 207 432h170q-42 -164 -119 -290t-155 -181z" />
    <glyph glyph-name="quotesinglbase" unicode="&#x201a;" horiz-adv-x="495" 
d="M141 -133l-102 39q165 186 207 432h170q-42 -163 -119.5 -289.5t-155.5 -181.5z" />
    <glyph glyph-name="quotedblleft" unicode="&#x201c;" horiz-adv-x="813" 
d="M561 1411l103 -39q-165 -186 -207 -432h-170q44 163 121.5 289t152.5 182zM866 1411l103 -39q-165 -186 -207 -432h-170q44 163 121.5 289t152.5 182z" />
    <glyph glyph-name="quotedblright" unicode="&#x201d;" horiz-adv-x="808" 
d="M682 940l-100 39q161 182 204 432h170q-42 -164 -119 -291t-155 -180zM377 940l-101 39q162 183 205 432h170q-42 -164 -119 -291t-155 -180z" />
    <glyph glyph-name="quotedblbase" unicode="&#x201e;" horiz-adv-x="800" 
d="M446 -133l-102 39q165 186 207 432h170q-42 -163 -119.5 -289.5t-155.5 -181.5zM141 -133l-102 39q165 186 207 432h170q-42 -163 -119.5 -289.5t-155.5 -181.5z" />
    <glyph glyph-name="dagger" unicode="&#x2020;" horiz-adv-x="847" 
d="M692 1018h248l-33 -184h-248l-190 -1082h-182l190 1082h-246l33 184h246l65 366h183z" />
    <glyph glyph-name="daggerdbl" unicode="&#x2021;" horiz-adv-x="917" 
d="M729 1018h248l-35 -184h-248l-86 -482h248l-31 -182h-247l-72 -418h-182l71 418h-245l30 182h246l86 482h-246l35 184h246l65 366h183z" />
    <glyph glyph-name="bullet" unicode="&#x2022;" horiz-adv-x="944" 
d="M250 489q25 126 127 208.5t231 82.5q126 0 202 -83t52 -208q-24 -127 -127 -209.5t-229 -82.5q-129 0 -204.5 83t-51.5 209z" />
    <glyph glyph-name="ellipsis" unicode="&#x2026;" horiz-adv-x="1470" 
d="M156 106q10 55 54.5 92.5t98.5 37.5q56 0 90.5 -37.5t24.5 -92.5t-56.5 -90.5t-103.5 -35.5q-55 0 -86.5 35.5t-21.5 90.5zM618 106q11 56 55 93t99 37q56 0 90.5 -37.5t24.5 -92.5t-56.5 -90.5t-103.5 -35.5q-56 0 -87.5 35.5t-21.5 90.5zM1081 106q11 56 55 93t99 37
q56 0 90.5 -37.5t24.5 -92.5t-56.5 -90.5t-103.5 -35.5q-56 0 -87.5 35.5t-21.5 90.5z" />
    <glyph glyph-name="perthousand" unicode="&#x2030;" horiz-adv-x="2029" 
d="M1335 1378l-917 -1378h-135l917 1378h135zM274 1104q20 115 114 194.5t208 79.5q115 0 180 -79t45 -195q-22 -116 -115 -194.5t-208 -78.5q-116 0 -181 78.5t-43 194.5zM418 1104q-10 -55 20 -92t86 -37q54 0 99 37t55 92q10 54 -21.5 92.5t-85.5 38.5q-55 0 -98.5 -38
t-54.5 -93zM819 252q20 116 112.5 195t209.5 79q115 0 180 -79t45 -195q-22 -116 -115.5 -194t-208.5 -78q-116 0 -179.5 77.5t-43.5 194.5zM963 252q-11 -56 19 -92.5t85 -36.5t100.5 37t55.5 92q10 54 -22.5 92.5t-86.5 38.5q-55 0 -97.5 -38t-53.5 -93zM1452 252
q20 116 112.5 195t209.5 79q115 0 180 -79t45 -195q-22 -116 -115.5 -194t-208.5 -78q-116 0 -179.5 77.5t-43.5 194.5zM1595 252q-10 -55 19.5 -92t85.5 -37q55 0 100 37t55 92q10 54 -22 92.5t-86 38.5q-55 0 -98 -38t-54 -93z" />
    <glyph glyph-name="guilsinglleft" unicode="&#x2039;" horiz-adv-x="641" 
d="M176 477l359 424h161l-358 -424l209 -424h-162z" />
    <glyph glyph-name="guilsinglright" unicode="&#x203a;" horiz-adv-x="641" 
d="M629 477l-357 -424h-161l356 424l-205 424h162z" />
    <glyph glyph-name="fraction" unicode="&#x2044;" horiz-adv-x="368" 
d="M950 1372l-1165 -1392h-139l1167 1392h137z" />
    <glyph glyph-name="zerosuperior" unicode="&#x2070;" horiz-adv-x="745" 
d="M305 1280q16 91 42 162.5t68 130.5t107.5 91t149.5 32t138 -33t73.5 -89.5t22.5 -132t-15 -161.5q-16 -90 -41 -159t-67 -128.5t-107 -91t-150 -31.5t-139.5 32.5t-74 88.5t-22.5 130.5t15 158.5zM426 1280q-12 -82 -11.5 -146.5t33.5 -104.5t99 -40q174 0 223 291
q12 83 12.5 148.5t-32 106t-99.5 40.5q-176 0 -225 -295z" />
    <glyph glyph-name="foursuperior" unicode="&#x2074;" horiz-adv-x="735" 
d="M750 1042l-31 -161h-121l31 161h-416l559 644h90l-92 -529h115l-21 -115h-114zM442 1157h207l51 307z" />
    <glyph glyph-name="fivesuperior" unicode="&#x2075;" horiz-adv-x="696" 
d="M236 1038l112 72q12 -58 56 -90.5t102 -32.5q82 0 137 44t68 110q11 67 -28.5 103t-100.5 36q-51 0 -103 -15t-137 -53l-29 48l148 423h411l-22 -114h-311q-13 -41 -37.5 -107t-32.5 -90q67 27 135 27q74 0 130 -28.5t83.5 -88t11.5 -141.5q-23 -124 -116.5 -198.5
t-227.5 -74.5q-88 0 -155.5 45t-93.5 125z" />
    <glyph glyph-name="sixsuperior" unicode="&#x2076;" horiz-adv-x="692" 
d="M883 1528l-115 -45q-32 94 -115 94q-77 0 -139 -76t-82 -194q69 96 182 96q110 0 167 -83.5t36 -197.5q-25 -113 -117 -186.5t-202 -69.5q-107 5 -165 78t-46 199q6 47 13.5 91t23 101.5t34.5 105.5t49.5 96.5t67 82t88 53.5t111.5 19q38 -3 67 -10.5t58.5 -24.5
t50.5 -49.5t33 -79.5zM412 1141q-13 -63 20.5 -106.5t93.5 -45.5q59 -4 108.5 37t61.5 102q14 63 -16 107t-90 45q-62 2 -114 -38t-64 -101z" />
    <glyph glyph-name="sevensuperior" unicode="&#x2077;" horiz-adv-x="669" 
d="M938 1686l-582 -805h-141l496 684h-357l21 121h563z" />
    <glyph glyph-name="eightsuperior" unicode="&#x2078;" horiz-adv-x="700" 
d="M395 1485q17 89 89 150t165 61q94 0 148 -61.5t37 -149.5q-15 -77 -84 -137q48 -36 69.5 -92.5t9.5 -122.5q-20 -111 -113.5 -187t-211.5 -76q-117 0 -184.5 76.5t-47.5 186.5q26 144 152 215q-44 59 -29 137zM393 1133q-11 -61 26.5 -102.5t104.5 -41.5q66 0 122 43
t63 101q8 62 -29.5 107.5t-101.5 45.5h-9q-64 0 -114.5 -45.5t-61.5 -107.5zM518 1485q-6 -37 14.5 -66.5t59.5 -29.5l10 2q41 4 73 31.5t38 62.5q6 37 -18.5 63.5t-65.5 26.5t-73 -26.5t-38 -63.5z" />
    <glyph glyph-name="ninesuperior" unicode="&#x2079;" horiz-adv-x="692" 
d="M260 1032l115 45q32 -94 114 -94q78 0 140 76t82 194q-66 -96 -181 -96q-109 0 -168 84.5t-34 196.5q25 113 115.5 186.5t199.5 69.5q110 -5 167.5 -78t47.5 -199q-5 -45 -13 -90t-23.5 -101.5t-35.5 -106t-51 -98t-68 -82t-88 -53.5t-110 -18q-168 4 -209 164zM733 1419
q12 63 -22.5 106.5t-94.5 45.5q-60 1 -108 -39t-62 -100q-17 -62 16 -106t91 -46q62 -1 112.5 38t67.5 101z" />
    <glyph glyph-name="zeroinferior" unicode="&#x2080;" horiz-adv-x="745" 
d="M96 100q16 91 42 162.5t68 130.5t107.5 91t149.5 32t138 -33t73.5 -89.5t22.5 -132t-15 -161.5q-12 -70 -30.5 -128.5t-48.5 -111.5t-69 -89.5t-95 -58t-124 -21.5q-84 0 -138 32.5t-73.5 88.5t-22.5 130t15 158zM217 100q-12 -82 -11.5 -146.5t33.5 -104t99 -39.5
q174 0 223 290q12 83 12.5 148.5t-32 106t-99.5 40.5q-176 0 -225 -295z" />
    <glyph glyph-name="oneinferior" unicode="&#x2081;" horiz-adv-x="423" 
d="M135 -299l111 625l-152 -72l21 117l288 143l-145 -813h-123z" />
    <glyph glyph-name="twoinferior" unicode="&#x2082;" horiz-adv-x="665" 
d="M37 -242l391 392q67 67 78 124q10 54 -23 89.5t-90 35.5q-54 0 -100.5 -36t-69.5 -97l-102 29q35 101 116.5 161t176.5 60q108 0 168.5 -67.5t42.5 -174.5q-19 -109 -125 -208l-250 -244h297l-23 -121h-499z" />
    <glyph glyph-name="threeinferior" unicode="&#x2083;" horiz-adv-x="655" 
d="M236 332l-72 65q45 58 112 89.5t140 27.5q98 -4 149 -69t33 -152l-16 -49q-35 -71 -107 -111q58 -24 83 -86t7 -129q-29 -103 -127.5 -169t-208.5 -58q-77 6 -132 52t-74 116l106 53q13 -44 47.5 -75.5t81.5 -35.5h-2q67 -5 126 33.5t71 97.5q13 57 -25.5 100.5
t-101.5 43.5h-93l19 106h92q42 0 78.5 26.5t50.5 65.5q19 50 -2 82q-7 20 -30.5 32.5t-53.5 14.5q-84 9 -151 -71z" />
    <glyph glyph-name="fourinferior" unicode="&#x2084;" horiz-adv-x="737" 
d="M541 -137l-31 -162h-121l31 162h-416l561 643h90l-94 -529h115l-21 -114h-114zM233 -23h207l54 308z" />
    <glyph glyph-name="fiveinferior" unicode="&#x2085;" horiz-adv-x="692" 
d="M27 -141l110 71q13 -58 57.5 -90.5t102.5 -32.5q82 0 137 44t66 110q11 67 -28 103t-99 36q-97 0 -240 -67l-29 47l148 424h412l-23 -115h-311q-9 -27 -72 -196q65 26 135 26q74 0 130 -28.5t83.5 -88t11.5 -141.5q-23 -124 -116.5 -198t-227.5 -74q-88 0 -154.5 45
t-92.5 125z" />
    <glyph glyph-name="sixinferior" unicode="&#x2086;" horiz-adv-x="690" 
d="M676 348l-117 -45q-32 94 -115 94q-77 0 -139 -76t-82 -194q69 96 183 96q110 0 166.5 -83t35.5 -197q-30 -114 -120 -187t-199 -69q-108 5 -166 78t-45 198q6 66 18.5 131.5t42 144.5t70 138t107.5 98t149 37q78 -5 131 -39.5t80 -124.5zM201 -39q-10 -62 22.5 -104
t93.5 -47q60 -1 108 39t62 100q14 63 -16 106.5t-90 44.5q-63 2 -115 -38t-65 -101z" />
    <glyph glyph-name="seveninferior" unicode="&#x2087;" horiz-adv-x="655" 
d="M733 506l-583 -805h-140l494 684h-357l23 121h563z" />
    <glyph glyph-name="eightinferior" unicode="&#x2088;" horiz-adv-x="700" 
d="M186 305q18 89 89 150t165 61q93 0 146 -61t39 -150q-11 -71 -84 -137q46 -37 67.5 -93t9.5 -122q-20 -111 -113.5 -186.5t-211.5 -75.5q-120 0 -186 75.5t-46 186.5q12 68 52 124t102 91q-44 59 -29 137zM184 -47q-11 -60 26.5 -101.5t104.5 -41.5q66 0 122 42.5
t63 100.5q8 62 -29.5 107.5t-101.5 45.5h-9q-64 0 -114.5 -45.5t-61.5 -107.5zM307 305q-6 -37 15.5 -66.5t58.5 -29.5l10 2q41 4 73 31.5t38 62.5q6 37 -17.5 63.5t-64.5 26.5t-74 -26.5t-39 -63.5z" />
    <glyph glyph-name="nineinferior" unicode="&#x2089;" horiz-adv-x="692" 
d="M51 -147l117 45q32 -95 113 -95q77 0 139 76.5t82 194.5q-67 -97 -180 -97q-110 0 -167 83.5t-36 197.5q25 112 116.5 186.5t200.5 69.5q108 -5 166.5 -78t46.5 -198q-5 -45 -13 -90t-23.5 -101.5t-35.5 -106t-51 -98t-68 -82t-88 -53.5t-110 -18q-166 4 -209 164z
M524 240q12 62 -21.5 104t-94.5 47q-59 1 -106.5 -38.5t-61.5 -100.5q-17 -62 14 -106t92 -46q63 -1 113.5 38.5t64.5 101.5z" />
    <glyph glyph-name="colonmonetary" unicode="&#x20a1;" horiz-adv-x="1437" 
d="M637 0l-123 -223l-88 35l117 221q-79 33 -140 88l-143 -268l-90 32l162 308q-79 100 -109 231t-4 278q32 185 145.5 344.5t279 260t347.5 116.5l121 226l90 -35l-102 -189q93 -3 172 -30l96 178l88 -33l-98 -182q117 -60 192 -170l-166 -119q-46 65 -120 111l-535 -1004
q53 -12 111 -12q117 0 226 47t196 133l122 -121q-120 -115 -268.5 -179t-310.5 -64q-95 0 -168 20zM1030 1243h-26l-502 -936q52 -58 135 -100l541 1012q-68 24 -148 24zM410 702q-32 -161 34 -303l441 824q-178 -46 -309.5 -190.5t-165.5 -330.5z" />
    <glyph glyph-name="lira" unicode="&#x20a4;" horiz-adv-x="1300" 
d="M438 815l37 213q21 119 97.5 211.5t180 140t214.5 47.5q109 0 191 -51.5t120 -150.5t14 -226h-184q17 90 -12.5 151.5t-91.5 80.5q-44 14 -93 8q-88 -5 -162.5 -63t-91.5 -148l-36 -213h313l-21 -108h-313l-22 -136h313l-19 -108h-313l-51 -279h500q33 0 43 45l20 117
h184l-18 -100q-20 -109 -81.5 -177.5t-156.5 -68.5h-893l31 184h189l51 279h-156l19 108h155l23 136h-156l21 108h155z" />
    <glyph glyph-name="uni20A6" unicode="&#x20a6;" horiz-adv-x="1550" 
d="M1274 0h-182l-220 512h-333l-90 -512h-191l90 512h-141l18 113h142l28 151h-141l20 113h142l90 522h188l226 -522h321l90 522h191l-90 -522h167l-20 -113h-168l-29 -151h168l-18 -113h-168zM586 776l-29 -151h264l-61 151h-174zM967 776l63 -151h162l29 151h-254z
M635 1063l-29 -174h105zM1079 512l64 -156l31 156h-95z" />
    <glyph glyph-name="peseta" unicode="&#x20a7;" horiz-adv-x="1525" 
d="M416 817h-164l20 113h164l17 100h-164l20 113h164l47 268h563q148 0 232 -74.5t106 -193.5h213l-20 -113h-184q-4 -61 -9 -84l-2 -16h178l-20 -113h-195q-58 -132 -171.5 -210.5t-284.5 -78.5h-371l-90 -528h-193zM1229 930l2 16q4 18 4 84h-590l-16 -100h600zM588 707
h358q158 0 234 110h-572zM1049 1233h-369l-14 -90h540q-44 90 -157 90z" />
    <glyph glyph-name="rupee" unicode="&#x20a8;" horiz-adv-x="1380" 
d="M469 528h-242l31 179h397q119 0 188.5 71.5t92.5 179.5h-633l21 113h620q-6 74 -52 118t-134 44h-406l29 178h1147l-21 -113h-442q83 -92 80 -227h323l-20 -113h-315q-14 -79 -48 -149t-87.5 -129.5t-132.5 -98t-175 -46.5l285 -535h-232z" />
    <glyph glyph-name="uni20A9" unicode="&#x20a9;" horiz-adv-x="2011" 
d="M498 561h-277l19 113h239l-33 205h-170l19 112h131l-66 420h205l60 -420h413l107 230h145l25 -230h414l210 420h205l-219 -420h135l-18 -112h-172l-107 -205h242l-18 -113h-279l-289 -561h-166l-61 561h-180l-256 -561h-166zM1327 879l23 -205h221l102 205h-346zM641 879
l29 -205h223l94 205h-346zM1362 561l27 -254l129 254h-156zM688 561l35 -254l119 254h-154zM1155 879l-94 -205h119l-23 205h-2z" />
    <glyph glyph-name="afii57636" unicode="&#x20aa;" horiz-adv-x="1538" 
d="M1151 680l-59 -342h-183l60 342q18 103 -38 171.5t-169 68.5h-219l-162 -920h-184l194 1102h404q192 0 290.5 -121t65.5 -301zM578 422l61 342h182l-61 -342q-19 -102 37.5 -171t169.5 -69h219l166 920h184l-195 -1102h-403q-192 0 -292.5 121t-67.5 301z" />
    <glyph glyph-name="Euro" unicode="&#x20ac;" horiz-adv-x="1603" 
d="M1194 748h-956l20 114h209q96 235 301 386t449 151q286 0 469 -225l-150 -130q-146 173 -352 173q-167 0 -306 -99t-216 -256h552zM215 623h956l-20 -113h-551q21 -152 127.5 -249t269.5 -97q211 0 416 174l107 -131q-265 -225 -553 -225q-242 0 -392.5 147.5
t-168.5 380.5h-211z" />
    <glyph glyph-name="uni2113" unicode="&#x2113;" horiz-adv-x="804" 
d="M483 182h195l-31 -182h-219q-285 0 -225 326l139 776q13 72 36.5 127.5t62 101.5t99.5 71t140 25q74 0 124.5 -25.5t72.5 -69.5t28.5 -103t-8.5 -127l-72 -389q-22 -122 -67.5 -191t-132 -103t-230.5 -34l-10 -59q-18 -102 21 -125q28 -19 77 -19zM430 569h98
q47 0 76 43.5t41 110.5l66 367q26 155 -62 155q-100 0 -127 -155z" />
    <glyph glyph-name="afii61352" unicode="&#x2116;" horiz-adv-x="1984" 
d="M1542 1143q20 111 113 189.5t205 78.5q110 0 175.5 -79t45.5 -189t-113 -189.5t-203 -79.5q-112 0 -177.5 79.5t-45.5 189.5zM1681 1143q-10 -54 22.5 -92.5t86.5 -38.5t98.5 38.5t55.5 92.5q10 54 -21.5 92.5t-85.5 38.5t-99.5 -38.5t-56.5 -92.5zM1473 692l16 96h518
l-16 -96h-518zM1212 0h-182l-457 1063l-186 -1063h-190l247 1411h189l448 -1055l189 1055h190z" />
    <glyph glyph-name="trademark" unicode="&#x2122;" horiz-adv-x="1728" 
d="M381 1395h731l154 -553l350 553h119l-45 -785h-134l33 549l-291 -465h-112l-131 465l-162 -549h-135l196 664h-217l-119 -664h-139l119 664h-238z" />
    <glyph glyph-name="estimated" unicode="&#x212e;" horiz-adv-x="1349" 
d="M1352 571h-879l-70 -395q113 -129 287 -129q82 0 153 20t129 58.5t102.5 80.5t92.5 101l56 -39q-56 -68 -108 -116t-118 -89.5t-145.5 -62t-173.5 -20.5q-163 0 -276.5 81t-158 216t-14.5 296q21 122 80 230.5t145.5 189t202 127.5t242.5 47q86 0 159.5 -21.5t126.5 -61
t93 -94t59.5 -121t24.5 -142t-10 -156.5zM1118 639l58 334q-51 55 -127 91t-162 36q-199 0 -344 -127l-58 -334h633z" />
    <glyph glyph-name="minus" unicode="&#x2212;" horiz-adv-x="1179" 
d="M260 625h877l-29 -168h-877z" />
    <glyph glyph-name="notequal" unicode="&#x2260;" horiz-adv-x="1216" 
d="M705 403h442l-29 -178h-530l-150 -225h-143l149 225h-268l29 178h354l148 218h-461l30 178h547l152 225h145l-151 -225h250l-31 -178h-338z" />
    <glyph glyph-name="lessequal" unicode="&#x2264;" horiz-adv-x="1339" 
d="M1221 289l-965 397l31 178l1106 398l-35 -199l-830 -287l727 -291zM182 164h1018l-29 -164h-1017z" />
    <glyph glyph-name="greaterequal" unicode="&#x2265;" horiz-adv-x="1339" 
d="M1325 686l-1108 -397l35 196l829 291l-727 287l35 199l967 -398zM197 164h1017l-28 -164h-1018z" />
    <glyph glyph-name="commaaccent" unicode="&#xf6c3;" horiz-adv-x="567" 
d="M168 -512l-111 39q77 82 113 158.5t43 197.5h184q-23 -143 -86 -242t-143 -153z" />
    <glyph glyph-name="rupiah" unicode="&#xf6dd;" horiz-adv-x="2408" 
d="M836 535l284 -535h-231l-275 528h-180l-90 -528h-192l247 1411h543q86 0 153 -25t106 -67t63.5 -99t25.5 -120.5t-8 -130.5q-15 -81 -49 -152.5t-87.5 -133t-133 -101t-176.5 -47.5zM903 1233h-344l-92 -526h336q61 0 112 22t84.5 60t55 83.5t30.5 96.5q19 108 -24.5 186
t-157.5 78zM1692 956l-27 -149q61 80 161.5 125t203.5 45q201 0 315 -140t74 -362q-39 -221 -202.5 -358t-365.5 -137q-106 0 -188.5 41t-116.5 122l-108 -608h-187l254 1421h187zM1608 473q-26 -145 53.5 -228t204.5 -83q131 0 235.5 86t128.5 225q24 141 -48.5 231.5
t-203.5 90.5q-132 0 -237 -87t-133 -235z" />
    <glyph glyph-name="apple" unicode="&#xf8ff;" horiz-adv-x="1734" 
d="M1546 1407l25 -1407h-1407l-25 1407h1407zM315 1219l13 -773h166l-154 154l-6 365l530 -519l516 519l6 -365l-149 -154h172l-12 773l-537 -539zM362 270h-30l2 -108h18l-2 76l29 -76h20l21 76l2 -76h18l-2 108h-28l-19 -73zM504 270q-25 0 -38 -15.5t-13 -37.5
q0 -24 14 -39.5t39 -15.5q22 0 33.5 15.5t11.5 37.5q0 24 -12.5 39.5t-34.5 15.5zM504 182q-16 0 -25.5 10.5t-9.5 22.5t9.5 23.5t25.5 11.5q12 0 18 -11t6 -24q0 -33 -24 -33zM578 203h-27q0 -19 13.5 -30t33.5 -11q24 0 33.5 8.5t9.5 26.5q0 22 -31 28l-10 2l-7.5 1.5
t-5.5 1.5l-4.5 1.5t-2.5 1.5t-1.5 2t-0.5 3q0 12 18 12q20 0 20 -12h19q0 32 -39 32q-15 0 -27 -8t-12 -24q0 -11 8 -17t25 -14q26 0 26 -10t-4 -12.5t-16 -2.5q-18 0 -18 21zM641 250h35l2 -88h16l-2 88h31v20h-82v-20zM768 270h-18l-43 -108h24l6 26h45l9 -26h22zM762 244
l14 -37h-33l13 37h6zM868 270h-57l2 -108h18l-2 45h27q18 0 18 -19q0 -8 1.5 -16t1.5 -10h26q-8 8 -8 26q0 19 -14 27q14 6 14 18q0 37 -27 37zM856 221h-27v29h27q18 0 18 -12q0 -17 -18 -17zM950 270h-41l2 -108h41q23 0 36 16.5t13 40.5q0 51 -51 51zM950 182h-16v68h8
q22 0 28.5 -8t6.5 -27q0 -13 -8 -23t-19 -10zM1083 270h-75l2 -108h82l-2 20h-58v25h51v18h-51v25h51v20zM1108 203h-18q0 -20 13 -30.5t34 -10.5q43 0 43 35q0 22 -31 28q-5 1 -10.5 2t-8.5 1.5t-6 1.5l-4.5 1.5t-3 1.5t-2 2t-0.5 3q0 6 2 9t4 3h6h2q21 0 24 -5q1 -3 1 -7
h21q0 32 -39 32q-45 0 -45 -32q0 -18 38 -31q25 0 25 -10q0 -15 -18 -15q-27 0 -27 21zM1202 270h-14l2 -108h14zM1292 176l11 -14h12l-2 59h-45v-18h24q-9 -21 -24 -21q-16 0 -24.5 10.5t-8.5 22.5t8.5 23.5t24.5 11.5q6 0 12 -6t6 -15h27q-8 41 -45 41q-24 0 -37.5 -15.5
t-13.5 -39.5q0 -22 14 -37.5t39 -15.5q16 0 22 14zM1341 270h-16l2 -108h16l-2 67l48 -67h26l-2 108h-27v-67z" />
    <glyph glyph-name="CR" horiz-adv-x="532" 
 />
    <glyph glyph-name="published" horiz-adv-x="1656" 
d="M993 573h-137l-45 -249h-141l129 723h278q77 0 125 -35.5t62.5 -87.5t3.5 -115q-14 -89 -88.5 -162.5t-186.5 -73.5zM1053 907h-138l-36 -194h133q45 0 74.5 28t35.5 68q8 41 -9.5 69.5t-59.5 28.5zM236 702q36 197 159.5 363.5t304.5 264t377 97.5t344.5 -97.5
t214.5 -264.5t31 -363q-27 -148 -107 -281.5t-193 -230t-256 -153.5t-290 -57q-148 0 -270.5 57t-200 153.5t-109.5 230t-5 281.5zM360 702q-22 -121 5 -231t91.5 -190t166.5 -127.5t223 -47.5q162 0 311.5 80t251.5 217t131 299q30 162 -25 300t-178 218t-284 80
q-162 0 -311 -80.5t-250.5 -217.5t-131.5 -300z" />
    <glyph glyph-name="frenchfranc" horiz-adv-x="1486" 
d="M1018 238l-39 -238h-186l118 676h-409l-119 -676h-184l243 1384h803l-33 -184h-618l-59 -340h595l-40 -229q58 124 134 179.5t173 55.5q48 0 93.5 -11.5t65.5 -25.5l-59 -174q-62 33 -135 33q-132 0 -218.5 -123t-125.5 -327z" />
    <glyph glyph-name="parenleft.case" horiz-adv-x="743" 
d="M223 713q77 439 276.5 695.5t454.5 256.5l-32 -182q-177 0 -318 -207.5t-207 -562.5q-39 -239 -23.5 -410t87.5 -265.5t190 -94.5l-33 -183q-255 0 -363.5 257t-31.5 696z" />
    <glyph glyph-name="parenright.case" horiz-adv-x="743" 
d="M766 713q-78 -440 -275 -696.5t-452 -256.5l31 183q176 0 318.5 208.5t203.5 561.5q39 239 24 410t-86 265.5t-188 94.5l33 182q169 0 275.5 -115.5t136 -327.5t-20.5 -509z" />
    <glyph glyph-name="hyphen.case" horiz-adv-x="995" 
d="M283 807h712l-30 -178h-713z" />
    <glyph glyph-name="at.case" horiz-adv-x="1988" 
d="M1311 461l47 264q17 112 -46 188t-173 76q-109 0 -201 -76.5t-109 -187.5q-20 -108 46 -185t174 -77q104 0 219 98l-31 -174q-113 -70 -217 -70q-169 0 -270 120.5t-68 287.5q29 170 171.5 290t311.5 120q166 0 265 -113q98 -112 77 -279l-53 -297q-9 -34 -3 -58
t15.5 -39t29.5 -23.5t38.5 -11.5t42.5 -3q56 0 105 30t82.5 76t61 107t43 116t25.5 110q29 153 -10 288t-129 228.5t-222.5 147.5t-287.5 54q-205 0 -393.5 -101t-315.5 -274t-163 -378q-28 -154 4 -292.5t112.5 -238.5t207.5 -158.5t282 -58.5h47l-27 -145h-47
q-184 0 -336 70t-248 189.5t-135 284.5t-6 349q32 184 130.5 350t237.5 286.5t316.5 191.5t360.5 71q185 0 342 -65.5t262 -179t150.5 -275t13.5 -344.5q-14 -76 -39.5 -153t-68.5 -155.5t-96.5 -138t-128 -97.5t-157.5 -38q-46 0 -85 9t-74.5 30t-56 54.5t-29 83t5.5 116.5
z" />
    <glyph glyph-name="bracketleft.case" horiz-adv-x="669" 
d="M131 -219l332 1876h411l-28 -170h-228l-272 -1536h227l-30 -170h-412z" />
    <glyph glyph-name="bracketright.case" horiz-adv-x="669" 
d="M788 1653l-333 -1876h-412l33 170h227l270 1536h-227l31 170h411z" />
    <glyph glyph-name="braceleft.case" horiz-adv-x="819" 
d="M473 522l-63 -356q-21 -98 33 -169t145 -71h137l-29 -162h-131q-171 0 -268 110.5t-64 291.5l64 356q8 42 -24 73.5t-83 31.5l31 166q50 0 91.5 31t49.5 73l66 360q32 180 165.5 290t305.5 110h131l-24 -162h-138q-91 0 -169 -69.5t-95 -168.5l-65 -360
q-11 -58 -47 -110.5t-89 -77.5q41 -24 59.5 -77t10.5 -110z" />
    <glyph glyph-name="braceright.case" horiz-adv-x="819" 
d="M465 166l65 356q8 53 46.5 107.5t85.5 79.5q-42 26 -59.5 79t-6.5 109l63 360q17 99 -35 168.5t-143 69.5h-137l27 162h131q82 0 151.5 -28.5t116.5 -79t65.5 -126.5t0.5 -166l-64 -360q-8 -41 24 -72.5t83 -31.5l-29 -166q-50 0 -92.5 -31.5t-50.5 -73.5l-64 -356
q-21 -121 -92.5 -213.5t-171.5 -140.5t-211 -48h-131l29 162h137q91 0 165.5 69.5t96.5 170.5z" />
    <glyph glyph-name="exclamdown.case" horiz-adv-x="538" 
d="M524 1028l-164 -1030h-184l203 1030h145zM362 1300q10 55 56.5 91t101.5 36q56 0 88.5 -36t22.5 -91t-55 -92t-101 -37q-55 0 -89 37.5t-24 91.5z" />
    <glyph glyph-name="guillemotleft.case" horiz-adv-x="1054" 
d="M242 717l358 424h162l-359 -424l209 -424h-161zM602 717l359 424h161l-358 -424l209 -424h-162z" />
    <glyph glyph-name="periodcentered.case" horiz-adv-x="548" 
d="M266 723q10 55 55.5 92t100.5 37q56 0 89.5 -37t23.5 -92t-57 -91t-103 -36q-55 0 -87 36t-22 91z" />
    <glyph glyph-name="guillemotright.case" horiz-adv-x="1054" 
d="M1063 717l-356 -424h-162l356 424l-205 424h162zM702 717l-356 -424h-162l357 424l-205 424h162z" />
    <glyph glyph-name="questiondown.case" horiz-adv-x="987" 
d="M788 408h185q-36 -192 -173.5 -310t-307.5 -118q-174 0 -277 110t-72 289q28 143 129.5 245.5t235.5 141.5q79 22 120 52.5t52 96.5l25 121h182l-23 -121q-27 -138 -110.5 -211t-223.5 -114q-62 -16 -108 -62q-75 -56 -96 -149q-21 -95 41 -156t157 -61q93 0 167 66.5
t97 179.5zM973 1300q-10 -55 -55 -92t-101 -37t-89 37t-23 92t55.5 91t101.5 36t88.5 -36t22.5 -91z" />
    <glyph glyph-name="endash.case" horiz-adv-x="1222" 
d="M289 797h928l-29 -160h-928z" />
    <glyph glyph-name="emdash.case" horiz-adv-x="1644" 
d="M289 797h1349l-28 -160h-1350z" />
    <glyph glyph-name="bullet.case" horiz-adv-x="948" 
d="M293 717q20 125 125 208t233 83q127 0 200.5 -82.5t53.5 -208.5q-24 -127 -128 -210t-230 -83q-127 0 -202.5 83.5t-51.5 209.5z" />
    <glyph glyph-name="guilsinglleft.case" horiz-adv-x="694" 
d="M242 717l358 424h162l-359 -424l209 -424h-161z" />
    <glyph glyph-name="guilsinglright.case" horiz-adv-x="694" 
d="M702 717l-356 -424h-162l357 424l-205 424h162z" />
    <glyph glyph-name="cent.case" horiz-adv-x="1091" 
d="M516 0l37 219q-173 30 -267.5 164.5t-58.5 329.5q36 194 175.5 325.5t324.5 161.5l37 211h127l-35 -205q195 -9 309 -151l-161 -119q-77 90 -213 90q-133 0 -244 -86.5t-135 -226.5t54 -231t210 -91q138 0 246 94l122 -118q-160 -142 -364 -154l-37 -213h-127z" />
    <glyph glyph-name="zero.tnum" 
d="M227 666q21 120 51.5 218.5t80.5 187.5t115 150t156.5 96.5t203.5 35.5q113 0 192 -35.5t122 -96t60.5 -150.5t13 -187.5t-25.5 -218.5q-21 -119 -51.5 -216.5t-79.5 -186.5t-113.5 -149.5t-156 -96t-203.5 -35.5q-113 0 -192.5 35.5t-122.5 96t-61 149.5t-14 186t25 217
zM410 666q-20 -111 -21.5 -196t18 -157t74 -110.5t142.5 -38.5t155.5 38.5t112 110.5t73 157t48.5 196q16 89 20.5 160t-4.5 137t-34.5 110t-74 70t-118.5 26q-87 0 -154.5 -38t-113 -110t-74.5 -157.5t-49 -197.5z" />
    <glyph glyph-name="one.tnum" 
d="M555 0l193 1104l-230 -76l29 176l430 146l-238 -1350h-184z" />
    <glyph glyph-name="two.tnum" 
d="M188 82l660 657q118 118 137 219q17 96 -40.5 153.5t-158.5 57.5q-94 0 -171 -56.5t-109 -154.5l-172 43q56 161 190 257t293 96q177 0 278 -110.5t72 -285.5q-32 -182 -206 -346l-439 -428h510l-31 -184h-825z" />
    <glyph glyph-name="three.tnum" 
d="M535 1051l-119 108q72 97 186 150.5t236 46.5q106 -5 183 -58.5t108 -136.5t12 -176q-10 -44 -27 -82q-57 -120 -180 -182q94 -36 135.5 -144t11.5 -217q-44 -170 -207 -279t-348 -97q-130 10 -223 85t-125 193l178 88q18 -71 79 -124.5t138 -59.5h-2q109 -8 208.5 57.5
t119.5 161.5q20 97 -44.5 168.5t-170.5 71.5h-152l33 178h152q71 0 129 43t82 110q30 89 2 138q-36 67 -142 77q-138 11 -253 -120z" />
    <glyph glyph-name="four.tnum" 
d="M967 274l-47 -274h-183l47 274h-696l930 1063h137l-156 -888h193l-33 -175h-192zM434 449h383l98 557z" />
    <glyph glyph-name="five.tnum" 
d="M164 285l172 86q20 -99 87 -156t163 -57q159 0 253 76t117 196q24 121 -44.5 188.5t-184.5 67.5q-86 0 -159.5 -24t-192.5 -87l-99 95l234 665h713l-29 -176h-561l-144 -379q48 33 127 55.5t140 22.5q195 0 305.5 -113.5t75.5 -314.5q-37 -205 -195.5 -327.5
t-386.5 -122.5q-141 0 -247 82t-144 223z" />
    <glyph glyph-name="six.tnum" 
d="M1225 1096l-174 -70q-25 77 -80 115.5t-123 38.5q-140 0 -245.5 -132t-125.5 -335q91 151 303 151q119 0 205 -65t119.5 -170t9.5 -223q-42 -182 -193 -306.5t-329 -117.5q-179 8 -272.5 129.5t-73.5 328.5q23 242 110 506q64 186 209 299t324 109q59 -2 107 -14.5
t94 -40t80.5 -79t54.5 -124.5zM430 434q-20 -111 38 -186t163 -80q104 -4 190 67t111 179q25 110 -29.5 185.5t-159.5 80.5q-108 5 -198 -65.5t-115 -180.5z" />
    <glyph glyph-name="seven.tnum" 
d="M1337 1337l-968 -1337h-215l839 1155h-612l33 182h923z" />
    <glyph glyph-name="eight.tnum" 
d="M418 1012q25 143 144 242.5t272 99.5q151 0 238.5 -100t62.5 -242q-23 -137 -148 -236q87 -60 124 -153t17 -205q-21 -120 -99 -220t-193.5 -158t-243.5 -58q-196 0 -306.5 126t-78.5 310q20 111 91 205.5t175 152.5q-80 89 -55 236zM391 418q-20 -106 47.5 -180
t184.5 -74q118 0 209 73.5t112 180.5q18 106 -47 182t-182 76l-15 -2q-112 -8 -203 -82t-106 -174zM600 1012q-12 -67 25.5 -115.5t105.5 -48.5l17 2q76 6 133 51.5t69 110.5q12 66 -30 111.5t-117 45.5q-73 0 -132 -45.5t-71 -111.5z" />
    <glyph glyph-name="nine.tnum" 
d="M193 238l176 69q25 -78 78.5 -115.5t121.5 -37.5q140 0 245.5 132t125.5 335q-88 -152 -301 -152q-119 0 -205 65t-118.5 170t-8.5 224q42 182 194.5 306.5t329.5 117.5q178 -8 270.5 -129.5t72.5 -329.5q-25 -257 -113 -508l2 2q-63 -186 -208.5 -300t-324.5 -107
q-59 2 -107 14.5t-94.5 40t-81 79t-54.5 124.5zM991 899q20 111 -39.5 186t-163.5 80q-106 4 -191 -66t-110 -179q-23 -110 31 -186t158 -81q107 -5 198.5 66t116.5 180z" />
    <glyph glyph-name="zero.taboldstyle" 
d="M586 -20q-98 0 -182 38t-140.5 105.5t-80 168t-1.5 216.5q27 156 119 278t216.5 185t256.5 63q101 0 184.5 -37.5t139.5 -104.5t78 -166.5t2 -217.5q-29 -155 -119 -277t-214 -186.5t-259 -64.5zM616 162q131 0 239.5 96.5t137.5 249.5q28 151 -47 246.5t-207 95.5
q-131 0 -238 -94.5t-136 -247.5q-28 -153 46.5 -249.5t204.5 -96.5z" />
    <glyph glyph-name="one.taboldstyle" 
d="M977 1057l-184 -1057h-185l133 758l-331 -158l34 195z" />
    <glyph glyph-name="two.taboldstyle" 
d="M217 84l574 520q88 74 98 135q11 54 -31 90.5t-117 36.5q-69 0 -123.5 -40.5t-72.5 -110.5l-174 30q36 137 155.5 221.5t257.5 84.5q153 0 236.5 -88t58.5 -224q-10 -49 -28.5 -89.5t-56 -83t-62 -65.5t-84.5 -77l-273 -240h408l-31 -184h-747z" />
    <glyph glyph-name="six.taboldstyle" 
d="M1225 1096l-174 -70q-25 77 -80 115.5t-123 38.5q-140 0 -245.5 -132t-125.5 -335q91 151 303 151q119 0 205 -65t119.5 -170t9.5 -223q-42 -182 -193 -306.5t-329 -117.5q-179 8 -272.5 129.5t-73.5 328.5q23 242 110 506q64 186 209 299t324 109q59 -2 107 -14.5
t94 -40t80.5 -79t54.5 -124.5zM430 434q-20 -111 38 -186t163 -80q104 -4 190 67t111 179q25 110 -29.5 185.5t-159.5 80.5q-108 5 -198 -65.5t-115 -180.5z" />
    <glyph glyph-name="eight.taboldstyle" 
d="M418 1012q25 143 144 242.5t272 99.5q151 0 238.5 -100t62.5 -242q-23 -137 -148 -236q87 -60 124 -153t17 -205q-21 -120 -99 -220t-193.5 -158t-243.5 -58q-196 0 -306.5 126t-78.5 310q20 111 91 205.5t175 152.5q-80 89 -55 236zM391 418q-20 -106 47.5 -180
t184.5 -74q118 0 209 73.5t112 180.5q18 106 -47 182t-182 76l-15 -2q-112 -8 -203 -82t-106 -174zM600 1012q-12 -67 25.5 -115.5t105.5 -48.5l17 2q76 6 133 51.5t69 110.5q12 66 -30 111.5t-117 45.5q-73 0 -132 -45.5t-71 -111.5z" />
    <glyph glyph-name="three.taboldstyle" 
d="M471 666l-119 108q72 97 186 150.5t236 46.5q106 -5 183 -58.5t108 -136.5t12 -176q-11 -48 -26 -82q-56 -119 -179 -182q93 -36 135.5 -144.5t12.5 -216.5q-44 -170 -207.5 -279t-349.5 -97q-130 10 -222.5 85t-123.5 193l176 88q19 -72 79.5 -125t137.5 -59h-2
q110 -8 210 57.5t120 161.5t-45.5 168t-171.5 72h-152l33 178h151q71 -1 130 42.5t83 110.5q28 81 0 138q-17 31 -54.5 52t-86.5 25q-139 11 -254 -120z" />
    <glyph glyph-name="four.taboldstyle" 
d="M897 -109l-47 -274h-182l47 274h-697l932 1063h137l-157 -888h192l-32 -175h-193zM365 66h383l98 557z" />
    <glyph glyph-name="five.taboldstyle" 
d="M96 -98l174 86q24 -100 88.5 -156.5t159.5 -56.5q159 0 253.5 76t117.5 196q24 121 -45 188.5t-185 67.5q-86 0 -160 -23.5t-192 -86.5l-98 94l233 665h713l-29 -176h-561l-141 -379q50 33 127 55.5t137 22.5q195 0 305.5 -113.5t75.5 -314.5q-37 -205 -196 -327.5
t-384 -122.5q-142 0 -248.5 82.5t-144.5 222.5z" />
    <glyph glyph-name="seven.taboldstyle" 
d="M1270 952l-969 -1337h-215l840 1155h-613l33 182h924z" />
    <glyph glyph-name="nine.taboldstyle" 
d="M135 -150l174 70q25 -78 79 -115.5t122 -37.5q139 0 246 132t127 334q-91 -151 -303 -151q-119 0 -205 65t-118.5 170t-8.5 224q42 182 194.5 306.5t329.5 117.5q179 -8 271.5 -129t72.5 -330q-23 -237 -112 -508l2 2q-62 -184 -210.5 -299.5t-324.5 -108.5
q-59 2 -107 14.5t-94 40t-80.5 79t-54.5 124.5zM932 512q20 111 -39.5 186t-163.5 80q-104 4 -190 -67t-111 -179q-25 -110 29 -185.5t159 -80.5q107 -5 199.5 66t116.5 180z" />
    <glyph glyph-name="zero.oldstyle" horiz-adv-x="1212" 
d="M598 -20q-98 0 -181.5 38t-140.5 105.5t-80 168t-1 216.5q20 117 78.5 217.5t139.5 167t178 104t195 37.5q101 0 184.5 -37.5t139.5 -104.5t78 -166.5t2 -217.5q-29 -155 -119 -277t-214 -186.5t-259 -64.5zM629 162q131 0 239.5 96.5t137.5 249.5q28 151 -47 246.5
t-207 95.5q-131 0 -238.5 -94.5t-136.5 -247.5q-28 -152 47 -249t205 -97z" />
    <glyph glyph-name="one.oldstyle" horiz-adv-x="747" 
d="M758 1057l-185 -1057h-184l133 758l-332 -158l35 195z" />
    <glyph glyph-name="two.oldstyle" horiz-adv-x="972" 
d="M111 84l573 520q88 74 98 135q11 54 -30.5 90.5t-116.5 36.5q-69 0 -124 -40.5t-73 -110.5l-174 30q36 137 156 221.5t258 84.5q153 0 236.5 -88t58.5 -224q-7 -33 -17 -62t-30.5 -59t-33 -47.5t-47 -50.5t-47 -44.5t-57.5 -51.5l-272 -240h408l-31 -184h-748z" />
    <glyph glyph-name="three.oldstyle" horiz-adv-x="1054" 
d="M403 666l-118 108q72 97 186 150.5t236 46.5q106 -5 183 -58.5t108 -136.5t12 -176q-10 -44 -27 -82q-57 -120 -178 -182q93 -36 135 -144.5t12 -216.5q-44 -170 -207.5 -279t-349.5 -97q-130 10 -222.5 85t-123.5 193l176 88q19 -72 79.5 -125t137.5 -59h-2
q110 -8 210 57.5t120 161.5t-45.5 168t-171.5 72h-152l33 178h152q71 -1 130 42.5t83 110.5q28 81 0 138q-17 31 -55 52t-87 25q-139 11 -254 -120z" />
    <glyph glyph-name="four.oldstyle" 
d="M897 -109l-47 -274h-182l47 274h-697l932 1063h137l-157 -888h192l-32 -175h-193zM365 66h383l98 557z" />
    <glyph glyph-name="five.oldstyle" horiz-adv-x="1122" 
d="M63 -98l175 86q24 -100 88 -156.5t159 -56.5q159 0 253.5 76t117.5 196q24 121 -44.5 188.5t-184.5 67.5q-86 0 -160.5 -23.5t-192.5 -86.5l-98 94l234 665h712l-28 -176h-562l-141 -379q50 33 127 55.5t137 22.5q195 0 305.5 -113.5t75.5 -314.5q-37 -205 -195.5 -327.5
t-383.5 -122.5q-142 0 -249 82.5t-145 222.5z" />
    <glyph glyph-name="six.oldstyle" horiz-adv-x="1138" 
d="M1200 1096l-174 -70q-25 77 -80 115.5t-123 38.5q-140 0 -245 -132t-125 -335q91 151 303 151q119 0 205 -65t119.5 -170t9.5 -223q-42 -182 -193.5 -306.5t-329.5 -117.5q-179 8 -272.5 129.5t-73.5 328.5q22 238 111 506q64 186 208.5 299t323.5 109q59 -2 107 -14.5
t94 -40t80.5 -79t54.5 -124.5zM406 434q-20 -112 37.5 -186.5t162.5 -79.5q104 -4 190 67t111 179q25 110 -29 185.5t-159 80.5q-108 5 -198 -65.5t-115 -180.5z" />
    <glyph glyph-name="seven.oldstyle" horiz-adv-x="1036" 
d="M1194 952l-969 -1337h-213l838 1155h-612l32 182h924z" />
    <glyph glyph-name="eight.oldstyle" horiz-adv-x="1150" 
d="M399 1012q25 143 144 242.5t272 99.5q151 0 238.5 -100t62.5 -242q-23 -138 -147 -236q87 -60 124 -153t17 -205q-32 -183 -187 -309.5t-350 -126.5q-196 0 -306.5 126t-78.5 310q20 111 91.5 205.5t175.5 152.5q-80 90 -56 236zM373 418q-20 -106 47 -180t184 -74
q119 0 210 73.5t112 180.5q18 106 -47.5 182t-182.5 76l-14 -2q-112 -8 -203 -82t-106 -174zM582 1012q-12 -67 25.5 -115.5t105.5 -48.5l16 2q76 6 133.5 51.5t69.5 110.5q12 66 -30.5 111.5t-117.5 45.5q-73 0 -131.5 -45.5t-70.5 -111.5z" />
    <glyph glyph-name="nine.oldstyle" horiz-adv-x="1093" 
d="M88 -150l174 70q25 -78 79 -115.5t122 -37.5q139 0 246 132t127 334q-91 -151 -304 -151q-119 0 -204.5 65t-118 170t-8.5 224q42 182 194.5 306.5t329.5 117.5q179 -8 271.5 -129t72.5 -330q-23 -232 -113 -508l2 2q-63 -185 -210.5 -300t-323.5 -108q-59 2 -107 14.5
t-94 40t-80.5 79t-54.5 124.5zM885 512q20 111 -39.5 186t-163.5 80q-104 4 -190 -67t-111 -179q-25 -110 29 -185.5t159 -80.5q107 -5 199.5 66t116.5 180z" />
    <glyph glyph-name="Lslash.sc" horiz-adv-x="888" 
d="M502 795l196 110l-20 -129l-201 -112l-86 -494h481l-28 -170h-654l97 557l-123 -72l22 131l125 72l90 508h172z" />
    <glyph glyph-name="Zcaron.sc" horiz-adv-x="1038" 
d="M117 147l776 887h-594l29 162h817l-27 -147l-780 -885h625l-29 -164h-842zM768 1464l156 146h153l-248 -275h-163l-152 275h156z" />
    <glyph glyph-name="exclam.sc" horiz-adv-x="536" 
d="M563 1196l-172 -879h-133l139 879h166zM176 94q7 44 44.5 74.5t80.5 30.5q44 0 69 -30.5t17 -74.5q-6 -41 -42.5 -70.5t-80.5 -29.5q-43 0 -68.5 29.5t-19.5 70.5z" />
    <glyph glyph-name="ampersand.sc" horiz-adv-x="1181" 
d="M645 737h225l29 152h160l-29 -154h150l-25 -137h-149l-41 -229q-9 -52 -8.5 -88.5t12 -70.5t45.5 -51.5t90 -17.5l-27 -157q-94 0 -161.5 33t-98.5 87q-60 -57 -141.5 -88.5t-167.5 -31.5q-175 0 -266.5 110.5t-61.5 274.5q17 97 76.5 178.5t151.5 136.5q-62 77 -39 209
q20 127 126 215t240 88q90 0 160.5 -48t103.5 -128l-155 -88q-19 48 -55 76t-82 28q-66 0 -117.5 -41t-61.5 -102q-11 -63 21 -109.5t96 -46.5zM846 598h-228q-98 0 -179.5 -69t-96.5 -160q-17 -95 37.5 -159.5t157.5 -64.5q97 0 171 60.5t95 152.5z" />
    <glyph glyph-name="question.sc" horiz-adv-x="872" 
d="M395 840h-159q27 165 146 266.5t265 101.5q147 0 237 -94t62 -244q-24 -123 -110.5 -212t-200.5 -119q-64 -21 -96.5 -45t-42.5 -76l-21 -101h-164l19 101q19 119 91.5 183t190.5 97q60 18 109 65.5t61 106.5q12 77 -37.5 125.5t-126.5 48.5q-75 0 -140.5 -57t-82.5 -147
zM236 96q10 50 50.5 83.5t88.5 33.5q52 0 80 -33t18 -84q-11 -50 -49.5 -81t-89.5 -31q-49 0 -78.5 32t-19.5 80z" />
    <glyph glyph-name="A.sc" horiz-adv-x="1167" 
d="M475 457h377q-16 86 -49.5 249.5t-50.5 249.5zM883 301h-494q-84 -146 -166 -301h-184l666 1196h180l243 -1196h-182z" />
    <glyph glyph-name="B.sc" horiz-adv-x="1132" 
d="M1116 883q-13 -78 -57 -143.5t-119 -100.5q56 -19 94 -66.5t51.5 -106.5t1.5 -118q-26 -146 -140 -247t-273 -101h-492l211 1196h453q153 0 224 -83t46 -230zM479 707h279q72 0 120.5 49.5t61.5 122.5q13 74 -24.5 115.5t-116.5 41.5h-260zM758 553h-305l-70 -391h309
q82 0 144 56.5t75 131.5t-29.5 139t-123.5 64z" />
    <glyph glyph-name="C.sc" horiz-adv-x="1228" 
d="M1094 303l110 -108q-102 -100 -230 -156.5t-265 -56.5q-125 0 -230 48.5t-172 130.5t-94.5 196t-5.5 239q29 166 135.5 307t262 223t321.5 82q135 0 242.5 -53t174.5 -151l-147 -109q-111 147 -299 147q-184 0 -334 -129.5t-184 -316.5q-34 -186 70 -316t288 -130
q96 0 188.5 41t168.5 112z" />
    <glyph glyph-name="D.sc" horiz-adv-x="1296" 
d="M647 0h-465l211 1196h465q166 0 275 -80t147 -214.5t8 -305.5q-23 -128 -78.5 -236.5t-136.5 -188.5t-190.5 -125.5t-235.5 -45.5zM381 162h293q176 0 292.5 120.5t149.5 313.5q22 125 -1 223t-96.5 157.5t-189.5 59.5h-292z" />
    <glyph glyph-name="E.sc" horiz-adv-x="1021" 
d="M393 1196h713l-29 -160h-540l-66 -366h473l-29 -162h-473l-61 -346h557l-27 -162h-729z" />
    <glyph glyph-name="F.sc" horiz-adv-x="950" 
d="M393 1196h703l-29 -160h-530l-66 -366h420l-29 -162h-420l-88 -508h-172z" />
    <glyph glyph-name="G.sc" horiz-adv-x="1349" 
d="M1300 1047l-143 -115q-98 112 -264 112q-183 0 -332.5 -131t-181.5 -317q-32 -187 70 -318t284 -131q156 0 275 84.5t151 223.5h-336l25 151h530q-56 -311 -232 -467.5t-441 -156.5q-169 0 -294 82t-179.5 223t-24.5 309q29 167 133.5 307.5t259 222.5t322.5 82
q242 0 378 -161z" />
    <glyph glyph-name="H.sc" horiz-adv-x="1269" 
d="M1298 1196l-211 -1196h-174l91 516h-560l-90 -516h-172l211 1196h172l-94 -522h559l94 522h174z" />
    <glyph glyph-name="I.sc" horiz-adv-x="536" 
d="M393 1196h172l-211 -1196h-172z" />
    <glyph glyph-name="J.sc" horiz-adv-x="536" 
d="M-221 -412l47 166q18 -7 59.5 -11.5t57.5 -4.5q99 0 155.5 61t75.5 160l219 1237h172l-219 -1237q-15 -83 -47.5 -151t-84 -122.5t-128.5 -85t-174 -30.5q-45 0 -133 18z" />
    <glyph glyph-name="K.sc" horiz-adv-x="1054" 
d="M592 598l461 -598h-236l-377 496l-86 -496h-172l211 1196h172l-88 -500l471 500h209z" />
    <glyph glyph-name="L.sc" horiz-adv-x="880" 
d="M393 1196h172l-184 -1034h483l-26 -162h-656z" />
    <glyph glyph-name="M.sc" horiz-adv-x="1658" 
d="M887 338l567 858h156l-66 -1196h-172l49 874l-495 -743h-150l-231 743l-260 -874h-170l356 1196h156z" />
    <glyph glyph-name="N.sc" horiz-adv-x="1230" 
d="M1049 0h-164l-377 877l-154 -877h-172l211 1196h168l373 -866l153 866h173z" />
    <glyph glyph-name="O.sc" horiz-adv-x="1421" 
d="M207 596q29 167 133.5 307.5t259 222.5t322.5 82q169 0 293.5 -82t178.5 -222.5t25 -307.5q-30 -168 -134.5 -309t-258 -223t-321.5 -82q-169 0 -294 82t-179.5 223t-24.5 309zM379 596q-22 -122 16.5 -224.5t128 -162t209.5 -59.5q182 0 330 129.5t182 316.5t-68 316.5
t-284 129.5t-331 -129.5t-183 -316.5z" />
    <glyph glyph-name="P.sc" horiz-adv-x="1093" 
d="M393 1196h479q73 0 130.5 -21t91 -57.5t55 -84.5t23 -102.5t-6.5 -111.5q-13 -75 -46 -141t-84.5 -119.5t-128.5 -85t-169 -31.5h-305l-76 -442h-174zM842 1036h-303l-78 -432h295q96 0 158 63.5t79 151.5q19 85 -20 151t-131 66z" />
    <glyph glyph-name="Q.sc" horiz-adv-x="1421" 
d="M1053 80l84 -197l-150 -86l-94 213q-103 -28 -188 -28q-169 0 -294 82t-179.5 223t-24.5 309q29 167 133.5 307.5t259 222.5t322.5 82q169 0 293.5 -82t178.5 -222.5t25 -307.5q-29 -159 -127.5 -296t-238.5 -220zM887 440l96 -215q104 60 173 157t89 214
q34 187 -68 316.5t-284 129.5t-331 -129.5t-183 -316.5q-32 -169 64.5 -295.5t261.5 -144.5q93 0 118 6q-39 99 -86 194z" />
    <glyph glyph-name="R.sc" horiz-adv-x="1118" 
d="M774 451l240 -451h-209l-230 442h-143l-76 -442h-174l211 1196h461q73 0 130.5 -21t91 -57.5t55 -84.5t23 -102.5t-6.5 -111.5q-13 -70 -42 -131t-73.5 -111.5t-111 -84t-146.5 -41.5zM821 1036h-282l-78 -432h274q98 0 157.5 63t76.5 152q19 86 -18.5 151.5t-129.5 65.5
z" />
    <glyph glyph-name="S.sc" horiz-adv-x="1034" 
d="M168 354h174q-13 -85 45 -148t164 -63q105 0 174.5 49t91.5 119q13 36 7.5 66.5t-20 53t-40 40t-52 29t-57.5 18.5l-145 39q-70 19 -119 47.5t-73 60.5t-37.5 68t-11.5 70.5t5 68.5q24 146 157 241t292 95q168 0 260.5 -97t63.5 -259h-173q17 86 -35 139t-147 53
q-88 0 -161 -48.5t-85 -123.5q-2 -15 -3 -32t7.5 -35t22.5 -34.5t42 -31.5t67 -24l147 -39q161 -43 228 -141t26 -238q-47 -135 -169 -225t-288 -90q-119 0 -208 53t-127.5 138t-22.5 181z" />
    <glyph glyph-name="T.sc" horiz-adv-x="987" 
d="M258 1196h893l-29 -162h-360l-182 -1034h-174l182 1034h-359z" />
    <glyph glyph-name="U.sc" horiz-adv-x="1218" 
d="M633 150q110 0 202.5 73.5t112.5 188.5l139 784h173l-140 -784q-36 -191 -184 -310.5t-332 -119.5q-88 0 -163 31t-125 86t-71 136.5t-3 176.5l139 784h174l-139 -784q-20 -116 44 -189t173 -73z" />
    <glyph glyph-name="V.sc" horiz-adv-x="1019" 
d="M457 1196l108 -897q114 251 420 897h178l-571 -1196h-162l-151 1196h178z" />
    <glyph glyph-name="W.sc" horiz-adv-x="1607" 
d="M1587 1196h185l-617 -1196h-147l-80 721l-328 -721h-147l-195 1196h184l131 -913q54 113 169 365t180 388h129l82 -753z" />
    <glyph glyph-name="X.sc" horiz-adv-x="1118" 
d="M776 641l305 -641h-209l-227 496l-399 -496h-207l528 643l-272 553h207l194 -410l344 410h205z" />
    <glyph glyph-name="Y.sc" horiz-adv-x="1153" 
d="M664 0h-177l97 549l-340 647h202l252 -477l428 477h209l-575 -647z" />
    <glyph glyph-name="Z.sc" horiz-adv-x="1038" 
d="M117 147l776 887h-594l29 162h817l-27 -147l-780 -885h625l-29 -164h-842z" />
    <glyph glyph-name="Scaron.sc" horiz-adv-x="1034" 
d="M778 1464l158 146h156l-252 -275h-164l-150 275h156zM168 354h174q-13 -85 45 -148t164 -63q105 0 174.5 49t91.5 119q13 36 7.5 66.5t-20 53t-40 40t-52 29t-57.5 18.5l-145 39q-70 19 -119 47.5t-73 60.5t-37.5 68t-11.5 70.5t5 68.5q24 146 157 241t292 95
q168 0 260.5 -97t63.5 -259h-173q17 86 -35 139t-147 53q-88 0 -161 -48.5t-85 -123.5q-2 -15 -3 -32t7.5 -35t22.5 -34.5t42 -31.5t67 -24l147 -39q161 -43 228 -141t26 -238q-47 -135 -169 -225t-288 -90q-119 0 -208 53t-127.5 138t-22.5 181z" />
    <glyph glyph-name="OE.sc" horiz-adv-x="1974" 
d="M1346 1196h710l-31 -170h-538l-64 -354h471l-28 -170h-471l-60 -332h557l-28 -170h-729l30 176q-95 -89 -217 -141.5t-248 -52.5q-167 0 -291 82t-178 223t-24 309q29 167 133.5 307.5t258 222.5t319.5 82q126 0 230 -52t167 -140zM377 596q-32 -184 70 -312t284 -128
q168 0 313.5 124t190.5 295l6 39q11 112 -29.5 208.5t-126.5 155t-198 58.5q-183 0 -330.5 -128t-179.5 -312z" />
    <glyph glyph-name="Ydieresis.sc" horiz-adv-x="1153" 
d="M664 0h-177l97 549l-340 647h202l252 -477l428 477h209l-575 -647zM580 1470q6 46 44.5 76.5t86.5 30.5q47 0 72.5 -30t19.5 -77q-7 -47 -44 -77.5t-85 -30.5t-74.5 30.5t-19.5 77.5zM870 1470q6 46 44.5 76.5t86.5 30.5q47 0 74 -30t21 -77q-7 -47 -45 -77.5t-86 -30.5
t-75 30.5t-20 77.5z" />
    <glyph glyph-name="exclamdown.sc" horiz-adv-x="540" 
d="M346 1098q7 48 47.5 80t89.5 32q51 0 78.5 -31.5t20.5 -80.5t-47 -82t-91 -33q-48 0 -76.5 33t-21.5 82zM186 0l172 879h134l-140 -879h-166z" />
    <glyph glyph-name="questiondown.sc" horiz-adv-x="872" 
d="M633 -29h166q-31 -167 -149 -268.5t-263 -101.5q-147 0 -237 94.5t-62 245.5q19 117 108 205.5t201 123.5q64 21 98 45.5t44 75.5l20 109h164l-18 -109q-22 -119 -93.5 -182.5t-189.5 -97.5q-57 -17 -88 -48q-64 -51 -78 -122q-16 -78 34 -127.5t128 -49.5
q74 0 135.5 56.5t79.5 150.5zM799 719q-11 -50 -50 -82.5t-90 -32.5t-78.5 33t-17.5 82q11 50 48.5 81t88.5 31q52 0 80.5 -31.5t18.5 -80.5z" />
    <glyph glyph-name="Agrave.sc" horiz-adv-x="1167" 
d="M475 457h377q-16 86 -49.5 249.5t-50.5 249.5zM883 301h-494q-84 -146 -166 -301h-184l666 1196h180l243 -1196h-182zM754 1335l-166 275h203l127 -275h-164z" />
    <glyph glyph-name="Aacute.sc" horiz-adv-x="1167" 
d="M1149 1597l-260 -274h-164l221 274h203zM475 457h377q-16 86 -49.5 249.5t-50.5 249.5zM883 301h-494q-84 -146 -166 -301h-184l666 1196h180l243 -1196h-182z" />
    <glyph glyph-name="Acircumflex.sc" horiz-adv-x="1167" 
d="M475 457h377q-16 86 -49.5 249.5t-50.5 249.5zM883 301h-494q-84 -146 -166 -301h-184l666 1196h180l243 -1196h-182zM944 1335l-102 148l-150 -148h-153l247 275h164l152 -275h-158z" />
    <glyph glyph-name="Atilde.sc" horiz-adv-x="1167" 
d="M475 457h377q-16 86 -49.5 249.5t-50.5 249.5zM883 301h-494q-84 -146 -166 -301h-184l666 1196h180l243 -1196h-182zM758 1430q-14 0 -30 -18t-26 -56h-116q29 110 82 160.5t114 50.5q8 0 15 -1t12 -2t12 -4t9.5 -4.5t9.5 -6t8.5 -5.5t9 -7.5t8.5 -6.5l-2 2q4 -2 13 -10
q29 -25 47 -25q15 0 30.5 16.5t22.5 53.5h117q-17 -76 -52.5 -125t-71 -66.5t-73.5 -17.5q-22 0 -40.5 7.5t-27.5 15t-24 22.5l-21 12q-18 15 -26 15z" />
    <glyph glyph-name="Adieresis.sc" horiz-adv-x="1167" 
d="M584 1470q6 46 45 76.5t88 30.5q47 0 71.5 -29.5t18.5 -77.5q-7 -47 -44 -77.5t-85 -30.5t-74.5 30.5t-19.5 77.5zM874 1470q6 46 45 76.5t87 30.5q47 0 73.5 -30t20.5 -77q-7 -47 -46 -77.5t-87 -30.5q-47 0 -73.5 30.5t-19.5 77.5zM475 457h377q-16 86 -49.5 249.5
t-50.5 249.5zM883 301h-494q-84 -146 -166 -301h-184l666 1196h180l243 -1196h-182z" />
    <glyph glyph-name="Aring.sc" horiz-adv-x="1167" 
d="M659 1497q13 79 76.5 132.5t141.5 53.5q81 0 126 -53t31 -133q-14 -78 -77.5 -131t-145.5 -53q-78 0 -121 53t-31 131zM764 1497q-6 -35 12.5 -58.5t50.5 -23.5q37 0 68 23.5t37 58.5t-14.5 59.5t-57.5 24.5q-33 0 -61.5 -24.5t-34.5 -59.5zM475 457h377
q-16 86 -49.5 249.5t-50.5 249.5zM883 301h-494q-84 -146 -166 -301h-184l666 1196h180l243 -1196h-182z" />
    <glyph glyph-name="AE.sc" horiz-adv-x="1667" 
d="M467 297l-240 -297h-204l968 1196h758l-31 -170h-538l-64 -354h469l-29 -170h-469l-59 -332h557l-29 -170h-729l50 297h-410zM602 463h307l82 481z" />
    <glyph glyph-name="Ccedilla.sc" horiz-adv-x="1230" 
d="M543 -193q4 -23 25.5 -33.5t45.5 -2.5q25 10 39 34.5t9 49.5l-27 131q-147 16 -254.5 101t-154 219.5t-17.5 289.5q29 166 135 307t261 223t321 82q135 0 242.5 -53t174.5 -151l-147 -109q-111 147 -299 147q-184 0 -333 -129.5t-183 -316.5q-22 -122 17 -224.5
t128.5 -162t210.5 -59.5q96 0 189.5 41t167.5 112l110 -108q-200 -190 -454 -211l26 -82q10 -37 4 -74q-10 -54 -48.5 -97.5t-96.5 -68.5q-27 -12 -72 -12q-50 0 -87.5 30.5t-49.5 81.5q-10 46 0 95l121 -9q0 -10 -2 -16q-4 -18 -2 -25z" />
    <glyph glyph-name="Egrave.sc" horiz-adv-x="1021" 
d="M393 1196h713l-29 -160h-540l-66 -366h473l-29 -162h-473l-61 -346h557l-27 -162h-729zM719 1335l-166 275h205l125 -275h-164z" />
    <glyph glyph-name="Eacute.sc" horiz-adv-x="1021" 
d="M1047 1610l-265 -275h-164l224 275h205zM393 1196h713l-29 -160h-540l-66 -366h473l-29 -162h-473l-61 -346h557l-27 -162h-729z" />
    <glyph glyph-name="Ecircumflex.sc" horiz-adv-x="1021" 
d="M393 1196h713l-29 -160h-540l-66 -366h473l-29 -162h-473l-61 -346h557l-27 -162h-729zM874 1335l-102 148l-151 -148h-156l250 275h164l149 -275h-154z" />
    <glyph glyph-name="Edieresis.sc" horiz-adv-x="1021" 
d="M518 1470q6 46 46 76.5t89 30.5q45 0 70.5 -30t19.5 -77q-7 -46 -45.5 -77t-83.5 -31q-48 0 -75.5 30.5t-20.5 77.5zM809 1470q6 46 45 76.5t88 30.5q47 0 72.5 -30t19.5 -77q-7 -47 -45 -77.5t-86 -30.5t-74.5 30.5t-19.5 77.5zM393 1196h713l-29 -160h-540l-66 -366
h473l-29 -162h-473l-61 -346h557l-27 -162h-729z" />
    <glyph glyph-name="Igrave.sc" horiz-adv-x="534" 
d="M393 1196h170l-211 -1196h-170zM430 1335l-164 275h205l123 -275h-164z" />
    <glyph glyph-name="Iacute.sc" horiz-adv-x="534" 
d="M838 1610l-265 -275h-163l225 275h203zM393 1196h170l-211 -1196h-170z" />
    <glyph glyph-name="Icircumflex.sc" horiz-adv-x="536" 
d="M393 1196h172l-211 -1196h-172zM631 1335l-105 148l-149 -148h-156l250 275h164l151 -275h-155z" />
    <glyph glyph-name="Idieresis.sc" horiz-adv-x="534" 
d="M268 1470q6 46 45 76.5t88 30.5q47 0 73 -30t20 -77q-7 -47 -45.5 -77.5t-86.5 -30.5t-74.5 30.5t-19.5 77.5zM559 1470q6 46 44.5 76.5t86.5 30.5q47 0 73.5 -30t20.5 -77q-7 -47 -46 -77.5t-87 -30.5q-47 0 -73 30.5t-19 77.5zM393 1196h170l-211 -1196h-170z" />
    <glyph glyph-name="Eth.sc" horiz-adv-x="1290" 
d="M647 0h-457l93 537h-160l22 122h160l94 537h457q167 0 275 -80t144.5 -214.5t6.5 -305.5q-23 -128 -77.5 -236.5t-134.5 -189t-189 -125.5t-234 -45zM477 659h283l-23 -122h-282l-66 -367h285q174 0 289.5 118t148.5 308q22 124 -0.5 220t-95 153t-189.5 57h-284z" />
    <glyph glyph-name="Ntilde.sc" horiz-adv-x="1230" 
d="M1049 0h-164l-377 877l-154 -877h-172l211 1196h168l373 -866l153 866h173zM791 1430q-15 0 -32 -18.5t-24 -55.5h-117q27 110 81.5 160.5t115.5 50.5q12 0 22.5 -2t20 -7t15 -8t15.5 -10.5t13 -9.5l10 -6q27 -27 43 -27q17 0 33 16.5t21 53.5h118q-25 -110 -81.5 -159.5
t-116.5 -49.5q-45 0 -90 45l-21 12q-18 15 -26 15z" />
    <glyph glyph-name="Ograve.sc" horiz-adv-x="1421" 
d="M207 596q29 167 133.5 307.5t259 222.5t322.5 82q169 0 293.5 -82t178.5 -222.5t25 -307.5q-30 -168 -134.5 -309t-258 -223t-321.5 -82q-169 0 -294 82t-179.5 223t-24.5 309zM379 596q-22 -122 16.5 -224.5t128 -162t209.5 -59.5q182 0 330 129.5t182 316.5t-68 316.5
t-284 129.5t-331 -129.5t-183 -316.5zM885 1335l-164 275h201l127 -275h-164z" />
    <glyph glyph-name="Oacute.sc" horiz-adv-x="1421" 
d="M1249 1610l-262 -275h-164l224 275h202zM207 596q29 167 133.5 307.5t259 222.5t322.5 82q169 0 293.5 -82t178.5 -222.5t25 -307.5q-30 -168 -134.5 -309t-258 -223t-321.5 -82q-169 0 -294 82t-179.5 223t-24.5 309zM379 596q-22 -122 16.5 -224.5t128 -162
t209.5 -59.5q182 0 330 129.5t182 316.5t-68 316.5t-284 129.5t-331 -129.5t-183 -316.5z" />
    <glyph glyph-name="Ocircumflex.sc" horiz-adv-x="1421" 
d="M207 596q29 167 133.5 307.5t259 222.5t322.5 82q169 0 293.5 -82t178.5 -222.5t25 -307.5q-30 -168 -134.5 -309t-258 -223t-321.5 -82q-169 0 -294 82t-179.5 223t-24.5 309zM379 596q-22 -122 16.5 -224.5t128 -162t209.5 -59.5q182 0 330 129.5t182 316.5t-68 316.5
t-284 129.5t-331 -129.5t-183 -316.5zM1071 1335l-100 148l-152 -148h-155l247 275h164l150 -275h-154z" />
    <glyph glyph-name="Otilde.sc" horiz-adv-x="1421" 
d="M207 596q29 167 133.5 307.5t259 222.5t322.5 82q169 0 293.5 -82t178.5 -222.5t25 -307.5q-30 -168 -134.5 -309t-258 -223t-321.5 -82q-169 0 -294 82t-179.5 223t-24.5 309zM379 596q-22 -122 16.5 -224.5t128 -162t209.5 -59.5q182 0 330 129.5t182 316.5t-68 316.5
t-284 129.5t-331 -129.5t-183 -316.5zM885 1430q-14 0 -29 -18t-22 -56h-119q27 110 80 160.5t114 50.5q17 0 31.5 -4.5t20 -7t20.5 -14t16 -11.5l11 -6q27 -27 41 -27q17 0 32.5 16.5t22.5 53.5h117q-25 -111 -79.5 -160t-117.5 -49q-45 0 -90 45l-23 12q-18 15 -26 15z
" />
    <glyph glyph-name="Odieresis.sc" horiz-adv-x="1421" 
d="M711 1470q6 46 45 76.5t88 30.5q45 0 70.5 -30t19.5 -77q-7 -46 -44.5 -77t-82.5 -31q-48 0 -75.5 30.5t-20.5 77.5zM1004 1470q6 46 43.5 76.5t85.5 30.5q47 0 73.5 -30t20.5 -77q-7 -47 -45 -77.5t-86 -30.5q-47 0 -73 30.5t-19 77.5zM207 596q29 167 133.5 307.5
t259 222.5t322.5 82q169 0 293.5 -82t178.5 -222.5t25 -307.5q-30 -168 -134.5 -309t-258 -223t-321.5 -82q-169 0 -294 82t-179.5 223t-24.5 309zM379 596q-22 -122 16.5 -224.5t128 -162t209.5 -59.5q182 0 330 129.5t182 316.5t-68 316.5t-284 129.5t-331 -129.5
t-183 -316.5z" />
    <glyph glyph-name="Oslash.sc" horiz-adv-x="1417" 
d="M350 111l-164 -142l-71 90l161 142q-109 175 -71 395q29 167 133 307.5t258 222.5t322 82q217 0 358 -135l164 137l73 -86l-161 -139q104 -179 65 -389q-30 -168 -134.5 -309t-258.5 -223t-322 -82q-214 0 -352 129zM377 596q-27 -159 39 -274l721 628q-95 92 -246 92
q-182 0 -331 -129.5t-183 -316.5zM729 150q182 0 331 129.5t183 316.5q27 149 -35 266l-719 -629q89 -83 240 -83z" />
    <glyph glyph-name="Ugrave.sc" horiz-adv-x="1218" 
d="M801 1335l-164 275h205l123 -275h-164zM633 150q110 0 202.5 73.5t112.5 188.5l139 784h173l-140 -784q-36 -191 -184 -310.5t-332 -119.5q-88 0 -163 31t-125 86t-71 136.5t-3 176.5l139 784h174l-139 -784q-20 -116 44 -189t173 -73z" />
    <glyph glyph-name="Uacute.sc" horiz-adv-x="1218" 
d="M633 150q110 0 202.5 73.5t112.5 188.5l139 784h173l-140 -784q-36 -191 -184 -310.5t-332 -119.5q-88 0 -163 31t-125 86t-71 136.5t-3 176.5l139 784h174l-139 -784q-20 -116 44 -189t173 -73zM1139 1610l-267 -275h-163l227 275h203z" />
    <glyph glyph-name="Ucircumflex.sc" horiz-adv-x="1218" 
d="M969 1335l-99 148l-151 -148h-156l250 275h164l147 -275h-155zM633 150q110 0 202.5 73.5t112.5 188.5l139 784h173l-140 -784q-36 -191 -184 -310.5t-332 -119.5q-88 0 -163 31t-125 86t-71 136.5t-3 176.5l139 784h174l-139 -784q-20 -116 44 -189t173 -73z" />
    <glyph glyph-name="Udieresis.sc" horiz-adv-x="1218" 
d="M633 150q110 0 202.5 73.5t112.5 188.5l139 784h173l-140 -784q-36 -191 -184 -310.5t-332 -119.5q-88 0 -163 31t-125 86t-71 136.5t-3 176.5l139 784h174l-139 -784q-20 -116 44 -189t173 -73zM610 1470q6 46 44.5 76.5t86.5 30.5q47 0 73 -30t20 -77q-7 -47 -44 -77.5
t-85 -30.5t-75 30.5t-20 77.5zM901 1470q6 46 44.5 76.5t86.5 30.5q47 0 73.5 -30t20.5 -77q-7 -47 -45 -77.5t-86 -30.5t-74.5 30.5t-19.5 77.5z" />
    <glyph glyph-name="Yacute.sc" horiz-adv-x="1153" 
d="M664 0h-177l97 549l-340 647h202l252 -477l428 477h209l-575 -647zM1122 1610l-264 -275h-164l224 275h204z" />
    <glyph glyph-name="Thorn.sc" horiz-adv-x="1034" 
d="M627 238h-234l-39 -238h-172l211 1196h172l-37 -211h234q160 0 246 -101t57 -270q-32 -169 -155.5 -272.5t-282.5 -103.5zM424 403h233q83 0 151 59.5t85 151.5q18 94 -32.5 148t-141.5 59q-37 0 -110.5 1t-110.5 1z" />
    <glyph glyph-name="Amacron.sc" horiz-adv-x="1167" 
d="M475 457h377q-16 86 -49.5 249.5t-50.5 249.5zM883 301h-494q-84 -146 -166 -301h-184l666 1196h180l243 -1196h-182zM629 1528h444l-24 -150h-445z" />
    <glyph glyph-name="Abreve.sc" horiz-adv-x="1167" 
d="M631 1567h139q-8 -44 12 -72.5t60 -28.5q41 0 70.5 30.5t35.5 70.5h142q-20 -108 -94 -170t-179 -62q-113 0 -159 67t-27 165zM475 457h377q-16 86 -49.5 249.5t-50.5 249.5zM883 301h-494q-84 -146 -166 -301h-184l666 1196h180l243 -1196h-182z" />
    <glyph glyph-name="Cacute.sc" horiz-adv-x="1228" 
d="M1243 1610l-264 -275h-164l225 275h203zM1094 303l110 -108q-102 -100 -230 -156.5t-265 -56.5q-125 0 -230 48.5t-172 130.5t-94.5 196t-5.5 239q29 166 135.5 307t262 223t321.5 82q135 0 242.5 -53t174.5 -151l-147 -109q-111 147 -299 147q-184 0 -334 -129.5
t-184 -316.5q-34 -186 70 -316t288 -130q96 0 188.5 41t168.5 112z" />
    <glyph glyph-name="Ccircumflex.sc" horiz-adv-x="1228" 
d="M1094 303l110 -108q-102 -100 -230 -156.5t-265 -56.5q-125 0 -230 48.5t-172 130.5t-94.5 196t-5.5 239q29 166 135.5 307t262 223t321.5 82q135 0 242.5 -53t174.5 -151l-147 -109q-111 147 -299 147q-184 0 -334 -129.5t-184 -316.5q-34 -186 70 -316t288 -130
q96 0 188.5 41t168.5 112zM1071 1335l-100 148l-154 -148h-153l247 275h164l152 -275h-156z" />
    <glyph glyph-name="Cdotaccent.sc" horiz-adv-x="1228" 
d="M831 1487q7 46 46.5 76t87.5 30t74.5 -29.5t19.5 -76.5q-11 -47 -48.5 -78t-84.5 -31q-48 0 -76.5 31.5t-18.5 77.5zM1094 303l110 -108q-102 -100 -230 -156.5t-265 -56.5q-125 0 -230 48.5t-172 130.5t-94.5 196t-5.5 239q29 166 135.5 307t262 223t321.5 82
q135 0 242.5 -53t174.5 -151l-147 -109q-111 147 -299 147q-184 0 -334 -129.5t-184 -316.5q-34 -186 70 -316t288 -130q96 0 188.5 41t168.5 112z" />
    <glyph glyph-name="Ccaron.sc" horiz-adv-x="1228" 
d="M942 1464l154 146h155l-250 -275h-163l-148 275h154zM1094 303l110 -108q-102 -100 -230 -156.5t-265 -56.5q-125 0 -230 48.5t-172 130.5t-94.5 196t-5.5 239q29 166 135.5 307t262 223t321.5 82q135 0 242.5 -53t174.5 -151l-147 -109q-111 147 -299 147
q-184 0 -334 -129.5t-184 -316.5q-34 -186 70 -316t288 -130q96 0 188.5 41t168.5 112z" />
    <glyph glyph-name="Dcaron.sc" horiz-adv-x="1282" 
d="M922 1464l153 146h154l-246 -275h-164l-151 275h155zM639 0h-457l211 1196h457q166 0 273.5 -80t144 -214.5t6.5 -305.5q-23 -128 -77.5 -236.5t-134.5 -189t-189 -125.5t-234 -45zM535 1026l-152 -856h285q173 0 288 118t148 308q22 124 -0.5 220t-95 153t-189.5 57
h-284z" />
    <glyph glyph-name="Aogonek.sc" horiz-adv-x="1167" 
d="M477 457h375q-17 95 -51.5 262t-48.5 237zM940 8l-59 293h-492q-84 -146 -166 -301h-184l666 1196h180l243 -1196h-79l-80 -145q-29 -64 16 -84q47 -15 84 36q2 2 8 25l4 16l123 9q-5 -33 -33 -95q-32 -53 -82 -82.5t-102 -29.5q-41 0 -65 12q-48 25 -70 69t-12 97
q12 48 26 74z" />
    <glyph glyph-name="Emacron.sc" horiz-adv-x="1021" 
d="M393 1196h713l-29 -160h-540l-66 -366h473l-29 -162h-473l-61 -346h557l-27 -162h-729zM590 1528h444l-24 -150h-445z" />
    <glyph glyph-name="Ebreve.sc" horiz-adv-x="1021" 
d="M557 1567h139q-8 -44 13 -72.5t63 -28.5q39 0 69 31t36 70h141q-20 -108 -92.5 -170t-177.5 -62q-115 0 -162.5 67t-28.5 165zM393 1196h713l-29 -160h-540l-66 -366h473l-29 -162h-473l-61 -346h557l-27 -162h-729z" />
    <glyph glyph-name="Edotaccent.sc" horiz-adv-x="1021" 
d="M698 1487q7 46 45 76t86 30q50 0 78 -29.5t21 -76.5q-11 -48 -48.5 -78.5t-86.5 -30.5q-48 0 -76.5 31.5t-18.5 77.5zM393 1196h713l-29 -160h-540l-66 -366h473l-29 -162h-473l-61 -346h557l-27 -162h-729z" />
    <glyph glyph-name="Ecaron.sc" horiz-adv-x="1021" 
d="M770 1464l154 146h153l-248 -275h-163l-152 275h156zM393 1196h713l-29 -160h-540l-66 -366h473l-29 -162h-473l-61 -346h557l-27 -162h-729z" />
    <glyph glyph-name="Gcircumflex.sc" horiz-adv-x="1349" 
d="M1300 1047l-143 -115q-98 112 -264 112q-183 0 -332.5 -131t-181.5 -317q-32 -187 70 -318t284 -131q156 0 275 84.5t151 223.5h-336l25 151h530q-56 -311 -232 -467.5t-441 -156.5q-169 0 -294 82t-179.5 223t-24.5 309q29 167 133.5 307.5t259 222.5t322.5 82
q242 0 378 -161zM1042 1335l-100 148l-149 -148h-156l248 275h162l151 -275h-156z" />
    <glyph glyph-name="Gbreve.sc" horiz-adv-x="1349" 
d="M727 1567h141q-8 -44 12 -72.5t60 -28.5t68.5 30.5t35.5 70.5h146q-20 -108 -94.5 -170t-180.5 -62q-78 0 -125.5 33.5t-61 84.5t-1.5 114zM1300 1047l-143 -115q-98 112 -264 112q-183 0 -332.5 -131t-181.5 -317q-32 -187 70 -318t284 -131q156 0 275 84.5t151 223.5
h-336l25 151h530q-56 -311 -232 -467.5t-441 -156.5q-169 0 -294 82t-179.5 223t-24.5 309q29 167 133.5 307.5t259 222.5t322.5 82q242 0 378 -161z" />
    <glyph glyph-name="Eogonek.sc" horiz-adv-x="1021" 
d="M901 0l-67 -127q-17 -23 -12 -48t28 -36q20 -7 43.5 3t40.5 34q4 4 10 27q2 6 2 16l125 6q-11 -50 -37 -94q-29 -51 -79 -82t-101 -31q-39 0 -66 15q-48 24 -69.5 67t-11.5 96q6 39 24 74l60 80h-609l211 1196h715l-29 -160h-542l-66 -366h473l-29 -162h-473l-61 -346
h557l-33 -160z" />
    <glyph glyph-name="Dcroat.sc" horiz-adv-x="1292" 
d="M649 0h-456l92 532h-160l25 136h159l92 528h457q167 0 275 -80t144.5 -214.5t6.5 -305.5q-23 -128 -77.5 -236.5t-134.5 -189t-189 -125.5t-234 -45zM481 668h283l-25 -136h-282l-66 -362h285q174 0 289.5 118t148.5 308q22 124 -0.5 220t-95 153t-189.5 57h-284z" />
    <glyph glyph-name="Gdotaccent.sc" horiz-adv-x="1349" 
d="M807 1487q7 46 46 76t87 30t74.5 -29.5t19.5 -76.5q-11 -47 -48.5 -78t-84.5 -31q-48 0 -76 31.5t-18 77.5zM1300 1047l-143 -115q-98 112 -264 112q-183 0 -332.5 -131t-181.5 -317q-32 -187 70 -318t284 -131q156 0 275 84.5t151 223.5h-336l25 151h530
q-56 -311 -232 -467.5t-441 -156.5q-169 0 -294 82t-179.5 223t-24.5 309q29 167 133.5 307.5t259 222.5t322.5 82q242 0 378 -161z" />
    <glyph glyph-name="Hcircumflex.sc" horiz-adv-x="1269" 
d="M1298 1196l-211 -1196h-174l91 516h-560l-90 -516h-172l211 1196h172l-94 -522h559l94 522h174zM995 1335l-102 148l-150 -148h-153l248 275h163l150 -275h-156z" />
    <glyph glyph-name="Hbar.sc" horiz-adv-x="1286" 
d="M1266 981h120l-18 -107h-121l-153 -874h-172l90 512h-559l-91 -512h-172l154 874h-117l19 107h116l39 215h172l-38 -215h559l39 215h172zM481 676h559l35 198h-559z" />
    <glyph glyph-name="Itilde.sc" horiz-adv-x="536" 
d="M393 1196h172l-211 -1196h-172zM444 1430q-14 0 -29.5 -18t-25.5 -56h-117q29 110 82.5 160.5t114.5 50.5q17 0 31 -4t20 -7.5t19 -13.5t16 -12l10 -6q27 -27 43 -27q17 0 33 16.5t23 53.5h116q-25 -111 -80.5 -160t-117.5 -49q-45 0 -90 45l-21 12q-18 15 -27 15z" />
    <glyph glyph-name="Imacron.sc" horiz-adv-x="536" 
d="M393 1196h172l-211 -1196h-172zM315 1528h445l-25 -150h-444z" />
    <glyph glyph-name="Iogonek.sc" horiz-adv-x="536" 
d="M285 0l-78 -145q-14 -26 -10 -50t24 -34q50 -15 86 36q2 2 8 25l4 16l123 9q-13 -62 -34 -95q-32 -53 -81.5 -82.5t-101.5 -29.5q-41 0 -65 12q-48 25 -71 69t-13 97q12 48 26 74l80 108l211 1186h172l-211 -1196h-69z" />
    <glyph glyph-name="IJ.sc" horiz-adv-x="1073" 
d="M393 1196h172l-211 -1196h-172zM311 -412l45 166q18 -7 59.5 -11.5t57.5 -4.5q102 0 159.5 60.5t76.5 160.5l221 1237h172l-221 -1237q-32 -174 -139.5 -281.5t-297.5 -107.5q-45 0 -133 18z" />
    <glyph glyph-name="Jcircumflex.sc" horiz-adv-x="536" 
d="M616 1335l-100 148l-151 -148h-156l252 275h164l145 -275h-154zM-221 -412l47 166q18 -7 59.5 -11.5t57.5 -4.5q99 0 155.5 61t75.5 160l219 1237h172l-219 -1237q-15 -83 -47.5 -151t-84 -122.5t-128.5 -85t-174 -30.5q-45 0 -133 18z" />
    <glyph glyph-name="Lacute.sc" horiz-adv-x="880" 
d="M844 1591l-262 -276h-164l223 276h203zM393 1196h172l-184 -1034h483l-26 -162h-656z" />
    <glyph glyph-name="Lcaron.sc" horiz-adv-x="882" 
d="M393 1196h172l-184 -1034h483l-26 -162h-656zM735 866l-108 29q51 58 79 109.5t39 119.5q5 15 9 62h168q-39 -219 -187 -320z" />
    <glyph glyph-name="Ldot.sc" horiz-adv-x="880" 
d="M393 1196h172l-184 -1034h483l-26 -162h-656zM569 455q7 42 43 72t78 30q45 0 72 -30t20 -72t-45.5 -71.5t-83.5 -29.5q-42 0 -66.5 29.5t-17.5 71.5z" />
    <glyph glyph-name="Nacute.sc" horiz-adv-x="1230" 
d="M1141 1610l-264 -275h-164l223 275h205zM1049 0h-164l-377 877l-154 -877h-172l211 1196h168l373 -866l153 866h173z" />
    <glyph glyph-name="Ncaron.sc" horiz-adv-x="1230" 
d="M870 1464l154 146h154l-246 -275h-164l-152 275h156zM1049 0h-164l-377 877l-154 -877h-172l211 1196h168l373 -866l153 866h173z" />
    <glyph glyph-name="Omacron.sc" horiz-adv-x="1421" 
d="M207 596q29 167 133.5 307.5t259 222.5t322.5 82q169 0 293.5 -82t178.5 -222.5t25 -307.5q-30 -168 -134.5 -309t-258 -223t-321.5 -82q-169 0 -294 82t-179.5 223t-24.5 309zM379 596q-22 -122 16.5 -224.5t128 -162t209.5 -59.5q182 0 330 129.5t182 316.5t-68 316.5
t-284 129.5t-331 -129.5t-183 -316.5zM756 1528h444l-24 -150h-445z" />
    <glyph glyph-name="Obreve.sc" horiz-adv-x="1421" 
d="M756 1567h137q-8 -44 13 -72.5t63 -28.5q40 0 68.5 30.5t35.5 70.5h141q-20 -108 -92.5 -170t-177.5 -62q-78 0 -125.5 33.5t-61 84.5t-1.5 114zM207 596q29 167 133.5 307.5t259 222.5t322.5 82q169 0 293.5 -82t178.5 -222.5t25 -307.5q-30 -168 -134.5 -309t-258 -223
t-321.5 -82q-169 0 -294 82t-179.5 223t-24.5 309zM379 596q-22 -122 16.5 -224.5t128 -162t209.5 -59.5q182 0 330 129.5t182 316.5t-68 316.5t-284 129.5t-331 -129.5t-183 -316.5z" />
    <glyph glyph-name="Ohungarumlaut.sc" horiz-adv-x="1421" 
d="M1102 1610l-211 -275h-158l193 275h176zM1348 1610l-234 -275h-153l210 275h177zM207 596q29 167 133.5 307.5t259 222.5t322.5 82q169 0 293.5 -82t178.5 -222.5t25 -307.5q-30 -168 -134.5 -309t-258 -223t-321.5 -82q-169 0 -294 82t-179.5 223t-24.5 309zM379 596
q-22 -122 16.5 -224.5t128 -162t209.5 -59.5q182 0 330 129.5t182 316.5t-68 316.5t-284 129.5t-331 -129.5t-183 -316.5z" />
    <glyph glyph-name="Racute.sc" horiz-adv-x="1118" 
d="M1028 1610l-262 -275h-164l225 275h201zM774 451l240 -451h-209l-230 442h-143l-76 -442h-174l211 1196h461q73 0 130.5 -21t91 -57.5t55 -84.5t23 -102.5t-6.5 -111.5q-13 -70 -42 -131t-73.5 -111.5t-111 -84t-146.5 -41.5zM821 1036h-282l-78 -432h274q98 0 157.5 63
t76.5 152q19 86 -18.5 151.5t-129.5 65.5z" />
    <glyph glyph-name="Rcaron.sc" horiz-adv-x="1118" 
d="M815 1464l154 146h153l-248 -275h-163l-152 275h156zM774 451l240 -451h-209l-230 442h-143l-76 -442h-174l211 1196h461q73 0 130.5 -21t91 -57.5t55 -84.5t23 -102.5t-6.5 -111.5q-13 -70 -42 -131t-73.5 -111.5t-111 -84t-146.5 -41.5zM821 1036h-282l-78 -432h274
q98 0 157.5 63t76.5 152q19 86 -18.5 151.5t-129.5 65.5z" />
    <glyph glyph-name="Sacute.sc" horiz-adv-x="1034" 
d="M1040 1610l-266 -275h-164l226 275h204zM168 354h174q-13 -85 45 -148t164 -63q105 0 174.5 49t91.5 119q13 36 7.5 66.5t-20 53t-40 40t-52 29t-57.5 18.5l-145 39q-70 19 -119 47.5t-73 60.5t-37.5 68t-11.5 70.5t5 68.5q24 146 157 241t292 95q168 0 260.5 -97
t63.5 -259h-173q17 86 -35 139t-147 53q-88 0 -161 -48.5t-85 -123.5q-2 -15 -3 -32t7.5 -35t22.5 -34.5t42 -31.5t67 -24l147 -39q161 -43 228 -141t26 -238q-47 -135 -169 -225t-288 -90q-119 0 -208 53t-127.5 138t-22.5 181z" />
    <glyph glyph-name="Scircumflex.sc" horiz-adv-x="1034" 
d="M864 1335l-98 148l-154 -148h-155l252 275h163l148 -275h-156zM168 354h174q-13 -85 45 -148t164 -63q105 0 174.5 49t91.5 119q13 36 7.5 66.5t-20 53t-40 40t-52 29t-57.5 18.5l-145 39q-70 19 -119 47.5t-73 60.5t-37.5 68t-11.5 70.5t5 68.5q24 146 157 241t292 95
q168 0 260.5 -97t63.5 -259h-173q17 86 -35 139t-147 53q-88 0 -161 -48.5t-85 -123.5q-2 -15 -3 -32t7.5 -35t22.5 -34.5t42 -31.5t67 -24l147 -39q161 -43 228 -141t26 -238q-47 -135 -169 -225t-288 -90q-119 0 -208 53t-127.5 138t-22.5 181z" />
    <glyph glyph-name="Scedilla.sc" horiz-adv-x="1036" 
d="M434 -193q6 -23 26.5 -33.5t43.5 -2.5q25 10 38.5 34.5t8.5 49.5l-29 127q-118 0 -206 53.5t-126.5 138.5t-21.5 180h174q-13 -82 45 -146.5t164 -64.5q105 0 174.5 49t91.5 119q13 36 7.5 66.5t-20 53t-40 40t-52 29t-57.5 18.5l-145 39q-71 17 -120.5 45.5t-73 60.5
t-37 69t-11 72t5.5 68q24 146 157 241t292 95q168 0 260.5 -97t63.5 -259h-173q17 86 -35 139t-147 53q-88 0 -161 -48.5t-85 -123.5q-2 -15 -3 -32t7.5 -35t22.5 -34.5t42 -31.5t67 -24l149 -39q161 -43 227 -141t25 -238q-37 -109 -129.5 -193t-216.5 -108l29 -94
q10 -37 4 -74q-11 -54 -48.5 -97.5t-97.5 -68.5q-27 -12 -71 -12q-50 0 -87 30.5t-49 81.5q-10 46 0 95l121 -9l-4 -16q-3 -16 0 -25z" />
    <glyph glyph-name="Utilde.sc" horiz-adv-x="1218" 
d="M784 1430q-14 0 -30 -18.5t-23 -55.5h-117q27 110 80.5 160.5t114.5 50.5q11 0 21.5 -2t17 -3.5t16 -7.5t12 -7.5t12.5 -10.5l11 -8l8 -8q32 -23 45 -23q15 0 31 16.5t23 53.5h114q-25 -111 -79.5 -160t-114.5 -49q-46 0 -95 45q-1 0 -2.5 1t-4 2.5t-5.5 2.5
q-4 3 -9.5 7.5t-8.5 7t-7.5 4.5t-9.5 2zM633 150q110 0 202.5 73.5t112.5 188.5l139 784h173l-140 -784q-36 -191 -184 -310.5t-332 -119.5q-88 0 -163 31t-125 86t-71 136.5t-3 176.5l139 784h174l-139 -784q-20 -116 44 -189t173 -73z" />
    <glyph glyph-name="Umacron.sc" horiz-adv-x="1218" 
d="M655 1528h445l-23 -150h-444zM633 150q110 0 202.5 73.5t112.5 188.5l139 784h173l-140 -784q-36 -191 -184 -310.5t-332 -119.5q-88 0 -163 31t-125 86t-71 136.5t-3 176.5l139 784h174l-139 -784q-20 -116 44 -189t173 -73z" />
    <glyph glyph-name="Ubreve.sc" horiz-adv-x="1218" 
d="M633 150q110 0 202.5 73.5t112.5 188.5l139 784h173l-140 -784q-36 -191 -184 -310.5t-332 -119.5q-88 0 -163 31t-125 86t-71 136.5t-3 176.5l139 784h174l-139 -784q-20 -116 44 -189t173 -73zM655 1567h140q-8 -44 12 -72.5t61 -28.5q39 0 69 31t36 70h143
q-20 -108 -93.5 -170t-178.5 -62q-115 0 -161.5 67t-27.5 165z" />
    <glyph glyph-name="Uring.sc" horiz-adv-x="1218" 
d="M633 150q110 0 202.5 73.5t112.5 188.5l139 784h173l-140 -784q-36 -191 -184 -310.5t-332 -119.5q-88 0 -163 31t-125 86t-71 136.5t-3 176.5l139 784h174l-139 -784q-20 -116 44 -189t173 -73zM684 1497q12 79 76 132.5t143 53.5q82 0 127 -53t31 -133
q-14 -78 -77.5 -131t-145.5 -53q-78 0 -122.5 53t-31.5 131zM788 1497q-6 -35 13.5 -58.5t52.5 -23.5q36 0 67 23.5t37 58.5t-15 59.5t-56 24.5q-33 0 -63 -24.5t-36 -59.5z" />
    <glyph glyph-name="Uhungarumlaut.sc" horiz-adv-x="1218" 
d="M633 150q110 0 202.5 73.5t112.5 188.5l139 784h173l-140 -784q-36 -191 -184 -310.5t-332 -119.5q-88 0 -163 31t-125 86t-71 136.5t-3 176.5l139 784h174l-139 -784q-20 -116 44 -189t173 -73zM981 1610l-213 -275h-156l195 275h174zM1227 1610l-234 -275h-155l213 275
h176z" />
    <glyph glyph-name="Uogonek.sc" horiz-adv-x="1222" 
d="M698 -193l2 3q5 5 9 22l4 16l125 9q-11 -54 -35 -95q-35 -53 -84.5 -82.5t-100.5 -29.5q-43 0 -67 12q-46 26 -68 69.5t-12 96.5q7 29 25 74l63 84q-168 18 -257.5 134t-57.5 292l139 784h174l-139 -784q-20 -116 44 -189t173 -73q110 0 202.5 73.5t112.5 188.5l140 784
h172l-140 -784q-31 -175 -157.5 -290t-292.5 -136q-9 -17 -34 -60.5t-38 -70.5q-29 -64 14 -84q51 -15 84 36z" />
    <glyph glyph-name="Wcircumflex.sc" horiz-adv-x="1607" 
d="M1587 1196h185l-617 -1196h-147l-80 721l-328 -721h-147l-195 1196h184l131 -913q54 113 169 365t180 388h129l82 -753zM1165 1335l-100 148l-152 -148h-155l248 275h163l152 -275h-156z" />
    <glyph glyph-name="Ycircumflex.sc" horiz-adv-x="1153" 
d="M938 1335l-100 148l-152 -148h-154l248 275h164l152 -275h-158zM664 0h-177l97 549l-340 647h202l252 -477l428 477h209l-575 -647z" />
    <glyph glyph-name="Tcaron.sc" horiz-adv-x="987" 
d="M750 1464l153 146h156l-252 -275h-164l-147 275h155zM258 1196h893l-29 -162h-360l-182 -1034h-174l182 1034h-359z" />
    <glyph glyph-name="Tbar.sc" horiz-adv-x="989" 
d="M705 717h229l-21 -117h-229l-104 -600h-172l104 600h-225l20 117h225l56 309h-363l31 170h899l-31 -170h-364z" />
    <glyph glyph-name="Zacute.sc" horiz-adv-x="1038" 
d="M117 147l776 887h-594l29 162h817l-27 -147l-780 -885h625l-29 -164h-842zM1055 1610l-267 -275h-163l225 275h205z" />
    <glyph glyph-name="Zdotaccent.sc" horiz-adv-x="1038" 
d="M117 147l776 887h-594l29 162h817l-27 -147l-780 -885h625l-29 -164h-842zM659 1487q7 46 46.5 76t87.5 30q50 0 76.5 -29.5t19.5 -76.5q-11 -48 -47.5 -78.5t-85.5 -30.5q-48 0 -77.5 31.5t-19.5 77.5z" />
    <glyph glyph-name="Wgrave.sc" horiz-adv-x="1607" 
d="M1587 1196h185l-617 -1196h-147l-80 721l-328 -721h-147l-195 1196h184l131 -913q54 113 169 365t180 388h129l82 -753zM967 1335l-168 275h205l126 -275h-163z" />
    <glyph glyph-name="Wacute.sc" horiz-adv-x="1607" 
d="M1374 1610l-264 -275h-164l225 275h203zM1587 1196h185l-617 -1196h-147l-80 721l-328 -721h-147l-195 1196h184l131 -913q54 113 169 365t180 388h129l82 -753z" />
    <glyph glyph-name="Wdieresis.sc" horiz-adv-x="1607" 
d="M805 1470q6 46 44.5 76.5t86.5 30.5q47 0 73.5 -30t20.5 -77q-7 -47 -45 -77.5t-86 -30.5t-74.5 30.5t-19.5 77.5zM1096 1470q6 46 45 76.5t88 30.5q47 0 72.5 -30t19.5 -77q-7 -47 -44 -77.5t-85 -30.5t-75.5 30.5t-20.5 77.5zM1587 1196h185l-617 -1196h-147l-80 721
l-328 -721h-147l-195 1196h184l131 -913q54 113 169 365t180 388h129l82 -753z" />
    <glyph glyph-name="Aringacute.sc" horiz-adv-x="1167" 
d="M1192 1886l-219 -229q37 -25 54 -68t7 -92q-14 -78 -77.5 -131t-145.5 -53q-78 0 -121 53t-31 131q10 63 53 111t103 65l172 213h205zM764 1497q-6 -35 12.5 -58.5t50.5 -23.5q37 0 68 23.5t37 58.5t-14.5 59.5t-57.5 24.5q-33 0 -61.5 -24.5t-34.5 -59.5zM475 457h377
q-16 86 -49.5 249.5t-50.5 249.5zM883 301h-494q-84 -146 -166 -301h-184l666 1196h180l243 -1196h-182z" />
    <glyph glyph-name="AEacute.sc" horiz-adv-x="1667" 
d="M1477 1610l-265 -275h-163l225 275h203zM467 297l-240 -297h-204l968 1196h758l-31 -170h-538l-64 -354h469l-29 -170h-469l-59 -332h557l-29 -170h-729l50 297h-410zM602 463h307l82 481z" />
    <glyph glyph-name="Oslashacute.sc" horiz-adv-x="1417" 
d="M1272 1610l-266 -275h-164l227 275h203zM350 111l-164 -142l-71 90l161 142q-109 175 -71 395q29 167 133 307.5t258 222.5t322 82q217 0 358 -135l164 137l73 -86l-161 -139q104 -179 65 -389q-30 -168 -134.5 -309t-258.5 -223t-322 -82q-214 0 -352 129zM377 596
q-27 -159 39 -274l721 628q-95 92 -246 92q-182 0 -331 -129.5t-183 -316.5zM729 150q182 0 331 129.5t183 316.5q27 149 -35 266l-719 -629q89 -83 240 -83z" />
    <glyph glyph-name="Ibreve.sc" horiz-adv-x="536" 
d="M315 1567h138q-8 -44 12 -72.5t61 -28.5t71 31t36 70h141q-20 -108 -93.5 -170t-178.5 -62q-113 0 -159.5 67t-27.5 165zM393 1196h172l-211 -1196h-172z" />
    <glyph glyph-name="Eng.sc" horiz-adv-x="1226" 
d="M862 -35l8 53l-364 850l-154 -868h-170l211 1196h166l369 -866l153 866h174l-211 -1184q-18 -94 -47.5 -166.5t-80 -136.5t-131 -98.5t-187.5 -34.5q-74 0 -133 21l43 170l100 -15q63 -3 109 17q120 45 145 196z" />
    <glyph glyph-name="Ygrave.sc" horiz-adv-x="1153" 
d="M745 1335l-165 275h202l127 -275h-164zM664 0h-177l97 549l-340 647h202l252 -477l428 477h209l-575 -647z" />
    <glyph glyph-name="Gcommaaccent.sc" horiz-adv-x="1349" 
d="M1300 1047l-143 -115q-98 112 -264 112q-183 0 -332.5 -131t-181.5 -317q-32 -187 70 -318t284 -131q156 0 275 84.5t151 223.5h-336l25 151h530q-56 -311 -232 -467.5t-441 -156.5q-169 0 -294 82t-179.5 223t-24.5 309q29 167 133.5 307.5t259 222.5t322.5 82
q242 0 378 -161zM580 -430l-105 35q59 65 88.5 116.5t42.5 120.5q3 13 4 37t4 37h166q-41 -230 -200 -346z" />
    <glyph glyph-name="Kcommaaccent.sc" horiz-adv-x="1054" 
d="M467 -430l-107 35q60 65 90.5 116.5t43.5 120.5q3 13 4 37t4 37h166q-41 -230 -201 -346zM592 598l461 -598h-236l-377 496l-86 -496h-172l211 1196h172l-88 -500l471 500h209z" />
    <glyph glyph-name="Lcommaaccent.sc" horiz-adv-x="880" 
d="M393 1196h172l-184 -1034h483l-26 -162h-656zM371 -430l-107 35q60 65 90 116t43 121q3 13 4.5 37t4.5 37h165q-41 -230 -200 -346z" />
    <glyph glyph-name="Ncommaaccent.sc" horiz-adv-x="1230" 
d="M1049 0h-164l-377 877l-154 -877h-172l211 1196h168l373 -866l153 866h173zM504 -430l-107 35q60 65 90 116t43 121q3 13 4.5 37t4.5 37h166q-41 -230 -201 -346z" />
    <glyph glyph-name="Rcommaaccent.sc" horiz-adv-x="1118" 
d="M774 451l240 -451h-209l-230 442h-143l-76 -442h-174l211 1196h461q73 0 130.5 -21t91 -57.5t55 -84.5t23 -102.5t-6.5 -111.5q-13 -70 -42 -131t-73.5 -111.5t-111 -84t-146.5 -41.5zM821 1036h-282l-78 -432h274q98 0 157.5 63t76.5 152q19 86 -18.5 151.5t-129.5 65.5
zM459 -430l-107 35q60 65 90 116t43 121q3 13 4.5 37t4.5 37h165q-41 -230 -200 -346z" />
    <glyph glyph-name="Tcommaaccent.sc" horiz-adv-x="987" 
d="M258 1196h893l-29 -162h-360l-182 -1034h-174l182 1034h-359zM350 -430l-104 35q59 64 88.5 115.5t42.5 121.5q3 13 5 37t5 37h166q-40 -228 -203 -346z" />
    <glyph glyph-name="Scommaaccent.sc" horiz-adv-x="1034" 
d="M168 354h174q-13 -85 45 -148t164 -63q105 0 174.5 49t91.5 119q13 36 7.5 66.5t-20 53t-40 40t-52 29t-57.5 18.5l-145 39q-70 19 -119 47.5t-73 60.5t-37.5 68t-11.5 70.5t5 68.5q24 146 157 241t292 95q168 0 260.5 -97t63.5 -259h-173q17 86 -35 139t-147 53
q-88 0 -161 -48.5t-85 -123.5q-2 -15 -3 -32t7.5 -35t22.5 -34.5t42 -31.5t67 -24l147 -39q161 -43 228 -141t26 -238q-47 -135 -169 -225t-288 -90q-119 0 -208 53t-127.5 138t-22.5 181zM403 -430l-104 35q59 65 88.5 116.5t42.5 120.5q3 13 4 37t4 37h166
q-39 -232 -201 -346z" />
    <glyph glyph-name="Idotaccent.sc" horiz-adv-x="536" 
d="M416 1487q7 46 46 76t87 30q50 0 76.5 -29.5t19.5 -76.5q-11 -48 -47.5 -78.5t-85.5 -30.5q-48 0 -77 31.5t-19 77.5zM393 1196h172l-211 -1196h-172z" />
    <glyph glyph-name="zero.numr" horiz-adv-x="745" 
d="M244 932q16 91 41.5 162.5t68 130.5t107.5 91t149 32t138 -33t73.5 -89.5t22.5 -132t-15 -161.5q-18 -91 -43 -159.5t-66 -128t-105.5 -91t-149.5 -31.5q-300 0 -221 410zM365 932q-12 -82 -12 -146.5t33 -104.5t99 -40q175 0 224 291q12 83 12.5 148.5t-32 106
t-99.5 40.5q-176 0 -225 -295z" />
    <glyph glyph-name="one.numr" horiz-adv-x="428" 
d="M287 532l110 625l-153 -72l20 117l289 144l-143 -814h-123z" />
    <glyph glyph-name="two.numr" horiz-adv-x="653" 
d="M176 590l391 391q67 67 78 125q10 54 -23 89.5t-90 35.5q-55 0 -102.5 -36.5t-67.5 -96.5l-102 28q35 101 116.5 161.5t176.5 60.5q108 0 168.5 -67.5t42.5 -174.5q-20 -112 -123 -209l-252 -244h297l-20 -121h-500z" />
    <glyph glyph-name="three.numr" horiz-adv-x="657" 
d="M383 1153l-80 74q47 60 116.5 92.5t141.5 28.5q101 -6 153.5 -71.5t33.5 -154.5q-18 -89 -111 -155q102 -57 78 -197q-19 -117 -111.5 -181.5t-210.5 -64.5q-74 0 -139 45t-86 115l113 59q12 -41 54 -69.5t87 -28.5q63 0 111.5 33.5t58.5 89.5q14 55 -15 95t-88 40h-114
l20 117h97q40 0 71 23.5t45 60.5q18 53 -6.5 88t-85.5 35q-71 0 -133 -74z" />
    <glyph glyph-name="four.numr" horiz-adv-x="739" 
d="M692 694l-30 -162h-121l30 162h-415l559 643h90l-94 -528h114l-18 -115h-115zM383 809h207l53 307z" />
    <glyph glyph-name="five.numr" horiz-adv-x="696" 
d="M176 690l113 72q12 -58 55.5 -90.5t101.5 -32.5q82 0 137 44t68 110q11 67 -28.5 103t-100.5 36q-51 0 -102.5 -14.5t-136.5 -53.5l-29 47l147 424h412l-22 -114h-312q-13 -42 -38 -111.5t-31 -85.5q68 27 135 27q116 0 180 -67.5t45 -190.5q-23 -124 -117.5 -198.5
t-228.5 -74.5q-88 0 -155 45t-93 125z" />
    <glyph glyph-name="six.numr" horiz-adv-x="692" 
d="M821 1180l-114 -45q-32 94 -115 94q-77 0 -139 -76.5t-82 -194.5q70 97 182 97q110 0 167 -83.5t36 -197.5q-25 -112 -117.5 -186t-202.5 -70q-107 5 -165 78t-46 199q6 47 13.5 91t23 101.5t34.5 105.5t49.5 96.5t67 81.5t88 53t111.5 19q38 -3 67 -10t58.5 -24
t50.5 -49.5t33 -79.5zM350 793q-13 -62 20.5 -106t94.5 -46q59 -4 108.5 37t61.5 102q14 63 -16.5 107t-90.5 45q-63 2 -114.5 -38t-63.5 -101z" />
    <glyph glyph-name="seven.numr" horiz-adv-x="659" 
d="M872 1337l-581 -805h-141l495 685h-356l20 120h563z" />
    <glyph glyph-name="eight.numr" horiz-adv-x="700" 
d="M334 1137q17 89 89 150t165 61q94 0 147.5 -61.5t36.5 -149.5q-15 -79 -84 -138q48 -36 70 -92.5t10 -122.5q-20 -111 -114 -186.5t-212 -75.5q-117 0 -184 76t-47 186q26 145 151 215q-44 59 -28 138zM332 784q-11 -60 26.5 -101.5t104.5 -41.5t119.5 42t64.5 101
q11 61 -27.5 107.5t-103.5 46.5h-8q-64 0 -114.5 -46t-61.5 -108zM455 1137q-6 -36 14.5 -64.5t58.5 -32.5h11q42 4 73 32.5t37 64.5q6 37 -17.5 63.5t-64.5 26.5t-73.5 -26.5t-38.5 -63.5z" />
    <glyph glyph-name="nine.numr" horiz-adv-x="690" 
d="M197 684l116 45q32 -94 113 -94q77 0 139 76t82 194q-66 -96 -180 -96q-109 0 -167.5 84.5t-33.5 196.5q25 113 116 186.5t200 69.5q110 -5 167.5 -78t45.5 -199q-6 -48 -14 -91t-23.5 -101.5t-34.5 -106.5t-49.5 -97t-67.5 -81.5t-88.5 -53t-111.5 -18.5
q-166 4 -209 164zM672 1071q10 62 -24 104.5t-95 47.5q-59 1 -106.5 -39t-61.5 -101q-17 -62 14.5 -105.5t92.5 -45.5q62 -1 112.5 38t67.5 101z" />
    <glyph glyph-name="zero.dnom" horiz-adv-x="745" 
d="M150 399q71 416 368 416q85 0 138.5 -33t73 -89.5t21.5 -132t-16 -161.5q-16 -90 -41 -159t-66.5 -128t-106.5 -90.5t-150 -31.5q-69 0 -117 21.5t-74 57.5t-36.5 90t-8 111.5t14.5 128.5zM270 399q-15 -82 -13.5 -146.5t36 -104t100.5 -39.5q41 0 73.5 15.5t55 40
t40.5 63.5t29.5 78.5t22.5 92.5q60 295 -116 295q-50 0 -89 -22.5t-65 -65t-43.5 -92t-30.5 -115.5z" />
    <glyph glyph-name="one.dnom" horiz-adv-x="428" 
d="M193 0l106 625l-149 -72l20 117l289 143l-144 -813h-122z" />
    <glyph glyph-name="two.dnom" horiz-adv-x="653" 
d="M82 57l393 392q67 67 78 124q10 54 -23 89.5t-90 35.5q-55 0 -102.5 -36.5t-67.5 -96.5l-104 29q35 101 117 161t178 60q108 0 168.5 -67.5t42.5 -174.5q-19 -107 -127 -208l-250 -244h297l-19 -121h-499z" />
    <glyph glyph-name="three.dnom" horiz-adv-x="657" 
d="M289 621l-78 73q47 60 116.5 92.5t141.5 28.5q99 -4 150.5 -70t33.5 -155q-12 -87 -108 -156q102 -60 78 -196q-19 -116 -112.5 -181t-209.5 -65q-73 0 -139.5 45.5t-87.5 114.5l112 59q12 -40 55.5 -69t88.5 -29q63 0 110.5 33.5t57.5 89.5q14 55 -15 95t-88 40h-114
l20 116h96q40 0 72.5 24t46.5 60q18 53 -6.5 88t-85.5 35q-71 0 -135 -73z" />
    <glyph glyph-name="four.dnom" horiz-adv-x="739" 
d="M596 162l-27 -162h-120l26 162h-416l564 643h90l-97 -529h115l-20 -114h-115zM289 276h207l55 308z" />
    <glyph glyph-name="five.dnom" horiz-adv-x="696" 
d="M82 158l113 71q12 -58 56.5 -90.5t102.5 -32.5q82 0 136 44t65 110q11 67 -28 103t-99 36q-99 0 -238 -67l-30 47l149 424h412l-23 -115h-311q-19 -54 -72 -196q62 26 134 26q74 0 130 -28.5t83.5 -88t11.5 -141.5q-23 -125 -116 -198.5t-226 -73.5q-88 0 -156 45
t-94 125z" />
    <glyph glyph-name="six.dnom" horiz-adv-x="692" 
d="M727 647l-117 -45q-32 94 -112 94q-78 0 -140 -76t-82 -194q66 96 181 96q110 0 166.5 -83t35.5 -197q-25 -112 -116.5 -186.5t-200.5 -69.5q-108 5 -166.5 78t-46.5 198q4 44 11.5 90.5t23 102.5t35.5 105.5t51.5 97t68.5 81.5t88.5 54t110.5 18q36 -3 65 -10.5
t58.5 -24.5t51.5 -49.5t34 -79.5zM252 260q-10 -62 24 -104t95 -47q59 -1 106.5 38.5t61.5 100.5q17 62 -14.5 105.5t-92.5 45.5q-62 1 -112.5 -38t-67.5 -101z" />
    <glyph glyph-name="seven.dnom" horiz-adv-x="657" 
d="M780 805l-581 -805h-142l494 684h-356l22 121h563z" />
    <glyph glyph-name="eight.dnom" horiz-adv-x="700" 
d="M238 604q12 87 87.5 149t168.5 62t144.5 -61t37.5 -150q-11 -69 -82 -137q46 -37 68 -93.5t10 -121.5q-20 -111 -114 -186.5t-212 -75.5q-119 0 -185 75.5t-46 186.5q26 144 153 215q-42 54 -30 137zM236 252q-11 -60 27.5 -101.5t105.5 -41.5q66 0 118.5 41.5
t63.5 101.5q11 61 -27.5 107.5t-103.5 46.5h-8q-64 0 -114.5 -46t-61.5 -108zM358 604q-6 -37 15.5 -66.5t58.5 -29.5l10 2q41 4 73 31.5t38 62.5q6 37 -16.5 63.5t-63.5 26.5t-75 -26.5t-40 -63.5z" />
    <glyph glyph-name="nine.dnom" horiz-adv-x="690" 
d="M102 152l119 45q13 -48 44 -71.5t69 -23.5q78 0 138 76t81 195q-67 -97 -180 -97q-109 0 -167.5 84.5t-33.5 196.5t116.5 186.5t200.5 69.5q107 -5 165 -77.5t48 -198.5q-5 -45 -13 -90t-23.5 -101.5t-35.5 -106t-51 -98t-68 -82t-88 -53.5t-110 -18q-168 4 -211 164z
M578 539q10 62 -23 104t-94 47q-60 1 -108 -39t-62 -100q-14 -63 16 -107t90 -45q63 -2 115.5 38.5t65.5 101.5z" />
    <glyph glyph-name="l.alt1" horiz-adv-x="571" 
d="M598 174l-31 -174h-80q-346 0 -272 410l191 1067h188l-191 -1065q-50 -238 132 -238h63z" />
    <glyph glyph-name="a.alt1" horiz-adv-x="1105" 
d="M471 145q86 0 190.5 42.5t165.5 119.5l15 70q-69 23 -147.5 36t-129.5 13q-70 0 -121.5 -14t-79.5 -38t-41.5 -47.5t-17.5 -50.5q-11 -57 30.5 -94t135.5 -37zM365 686l-97 111q85 98 200 139t228 41q207 0 305 -103.5t62 -298.5l-23 -122l-77 -453h-185l19 123
q-62 -70 -162.5 -106.5t-198.5 -36.5q-166 0 -249 78t-58 218q22 134 137 218t326 84q121 0 276 -52l11 49q19 106 -40 170t-186 64q-72 0 -151 -32.5t-137 -90.5z" />
    <glyph glyph-name="y.alt1" horiz-adv-x="1040" 
d="M346 -98l76 127l-217 927h198l162 -688l410 688h199l-668 -1126q-72 -115 -132 -178.5t-135 -96t-176 -32.5q-58 0 -108 14l31 164q33 -6 104 -6q86 0 136.5 45.5t119.5 161.5z" />
    <glyph glyph-name="lslash.alt1" horiz-adv-x="593" 
d="M614 174l-28 -174h-80q-349 0 -275 410l43 241l-149 -86l25 131l149 86l123 695h188l-102 -574l174 101l-25 -132l-172 -100l-65 -360q-50 -238 131 -238h63z" />
    <glyph glyph-name="lacute.alt1" horiz-adv-x="571" 
d="M903 1907l-297 -316h-178l252 316h223zM598 174l-31 -174h-80q-346 0 -272 410l191 1067h188l-191 -1065q-50 -238 132 -238h63z" />
    <glyph glyph-name="lcommaaccent.alt1" horiz-adv-x="571" 
d="M250 -512l-111 39q77 82 113 158.5t43 197.5h184q-23 -143 -86 -242t-143 -153zM596 174l-29 -174h-80q-348 0 -274 410l190 1067h189l-191 -1065q-50 -238 131 -238h64z" />
    <glyph glyph-name="lcaron.alt1" horiz-adv-x="571" 
d="M727 1081l-111 39q76 79 111 156t47 201h184q-44 -266 -231 -396zM598 174l-31 -174h-80q-346 0 -272 410l191 1067h188l-191 -1065q-50 -238 132 -238h63z" />
    <glyph glyph-name="aacute.alt1" horiz-adv-x="1105" 
d="M1102 1450l-299 -315h-178l254 315h223zM471 145q86 0 190.5 42.5t165.5 119.5l15 70q-69 23 -147.5 36t-129.5 13q-70 0 -121.5 -14t-79.5 -38t-41.5 -47.5t-17.5 -50.5q-11 -57 30.5 -94t135.5 -37zM365 686l-97 111q85 98 200 139t228 41q207 0 305 -103.5t62 -298.5
l-23 -122l-77 -453h-185l19 123q-62 -70 -162.5 -106.5t-198.5 -36.5q-166 0 -249 78t-58 218q22 134 137 218t326 84q121 0 276 -52l11 49q19 106 -40 170t-186 64q-72 0 -151 -32.5t-137 -90.5z" />
    <glyph glyph-name="agrave.alt1" horiz-adv-x="1105" 
d="M670 1135l-189 315h224l143 -315h-178zM471 145q86 0 190.5 42.5t165.5 119.5l15 70q-69 23 -147.5 36t-129.5 13q-70 0 -121.5 -14t-79.5 -38t-41.5 -47.5t-17.5 -50.5q-11 -57 30.5 -94t135.5 -37zM365 686l-97 111q85 98 200 139t228 41q207 0 305 -103.5t62 -298.5
l-23 -122l-77 -453h-185l19 123q-62 -70 -162.5 -106.5t-198.5 -36.5q-166 0 -249 78t-58 218q22 134 137 218t326 84q121 0 276 -52l11 49q19 106 -40 170t-186 64q-72 0 -151 -32.5t-137 -90.5z" />
    <glyph glyph-name="acircumflex.alt1" horiz-adv-x="1105" 
d="M872 1135l-120 178l-185 -178h-168l281 315h190l170 -315h-168zM471 145q86 0 190.5 42.5t165.5 119.5l15 70q-69 23 -147.5 36t-129.5 13q-70 0 -121.5 -14t-79.5 -38t-41.5 -47.5t-17.5 -50.5q-11 -57 30.5 -94t135.5 -37zM365 686l-97 111q85 98 200 139t228 41
q207 0 305 -103.5t62 -298.5l-23 -122l-77 -453h-185l19 123q-62 -70 -162.5 -106.5t-198.5 -36.5q-166 0 -249 78t-58 218q22 134 137 218t326 84q121 0 276 -52l11 49q19 106 -40 170t-186 64q-72 0 -151 -32.5t-137 -90.5z" />
    <glyph glyph-name="adieresis.alt1" horiz-adv-x="1105" 
d="M475 1290q10 54 52 87.5t96 33.5q52 0 83 -34t21 -87t-51.5 -87t-93.5 -34q-55 0 -86 34t-21 87zM821 1290q10 54 52 87.5t96 33.5q55 0 85.5 -34t20.5 -87q-10 -54 -51.5 -87.5t-95.5 -33.5q-55 0 -86 34t-21 87zM471 145q86 0 190.5 42.5t165.5 119.5l15 70
q-69 23 -147.5 36t-129.5 13q-70 0 -121.5 -14t-79.5 -38t-41.5 -47.5t-17.5 -50.5q-11 -57 30.5 -94t135.5 -37zM365 686l-97 111q85 98 200 139t228 41q207 0 305 -103.5t62 -298.5l-23 -122l-77 -453h-185l19 123q-62 -70 -162.5 -106.5t-198.5 -36.5q-166 0 -249 78
t-58 218q22 134 137 218t326 84q121 0 276 -52l11 49q19 106 -40 170t-186 64q-72 0 -151 -32.5t-137 -90.5z" />
    <glyph glyph-name="atilde.alt1" horiz-adv-x="1105" 
d="M647 1249q-20 0 -39.5 -21.5t-29.5 -68.5h-125q27 124 90 182t133 58q10 0 20 -1.5t17 -3t15.5 -5.5t12.5 -6t12 -7.5t10.5 -7.5t10.5 -9.5t10 -8.5q6 -4 15.5 -12.5t14 -12t12.5 -7t16 -3.5q21 0 41.5 19.5t31.5 64.5h125q-15 -64 -42 -112t-58.5 -73t-62.5 -37t-62 -12
q-25 0 -48 10t-31.5 17t-28.5 25q-2 2 -10.5 8.5t-10.5 8t-8.5 6t-10 5.5t-9 2.5t-11.5 1.5zM471 145q86 0 190.5 42.5t165.5 119.5l15 70q-69 23 -147.5 36t-129.5 13q-70 0 -121.5 -14t-79.5 -38t-41.5 -47.5t-17.5 -50.5q-11 -57 30.5 -94t135.5 -37zM365 686l-97 111
q85 98 200 139t228 41q207 0 305 -103.5t62 -298.5l-23 -122l-77 -453h-185l19 123q-62 -70 -162.5 -106.5t-198.5 -36.5q-166 0 -249 78t-58 218q22 134 137 218t326 84q121 0 276 -52l11 49q19 106 -40 170t-186 64q-72 0 -151 -32.5t-137 -90.5z" />
    <glyph glyph-name="aring.alt1" horiz-adv-x="1105" 
d="M547 1321q17 92 89 154.5t163 62.5q93 0 145 -62.5t35 -154.5q-17 -91 -91 -152t-167 -61q-90 0 -140.5 61.5t-33.5 151.5zM657 1321q-8 -43 16.5 -73.5t67.5 -30.5q47 0 85 30.5t46 73.5q7 47 -19 78t-73 31q-43 0 -79.5 -31t-43.5 -78zM471 145q86 0 190.5 42.5
t165.5 119.5l15 70q-69 23 -147.5 36t-129.5 13q-70 0 -121.5 -14t-79.5 -38t-41.5 -47.5t-17.5 -50.5q-11 -57 30.5 -94t135.5 -37zM365 686l-97 111q85 98 200 139t228 41q207 0 305 -103.5t62 -298.5l-23 -122l-77 -453h-185l19 123q-62 -70 -162.5 -106.5t-198.5 -36.5
q-166 0 -249 78t-58 218q22 134 137 218t326 84q121 0 276 -52l11 49q19 106 -40 170t-186 64q-72 0 -151 -32.5t-137 -90.5z" />
    <glyph glyph-name="amacron.alt1" horiz-adv-x="1105" 
d="M518 1352h516l-28 -164h-517zM471 145q86 0 190.5 42.5t165.5 119.5l15 70q-69 23 -147.5 36t-129.5 13q-70 0 -121.5 -14t-79.5 -38t-41.5 -47.5t-17.5 -50.5q-11 -57 30.5 -94t135.5 -37zM365 686l-97 111q85 98 200 139t228 41q207 0 305 -103.5t62 -298.5l-23 -122
l-77 -453h-185l19 123q-62 -70 -162.5 -106.5t-198.5 -36.5q-166 0 -249 78t-58 218q22 134 137 218t326 84q121 0 276 -52l11 49q19 106 -40 170t-186 64q-72 0 -151 -32.5t-137 -90.5z" />
    <glyph glyph-name="abreve.alt1" horiz-adv-x="1105" 
d="M530 1399h152q-12 -54 13 -87.5t79 -33.5q50 0 86.5 36.5t48.5 84.5h156q-23 -122 -108 -192t-209 -70q-133 0 -186.5 76t-31.5 186zM471 145q86 0 190.5 42.5t165.5 119.5l15 70q-69 23 -147.5 36t-129.5 13q-70 0 -121.5 -14t-79.5 -38t-41.5 -47.5t-17.5 -50.5
q-11 -57 30.5 -94t135.5 -37zM365 686l-97 111q85 98 200 139t228 41q207 0 305 -103.5t62 -298.5l-23 -122l-77 -453h-185l19 123q-62 -70 -162.5 -106.5t-198.5 -36.5q-166 0 -249 78t-58 218q22 134 137 218t326 84q121 0 276 -52l11 49q19 106 -40 170t-186 64
q-72 0 -151 -32.5t-137 -90.5z" />
    </font>
</defs>
</svg>
