SplineFontDB: 3.2
FontName: SonianoSansUnicodeRegular
FullName: Soniano Sans Unicode Regular
FamilyName: Soniano Sans Unicode
Weight: Book
Copyright: (c) 2009, 2010, 2011, 2012, 2013 Grand Chaos Productions. Some Rights Reserved.
Version: 1.0 - 5/27/2013
ItalicAngle: 0
UnderlinePosition: 77
UnderlineWidth: 51
Ascent: 819
Descent: 205
InvalidEm: 0
sfntRevision: 0x00010000
LayerCount: 2
Layer: 0 1 "Back" 1
Layer: 1 1 "Fore" 0
XUID: [1021 811 -1780499127 20378]
StyleMap: 0x0040
FSType: 4
OS2Version: 3
OS2_WeightWidthSlopeOnly: 0
OS2_UseTypoMetrics: 0
CreationTime: 1369693861
ModificationTime: 1672873300
PfmFamily: 17
TTFWeight: 400
TTFWidth: 5
LineGap: 103
VLineGap: 0
Panose: 2 11 5 3 1 1 1 1 1 1
OS2TypoAscent: 672
OS2TypoAOffset: 0
OS2TypoDescent: -192
OS2TypoDOffset: 0
OS2TypoLinegap: 103
OS2WinAscent: 912
OS2WinAOffset: 0
OS2WinDescent: 240
OS2WinDOffset: 0
HheadAscent: 672
HheadAOffset: 0
HheadDescent: -192
HheadDOffset: 0
OS2SubXSize: 512
OS2SubYSize: 512
OS2SubXOff: 0
OS2SubYOff: -96
OS2SupXSize: 512
OS2SupYSize: 512
OS2SupXOff: 0
OS2SupYOff: 512
OS2StrikeYSize: 51
OS2StrikeYPos: 204
OS2CapHeight: 672
OS2XHeight: 480
OS2FamilyClass: 2063
OS2Vendor: 'HL  '
OS2CodePages: 2000019f.4f010000
OS2UnicodeRanges: e00002bf.4000021a.00141000.00000000
DEI: 91125
TtTable: prep
PUSHW_1
 0
CALL
EndTTInstrs
TtTable: fpgm
PUSHW_1
 0
FDEF
MPPEM
PUSHW_1
 8
LT
IF
PUSHB_2
 1
 1
INSTCTRL
EIF
PUSHW_1
 511
SCANCTRL
PUSHW_1
 68
SCVTCI
PUSHW_2
 8
 3
SDS
SDB
ENDF
PUSHW_1
 1
FDEF
DUP
DUP
RCVT
ROUND[Black]
WCVTP
PUSHB_1
 1
ADD
ENDF
PUSHW_1
 2
FDEF
PUSHW_1
 1
LOOPCALL
POP
ENDF
PUSHW_1
 3
FDEF
DUP
GC[cur]
PUSHB_1
 3
CINDEX
GC[cur]
GT
IF
SWAP
EIF
DUP
ROLL
DUP
ROLL
MD[grid]
ABS
ROLL
DUP
GC[cur]
DUP
ROUND[Grey]
SUB
ABS
PUSHB_1
 4
CINDEX
GC[cur]
DUP
ROUND[Grey]
SUB
ABS
GT
IF
SWAP
NEG
ROLL
EIF
MDAP[rnd]
DUP
PUSHB_1
 0
GTEQ
IF
ROUND[Black]
DUP
PUSHB_1
 0
EQ
IF
POP
PUSHB_1
 64
EIF
ELSE
ROUND[Black]
DUP
PUSHB_1
 0
EQ
IF
POP
PUSHB_1
 64
NEG
EIF
EIF
MSIRP[no-rp0]
ENDF
PUSHW_1
 4
FDEF
DUP
GC[cur]

StartChar: .notdef
Encoding: 65536 -1 0
Width: 640
Flags: W
LayerCount: 2
Fore
SplineSet
480 96 m 1,0,-1
 480 576 l 1,1,-1
 160 576 l 1,2,-1
 160 96 l 1,3,-1
 480 96 l 1,0,-1
40 0 m 1,4,-1
 40 672 l 1,5,-1
 600 672 l 1,6,-1
 600 0 l 1,7,-1
 40 0 l 1,4,-1
EndSplineSet
Validated: 1
EndChar

StartChar: exclam
Encoding: 33 33 2
Width: 280
Flags: W
LayerCount: 2
Fore
SplineSet
80 0 m 1,0,-1
 80 120 l 1,1,-1
 200 120 l 1,2,-1
 200 0 l 1,3,-1
 80 0 l 1,0,-1
80 192 m 1,4,-1
 80 672 l 1,5,-1
 200 672 l 1,6,-1
 200 192 l 1,7,-1
 80 192 l 1,4,-1
EndSplineSet
Validated: 1
EndChar

StartChar: quotedbl
Encoding: 34 34 3
Width: 400
Flags: W
LayerCount: 2
Fore
SplineSet
80 480 m 1,0,-1
 40 576 l 1,1,-1
 40 696 l 1,2,-1
 160 696 l 1,3,-1
 160 576 l 1,4,-1
 120 480 l 1,5,-1
 80 480 l 1,0,-1
280 480 m 1,6,-1
 240 576 l 1,7,-1
 240 696 l 1,8,-1
 360 696 l 1,9,-1
 360 576 l 1,10,-1
 320 480 l 1,11,-1
 280 480 l 1,6,-1
EndSplineSet
Validated: 1
EndChar

StartChar: numbersign
Encoding: 35 35 4
Width: 760
Flags: W
LayerCount: 2
Fore
SplineSet
480 240 m 1,0,-1
 480 432 l 1,1,-1
 280 432 l 1,2,-1
 280 240 l 1,3,-1
 480 240 l 1,0,-1
160 0 m 1,4,-1
 160 144 l 1,5,-1
 40 144 l 1,6,-1
 40 240 l 1,7,-1
 160 240 l 1,8,-1
 160 432 l 1,9,-1
 40 432 l 1,10,-1
 40 528 l 1,11,-1
 160 528 l 1,12,-1
 160 672 l 1,13,-1
 280 672 l 1,14,-1
 280 528 l 1,15,-1
 480 528 l 1,16,-1
 480 672 l 1,17,-1
 600 672 l 1,18,-1
 600 528 l 1,19,-1
 720 528 l 1,20,-1
 720 432 l 1,21,-1
 600 432 l 1,22,-1
 600 240 l 1,23,-1
 720 240 l 1,24,-1
 720 144 l 1,25,-1
 600 144 l 1,26,-1
 600 0 l 1,27,-1
 480 0 l 1,28,-1
 480 144 l 1,29,-1
 280 144 l 1,30,-1
 280 0 l 1,31,-1
 160 0 l 1,4,-1
EndSplineSet
Validated: 1
EndChar

StartChar: dollar
Encoding: 36 36 5
Width: 640
Flags: W
LayerCount: 2
Fore
SplineSet
200 -96 m 1,0,-1
 200 0 l 1,1,-1
 160 0 l 1,2,-1
 80 48 l 1,3,-1
 40 144 l 1,4,-1
 120 192 l 1,5,-1
 160 192 l 1,6,-1
 160 144 l 1,7,-1
 200 96 l 1,8,-1
 440 96 l 1,9,-1
 480 144 l 1,10,-1
 480 240 l 1,11,-1
 440 288 l 1,12,-1
 160 288 l 1,13,-1
 80 336 l 1,14,-1
 40 432 l 1,15,-1
 40 528 l 1,16,-1
 80 624 l 1,17,-1
 160 672 l 1,18,-1
 200 672 l 1,19,-1
 200 768 l 1,20,-1
 280 768 l 1,21,-1
 280 672 l 1,22,-1
 360 672 l 1,23,-1
 360 768 l 1,24,-1
 440 768 l 1,25,-1
 440 672 l 1,26,-1
 520 624 l 1,27,-1
 560 528 l 1,28,-1
 480 480 l 1,29,-1
 440 480 l 1,30,-1
 440 528 l 1,31,-1
 400 576 l 1,32,-1
 200 576 l 1,33,-1
 160 528 l 1,34,-1
 160 432 l 1,35,-1
 200 384 l 1,36,-1
 480 384 l 1,37,-1
 560 336 l 1,38,-1
 600 240 l 1,39,-1
 600 144 l 1,40,-1
 560 48 l 1,41,-1
 480 0 l 1,42,-1
 440 0 l 1,43,-1
 440 -96 l 1,44,-1
 360 -96 l 1,45,-1
 360 0 l 1,46,-1
 280 0 l 1,47,-1
 280 -96 l 1,48,-1
 200 -96 l 1,0,-1
EndSplineSet
Validated: 1
EndChar

StartChar: uni0025
Encoding: 37 37 6
Width: 960
Flags: W
LayerCount: 2
Fore
SplineSet
760 96 m 1,0,-1
 800 144 l 1,1,-1
 800 240 l 1,2,-1
 760 288 l 1,3,-1
 720 288 l 1,4,-1
 680 240 l 1,5,-1
 680 144 l 1,6,-1
 720 96 l 1,7,-1
 760 96 l 1,0,-1
680 0 m 1,8,-1
 600 48 l 1,9,-1
 560 144 l 1,10,-1
 560 240 l 1,11,-1
 600 336 l 1,12,-1
 680 384 l 1,13,-1
 800 384 l 1,14,-1
 880 336 l 1,15,-1
 920 240 l 1,16,-1
 920 144 l 1,17,-1
 880 48 l 1,18,-1
 800 0 l 1,19,-1
 680 0 l 1,8,-1
240 384 m 1,20,-1
 280 432 l 1,21,-1
 280 528 l 1,22,-1
 240 576 l 1,23,-1
 200 576 l 1,24,-1
 160 528 l 1,25,-1
 160 432 l 1,26,-1
 200 384 l 1,27,-1
 240 384 l 1,20,-1
160 288 m 1,28,-1
 80 336 l 1,29,-1
 40 432 l 1,30,-1
 40 528 l 1,31,-1
 80 624 l 1,32,-1
 160 672 l 1,33,-1
 280 672 l 1,34,-1
 360 624 l 1,35,-1
 400 528 l 1,36,-1
 400 432 l 1,37,-1
 360 336 l 1,38,-1
 280 288 l 1,39,-1
 160 288 l 1,28,-1
280 0 m 1,40,-1
 560 672 l 1,41,-1
 680 672 l 1,42,-1
 400 0 l 1,43,-1
 280 0 l 1,40,-1
EndSplineSet
Validated: 1
EndChar

StartChar: ampersand
Encoding: 38 38 7
Width: 720
Flags: W
LayerCount: 2
Fore
SplineSet
440 96 m 1,0,-1
 480 120 l 1,1,-1
 480 288 l 1,2,-1
 200 288 l 1,3,-1
 160 240 l 1,4,-1
 160 144 l 1,5,-1
 200 96 l 1,6,-1
 440 96 l 1,0,-1
160 0 m 1,7,-1
 80 48 l 1,8,-1
 40 144 l 1,9,-1
 40 240 l 1,10,-1
 60 288 l 1,11,-1
 100 336 l 1,12,-1
 60 384 l 1,13,-1
 40 432 l 1,14,-1
 40 528 l 1,15,-1
 80 624 l 1,16,-1
 160 672 l 1,17,-1
 480 672 l 1,18,-1
 560 624 l 1,19,-1
 600 528 l 1,20,-1
 520 480 l 1,21,-1
 480 480 l 1,22,-1
 480 528 l 1,23,-1
 440 576 l 1,24,-1
 200 576 l 1,25,-1
 160 528 l 1,26,-1
 160 432 l 1,27,-1
 200 384 l 1,28,-1
 480 384 l 1,29,-1
 480 432 l 1,30,-1
 600 432 l 1,31,-1
 600 384 l 1,32,-1
 680 384 l 1,33,-1
 680 288 l 1,34,-1
 600 288 l 1,35,-1
 600 0 l 1,36,-1
 480 0 l 1,37,-1
 480 48 l 1,38,-1
 400 0 l 1,39,-1
 160 0 l 1,7,-1
EndSplineSet
Validated: 1
EndChar

StartChar: quotesingle
Encoding: 39 39 8
Width: 280
Flags: W
LayerCount: 2
Fore
SplineSet
120 480 m 1,0,-1
 80 576 l 1,1,-1
 80 696 l 1,2,-1
 200 696 l 1,3,-1
 200 576 l 1,4,-1
 160 480 l 1,5,-1
 120 480 l 1,0,-1
EndSplineSet
Validated: 1
EndChar

StartChar: parenleft
Encoding: 40 40 9
Width: 400
Flags: W
LayerCount: 2
Fore
SplineSet
240 -96 m 1,0,-1
 160 -48 l 1,1,-1
 120 0 l 1,2,-1
 80 96 l 1,3,-1
 80 480 l 1,4,-1
 120 576 l 1,5,-1
 160 624 l 1,6,-1
 240 672 l 1,7,-1
 320 672 l 1,8,-1
 320 600 l 1,9,-1
 280 576 l 1,10,-1
 240 528 l 1,11,-1
 200 432 l 1,12,-1
 200 144 l 1,13,-1
 240 48 l 1,14,-1
 280 0 l 1,15,-1
 320 -24 l 1,16,-1
 320 -96 l 1,17,-1
 240 -96 l 1,0,-1
EndSplineSet
Validated: 1
EndChar

StartChar: parenright
Encoding: 41 41 10
Width: 400
Flags: W
LayerCount: 2
Fore
SplineSet
80 -96 m 1,0,-1
 80 -24 l 1,1,-1
 120 0 l 1,2,-1
 160 48 l 1,3,-1
 200 144 l 1,4,-1
 200 432 l 1,5,-1
 160 528 l 1,6,-1
 120 576 l 1,7,-1
 80 600 l 1,8,-1
 80 672 l 1,9,-1
 160 672 l 1,10,-1
 240 624 l 1,11,-1
 280 576 l 1,12,-1
 320 480 l 1,13,-1
 320 96 l 1,14,-1
 280 0 l 1,15,-1
 240 -48 l 1,16,-1
 160 -96 l 1,17,-1
 80 -96 l 1,0,-1
EndSplineSet
Validated: 1
EndChar

StartChar: asterisk
Encoding: 42 42 11
Width: 400
Flags: W
LayerCount: 2
Fore
SplineSet
140 348 m 1,0,-1
 80 384 l 1,1,-1
 120 480 l 1,2,-1
 40 480 l 1,3,-1
 40 576 l 1,4,-1
 120 576 l 1,5,-1
 80 672 l 1,6,-1
 140 708 l 1,7,-1
 150 696 l 1,8,-1
 200 576 l 1,9,-1
 250 696 l 1,10,-1
 260 708 l 1,11,-1
 320 672 l 1,12,-1
 280 576 l 1,13,-1
 360 576 l 1,14,-1
 360 480 l 1,15,-1
 280 480 l 1,16,-1
 320 384 l 1,17,-1
 260 348 l 1,18,-1
 250 360 l 1,19,-1
 200 480 l 1,20,-1
 150 360 l 1,21,-1
 140 348 l 1,0,-1
EndSplineSet
Validated: 1
EndChar

StartChar: plus
Encoding: 43 43 12
Width: 520
Flags: W
LayerCount: 2
Fore
SplineSet
200 144 m 1,0,-1
 200 288 l 1,1,-1
 40 288 l 1,2,-1
 40 384 l 1,3,-1
 200 384 l 1,4,-1
 200 528 l 1,5,-1
 320 528 l 1,6,-1
 320 384 l 1,7,-1
 480 384 l 1,8,-1
 480 288 l 1,9,-1
 320 288 l 1,10,-1
 320 144 l 1,11,-1
 200 144 l 1,0,-1
EndSplineSet
Validated: 1
EndChar

StartChar: comma
Encoding: 44 44 13
Width: 280
Flags: W
LayerCount: 2
Fore
SplineSet
100 -96 m 1,0,-1
 140 0 l 1,1,-1
 80 0 l 1,2,-1
 80 120 l 1,3,-1
 200 120 l 1,4,-1
 200 0 l 1,5,-1
 160 -96 l 1,6,-1
 100 -96 l 1,0,-1
EndSplineSet
Validated: 1
EndChar

StartChar: hyphen
Encoding: 45 45 14
Width: 440
Flags: W
LayerCount: 2
Fore
SplineSet
40 288 m 1,0,-1
 40 384 l 1,1,-1
 400 384 l 1,2,-1
 400 288 l 1,3,-1
 40 288 l 1,0,-1
EndSplineSet
Validated: 1
EndChar

StartChar: period
Encoding: 46 46 15
Width: 280
Flags: W
LayerCount: 2
Fore
SplineSet
80 0 m 1,0,-1
 80 120 l 1,1,-1
 200 120 l 1,2,-1
 200 0 l 1,3,-1
 80 0 l 1,0,-1
EndSplineSet
Validated: 1
EndChar

StartChar: slash
Encoding: 47 47 16
Width: 400
Flags: W
LayerCount: 2
Fore
SplineSet
0 0 m 1,0,-1
 280 672 l 1,1,-1
 400 672 l 1,2,-1
 120 0 l 1,3,-1
 0 0 l 1,0,-1
EndSplineSet
Validated: 1
EndChar

StartChar: zero
Encoding: 48 48 17
Width: 640
Flags: W
LayerCount: 2
Fore
SplineSet
440 96 m 1,0,-1
 480 144 l 1,1,-1
 480 528 l 1,2,-1
 440 576 l 1,3,-1
 200 576 l 1,4,-1
 160 528 l 1,5,-1
 160 144 l 1,6,-1
 200 96 l 1,7,-1
 440 96 l 1,0,-1
160 0 m 1,8,-1
 80 48 l 1,9,-1
 40 144 l 1,10,-1
 40 528 l 1,11,-1
 80 624 l 1,12,-1
 160 672 l 1,13,-1
 480 672 l 1,14,-1
 560 624 l 1,15,-1
 600 528 l 1,16,-1
 600 144 l 1,17,-1
 560 48 l 1,18,-1
 480 0 l 1,19,-1
 160 0 l 1,8,-1
EndSplineSet
EndChar

StartChar: one
Encoding: 49 49 18
Width: 400
Flags: W
LayerCount: 2
Fore
SplineSet
200 0 m 1,0,-1
 200 552 l 1,1,-1
 160 528 l 1,2,-1
 80 528 l 1,3,-1
 80 624 l 1,4,-1
 160 624 l 1,5,-1
 240 672 l 1,6,-1
 320 672 l 1,7,-1
 320 0 l 1,8,-1
 200 0 l 1,0,-1
EndSplineSet
Validated: 1
EndChar

StartChar: two
Encoding: 50 50 19
Width: 640
Flags: W
LayerCount: 2
Fore
SplineSet
40 0 m 1,0,-1
 40 96 l 1,1,-1
 80 192 l 1,2,-1
 400 384 l 1,3,-1
 480 480 l 1,4,-1
 480 528 l 1,5,-1
 440 576 l 1,6,-1
 200 576 l 1,7,-1
 160 528 l 1,8,-1
 160 480 l 1,9,-1
 120 480 l 1,10,-1
 40 528 l 1,11,-1
 80 624 l 1,12,-1
 160 672 l 1,13,-1
 480 672 l 1,14,-1
 560 624 l 1,15,-1
 600 528 l 1,16,-1
 600 480 l 1,17,-1
 560 384 l 1,18,-1
 520 336 l 1,19,-1
 200 144 l 1,20,-1
 160 96 l 1,21,-1
 600 96 l 1,22,-1
 600 0 l 1,23,-1
 40 0 l 1,0,-1
EndSplineSet
Validated: 1
EndChar

StartChar: three
Encoding: 51 51 20
Width: 640
Flags: W
LayerCount: 2
Fore
SplineSet
160 0 m 1,0,-1
 80 48 l 1,1,-1
 40 144 l 1,2,-1
 120 192 l 1,3,-1
 160 192 l 1,4,-1
 160 144 l 1,5,-1
 200 96 l 1,6,-1
 440 96 l 1,7,-1
 480 144 l 1,8,-1
 480 240 l 1,9,-1
 440 288 l 1,10,-1
 160 288 l 1,11,-1
 160 384 l 1,12,-1
 440 384 l 1,13,-1
 480 432 l 1,14,-1
 480 528 l 1,15,-1
 440 576 l 1,16,-1
 200 576 l 1,17,-1
 160 528 l 1,18,-1
 160 480 l 1,19,-1
 120 480 l 1,20,-1
 40 528 l 1,21,-1
 80 624 l 1,22,-1
 160 672 l 1,23,-1
 480 672 l 1,24,-1
 560 624 l 1,25,-1
 600 528 l 1,26,-1
 600 432 l 1,27,-1
 580 384 l 1,28,-1
 540 336 l 1,29,-1
 580 288 l 1,30,-1
 600 240 l 1,31,-1
 600 144 l 1,32,-1
 560 48 l 1,33,-1
 480 0 l 1,34,-1
 160 0 l 1,0,-1
EndSplineSet
Validated: 1
EndChar

StartChar: four
Encoding: 52 52 21
Width: 640
Flags: W
LayerCount: 2
Fore
SplineSet
400 240 m 1,0,-1
 400 552 l 1,1,-1
 140 240 l 1,2,-1
 400 240 l 1,0,-1
400 0 m 1,3,-1
 400 144 l 1,4,-1
 40 144 l 1,5,-1
 40 288 l 1,6,-1
 360 672 l 1,7,-1
 520 672 l 1,8,-1
 520 240 l 1,9,-1
 600 240 l 1,10,-1
 600 144 l 1,11,-1
 520 144 l 1,12,-1
 520 0 l 1,13,-1
 400 0 l 1,3,-1
EndSplineSet
Validated: 1
EndChar

StartChar: five
Encoding: 53 53 22
Width: 640
Flags: W
LayerCount: 2
Fore
SplineSet
160 0 m 1,0,-1
 80 48 l 1,1,-1
 40 144 l 1,2,-1
 120 192 l 1,3,-1
 160 192 l 1,4,-1
 160 144 l 1,5,-1
 200 96 l 1,6,-1
 440 96 l 1,7,-1
 480 144 l 1,8,-1
 480 288 l 1,9,-1
 440 336 l 1,10,-1
 200 336 l 1,11,-1
 120 288 l 1,12,-1
 40 288 l 1,13,-1
 40 672 l 1,14,-1
 560 672 l 1,15,-1
 560 576 l 1,16,-1
 160 576 l 1,17,-1
 160 384 l 1,18,-1
 240 432 l 1,19,-1
 480 432 l 1,20,-1
 560 384 l 1,21,-1
 600 288 l 1,22,-1
 600 144 l 1,23,-1
 560 48 l 1,24,-1
 480 0 l 1,25,-1
 160 0 l 1,0,-1
EndSplineSet
Validated: 1
EndChar

StartChar: six
Encoding: 54 54 23
Width: 640
Flags: W
LayerCount: 2
Fore
SplineSet
440 96 m 1,0,-1
 480 144 l 1,1,-1
 480 288 l 1,2,-1
 440 336 l 1,3,-1
 200 336 l 1,4,-1
 160 312 l 1,5,-1
 160 144 l 1,6,-1
 200 96 l 1,7,-1
 440 96 l 1,0,-1
160 0 m 1,8,-1
 80 48 l 1,9,-1
 40 144 l 1,10,-1
 40 528 l 1,11,-1
 80 624 l 1,12,-1
 160 672 l 1,13,-1
 480 672 l 1,14,-1
 560 624 l 1,15,-1
 600 528 l 1,16,-1
 520 480 l 1,17,-1
 480 480 l 1,18,-1
 480 528 l 1,19,-1
 440 576 l 1,20,-1
 200 576 l 1,21,-1
 160 528 l 1,22,-1
 160 384 l 1,23,-1
 240 432 l 1,24,-1
 480 432 l 1,25,-1
 560 384 l 1,26,-1
 600 288 l 1,27,-1
 600 144 l 1,28,-1
 560 48 l 1,29,-1
 480 0 l 1,30,-1
 160 0 l 1,8,-1
EndSplineSet
Validated: 1
EndChar

StartChar: seven
Encoding: 55 55 24
Width: 640
Flags: W
LayerCount: 2
Fore
SplineSet
240 0 m 1,0,-1
 240 192 l 1,1,-1
 340 432 l 1,2,-1
 440 552 l 1,3,-1
 440 576 l 1,4,-1
 40 576 l 1,5,-1
 40 672 l 1,6,-1
 600 672 l 1,7,-1
 600 576 l 1,8,-1
 440 384 l 1,9,-1
 360 192 l 1,10,-1
 360 0 l 1,11,-1
 240 0 l 1,0,-1
EndSplineSet
Validated: 1
EndChar

StartChar: eight
Encoding: 56 56 25
Width: 640
Flags: W
LayerCount: 2
Fore
SplineSet
440 96 m 1,0,-1
 480 144 l 1,1,-1
 480 240 l 1,2,-1
 440 288 l 1,3,-1
 200 288 l 1,4,-1
 160 240 l 1,5,-1
 160 144 l 1,6,-1
 200 96 l 1,7,-1
 440 96 l 1,0,-1
440 384 m 1,8,-1
 480 432 l 1,9,-1
 480 528 l 1,10,-1
 440 576 l 1,11,-1
 200 576 l 1,12,-1
 160 528 l 1,13,-1
 160 432 l 1,14,-1
 200 384 l 1,15,-1
 440 384 l 1,8,-1
160 0 m 1,16,-1
 80 48 l 1,17,-1
 40 144 l 1,18,-1
 40 240 l 1,19,-1
 60 288 l 1,20,-1
 100 336 l 1,21,-1
 60 384 l 1,22,-1
 40 432 l 1,23,-1
 40 528 l 1,24,-1
 80 624 l 1,25,-1
 160 672 l 1,26,-1
 480 672 l 1,27,-1
 560 624 l 1,28,-1
 600 528 l 1,29,-1
 600 432 l 1,30,-1
 580 384 l 1,31,-1
 540 336 l 1,32,-1
 580 288 l 1,33,-1
 600 240 l 1,34,-1
 600 144 l 1,35,-1
 560 48 l 1,36,-1
 480 0 l 1,37,-1
 160 0 l 1,16,-1
EndSplineSet
Validated: 1
EndChar

StartChar: nine
Encoding: 57 57 26
Width: 640
Flags: W
LayerCount: 2
Fore
SplineSet
440 336 m 1,0,-1
 480 360 l 1,1,-1
 480 528 l 1,2,-1
 440 576 l 1,3,-1
 200 576 l 1,4,-1
 160 528 l 1,5,-1
 160 384 l 1,6,-1
 200 336 l 1,7,-1
 440 336 l 1,0,-1
160 0 m 1,8,-1
 80 48 l 1,9,-1
 40 144 l 1,10,-1
 120 192 l 1,11,-1
 160 192 l 1,12,-1
 160 144 l 1,13,-1
 200 96 l 1,14,-1
 440 96 l 1,15,-1
 480 144 l 1,16,-1
 480 288 l 1,17,-1
 400 240 l 1,18,-1
 160 240 l 1,19,-1
 80 288 l 1,20,-1
 40 384 l 1,21,-1
 40 528 l 1,22,-1
 80 624 l 1,23,-1
 160 672 l 1,24,-1
 480 672 l 1,25,-1
 560 624 l 1,26,-1
 600 528 l 1,27,-1
 600 144 l 1,28,-1
 560 48 l 1,29,-1
 480 0 l 1,30,-1
 160 0 l 1,8,-1
EndSplineSet
Validated: 1
EndChar

StartChar: colon
Encoding: 58 58 27
Width: 280
Flags: W
LayerCount: 2
Fore
SplineSet
80 0 m 1,0,-1
 80 120 l 1,1,-1
 200 120 l 1,2,-1
 200 0 l 1,3,-1
 80 0 l 1,0,-1
80 360 m 1,4,-1
 80 480 l 1,5,-1
 200 480 l 1,6,-1
 200 360 l 1,7,-1
 80 360 l 1,4,-1
EndSplineSet
Validated: 1
EndChar

StartChar: semicolon
Encoding: 59 59 28
Width: 280
Flags: W
LayerCount: 2
Fore
SplineSet
100 -96 m 1,0,-1
 140 0 l 1,1,-1
 80 0 l 1,2,-1
 80 120 l 1,3,-1
 200 120 l 1,4,-1
 200 0 l 1,5,-1
 160 -96 l 1,6,-1
 100 -96 l 1,0,-1
80 360 m 1,7,-1
 80 480 l 1,8,-1
 200 480 l 1,9,-1
 200 360 l 1,10,-1
 80 360 l 1,7,-1
EndSplineSet
Validated: 1
EndChar

StartChar: less
Encoding: 60 60 29
Width: 480
Flags: W
LayerCount: 2
Fore
SplineSet
440 48 m 1,0,-1
 40 288 l 1,1,-1
 40 384 l 1,2,-1
 440 624 l 1,3,-1
 440 504 l 1,4,-1
 160 336 l 1,5,-1
 440 168 l 1,6,-1
 440 48 l 1,0,-1
EndSplineSet
Validated: 1
EndChar

StartChar: equal
Encoding: 61 61 30
Width: 440
Flags: W
LayerCount: 2
Fore
SplineSet
40 192 m 1,0,-1
 40 288 l 1,1,-1
 400 288 l 1,2,-1
 400 192 l 1,3,-1
 40 192 l 1,0,-1
40 384 m 1,4,-1
 40 480 l 1,5,-1
 400 480 l 1,6,-1
 400 384 l 1,7,-1
 40 384 l 1,4,-1
EndSplineSet
Validated: 1
EndChar

StartChar: greater
Encoding: 62 62 31
Width: 480
Flags: W
LayerCount: 2
Fore
SplineSet
40 48 m 1,0,-1
 40 168 l 1,1,-1
 320 336 l 1,2,-1
 40 504 l 1,3,-1
 40 624 l 1,4,-1
 440 384 l 1,5,-1
 440 288 l 1,6,-1
 40 48 l 1,0,-1
EndSplineSet
Validated: 1
EndChar

StartChar: question
Encoding: 63 63 32
Width: 640
Flags: W
LayerCount: 2
Fore
SplineSet
240 0 m 1,0,-1
 240 120 l 1,1,-1
 360 120 l 1,2,-1
 360 0 l 1,3,-1
 240 0 l 1,0,-1
240 192 m 1,4,-1
 240 240 l 1,5,-1
 280 336 l 1,6,-1
 360 384 l 1,7,-1
 440 384 l 1,8,-1
 480 432 l 1,9,-1
 480 528 l 1,10,-1
 440 576 l 1,11,-1
 200 576 l 1,12,-1
 160 528 l 1,13,-1
 160 480 l 1,14,-1
 120 480 l 1,15,-1
 40 528 l 1,16,-1
 80 624 l 1,17,-1
 160 672 l 1,18,-1
 480 672 l 1,19,-1
 560 624 l 1,20,-1
 600 528 l 1,21,-1
 600 432 l 1,22,-1
 560 336 l 1,23,-1
 480 288 l 1,24,-1
 400 288 l 1,25,-1
 360 240 l 1,26,-1
 360 192 l 1,27,-1
 240 192 l 1,4,-1
EndSplineSet
Validated: 1
EndChar

StartChar: at
Encoding: 64 64 33
Width: 960
Flags: W
LayerCount: 2
Fore
SplineSet
560 96 m 1,0,-1
 600 120 l 1,1,-1
 600 168 l 1,2,-1
 560 192 l 1,3,-1
 380 192 l 1,4,-1
 360 168 l 1,5,-1
 360 120 l 1,6,-1
 380 96 l 1,7,-1
 560 96 l 1,0,-1
160 -192 m 1,8,-1
 80 -144 l 1,9,-1
 40 -48 l 1,10,-1
 40 528 l 1,11,-1
 80 624 l 1,12,-1
 160 672 l 1,13,-1
 800 672 l 1,14,-1
 880 624 l 1,15,-1
 920 528 l 1,16,-1
 920 144 l 1,17,-1
 880 48 l 1,18,-1
 800 0 l 1,19,-1
 620 0 l 1,20,-1
 600 48 l 1,21,-1
 520 0 l 1,22,-1
 320 0 l 1,23,-1
 280 24 l 1,24,-1
 260 48 l 1,25,-1
 240 96 l 1,26,-1
 240 192 l 1,27,-1
 260 240 l 1,28,-1
 280 264 l 1,29,-1
 320 288 l 1,30,-1
 520 288 l 1,31,-1
 600 240 l 1,32,-1
 600 336 l 1,33,-1
 560 384 l 1,34,-1
 380 384 l 1,35,-1
 360 360 l 1,36,-1
 360 336 l 1,37,-1
 320 336 l 1,38,-1
 240 384 l 1,39,-1
 280 432 l 1,40,-1
 360 480 l 1,41,-1
 600 480 l 1,42,-1
 680 432 l 1,43,-1
 720 336 l 1,44,-1
 720 96 l 1,45,-1
 760 96 l 1,46,-1
 800 144 l 1,47,-1
 800 528 l 1,48,-1
 760 576 l 1,49,-1
 200 576 l 1,50,-1
 160 528 l 1,51,-1
 160 -48 l 1,52,-1
 200 -96 l 1,53,-1
 760 -96 l 1,54,-1
 800 -48 l 1,55,-1
 920 -48 l 1,56,-1
 880 -144 l 1,57,-1
 800 -192 l 1,58,-1
 160 -192 l 1,8,-1
EndSplineSet
Validated: 1
EndChar

StartChar: A
Encoding: 65 65 34
Width: 720
Flags: W
LayerCount: 2
Fore
SplineSet
500 240 m 1,0,-1
 360 576 l 1,1,-1
 220 240 l 1,2,-1
 500 240 l 1,0,-1
0 0 m 1,3,-1
 280 672 l 1,4,-1
 440 672 l 1,5,-1
 720 0 l 1,6,-1
 600 0 l 1,7,-1
 540 144 l 1,8,-1
 180 144 l 1,9,-1
 120 0 l 1,10,-1
 0 0 l 1,3,-1
EndSplineSet
Validated: 1
EndChar

StartChar: B
Encoding: 66 66 35
Width: 640
Flags: W
LayerCount: 2
Fore
SplineSet
440 96 m 1,0,-1
 480 144 l 1,1,-1
 480 240 l 1,2,-1
 440 288 l 1,3,-1
 160 288 l 1,4,-1
 160 96 l 1,5,-1
 440 96 l 1,0,-1
440 384 m 1,6,-1
 480 432 l 1,7,-1
 480 528 l 1,8,-1
 440 576 l 1,9,-1
 160 576 l 1,10,-1
 160 384 l 1,11,-1
 440 384 l 1,6,-1
40 0 m 1,12,-1
 40 672 l 1,13,-1
 480 672 l 1,14,-1
 560 624 l 1,15,-1
 600 528 l 1,16,-1
 600 432 l 1,17,-1
 580 384 l 1,18,-1
 540 336 l 1,19,-1
 580 288 l 1,20,-1
 600 240 l 1,21,-1
 600 144 l 1,22,-1
 560 48 l 1,23,-1
 480 0 l 1,24,-1
 40 0 l 1,12,-1
EndSplineSet
Validated: 1
EndChar

StartChar: C
Encoding: 67 67 36
Width: 640
Flags: W
LayerCount: 2
Fore
SplineSet
160 0 m 1,0,-1
 80 48 l 1,1,-1
 40 144 l 1,2,-1
 40 528 l 1,3,-1
 80 624 l 1,4,-1
 160 672 l 1,5,-1
 480 672 l 1,6,-1
 560 624 l 1,7,-1
 600 528 l 1,8,-1
 600 480 l 1,9,-1
 520 432 l 1,10,-1
 480 432 l 1,11,-1
 480 528 l 1,12,-1
 440 576 l 1,13,-1
 200 576 l 1,14,-1
 160 528 l 1,15,-1
 160 144 l 1,16,-1
 200 96 l 1,17,-1
 440 96 l 1,18,-1
 480 144 l 1,19,-1
 480 240 l 1,20,-1
 520 240 l 1,21,-1
 600 192 l 1,22,-1
 600 144 l 1,23,-1
 560 48 l 1,24,-1
 480 0 l 1,25,-1
 160 0 l 1,0,-1
EndSplineSet
Validated: 1
EndChar

StartChar: D
Encoding: 68 68 37
Width: 640
Flags: W
LayerCount: 2
Fore
SplineSet
440 96 m 1,0,-1
 480 144 l 1,1,-1
 480 528 l 1,2,-1
 440 576 l 1,3,-1
 160 576 l 1,4,-1
 160 96 l 1,5,-1
 440 96 l 1,0,-1
40 0 m 1,6,-1
 40 672 l 1,7,-1
 480 672 l 1,8,-1
 560 624 l 1,9,-1
 600 528 l 1,10,-1
 600 144 l 1,11,-1
 560 48 l 1,12,-1
 480 0 l 1,13,-1
 40 0 l 1,6,-1
EndSplineSet
Validated: 1
EndChar

StartChar: E
Encoding: 69 69 38
Width: 560
Flags: W
LayerCount: 2
Fore
SplineSet
40 0 m 1,0,-1
 40 672 l 1,1,-1
 520 672 l 1,2,-1
 520 576 l 1,3,-1
 160 576 l 1,4,-1
 160 384 l 1,5,-1
 480 384 l 1,6,-1
 480 288 l 1,7,-1
 160 288 l 1,8,-1
 160 96 l 1,9,-1
 520 96 l 1,10,-1
 520 0 l 1,11,-1
 40 0 l 1,0,-1
EndSplineSet
Validated: 1
EndChar

StartChar: F
Encoding: 70 70 39
Width: 560
Flags: W
LayerCount: 2
Fore
SplineSet
40 0 m 1,0,-1
 40 672 l 1,1,-1
 520 672 l 1,2,-1
 520 576 l 1,3,-1
 160 576 l 1,4,-1
 160 384 l 1,5,-1
 480 384 l 1,6,-1
 480 288 l 1,7,-1
 160 288 l 1,8,-1
 160 0 l 1,9,-1
 40 0 l 1,0,-1
EndSplineSet
Validated: 1
EndChar

StartChar: G
Encoding: 71 71 40
Width: 640
Flags: W
LayerCount: 2
Fore
SplineSet
160 0 m 1,0,-1
 80 48 l 1,1,-1
 40 144 l 1,2,-1
 40 528 l 1,3,-1
 80 624 l 1,4,-1
 160 672 l 1,5,-1
 480 672 l 1,6,-1
 560 624 l 1,7,-1
 600 528 l 1,8,-1
 520 480 l 1,9,-1
 480 480 l 1,10,-1
 480 528 l 1,11,-1
 440 576 l 1,12,-1
 200 576 l 1,13,-1
 160 528 l 1,14,-1
 160 144 l 1,15,-1
 200 96 l 1,16,-1
 440 96 l 1,17,-1
 480 120 l 1,18,-1
 480 288 l 1,19,-1
 320 288 l 1,20,-1
 320 384 l 1,21,-1
 600 384 l 1,22,-1
 600 0 l 1,23,-1
 480 0 l 1,24,-1
 480 48 l 1,25,-1
 400 0 l 1,26,-1
 160 0 l 1,0,-1
EndSplineSet
Validated: 1
EndChar

StartChar: H
Encoding: 72 72 41
Width: 640
Flags: W
LayerCount: 2
Fore
SplineSet
40 0 m 1,0,-1
 40 672 l 1,1,-1
 160 672 l 1,2,-1
 160 384 l 1,3,-1
 480 384 l 1,4,-1
 480 672 l 1,5,-1
 600 672 l 1,6,-1
 600 0 l 1,7,-1
 480 0 l 1,8,-1
 480 288 l 1,9,-1
 160 288 l 1,10,-1
 160 0 l 1,11,-1
 40 0 l 1,0,-1
EndSplineSet
Validated: 1
EndChar

StartChar: I
Encoding: 73 73 42
Width: 280
Flags: W
LayerCount: 2
Fore
SplineSet
80 0 m 1,0,-1
 80 672 l 1,1,-1
 200 672 l 1,2,-1
 200 0 l 1,3,-1
 80 0 l 1,0,-1
EndSplineSet
Validated: 1
EndChar

StartChar: J
Encoding: 74 74 43
Width: 560
Flags: W
LayerCount: 2
Fore
SplineSet
160 0 m 1,0,-1
 80 48 l 1,1,-1
 40 144 l 1,2,-1
 120 192 l 1,3,-1
 160 192 l 1,4,-1
 160 144 l 1,5,-1
 200 96 l 1,6,-1
 360 96 l 1,7,-1
 400 144 l 1,8,-1
 400 672 l 1,9,-1
 520 672 l 1,10,-1
 520 144 l 1,11,-1
 480 48 l 1,12,-1
 400 0 l 1,13,-1
 160 0 l 1,0,-1
EndSplineSet
Validated: 1
EndChar

StartChar: K
Encoding: 75 75 44
Width: 640
Flags: W
LayerCount: 2
Fore
SplineSet
40 0 m 1,0,-1
 40 672 l 1,1,-1
 160 672 l 1,2,-1
 160 384 l 1,3,-1
 220 384 l 1,4,-1
 460 672 l 1,5,-1
 600 672 l 1,6,-1
 340 360 l 1,7,-1
 640 0 l 1,8,-1
 500 0 l 1,9,-1
 260 288 l 1,10,-1
 160 288 l 1,11,-1
 160 0 l 1,12,-1
 40 0 l 1,0,-1
EndSplineSet
Validated: 1
EndChar

StartChar: L
Encoding: 76 76 45
Width: 560
Flags: W
LayerCount: 2
Fore
SplineSet
40 0 m 1,0,-1
 40 672 l 1,1,-1
 160 672 l 1,2,-1
 160 96 l 1,3,-1
 520 96 l 1,4,-1
 520 0 l 1,5,-1
 40 0 l 1,0,-1
EndSplineSet
Validated: 1
EndChar

StartChar: M
Encoding: 77 77 46
Width: 720
Flags: W
LayerCount: 2
Fore
SplineSet
40 0 m 1,0,-1
 40 672 l 1,1,-1
 200 672 l 1,2,-1
 360 288 l 1,3,-1
 520 672 l 1,4,-1
 680 672 l 1,5,-1
 680 0 l 1,6,-1
 560 0 l 1,7,-1
 560 480 l 1,8,-1
 400 96 l 1,9,-1
 320 96 l 1,10,-1
 160 480 l 1,11,-1
 160 0 l 1,12,-1
 40 0 l 1,0,-1
EndSplineSet
Validated: 1
EndChar

StartChar: N
Encoding: 78 78 47
Width: 640
Flags: W
LayerCount: 2
Fore
SplineSet
40 0 m 1,0,-1
 40 672 l 1,1,-1
 100 672 l 1,2,-1
 480 216 l 1,3,-1
 480 672 l 1,4,-1
 600 672 l 1,5,-1
 600 0 l 1,6,-1
 520 0 l 1,7,-1
 160 432 l 1,8,-1
 160 0 l 1,9,-1
 40 0 l 1,0,-1
EndSplineSet
Validated: 1
EndChar

StartChar: O
Encoding: 79 79 48
Width: 640
Flags: W
LayerCount: 2
Fore
SplineSet
440 96 m 1,0,-1
 480 144 l 1,1,-1
 480 528 l 1,2,-1
 440 576 l 1,3,-1
 200 576 l 1,4,-1
 160 528 l 1,5,-1
 160 144 l 1,6,-1
 200 96 l 1,7,-1
 440 96 l 1,0,-1
160 0 m 1,8,-1
 80 48 l 1,9,-1
 40 144 l 1,10,-1
 40 528 l 1,11,-1
 80 624 l 1,12,-1
 160 672 l 1,13,-1
 480 672 l 1,14,-1
 560 624 l 1,15,-1
 600 528 l 1,16,-1
 600 144 l 1,17,-1
 560 48 l 1,18,-1
 480 0 l 1,19,-1
 160 0 l 1,8,-1
EndSplineSet
Validated: 1
EndChar

StartChar: P
Encoding: 80 80 49
Width: 640
Flags: W
LayerCount: 2
Fore
SplineSet
440 288 m 1,0,-1
 480 336 l 1,1,-1
 480 528 l 1,2,-1
 440 576 l 1,3,-1
 160 576 l 1,4,-1
 160 288 l 1,5,-1
 440 288 l 1,0,-1
40 0 m 1,6,-1
 40 672 l 1,7,-1
 480 672 l 1,8,-1
 560 624 l 1,9,-1
 600 528 l 1,10,-1
 600 336 l 1,11,-1
 560 240 l 1,12,-1
 480 192 l 1,13,-1
 160 192 l 1,14,-1
 160 0 l 1,15,-1
 40 0 l 1,6,-1
EndSplineSet
Validated: 1
EndChar

StartChar: Q
Encoding: 81 81 50
Width: 640
Flags: W
LayerCount: 2
Fore
SplineSet
440 96 m 1,0,-1
 480 144 l 1,1,-1
 480 528 l 1,2,-1
 440 576 l 1,3,-1
 200 576 l 1,4,-1
 160 528 l 1,5,-1
 160 144 l 1,6,-1
 200 96 l 1,7,-1
 440 96 l 1,0,-1
480 -144 m 1,8,-1
 400 -96 l 1,9,-1
 360 0 l 1,10,-1
 160 0 l 1,11,-1
 80 48 l 1,12,-1
 40 144 l 1,13,-1
 40 528 l 1,14,-1
 80 624 l 1,15,-1
 160 672 l 1,16,-1
 480 672 l 1,17,-1
 560 624 l 1,18,-1
 600 528 l 1,19,-1
 600 144 l 1,20,-1
 560 48 l 1,21,-1
 480 0 l 1,22,-1
 520 -48 l 1,23,-1
 600 -48 l 1,24,-1
 600 -144 l 1,25,-1
 480 -144 l 1,8,-1
EndSplineSet
Validated: 1
EndChar

StartChar: R
Encoding: 82 82 51
Width: 640
Flags: W
LayerCount: 2
Fore
SplineSet
440 288 m 1,0,-1
 480 336 l 1,1,-1
 480 528 l 1,2,-1
 440 576 l 1,3,-1
 160 576 l 1,4,-1
 160 288 l 1,5,-1
 440 288 l 1,0,-1
40 0 m 1,6,-1
 40 672 l 1,7,-1
 480 672 l 1,8,-1
 560 624 l 1,9,-1
 600 528 l 1,10,-1
 600 336 l 1,11,-1
 580 288 l 1,12,-1
 560 264 l 1,13,-1
 520 240 l 1,14,-1
 620 0 l 1,15,-1
 500 0 l 1,16,-1
 420 192 l 1,17,-1
 160 192 l 1,18,-1
 160 0 l 1,19,-1
 40 0 l 1,6,-1
EndSplineSet
Validated: 1
EndChar

StartChar: S
Encoding: 83 83 52
Width: 640
Flags: W
LayerCount: 2
Fore
SplineSet
160 0 m 1,0,-1
 80 48 l 1,1,-1
 40 144 l 1,2,-1
 120 192 l 1,3,-1
 160 192 l 1,4,-1
 160 144 l 1,5,-1
 200 96 l 1,6,-1
 440 96 l 1,7,-1
 480 144 l 1,8,-1
 480 240 l 1,9,-1
 440 288 l 1,10,-1
 160 288 l 1,11,-1
 80 336 l 1,12,-1
 40 432 l 1,13,-1
 40 528 l 1,14,-1
 80 624 l 1,15,-1
 160 672 l 1,16,-1
 440 672 l 1,17,-1
 520 624 l 1,18,-1
 560 528 l 1,19,-1
 480 480 l 1,20,-1
 440 480 l 1,21,-1
 440 528 l 1,22,-1
 400 576 l 1,23,-1
 200 576 l 1,24,-1
 160 528 l 1,25,-1
 160 432 l 1,26,-1
 200 384 l 1,27,-1
 480 384 l 1,28,-1
 560 336 l 1,29,-1
 600 240 l 1,30,-1
 600 144 l 1,31,-1
 560 48 l 1,32,-1
 480 0 l 1,33,-1
 160 0 l 1,0,-1
EndSplineSet
Validated: 1
EndChar

StartChar: T
Encoding: 84 84 53
Width: 600
Flags: W
LayerCount: 2
Fore
SplineSet
240 0 m 1,0,-1
 240 576 l 1,1,-1
 40 576 l 1,2,-1
 40 672 l 1,3,-1
 560 672 l 1,4,-1
 560 576 l 1,5,-1
 360 576 l 1,6,-1
 360 0 l 1,7,-1
 240 0 l 1,0,-1
EndSplineSet
Validated: 1
EndChar

StartChar: U
Encoding: 85 85 54
Width: 640
Flags: W
LayerCount: 2
Fore
SplineSet
160 0 m 1,0,-1
 80 48 l 1,1,-1
 40 144 l 1,2,-1
 40 672 l 1,3,-1
 160 672 l 1,4,-1
 160 144 l 1,5,-1
 200 96 l 1,6,-1
 440 96 l 1,7,-1
 480 144 l 1,8,-1
 480 672 l 1,9,-1
 600 672 l 1,10,-1
 600 144 l 1,11,-1
 560 48 l 1,12,-1
 480 0 l 1,13,-1
 160 0 l 1,0,-1
EndSplineSet
Validated: 1
EndChar

StartChar: V
Encoding: 86 86 55
Width: 720
Flags: W
LayerCount: 2
Fore
SplineSet
280 0 m 1,0,-1
 0 672 l 1,1,-1
 120 672 l 1,2,-1
 360 96 l 1,3,-1
 600 672 l 1,4,-1
 720 672 l 1,5,-1
 440 0 l 1,6,-1
 280 0 l 1,0,-1
EndSplineSet
Validated: 1
EndChar

StartChar: W
Encoding: 87 87 56
Width: 840
Flags: W
LayerCount: 2
Fore
SplineSet
160 0 m 1,0,-1
 80 48 l 1,1,-1
 40 144 l 1,2,-1
 40 672 l 1,3,-1
 160 672 l 1,4,-1
 160 144 l 1,5,-1
 200 96 l 1,6,-1
 300 96 l 1,7,-1
 360 168 l 1,8,-1
 360 672 l 1,9,-1
 480 672 l 1,10,-1
 480 168 l 1,11,-1
 540 96 l 1,12,-1
 640 96 l 1,13,-1
 680 144 l 1,14,-1
 680 672 l 1,15,-1
 800 672 l 1,16,-1
 800 144 l 1,17,-1
 760 48 l 1,18,-1
 680 0 l 1,19,-1
 520 0 l 1,20,-1
 440 48 l 1,21,-1
 420 96 l 1,22,-1
 400 48 l 1,23,-1
 320 0 l 1,24,-1
 160 0 l 1,0,-1
EndSplineSet
Validated: 1
EndChar

StartChar: X
Encoding: 88 88 57
Width: 680
Flags: W
LayerCount: 2
Fore
SplineSet
0 0 m 1,0,-1
 280 336 l 1,1,-1
 0 672 l 1,2,-1
 140 672 l 1,3,-1
 350 420 l 1,4,-1
 560 672 l 1,5,-1
 700 672 l 1,6,-1
 420 336 l 1,7,-1
 700 0 l 1,8,-1
 560 0 l 1,9,-1
 350 252 l 1,10,-1
 140 0 l 1,11,-1
 0 0 l 1,0,-1
EndSplineSet
Validated: 1
EndChar

StartChar: Y
Encoding: 89 89 58
Width: 680
Flags: W
LayerCount: 2
Fore
SplineSet
280 0 m 1,0,-1
 280 336 l 1,1,-1
 0 672 l 1,2,-1
 140 672 l 1,3,-1
 320 456 l 1,4,-1
 360 456 l 1,5,-1
 540 672 l 1,6,-1
 680 672 l 1,7,-1
 400 336 l 1,8,-1
 400 0 l 1,9,-1
 280 0 l 1,0,-1
EndSplineSet
Validated: 1
EndChar

StartChar: Z
Encoding: 90 90 59
Width: 680
Flags: W
LayerCount: 2
Fore
SplineSet
40 0 m 1,0,-1
 40 72 l 1,1,-1
 460 576 l 1,2,-1
 40 576 l 1,3,-1
 40 672 l 1,4,-1
 640 672 l 1,5,-1
 640 624 l 1,6,-1
 200 96 l 1,7,-1
 640 96 l 1,8,-1
 640 0 l 1,9,-1
 40 0 l 1,0,-1
EndSplineSet
Validated: 1
EndChar

StartChar: bracketleft
Encoding: 91 91 60
Width: 320
Flags: W
LayerCount: 2
Fore
SplineSet
40 0 m 1,0,-1
 40 672 l 1,1,-1
 280 672 l 1,2,-1
 280 576 l 1,3,-1
 160 576 l 1,4,-1
 160 96 l 1,5,-1
 280 96 l 1,6,-1
 280 0 l 1,7,-1
 40 0 l 1,0,-1
EndSplineSet
Validated: 1
EndChar

StartChar: backslash
Encoding: 92 92 61
Width: 400
Flags: W
LayerCount: 2
Fore
SplineSet
280 0 m 1,0,-1
 0 672 l 1,1,-1
 120 672 l 1,2,-1
 400 0 l 1,3,-1
 280 0 l 1,0,-1
EndSplineSet
Validated: 1
EndChar

StartChar: bracketright
Encoding: 93 93 62
Width: 320
Flags: W
LayerCount: 2
Fore
SplineSet
40 0 m 1,0,-1
 40 96 l 1,1,-1
 160 96 l 1,2,-1
 160 576 l 1,3,-1
 40 576 l 1,4,-1
 40 672 l 1,5,-1
 280 672 l 1,6,-1
 280 0 l 1,7,-1
 40 0 l 1,0,-1
EndSplineSet
Validated: 1
EndChar

StartChar: asciicircum
Encoding: 94 94 63
Width: 400
Flags: W
LayerCount: 2
Fore
SplineSet
60 480 m 1,0,-1
 140 672 l 1,1,-1
 260 672 l 1,2,-1
 340 480 l 1,3,-1
 240 480 l 1,4,-1
 200 576 l 1,5,-1
 160 480 l 1,6,-1
 60 480 l 1,0,-1
EndSplineSet
Validated: 1
EndChar

StartChar: underscore
Encoding: 95 95 64
Width: 360
Flags: W
LayerCount: 2
Fore
SplineSet
0 -192 m 1,0,-1
 0 -96 l 1,1,-1
 360 -96 l 1,2,-1
 360 -192 l 1,3,-1
 0 -192 l 1,0,-1
EndSplineSet
Validated: 1
EndChar

StartChar: grave
Encoding: 96 96 65
Width: 280
Flags: W
LayerCount: 2
Fore
SplineSet
160 528 m 1,0,-1
 40 672 l 1,1,-1
 180 672 l 1,2,-1
 240 528 l 1,3,-1
 160 528 l 1,0,-1
EndSplineSet
Validated: 1
EndChar

StartChar: a
Encoding: 97 97 66
Width: 560
Flags: W
LayerCount: 2
Fore
SplineSet
360 96 m 1,0,-1
 400 120 l 1,1,-1
 400 168 l 1,2,-1
 360 192 l 1,3,-1
 180 192 l 1,4,-1
 160 168 l 1,5,-1
 160 120 l 1,6,-1
 180 96 l 1,7,-1
 360 96 l 1,0,-1
120 0 m 1,8,-1
 80 24 l 1,9,-1
 60 48 l 1,10,-1
 40 96 l 1,11,-1
 40 192 l 1,12,-1
 60 240 l 1,13,-1
 80 264 l 1,14,-1
 120 288 l 1,15,-1
 320 288 l 1,16,-1
 400 240 l 1,17,-1
 400 336 l 1,18,-1
 360 384 l 1,19,-1
 180 384 l 1,20,-1
 160 360 l 1,21,-1
 160 336 l 1,22,-1
 120 336 l 1,23,-1
 40 384 l 1,24,-1
 80 432 l 1,25,-1
 160 480 l 1,26,-1
 400 480 l 1,27,-1
 480 432 l 1,28,-1
 520 336 l 1,29,-1
 520 48 l 1,30,-1
 540 0 l 1,31,-1
 420 0 l 1,32,-1
 400 48 l 1,33,-1
 320 0 l 1,34,-1
 120 0 l 1,8,-1
EndSplineSet
Validated: 1
EndChar

StartChar: b
Encoding: 98 98 67
Width: 560
Flags: W
LayerCount: 2
Fore
SplineSet
360 96 m 1,0,-1
 400 144 l 1,1,-1
 400 336 l 1,2,-1
 360 384 l 1,3,-1
 200 384 l 1,4,-1
 160 360 l 1,5,-1
 160 120 l 1,6,-1
 200 96 l 1,7,-1
 360 96 l 1,0,-1
40 0 m 1,8,-1
 40 672 l 1,9,-1
 160 672 l 1,10,-1
 160 432 l 1,11,-1
 240 480 l 1,12,-1
 400 480 l 1,13,-1
 480 432 l 1,14,-1
 520 336 l 1,15,-1
 520 144 l 1,16,-1
 480 48 l 1,17,-1
 400 0 l 1,18,-1
 240 0 l 1,19,-1
 160 48 l 1,20,-1
 160 0 l 1,21,-1
 40 0 l 1,8,-1
EndSplineSet
Validated: 1
EndChar

StartChar: c
Encoding: 99 99 68
Width: 560
Flags: W
LayerCount: 2
Fore
SplineSet
160 0 m 1,0,-1
 80 48 l 1,1,-1
 40 144 l 1,2,-1
 40 336 l 1,3,-1
 80 432 l 1,4,-1
 160 480 l 1,5,-1
 400 480 l 1,6,-1
 480 432 l 1,7,-1
 520 336 l 1,8,-1
 440 288 l 1,9,-1
 400 288 l 1,10,-1
 400 336 l 1,11,-1
 360 384 l 1,12,-1
 200 384 l 1,13,-1
 160 336 l 1,14,-1
 160 144 l 1,15,-1
 200 96 l 1,16,-1
 360 96 l 1,17,-1
 400 144 l 1,18,-1
 400 192 l 1,19,-1
 440 192 l 1,20,-1
 520 144 l 1,21,-1
 480 48 l 1,22,-1
 400 0 l 1,23,-1
 160 0 l 1,0,-1
EndSplineSet
Validated: 1
EndChar

StartChar: d
Encoding: 100 100 69
Width: 560
Flags: W
LayerCount: 2
Fore
SplineSet
360 96 m 1,0,-1
 400 120 l 1,1,-1
 400 360 l 1,2,-1
 360 384 l 1,3,-1
 200 384 l 1,4,-1
 160 336 l 1,5,-1
 160 144 l 1,6,-1
 200 96 l 1,7,-1
 360 96 l 1,0,-1
160 0 m 1,8,-1
 80 48 l 1,9,-1
 40 144 l 1,10,-1
 40 336 l 1,11,-1
 80 432 l 1,12,-1
 160 480 l 1,13,-1
 320 480 l 1,14,-1
 400 432 l 1,15,-1
 400 672 l 1,16,-1
 520 672 l 1,17,-1
 520 0 l 1,18,-1
 400 0 l 1,19,-1
 400 48 l 1,20,-1
 320 0 l 1,21,-1
 160 0 l 1,8,-1
EndSplineSet
Validated: 1
EndChar

StartChar: e
Encoding: 101 101 70
Width: 560
Flags: W
LayerCount: 2
Fore
SplineSet
400 264 m 1,0,-1
 400 336 l 1,1,-1
 360 384 l 1,2,-1
 200 384 l 1,3,-1
 160 336 l 1,4,-1
 160 264 l 1,5,-1
 400 264 l 1,0,-1
160 0 m 1,6,-1
 80 48 l 1,7,-1
 40 144 l 1,8,-1
 40 336 l 1,9,-1
 80 432 l 1,10,-1
 160 480 l 1,11,-1
 400 480 l 1,12,-1
 480 432 l 1,13,-1
 520 336 l 1,14,-1
 520 192 l 1,15,-1
 160 192 l 1,16,-1
 160 144 l 1,17,-1
 200 96 l 1,18,-1
 360 96 l 1,19,-1
 400 144 l 1,20,-1
 520 144 l 1,21,-1
 480 48 l 1,22,-1
 400 0 l 1,23,-1
 160 0 l 1,6,-1
EndSplineSet
Validated: 1
EndChar

StartChar: f
Encoding: 102 102 71
Width: 400
Flags: W
LayerCount: 2
Fore
SplineSet
120 0 m 1,0,-1
 120 384 l 1,1,-1
 40 384 l 1,2,-1
 40 480 l 1,3,-1
 120 480 l 1,4,-1
 120 528 l 1,5,-1
 160 624 l 1,6,-1
 240 672 l 1,7,-1
 360 672 l 1,8,-1
 360 576 l 1,9,-1
 280 576 l 1,10,-1
 240 528 l 1,11,-1
 240 480 l 1,12,-1
 360 480 l 1,13,-1
 360 384 l 1,14,-1
 240 384 l 1,15,-1
 240 0 l 1,16,-1
 120 0 l 1,0,-1
EndSplineSet
Validated: 1
EndChar

StartChar: g
Encoding: 103 103 72
Width: 560
Flags: W
LayerCount: 2
Fore
SplineSet
360 96 m 1,0,-1
 400 120 l 1,1,-1
 400 360 l 1,2,-1
 360 384 l 1,3,-1
 200 384 l 1,4,-1
 160 336 l 1,5,-1
 160 144 l 1,6,-1
 200 96 l 1,7,-1
 360 96 l 1,0,-1
160 -192 m 1,8,-1
 80 -144 l 1,9,-1
 40 -96 l 1,10,-1
 120 -48 l 1,11,-1
 160 -48 l 1,12,-1
 160 -72 l 1,13,-1
 180 -96 l 1,14,-1
 360 -96 l 1,15,-1
 400 -48 l 1,16,-1
 400 48 l 1,17,-1
 320 0 l 1,18,-1
 160 0 l 1,19,-1
 80 48 l 1,20,-1
 40 144 l 1,21,-1
 40 336 l 1,22,-1
 80 432 l 1,23,-1
 160 480 l 1,24,-1
 320 480 l 1,25,-1
 400 432 l 1,26,-1
 400 480 l 1,27,-1
 520 480 l 1,28,-1
 520 -48 l 1,29,-1
 480 -144 l 1,30,-1
 400 -192 l 1,31,-1
 160 -192 l 1,8,-1
EndSplineSet
Validated: 1
EndChar

StartChar: h
Encoding: 104 104 73
Width: 560
Flags: W
LayerCount: 2
Fore
SplineSet
40 0 m 1,0,-1
 40 672 l 1,1,-1
 160 672 l 1,2,-1
 160 432 l 1,3,-1
 240 480 l 1,4,-1
 400 480 l 1,5,-1
 480 432 l 1,6,-1
 520 336 l 1,7,-1
 520 0 l 1,8,-1
 400 0 l 1,9,-1
 400 336 l 1,10,-1
 360 384 l 1,11,-1
 200 384 l 1,12,-1
 160 360 l 1,13,-1
 160 0 l 1,14,-1
 40 0 l 1,0,-1
EndSplineSet
Validated: 1
EndChar

StartChar: i
Encoding: 105 105 74
Width: 280
Flags: W
LayerCount: 2
Fore
SplineSet
80 0 m 1,0,-1
 80 480 l 1,1,-1
 200 480 l 1,2,-1
 200 0 l 1,3,-1
 80 0 l 1,0,-1
80 552 m 1,4,-1
 80 672 l 1,5,-1
 200 672 l 1,6,-1
 200 552 l 1,7,-1
 80 552 l 1,4,-1
EndSplineSet
Validated: 1
EndChar

StartChar: j
Encoding: 106 106 75
Width: 280
Flags: W
LayerCount: 2
Fore
SplineSet
-40 -192 m 1,0,-1
 -40 -96 l 1,1,-1
 40 -96 l 1,2,-1
 80 -48 l 1,3,-1
 80 480 l 1,4,-1
 200 480 l 1,5,-1
 200 -48 l 1,6,-1
 160 -144 l 1,7,-1
 80 -192 l 1,8,-1
 -40 -192 l 1,0,-1
80 552 m 1,9,-1
 80 672 l 1,10,-1
 200 672 l 1,11,-1
 200 552 l 1,12,-1
 80 552 l 1,9,-1
EndSplineSet
Validated: 1
EndChar

StartChar: k
Encoding: 107 107 76
Width: 560
Flags: W
LayerCount: 2
Fore
SplineSet
40 0 m 1,0,-1
 40 672 l 1,1,-1
 160 672 l 1,2,-1
 160 288 l 1,3,-1
 220 288 l 1,4,-1
 380 480 l 1,5,-1
 520 480 l 1,6,-1
 340 264 l 1,7,-1
 560 0 l 1,8,-1
 420 0 l 1,9,-1
 260 192 l 1,10,-1
 160 192 l 1,11,-1
 160 0 l 1,12,-1
 40 0 l 1,0,-1
EndSplineSet
Validated: 1
EndChar

StartChar: l
Encoding: 108 108 77
Width: 280
Flags: W
LayerCount: 2
Fore
SplineSet
80 0 m 1,0,-1
 80 672 l 1,1,-1
 200 672 l 1,2,-1
 200 89 l 1,3,-1
 266 89 l 1,4,-1
 266 0 l 1,5,-1
 200 0 l 1,6,-1
 80 0 l 1,0,-1
EndSplineSet
EndChar

StartChar: m
Encoding: 109 109 78
Width: 760
Flags: W
LayerCount: 2
Fore
SplineSet
40 0 m 1,0,-1
 40 480 l 1,1,-1
 160 480 l 1,2,-1
 160 432 l 1,3,-1
 240 480 l 1,4,-1
 320 480 l 1,5,-1
 400 432 l 1,6,-1
 480 480 l 1,7,-1
 600 480 l 1,8,-1
 680 432 l 1,9,-1
 720 336 l 1,10,-1
 720 0 l 1,11,-1
 600 0 l 1,12,-1
 600 336 l 1,13,-1
 560 384 l 1,14,-1
 480 384 l 1,15,-1
 440 360 l 1,16,-1
 440 0 l 1,17,-1
 320 0 l 1,18,-1
 320 336 l 1,19,-1
 280 384 l 1,20,-1
 200 384 l 1,21,-1
 160 360 l 1,22,-1
 160 0 l 1,23,-1
 40 0 l 1,0,-1
EndSplineSet
Validated: 1
EndChar

StartChar: n
Encoding: 110 110 79
Width: 560
Flags: W
LayerCount: 2
Fore
SplineSet
40 0 m 1,0,-1
 40 480 l 1,1,-1
 160 480 l 1,2,-1
 160 432 l 1,3,-1
 240 480 l 1,4,-1
 400 480 l 1,5,-1
 480 432 l 1,6,-1
 520 336 l 1,7,-1
 520 0 l 1,8,-1
 400 0 l 1,9,-1
 400 336 l 1,10,-1
 360 384 l 1,11,-1
 200 384 l 1,12,-1
 160 360 l 1,13,-1
 160 0 l 1,14,-1
 40 0 l 1,0,-1
EndSplineSet
Validated: 1
EndChar

StartChar: o
Encoding: 111 111 80
Width: 560
Flags: W
LayerCount: 2
Fore
SplineSet
360 96 m 1,0,-1
 400 144 l 1,1,-1
 400 336 l 1,2,-1
 360 384 l 1,3,-1
 200 384 l 1,4,-1
 160 336 l 1,5,-1
 160 144 l 1,6,-1
 200 96 l 1,7,-1
 360 96 l 1,0,-1
160 0 m 1,8,-1
 80 48 l 1,9,-1
 40 144 l 1,10,-1
 40 336 l 1,11,-1
 80 432 l 1,12,-1
 160 480 l 1,13,-1
 400 480 l 1,14,-1
 480 432 l 1,15,-1
 520 336 l 1,16,-1
 520 144 l 1,17,-1
 480 48 l 1,18,-1
 400 0 l 1,19,-1
 160 0 l 1,8,-1
EndSplineSet
Validated: 1
EndChar

StartChar: p
Encoding: 112 112 81
Width: 560
Flags: W
LayerCount: 2
Fore
SplineSet
360 96 m 1,0,-1
 400 144 l 1,1,-1
 400 336 l 1,2,-1
 360 384 l 1,3,-1
 200 384 l 1,4,-1
 160 360 l 1,5,-1
 160 120 l 1,6,-1
 200 96 l 1,7,-1
 360 96 l 1,0,-1
40 -192 m 1,8,-1
 40 480 l 1,9,-1
 160 480 l 1,10,-1
 160 432 l 1,11,-1
 240 480 l 1,12,-1
 400 480 l 1,13,-1
 480 432 l 1,14,-1
 520 336 l 1,15,-1
 520 144 l 1,16,-1
 480 48 l 1,17,-1
 400 0 l 1,18,-1
 240 0 l 1,19,-1
 160 48 l 1,20,-1
 160 -192 l 1,21,-1
 40 -192 l 1,8,-1
EndSplineSet
Validated: 1
EndChar

StartChar: q
Encoding: 113 113 82
Width: 560
Flags: W
LayerCount: 2
Fore
SplineSet
360 96 m 1,0,-1
 400 120 l 1,1,-1
 400 360 l 1,2,-1
 360 384 l 1,3,-1
 200 384 l 1,4,-1
 160 336 l 1,5,-1
 160 144 l 1,6,-1
 200 96 l 1,7,-1
 360 96 l 1,0,-1
400 -192 m 1,8,-1
 400 48 l 1,9,-1
 320 0 l 1,10,-1
 160 0 l 1,11,-1
 80 48 l 1,12,-1
 40 144 l 1,13,-1
 40 336 l 1,14,-1
 80 432 l 1,15,-1
 160 480 l 1,16,-1
 320 480 l 1,17,-1
 400 432 l 1,18,-1
 400 480 l 1,19,-1
 520 480 l 1,20,-1
 520 -192 l 1,21,-1
 400 -192 l 1,8,-1
EndSplineSet
Validated: 1
EndChar

StartChar: r
Encoding: 114 114 83
Width: 400
Flags: W
LayerCount: 2
Fore
SplineSet
40 0 m 1,0,-1
 40 480 l 1,1,-1
 160 480 l 1,2,-1
 160 432 l 1,3,-1
 240 480 l 1,4,-1
 360 480 l 1,5,-1
 360 384 l 1,6,-1
 200 384 l 1,7,-1
 160 360 l 1,8,-1
 160 0 l 1,9,-1
 40 0 l 1,0,-1
EndSplineSet
Validated: 1
EndChar

StartChar: s
Encoding: 115 115 84
Width: 560
Flags: W
LayerCount: 2
Fore
SplineSet
160 0 m 1,0,-1
 80 48 l 1,1,-1
 40 96 l 1,2,-1
 120 144 l 1,3,-1
 160 144 l 1,4,-1
 160 120 l 1,5,-1
 180 96 l 1,6,-1
 380 96 l 1,7,-1
 400 120 l 1,8,-1
 400 168 l 1,9,-1
 380 192 l 1,10,-1
 160 192 l 1,11,-1
 80 240 l 1,12,-1
 40 336 l 1,13,-1
 80 432 l 1,14,-1
 160 480 l 1,15,-1
 360 480 l 1,16,-1
 440 432 l 1,17,-1
 480 384 l 1,18,-1
 400 336 l 1,19,-1
 360 336 l 1,20,-1
 360 360 l 1,21,-1
 340 384 l 1,22,-1
 180 384 l 1,23,-1
 160 360 l 1,24,-1
 160 312 l 1,25,-1
 180 288 l 1,26,-1
 400 288 l 1,27,-1
 480 240 l 1,28,-1
 520 144 l 1,29,-1
 480 48 l 1,30,-1
 400 0 l 1,31,-1
 160 0 l 1,0,-1
EndSplineSet
Validated: 1
EndChar

StartChar: t
Encoding: 116 116 85
Width: 400
Flags: W
LayerCount: 2
Fore
SplineSet
240 0 m 1,0,-1
 160 48 l 1,1,-1
 120 144 l 1,2,-1
 120 384 l 1,3,-1
 40 384 l 1,4,-1
 40 480 l 1,5,-1
 120 480 l 1,6,-1
 120 624 l 1,7,-1
 200 672 l 1,8,-1
 240 672 l 1,9,-1
 240 480 l 1,10,-1
 360 480 l 1,11,-1
 360 384 l 1,12,-1
 240 384 l 1,13,-1
 240 144 l 1,14,-1
 280 96 l 1,15,-1
 360 96 l 1,16,-1
 360 0 l 1,17,-1
 240 0 l 1,0,-1
EndSplineSet
Validated: 1
EndChar

StartChar: u
Encoding: 117 117 86
Width: 560
Flags: W
LayerCount: 2
Fore
SplineSet
160 0 m 1,0,-1
 80 48 l 1,1,-1
 40 144 l 1,2,-1
 40 480 l 1,3,-1
 160 480 l 1,4,-1
 160 144 l 1,5,-1
 200 96 l 1,6,-1
 360 96 l 1,7,-1
 400 120 l 1,8,-1
 400 480 l 1,9,-1
 520 480 l 1,10,-1
 520 0 l 1,11,-1
 400 0 l 1,12,-1
 400 48 l 1,13,-1
 320 0 l 1,14,-1
 160 0 l 1,0,-1
EndSplineSet
Validated: 1
EndChar

StartChar: v
Encoding: 118 118 87
Width: 560
Flags: W
LayerCount: 2
Fore
SplineSet
200 0 m 1,0,-1
 0 480 l 1,1,-1
 120 480 l 1,2,-1
 280 96 l 1,3,-1
 440 480 l 1,4,-1
 560 480 l 1,5,-1
 360 0 l 1,6,-1
 200 0 l 1,0,-1
EndSplineSet
Validated: 1
EndChar

StartChar: w
Encoding: 119 119 88
Width: 760
Flags: W
LayerCount: 2
Fore
SplineSet
160 0 m 1,0,-1
 80 48 l 1,1,-1
 40 144 l 1,2,-1
 40 480 l 1,3,-1
 160 480 l 1,4,-1
 160 144 l 1,5,-1
 200 96 l 1,6,-1
 260 96 l 1,7,-1
 320 168 l 1,8,-1
 320 480 l 1,9,-1
 440 480 l 1,10,-1
 440 168 l 1,11,-1
 500 96 l 1,12,-1
 560 96 l 1,13,-1
 600 144 l 1,14,-1
 600 480 l 1,15,-1
 720 480 l 1,16,-1
 720 144 l 1,17,-1
 680 48 l 1,18,-1
 600 0 l 1,19,-1
 480 0 l 1,20,-1
 400 48 l 1,21,-1
 380 96 l 1,22,-1
 360 48 l 1,23,-1
 280 0 l 1,24,-1
 160 0 l 1,0,-1
EndSplineSet
Validated: 1
EndChar

StartChar: x
Encoding: 120 120 89
Width: 520
Flags: W
LayerCount: 2
Fore
SplineSet
0 0 m 1,0,-1
 200 240 l 1,1,-1
 0 480 l 1,2,-1
 140 480 l 1,3,-1
 270 324 l 1,4,-1
 400 480 l 1,5,-1
 540 480 l 1,6,-1
 340 240 l 1,7,-1
 540 0 l 1,8,-1
 400 0 l 1,9,-1
 270 156 l 1,10,-1
 140 0 l 1,11,-1
 0 0 l 1,0,-1
EndSplineSet
Validated: 1
EndChar

StartChar: y
Encoding: 121 121 90
Width: 560
Flags: W
LayerCount: 2
Fore
SplineSet
160 -192 m 1,0,-1
 240 0 l 1,1,-1
 200 24 l 1,2,-1
 180 48 l 1,3,-1
 0 480 l 1,4,-1
 120 480 l 1,5,-1
 280 96 l 1,6,-1
 440 480 l 1,7,-1
 560 480 l 1,8,-1
 280 -192 l 1,9,-1
 160 -192 l 1,0,-1
EndSplineSet
Validated: 1
EndChar

StartChar: z
Encoding: 122 122 91
Width: 520
Flags: W
LayerCount: 2
Fore
SplineSet
40 0 m 1,0,-1
 40 72 l 1,1,-1
 300 384 l 1,2,-1
 40 384 l 1,3,-1
 40 480 l 1,4,-1
 480 480 l 1,5,-1
 480 432 l 1,6,-1
 200 96 l 1,7,-1
 480 96 l 1,8,-1
 480 0 l 1,9,-1
 40 0 l 1,0,-1
EndSplineSet
Validated: 1
EndChar

StartChar: braceleft
Encoding: 123 123 92
Width: 440
Flags: W
LayerCount: 2
Fore
SplineSet
280 0 m 1,0,-1
 200 48 l 1,1,-1
 160 144 l 1,2,-1
 160 264 l 1,3,-1
 140 288 l 1,4,-1
 40 288 l 1,5,-1
 40 384 l 1,6,-1
 140 384 l 1,7,-1
 160 408 l 1,8,-1
 160 528 l 1,9,-1
 200 624 l 1,10,-1
 280 672 l 1,11,-1
 400 672 l 1,12,-1
 400 576 l 1,13,-1
 320 576 l 1,14,-1
 280 528 l 1,15,-1
 280 432 l 1,16,-1
 260 384 l 1,17,-1
 220 336 l 1,18,-1
 260 288 l 1,19,-1
 280 240 l 1,20,-1
 280 144 l 1,21,-1
 320 96 l 1,22,-1
 400 96 l 1,23,-1
 400 0 l 1,24,-1
 280 0 l 1,0,-1
EndSplineSet
Validated: 1
EndChar

StartChar: bar
Encoding: 124 124 93
Width: 280
Flags: W
LayerCount: 2
Fore
SplineSet
80 0 m 1,0,-1
 80 672 l 1,1,-1
 200 672 l 1,2,-1
 200 0 l 1,3,-1
 80 0 l 1,0,-1
EndSplineSet
Validated: 1
EndChar

StartChar: braceright
Encoding: 125 125 94
Width: 440
Flags: W
LayerCount: 2
Fore
SplineSet
40 0 m 1,0,-1
 40 96 l 1,1,-1
 120 96 l 1,2,-1
 160 144 l 1,3,-1
 160 240 l 1,4,-1
 180 288 l 1,5,-1
 220 336 l 1,6,-1
 180 384 l 1,7,-1
 160 432 l 1,8,-1
 160 528 l 1,9,-1
 120 576 l 1,10,-1
 40 576 l 1,11,-1
 40 672 l 1,12,-1
 160 672 l 1,13,-1
 240 624 l 1,14,-1
 280 528 l 1,15,-1
 280 408 l 1,16,-1
 300 384 l 1,17,-1
 400 384 l 1,18,-1
 400 288 l 1,19,-1
 300 288 l 1,20,-1
 280 264 l 1,21,-1
 280 144 l 1,22,-1
 240 48 l 1,23,-1
 160 0 l 1,24,-1
 40 0 l 1,0,-1
EndSplineSet
Validated: 1
EndChar

StartChar: asciitilde
Encoding: 126 126 95
Width: 480
Flags: W
LayerCount: 2
Fore
SplineSet
320 480 m 1,0,-1
 160 576 l 1,1,-1
 140 576 l 1,2,-1
 120 552 l 1,3,-1
 120 504 l 1,4,-1
 40 504 l 1,5,-1
 40 600 l 1,6,-1
 100 672 l 1,7,-1
 160 672 l 1,8,-1
 320 576 l 1,9,-1
 340 576 l 1,10,-1
 360 600 l 1,11,-1
 360 648 l 1,12,-1
 440 648 l 1,13,-1
 440 552 l 1,14,-1
 380 480 l 1,15,-1
 320 480 l 1,0,-1
EndSplineSet
Validated: 1
EndChar

StartChar: cent
Encoding: 162 162 98
Width: 560
Flags: W
LayerCount: 2
Fore
SplineSet
240 0 m 1,0,-1
 240 96 l 1,1,-1
 160 96 l 1,2,-1
 80 144 l 1,3,-1
 40 240 l 1,4,-1
 40 432 l 1,5,-1
 80 528 l 1,6,-1
 160 576 l 1,7,-1
 240 576 l 1,8,-1
 240 672 l 1,9,-1
 320 672 l 1,10,-1
 320 576 l 1,11,-1
 400 576 l 1,12,-1
 480 528 l 1,13,-1
 520 432 l 1,14,-1
 440 384 l 1,15,-1
 400 384 l 1,16,-1
 400 432 l 1,17,-1
 360 480 l 1,18,-1
 200 480 l 1,19,-1
 160 432 l 1,20,-1
 160 240 l 1,21,-1
 200 192 l 1,22,-1
 360 192 l 1,23,-1
 400 240 l 1,24,-1
 400 288 l 1,25,-1
 440 288 l 1,26,-1
 520 240 l 1,27,-1
 480 144 l 1,28,-1
 400 96 l 1,29,-1
 320 96 l 1,30,-1
 320 0 l 1,31,-1
 240 0 l 1,0,-1
EndSplineSet
Validated: 1
EndChar

StartChar: sterling
Encoding: 163 163 99
Width: 680
Flags: W
LayerCount: 2
Fore
SplineSet
40 0 m 1,0,-1
 40 96 l 1,1,-1
 120 96 l 1,2,-1
 120 288 l 1,3,-1
 40 288 l 1,4,-1
 40 384 l 1,5,-1
 120 384 l 1,6,-1
 120 528 l 1,7,-1
 160 624 l 1,8,-1
 240 672 l 1,9,-1
 480 672 l 1,10,-1
 560 624 l 1,11,-1
 600 528 l 1,12,-1
 520 480 l 1,13,-1
 480 480 l 1,14,-1
 480 528 l 1,15,-1
 440 576 l 1,16,-1
 280 576 l 1,17,-1
 240 528 l 1,18,-1
 240 384 l 1,19,-1
 480 384 l 1,20,-1
 480 288 l 1,21,-1
 240 288 l 1,22,-1
 240 96 l 1,23,-1
 480 96 l 1,24,-1
 520 144 l 1,25,-1
 520 240 l 1,26,-1
 560 240 l 1,27,-1
 640 192 l 1,28,-1
 640 144 l 1,29,-1
 600 48 l 1,30,-1
 520 0 l 1,31,-1
 40 0 l 1,0,-1
EndSplineSet
Validated: 1
EndChar

StartChar: yen
Encoding: 165 165 100
Width: 680
Flags: W
LayerCount: 2
Fore
SplineSet
280 0 m 1,0,-1
 280 72 l 1,1,-1
 80 72 l 1,2,-1
 80 144 l 1,3,-1
 280 144 l 1,4,-1
 280 240 l 1,5,-1
 80 240 l 1,6,-1
 80 312 l 1,7,-1
 280 312 l 1,8,-1
 280 336 l 1,9,-1
 0 672 l 1,10,-1
 140 672 l 1,11,-1
 320 456 l 1,12,-1
 360 456 l 1,13,-1
 540 672 l 1,14,-1
 680 672 l 1,15,-1
 400 336 l 1,16,-1
 400 312 l 1,17,-1
 600 312 l 1,18,-1
 600 240 l 1,19,-1
 400 240 l 1,20,-1
 400 144 l 1,21,-1
 600 144 l 1,22,-1
 600 72 l 1,23,-1
 400 72 l 1,24,-1
 400 0 l 1,25,-1
 280 0 l 1,0,-1
EndSplineSet
Validated: 1
EndChar

StartChar: brokenbar
Encoding: 166 166 101
Width: 240
Flags: W
LayerCount: 2
Fore
SplineSet
80 0 m 1,0,-1
 80 288 l 1,1,-1
 200 288 l 1,2,-1
 200 0 l 1,3,-1
 80 0 l 1,0,-1
80 384 m 1,4,-1
 80 672 l 1,5,-1
 200 672 l 1,6,-1
 200 384 l 1,7,-1
 80 384 l 1,4,-1
EndSplineSet
Validated: 1
EndChar

StartChar: dieresis
Encoding: 168 168 102
Width: 440
Flags: W
LayerCount: 2
Fore
SplineSet
40 552 m 1,0,-1
 40 672 l 1,1,-1
 160 672 l 1,2,-1
 160 552 l 1,3,-1
 40 552 l 1,0,-1
280 552 m 1,4,-1
 280 672 l 1,5,-1
 400 672 l 1,6,-1
 400 552 l 1,7,-1
 280 552 l 1,4,-1
EndSplineSet
Validated: 1
EndChar

StartChar: copyright
Encoding: 169 169 103
Width: 600
Flags: W
LayerCount: 2
Fore
SplineSet
240 240 m 1,0,-1
 200 264 l 1,1,-1
 180 288 l 1,2,-1
 160 336 l 1,3,-1
 160 480 l 1,4,-1
 180 528 l 1,5,-1
 200 552 l 1,6,-1
 240 576 l 1,7,-1
 360 576 l 1,8,-1
 400 552 l 1,9,-1
 420 528 l 1,10,-1
 440 480 l 1,11,-1
 360 432 l 1,12,-1
 360 504 l 1,13,-1
 340 528 l 1,14,-1
 260 528 l 1,15,-1
 240 504 l 1,16,-1
 240 312 l 1,17,-1
 260 288 l 1,18,-1
 340 288 l 1,19,-1
 360 312 l 1,20,-1
 360 384 l 1,21,-1
 440 336 l 1,22,-1
 420 288 l 1,23,-1
 400 264 l 1,24,-1
 360 240 l 1,25,-1
 240 240 l 1,0,-1
440 216 m 1,26,-1
 480 264 l 1,27,-1
 480 552 l 1,28,-1
 440 600 l 1,29,-1
 160 600 l 1,30,-1
 120 552 l 1,31,-1
 120 264 l 1,32,-1
 160 216 l 1,33,-1
 440 216 l 1,26,-1
160 144 m 1,34,-1
 80 192 l 1,35,-1
 40 288 l 1,36,-1
 40 528 l 1,37,-1
 80 624 l 1,38,-1
 160 672 l 1,39,-1
 440 672 l 1,40,-1
 520 624 l 1,41,-1
 560 528 l 1,42,-1
 560 288 l 1,43,-1
 520 192 l 1,44,-1
 440 144 l 1,45,-1
 160 144 l 1,34,-1
EndSplineSet
Validated: 1
EndChar

StartChar: guillemotleft
Encoding: 171 171 104
Width: 640
Flags: W
LayerCount: 2
Fore
SplineSet
200 144 m 1,0,-1
 40 336 l 1,1,-1
 200 528 l 1,2,-1
 340 528 l 1,3,-1
 180 336 l 1,4,-1
 340 144 l 1,5,-1
 200 144 l 1,0,-1
440 144 m 1,6,-1
 280 336 l 1,7,-1
 440 528 l 1,8,-1
 580 528 l 1,9,-1
 420 336 l 1,10,-1
 580 144 l 1,11,-1
 440 144 l 1,6,-1
EndSplineSet
Validated: 1
EndChar

StartChar: logicalnot
Encoding: 172 172 105
Width: 520
Flags: W
LayerCount: 2
Fore
SplineSet
360 144 m 1,0,-1
 360 288 l 1,1,-1
 40 288 l 1,2,-1
 40 384 l 1,3,-1
 480 384 l 1,4,-1
 480 144 l 1,5,-1
 360 144 l 1,0,-1
EndSplineSet
Validated: 1
EndChar

StartChar: registered
Encoding: 174 174 106
Width: 600
Flags: W
LayerCount: 2
Fore
SplineSet
340 384 m 1,0,-1
 360 408 l 1,1,-1
 360 504 l 1,2,-1
 340 528 l 1,3,-1
 240 528 l 1,4,-1
 240 384 l 1,5,-1
 340 384 l 1,0,-1
160 240 m 1,6,-1
 160 576 l 1,7,-1
 360 576 l 1,8,-1
 400 552 l 1,9,-1
 420 528 l 1,10,-1
 440 480 l 1,11,-1
 440 432 l 1,12,-1
 420 384 l 1,13,-1
 380 336 l 1,14,-1
 420 240 l 1,15,-1
 340 240 l 1,16,-1
 300 336 l 1,17,-1
 240 336 l 1,18,-1
 240 240 l 1,19,-1
 160 240 l 1,6,-1
440 216 m 1,20,-1
 480 264 l 1,21,-1
 480 552 l 1,22,-1
 440 600 l 1,23,-1
 160 600 l 1,24,-1
 120 552 l 1,25,-1
 120 264 l 1,26,-1
 160 216 l 1,27,-1
 440 216 l 1,20,-1
160 144 m 1,28,-1
 80 192 l 1,29,-1
 40 288 l 1,30,-1
 40 528 l 1,31,-1
 80 624 l 1,32,-1
 160 672 l 1,33,-1
 440 672 l 1,34,-1
 520 624 l 1,35,-1
 560 528 l 1,36,-1
 560 288 l 1,37,-1
 520 192 l 1,38,-1
 440 144 l 1,39,-1
 160 144 l 1,28,-1
EndSplineSet
Validated: 1
EndChar

StartChar: degree
Encoding: 176 176 107
Width: 320
Flags: W
LayerCount: 2
Fore
SplineSet
180 528 m 1,0,-1
 200 552 l 1,1,-1
 200 600 l 1,2,-1
 180 624 l 1,3,-1
 140 624 l 1,4,-1
 120 600 l 1,5,-1
 120 552 l 1,6,-1
 140 528 l 1,7,-1
 180 528 l 1,0,-1
80 480 m 1,8,-1
 40 528 l 1,9,-1
 40 624 l 1,10,-1
 80 672 l 1,11,-1
 240 672 l 1,12,-1
 280 624 l 1,13,-1
 280 528 l 1,14,-1
 240 480 l 1,15,-1
 80 480 l 1,8,-1
EndSplineSet
Validated: 1
EndChar

StartChar: plusminus
Encoding: 177 177 108
Width: 520
Flags: W
LayerCount: 2
Fore
SplineSet
40 0 m 1,0,-1
 40 96 l 1,1,-1
 480 96 l 1,2,-1
 480 0 l 1,3,-1
 40 0 l 1,0,-1
200 192 m 1,4,-1
 200 336 l 1,5,-1
 40 336 l 1,6,-1
 40 432 l 1,7,-1
 200 432 l 1,8,-1
 200 576 l 1,9,-1
 320 576 l 1,10,-1
 320 432 l 1,11,-1
 480 432 l 1,12,-1
 480 336 l 1,13,-1
 320 336 l 1,14,-1
 320 192 l 1,15,-1
 200 192 l 1,4,-1
EndSplineSet
Validated: 1
EndChar

StartChar: acute
Encoding: 180 180 109
Width: 280
Flags: W
LayerCount: 2
Fore
SplineSet
40 528 m 1,0,-1
 100 672 l 1,1,-1
 240 672 l 1,2,-1
 120 528 l 1,3,-1
 40 528 l 1,0,-1
EndSplineSet
Validated: 1
EndChar

StartChar: mu
Encoding: 181 181 110
Width: 560
Flags: W
LayerCount: 2
Fore
SplineSet
40 -192 m 1,0,-1
 40 480 l 1,1,-1
 160 480 l 1,2,-1
 160 120 l 1,3,-1
 200 96 l 1,4,-1
 360 96 l 1,5,-1
 400 120 l 1,6,-1
 400 480 l 1,7,-1
 520 480 l 1,8,-1
 520 0 l 1,9,-1
 400 0 l 1,10,-1
 400 24 l 1,11,-1
 360 0 l 1,12,-1
 200 0 l 1,13,-1
 160 24 l 1,14,-1
 160 -192 l 1,15,-1
 40 -192 l 1,0,-1
EndSplineSet
Validated: 1
EndChar

StartChar: paragraph
Encoding: 182 182 111
Width: 640
Flags: W
LayerCount: 2
Fore
SplineSet
280 0 m 1,0,-1
 280 288 l 1,1,-1
 160 288 l 1,2,-1
 80 336 l 1,3,-1
 40 432 l 1,4,-1
 40 528 l 1,5,-1
 80 624 l 1,6,-1
 160 672 l 1,7,-1
 600 672 l 1,8,-1
 600 0 l 1,9,-1
 480 0 l 1,10,-1
 480 576 l 1,11,-1
 400 576 l 1,12,-1
 400 0 l 1,13,-1
 280 0 l 1,0,-1
EndSplineSet
Validated: 1
EndChar

StartChar: periodcentered
Encoding: 183 183 112
Width: 280
Flags: W
LayerCount: 2
Fore
SplineSet
80 288 m 1,0,-1
 80 408 l 1,1,-1
 200 408 l 1,2,-1
 200 288 l 1,3,-1
 80 288 l 1,0,-1
EndSplineSet
Validated: 1
EndChar

StartChar: cedilla
Encoding: 184 184 113
Width: 320
Flags: W
LayerCount: 2
Fore
SplineSet
80 -240 m 1,0,-1
 40 -192 l 1,1,-1
 40 -144 l 1,2,-1
 120 -144 l 1,3,-1
 120 -168 l 1,4,-1
 140 -192 l 1,5,-1
 180 -192 l 1,6,-1
 200 -168 l 1,7,-1
 200 -120 l 1,8,-1
 180 -96 l 1,9,-1
 120 -96 l 1,10,-1
 120 -48 l 1,11,-1
 140 0 l 1,12,-1
 200 0 l 1,13,-1
 180 -48 l 1,14,-1
 240 -48 l 1,15,-1
 280 -96 l 1,16,-1
 280 -192 l 1,17,-1
 240 -240 l 1,18,-1
 80 -240 l 1,0,-1
EndSplineSet
Validated: 1
EndChar

StartChar: guillemotright
Encoding: 187 187 114
Width: 640
Flags: W
LayerCount: 2
Fore
SplineSet
60 144 m 1,0,-1
 220 336 l 1,1,-1
 60 528 l 1,2,-1
 200 528 l 1,3,-1
 360 336 l 1,4,-1
 200 144 l 1,5,-1
 60 144 l 1,0,-1
300 144 m 1,6,-1
 460 336 l 1,7,-1
 300 528 l 1,8,-1
 440 528 l 1,9,-1
 600 336 l 1,10,-1
 440 144 l 1,11,-1
 300 144 l 1,6,-1
EndSplineSet
Validated: 1
EndChar

StartChar: Aring
Encoding: 197 197 121
Width: 720
Flags: W
LayerCount: 2
Fore
SplineSet
500 240 m 1,0,-1
 360 576 l 1,1,-1
 220 240 l 1,2,-1
 500 240 l 1,0,-1
0 0 m 1,3,-1
 280 672 l 1,4,-1
 440 672 l 1,5,-1
 720 0 l 1,6,-1
 600 0 l 1,7,-1
 540 144 l 1,8,-1
 180 144 l 1,9,-1
 120 0 l 1,10,-1
 0 0 l 1,3,-1
380 768 m 1,11,-1
 400 792 l 1,12,-1
 400 840 l 1,13,-1
 380 864 l 1,14,-1
 340 864 l 1,15,-1
 320 840 l 1,16,-1
 320 792 l 1,17,-1
 340 768 l 1,18,-1
 380 768 l 1,11,-1
280 720 m 1,19,-1
 240 768 l 1,20,-1
 240 864 l 1,21,-1
 280 912 l 1,22,-1
 440 912 l 1,23,-1
 480 864 l 1,24,-1
 480 768 l 1,25,-1
 440 720 l 1,26,-1
 280 720 l 1,19,-1
EndSplineSet
Validated: 1
EndChar

StartChar: AE
Encoding: 198 198 122
Width: 1040
Flags: W
LayerCount: 2
Fore
SplineSet
520 240 m 1,0,-1
 520 576 l 1,1,-1
 360 576 l 1,2,-1
 220 240 l 1,3,-1
 520 240 l 1,0,-1
0 0 m 1,4,-1
 280 672 l 1,5,-1
 1000 672 l 1,6,-1
 1000 576 l 1,7,-1
 640 576 l 1,8,-1
 640 384 l 1,9,-1
 960 384 l 1,10,-1
 960 288 l 1,11,-1
 640 288 l 1,12,-1
 640 96 l 1,13,-1
 1000 96 l 1,14,-1
 1000 0 l 1,15,-1
 520 0 l 1,16,-1
 520 144 l 1,17,-1
 180 144 l 1,18,-1
 120 0 l 1,19,-1
 0 0 l 1,4,-1
EndSplineSet
Validated: 1
EndChar

StartChar: Ccedilla
Encoding: 199 199 123
Width: 640
Flags: W
LayerCount: 2
Fore
SplineSet
240 -240 m 1,0,-1
 200 -192 l 1,1,-1
 200 -144 l 1,2,-1
 280 -144 l 1,3,-1
 280 -168 l 1,4,-1
 300 -192 l 1,5,-1
 340 -192 l 1,6,-1
 360 -168 l 1,7,-1
 360 -120 l 1,8,-1
 340 -96 l 1,9,-1
 280 -96 l 1,10,-1
 280 -48 l 1,11,-1
 300 0 l 1,12,-1
 160 0 l 1,13,-1
 80 48 l 1,14,-1
 40 144 l 1,15,-1
 40 528 l 1,16,-1
 80 624 l 1,17,-1
 160 672 l 1,18,-1
 480 672 l 1,19,-1
 560 624 l 1,20,-1
 600 528 l 1,21,-1
 600 480 l 1,22,-1
 520 432 l 1,23,-1
 480 432 l 1,24,-1
 480 528 l 1,25,-1
 440 576 l 1,26,-1
 200 576 l 1,27,-1
 160 528 l 1,28,-1
 160 144 l 1,29,-1
 200 96 l 1,30,-1
 440 96 l 1,31,-1
 480 144 l 1,32,-1
 480 240 l 1,33,-1
 520 240 l 1,34,-1
 600 192 l 1,35,-1
 600 144 l 1,36,-1
 560 48 l 1,37,-1
 480 0 l 1,38,-1
 360 0 l 1,39,-1
 340 -48 l 1,40,-1
 400 -48 l 1,41,-1
 440 -96 l 1,42,-1
 440 -192 l 1,43,-1
 400 -240 l 1,44,-1
 240 -240 l 1,0,-1
EndSplineSet
Validated: 1
EndChar

StartChar: Eth
Encoding: 208 208 132
Width: 720
Flags: W
LayerCount: 2
Fore
SplineSet
520 96 m 1,0,-1
 560 144 l 1,1,-1
 560 528 l 1,2,-1
 520 576 l 1,3,-1
 240 576 l 1,4,-1
 240 384 l 1,5,-1
 400 384 l 1,6,-1
 400 288 l 1,7,-1
 240 288 l 1,8,-1
 240 96 l 1,9,-1
 520 96 l 1,0,-1
120 0 m 1,10,-1
 120 288 l 1,11,-1
 40 288 l 1,12,-1
 40 384 l 1,13,-1
 120 384 l 1,14,-1
 120 672 l 1,15,-1
 560 672 l 1,16,-1
 640 624 l 1,17,-1
 680 528 l 1,18,-1
 680 144 l 1,19,-1
 640 48 l 1,20,-1
 560 0 l 1,21,-1
 120 0 l 1,10,-1
EndSplineSet
Validated: 1
EndChar

StartChar: multiply
Encoding: 215 215 139
Width: 520
Flags: W
LayerCount: 2
Fore
SplineSet
40 144 m 1,0,-1
 200 336 l 1,1,-1
 40 528 l 1,2,-1
 180 528 l 1,3,-1
 260 432 l 1,4,-1
 280 432 l 1,5,-1
 360 528 l 1,6,-1
 500 528 l 1,7,-1
 340 336 l 1,8,-1
 500 144 l 1,9,-1
 360 144 l 1,10,-1
 280 240 l 1,11,-1
 260 240 l 1,12,-1
 180 144 l 1,13,-1
 40 144 l 1,0,-1
EndSplineSet
Validated: 1
EndChar

StartChar: Oslash
Encoding: 216 216 140
Width: 640
Flags: W
LayerCount: 2
Fore
SplineSet
440 96 m 1,0,-1
 480 144 l 1,1,-1
 480 480 l 1,2,-1
 180 120 l 1,3,-1
 200 96 l 1,4,-1
 440 96 l 1,0,-1
160 192 m 1,5,-1
 460 552 l 1,6,-1
 440 576 l 1,7,-1
 200 576 l 1,8,-1
 160 528 l 1,9,-1
 160 192 l 1,5,-1
160 0 m 1,10,-1
 80 48 l 1,11,-1
 40 144 l 1,12,-1
 40 528 l 1,13,-1
 80 624 l 1,14,-1
 160 672 l 1,15,-1
 480 672 l 1,16,-1
 560 624 l 1,17,-1
 600 528 l 1,18,-1
 600 144 l 1,19,-1
 560 48 l 1,20,-1
 480 0 l 1,21,-1
 160 0 l 1,10,-1
EndSplineSet
Validated: 1
EndChar

StartChar: Thorn
Encoding: 222 222 146
Width: 640
Flags: W
LayerCount: 2
Fore
SplineSet
440 192 m 1,0,-1
 480 240 l 1,1,-1
 480 432 l 1,2,-1
 440 480 l 1,3,-1
 160 480 l 1,4,-1
 160 192 l 1,5,-1
 440 192 l 1,0,-1
40 0 m 1,6,-1
 40 672 l 1,7,-1
 160 672 l 1,8,-1
 160 576 l 1,9,-1
 480 576 l 1,10,-1
 560 528 l 1,11,-1
 600 432 l 1,12,-1
 600 240 l 1,13,-1
 560 144 l 1,14,-1
 480 96 l 1,15,-1
 160 96 l 1,16,-1
 160 0 l 1,17,-1
 40 0 l 1,6,-1
EndSplineSet
Validated: 1
EndChar

StartChar: germandbls
Encoding: 223 223 147
Width: 560
Flags: W
LayerCount: 2
Fore
SplineSet
40 0 m 1,0,-1
 40 528 l 1,1,-1
 80 624 l 1,2,-1
 160 672 l 1,3,-1
 400 672 l 1,4,-1
 480 624 l 1,5,-1
 520 528 l 1,6,-1
 520 432 l 1,7,-1
 500 384 l 1,8,-1
 460 336 l 1,9,-1
 500 288 l 1,10,-1
 520 240 l 1,11,-1
 520 144 l 1,12,-1
 480 48 l 1,13,-1
 400 0 l 1,14,-1
 240 0 l 1,15,-1
 240 96 l 1,16,-1
 360 96 l 1,17,-1
 400 144 l 1,18,-1
 400 240 l 1,19,-1
 360 288 l 1,20,-1
 240 288 l 1,21,-1
 240 384 l 1,22,-1
 360 384 l 1,23,-1
 400 432 l 1,24,-1
 400 528 l 1,25,-1
 360 576 l 1,26,-1
 200 576 l 1,27,-1
 160 528 l 1,28,-1
 160 0 l 1,29,-1
 40 0 l 1,0,-1
EndSplineSet
Validated: 1
EndChar

StartChar: aring
Encoding: 229 229 153
Width: 560
Flags: W
LayerCount: 2
Fore
SplineSet
360 96 m 1,0,-1
 400 120 l 1,1,-1
 400 168 l 1,2,-1
 360 192 l 1,3,-1
 180 192 l 1,4,-1
 160 168 l 1,5,-1
 160 120 l 1,6,-1
 180 96 l 1,7,-1
 360 96 l 1,0,-1
120 0 m 1,8,-1
 80 24 l 1,9,-1
 60 48 l 1,10,-1
 40 96 l 1,11,-1
 40 192 l 1,12,-1
 60 240 l 1,13,-1
 80 264 l 1,14,-1
 120 288 l 1,15,-1
 320 288 l 1,16,-1
 400 240 l 1,17,-1
 400 336 l 1,18,-1
 360 384 l 1,19,-1
 180 384 l 1,20,-1
 160 360 l 1,21,-1
 160 336 l 1,22,-1
 120 336 l 1,23,-1
 40 384 l 1,24,-1
 80 432 l 1,25,-1
 160 480 l 1,26,-1
 400 480 l 1,27,-1
 480 432 l 1,28,-1
 520 336 l 1,29,-1
 520 48 l 1,30,-1
 540 0 l 1,31,-1
 420 0 l 1,32,-1
 400 48 l 1,33,-1
 320 0 l 1,34,-1
 120 0 l 1,8,-1
300 576 m 1,35,-1
 320 600 l 1,36,-1
 320 648 l 1,37,-1
 300 672 l 1,38,-1
 260 672 l 1,39,-1
 240 648 l 1,40,-1
 240 600 l 1,41,-1
 260 576 l 1,42,-1
 300 576 l 1,35,-1
200 528 m 1,43,-1
 160 576 l 1,44,-1
 160 672 l 1,45,-1
 200 720 l 1,46,-1
 360 720 l 1,47,-1
 400 672 l 1,48,-1
 400 576 l 1,49,-1
 360 528 l 1,50,-1
 200 528 l 1,43,-1
EndSplineSet
Validated: 1
EndChar

StartChar: ae
Encoding: 230 230 154
Width: 920
Flags: W
LayerCount: 2
Fore
SplineSet
360 96 m 1,0,-1
 400 120 l 1,1,-1
 400 168 l 1,2,-1
 360 192 l 1,3,-1
 180 192 l 1,4,-1
 160 168 l 1,5,-1
 160 120 l 1,6,-1
 180 96 l 1,7,-1
 360 96 l 1,0,-1
760 264 m 1,8,-1
 760 336 l 1,9,-1
 720 384 l 1,10,-1
 560 384 l 1,11,-1
 520 336 l 1,12,-1
 520 264 l 1,13,-1
 760 264 l 1,8,-1
120 0 m 1,14,-1
 80 24 l 1,15,-1
 60 48 l 1,16,-1
 40 96 l 1,17,-1
 40 192 l 1,18,-1
 60 240 l 1,19,-1
 80 264 l 1,20,-1
 120 288 l 1,21,-1
 320 288 l 1,22,-1
 400 240 l 1,23,-1
 400 336 l 1,24,-1
 360 384 l 1,25,-1
 180 384 l 1,26,-1
 160 360 l 1,27,-1
 160 336 l 1,28,-1
 120 336 l 1,29,-1
 40 384 l 1,30,-1
 80 432 l 1,31,-1
 160 480 l 1,32,-1
 360 480 l 1,33,-1
 440 432 l 1,34,-1
 520 480 l 1,35,-1
 760 480 l 1,36,-1
 840 432 l 1,37,-1
 880 336 l 1,38,-1
 880 192 l 1,39,-1
 520 192 l 1,40,-1
 520 144 l 1,41,-1
 560 96 l 1,42,-1
 720 96 l 1,43,-1
 760 144 l 1,44,-1
 880 144 l 1,45,-1
 840 48 l 1,46,-1
 760 0 l 1,47,-1
 520 0 l 1,48,-1
 440 48 l 1,49,-1
 360 0 l 1,50,-1
 120 0 l 1,14,-1
EndSplineSet
Validated: 1
EndChar

StartChar: ccedilla
Encoding: 231 231 155
Width: 560
Flags: W
LayerCount: 2
Fore
SplineSet
200 -240 m 1,0,-1
 160 -192 l 1,1,-1
 160 -144 l 1,2,-1
 240 -144 l 1,3,-1
 240 -168 l 1,4,-1
 260 -192 l 1,5,-1
 300 -192 l 1,6,-1
 320 -168 l 1,7,-1
 320 -120 l 1,8,-1
 300 -96 l 1,9,-1
 240 -96 l 1,10,-1
 240 -48 l 1,11,-1
 260 0 l 1,12,-1
 160 0 l 1,13,-1
 80 48 l 1,14,-1
 40 144 l 1,15,-1
 40 336 l 1,16,-1
 80 432 l 1,17,-1
 160 480 l 1,18,-1
 400 480 l 1,19,-1
 480 432 l 1,20,-1
 520 336 l 1,21,-1
 440 288 l 1,22,-1
 400 288 l 1,23,-1
 400 336 l 1,24,-1
 360 384 l 1,25,-1
 200 384 l 1,26,-1
 160 336 l 1,27,-1
 160 144 l 1,28,-1
 200 96 l 1,29,-1
 360 96 l 1,30,-1
 400 144 l 1,31,-1
 400 192 l 1,32,-1
 440 192 l 1,33,-1
 520 144 l 1,34,-1
 480 48 l 1,35,-1
 400 0 l 1,36,-1
 320 0 l 1,37,-1
 300 -48 l 1,38,-1
 360 -48 l 1,39,-1
 400 -96 l 1,40,-1
 400 -192 l 1,41,-1
 360 -240 l 1,42,-1
 200 -240 l 1,0,-1
EndSplineSet
Validated: 1
EndChar

StartChar: eth
Encoding: 240 240 164
Width: 640
Flags: W
LayerCount: 2
Fore
SplineSet
360 96 m 1,0,-1
 400 120 l 1,1,-1
 400 360 l 1,2,-1
 360 384 l 1,3,-1
 200 384 l 1,4,-1
 160 336 l 1,5,-1
 160 144 l 1,6,-1
 200 96 l 1,7,-1
 360 96 l 1,0,-1
160 0 m 1,8,-1
 80 48 l 1,9,-1
 40 144 l 1,10,-1
 40 336 l 1,11,-1
 80 432 l 1,12,-1
 160 480 l 1,13,-1
 320 480 l 1,14,-1
 400 432 l 1,15,-1
 400 528 l 1,16,-1
 280 528 l 1,17,-1
 280 600 l 1,18,-1
 400 600 l 1,19,-1
 400 672 l 1,20,-1
 520 672 l 1,21,-1
 520 600 l 1,22,-1
 600 600 l 1,23,-1
 600 528 l 1,24,-1
 520 528 l 1,25,-1
 520 0 l 1,26,-1
 400 0 l 1,27,-1
 400 48 l 1,28,-1
 320 0 l 1,29,-1
 160 0 l 1,8,-1
EndSplineSet
Validated: 1
EndChar

StartChar: divide
Encoding: 247 247 171
Width: 600
Flags: W
LayerCount: 2
Fore
SplineSet
240 96 m 1,0,-1
 240 216 l 1,1,-1
 360 216 l 1,2,-1
 360 96 l 1,3,-1
 240 96 l 1,0,-1
40 288 m 1,4,-1
 40 384 l 1,5,-1
 560 384 l 1,6,-1
 560 288 l 1,7,-1
 40 288 l 1,4,-1
240 456 m 1,8,-1
 240 576 l 1,9,-1
 360 576 l 1,10,-1
 360 456 l 1,11,-1
 240 456 l 1,8,-1
EndSplineSet
Validated: 1
EndChar

StartChar: oslash
Encoding: 248 248 172
Width: 560
Flags: W
LayerCount: 2
Fore
SplineSet
360 96 m 1,0,-1
 400 144 l 1,1,-1
 400 336 l 1,2,-1
 200 96 l 1,3,-1
 360 96 l 1,0,-1
160 144 m 1,4,-1
 360 384 l 1,5,-1
 200 384 l 1,6,-1
 160 336 l 1,7,-1
 160 144 l 1,4,-1
160 0 m 1,8,-1
 80 48 l 1,9,-1
 40 144 l 1,10,-1
 40 336 l 1,11,-1
 80 432 l 1,12,-1
 160 480 l 1,13,-1
 400 480 l 1,14,-1
 480 432 l 1,15,-1
 520 336 l 1,16,-1
 520 144 l 1,17,-1
 480 48 l 1,18,-1
 400 0 l 1,19,-1
 160 0 l 1,8,-1
EndSplineSet
Validated: 1
EndChar

StartChar: thorn
Encoding: 254 254 178
Width: 560
Flags: W
LayerCount: 2
Fore
SplineSet
360 96 m 1,0,-1
 400 144 l 1,1,-1
 400 336 l 1,2,-1
 360 384 l 1,3,-1
 200 384 l 1,4,-1
 160 360 l 1,5,-1
 160 120 l 1,6,-1
 200 96 l 1,7,-1
 360 96 l 1,0,-1
40 -192 m 1,8,-1
 40 672 l 1,9,-1
 160 672 l 1,10,-1
 160 432 l 1,11,-1
 240 480 l 1,12,-1
 400 480 l 1,13,-1
 480 432 l 1,14,-1
 520 336 l 1,15,-1
 520 144 l 1,16,-1
 480 48 l 1,17,-1
 400 0 l 1,18,-1
 240 0 l 1,19,-1
 160 48 l 1,20,-1
 160 -192 l 1,21,-1
 40 -192 l 1,8,-1
EndSplineSet
Validated: 1
EndChar

StartChar: Amacron
Encoding: 256 256 180
Width: 720
Flags: W
LayerCount: 2
Fore
SplineSet
500 240 m 1,0,-1
 360 576 l 1,1,-1
 220 240 l 1,2,-1
 500 240 l 1,0,-1
0 0 m 1,3,-1
 280 672 l 1,4,-1
 440 672 l 1,5,-1
 720 0 l 1,6,-1
 600 0 l 1,7,-1
 540 144 l 1,8,-1
 180 144 l 1,9,-1
 120 0 l 1,10,-1
 0 0 l 1,3,-1
200 744 m 1,11,-1
 200 816 l 1,12,-1
 520 816 l 1,13,-1
 520 744 l 1,14,-1
 200 744 l 1,11,-1
EndSplineSet
Validated: 1
EndChar

StartChar: amacron
Encoding: 257 257 181
Width: 560
Flags: W
LayerCount: 2
Fore
SplineSet
360 96 m 1,0,-1
 400 120 l 1,1,-1
 400 168 l 1,2,-1
 360 192 l 1,3,-1
 180 192 l 1,4,-1
 160 168 l 1,5,-1
 160 120 l 1,6,-1
 180 96 l 1,7,-1
 360 96 l 1,0,-1
120 0 m 1,8,-1
 80 24 l 1,9,-1
 60 48 l 1,10,-1
 40 96 l 1,11,-1
 40 192 l 1,12,-1
 60 240 l 1,13,-1
 80 264 l 1,14,-1
 120 288 l 1,15,-1
 320 288 l 1,16,-1
 400 240 l 1,17,-1
 400 336 l 1,18,-1
 360 384 l 1,19,-1
 180 384 l 1,20,-1
 160 360 l 1,21,-1
 160 336 l 1,22,-1
 120 336 l 1,23,-1
 40 384 l 1,24,-1
 80 432 l 1,25,-1
 160 480 l 1,26,-1
 400 480 l 1,27,-1
 480 432 l 1,28,-1
 520 336 l 1,29,-1
 520 48 l 1,30,-1
 540 0 l 1,31,-1
 420 0 l 1,32,-1
 400 48 l 1,33,-1
 320 0 l 1,34,-1
 120 0 l 1,8,-1
120 552 m 1,35,-1
 120 624 l 1,36,-1
 440 624 l 1,37,-1
 440 552 l 1,38,-1
 120 552 l 1,35,-1
EndSplineSet
Validated: 1
EndChar

StartChar: Aogonek
Encoding: 260 260 184
Width: 720
Flags: W
LayerCount: 2
Fore
SplineSet
600 -240 m 1,0,-1
 560 -192 l 1,1,-1
 560 -96 l 1,2,-1
 600 -48 l 1,3,-1
 720 -48 l 1,4,-1
 720 -96 l 1,5,-1
 660 -96 l 1,6,-1
 640 -120 l 1,7,-1
 640 -168 l 1,8,-1
 660 -192 l 1,9,-1
 700 -192 l 1,10,-1
 720 -168 l 1,11,-1
 720 -144 l 1,12,-1
 800 -144 l 1,13,-1
 800 -192 l 1,14,-1
 760 -240 l 1,15,-1
 600 -240 l 1,0,-1
500 240 m 1,16,-1
 360 576 l 1,17,-1
 220 240 l 1,18,-1
 500 240 l 1,16,-1
0 0 m 1,19,-1
 280 672 l 1,20,-1
 440 672 l 1,21,-1
 720 0 l 1,22,-1
 600 0 l 1,23,-1
 540 144 l 1,24,-1
 180 144 l 1,25,-1
 120 0 l 1,26,-1
 0 0 l 1,19,-1
EndSplineSet
Validated: 1
EndChar

StartChar: aogonek
Encoding: 261 261 185
Width: 560
Flags: W
LayerCount: 2
Fore
SplineSet
400 -240 m 1,0,-1
 360 -192 l 1,1,-1
 360 -96 l 1,2,-1
 400 -48 l 1,3,-1
 520 -48 l 1,4,-1
 520 -96 l 1,5,-1
 460 -96 l 1,6,-1
 440 -120 l 1,7,-1
 440 -168 l 1,8,-1
 460 -192 l 1,9,-1
 500 -192 l 1,10,-1
 520 -168 l 1,11,-1
 520 -144 l 1,12,-1
 600 -144 l 1,13,-1
 600 -192 l 1,14,-1
 560 -240 l 1,15,-1
 400 -240 l 1,0,-1
360 96 m 1,16,-1
 400 120 l 1,17,-1
 400 168 l 1,18,-1
 360 192 l 1,19,-1
 180 192 l 1,20,-1
 160 168 l 1,21,-1
 160 120 l 1,22,-1
 180 96 l 1,23,-1
 360 96 l 1,16,-1
120 0 m 1,24,-1
 80 24 l 1,25,-1
 60 48 l 1,26,-1
 40 96 l 1,27,-1
 40 192 l 1,28,-1
 60 240 l 1,29,-1
 80 264 l 1,30,-1
 120 288 l 1,31,-1
 320 288 l 1,32,-1
 400 240 l 1,33,-1
 400 336 l 1,34,-1
 360 384 l 1,35,-1
 180 384 l 1,36,-1
 160 360 l 1,37,-1
 160 336 l 1,38,-1
 120 336 l 1,39,-1
 40 384 l 1,40,-1
 80 432 l 1,41,-1
 160 480 l 1,42,-1
 400 480 l 1,43,-1
 480 432 l 1,44,-1
 520 336 l 1,45,-1
 520 48 l 1,46,-1
 540 0 l 1,47,-1
 420 0 l 1,48,-1
 400 48 l 1,49,-1
 320 0 l 1,50,-1
 120 0 l 1,24,-1
EndSplineSet
Validated: 1
EndChar

StartChar: dcaron
Encoding: 271 271 195
Width: 800
Flags: W
LayerCount: 2
Fore
SplineSet
360 96 m 1,0,-1
 400 120 l 1,1,-1
 400 360 l 1,2,-1
 360 384 l 1,3,-1
 200 384 l 1,4,-1
 160 336 l 1,5,-1
 160 144 l 1,6,-1
 200 96 l 1,7,-1
 360 96 l 1,0,-1
160 0 m 1,8,-1
 80 48 l 1,9,-1
 40 144 l 1,10,-1
 40 336 l 1,11,-1
 80 432 l 1,12,-1
 160 480 l 1,13,-1
 320 480 l 1,14,-1
 400 432 l 1,15,-1
 400 672 l 1,16,-1
 520 672 l 1,17,-1
 520 0 l 1,18,-1
 400 0 l 1,19,-1
 400 48 l 1,20,-1
 320 0 l 1,21,-1
 160 0 l 1,8,-1
660 480 m 1,22,-1
 700 576 l 1,23,-1
 640 576 l 1,24,-1
 640 696 l 1,25,-1
 760 696 l 1,26,-1
 760 576 l 1,27,-1
 720 480 l 1,28,-1
 660 480 l 1,22,-1
EndSplineSet
Validated: 1
EndChar

StartChar: dcroat
Encoding: 273 273 197
Width: 640
Flags: W
LayerCount: 2
Fore
SplineSet
360 96 m 1,0,-1
 400 120 l 1,1,-1
 400 360 l 1,2,-1
 360 384 l 1,3,-1
 200 384 l 1,4,-1
 160 336 l 1,5,-1
 160 144 l 1,6,-1
 200 96 l 1,7,-1
 360 96 l 1,0,-1
160 0 m 1,8,-1
 80 48 l 1,9,-1
 40 144 l 1,10,-1
 40 336 l 1,11,-1
 80 432 l 1,12,-1
 160 480 l 1,13,-1
 320 480 l 1,14,-1
 400 432 l 1,15,-1
 400 528 l 1,16,-1
 280 528 l 1,17,-1
 280 600 l 1,18,-1
 400 600 l 1,19,-1
 400 672 l 1,20,-1
 520 672 l 1,21,-1
 520 600 l 1,22,-1
 600 600 l 1,23,-1
 600 528 l 1,24,-1
 520 528 l 1,25,-1
 520 0 l 1,26,-1
 400 0 l 1,27,-1
 400 48 l 1,28,-1
 320 0 l 1,29,-1
 160 0 l 1,8,-1
EndSplineSet
Validated: 1
EndChar

StartChar: Emacron
Encoding: 274 274 198
Width: 560
Flags: W
LayerCount: 2
Fore
SplineSet
40 0 m 1,0,-1
 40 672 l 1,1,-1
 520 672 l 1,2,-1
 520 576 l 1,3,-1
 160 576 l 1,4,-1
 160 384 l 1,5,-1
 480 384 l 1,6,-1
 480 288 l 1,7,-1
 160 288 l 1,8,-1
 160 96 l 1,9,-1
 520 96 l 1,10,-1
 520 0 l 1,11,-1
 40 0 l 1,0,-1
120 744 m 1,12,-1
 120 816 l 1,13,-1
 440 816 l 1,14,-1
 440 744 l 1,15,-1
 120 744 l 1,12,-1
EndSplineSet
Validated: 1
EndChar

StartChar: emacron
Encoding: 275 275 199
Width: 560
Flags: W
LayerCount: 2
Fore
SplineSet
400 264 m 1,0,-1
 400 336 l 1,1,-1
 360 384 l 1,2,-1
 200 384 l 1,3,-1
 160 336 l 1,4,-1
 160 264 l 1,5,-1
 400 264 l 1,0,-1
160 0 m 1,6,-1
 80 48 l 1,7,-1
 40 144 l 1,8,-1
 40 336 l 1,9,-1
 80 432 l 1,10,-1
 160 480 l 1,11,-1
 400 480 l 1,12,-1
 480 432 l 1,13,-1
 520 336 l 1,14,-1
 520 192 l 1,15,-1
 160 192 l 1,16,-1
 160 144 l 1,17,-1
 200 96 l 1,18,-1
 360 96 l 1,19,-1
 400 144 l 1,20,-1
 520 144 l 1,21,-1
 480 48 l 1,22,-1
 400 0 l 1,23,-1
 160 0 l 1,6,-1
120 552 m 1,24,-1
 120 624 l 1,25,-1
 440 624 l 1,26,-1
 440 552 l 1,27,-1
 120 552 l 1,24,-1
EndSplineSet
Validated: 1
EndChar

StartChar: Eogonek
Encoding: 280 280 204
Width: 560
Flags: W
LayerCount: 2
Fore
SplineSet
200 -240 m 1,0,-1
 160 -192 l 1,1,-1
 160 -96 l 1,2,-1
 200 -48 l 1,3,-1
 260 -48 l 1,4,-1
 260 0 l 1,5,-1
 40 0 l 1,6,-1
 40 672 l 1,7,-1
 520 672 l 1,8,-1
 520 576 l 1,9,-1
 160 576 l 1,10,-1
 160 384 l 1,11,-1
 480 384 l 1,12,-1
 480 288 l 1,13,-1
 160 288 l 1,14,-1
 160 96 l 1,15,-1
 520 96 l 1,16,-1
 520 0 l 1,17,-1
 320 0 l 1,18,-1
 320 -96 l 1,19,-1
 260 -96 l 1,20,-1
 240 -120 l 1,21,-1
 240 -168 l 1,22,-1
 260 -192 l 1,23,-1
 300 -192 l 1,24,-1
 320 -168 l 1,25,-1
 320 -144 l 1,26,-1
 400 -144 l 1,27,-1
 400 -192 l 1,28,-1
 360 -240 l 1,29,-1
 200 -240 l 1,0,-1
EndSplineSet
Validated: 1
EndChar

StartChar: eogonek
Encoding: 281 281 205
Width: 560
Flags: W
LayerCount: 2
Fore
SplineSet
400 264 m 1,0,-1
 400 336 l 1,1,-1
 360 384 l 1,2,-1
 200 384 l 1,3,-1
 160 336 l 1,4,-1
 160 264 l 1,5,-1
 400 264 l 1,0,-1
200 -240 m 1,6,-1
 160 -192 l 1,7,-1
 160 -96 l 1,8,-1
 200 -48 l 1,9,-1
 260 -48 l 1,10,-1
 260 0 l 1,11,-1
 160 0 l 1,12,-1
 80 48 l 1,13,-1
 40 144 l 1,14,-1
 40 336 l 1,15,-1
 80 432 l 1,16,-1
 160 480 l 1,17,-1
 400 480 l 1,18,-1
 480 432 l 1,19,-1
 520 336 l 1,20,-1
 520 192 l 1,21,-1
 160 192 l 1,22,-1
 160 144 l 1,23,-1
 200 96 l 1,24,-1
 360 96 l 1,25,-1
 400 144 l 1,26,-1
 520 144 l 1,27,-1
 480 48 l 1,28,-1
 400 0 l 1,29,-1
 320 0 l 1,30,-1
 320 -96 l 1,31,-1
 260 -96 l 1,32,-1
 240 -120 l 1,33,-1
 240 -168 l 1,34,-1
 260 -192 l 1,35,-1
 300 -192 l 1,36,-1
 320 -168 l 1,37,-1
 320 -144 l 1,38,-1
 400 -144 l 1,39,-1
 400 -192 l 1,40,-1
 360 -240 l 1,41,-1
 200 -240 l 1,6,-1
EndSplineSet
Validated: 1
EndChar

StartChar: Gcommaaccent
Encoding: 290 290 214
Width: 640
Flags: W
LayerCount: 2
Fore
SplineSet
240 -240 m 1,0,-1
 200 -192 l 1,1,-1
 200 -144 l 1,2,-1
 280 -144 l 1,3,-1
 280 -168 l 1,4,-1
 300 -192 l 1,5,-1
 340 -192 l 1,6,-1
 360 -168 l 1,7,-1
 360 -120 l 1,8,-1
 340 -96 l 1,9,-1
 280 -96 l 1,10,-1
 280 -48 l 1,11,-1
 300 0 l 1,12,-1
 160 0 l 1,13,-1
 80 48 l 1,14,-1
 40 144 l 1,15,-1
 40 528 l 1,16,-1
 80 624 l 1,17,-1
 160 672 l 1,18,-1
 480 672 l 1,19,-1
 560 624 l 1,20,-1
 600 528 l 1,21,-1
 520 480 l 1,22,-1
 480 480 l 1,23,-1
 480 528 l 1,24,-1
 440 576 l 1,25,-1
 200 576 l 1,26,-1
 160 528 l 1,27,-1
 160 144 l 1,28,-1
 200 96 l 1,29,-1
 440 96 l 1,30,-1
 480 120 l 1,31,-1
 480 288 l 1,32,-1
 320 288 l 1,33,-1
 320 384 l 1,34,-1
 600 384 l 1,35,-1
 600 0 l 1,36,-1
 480 0 l 1,37,-1
 480 48 l 1,38,-1
 400 0 l 1,39,-1
 360 0 l 1,40,-1
 340 -48 l 1,41,-1
 400 -48 l 1,42,-1
 440 -96 l 1,43,-1
 440 -192 l 1,44,-1
 400 -240 l 1,45,-1
 240 -240 l 1,0,-1
EndSplineSet
Validated: 1
EndChar

StartChar: gcommaaccent
Encoding: 291 291 215
Width: 560
Flags: W
LayerCount: 2
Fore
SplineSet
360 96 m 1,0,-1
 400 120 l 1,1,-1
 400 360 l 1,2,-1
 360 384 l 1,3,-1
 200 384 l 1,4,-1
 160 336 l 1,5,-1
 160 144 l 1,6,-1
 200 96 l 1,7,-1
 360 96 l 1,0,-1
160 -192 m 1,8,-1
 80 -144 l 1,9,-1
 40 -96 l 1,10,-1
 120 -48 l 1,11,-1
 160 -48 l 1,12,-1
 160 -72 l 1,13,-1
 180 -96 l 1,14,-1
 360 -96 l 1,15,-1
 400 -48 l 1,16,-1
 400 48 l 1,17,-1
 320 0 l 1,18,-1
 160 0 l 1,19,-1
 80 48 l 1,20,-1
 40 144 l 1,21,-1
 40 336 l 1,22,-1
 80 432 l 1,23,-1
 160 480 l 1,24,-1
 320 480 l 1,25,-1
 400 432 l 1,26,-1
 400 480 l 1,27,-1
 520 480 l 1,28,-1
 520 -48 l 1,29,-1
 480 -144 l 1,30,-1
 400 -192 l 1,31,-1
 160 -192 l 1,8,-1
220 552 m 1,32,-1
 220 672 l 1,33,-1
 260 768 l 1,34,-1
 320 768 l 1,35,-1
 280 672 l 1,36,-1
 340 672 l 1,37,-1
 340 552 l 1,38,-1
 220 552 l 1,32,-1
EndSplineSet
Validated: 1
EndChar

StartChar: Hbar
Encoding: 294 294 218
Width: 800
Flags: W
LayerCount: 2
Fore
SplineSet
560 384 m 1,0,-1
 560 528 l 1,1,-1
 240 528 l 1,2,-1
 240 384 l 1,3,-1
 560 384 l 1,0,-1
120 0 m 1,4,-1
 120 528 l 1,5,-1
 40 528 l 1,6,-1
 40 600 l 1,7,-1
 120 600 l 1,8,-1
 120 672 l 1,9,-1
 240 672 l 1,10,-1
 240 600 l 1,11,-1
 560 600 l 1,12,-1
 560 672 l 1,13,-1
 680 672 l 1,14,-1
 680 600 l 1,15,-1
 760 600 l 1,16,-1
 760 528 l 1,17,-1
 680 528 l 1,18,-1
 680 0 l 1,19,-1
 560 0 l 1,20,-1
 560 288 l 1,21,-1
 240 288 l 1,22,-1
 240 0 l 1,23,-1
 120 0 l 1,4,-1
EndSplineSet
Validated: 1
EndChar

StartChar: hbar
Encoding: 295 295 219
Width: 640
Flags: W
LayerCount: 2
Fore
SplineSet
120 0 m 1,0,-1
 120 528 l 1,1,-1
 40 528 l 1,2,-1
 40 600 l 1,3,-1
 120 600 l 1,4,-1
 120 672 l 1,5,-1
 240 672 l 1,6,-1
 240 600 l 1,7,-1
 360 600 l 1,8,-1
 360 528 l 1,9,-1
 240 528 l 1,10,-1
 240 432 l 1,11,-1
 320 480 l 1,12,-1
 480 480 l 1,13,-1
 560 432 l 1,14,-1
 600 336 l 1,15,-1
 600 0 l 1,16,-1
 480 0 l 1,17,-1
 480 336 l 1,18,-1
 440 384 l 1,19,-1
 280 384 l 1,20,-1
 240 360 l 1,21,-1
 240 0 l 1,22,-1
 120 0 l 1,0,-1
EndSplineSet
Validated: 1
EndChar

StartChar: uni012A
Encoding: 298 298 222
Width: 320
Flags: W
LayerCount: 2
Fore
SplineSet
100 0 m 1,0,-1
 100 672 l 1,1,-1
 220 672 l 1,2,-1
 220 0 l 1,3,-1
 100 0 l 1,0,-1
40 744 m 1,4,-1
 40 816 l 1,5,-1
 280 816 l 1,6,-1
 280 744 l 1,7,-1
 40 744 l 1,4,-1
EndSplineSet
Validated: 1
EndChar

StartChar: imacron
Encoding: 299 299 223
Width: 320
Flags: W
LayerCount: 2
Fore
SplineSet
100 0 m 1,0,-1
 100 480 l 1,1,-1
 220 480 l 1,2,-1
 220 0 l 1,3,-1
 100 0 l 1,0,-1
40 552 m 1,4,-1
 40 624 l 1,5,-1
 280 624 l 1,6,-1
 280 552 l 1,7,-1
 40 552 l 1,4,-1
EndSplineSet
Validated: 1
EndChar

StartChar: Iogonek
Encoding: 302 302 226
Width: 240
Flags: W
LayerCount: 2
Fore
SplineSet
80 0 m 1,0,-1
 80 672 l 1,1,-1
 200 672 l 1,2,-1
 200 0 l 1,3,-1
 80 0 l 1,0,-1
EndSplineSet
Validated: 1
EndChar

StartChar: iogonek
Encoding: 303 303 227
Width: 280
Flags: W
LayerCount: 2
Fore
SplineSet
80 0 m 1,0,-1
 80 480 l 1,1,-1
 200 480 l 1,2,-1
 200 0 l 1,3,-1
 80 0 l 1,0,-1
EndSplineSet
Validated: 1
EndChar

StartChar: Idotaccent
Encoding: 304 304 228
Width: 280
Flags: W
LayerCount: 2
Fore
SplineSet
80 0 m 1,0,-1
 80 672 l 1,1,-1
 200 672 l 1,2,-1
 200 0 l 1,3,-1
 80 0 l 1,0,-1
80 744 m 1,4,-1
 80 864 l 1,5,-1
 200 864 l 1,6,-1
 200 744 l 1,7,-1
 80 744 l 1,4,-1
EndSplineSet
Validated: 1
EndChar

StartChar: dotlessi
Encoding: 305 305 229
Width: 240
Flags: W
LayerCount: 2
Fore
SplineSet
80 0 m 1,0,-1
 80 480 l 1,1,-1
 200 480 l 1,2,-1
 200 0 l 1,3,-1
 80 0 l 1,0,-1
EndSplineSet
Validated: 1
EndChar

StartChar: Kcommaaccent
Encoding: 310 310 234
Width: 640
Flags: W
LayerCount: 2
Fore
SplineSet
240 -240 m 1,0,-1
 200 -192 l 1,1,-1
 200 -144 l 1,2,-1
 280 -144 l 1,3,-1
 280 -168 l 1,4,-1
 300 -192 l 1,5,-1
 340 -192 l 1,6,-1
 360 -168 l 1,7,-1
 360 -120 l 1,8,-1
 340 -96 l 1,9,-1
 280 -96 l 1,10,-1
 280 -48 l 1,11,-1
 300 0 l 1,12,-1
 360 0 l 1,13,-1
 340 -48 l 1,14,-1
 400 -48 l 1,15,-1
 440 -96 l 1,16,-1
 440 -192 l 1,17,-1
 400 -240 l 1,18,-1
 240 -240 l 1,0,-1
40 0 m 1,19,-1
 40 672 l 1,20,-1
 160 672 l 1,21,-1
 160 384 l 1,22,-1
 220 384 l 1,23,-1
 460 672 l 1,24,-1
 600 672 l 1,25,-1
 340 360 l 1,26,-1
 640 0 l 1,27,-1
 500 0 l 1,28,-1
 260 288 l 1,29,-1
 160 288 l 1,30,-1
 160 0 l 1,31,-1
 40 0 l 1,19,-1
EndSplineSet
Validated: 1
EndChar

StartChar: kcommaaccent
Encoding: 311 311 235
Width: 560
Flags: W
LayerCount: 2
Fore
SplineSet
200 -240 m 1,0,-1
 160 -192 l 1,1,-1
 160 -144 l 1,2,-1
 240 -144 l 1,3,-1
 240 -168 l 1,4,-1
 260 -192 l 1,5,-1
 300 -192 l 1,6,-1
 320 -168 l 1,7,-1
 320 -120 l 1,8,-1
 300 -96 l 1,9,-1
 240 -96 l 1,10,-1
 240 -48 l 1,11,-1
 260 0 l 1,12,-1
 320 0 l 1,13,-1
 300 -48 l 1,14,-1
 360 -48 l 1,15,-1
 400 -96 l 1,16,-1
 400 -192 l 1,17,-1
 360 -240 l 1,18,-1
 200 -240 l 1,0,-1
40 0 m 1,19,-1
 40 672 l 1,20,-1
 160 672 l 1,21,-1
 160 288 l 1,22,-1
 220 288 l 1,23,-1
 380 480 l 1,24,-1
 520 480 l 1,25,-1
 340 264 l 1,26,-1
 560 0 l 1,27,-1
 420 0 l 1,28,-1
 260 192 l 1,29,-1
 160 192 l 1,30,-1
 160 0 l 1,31,-1
 40 0 l 1,19,-1
EndSplineSet
Validated: 1
EndChar

StartChar: kgreenlandic
Encoding: 312 312 236
Width: 560
Flags: W
LayerCount: 2
Fore
SplineSet
40 0 m 1,0,-1
 40 480 l 1,1,-1
 160 480 l 1,2,-1
 160 288 l 1,3,-1
 220 288 l 1,4,-1
 380 480 l 1,5,-1
 520 480 l 1,6,-1
 340 264 l 1,7,-1
 560 0 l 1,8,-1
 420 0 l 1,9,-1
 260 192 l 1,10,-1
 160 192 l 1,11,-1
 160 0 l 1,12,-1
 40 0 l 1,0,-1
EndSplineSet
Validated: 1
EndChar

StartChar: Lcommaaccent
Encoding: 315 315 239
Width: 560
Flags: W
LayerCount: 2
Fore
SplineSet
200 -240 m 1,0,-1
 160 -192 l 1,1,-1
 160 -144 l 1,2,-1
 240 -144 l 1,3,-1
 240 -168 l 1,4,-1
 260 -192 l 1,5,-1
 300 -192 l 1,6,-1
 320 -168 l 1,7,-1
 320 -120 l 1,8,-1
 300 -96 l 1,9,-1
 240 -96 l 1,10,-1
 240 -48 l 1,11,-1
 260 0 l 1,12,-1
 40 0 l 1,13,-1
 40 672 l 1,14,-1
 160 672 l 1,15,-1
 160 96 l 1,16,-1
 520 96 l 1,17,-1
 520 0 l 1,18,-1
 320 0 l 1,19,-1
 300 -48 l 1,20,-1
 360 -48 l 1,21,-1
 400 -96 l 1,22,-1
 400 -192 l 1,23,-1
 360 -240 l 1,24,-1
 200 -240 l 1,0,-1
EndSplineSet
Validated: 1
EndChar

StartChar: lcommaaccent
Encoding: 316 316 240
Width: 280
Flags: W
LayerCount: 2
Fore
SplineSet
40 -240 m 1,0,-1
 0 -192 l 1,1,-1
 0 -144 l 1,2,-1
 80 -144 l 1,3,-1
 80 -168 l 1,4,-1
 100 -192 l 1,5,-1
 140 -192 l 1,6,-1
 160 -168 l 1,7,-1
 160 -120 l 1,8,-1
 140 -96 l 1,9,-1
 80 -96 l 1,10,-1
 80 -48 l 1,11,-1
 100 0 l 1,12,-1
 80 0 l 1,13,-1
 80 672 l 1,14,-1
 200 672 l 1,15,-1
 200 0 l 1,16,-1
 160 0 l 1,17,-1
 140 -48 l 1,18,-1
 200 -48 l 1,19,-1
 240 -96 l 1,20,-1
 240 -192 l 1,21,-1
 200 -240 l 1,22,-1
 40 -240 l 1,0,-1
EndSplineSet
Validated: 1
EndChar

StartChar: Lcaron
Encoding: 317 317 241
Width: 560
Flags: W
LayerCount: 2
Fore
SplineSet
40 0 m 1,0,-1
 40 672 l 1,1,-1
 160 672 l 1,2,-1
 160 96 l 1,3,-1
 520 96 l 1,4,-1
 520 0 l 1,5,-1
 40 0 l 1,0,-1
420 480 m 1,6,-1
 460 576 l 1,7,-1
 400 576 l 1,8,-1
 400 696 l 1,9,-1
 520 696 l 1,10,-1
 520 576 l 1,11,-1
 480 480 l 1,12,-1
 420 480 l 1,6,-1
EndSplineSet
Validated: 1
EndChar

StartChar: lcaron
Encoding: 318 318 242
Width: 480
Flags: W
LayerCount: 2
Fore
SplineSet
80 0 m 1,0,-1
 80 672 l 1,1,-1
 200 672 l 1,2,-1
 200 0 l 1,3,-1
 80 0 l 1,0,-1
300 480 m 1,4,-1
 340 576 l 1,5,-1
 280 576 l 1,6,-1
 280 696 l 1,7,-1
 400 696 l 1,8,-1
 400 576 l 1,9,-1
 360 480 l 1,10,-1
 300 480 l 1,4,-1
EndSplineSet
Validated: 1
EndChar

StartChar: Ldot
Encoding: 319 319 243
Width: 560
Flags: W
LayerCount: 2
Fore
SplineSet
400 288 m 1,0,-1
 400 408 l 1,1,-1
 520 408 l 1,2,-1
 520 288 l 1,3,-1
 400 288 l 1,0,-1
40 0 m 1,4,-1
 40 672 l 1,5,-1
 160 672 l 1,6,-1
 160 96 l 1,7,-1
 520 96 l 1,8,-1
 520 0 l 1,9,-1
 40 0 l 1,4,-1
EndSplineSet
Validated: 1
EndChar

StartChar: ldot
Encoding: 320 320 244
Width: 480
Flags: W
LayerCount: 2
Fore
SplineSet
280 288 m 1,0,-1
 280 408 l 1,1,-1
 400 408 l 1,2,-1
 400 288 l 1,3,-1
 280 288 l 1,0,-1
80 0 m 1,4,-1
 80 672 l 1,5,-1
 200 672 l 1,6,-1
 200 0 l 1,7,-1
 80 0 l 1,4,-1
EndSplineSet
Validated: 1
EndChar

StartChar: Lslash
Encoding: 321 321 245
Width: 640
Flags: W
LayerCount: 2
Fore
SplineSet
120 0 m 1,0,-1
 120 240 l 1,1,-1
 40 192 l 1,2,-1
 40 288 l 1,3,-1
 120 336 l 1,4,-1
 120 672 l 1,5,-1
 240 672 l 1,6,-1
 240 408 l 1,7,-1
 360 480 l 1,8,-1
 360 384 l 1,9,-1
 240 312 l 1,10,-1
 240 96 l 1,11,-1
 600 96 l 1,12,-1
 600 0 l 1,13,-1
 120 0 l 1,0,-1
EndSplineSet
Validated: 1
EndChar

StartChar: lslash
Encoding: 322 322 246
Width: 360
Flags: W
LayerCount: 2
Fore
SplineSet
120 0 m 1,0,-1
 120 240 l 1,1,-1
 40 192 l 1,2,-1
 40 288 l 1,3,-1
 120 336 l 1,4,-1
 120 672 l 1,5,-1
 240 672 l 1,6,-1
 240 408 l 1,7,-1
 320 456 l 1,8,-1
 320 360 l 1,9,-1
 240 312 l 1,10,-1
 240 0 l 1,11,-1
 120 0 l 1,0,-1
EndSplineSet
Validated: 1
EndChar

StartChar: Ncommaaccent
Encoding: 325 325 249
Width: 640
Flags: W
LayerCount: 2
Fore
SplineSet
240 -240 m 1,0,-1
 200 -192 l 1,1,-1
 200 -144 l 1,2,-1
 280 -144 l 1,3,-1
 280 -168 l 1,4,-1
 300 -192 l 1,5,-1
 340 -192 l 1,6,-1
 360 -168 l 1,7,-1
 360 -120 l 1,8,-1
 340 -96 l 1,9,-1
 280 -96 l 1,10,-1
 280 -48 l 1,11,-1
 300 0 l 1,12,-1
 360 0 l 1,13,-1
 340 -48 l 1,14,-1
 400 -48 l 1,15,-1
 440 -96 l 1,16,-1
 440 -192 l 1,17,-1
 400 -240 l 1,18,-1
 240 -240 l 1,0,-1
40 0 m 1,19,-1
 40 672 l 1,20,-1
 100 672 l 1,21,-1
 480 216 l 1,22,-1
 480 672 l 1,23,-1
 600 672 l 1,24,-1
 600 0 l 1,25,-1
 520 0 l 1,26,-1
 160 432 l 1,27,-1
 160 0 l 1,28,-1
 40 0 l 1,19,-1
EndSplineSet
Validated: 1
EndChar

StartChar: ncommaaccent
Encoding: 326 326 250
Width: 560
Flags: W
LayerCount: 2
Fore
SplineSet
200 -240 m 1,0,-1
 160 -192 l 1,1,-1
 160 -144 l 1,2,-1
 240 -144 l 1,3,-1
 240 -168 l 1,4,-1
 260 -192 l 1,5,-1
 300 -192 l 1,6,-1
 320 -168 l 1,7,-1
 320 -120 l 1,8,-1
 300 -96 l 1,9,-1
 240 -96 l 1,10,-1
 240 -48 l 1,11,-1
 260 0 l 1,12,-1
 320 0 l 1,13,-1
 300 -48 l 1,14,-1
 360 -48 l 1,15,-1
 400 -96 l 1,16,-1
 400 -192 l 1,17,-1
 360 -240 l 1,18,-1
 200 -240 l 1,0,-1
40 0 m 1,19,-1
 40 480 l 1,20,-1
 160 480 l 1,21,-1
 160 432 l 1,22,-1
 240 480 l 1,23,-1
 400 480 l 1,24,-1
 480 432 l 1,25,-1
 520 336 l 1,26,-1
 520 0 l 1,27,-1
 400 0 l 1,28,-1
 400 336 l 1,29,-1
 360 384 l 1,30,-1
 200 384 l 1,31,-1
 160 360 l 1,32,-1
 160 0 l 1,33,-1
 40 0 l 1,19,-1
EndSplineSet
Validated: 1
EndChar

StartChar: napostrophe
Encoding: 329 329 253
Width: 800
Flags: W
LayerCount: 2
Fore
SplineSet
280 0 m 1,0,-1
 280 480 l 1,1,-1
 400 480 l 1,2,-1
 400 432 l 1,3,-1
 480 480 l 1,4,-1
 640 480 l 1,5,-1
 720 432 l 1,6,-1
 760 336 l 1,7,-1
 760 0 l 1,8,-1
 640 0 l 1,9,-1
 640 336 l 1,10,-1
 600 384 l 1,11,-1
 440 384 l 1,12,-1
 400 360 l 1,13,-1
 400 0 l 1,14,-1
 280 0 l 1,0,-1
100 480 m 1,15,-1
 140 576 l 1,16,-1
 80 576 l 1,17,-1
 80 696 l 1,18,-1
 200 696 l 1,19,-1
 200 576 l 1,20,-1
 160 480 l 1,21,-1
 100 480 l 1,15,-1
EndSplineSet
Validated: 1
EndChar

StartChar: Eng
Encoding: 330 330 254
Width: 640
Flags: W
LayerCount: 2
Fore
SplineSet
360 -192 m 1,0,-1
 360 -96 l 1,1,-1
 440 -96 l 1,2,-1
 480 -48 l 1,3,-1
 480 48 l 1,4,-1
 160 432 l 1,5,-1
 160 0 l 1,6,-1
 40 0 l 1,7,-1
 40 672 l 1,8,-1
 100 672 l 1,9,-1
 480 216 l 1,10,-1
 480 672 l 1,11,-1
 600 672 l 1,12,-1
 600 -48 l 1,13,-1
 560 -144 l 1,14,-1
 480 -192 l 1,15,-1
 360 -192 l 1,0,-1
EndSplineSet
Validated: 1
EndChar

StartChar: eng
Encoding: 331 331 255
Width: 560
Flags: W
LayerCount: 2
Fore
SplineSet
280 -192 m 1,0,-1
 280 -96 l 1,1,-1
 360 -96 l 1,2,-1
 400 -48 l 1,3,-1
 400 336 l 1,4,-1
 360 384 l 1,5,-1
 200 384 l 1,6,-1
 160 360 l 1,7,-1
 160 0 l 1,8,-1
 40 0 l 1,9,-1
 40 480 l 1,10,-1
 160 480 l 1,11,-1
 160 432 l 1,12,-1
 240 480 l 1,13,-1
 400 480 l 1,14,-1
 480 432 l 1,15,-1
 520 336 l 1,16,-1
 520 -48 l 1,17,-1
 480 -144 l 1,18,-1
 400 -192 l 1,19,-1
 280 -192 l 1,0,-1
EndSplineSet
Validated: 1
EndChar

StartChar: Omacron
Encoding: 332 332 256
Width: 640
Flags: W
LayerCount: 2
Fore
SplineSet
440 96 m 1,0,-1
 480 144 l 1,1,-1
 480 528 l 1,2,-1
 440 576 l 1,3,-1
 200 576 l 1,4,-1
 160 528 l 1,5,-1
 160 144 l 1,6,-1
 200 96 l 1,7,-1
 440 96 l 1,0,-1
160 0 m 1,8,-1
 80 48 l 1,9,-1
 40 144 l 1,10,-1
 40 528 l 1,11,-1
 80 624 l 1,12,-1
 160 672 l 1,13,-1
 480 672 l 1,14,-1
 560 624 l 1,15,-1
 600 528 l 1,16,-1
 600 144 l 1,17,-1
 560 48 l 1,18,-1
 480 0 l 1,19,-1
 160 0 l 1,8,-1
160 744 m 1,20,-1
 160 816 l 1,21,-1
 480 816 l 1,22,-1
 480 744 l 1,23,-1
 160 744 l 1,20,-1
EndSplineSet
Validated: 1
EndChar

StartChar: omacron
Encoding: 333 333 257
Width: 560
Flags: W
LayerCount: 2
Fore
SplineSet
360 96 m 1,0,-1
 400 144 l 1,1,-1
 400 336 l 1,2,-1
 360 384 l 1,3,-1
 200 384 l 1,4,-1
 160 336 l 1,5,-1
 160 144 l 1,6,-1
 200 96 l 1,7,-1
 360 96 l 1,0,-1
160 0 m 1,8,-1
 80 48 l 1,9,-1
 40 144 l 1,10,-1
 40 336 l 1,11,-1
 80 432 l 1,12,-1
 160 480 l 1,13,-1
 400 480 l 1,14,-1
 480 432 l 1,15,-1
 520 336 l 1,16,-1
 520 144 l 1,17,-1
 480 48 l 1,18,-1
 400 0 l 1,19,-1
 160 0 l 1,8,-1
120 552 m 1,20,-1
 120 624 l 1,21,-1
 440 624 l 1,22,-1
 440 552 l 1,23,-1
 120 552 l 1,20,-1
EndSplineSet
Validated: 1
EndChar

StartChar: OE
Encoding: 338 338 262
Width: 1000
Flags: W
LayerCount: 2
Fore
SplineSet
440 96 m 1,0,-1
 480 144 l 1,1,-1
 480 528 l 1,2,-1
 440 576 l 1,3,-1
 200 576 l 1,4,-1
 160 528 l 1,5,-1
 160 144 l 1,6,-1
 200 96 l 1,7,-1
 440 96 l 1,0,-1
160 0 m 1,8,-1
 80 48 l 1,9,-1
 40 144 l 1,10,-1
 40 528 l 1,11,-1
 80 624 l 1,12,-1
 160 672 l 1,13,-1
 400 672 l 1,14,-1
 480 624 l 1,15,-1
 480 672 l 1,16,-1
 960 672 l 1,17,-1
 960 576 l 1,18,-1
 600 576 l 1,19,-1
 600 384 l 1,20,-1
 920 384 l 1,21,-1
 920 288 l 1,22,-1
 600 288 l 1,23,-1
 600 96 l 1,24,-1
 960 96 l 1,25,-1
 960 0 l 1,26,-1
 480 0 l 1,27,-1
 480 48 l 1,28,-1
 400 0 l 1,29,-1
 160 0 l 1,8,-1
EndSplineSet
Validated: 1
EndChar

StartChar: oe
Encoding: 339 339 263
Width: 920
Flags: W
LayerCount: 2
Fore
SplineSet
360 96 m 1,0,-1
 400 120 l 1,1,-1
 400 336 l 1,2,-1
 360 384 l 1,3,-1
 200 384 l 1,4,-1
 160 336 l 1,5,-1
 160 144 l 1,6,-1
 200 96 l 1,7,-1
 360 96 l 1,0,-1
760 264 m 1,8,-1
 760 336 l 1,9,-1
 720 384 l 1,10,-1
 560 384 l 1,11,-1
 520 336 l 1,12,-1
 520 264 l 1,13,-1
 760 264 l 1,8,-1
160 0 m 1,14,-1
 80 48 l 1,15,-1
 40 144 l 1,16,-1
 40 336 l 1,17,-1
 80 432 l 1,18,-1
 160 480 l 1,19,-1
 360 480 l 1,20,-1
 440 432 l 1,21,-1
 520 480 l 1,22,-1
 760 480 l 1,23,-1
 840 432 l 1,24,-1
 880 336 l 1,25,-1
 880 192 l 1,26,-1
 520 192 l 1,27,-1
 520 144 l 1,28,-1
 560 96 l 1,29,-1
 720 96 l 1,30,-1
 760 144 l 1,31,-1
 880 144 l 1,32,-1
 840 48 l 1,33,-1
 760 0 l 1,34,-1
 520 0 l 1,35,-1
 440 48 l 1,36,-1
 360 0 l 1,37,-1
 160 0 l 1,14,-1
EndSplineSet
Validated: 1
EndChar

StartChar: Rcommaaccent
Encoding: 342 342 266
Width: 680
Flags: W
LayerCount: 2
Fore
SplineSet
240 -240 m 1,0,-1
 200 -192 l 1,1,-1
 200 -144 l 1,2,-1
 280 -144 l 1,3,-1
 280 -168 l 1,4,-1
 300 -192 l 1,5,-1
 340 -192 l 1,6,-1
 360 -168 l 1,7,-1
 360 -120 l 1,8,-1
 340 -96 l 1,9,-1
 280 -96 l 1,10,-1
 280 -48 l 1,11,-1
 300 0 l 1,12,-1
 360 0 l 1,13,-1
 340 -48 l 1,14,-1
 400 -48 l 1,15,-1
 440 -96 l 1,16,-1
 440 -192 l 1,17,-1
 400 -240 l 1,18,-1
 240 -240 l 1,0,-1
440 288 m 1,19,-1
 480 336 l 1,20,-1
 480 528 l 1,21,-1
 440 576 l 1,22,-1
 160 576 l 1,23,-1
 160 288 l 1,24,-1
 440 288 l 1,19,-1
40 0 m 1,25,-1
 40 672 l 1,26,-1
 480 672 l 1,27,-1
 560 624 l 1,28,-1
 600 528 l 1,29,-1
 600 336 l 1,30,-1
 580 288 l 1,31,-1
 560 264 l 1,32,-1
 520 240 l 1,33,-1
 620 0 l 1,34,-1
 500 0 l 1,35,-1
 420 192 l 1,36,-1
 160 192 l 1,37,-1
 160 0 l 1,38,-1
 40 0 l 1,25,-1
EndSplineSet
Validated: 1
EndChar

StartChar: rcommaaccent
Encoding: 343 343 267
Width: 400
Flags: W
LayerCount: 2
Fore
SplineSet
0 -240 m 1,0,-1
 -40 -192 l 1,1,-1
 -40 -144 l 1,2,-1
 40 -144 l 1,3,-1
 40 -168 l 1,4,-1
 60 -192 l 1,5,-1
 100 -192 l 1,6,-1
 120 -168 l 1,7,-1
 120 -120 l 1,8,-1
 100 -96 l 1,9,-1
 40 -96 l 1,10,-1
 40 -48 l 1,11,-1
 60 0 l 1,12,-1
 40 0 l 1,13,-1
 40 480 l 1,14,-1
 160 480 l 1,15,-1
 160 432 l 1,16,-1
 240 480 l 1,17,-1
 360 480 l 1,18,-1
 360 384 l 1,19,-1
 200 384 l 1,20,-1
 160 360 l 1,21,-1
 160 0 l 1,22,-1
 120 0 l 1,23,-1
 100 -48 l 1,24,-1
 160 -48 l 1,25,-1
 200 -96 l 1,26,-1
 200 -192 l 1,27,-1
 160 -240 l 1,28,-1
 0 -240 l 1,0,-1
EndSplineSet
Validated: 1
EndChar

StartChar: Scedilla
Encoding: 350 350 274
Width: 640
Flags: W
LayerCount: 2
Fore
SplineSet
240 -240 m 1,0,-1
 200 -192 l 1,1,-1
 200 -144 l 1,2,-1
 280 -144 l 1,3,-1
 280 -168 l 1,4,-1
 300 -192 l 1,5,-1
 340 -192 l 1,6,-1
 360 -168 l 1,7,-1
 360 -120 l 1,8,-1
 340 -96 l 1,9,-1
 280 -96 l 1,10,-1
 280 -48 l 1,11,-1
 300 0 l 1,12,-1
 160 0 l 1,13,-1
 80 48 l 1,14,-1
 40 144 l 1,15,-1
 120 192 l 1,16,-1
 160 192 l 1,17,-1
 160 144 l 1,18,-1
 200 96 l 1,19,-1
 440 96 l 1,20,-1
 480 144 l 1,21,-1
 480 240 l 1,22,-1
 440 288 l 1,23,-1
 160 288 l 1,24,-1
 80 336 l 1,25,-1
 40 432 l 1,26,-1
 40 528 l 1,27,-1
 80 624 l 1,28,-1
 160 672 l 1,29,-1
 440 672 l 1,30,-1
 520 624 l 1,31,-1
 560 528 l 1,32,-1
 480 480 l 1,33,-1
 440 480 l 1,34,-1
 440 528 l 1,35,-1
 400 576 l 1,36,-1
 200 576 l 1,37,-1
 160 528 l 1,38,-1
 160 432 l 1,39,-1
 200 384 l 1,40,-1
 480 384 l 1,41,-1
 560 336 l 1,42,-1
 600 240 l 1,43,-1
 600 144 l 1,44,-1
 560 48 l 1,45,-1
 480 0 l 1,46,-1
 360 0 l 1,47,-1
 340 -48 l 1,48,-1
 400 -48 l 1,49,-1
 440 -96 l 1,50,-1
 440 -192 l 1,51,-1
 400 -240 l 1,52,-1
 240 -240 l 1,0,-1
EndSplineSet
Validated: 1
EndChar

StartChar: scedilla
Encoding: 351 351 275
Width: 560
Flags: W
LayerCount: 2
Fore
SplineSet
200 -240 m 1,0,-1
 160 -192 l 1,1,-1
 160 -144 l 1,2,-1
 240 -144 l 1,3,-1
 240 -168 l 1,4,-1
 260 -192 l 1,5,-1
 300 -192 l 1,6,-1
 320 -168 l 1,7,-1
 320 -120 l 1,8,-1
 300 -96 l 1,9,-1
 240 -96 l 1,10,-1
 240 -48 l 1,11,-1
 260 0 l 1,12,-1
 160 0 l 1,13,-1
 80 48 l 1,14,-1
 40 96 l 1,15,-1
 120 144 l 1,16,-1
 160 144 l 1,17,-1
 160 120 l 1,18,-1
 180 96 l 1,19,-1
 380 96 l 1,20,-1
 400 120 l 1,21,-1
 400 168 l 1,22,-1
 380 192 l 1,23,-1
 160 192 l 1,24,-1
 80 240 l 1,25,-1
 40 336 l 1,26,-1
 80 432 l 1,27,-1
 160 480 l 1,28,-1
 360 480 l 1,29,-1
 440 432 l 1,30,-1
 480 384 l 1,31,-1
 400 336 l 1,32,-1
 360 336 l 1,33,-1
 360 360 l 1,34,-1
 340 384 l 1,35,-1
 180 384 l 1,36,-1
 160 360 l 1,37,-1
 160 312 l 1,38,-1
 180 288 l 1,39,-1
 400 288 l 1,40,-1
 480 240 l 1,41,-1
 520 144 l 1,42,-1
 480 48 l 1,43,-1
 400 0 l 1,44,-1
 320 0 l 1,45,-1
 300 -48 l 1,46,-1
 360 -48 l 1,47,-1
 400 -96 l 1,48,-1
 400 -192 l 1,49,-1
 360 -240 l 1,50,-1
 200 -240 l 1,0,-1
EndSplineSet
Validated: 1
EndChar

StartChar: Tcommaaccent
Encoding: 354 354 278
Width: 600
Flags: W
LayerCount: 2
Fore
SplineSet
240 -240 m 1,0,-1
 200 -192 l 1,1,-1
 200 -144 l 1,2,-1
 280 -144 l 1,3,-1
 280 -168 l 1,4,-1
 300 -192 l 1,5,-1
 340 -192 l 1,6,-1
 360 -168 l 1,7,-1
 360 -120 l 1,8,-1
 340 -96 l 1,9,-1
 280 -96 l 1,10,-1
 280 -48 l 1,11,-1
 300 0 l 1,12,-1
 240 0 l 1,13,-1
 240 576 l 1,14,-1
 40 576 l 1,15,-1
 40 672 l 1,16,-1
 560 672 l 1,17,-1
 560 576 l 1,18,-1
 360 576 l 1,19,-1
 360 0 l 1,20,-1
 340 -48 l 1,21,-1
 400 -48 l 1,22,-1
 440 -96 l 1,23,-1
 440 -192 l 1,24,-1
 400 -240 l 1,25,-1
 240 -240 l 1,0,-1
EndSplineSet
Validated: 1
EndChar

StartChar: tcommaaccent
Encoding: 355 355 279
Width: 400
Flags: W
LayerCount: 2
Fore
SplineSet
160 -240 m 1,0,-1
 120 -192 l 1,1,-1
 120 -144 l 1,2,-1
 200 -144 l 1,3,-1
 200 -168 l 1,4,-1
 220 -192 l 1,5,-1
 260 -192 l 1,6,-1
 280 -168 l 1,7,-1
 280 -120 l 1,8,-1
 260 -96 l 1,9,-1
 200 -96 l 1,10,-1
 200 -48 l 1,11,-1
 220 0 l 1,12,-1
 200 24 l 1,13,-1
 160 48 l 1,14,-1
 120 144 l 1,15,-1
 120 384 l 1,16,-1
 40 384 l 1,17,-1
 40 480 l 1,18,-1
 120 480 l 1,19,-1
 120 624 l 1,20,-1
 200 672 l 1,21,-1
 240 672 l 1,22,-1
 240 480 l 1,23,-1
 360 480 l 1,24,-1
 360 384 l 1,25,-1
 240 384 l 1,26,-1
 240 144 l 1,27,-1
 280 96 l 1,28,-1
 360 96 l 1,29,-1
 360 0 l 1,30,-1
 280 0 l 1,31,-1
 260 -48 l 1,32,-1
 320 -48 l 1,33,-1
 360 -96 l 1,34,-1
 360 -192 l 1,35,-1
 320 -240 l 1,36,-1
 160 -240 l 1,0,-1
EndSplineSet
Validated: 1
EndChar

StartChar: tcaron
Encoding: 357 357 281
Width: 640
Flags: W
LayerCount: 2
Fore
SplineSet
240 0 m 1,0,-1
 160 48 l 1,1,-1
 120 144 l 1,2,-1
 120 384 l 1,3,-1
 40 384 l 1,4,-1
 40 480 l 1,5,-1
 120 480 l 1,6,-1
 120 624 l 1,7,-1
 200 672 l 1,8,-1
 240 672 l 1,9,-1
 240 480 l 1,10,-1
 360 480 l 1,11,-1
 360 384 l 1,12,-1
 240 384 l 1,13,-1
 240 144 l 1,14,-1
 280 96 l 1,15,-1
 360 96 l 1,16,-1
 360 0 l 1,17,-1
 240 0 l 1,0,-1
460 480 m 1,18,-1
 500 576 l 1,19,-1
 440 576 l 1,20,-1
 440 696 l 1,21,-1
 560 696 l 1,22,-1
 560 576 l 1,23,-1
 520 480 l 1,24,-1
 460 480 l 1,18,-1
EndSplineSet
Validated: 1
EndChar

StartChar: Tbar
Encoding: 358 358 282
Width: 600
Flags: W
LayerCount: 2
Fore
SplineSet
240 0 m 1,0,-1
 240 288 l 1,1,-1
 120 288 l 1,2,-1
 120 384 l 1,3,-1
 240 384 l 1,4,-1
 240 576 l 1,5,-1
 40 576 l 1,6,-1
 40 672 l 1,7,-1
 560 672 l 1,8,-1
 560 576 l 1,9,-1
 360 576 l 1,10,-1
 360 384 l 1,11,-1
 480 384 l 1,12,-1
 480 288 l 1,13,-1
 360 288 l 1,14,-1
 360 0 l 1,15,-1
 240 0 l 1,0,-1
EndSplineSet
Validated: 1
EndChar

StartChar: tbar
Encoding: 359 359 283
Width: 400
Flags: W
LayerCount: 2
Fore
SplineSet
240 0 m 1,0,-1
 160 48 l 1,1,-1
 120 144 l 1,2,-1
 120 192 l 1,3,-1
 40 192 l 1,4,-1
 40 288 l 1,5,-1
 120 288 l 1,6,-1
 120 384 l 1,7,-1
 40 384 l 1,8,-1
 40 480 l 1,9,-1
 120 480 l 1,10,-1
 120 624 l 1,11,-1
 200 672 l 1,12,-1
 240 672 l 1,13,-1
 240 480 l 1,14,-1
 360 480 l 1,15,-1
 360 384 l 1,16,-1
 240 384 l 1,17,-1
 240 288 l 1,18,-1
 360 288 l 1,19,-1
 360 192 l 1,20,-1
 240 192 l 1,21,-1
 240 144 l 1,22,-1
 280 96 l 1,23,-1
 360 96 l 1,24,-1
 360 0 l 1,25,-1
 240 0 l 1,0,-1
EndSplineSet
Validated: 1
EndChar

StartChar: Umacron
Encoding: 362 362 286
Width: 640
Flags: W
LayerCount: 2
Fore
SplineSet
160 0 m 1,0,-1
 80 48 l 1,1,-1
 40 144 l 1,2,-1
 40 672 l 1,3,-1
 160 672 l 1,4,-1
 160 144 l 1,5,-1
 200 96 l 1,6,-1
 440 96 l 1,7,-1
 480 144 l 1,8,-1
 480 672 l 1,9,-1
 600 672 l 1,10,-1
 600 144 l 1,11,-1
 560 48 l 1,12,-1
 480 0 l 1,13,-1
 160 0 l 1,0,-1
160 744 m 1,14,-1
 160 816 l 1,15,-1
 480 816 l 1,16,-1
 480 744 l 1,17,-1
 160 744 l 1,14,-1
EndSplineSet
Validated: 1
EndChar

StartChar: umacron
Encoding: 363 363 287
Width: 560
Flags: W
LayerCount: 2
Fore
SplineSet
160 0 m 1,0,-1
 80 48 l 1,1,-1
 40 144 l 1,2,-1
 40 480 l 1,3,-1
 160 480 l 1,4,-1
 160 144 l 1,5,-1
 200 96 l 1,6,-1
 360 96 l 1,7,-1
 400 120 l 1,8,-1
 400 480 l 1,9,-1
 520 480 l 1,10,-1
 520 0 l 1,11,-1
 400 0 l 1,12,-1
 400 48 l 1,13,-1
 320 0 l 1,14,-1
 160 0 l 1,0,-1
120 552 m 1,15,-1
 120 624 l 1,16,-1
 440 624 l 1,17,-1
 440 552 l 1,18,-1
 120 552 l 1,15,-1
EndSplineSet
Validated: 1
EndChar

StartChar: Uogonek
Encoding: 370 370 294
Width: 640
Flags: W
LayerCount: 2
Fore
SplineSet
240 -240 m 1,0,-1
 200 -192 l 1,1,-1
 200 -96 l 1,2,-1
 240 -48 l 1,3,-1
 360 -48 l 1,4,-1
 360 -96 l 1,5,-1
 300 -96 l 1,6,-1
 280 -120 l 1,7,-1
 280 -168 l 1,8,-1
 300 -192 l 1,9,-1
 340 -192 l 1,10,-1
 360 -168 l 1,11,-1
 360 -144 l 1,12,-1
 440 -144 l 1,13,-1
 440 -192 l 1,14,-1
 400 -240 l 1,15,-1
 240 -240 l 1,0,-1
160 0 m 1,16,-1
 80 48 l 1,17,-1
 40 144 l 1,18,-1
 40 672 l 1,19,-1
 160 672 l 1,20,-1
 160 144 l 1,21,-1
 200 96 l 1,22,-1
 440 96 l 1,23,-1
 480 144 l 1,24,-1
 480 672 l 1,25,-1
 600 672 l 1,26,-1
 600 144 l 1,27,-1
 560 48 l 1,28,-1
 480 0 l 1,29,-1
 160 0 l 1,16,-1
EndSplineSet
Validated: 1
EndChar

StartChar: uogonek
Encoding: 371 371 295
Width: 560
Flags: W
LayerCount: 2
Fore
SplineSet
400 -240 m 1,0,-1
 360 -192 l 1,1,-1
 360 -96 l 1,2,-1
 400 -48 l 1,3,-1
 520 -48 l 1,4,-1
 520 -96 l 1,5,-1
 460 -96 l 1,6,-1
 440 -120 l 1,7,-1
 440 -168 l 1,8,-1
 460 -192 l 1,9,-1
 500 -192 l 1,10,-1
 520 -168 l 1,11,-1
 520 -144 l 1,12,-1
 600 -144 l 1,13,-1
 600 -192 l 1,14,-1
 560 -240 l 1,15,-1
 400 -240 l 1,0,-1
160 0 m 1,16,-1
 80 48 l 1,17,-1
 40 144 l 1,18,-1
 40 480 l 1,19,-1
 160 480 l 1,20,-1
 160 144 l 1,21,-1
 200 96 l 1,22,-1
 360 96 l 1,23,-1
 400 120 l 1,24,-1
 400 480 l 1,25,-1
 520 480 l 1,26,-1
 520 0 l 1,27,-1
 400 0 l 1,28,-1
 400 48 l 1,29,-1
 320 0 l 1,30,-1
 160 0 l 1,16,-1
EndSplineSet
Validated: 1
EndChar

StartChar: longs
Encoding: 383 383 307
Width: 320
Flags: W
LayerCount: 2
Fore
SplineSet
40 0 m 1,0,-1
 40 528 l 1,1,-1
 80 624 l 1,2,-1
 160 672 l 1,3,-1
 280 672 l 1,4,-1
 280 576 l 1,5,-1
 200 576 l 1,6,-1
 160 528 l 1,7,-1
 160 0 l 1,8,-1
 40 0 l 1,0,-1
EndSplineSet
Validated: 1
EndChar

StartChar: uni0180
Encoding: 384 384 308
Width: 640
Flags: W
LayerCount: 2
Fore
SplineSet
440 96 m 1,0,-1
 480 144 l 1,1,-1
 480 336 l 1,2,-1
 440 384 l 1,3,-1
 280 384 l 1,4,-1
 240 360 l 1,5,-1
 240 120 l 1,6,-1
 280 96 l 1,7,-1
 440 96 l 1,0,-1
120 0 m 1,8,-1
 120 528 l 1,9,-1
 40 528 l 1,10,-1
 40 600 l 1,11,-1
 120 600 l 1,12,-1
 120 672 l 1,13,-1
 240 672 l 1,14,-1
 240 600 l 1,15,-1
 360 600 l 1,16,-1
 360 528 l 1,17,-1
 240 528 l 1,18,-1
 240 432 l 1,19,-1
 320 480 l 1,20,-1
 480 480 l 1,21,-1
 560 432 l 1,22,-1
 600 336 l 1,23,-1
 600 144 l 1,24,-1
 560 48 l 1,25,-1
 480 0 l 1,26,-1
 320 0 l 1,27,-1
 240 48 l 1,28,-1
 240 0 l 1,29,-1
 120 0 l 1,8,-1
EndSplineSet
Validated: 1
EndChar

StartChar: uni0181
Encoding: 385 385 309
Width: 840
Flags: W
LayerCount: 2
Fore
SplineSet
640 96 m 1,0,-1
 680 144 l 1,1,-1
 680 240 l 1,2,-1
 640 288 l 1,3,-1
 360 288 l 1,4,-1
 360 96 l 1,5,-1
 640 96 l 1,0,-1
640 384 m 1,6,-1
 680 432 l 1,7,-1
 680 528 l 1,8,-1
 640 576 l 1,9,-1
 360 576 l 1,10,-1
 360 384 l 1,11,-1
 640 384 l 1,6,-1
240 0 m 1,12,-1
 240 576 l 1,13,-1
 200 576 l 1,14,-1
 160 528 l 1,15,-1
 160 480 l 1,16,-1
 40 480 l 1,17,-1
 40 528 l 1,18,-1
 80 624 l 1,19,-1
 160 672 l 1,20,-1
 680 672 l 1,21,-1
 760 624 l 1,22,-1
 800 528 l 1,23,-1
 800 432 l 1,24,-1
 780 384 l 1,25,-1
 740 336 l 1,26,-1
 780 288 l 1,27,-1
 800 240 l 1,28,-1
 800 144 l 1,29,-1
 760 48 l 1,30,-1
 680 0 l 1,31,-1
 240 0 l 1,12,-1
EndSplineSet
Validated: 1
EndChar

StartChar: uni0182
Encoding: 386 386 310
Width: 640
Flags: W
LayerCount: 2
Fore
SplineSet
440 96 m 1,0,-1
 480 144 l 1,1,-1
 480 336 l 1,2,-1
 440 384 l 1,3,-1
 160 384 l 1,4,-1
 160 96 l 1,5,-1
 440 96 l 1,0,-1
40 0 m 1,6,-1
 40 672 l 1,7,-1
 560 672 l 1,8,-1
 560 576 l 1,9,-1
 160 576 l 1,10,-1
 160 480 l 1,11,-1
 480 480 l 1,12,-1
 560 432 l 1,13,-1
 600 336 l 1,14,-1
 600 144 l 1,15,-1
 560 48 l 1,16,-1
 480 0 l 1,17,-1
 40 0 l 1,6,-1
EndSplineSet
Validated: 1
EndChar

StartChar: uni0183
Encoding: 387 387 311
Width: 560
Flags: W
LayerCount: 2
Fore
SplineSet
360 96 m 1,0,-1
 400 144 l 1,1,-1
 400 336 l 1,2,-1
 360 384 l 1,3,-1
 200 384 l 1,4,-1
 160 360 l 1,5,-1
 160 120 l 1,6,-1
 200 96 l 1,7,-1
 360 96 l 1,0,-1
40 0 m 1,8,-1
 40 672 l 1,9,-1
 480 672 l 1,10,-1
 480 576 l 1,11,-1
 160 576 l 1,12,-1
 160 432 l 1,13,-1
 240 480 l 1,14,-1
 400 480 l 1,15,-1
 480 432 l 1,16,-1
 520 336 l 1,17,-1
 520 144 l 1,18,-1
 480 48 l 1,19,-1
 400 0 l 1,20,-1
 240 0 l 1,21,-1
 160 48 l 1,22,-1
 160 0 l 1,23,-1
 40 0 l 1,8,-1
EndSplineSet
Validated: 1
EndChar

StartChar: uni0184
Encoding: 388 388 312
Width: 640
Flags: W
LayerCount: 2
Fore
SplineSet
440 96 m 1,0,-1
 480 144 l 1,1,-1
 480 336 l 1,2,-1
 440 384 l 1,3,-1
 160 384 l 1,4,-1
 160 96 l 1,5,-1
 440 96 l 1,0,-1
40 0 m 1,6,-1
 40 672 l 1,7,-1
 160 672 l 1,8,-1
 160 480 l 1,9,-1
 480 480 l 1,10,-1
 560 432 l 1,11,-1
 600 336 l 1,12,-1
 600 144 l 1,13,-1
 560 48 l 1,14,-1
 480 0 l 1,15,-1
 40 0 l 1,6,-1
EndSplineSet
Validated: 1
EndChar

StartChar: uni0185
Encoding: 389 389 313
Width: 560
Flags: W
LayerCount: 2
Fore
SplineSet
360 96 m 1,0,-1
 400 144 l 1,1,-1
 400 240 l 1,2,-1
 360 288 l 1,3,-1
 160 288 l 1,4,-1
 160 96 l 1,5,-1
 360 96 l 1,0,-1
40 0 m 1,6,-1
 40 480 l 1,7,-1
 160 480 l 1,8,-1
 160 384 l 1,9,-1
 400 384 l 1,10,-1
 480 336 l 1,11,-1
 520 240 l 1,12,-1
 520 144 l 1,13,-1
 480 48 l 1,14,-1
 400 0 l 1,15,-1
 40 0 l 1,6,-1
EndSplineSet
Validated: 1
EndChar

StartChar: uni0186
Encoding: 390 390 314
Width: 640
Flags: W
LayerCount: 2
Fore
SplineSet
160 0 m 1,0,-1
 80 48 l 1,1,-1
 40 144 l 1,2,-1
 40 192 l 1,3,-1
 120 240 l 1,4,-1
 160 240 l 1,5,-1
 160 144 l 1,6,-1
 200 96 l 1,7,-1
 440 96 l 1,8,-1
 480 144 l 1,9,-1
 480 528 l 1,10,-1
 440 576 l 1,11,-1
 200 576 l 1,12,-1
 160 528 l 1,13,-1
 160 432 l 1,14,-1
 120 432 l 1,15,-1
 40 480 l 1,16,-1
 40 528 l 1,17,-1
 80 624 l 1,18,-1
 160 672 l 1,19,-1
 480 672 l 1,20,-1
 560 624 l 1,21,-1
 600 528 l 1,22,-1
 600 144 l 1,23,-1
 560 48 l 1,24,-1
 480 0 l 1,25,-1
 160 0 l 1,0,-1
EndSplineSet
Validated: 1
EndChar

StartChar: uni0187
Encoding: 391 391 315
Width: 640
Flags: W
LayerCount: 2
Fore
SplineSet
160 0 m 1,0,-1
 80 48 l 1,1,-1
 40 144 l 1,2,-1
 40 528 l 1,3,-1
 80 624 l 1,4,-1
 160 672 l 1,5,-1
 400 672 l 1,6,-1
 480 624 l 1,7,-1
 520 720 l 1,8,-1
 600 768 l 1,9,-1
 680 768 l 1,10,-1
 680 672 l 1,11,-1
 640 672 l 1,12,-1
 600 624 l 1,13,-1
 600 480 l 1,14,-1
 520 432 l 1,15,-1
 480 432 l 1,16,-1
 480 552 l 1,17,-1
 440 576 l 1,18,-1
 200 576 l 1,19,-1
 160 528 l 1,20,-1
 160 144 l 1,21,-1
 200 96 l 1,22,-1
 440 96 l 1,23,-1
 480 144 l 1,24,-1
 480 240 l 1,25,-1
 520 240 l 1,26,-1
 600 192 l 1,27,-1
 600 144 l 1,28,-1
 560 48 l 1,29,-1
 480 0 l 1,30,-1
 160 0 l 1,0,-1
EndSplineSet
Validated: 1
EndChar

StartChar: uni0188
Encoding: 392 392 316
Width: 560
Flags: W
LayerCount: 2
Fore
SplineSet
160 0 m 1,0,-1
 80 48 l 1,1,-1
 40 144 l 1,2,-1
 40 336 l 1,3,-1
 80 432 l 1,4,-1
 160 480 l 1,5,-1
 320 480 l 1,6,-1
 400 432 l 1,7,-1
 440 528 l 1,8,-1
 520 576 l 1,9,-1
 600 576 l 1,10,-1
 600 480 l 1,11,-1
 560 480 l 1,12,-1
 520 432 l 1,13,-1
 520 336 l 1,14,-1
 440 288 l 1,15,-1
 400 288 l 1,16,-1
 400 360 l 1,17,-1
 360 384 l 1,18,-1
 200 384 l 1,19,-1
 160 336 l 1,20,-1
 160 144 l 1,21,-1
 200 96 l 1,22,-1
 360 96 l 1,23,-1
 400 144 l 1,24,-1
 400 192 l 1,25,-1
 440 192 l 1,26,-1
 520 144 l 1,27,-1
 480 48 l 1,28,-1
 400 0 l 1,29,-1
 160 0 l 1,0,-1
EndSplineSet
Validated: 1
EndChar

StartChar: uni018A
Encoding: 394 394 318
Width: 840
Flags: W
LayerCount: 2
Fore
SplineSet
640 96 m 1,0,-1
 680 144 l 1,1,-1
 680 528 l 1,2,-1
 640 576 l 1,3,-1
 360 576 l 1,4,-1
 360 96 l 1,5,-1
 640 96 l 1,0,-1
240 0 m 1,6,-1
 240 576 l 1,7,-1
 200 576 l 1,8,-1
 160 528 l 1,9,-1
 160 480 l 1,10,-1
 40 480 l 1,11,-1
 40 528 l 1,12,-1
 80 624 l 1,13,-1
 160 672 l 1,14,-1
 680 672 l 1,15,-1
 760 624 l 1,16,-1
 800 528 l 1,17,-1
 800 144 l 1,18,-1
 760 48 l 1,19,-1
 680 0 l 1,20,-1
 240 0 l 1,6,-1
EndSplineSet
Validated: 1
EndChar

StartChar: uni018B
Encoding: 395 395 319
Width: 640
Flags: W
LayerCount: 2
Fore
SplineSet
480 96 m 1,0,-1
 480 384 l 1,1,-1
 200 384 l 1,2,-1
 160 336 l 1,3,-1
 160 144 l 1,4,-1
 200 96 l 1,5,-1
 480 96 l 1,0,-1
160 0 m 1,6,-1
 80 48 l 1,7,-1
 40 144 l 1,8,-1
 40 336 l 1,9,-1
 80 432 l 1,10,-1
 160 480 l 1,11,-1
 480 480 l 1,12,-1
 480 576 l 1,13,-1
 80 576 l 1,14,-1
 80 672 l 1,15,-1
 600 672 l 1,16,-1
 600 0 l 1,17,-1
 160 0 l 1,6,-1
EndSplineSet
Validated: 1
EndChar

StartChar: uni018C
Encoding: 396 396 320
Width: 560
Flags: W
LayerCount: 2
Fore
SplineSet
360 96 m 1,0,-1
 400 120 l 1,1,-1
 400 360 l 1,2,-1
 360 384 l 1,3,-1
 200 384 l 1,4,-1
 160 336 l 1,5,-1
 160 144 l 1,6,-1
 200 96 l 1,7,-1
 360 96 l 1,0,-1
160 0 m 1,8,-1
 80 48 l 1,9,-1
 40 144 l 1,10,-1
 40 336 l 1,11,-1
 80 432 l 1,12,-1
 160 480 l 1,13,-1
 320 480 l 1,14,-1
 400 432 l 1,15,-1
 400 576 l 1,16,-1
 80 576 l 1,17,-1
 80 672 l 1,18,-1
 520 672 l 1,19,-1
 520 0 l 1,20,-1
 400 0 l 1,21,-1
 400 48 l 1,22,-1
 320 0 l 1,23,-1
 160 0 l 1,8,-1
EndSplineSet
Validated: 1
EndChar

StartChar: uni018D
Encoding: 397 397 321
Width: 560
Flags: W
LayerCount: 2
Fore
SplineSet
360 288 m 1,0,-1
 400 336 l 1,1,-1
 400 528 l 1,2,-1
 360 576 l 1,3,-1
 200 576 l 1,4,-1
 160 528 l 1,5,-1
 160 336 l 1,6,-1
 200 288 l 1,7,-1
 360 288 l 1,0,-1
40 0 m 1,8,-1
 40 96 l 1,9,-1
 320 96 l 1,10,-1
 240 192 l 1,11,-1
 160 192 l 1,12,-1
 80 240 l 1,13,-1
 40 336 l 1,14,-1
 40 528 l 1,15,-1
 80 624 l 1,16,-1
 160 672 l 1,17,-1
 400 672 l 1,18,-1
 480 624 l 1,19,-1
 520 528 l 1,20,-1
 520 336 l 1,21,-1
 480 240 l 1,22,-1
 400 192 l 1,23,-1
 380 192 l 1,24,-1
 480 72 l 1,25,-1
 480 0 l 1,26,-1
 40 0 l 1,8,-1
EndSplineSet
Validated: 1
EndChar

StartChar: uni018E
Encoding: 398 398 322
Width: 560
Flags: W
LayerCount: 2
Fore
SplineSet
40 0 m 1,0,-1
 40 96 l 1,1,-1
 400 96 l 1,2,-1
 400 288 l 1,3,-1
 80 288 l 1,4,-1
 80 384 l 1,5,-1
 400 384 l 1,6,-1
 400 576 l 1,7,-1
 40 576 l 1,8,-1
 40 672 l 1,9,-1
 520 672 l 1,10,-1
 520 0 l 1,11,-1
 40 0 l 1,0,-1
EndSplineSet
Validated: 1
EndChar

StartChar: uni018F
Encoding: 399 399 323
Width: 640
Flags: W
LayerCount: 2
Fore
SplineSet
440 96 m 1,0,-1
 480 144 l 1,1,-1
 480 288 l 1,2,-1
 160 288 l 1,3,-1
 160 144 l 1,4,-1
 200 96 l 1,5,-1
 440 96 l 1,0,-1
160 0 m 1,6,-1
 80 48 l 1,7,-1
 40 144 l 1,8,-1
 40 384 l 1,9,-1
 480 384 l 1,10,-1
 480 528 l 1,11,-1
 440 576 l 1,12,-1
 200 576 l 1,13,-1
 160 528 l 1,14,-1
 160 480 l 1,15,-1
 120 480 l 1,16,-1
 40 528 l 1,17,-1
 80 624 l 1,18,-1
 160 672 l 1,19,-1
 480 672 l 1,20,-1
 560 624 l 1,21,-1
 600 528 l 1,22,-1
 600 144 l 1,23,-1
 560 48 l 1,24,-1
 480 0 l 1,25,-1
 160 0 l 1,6,-1
EndSplineSet
Validated: 1
EndChar

StartChar: uni0190
Encoding: 400 400 324
Width: 640
Flags: W
LayerCount: 2
Fore
SplineSet
160 0 m 1,0,-1
 80 48 l 1,1,-1
 40 144 l 1,2,-1
 40 240 l 1,3,-1
 60 288 l 1,4,-1
 100 336 l 1,5,-1
 60 384 l 1,6,-1
 40 432 l 1,7,-1
 40 528 l 1,8,-1
 80 624 l 1,9,-1
 160 672 l 1,10,-1
 480 672 l 1,11,-1
 560 624 l 1,12,-1
 600 528 l 1,13,-1
 520 480 l 1,14,-1
 480 480 l 1,15,-1
 480 528 l 1,16,-1
 440 576 l 1,17,-1
 200 576 l 1,18,-1
 160 528 l 1,19,-1
 160 432 l 1,20,-1
 200 384 l 1,21,-1
 480 384 l 1,22,-1
 480 288 l 1,23,-1
 200 288 l 1,24,-1
 160 240 l 1,25,-1
 160 144 l 1,26,-1
 200 96 l 1,27,-1
 440 96 l 1,28,-1
 480 144 l 1,29,-1
 480 192 l 1,30,-1
 520 192 l 1,31,-1
 600 144 l 1,32,-1
 560 48 l 1,33,-1
 480 0 l 1,34,-1
 160 0 l 1,0,-1
EndSplineSet
Validated: 1
EndChar

StartChar: uni0191
Encoding: 401 401 325
Width: 560
Flags: W
LayerCount: 2
Fore
SplineSet
-80 -192 m 1,0,-1
 -80 -96 l 1,1,-1
 0 -96 l 1,2,-1
 40 -48 l 1,3,-1
 40 672 l 1,4,-1
 520 672 l 1,5,-1
 520 576 l 1,6,-1
 160 576 l 1,7,-1
 160 384 l 1,8,-1
 480 384 l 1,9,-1
 480 288 l 1,10,-1
 160 288 l 1,11,-1
 160 -48 l 1,12,-1
 120 -144 l 1,13,-1
 40 -192 l 1,14,-1
 -80 -192 l 1,0,-1
EndSplineSet
Validated: 1
EndChar

StartChar: florin
Encoding: 402 402 326
Width: 400
Flags: W
LayerCount: 2
Fore
SplineSet
0 -192 m 1,0,-1
 0 -96 l 1,1,-1
 80 -96 l 1,2,-1
 120 -48 l 1,3,-1
 120 384 l 1,4,-1
 40 384 l 1,5,-1
 40 480 l 1,6,-1
 120 480 l 1,7,-1
 120 528 l 1,8,-1
 160 624 l 1,9,-1
 240 672 l 1,10,-1
 360 672 l 1,11,-1
 360 576 l 1,12,-1
 280 576 l 1,13,-1
 240 528 l 1,14,-1
 240 480 l 1,15,-1
 360 480 l 1,16,-1
 360 384 l 1,17,-1
 240 384 l 1,18,-1
 240 -48 l 1,19,-1
 200 -144 l 1,20,-1
 120 -192 l 1,21,-1
 0 -192 l 1,0,-1
EndSplineSet
Validated: 1
EndChar

StartChar: uni0193
Encoding: 403 403 327
Width: 640
Flags: W
LayerCount: 2
Fore
SplineSet
160 0 m 1,0,-1
 80 48 l 1,1,-1
 40 144 l 1,2,-1
 40 528 l 1,3,-1
 80 624 l 1,4,-1
 160 672 l 1,5,-1
 400 672 l 1,6,-1
 480 624 l 1,7,-1
 520 720 l 1,8,-1
 600 768 l 1,9,-1
 680 768 l 1,10,-1
 680 672 l 1,11,-1
 640 672 l 1,12,-1
 600 624 l 1,13,-1
 600 528 l 1,14,-1
 520 480 l 1,15,-1
 480 480 l 1,16,-1
 480 552 l 1,17,-1
 440 576 l 1,18,-1
 200 576 l 1,19,-1
 160 528 l 1,20,-1
 160 144 l 1,21,-1
 200 96 l 1,22,-1
 440 96 l 1,23,-1
 480 120 l 1,24,-1
 480 288 l 1,25,-1
 320 288 l 1,26,-1
 320 384 l 1,27,-1
 600 384 l 1,28,-1
 600 0 l 1,29,-1
 480 0 l 1,30,-1
 480 48 l 1,31,-1
 400 0 l 1,32,-1
 160 0 l 1,0,-1
EndSplineSet
Validated: 1
EndChar

StartChar: uni0194
Encoding: 404 404 328
Width: 720
Flags: W
LayerCount: 2
Fore
SplineSet
380 -144 m 1,0,-1
 400 -120 l 1,1,-1
 400 -72 l 1,2,-1
 380 -48 l 1,3,-1
 340 -48 l 1,4,-1
 320 -72 l 1,5,-1
 320 -120 l 1,6,-1
 340 -144 l 1,7,-1
 380 -144 l 1,0,-1
280 -192 m 1,8,-1
 240 -144 l 1,9,-1
 240 -48 l 1,10,-1
 280 0 l 1,11,-1
 0 672 l 1,12,-1
 120 672 l 1,13,-1
 360 96 l 1,14,-1
 600 672 l 1,15,-1
 720 672 l 1,16,-1
 440 0 l 1,17,-1
 480 -48 l 1,18,-1
 480 -144 l 1,19,-1
 440 -192 l 1,20,-1
 280 -192 l 1,8,-1
EndSplineSet
Validated: 1
EndChar

StartChar: uni0195
Encoding: 405 405 329
Width: 920
Flags: W
LayerCount: 2
Fore
SplineSet
40 0 m 1,0,-1
 40 672 l 1,1,-1
 160 672 l 1,2,-1
 160 432 l 1,3,-1
 240 480 l 1,4,-1
 400 480 l 1,5,-1
 480 432 l 1,6,-1
 520 336 l 1,7,-1
 520 144 l 1,8,-1
 560 96 l 1,9,-1
 720 96 l 1,10,-1
 760 144 l 1,11,-1
 760 336 l 1,12,-1
 720 384 l 1,13,-1
 640 384 l 1,14,-1
 640 480 l 1,15,-1
 760 480 l 1,16,-1
 840 432 l 1,17,-1
 880 336 l 1,18,-1
 880 144 l 1,19,-1
 840 48 l 1,20,-1
 760 0 l 1,21,-1
 520 0 l 1,22,-1
 440 48 l 1,23,-1
 400 144 l 1,24,-1
 400 336 l 1,25,-1
 360 384 l 1,26,-1
 200 384 l 1,27,-1
 160 360 l 1,28,-1
 160 0 l 1,29,-1
 40 0 l 1,0,-1
EndSplineSet
Validated: 1
EndChar

StartChar: uni0196
Encoding: 406 406 330
Width: 280
Flags: W
LayerCount: 2
Fore
SplineSet
200 0 m 1,0,-1
 120 48 l 1,1,-1
 80 144 l 1,2,-1
 80 672 l 1,3,-1
 200 672 l 1,4,-1
 200 144 l 1,5,-1
 240 96 l 1,6,-1
 280 96 l 1,7,-1
 280 0 l 1,8,-1
 200 0 l 1,0,-1
EndSplineSet
Validated: 1
EndChar

StartChar: uni0197
Encoding: 407 407 331
Width: 360
Flags: W
LayerCount: 2
Fore
SplineSet
120 0 m 1,0,-1
 120 288 l 1,1,-1
 40 288 l 1,2,-1
 40 384 l 1,3,-1
 120 384 l 1,4,-1
 120 672 l 1,5,-1
 240 672 l 1,6,-1
 240 384 l 1,7,-1
 320 384 l 1,8,-1
 320 288 l 1,9,-1
 240 288 l 1,10,-1
 240 0 l 1,11,-1
 120 0 l 1,0,-1
EndSplineSet
Validated: 1
EndChar

StartChar: uni0198
Encoding: 408 408 332
Width: 640
Flags: W
LayerCount: 2
Fore
SplineSet
40 0 m 1,0,-1
 40 672 l 1,1,-1
 160 672 l 1,2,-1
 160 384 l 1,3,-1
 220 384 l 1,4,-1
 440 648 l 1,5,-1
 480 672 l 1,6,-1
 600 672 l 1,7,-1
 600 576 l 1,8,-1
 520 576 l 1,9,-1
 340 360 l 1,10,-1
 640 0 l 1,11,-1
 500 0 l 1,12,-1
 260 288 l 1,13,-1
 160 288 l 1,14,-1
 160 0 l 1,15,-1
 40 0 l 1,0,-1
EndSplineSet
Validated: 1
EndChar

StartChar: uni0199
Encoding: 409 409 333
Width: 560
Flags: W
LayerCount: 2
Fore
SplineSet
40 0 m 1,0,-1
 40 528 l 1,1,-1
 80 624 l 1,2,-1
 160 672 l 1,3,-1
 280 672 l 1,4,-1
 280 576 l 1,5,-1
 200 576 l 1,6,-1
 160 528 l 1,7,-1
 160 288 l 1,8,-1
 220 288 l 1,9,-1
 380 480 l 1,10,-1
 520 480 l 1,11,-1
 340 264 l 1,12,-1
 560 0 l 1,13,-1
 420 0 l 1,14,-1
 260 192 l 1,15,-1
 160 192 l 1,16,-1
 160 0 l 1,17,-1
 40 0 l 1,0,-1
EndSplineSet
Validated: 1
EndChar

StartChar: uni019A
Encoding: 410 410 334
Width: 360
Flags: W
LayerCount: 2
Fore
SplineSet
120 0 m 1,0,-1
 120 288 l 1,1,-1
 40 288 l 1,2,-1
 40 384 l 1,3,-1
 120 384 l 1,4,-1
 120 672 l 1,5,-1
 240 672 l 1,6,-1
 240 384 l 1,7,-1
 320 384 l 1,8,-1
 320 288 l 1,9,-1
 240 288 l 1,10,-1
 240 0 l 1,11,-1
 120 0 l 1,0,-1
EndSplineSet
Validated: 1
EndChar

StartChar: uni019B
Encoding: 411 411 335
Width: 560
Flags: W
LayerCount: 2
Fore
SplineSet
0 0 m 1,0,-1
 180 432 l 1,1,-1
 200 456 l 1,2,-1
 240 480 l 1,3,-1
 240 504 l 1,4,-1
 80 504 l 1,5,-1
 80 576 l 1,6,-1
 200 576 l 1,7,-1
 160 672 l 1,8,-1
 280 672 l 1,9,-1
 320 576 l 1,10,-1
 480 576 l 1,11,-1
 480 504 l 1,12,-1
 360 504 l 1,13,-1
 360 480 l 1,14,-1
 560 0 l 1,15,-1
 440 0 l 1,16,-1
 280 384 l 1,17,-1
 120 0 l 1,18,-1
 0 0 l 1,0,-1
EndSplineSet
Validated: 1
EndChar

StartChar: uni019C
Encoding: 412 412 336
Width: 840
Flags: W
LayerCount: 2
Fore
SplineSet
160 0 m 1,0,-1
 80 48 l 1,1,-1
 40 144 l 1,2,-1
 40 672 l 1,3,-1
 160 672 l 1,4,-1
 160 144 l 1,5,-1
 200 96 l 1,6,-1
 320 96 l 1,7,-1
 360 120 l 1,8,-1
 360 672 l 1,9,-1
 480 672 l 1,10,-1
 480 144 l 1,11,-1
 520 96 l 1,12,-1
 640 96 l 1,13,-1
 680 120 l 1,14,-1
 680 672 l 1,15,-1
 800 672 l 1,16,-1
 800 0 l 1,17,-1
 680 0 l 1,18,-1
 680 48 l 1,19,-1
 600 0 l 1,20,-1
 480 0 l 1,21,-1
 400 48 l 1,22,-1
 320 0 l 1,23,-1
 160 0 l 1,0,-1
EndSplineSet
Validated: 1
EndChar

StartChar: uni019D
Encoding: 413 413 337
Width: 640
Flags: W
LayerCount: 2
Fore
SplineSet
-80 -192 m 1,0,-1
 -80 -96 l 1,1,-1
 0 -96 l 1,2,-1
 40 -48 l 1,3,-1
 40 672 l 1,4,-1
 100 672 l 1,5,-1
 480 216 l 1,6,-1
 480 672 l 1,7,-1
 600 672 l 1,8,-1
 600 0 l 1,9,-1
 520 0 l 1,10,-1
 160 432 l 1,11,-1
 160 -48 l 1,12,-1
 120 -144 l 1,13,-1
 40 -192 l 1,14,-1
 -80 -192 l 1,0,-1
EndSplineSet
Validated: 1
EndChar

StartChar: uni019E
Encoding: 414 414 338
Width: 560
Flags: W
LayerCount: 2
Fore
SplineSet
400 -192 m 1,0,-1
 400 336 l 1,1,-1
 360 384 l 1,2,-1
 200 384 l 1,3,-1
 160 360 l 1,4,-1
 160 0 l 1,5,-1
 40 0 l 1,6,-1
 40 480 l 1,7,-1
 160 480 l 1,8,-1
 160 432 l 1,9,-1
 240 480 l 1,10,-1
 400 480 l 1,11,-1
 480 432 l 1,12,-1
 520 336 l 1,13,-1
 520 -192 l 1,14,-1
 400 -192 l 1,0,-1
EndSplineSet
Validated: 1
EndChar

StartChar: uni019F
Encoding: 415 415 339
Width: 640
Flags: W
LayerCount: 2
Fore
SplineSet
440 96 m 1,0,-1
 480 144 l 1,1,-1
 480 288 l 1,2,-1
 160 288 l 1,3,-1
 160 144 l 1,4,-1
 200 96 l 1,5,-1
 440 96 l 1,0,-1
480 384 m 1,6,-1
 480 528 l 1,7,-1
 440 576 l 1,8,-1
 200 576 l 1,9,-1
 160 528 l 1,10,-1
 160 384 l 1,11,-1
 480 384 l 1,6,-1
160 0 m 1,12,-1
 80 48 l 1,13,-1
 40 144 l 1,14,-1
 40 528 l 1,15,-1
 80 624 l 1,16,-1
 160 672 l 1,17,-1
 480 672 l 1,18,-1
 560 624 l 1,19,-1
 600 528 l 1,20,-1
 600 144 l 1,21,-1
 560 48 l 1,22,-1
 480 0 l 1,23,-1
 160 0 l 1,12,-1
EndSplineSet
Validated: 1
EndChar

StartChar: Ohorn
Encoding: 416 416 340
Width: 720
Flags: W
LayerCount: 2
Fore
SplineSet
440 96 m 1,0,-1
 480 144 l 1,1,-1
 480 528 l 1,2,-1
 440 576 l 1,3,-1
 200 576 l 1,4,-1
 160 528 l 1,5,-1
 160 144 l 1,6,-1
 200 96 l 1,7,-1
 440 96 l 1,0,-1
160 0 m 1,8,-1
 80 48 l 1,9,-1
 40 144 l 1,10,-1
 40 528 l 1,11,-1
 80 624 l 1,12,-1
 160 672 l 1,13,-1
 480 672 l 1,14,-1
 560 624 l 1,15,-1
 580 600 l 1,16,-1
 600 624 l 1,17,-1
 620 672 l 1,18,-1
 560 672 l 1,19,-1
 560 792 l 1,20,-1
 680 792 l 1,21,-1
 680 672 l 1,22,-1
 640 576 l 1,23,-1
 600 528 l 1,24,-1
 600 144 l 1,25,-1
 560 48 l 1,26,-1
 480 0 l 1,27,-1
 160 0 l 1,8,-1
EndSplineSet
Validated: 1
EndChar

StartChar: ohorn
Encoding: 417 417 341
Width: 640
Flags: W
LayerCount: 2
Fore
SplineSet
360 96 m 1,0,-1
 400 144 l 1,1,-1
 400 336 l 1,2,-1
 360 384 l 1,3,-1
 200 384 l 1,4,-1
 160 336 l 1,5,-1
 160 144 l 1,6,-1
 200 96 l 1,7,-1
 360 96 l 1,0,-1
160 0 m 1,8,-1
 80 48 l 1,9,-1
 40 144 l 1,10,-1
 40 336 l 1,11,-1
 80 432 l 1,12,-1
 160 480 l 1,13,-1
 400 480 l 1,14,-1
 480 432 l 1,15,-1
 500 408 l 1,16,-1
 520 432 l 1,17,-1
 540 480 l 1,18,-1
 480 480 l 1,19,-1
 480 600 l 1,20,-1
 600 600 l 1,21,-1
 600 480 l 1,22,-1
 560 384 l 1,23,-1
 520 336 l 1,24,-1
 520 144 l 1,25,-1
 480 48 l 1,26,-1
 400 0 l 1,27,-1
 160 0 l 1,8,-1
EndSplineSet
Validated: 1
EndChar

StartChar: uni01A2
Encoding: 418 418 342
Width: 920
Flags: W
LayerCount: 2
Fore
SplineSet
440 96 m 1,0,-1
 480 144 l 1,1,-1
 480 528 l 1,2,-1
 440 576 l 1,3,-1
 200 576 l 1,4,-1
 160 528 l 1,5,-1
 160 144 l 1,6,-1
 200 96 l 1,7,-1
 440 96 l 1,0,-1
760 -192 m 1,8,-1
 760 528 l 1,9,-1
 720 576 l 1,10,-1
 640 576 l 1,11,-1
 600 528 l 1,12,-1
 600 144 l 1,13,-1
 560 48 l 1,14,-1
 480 0 l 1,15,-1
 160 0 l 1,16,-1
 80 48 l 1,17,-1
 40 144 l 1,18,-1
 40 528 l 1,19,-1
 80 624 l 1,20,-1
 160 672 l 1,21,-1
 480 672 l 1,22,-1
 560 624 l 1,23,-1
 640 672 l 1,24,-1
 760 672 l 1,25,-1
 840 624 l 1,26,-1
 880 528 l 1,27,-1
 880 -192 l 1,28,-1
 760 -192 l 1,8,-1
EndSplineSet
Validated: 1
EndChar

StartChar: uni01A3
Encoding: 419 419 343
Width: 800
Flags: W
LayerCount: 2
Fore
SplineSet
360 96 m 1,0,-1
 400 144 l 1,1,-1
 400 336 l 1,2,-1
 360 384 l 1,3,-1
 200 384 l 1,4,-1
 160 336 l 1,5,-1
 160 144 l 1,6,-1
 200 96 l 1,7,-1
 360 96 l 1,0,-1
640 -192 m 1,8,-1
 640 336 l 1,9,-1
 600 384 l 1,10,-1
 560 384 l 1,11,-1
 520 336 l 1,12,-1
 520 144 l 1,13,-1
 480 48 l 1,14,-1
 400 0 l 1,15,-1
 160 0 l 1,16,-1
 80 48 l 1,17,-1
 40 144 l 1,18,-1
 40 336 l 1,19,-1
 80 432 l 1,20,-1
 160 480 l 1,21,-1
 400 480 l 1,22,-1
 480 432 l 1,23,-1
 560 480 l 1,24,-1
 640 480 l 1,25,-1
 720 432 l 1,26,-1
 760 336 l 1,27,-1
 760 -192 l 1,28,-1
 640 -192 l 1,8,-1
EndSplineSet
Validated: 1
EndChar

StartChar: uni01A4
Encoding: 420 420 344
Width: 840
Flags: W
LayerCount: 2
Fore
SplineSet
640 288 m 1,0,-1
 680 336 l 1,1,-1
 680 528 l 1,2,-1
 640 576 l 1,3,-1
 360 576 l 1,4,-1
 360 288 l 1,5,-1
 640 288 l 1,0,-1
240 0 m 1,6,-1
 240 576 l 1,7,-1
 200 576 l 1,8,-1
 160 528 l 1,9,-1
 160 480 l 1,10,-1
 40 480 l 1,11,-1
 40 528 l 1,12,-1
 80 624 l 1,13,-1
 160 672 l 1,14,-1
 680 672 l 1,15,-1
 760 624 l 1,16,-1
 800 528 l 1,17,-1
 800 336 l 1,18,-1
 760 240 l 1,19,-1
 680 192 l 1,20,-1
 360 192 l 1,21,-1
 360 0 l 1,22,-1
 240 0 l 1,6,-1
EndSplineSet
Validated: 1
EndChar

StartChar: uni01A5
Encoding: 421 421 345
Width: 560
Flags: W
LayerCount: 2
Fore
SplineSet
360 96 m 1,0,-1
 400 144 l 1,1,-1
 400 336 l 1,2,-1
 360 384 l 1,3,-1
 200 384 l 1,4,-1
 160 360 l 1,5,-1
 160 120 l 1,6,-1
 200 96 l 1,7,-1
 360 96 l 1,0,-1
40 -192 m 1,8,-1
 40 528 l 1,9,-1
 80 624 l 1,10,-1
 160 672 l 1,11,-1
 280 672 l 1,12,-1
 280 576 l 1,13,-1
 200 576 l 1,14,-1
 160 528 l 1,15,-1
 160 432 l 1,16,-1
 240 480 l 1,17,-1
 400 480 l 1,18,-1
 480 432 l 1,19,-1
 520 336 l 1,20,-1
 520 144 l 1,21,-1
 480 48 l 1,22,-1
 400 0 l 1,23,-1
 240 0 l 1,24,-1
 160 48 l 1,25,-1
 160 -192 l 1,26,-1
 40 -192 l 1,8,-1
EndSplineSet
Validated: 1
EndChar

StartChar: uni01A6
Encoding: 422 422 346
Width: 640
Flags: W
LayerCount: 2
Fore
SplineSet
440 288 m 1,0,-1
 480 336 l 1,1,-1
 480 528 l 1,2,-1
 440 576 l 1,3,-1
 160 576 l 1,4,-1
 160 288 l 1,5,-1
 440 288 l 1,0,-1
580 -192 m 1,6,-1
 420 192 l 1,7,-1
 160 192 l 1,8,-1
 160 0 l 1,9,-1
 40 0 l 1,10,-1
 40 768 l 1,11,-1
 160 768 l 1,12,-1
 160 672 l 1,13,-1
 480 672 l 1,14,-1
 560 624 l 1,15,-1
 600 528 l 1,16,-1
 600 336 l 1,17,-1
 580 288 l 1,18,-1
 560 264 l 1,19,-1
 520 240 l 1,20,-1
 700 -192 l 1,21,-1
 580 -192 l 1,6,-1
EndSplineSet
Validated: 1
EndChar

StartChar: uni01A7
Encoding: 423 423 347
Width: 640
Flags: W
LayerCount: 2
Fore
SplineSet
160 0 m 1,0,-1
 80 48 l 1,1,-1
 40 144 l 1,2,-1
 40 240 l 1,3,-1
 80 336 l 1,4,-1
 160 384 l 1,5,-1
 440 384 l 1,6,-1
 480 432 l 1,7,-1
 480 528 l 1,8,-1
 440 576 l 1,9,-1
 240 576 l 1,10,-1
 200 528 l 1,11,-1
 200 480 l 1,12,-1
 160 480 l 1,13,-1
 80 528 l 1,14,-1
 120 624 l 1,15,-1
 200 672 l 1,16,-1
 480 672 l 1,17,-1
 560 624 l 1,18,-1
 600 528 l 1,19,-1
 600 432 l 1,20,-1
 560 336 l 1,21,-1
 480 288 l 1,22,-1
 200 288 l 1,23,-1
 160 240 l 1,24,-1
 160 144 l 1,25,-1
 200 96 l 1,26,-1
 440 96 l 1,27,-1
 480 144 l 1,28,-1
 480 192 l 1,29,-1
 520 192 l 1,30,-1
 600 144 l 1,31,-1
 560 48 l 1,32,-1
 480 0 l 1,33,-1
 160 0 l 1,0,-1
EndSplineSet
Validated: 1
EndChar

StartChar: uni01A8
Encoding: 424 424 348
Width: 560
Flags: W
LayerCount: 2
Fore
SplineSet
160 0 m 1,0,-1
 80 48 l 1,1,-1
 40 144 l 1,2,-1
 80 240 l 1,3,-1
 160 288 l 1,4,-1
 380 288 l 1,5,-1
 400 312 l 1,6,-1
 400 360 l 1,7,-1
 380 384 l 1,8,-1
 220 384 l 1,9,-1
 200 360 l 1,10,-1
 200 336 l 1,11,-1
 160 336 l 1,12,-1
 80 384 l 1,13,-1
 120 432 l 1,14,-1
 200 480 l 1,15,-1
 400 480 l 1,16,-1
 480 432 l 1,17,-1
 520 336 l 1,18,-1
 480 240 l 1,19,-1
 400 192 l 1,20,-1
 180 192 l 1,21,-1
 160 168 l 1,22,-1
 160 120 l 1,23,-1
 180 96 l 1,24,-1
 380 96 l 1,25,-1
 400 120 l 1,26,-1
 400 144 l 1,27,-1
 440 144 l 1,28,-1
 520 96 l 1,29,-1
 480 48 l 1,30,-1
 400 0 l 1,31,-1
 160 0 l 1,0,-1
EndSplineSet
Validated: 1
EndChar

StartChar: uni01A9
Encoding: 425 425 349
Width: 560
Flags: W
LayerCount: 2
Fore
SplineSet
40 0 m 1,0,-1
 40 72 l 1,1,-1
 260 336 l 1,2,-1
 40 600 l 1,3,-1
 40 672 l 1,4,-1
 520 672 l 1,5,-1
 520 576 l 1,6,-1
 200 576 l 1,7,-1
 400 336 l 1,8,-1
 200 96 l 1,9,-1
 520 96 l 1,10,-1
 520 0 l 1,11,-1
 40 0 l 1,0,-1
EndSplineSet
Validated: 1
EndChar

StartChar: uni01AA
Encoding: 426 426 350
Width: 400
Flags: W
LayerCount: 2
Fore
SplineSet
200 528 m 1,0,-1
 200 600 l 1,1,-1
 180 624 l 1,2,-1
 140 624 l 1,3,-1
 120 600 l 1,4,-1
 120 552 l 1,5,-1
 140 528 l 1,6,-1
 200 528 l 1,0,-1
320 -192 m 1,7,-1
 240 -144 l 1,8,-1
 200 -48 l 1,9,-1
 200 480 l 1,10,-1
 80 480 l 1,11,-1
 40 528 l 1,12,-1
 40 624 l 1,13,-1
 80 672 l 1,14,-1
 260 672 l 1,15,-1
 320 600 l 1,16,-1
 320 -48 l 1,17,-1
 360 -96 l 1,18,-1
 440 -96 l 1,19,-1
 440 -192 l 1,20,-1
 320 -192 l 1,7,-1
EndSplineSet
Validated: 1
EndChar

StartChar: uni01AB
Encoding: 427 427 351
Width: 400
Flags: W
LayerCount: 2
Fore
SplineSet
160 -192 m 1,0,-1
 160 -96 l 1,1,-1
 200 -96 l 1,2,-1
 240 -48 l 1,3,-1
 240 0 l 1,4,-1
 160 48 l 1,5,-1
 120 144 l 1,6,-1
 120 384 l 1,7,-1
 40 384 l 1,8,-1
 40 480 l 1,9,-1
 120 480 l 1,10,-1
 120 624 l 1,11,-1
 200 672 l 1,12,-1
 240 672 l 1,13,-1
 240 480 l 1,14,-1
 360 480 l 1,15,-1
 360 384 l 1,16,-1
 240 384 l 1,17,-1
 240 144 l 1,18,-1
 280 96 l 1,19,-1
 360 96 l 1,20,-1
 360 -48 l 1,21,-1
 320 -144 l 1,22,-1
 240 -192 l 1,23,-1
 160 -192 l 1,0,-1
EndSplineSet
Validated: 1
EndChar

StartChar: uni01AC
Encoding: 428 428 352
Width: 680
Flags: W
LayerCount: 2
Fore
SplineSet
320 0 m 1,0,-1
 320 576 l 1,1,-1
 200 576 l 1,2,-1
 160 528 l 1,3,-1
 160 480 l 1,4,-1
 40 480 l 1,5,-1
 40 528 l 1,6,-1
 80 624 l 1,7,-1
 160 672 l 1,8,-1
 640 672 l 1,9,-1
 640 576 l 1,10,-1
 440 576 l 1,11,-1
 440 0 l 1,12,-1
 320 0 l 1,0,-1
EndSplineSet
Validated: 1
EndChar

StartChar: uni01AD
Encoding: 429 429 353
Width: 400
Flags: W
LayerCount: 2
Fore
SplineSet
240 0 m 1,0,-1
 160 48 l 1,1,-1
 120 144 l 1,2,-1
 120 384 l 1,3,-1
 40 384 l 1,4,-1
 40 480 l 1,5,-1
 120 480 l 1,6,-1
 120 528 l 1,7,-1
 160 624 l 1,8,-1
 240 672 l 1,9,-1
 360 672 l 1,10,-1
 360 576 l 1,11,-1
 280 576 l 1,12,-1
 240 528 l 1,13,-1
 240 480 l 1,14,-1
 360 480 l 1,15,-1
 360 384 l 1,16,-1
 240 384 l 1,17,-1
 240 144 l 1,18,-1
 280 96 l 1,19,-1
 360 96 l 1,20,-1
 360 0 l 1,21,-1
 240 0 l 1,0,-1
EndSplineSet
Validated: 1
EndChar

StartChar: uni01AE
Encoding: 430 430 354
Width: 640
Flags: W
LayerCount: 2
Fore
SplineSet
400 -192 m 1,0,-1
 320 -144 l 1,1,-1
 280 -48 l 1,2,-1
 280 576 l 1,3,-1
 40 576 l 1,4,-1
 40 672 l 1,5,-1
 600 672 l 1,6,-1
 600 576 l 1,7,-1
 400 576 l 1,8,-1
 400 -48 l 1,9,-1
 440 -96 l 1,10,-1
 480 -96 l 1,11,-1
 480 -192 l 1,12,-1
 400 -192 l 1,0,-1
EndSplineSet
Validated: 1
EndChar

StartChar: Uhorn
Encoding: 431 431 355
Width: 760
Flags: W
LayerCount: 2
Fore
SplineSet
160 0 m 1,0,-1
 80 48 l 1,1,-1
 40 144 l 1,2,-1
 40 672 l 1,3,-1
 160 672 l 1,4,-1
 160 144 l 1,5,-1
 200 96 l 1,6,-1
 440 96 l 1,7,-1
 480 144 l 1,8,-1
 480 672 l 1,9,-1
 596 669 l 1,10,-1
 600 576 l 1,11,-1
 640 624 l 1,12,-1
 660 672 l 1,13,-1
 603 675 l 1,14,-1
 600 792 l 1,15,-1
 720 792 l 1,16,-1
 720 672 l 1,17,-1
 680 576 l 1,18,-1
 640 528 l 1,19,-1
 600 504 l 1,20,-1
 600 144 l 1,21,-1
 560 48 l 1,22,-1
 480 0 l 1,23,-1
 160 0 l 1,0,-1
EndSplineSet
Validated: 1
EndChar

StartChar: uhorn
Encoding: 432 432 356
Width: 680
Flags: W
LayerCount: 2
Fore
SplineSet
160 0 m 1,0,-1
 80 48 l 1,1,-1
 40 144 l 1,2,-1
 40 480 l 1,3,-1
 160 480 l 1,4,-1
 160 144 l 1,5,-1
 200 96 l 1,6,-1
 360 96 l 1,7,-1
 400 120 l 1,8,-1
 400 480 l 1,9,-1
 518 478 l 1,10,-1
 520 384 l 1,11,-1
 560 432 l 1,12,-1
 580 480 l 1,13,-1
 522 482 l 1,14,-1
 520 600 l 1,15,-1
 640 600 l 1,16,-1
 640 480 l 1,17,-1
 600 384 l 1,18,-1
 560 336 l 1,19,-1
 520 312 l 1,20,-1
 520 0 l 1,21,-1
 400 0 l 1,22,-1
 400 48 l 1,23,-1
 320 0 l 1,24,-1
 160 0 l 1,0,-1
EndSplineSet
Validated: 1
EndChar

StartChar: uni01B1
Encoding: 433 433 357
Width: 640
Flags: W
LayerCount: 2
Fore
SplineSet
160 0 m 1,0,-1
 80 48 l 1,1,-1
 40 144 l 1,2,-1
 40 480 l 1,3,-1
 80 576 l 1,4,-1
 40 576 l 1,5,-1
 40 672 l 1,6,-1
 220 672 l 1,7,-1
 220 576 l 1,8,-1
 200 576 l 1,9,-1
 160 528 l 1,10,-1
 160 144 l 1,11,-1
 200 96 l 1,12,-1
 440 96 l 1,13,-1
 480 144 l 1,14,-1
 480 528 l 1,15,-1
 440 576 l 1,16,-1
 420 576 l 1,17,-1
 420 672 l 1,18,-1
 600 672 l 1,19,-1
 600 576 l 1,20,-1
 560 576 l 1,21,-1
 600 480 l 1,22,-1
 600 144 l 1,23,-1
 560 48 l 1,24,-1
 480 0 l 1,25,-1
 160 0 l 1,0,-1
EndSplineSet
Validated: 1
EndChar

StartChar: uni01B2
Encoding: 434 434 358
Width: 640
Flags: W
LayerCount: 2
Fore
SplineSet
160 0 m 1,0,-1
 80 48 l 1,1,-1
 40 144 l 1,2,-1
 40 672 l 1,3,-1
 160 672 l 1,4,-1
 160 144 l 1,5,-1
 200 96 l 1,6,-1
 440 96 l 1,7,-1
 480 144 l 1,8,-1
 480 528 l 1,9,-1
 440 576 l 1,10,-1
 360 576 l 1,11,-1
 360 672 l 1,12,-1
 480 672 l 1,13,-1
 560 624 l 1,14,-1
 600 528 l 1,15,-1
 600 144 l 1,16,-1
 560 48 l 1,17,-1
 480 0 l 1,18,-1
 160 0 l 1,0,-1
EndSplineSet
Validated: 1
EndChar

StartChar: uni01B3
Encoding: 435 435 359
Width: 720
Flags: W
LayerCount: 2
Fore
SplineSet
320 0 m 1,0,-1
 320 336 l 1,1,-1
 120 576 l 1,2,-1
 40 576 l 1,3,-1
 40 672 l 1,4,-1
 160 672 l 1,5,-1
 200 648 l 1,6,-1
 360 456 l 1,7,-1
 400 456 l 1,8,-1
 580 672 l 1,9,-1
 720 672 l 1,10,-1
 440 336 l 1,11,-1
 440 0 l 1,12,-1
 320 0 l 1,0,-1
EndSplineSet
Validated: 1
EndChar

StartChar: uni01B4
Encoding: 436 436 360
Width: 640
Flags: W
LayerCount: 2
Fore
SplineSet
160 -192 m 1,0,-1
 240 0 l 1,1,-1
 200 24 l 1,2,-1
 180 48 l 1,3,-1
 0 480 l 1,4,-1
 120 480 l 1,5,-1
 280 96 l 1,6,-1
 420 432 l 1,7,-1
 440 456 l 1,8,-1
 480 480 l 1,9,-1
 600 480 l 1,10,-1
 600 384 l 1,11,-1
 540 384 l 1,12,-1
 500 336 l 1,13,-1
 280 -192 l 1,14,-1
 160 -192 l 1,0,-1
EndSplineSet
Validated: 1
EndChar

StartChar: uni01B5
Encoding: 437 437 361
Width: 680
Flags: W
LayerCount: 2
Fore
SplineSet
40 0 m 1,0,-1
 40 72 l 1,1,-1
 220 288 l 1,2,-1
 120 288 l 1,3,-1
 120 384 l 1,4,-1
 300 384 l 1,5,-1
 460 576 l 1,6,-1
 40 576 l 1,7,-1
 40 672 l 1,8,-1
 640 672 l 1,9,-1
 640 624 l 1,10,-1
 440 384 l 1,11,-1
 560 384 l 1,12,-1
 560 288 l 1,13,-1
 360 288 l 1,14,-1
 200 96 l 1,15,-1
 640 96 l 1,16,-1
 640 0 l 1,17,-1
 40 0 l 1,0,-1
EndSplineSet
Validated: 1
EndChar

StartChar: uni01B6
Encoding: 438 438 362
Width: 520
Flags: W
LayerCount: 2
Fore
SplineSet
40 0 m 1,0,-1
 40 72 l 1,1,-1
 140 192 l 1,2,-1
 80 192 l 1,3,-1
 80 288 l 1,4,-1
 220 288 l 1,5,-1
 300 384 l 1,6,-1
 40 384 l 1,7,-1
 40 480 l 1,8,-1
 480 480 l 1,9,-1
 480 432 l 1,10,-1
 360 288 l 1,11,-1
 440 288 l 1,12,-1
 440 192 l 1,13,-1
 280 192 l 1,14,-1
 200 96 l 1,15,-1
 480 96 l 1,16,-1
 480 0 l 1,17,-1
 40 0 l 1,0,-1
EndSplineSet
Validated: 1
EndChar

StartChar: uni01B7
Encoding: 439 439 363
Width: 640
Flags: W
LayerCount: 2
Fore
SplineSet
160 0 m 1,0,-1
 80 48 l 1,1,-1
 40 144 l 1,2,-1
 120 192 l 1,3,-1
 160 192 l 1,4,-1
 160 144 l 1,5,-1
 200 96 l 1,6,-1
 440 96 l 1,7,-1
 480 144 l 1,8,-1
 480 288 l 1,9,-1
 440 336 l 1,10,-1
 240 336 l 1,11,-1
 240 408 l 1,12,-1
 380 576 l 1,13,-1
 80 576 l 1,14,-1
 80 672 l 1,15,-1
 560 672 l 1,16,-1
 560 624 l 1,17,-1
 400 432 l 1,18,-1
 480 432 l 1,19,-1
 560 384 l 1,20,-1
 600 288 l 1,21,-1
 600 144 l 1,22,-1
 560 48 l 1,23,-1
 480 0 l 1,24,-1
 160 0 l 1,0,-1
EndSplineSet
Validated: 1
EndChar

StartChar: uni01B8
Encoding: 440 440 364
Width: 640
Flags: W
LayerCount: 2
Fore
SplineSet
160 0 m 1,0,-1
 80 48 l 1,1,-1
 40 144 l 1,2,-1
 40 288 l 1,3,-1
 80 384 l 1,4,-1
 160 432 l 1,5,-1
 240 432 l 1,6,-1
 80 624 l 1,7,-1
 80 672 l 1,8,-1
 560 672 l 1,9,-1
 560 576 l 1,10,-1
 260 576 l 1,11,-1
 400 408 l 1,12,-1
 400 336 l 1,13,-1
 200 336 l 1,14,-1
 160 288 l 1,15,-1
 160 144 l 1,16,-1
 200 96 l 1,17,-1
 440 96 l 1,18,-1
 480 144 l 1,19,-1
 480 192 l 1,20,-1
 520 192 l 1,21,-1
 600 144 l 1,22,-1
 560 48 l 1,23,-1
 480 0 l 1,24,-1
 160 0 l 1,0,-1
EndSplineSet
Validated: 1
EndChar

StartChar: uni01B9
Encoding: 441 441 365
Width: 560
Flags: W
LayerCount: 2
Fore
SplineSet
160 -192 m 1,0,-1
 80 -144 l 1,1,-1
 40 -48 l 1,2,-1
 120 0 l 1,3,-1
 160 0 l 1,4,-1
 160 -48 l 1,5,-1
 200 -96 l 1,6,-1
 360 -96 l 1,7,-1
 400 -48 l 1,8,-1
 400 96 l 1,9,-1
 360 144 l 1,10,-1
 160 144 l 1,11,-1
 160 216 l 1,12,-1
 300 384 l 1,13,-1
 80 384 l 1,14,-1
 80 480 l 1,15,-1
 480 480 l 1,16,-1
 480 432 l 1,17,-1
 320 240 l 1,18,-1
 400 240 l 1,19,-1
 480 192 l 1,20,-1
 520 96 l 1,21,-1
 520 -48 l 1,22,-1
 480 -144 l 1,23,-1
 400 -192 l 1,24,-1
 160 -192 l 1,0,-1
EndSplineSet
Validated: 1
EndChar

StartChar: uni01BA
Encoding: 442 442 366
Width: 560
Flags: W
LayerCount: 2
Fore
SplineSet
40 -192 m 1,0,-1
 40 -144 l 1,1,-1
 80 -48 l 1,2,-1
 160 0 l 1,3,-1
 360 0 l 1,4,-1
 400 48 l 1,5,-1
 400 96 l 1,6,-1
 360 144 l 1,7,-1
 160 144 l 1,8,-1
 160 216 l 1,9,-1
 300 384 l 1,10,-1
 80 384 l 1,11,-1
 80 480 l 1,12,-1
 480 480 l 1,13,-1
 480 432 l 1,14,-1
 320 240 l 1,15,-1
 400 240 l 1,16,-1
 480 192 l 1,17,-1
 520 96 l 1,18,-1
 520 48 l 1,19,-1
 480 -48 l 1,20,-1
 400 -96 l 1,21,-1
 200 -96 l 1,22,-1
 160 -144 l 1,23,-1
 160 -192 l 1,24,-1
 40 -192 l 1,0,-1
EndSplineSet
Validated: 1
EndChar

StartChar: uni01BB
Encoding: 443 443 367
Width: 640
Flags: W
LayerCount: 2
Fore
SplineSet
40 0 m 1,0,-1
 40 96 l 1,1,-1
 80 192 l 1,2,-1
 280 312 l 1,3,-1
 120 312 l 1,4,-1
 120 384 l 1,5,-1
 400 384 l 1,6,-1
 480 480 l 1,7,-1
 480 528 l 1,8,-1
 440 576 l 1,9,-1
 200 576 l 1,10,-1
 160 528 l 1,11,-1
 160 480 l 1,12,-1
 120 480 l 1,13,-1
 40 528 l 1,14,-1
 80 624 l 1,15,-1
 160 672 l 1,16,-1
 480 672 l 1,17,-1
 560 624 l 1,18,-1
 600 528 l 1,19,-1
 600 480 l 1,20,-1
 560 384 l 1,21,-1
 600 384 l 1,22,-1
 600 312 l 1,23,-1
 480 312 l 1,24,-1
 200 144 l 1,25,-1
 160 96 l 1,26,-1
 600 96 l 1,27,-1
 600 0 l 1,28,-1
 40 0 l 1,0,-1
EndSplineSet
Validated: 1
EndChar

StartChar: uni01BC
Encoding: 444 444 368
Width: 640
Flags: W
LayerCount: 2
Fore
SplineSet
160 0 m 1,0,-1
 80 48 l 1,1,-1
 40 144 l 1,2,-1
 120 192 l 1,3,-1
 160 192 l 1,4,-1
 160 144 l 1,5,-1
 200 96 l 1,6,-1
 440 96 l 1,7,-1
 480 144 l 1,8,-1
 480 288 l 1,9,-1
 440 336 l 1,10,-1
 200 336 l 1,11,-1
 120 288 l 1,12,-1
 40 288 l 1,13,-1
 40 672 l 1,14,-1
 560 672 l 1,15,-1
 560 576 l 1,16,-1
 160 576 l 1,17,-1
 160 384 l 1,18,-1
 240 432 l 1,19,-1
 480 432 l 1,20,-1
 560 384 l 1,21,-1
 600 288 l 1,22,-1
 600 144 l 1,23,-1
 560 48 l 1,24,-1
 480 0 l 1,25,-1
 160 0 l 1,0,-1
EndSplineSet
Validated: 1
EndChar

StartChar: uni01BD
Encoding: 445 445 369
Width: 560
Flags: W
LayerCount: 2
Fore
SplineSet
160 0 m 1,0,-1
 80 48 l 1,1,-1
 40 144 l 1,2,-1
 160 144 l 1,3,-1
 200 96 l 1,4,-1
 360 96 l 1,5,-1
 400 144 l 1,6,-1
 400 192 l 1,7,-1
 360 240 l 1,8,-1
 200 240 l 1,9,-1
 120 192 l 1,10,-1
 40 192 l 1,11,-1
 40 480 l 1,12,-1
 480 480 l 1,13,-1
 480 384 l 1,14,-1
 160 384 l 1,15,-1
 160 288 l 1,16,-1
 240 336 l 1,17,-1
 400 336 l 1,18,-1
 480 288 l 1,19,-1
 520 192 l 1,20,-1
 520 144 l 1,21,-1
 480 48 l 1,22,-1
 400 0 l 1,23,-1
 160 0 l 1,0,-1
EndSplineSet
Validated: 1
EndChar

StartChar: uni01BE
Encoding: 446 446 370
Width: 640
Flags: W
LayerCount: 2
Fore
SplineSet
160 0 m 1,0,-1
 80 48 l 1,1,-1
 40 144 l 1,2,-1
 120 192 l 1,3,-1
 160 192 l 1,4,-1
 160 144 l 1,5,-1
 200 96 l 1,6,-1
 440 96 l 1,7,-1
 480 144 l 1,8,-1
 480 240 l 1,9,-1
 440 288 l 1,10,-1
 360 288 l 1,11,-1
 280 336 l 1,12,-1
 240 432 l 1,13,-1
 240 480 l 1,14,-1
 80 480 l 1,15,-1
 80 552 l 1,16,-1
 240 552 l 1,17,-1
 240 672 l 1,18,-1
 360 672 l 1,19,-1
 360 552 l 1,20,-1
 520 552 l 1,21,-1
 520 480 l 1,22,-1
 360 480 l 1,23,-1
 360 432 l 1,24,-1
 400 384 l 1,25,-1
 480 384 l 1,26,-1
 560 336 l 1,27,-1
 600 240 l 1,28,-1
 600 144 l 1,29,-1
 560 48 l 1,30,-1
 480 0 l 1,31,-1
 160 0 l 1,0,-1
EndSplineSet
Validated: 1
EndChar

StartChar: uni01BF
Encoding: 447 447 371
Width: 560
Flags: W
LayerCount: 2
Fore
SplineSet
280 96 m 1,0,-1
 320 120 l 1,1,-1
 380 192 l 1,2,-1
 400 240 l 1,3,-1
 400 336 l 1,4,-1
 360 384 l 1,5,-1
 200 384 l 1,6,-1
 160 360 l 1,7,-1
 160 96 l 1,8,-1
 280 96 l 1,0,-1
40 -192 m 1,9,-1
 40 480 l 1,10,-1
 160 480 l 1,11,-1
 160 432 l 1,12,-1
 240 480 l 1,13,-1
 400 480 l 1,14,-1
 480 432 l 1,15,-1
 520 336 l 1,16,-1
 520 240 l 1,17,-1
 480 144 l 1,18,-1
 400 48 l 1,19,-1
 320 0 l 1,20,-1
 160 0 l 1,21,-1
 160 -192 l 1,22,-1
 40 -192 l 1,9,-1
EndSplineSet
Validated: 1
EndChar

StartChar: uni01C2
Encoding: 450 450 374
Width: 520
Flags: W
LayerCount: 2
Fore
SplineSet
200 0 m 1,0,-1
 200 192 l 1,1,-1
 40 192 l 1,2,-1
 40 288 l 1,3,-1
 200 288 l 1,4,-1
 200 384 l 1,5,-1
 40 384 l 1,6,-1
 40 480 l 1,7,-1
 200 480 l 1,8,-1
 200 672 l 1,9,-1
 320 672 l 1,10,-1
 320 480 l 1,11,-1
 480 480 l 1,12,-1
 480 384 l 1,13,-1
 320 384 l 1,14,-1
 320 288 l 1,15,-1
 480 288 l 1,16,-1
 480 192 l 1,17,-1
 320 192 l 1,18,-1
 320 0 l 1,19,-1
 200 0 l 1,0,-1
EndSplineSet
Validated: 1
EndChar

StartChar: uni01C7
Encoding: 455 455 379
Width: 840
Flags: W
LayerCount: 2
Fore
SplineSet
40 0 m 1,0,-1
 40 672 l 1,1,-1
 160 672 l 1,2,-1
 160 96 l 1,3,-1
 520 96 l 1,4,-1
 520 0 l 1,5,-1
 40 0 l 1,0,-1
400 -192 m 1,6,-1
 320 -144 l 1,7,-1
 280 -48 l 1,8,-1
 400 -48 l 1,9,-1
 440 -96 l 1,10,-1
 600 -96 l 1,11,-1
 640 -48 l 1,12,-1
 640 672 l 1,13,-1
 760 672 l 1,14,-1
 760 -48 l 1,15,-1
 720 -144 l 1,16,-1
 640 -192 l 1,17,-1
 400 -192 l 1,6,-1
EndSplineSet
Validated: 1
EndChar

StartChar: uni01C8
Encoding: 456 456 380
Width: 800
Flags: W
LayerCount: 2
Fore
SplineSet
520 -192 m 1,0,-1
 520 -96 l 1,1,-1
 600 -96 l 1,2,-1
 640 -48 l 1,3,-1
 640 480 l 1,4,-1
 760 480 l 1,5,-1
 760 -48 l 1,6,-1
 720 -144 l 1,7,-1
 640 -192 l 1,8,-1
 520 -192 l 1,0,-1
40 0 m 1,9,-1
 40 672 l 1,10,-1
 160 672 l 1,11,-1
 160 96 l 1,12,-1
 520 96 l 1,13,-1
 520 0 l 1,14,-1
 40 0 l 1,9,-1
640 552 m 1,15,-1
 640 672 l 1,16,-1
 760 672 l 1,17,-1
 760 552 l 1,18,-1
 640 552 l 1,15,-1
EndSplineSet
Validated: 1
EndChar

StartChar: uni01C9
Encoding: 457 457 381
Width: 560
Flags: W
LayerCount: 2
Fore
SplineSet
240 -192 m 1,0,-1
 240 -96 l 1,1,-1
 320 -96 l 1,2,-1
 360 -48 l 1,3,-1
 360 480 l 1,4,-1
 480 480 l 1,5,-1
 480 -48 l 1,6,-1
 440 -144 l 1,7,-1
 360 -192 l 1,8,-1
 240 -192 l 1,0,-1
80 0 m 1,9,-1
 80 672 l 1,10,-1
 200 672 l 1,11,-1
 200 0 l 1,12,-1
 80 0 l 1,9,-1
360 552 m 1,13,-1
 360 672 l 1,14,-1
 480 672 l 1,15,-1
 480 552 l 1,16,-1
 360 552 l 1,13,-1
EndSplineSet
Validated: 1
EndChar

StartChar: uni01CA
Encoding: 458 458 382
Width: 880
Flags: W
LayerCount: 2
Fore
SplineSet
40 0 m 1,0,-1
 40 672 l 1,1,-1
 100 672 l 1,2,-1
 480 216 l 1,3,-1
 480 672 l 1,4,-1
 600 672 l 1,5,-1
 600 0 l 1,6,-1
 520 0 l 1,7,-1
 160 432 l 1,8,-1
 160 0 l 1,9,-1
 40 0 l 1,0,-1
480 -192 m 1,10,-1
 400 -144 l 1,11,-1
 360 -48 l 1,12,-1
 480 -48 l 1,13,-1
 520 -96 l 1,14,-1
 680 -96 l 1,15,-1
 720 -48 l 1,16,-1
 720 672 l 1,17,-1
 840 672 l 1,18,-1
 840 -48 l 1,19,-1
 800 -144 l 1,20,-1
 720 -192 l 1,21,-1
 480 -192 l 1,10,-1
EndSplineSet
Validated: 1
EndChar

StartChar: uni01CB
Encoding: 459 459 383
Width: 880
Flags: W
LayerCount: 2
Fore
SplineSet
600 -192 m 1,0,-1
 600 -96 l 1,1,-1
 680 -96 l 1,2,-1
 720 -48 l 1,3,-1
 720 480 l 1,4,-1
 840 480 l 1,5,-1
 840 -48 l 1,6,-1
 800 -144 l 1,7,-1
 720 -192 l 1,8,-1
 600 -192 l 1,0,-1
40 0 m 1,9,-1
 40 672 l 1,10,-1
 100 672 l 1,11,-1
 480 216 l 1,12,-1
 480 672 l 1,13,-1
 600 672 l 1,14,-1
 600 0 l 1,15,-1
 520 0 l 1,16,-1
 160 432 l 1,17,-1
 160 0 l 1,18,-1
 40 0 l 1,9,-1
720 552 m 1,19,-1
 720 672 l 1,20,-1
 840 672 l 1,21,-1
 840 552 l 1,22,-1
 720 552 l 1,19,-1
EndSplineSet
Validated: 1
EndChar

StartChar: uni01CC
Encoding: 460 460 384
Width: 800
Flags: W
LayerCount: 2
Fore
SplineSet
40 0 m 1,0,-1
 40 480 l 1,1,-1
 160 480 l 1,2,-1
 160 432 l 1,3,-1
 240 480 l 1,4,-1
 400 480 l 1,5,-1
 480 432 l 1,6,-1
 520 336 l 1,7,-1
 520 0 l 1,8,-1
 400 0 l 1,9,-1
 400 336 l 1,10,-1
 360 384 l 1,11,-1
 200 384 l 1,12,-1
 160 360 l 1,13,-1
 160 0 l 1,14,-1
 40 0 l 1,0,-1
520 -192 m 1,15,-1
 520 -96 l 1,16,-1
 600 -96 l 1,17,-1
 640 -48 l 1,18,-1
 640 480 l 1,19,-1
 760 480 l 1,20,-1
 760 -48 l 1,21,-1
 720 -144 l 1,22,-1
 640 -192 l 1,23,-1
 520 -192 l 1,15,-1
640 552 m 1,24,-1
 640 672 l 1,25,-1
 760 672 l 1,26,-1
 760 552 l 1,27,-1
 640 552 l 1,24,-1
EndSplineSet
Validated: 1
EndChar

StartChar: uni01D5
Encoding: 469 469 393
Width: 640
Flags: W
LayerCount: 2
Fore
SplineSet
160 0 m 1,0,-1
 80 48 l 1,1,-1
 40 144 l 1,2,-1
 40 672 l 1,3,-1
 160 672 l 1,4,-1
 160 144 l 1,5,-1
 200 96 l 1,6,-1
 440 96 l 1,7,-1
 480 144 l 1,8,-1
 480 672 l 1,9,-1
 600 672 l 1,10,-1
 600 144 l 1,11,-1
 560 48 l 1,12,-1
 480 0 l 1,13,-1
 160 0 l 1,0,-1
80 744 m 1,14,-1
 80 816 l 1,15,-1
 200 816 l 1,16,-1
 200 744 l 1,17,-1
 80 744 l 1,14,-1
440 744 m 1,18,-1
 440 816 l 1,19,-1
 560 816 l 1,20,-1
 560 744 l 1,21,-1
 440 744 l 1,18,-1
160 864 m 1,22,-1
 160 936 l 1,23,-1
 480 936 l 1,24,-1
 480 864 l 1,25,-1
 160 864 l 1,22,-1
EndSplineSet
Validated: 1
EndChar

StartChar: uni01D6
Encoding: 470 470 394
Width: 560
Flags: W
LayerCount: 2
Fore
SplineSet
160 0 m 1,0,-1
 80 48 l 1,1,-1
 40 144 l 1,2,-1
 40 480 l 1,3,-1
 160 480 l 1,4,-1
 160 144 l 1,5,-1
 200 96 l 1,6,-1
 360 96 l 1,7,-1
 400 120 l 1,8,-1
 400 480 l 1,9,-1
 520 480 l 1,10,-1
 520 0 l 1,11,-1
 400 0 l 1,12,-1
 400 48 l 1,13,-1
 320 0 l 1,14,-1
 160 0 l 1,0,-1
40 552 m 1,15,-1
 40 624 l 1,16,-1
 160 624 l 1,17,-1
 160 552 l 1,18,-1
 40 552 l 1,15,-1
400 552 m 1,19,-1
 400 624 l 1,20,-1
 520 624 l 1,21,-1
 520 552 l 1,22,-1
 400 552 l 1,19,-1
120 672 m 1,23,-1
 120 744 l 1,24,-1
 440 744 l 1,25,-1
 440 672 l 1,26,-1
 120 672 l 1,23,-1
EndSplineSet
Validated: 1
EndChar

StartChar: uni01D7
Encoding: 471 471 395
Width: 640
Flags: W
LayerCount: 2
Fore
SplineSet
160 0 m 1,0,-1
 80 48 l 1,1,-1
 40 144 l 1,2,-1
 40 672 l 1,3,-1
 160 672 l 1,4,-1
 160 144 l 1,5,-1
 200 96 l 1,6,-1
 440 96 l 1,7,-1
 480 144 l 1,8,-1
 480 672 l 1,9,-1
 600 672 l 1,10,-1
 600 144 l 1,11,-1
 560 48 l 1,12,-1
 480 0 l 1,13,-1
 160 0 l 1,0,-1
80 744 m 1,14,-1
 80 864 l 1,15,-1
 200 864 l 1,16,-1
 200 744 l 1,17,-1
 80 744 l 1,14,-1
440 744 m 1,18,-1
 440 864 l 1,19,-1
 560 864 l 1,20,-1
 560 744 l 1,21,-1
 440 744 l 1,18,-1
240 816 m 1,22,-1
 300 960 l 1,23,-1
 440 960 l 1,24,-1
 320 816 l 1,25,-1
 240 816 l 1,22,-1
EndSplineSet
Validated: 1
EndChar

StartChar: uni01D8
Encoding: 472 472 396
Width: 560
Flags: W
LayerCount: 2
Fore
SplineSet
160 0 m 1,0,-1
 80 48 l 1,1,-1
 40 144 l 1,2,-1
 40 480 l 1,3,-1
 160 480 l 1,4,-1
 160 144 l 1,5,-1
 200 96 l 1,6,-1
 360 96 l 1,7,-1
 400 120 l 1,8,-1
 400 480 l 1,9,-1
 520 480 l 1,10,-1
 520 0 l 1,11,-1
 400 0 l 1,12,-1
 400 48 l 1,13,-1
 320 0 l 1,14,-1
 160 0 l 1,0,-1
40 552 m 1,15,-1
 40 672 l 1,16,-1
 160 672 l 1,17,-1
 160 552 l 1,18,-1
 40 552 l 1,15,-1
400 552 m 1,19,-1
 400 672 l 1,20,-1
 520 672 l 1,21,-1
 520 552 l 1,22,-1
 400 552 l 1,19,-1
200 624 m 1,23,-1
 260 768 l 1,24,-1
 400 768 l 1,25,-1
 280 624 l 1,26,-1
 200 624 l 1,23,-1
EndSplineSet
Validated: 1
EndChar

StartChar: uni01D9
Encoding: 473 473 397
Width: 640
Flags: W
LayerCount: 2
Fore
SplineSet
160 0 m 1,0,-1
 80 48 l 1,1,-1
 40 144 l 1,2,-1
 40 672 l 1,3,-1
 160 672 l 1,4,-1
 160 144 l 1,5,-1
 200 96 l 1,6,-1
 440 96 l 1,7,-1
 480 144 l 1,8,-1
 480 672 l 1,9,-1
 600 672 l 1,10,-1
 600 144 l 1,11,-1
 560 48 l 1,12,-1
 480 0 l 1,13,-1
 160 0 l 1,0,-1
80 744 m 1,14,-1
 80 816 l 1,15,-1
 200 816 l 1,16,-1
 200 744 l 1,17,-1
 80 744 l 1,14,-1
440 744 m 1,18,-1
 440 816 l 1,19,-1
 560 816 l 1,20,-1
 560 744 l 1,21,-1
 440 744 l 1,18,-1
280 768 m 1,22,-1
 160 912 l 1,23,-1
 260 912 l 1,24,-1
 320 840 l 1,25,-1
 380 912 l 1,26,-1
 480 912 l 1,27,-1
 360 768 l 1,28,-1
 280 768 l 1,22,-1
EndSplineSet
Validated: 1
EndChar

StartChar: uni01DA
Encoding: 474 474 398
Width: 560
Flags: W
LayerCount: 2
Fore
SplineSet
160 0 m 1,0,-1
 80 48 l 1,1,-1
 40 144 l 1,2,-1
 40 480 l 1,3,-1
 160 480 l 1,4,-1
 160 144 l 1,5,-1
 200 96 l 1,6,-1
 360 96 l 1,7,-1
 400 120 l 1,8,-1
 400 480 l 1,9,-1
 520 480 l 1,10,-1
 520 0 l 1,11,-1
 400 0 l 1,12,-1
 400 48 l 1,13,-1
 320 0 l 1,14,-1
 160 0 l 1,0,-1
40 552 m 1,15,-1
 40 624 l 1,16,-1
 160 624 l 1,17,-1
 160 552 l 1,18,-1
 40 552 l 1,15,-1
400 552 m 1,19,-1
 400 624 l 1,20,-1
 520 624 l 1,21,-1
 520 552 l 1,22,-1
 400 552 l 1,19,-1
240 576 m 1,23,-1
 120 720 l 1,24,-1
 220 720 l 1,25,-1
 280 648 l 1,26,-1
 340 720 l 1,27,-1
 440 720 l 1,28,-1
 320 576 l 1,29,-1
 240 576 l 1,23,-1
EndSplineSet
Validated: 1
EndChar

StartChar: uni01DB
Encoding: 475 475 399
Width: 640
Flags: W
LayerCount: 2
Fore
SplineSet
160 0 m 1,0,-1
 80 48 l 1,1,-1
 40 144 l 1,2,-1
 40 672 l 1,3,-1
 160 672 l 1,4,-1
 160 144 l 1,5,-1
 200 96 l 1,6,-1
 440 96 l 1,7,-1
 480 144 l 1,8,-1
 480 672 l 1,9,-1
 600 672 l 1,10,-1
 600 144 l 1,11,-1
 560 48 l 1,12,-1
 480 0 l 1,13,-1
 160 0 l 1,0,-1
80 744 m 1,14,-1
 80 864 l 1,15,-1
 200 864 l 1,16,-1
 200 744 l 1,17,-1
 80 744 l 1,14,-1
440 744 m 1,18,-1
 440 864 l 1,19,-1
 560 864 l 1,20,-1
 560 744 l 1,21,-1
 440 744 l 1,18,-1
320 816 m 1,22,-1
 200 960 l 1,23,-1
 340 960 l 1,24,-1
 400 816 l 1,25,-1
 320 816 l 1,22,-1
EndSplineSet
Validated: 1
EndChar

StartChar: uni01DC
Encoding: 476 476 400
Width: 560
Flags: W
LayerCount: 2
Fore
SplineSet
160 0 m 1,0,-1
 80 48 l 1,1,-1
 40 144 l 1,2,-1
 40 480 l 1,3,-1
 160 480 l 1,4,-1
 160 144 l 1,5,-1
 200 96 l 1,6,-1
 360 96 l 1,7,-1
 400 120 l 1,8,-1
 400 480 l 1,9,-1
 520 480 l 1,10,-1
 520 0 l 1,11,-1
 400 0 l 1,12,-1
 400 48 l 1,13,-1
 320 0 l 1,14,-1
 160 0 l 1,0,-1
40 552 m 1,15,-1
 40 672 l 1,16,-1
 160 672 l 1,17,-1
 160 552 l 1,18,-1
 40 552 l 1,15,-1
400 552 m 1,19,-1
 400 672 l 1,20,-1
 520 672 l 1,21,-1
 520 552 l 1,22,-1
 400 552 l 1,19,-1
280 624 m 1,23,-1
 160 768 l 1,24,-1
 300 768 l 1,25,-1
 360 624 l 1,26,-1
 280 624 l 1,23,-1
EndSplineSet
Validated: 1
EndChar

StartChar: uni01DD
Encoding: 477 477 401
Width: 560
Flags: W
LayerCount: 2
Fore
SplineSet
360 96 m 1,0,-1
 400 144 l 1,1,-1
 400 216 l 1,2,-1
 160 216 l 1,3,-1
 160 144 l 1,4,-1
 200 96 l 1,5,-1
 360 96 l 1,0,-1
160 0 m 1,6,-1
 80 48 l 1,7,-1
 40 144 l 1,8,-1
 40 288 l 1,9,-1
 400 288 l 1,10,-1
 400 336 l 1,11,-1
 360 384 l 1,12,-1
 200 384 l 1,13,-1
 160 336 l 1,14,-1
 40 336 l 1,15,-1
 80 432 l 1,16,-1
 160 480 l 1,17,-1
 400 480 l 1,18,-1
 480 432 l 1,19,-1
 520 336 l 1,20,-1
 520 144 l 1,21,-1
 480 48 l 1,22,-1
 400 0 l 1,23,-1
 160 0 l 1,6,-1
EndSplineSet
Validated: 1
EndChar

StartChar: uni01DE
Encoding: 478 478 402
Width: 760
Flags: W
LayerCount: 2
Fore
SplineSet
500 240 m 1,0,-1
 360 576 l 1,1,-1
 220 240 l 1,2,-1
 500 240 l 1,0,-1
0 0 m 1,3,-1
 280 672 l 1,4,-1
 440 672 l 1,5,-1
 720 0 l 1,6,-1
 600 0 l 1,7,-1
 540 144 l 1,8,-1
 180 144 l 1,9,-1
 120 0 l 1,10,-1
 0 0 l 1,3,-1
120 744 m 1,11,-1
 120 816 l 1,12,-1
 240 816 l 1,13,-1
 240 744 l 1,14,-1
 120 744 l 1,11,-1
480 744 m 1,15,-1
 480 816 l 1,16,-1
 600 816 l 1,17,-1
 600 744 l 1,18,-1
 480 744 l 1,15,-1
200 864 m 1,19,-1
 200 936 l 1,20,-1
 520 936 l 1,21,-1
 520 864 l 1,22,-1
 200 864 l 1,19,-1
EndSplineSet
Validated: 1
EndChar

StartChar: uni01DF
Encoding: 479 479 403
Width: 560
Flags: W
LayerCount: 2
Fore
SplineSet
360 96 m 1,0,-1
 400 120 l 1,1,-1
 400 168 l 1,2,-1
 360 192 l 1,3,-1
 180 192 l 1,4,-1
 160 168 l 1,5,-1
 160 120 l 1,6,-1
 180 96 l 1,7,-1
 360 96 l 1,0,-1
120 0 m 1,8,-1
 80 24 l 1,9,-1
 60 48 l 1,10,-1
 40 96 l 1,11,-1
 40 192 l 1,12,-1
 60 240 l 1,13,-1
 80 264 l 1,14,-1
 120 288 l 1,15,-1
 320 288 l 1,16,-1
 400 240 l 1,17,-1
 400 336 l 1,18,-1
 360 384 l 1,19,-1
 180 384 l 1,20,-1
 160 360 l 1,21,-1
 160 336 l 1,22,-1
 120 336 l 1,23,-1
 40 384 l 1,24,-1
 80 432 l 1,25,-1
 160 480 l 1,26,-1
 400 480 l 1,27,-1
 480 432 l 1,28,-1
 520 336 l 1,29,-1
 520 48 l 1,30,-1
 540 0 l 1,31,-1
 420 0 l 1,32,-1
 400 48 l 1,33,-1
 320 0 l 1,34,-1
 120 0 l 1,8,-1
40 552 m 1,35,-1
 40 624 l 1,36,-1
 160 624 l 1,37,-1
 160 552 l 1,38,-1
 40 552 l 1,35,-1
400 552 m 1,39,-1
 400 624 l 1,40,-1
 520 624 l 1,41,-1
 520 552 l 1,42,-1
 400 552 l 1,39,-1
120 672 m 1,43,-1
 120 744 l 1,44,-1
 440 744 l 1,45,-1
 440 672 l 1,46,-1
 120 672 l 1,43,-1
EndSplineSet
Validated: 1
EndChar

StartChar: uni01E0
Encoding: 480 480 404
Width: 760
Flags: W
LayerCount: 2
Fore
SplineSet
500 240 m 1,0,-1
 360 576 l 1,1,-1
 220 240 l 1,2,-1
 500 240 l 1,0,-1
0 0 m 1,3,-1
 280 672 l 1,4,-1
 440 672 l 1,5,-1
 720 0 l 1,6,-1
 600 0 l 1,7,-1
 540 144 l 1,8,-1
 180 144 l 1,9,-1
 120 0 l 1,10,-1
 0 0 l 1,3,-1
300 744 m 1,11,-1
 300 816 l 1,12,-1
 420 816 l 1,13,-1
 420 744 l 1,14,-1
 300 744 l 1,11,-1
200 864 m 1,15,-1
 200 936 l 1,16,-1
 520 936 l 1,17,-1
 520 864 l 1,18,-1
 200 864 l 1,15,-1
EndSplineSet
Validated: 1
EndChar

StartChar: uni01E1
Encoding: 481 481 405
Width: 560
Flags: W
LayerCount: 2
Fore
SplineSet
360 96 m 1,0,-1
 400 120 l 1,1,-1
 400 168 l 1,2,-1
 360 192 l 1,3,-1
 180 192 l 1,4,-1
 160 168 l 1,5,-1
 160 120 l 1,6,-1
 180 96 l 1,7,-1
 360 96 l 1,0,-1
120 0 m 1,8,-1
 80 24 l 1,9,-1
 60 48 l 1,10,-1
 40 96 l 1,11,-1
 40 192 l 1,12,-1
 60 240 l 1,13,-1
 80 264 l 1,14,-1
 120 288 l 1,15,-1
 320 288 l 1,16,-1
 400 240 l 1,17,-1
 400 336 l 1,18,-1
 360 384 l 1,19,-1
 180 384 l 1,20,-1
 160 360 l 1,21,-1
 160 336 l 1,22,-1
 120 336 l 1,23,-1
 40 384 l 1,24,-1
 80 432 l 1,25,-1
 160 480 l 1,26,-1
 400 480 l 1,27,-1
 480 432 l 1,28,-1
 520 336 l 1,29,-1
 520 48 l 1,30,-1
 540 0 l 1,31,-1
 420 0 l 1,32,-1
 400 48 l 1,33,-1
 320 0 l 1,34,-1
 120 0 l 1,8,-1
220 552 m 1,35,-1
 220 624 l 1,36,-1
 340 624 l 1,37,-1
 340 552 l 1,38,-1
 220 552 l 1,35,-1
120 672 m 1,39,-1
 120 744 l 1,40,-1
 440 744 l 1,41,-1
 440 672 l 1,42,-1
 120 672 l 1,39,-1
EndSplineSet
Validated: 1
EndChar

StartChar: uni01E2
Encoding: 482 482 406
Width: 1040
Flags: W
LayerCount: 2
Fore
SplineSet
520 240 m 1,0,-1
 520 576 l 1,1,-1
 360 576 l 1,2,-1
 220 240 l 1,3,-1
 520 240 l 1,0,-1
0 0 m 1,4,-1
 280 672 l 1,5,-1
 1000 672 l 1,6,-1
 1000 576 l 1,7,-1
 640 576 l 1,8,-1
 640 384 l 1,9,-1
 960 384 l 1,10,-1
 960 288 l 1,11,-1
 640 288 l 1,12,-1
 640 96 l 1,13,-1
 1000 96 l 1,14,-1
 1000 0 l 1,15,-1
 520 0 l 1,16,-1
 520 144 l 1,17,-1
 180 144 l 1,18,-1
 120 0 l 1,19,-1
 0 0 l 1,4,-1
400 744 m 1,20,-1
 400 816 l 1,21,-1
 760 816 l 1,22,-1
 760 744 l 1,23,-1
 400 744 l 1,20,-1
EndSplineSet
Validated: 1
EndChar

StartChar: uni01E3
Encoding: 483 483 407
Width: 920
Flags: W
LayerCount: 2
Fore
SplineSet
360 96 m 1,0,-1
 400 120 l 1,1,-1
 400 168 l 1,2,-1
 360 192 l 1,3,-1
 180 192 l 1,4,-1
 160 168 l 1,5,-1
 160 120 l 1,6,-1
 180 96 l 1,7,-1
 360 96 l 1,0,-1
760 264 m 1,8,-1
 760 336 l 1,9,-1
 720 384 l 1,10,-1
 560 384 l 1,11,-1
 520 336 l 1,12,-1
 520 264 l 1,13,-1
 760 264 l 1,8,-1
120 0 m 1,14,-1
 80 24 l 1,15,-1
 60 48 l 1,16,-1
 40 96 l 1,17,-1
 40 192 l 1,18,-1
 60 240 l 1,19,-1
 80 264 l 1,20,-1
 120 288 l 1,21,-1
 320 288 l 1,22,-1
 400 240 l 1,23,-1
 400 336 l 1,24,-1
 360 384 l 1,25,-1
 180 384 l 1,26,-1
 160 360 l 1,27,-1
 160 336 l 1,28,-1
 120 336 l 1,29,-1
 40 384 l 1,30,-1
 80 432 l 1,31,-1
 160 480 l 1,32,-1
 360 480 l 1,33,-1
 440 432 l 1,34,-1
 520 480 l 1,35,-1
 760 480 l 1,36,-1
 840 432 l 1,37,-1
 880 336 l 1,38,-1
 880 192 l 1,39,-1
 520 192 l 1,40,-1
 520 144 l 1,41,-1
 560 96 l 1,42,-1
 720 96 l 1,43,-1
 760 144 l 1,44,-1
 880 144 l 1,45,-1
 840 48 l 1,46,-1
 760 0 l 1,47,-1
 520 0 l 1,48,-1
 440 48 l 1,49,-1
 360 0 l 1,50,-1
 120 0 l 1,14,-1
280 552 m 1,51,-1
 280 624 l 1,52,-1
 640 624 l 1,53,-1
 640 552 l 1,54,-1
 280 552 l 1,51,-1
EndSplineSet
Validated: 1
EndChar

StartChar: uni01E4
Encoding: 484 484 408
Width: 720
Flags: W
LayerCount: 2
Fore
SplineSet
160 0 m 1,0,-1
 80 48 l 1,1,-1
 40 144 l 1,2,-1
 40 528 l 1,3,-1
 80 624 l 1,4,-1
 160 672 l 1,5,-1
 480 672 l 1,6,-1
 560 624 l 1,7,-1
 600 528 l 1,8,-1
 520 480 l 1,9,-1
 480 480 l 1,10,-1
 480 528 l 1,11,-1
 440 576 l 1,12,-1
 200 576 l 1,13,-1
 160 528 l 1,14,-1
 160 144 l 1,15,-1
 200 96 l 1,16,-1
 440 96 l 1,17,-1
 480 120 l 1,18,-1
 480 216 l 1,19,-1
 360 216 l 1,20,-1
 360 288 l 1,21,-1
 480 288 l 1,22,-1
 480 384 l 1,23,-1
 600 384 l 1,24,-1
 600 288 l 1,25,-1
 680 288 l 1,26,-1
 680 216 l 1,27,-1
 600 216 l 1,28,-1
 600 0 l 1,29,-1
 480 0 l 1,30,-1
 480 48 l 1,31,-1
 400 0 l 1,32,-1
 160 0 l 1,0,-1
EndSplineSet
Validated: 1
EndChar

StartChar: uni01E5
Encoding: 485 485 409
Width: 640
Flags: W
LayerCount: 2
Fore
SplineSet
360 96 m 1,0,-1
 400 120 l 1,1,-1
 400 192 l 1,2,-1
 280 192 l 1,3,-1
 280 264 l 1,4,-1
 400 264 l 1,5,-1
 400 360 l 1,6,-1
 360 384 l 1,7,-1
 200 384 l 1,8,-1
 160 336 l 1,9,-1
 160 144 l 1,10,-1
 200 96 l 1,11,-1
 360 96 l 1,0,-1
160 -192 m 1,12,-1
 80 -144 l 1,13,-1
 40 -96 l 1,14,-1
 120 -48 l 1,15,-1
 160 -48 l 1,16,-1
 160 -72 l 1,17,-1
 180 -96 l 1,18,-1
 360 -96 l 1,19,-1
 400 -48 l 1,20,-1
 400 48 l 1,21,-1
 320 0 l 1,22,-1
 160 0 l 1,23,-1
 80 48 l 1,24,-1
 40 144 l 1,25,-1
 40 336 l 1,26,-1
 80 432 l 1,27,-1
 160 480 l 1,28,-1
 320 480 l 1,29,-1
 400 432 l 1,30,-1
 400 480 l 1,31,-1
 520 480 l 1,32,-1
 520 264 l 1,33,-1
 600 264 l 1,34,-1
 600 192 l 1,35,-1
 520 192 l 1,36,-1
 520 -48 l 1,37,-1
 480 -144 l 1,38,-1
 400 -192 l 1,39,-1
 160 -192 l 1,12,-1
EndSplineSet
Validated: 1
EndChar

StartChar: uni01EA
Encoding: 490 490 414
Width: 640
Flags: W
LayerCount: 2
Fore
SplineSet
440 96 m 1,0,-1
 480 144 l 1,1,-1
 480 528 l 1,2,-1
 440 576 l 1,3,-1
 200 576 l 1,4,-1
 160 528 l 1,5,-1
 160 144 l 1,6,-1
 200 96 l 1,7,-1
 440 96 l 1,0,-1
240 -240 m 1,8,-1
 200 -192 l 1,9,-1
 200 -96 l 1,10,-1
 240 -48 l 1,11,-1
 300 -48 l 1,12,-1
 300 0 l 1,13,-1
 160 0 l 1,14,-1
 80 48 l 1,15,-1
 40 144 l 1,16,-1
 40 528 l 1,17,-1
 80 624 l 1,18,-1
 160 672 l 1,19,-1
 480 672 l 1,20,-1
 560 624 l 1,21,-1
 600 528 l 1,22,-1
 600 144 l 1,23,-1
 560 48 l 1,24,-1
 480 0 l 1,25,-1
 360 0 l 1,26,-1
 360 -96 l 1,27,-1
 300 -96 l 1,28,-1
 280 -120 l 1,29,-1
 280 -168 l 1,30,-1
 300 -192 l 1,31,-1
 340 -192 l 1,32,-1
 360 -168 l 1,33,-1
 360 -144 l 1,34,-1
 440 -144 l 1,35,-1
 440 -192 l 1,36,-1
 400 -240 l 1,37,-1
 240 -240 l 1,8,-1
EndSplineSet
Validated: 1
EndChar

StartChar: uni01EB
Encoding: 491 491 415
Width: 560
Flags: W
LayerCount: 2
Fore
SplineSet
360 96 m 1,0,-1
 400 144 l 1,1,-1
 400 336 l 1,2,-1
 360 384 l 1,3,-1
 200 384 l 1,4,-1
 160 336 l 1,5,-1
 160 144 l 1,6,-1
 200 96 l 1,7,-1
 360 96 l 1,0,-1
200 -240 m 1,8,-1
 160 -192 l 1,9,-1
 160 -96 l 1,10,-1
 200 -48 l 1,11,-1
 260 -48 l 1,12,-1
 260 0 l 1,13,-1
 160 0 l 1,14,-1
 80 48 l 1,15,-1
 40 144 l 1,16,-1
 40 336 l 1,17,-1
 80 432 l 1,18,-1
 160 480 l 1,19,-1
 400 480 l 1,20,-1
 480 432 l 1,21,-1
 520 336 l 1,22,-1
 520 144 l 1,23,-1
 480 48 l 1,24,-1
 400 0 l 1,25,-1
 320 0 l 1,26,-1
 320 -96 l 1,27,-1
 260 -96 l 1,28,-1
 240 -120 l 1,29,-1
 240 -168 l 1,30,-1
 260 -192 l 1,31,-1
 300 -192 l 1,32,-1
 320 -168 l 1,33,-1
 320 -144 l 1,34,-1
 400 -144 l 1,35,-1
 400 -192 l 1,36,-1
 360 -240 l 1,37,-1
 200 -240 l 1,8,-1
EndSplineSet
Validated: 1
EndChar

StartChar: uni01EC
Encoding: 492 492 416
Width: 640
Flags: W
LayerCount: 2
Fore
SplineSet
440 96 m 1,0,-1
 480 144 l 1,1,-1
 480 528 l 1,2,-1
 440 576 l 1,3,-1
 200 576 l 1,4,-1
 160 528 l 1,5,-1
 160 144 l 1,6,-1
 200 96 l 1,7,-1
 440 96 l 1,0,-1
240 -240 m 1,8,-1
 200 -192 l 1,9,-1
 200 -96 l 1,10,-1
 240 -48 l 1,11,-1
 300 -48 l 1,12,-1
 300 0 l 1,13,-1
 160 0 l 1,14,-1
 80 48 l 1,15,-1
 40 144 l 1,16,-1
 40 528 l 1,17,-1
 80 624 l 1,18,-1
 160 672 l 1,19,-1
 480 672 l 1,20,-1
 560 624 l 1,21,-1
 600 528 l 1,22,-1
 600 144 l 1,23,-1
 560 48 l 1,24,-1
 480 0 l 1,25,-1
 360 0 l 1,26,-1
 360 -96 l 1,27,-1
 300 -96 l 1,28,-1
 280 -120 l 1,29,-1
 280 -168 l 1,30,-1
 300 -192 l 1,31,-1
 340 -192 l 1,32,-1
 360 -168 l 1,33,-1
 360 -144 l 1,34,-1
 440 -144 l 1,35,-1
 440 -192 l 1,36,-1
 400 -240 l 1,37,-1
 240 -240 l 1,8,-1
160 744 m 1,38,-1
 160 816 l 1,39,-1
 480 816 l 1,40,-1
 480 744 l 1,41,-1
 160 744 l 1,38,-1
EndSplineSet
Validated: 1
EndChar

StartChar: uni01ED
Encoding: 493 493 417
Width: 560
Flags: W
LayerCount: 2
Fore
SplineSet
360 96 m 1,0,-1
 400 144 l 1,1,-1
 400 336 l 1,2,-1
 360 384 l 1,3,-1
 200 384 l 1,4,-1
 160 336 l 1,5,-1
 160 144 l 1,6,-1
 200 96 l 1,7,-1
 360 96 l 1,0,-1
200 -240 m 1,8,-1
 160 -192 l 1,9,-1
 160 -96 l 1,10,-1
 200 -48 l 1,11,-1
 260 -48 l 1,12,-1
 260 0 l 1,13,-1
 160 0 l 1,14,-1
 80 48 l 1,15,-1
 40 144 l 1,16,-1
 40 336 l 1,17,-1
 80 432 l 1,18,-1
 160 480 l 1,19,-1
 400 480 l 1,20,-1
 480 432 l 1,21,-1
 520 336 l 1,22,-1
 520 144 l 1,23,-1
 480 48 l 1,24,-1
 400 0 l 1,25,-1
 320 0 l 1,26,-1
 320 -96 l 1,27,-1
 260 -96 l 1,28,-1
 240 -120 l 1,29,-1
 240 -168 l 1,30,-1
 260 -192 l 1,31,-1
 300 -192 l 1,32,-1
 320 -168 l 1,33,-1
 320 -144 l 1,34,-1
 400 -144 l 1,35,-1
 400 -192 l 1,36,-1
 360 -240 l 1,37,-1
 200 -240 l 1,8,-1
120 552 m 1,38,-1
 120 624 l 1,39,-1
 440 624 l 1,40,-1
 440 552 l 1,41,-1
 120 552 l 1,38,-1
EndSplineSet
Validated: 1
EndChar

StartChar: uni01F6
Encoding: 502 502 426
Width: 1000
Flags: W
LayerCount: 2
Fore
SplineSet
40 0 m 1,0,-1
 40 672 l 1,1,-1
 160 672 l 1,2,-1
 160 384 l 1,3,-1
 480 384 l 1,4,-1
 480 672 l 1,5,-1
 600 672 l 1,6,-1
 600 144 l 1,7,-1
 640 96 l 1,8,-1
 800 96 l 1,9,-1
 840 144 l 1,10,-1
 840 480 l 1,11,-1
 960 480 l 1,12,-1
 960 144 l 1,13,-1
 920 48 l 1,14,-1
 840 0 l 1,15,-1
 600 0 l 1,16,-1
 520 48 l 1,17,-1
 480 144 l 1,18,-1
 480 288 l 1,19,-1
 160 288 l 1,20,-1
 160 0 l 1,21,-1
 40 0 l 1,0,-1
EndSplineSet
Validated: 1
EndChar

StartChar: uni01F7
Encoding: 503 503 427
Width: 640
Flags: W
LayerCount: 2
Fore
SplineSet
360 288 m 1,0,-1
 400 312 l 1,1,-1
 460 384 l 1,2,-1
 480 432 l 1,3,-1
 480 528 l 1,4,-1
 440 576 l 1,5,-1
 200 576 l 1,6,-1
 160 552 l 1,7,-1
 160 288 l 1,8,-1
 360 288 l 1,0,-1
40 0 m 1,9,-1
 40 672 l 1,10,-1
 160 672 l 1,11,-1
 160 624 l 1,12,-1
 240 672 l 1,13,-1
 480 672 l 1,14,-1
 560 624 l 1,15,-1
 600 528 l 1,16,-1
 600 432 l 1,17,-1
 560 336 l 1,18,-1
 480 240 l 1,19,-1
 400 192 l 1,20,-1
 160 192 l 1,21,-1
 160 0 l 1,22,-1
 40 0 l 1,9,-1
EndSplineSet
Validated: 1
EndChar

StartChar: Aringacute
Encoding: 506 506 430
Width: 760
Flags: W
LayerCount: 2
Fore
SplineSet
500 240 m 1,0,-1
 360 576 l 1,1,-1
 220 240 l 1,2,-1
 500 240 l 1,0,-1
0 0 m 1,3,-1
 280 672 l 1,4,-1
 440 672 l 1,5,-1
 720 0 l 1,6,-1
 600 0 l 1,7,-1
 540 144 l 1,8,-1
 180 144 l 1,9,-1
 120 0 l 1,10,-1
 0 0 l 1,3,-1
380 768 m 1,11,-1
 400 792 l 1,12,-1
 400 840 l 1,13,-1
 380 864 l 1,14,-1
 340 864 l 1,15,-1
 320 840 l 1,16,-1
 320 792 l 1,17,-1
 340 768 l 1,18,-1
 380 768 l 1,11,-1
280 720 m 1,19,-1
 240 768 l 1,20,-1
 240 864 l 1,21,-1
 280 912 l 1,22,-1
 440 912 l 1,23,-1
 480 864 l 1,24,-1
 480 768 l 1,25,-1
 440 720 l 1,26,-1
 280 720 l 1,19,-1
320 960 m 1,27,-1
 360 1056 l 1,28,-1
 480 1056 l 1,29,-1
 400 960 l 1,30,-1
 320 960 l 1,27,-1
EndSplineSet
Validated: 1
EndChar

StartChar: aringacute
Encoding: 507 507 431
Width: 600
Flags: W
LayerCount: 2
Fore
SplineSet
360 96 m 1,0,-1
 400 120 l 1,1,-1
 400 168 l 1,2,-1
 360 192 l 1,3,-1
 180 192 l 1,4,-1
 160 168 l 1,5,-1
 160 120 l 1,6,-1
 180 96 l 1,7,-1
 360 96 l 1,0,-1
120 0 m 1,8,-1
 80 24 l 1,9,-1
 60 48 l 1,10,-1
 40 96 l 1,11,-1
 40 192 l 1,12,-1
 60 240 l 1,13,-1
 80 264 l 1,14,-1
 120 288 l 1,15,-1
 320 288 l 1,16,-1
 400 240 l 1,17,-1
 400 336 l 1,18,-1
 360 384 l 1,19,-1
 180 384 l 1,20,-1
 160 360 l 1,21,-1
 160 336 l 1,22,-1
 120 336 l 1,23,-1
 40 384 l 1,24,-1
 80 432 l 1,25,-1
 160 480 l 1,26,-1
 400 480 l 1,27,-1
 480 432 l 1,28,-1
 520 336 l 1,29,-1
 520 48 l 1,30,-1
 540 0 l 1,31,-1
 420 0 l 1,32,-1
 400 48 l 1,33,-1
 320 0 l 1,34,-1
 120 0 l 1,8,-1
300 576 m 1,35,-1
 320 600 l 1,36,-1
 320 648 l 1,37,-1
 300 672 l 1,38,-1
 260 672 l 1,39,-1
 240 648 l 1,40,-1
 240 600 l 1,41,-1
 260 576 l 1,42,-1
 300 576 l 1,35,-1
200 528 m 1,43,-1
 160 576 l 1,44,-1
 160 672 l 1,45,-1
 200 720 l 1,46,-1
 360 720 l 1,47,-1
 400 672 l 1,48,-1
 400 576 l 1,49,-1
 360 528 l 1,50,-1
 200 528 l 1,43,-1
240 768 m 1,51,-1
 300 912 l 1,52,-1
 440 912 l 1,53,-1
 320 768 l 1,54,-1
 240 768 l 1,51,-1
EndSplineSet
Validated: 1
EndChar

StartChar: uni0200
Encoding: 512 512 436
Width: 720
Flags: W
LayerCount: 2
Fore
SplineSet
500 240 m 1,0,-1
 360 576 l 1,1,-1
 220 240 l 1,2,-1
 500 240 l 1,0,-1
0 0 m 1,3,-1
 280 672 l 1,4,-1
 440 672 l 1,5,-1
 720 0 l 1,6,-1
 600 0 l 1,7,-1
 540 144 l 1,8,-1
 180 144 l 1,9,-1
 120 0 l 1,10,-1
 0 0 l 1,3,-1
240 720 m 1,11,-1
 120 864 l 1,12,-1
 260 864 l 1,13,-1
 320 720 l 1,14,-1
 240 720 l 1,11,-1
440 720 m 1,15,-1
 320 864 l 1,16,-1
 460 864 l 1,17,-1
 520 720 l 1,18,-1
 440 720 l 1,15,-1
EndSplineSet
Validated: 1
EndChar

StartChar: uni0201
Encoding: 513 513 437
Width: 560
Flags: W
LayerCount: 2
Fore
SplineSet
360 96 m 1,0,-1
 400 120 l 1,1,-1
 400 168 l 1,2,-1
 360 192 l 1,3,-1
 180 192 l 1,4,-1
 160 168 l 1,5,-1
 160 120 l 1,6,-1
 180 96 l 1,7,-1
 360 96 l 1,0,-1
120 0 m 1,8,-1
 80 24 l 1,9,-1
 60 48 l 1,10,-1
 40 96 l 1,11,-1
 40 192 l 1,12,-1
 60 240 l 1,13,-1
 80 264 l 1,14,-1
 120 288 l 1,15,-1
 320 288 l 1,16,-1
 400 240 l 1,17,-1
 400 336 l 1,18,-1
 360 384 l 1,19,-1
 180 384 l 1,20,-1
 160 360 l 1,21,-1
 160 336 l 1,22,-1
 120 336 l 1,23,-1
 40 384 l 1,24,-1
 80 432 l 1,25,-1
 160 480 l 1,26,-1
 400 480 l 1,27,-1
 480 432 l 1,28,-1
 520 336 l 1,29,-1
 520 48 l 1,30,-1
 540 0 l 1,31,-1
 420 0 l 1,32,-1
 400 48 l 1,33,-1
 320 0 l 1,34,-1
 120 0 l 1,8,-1
160 528 m 1,35,-1
 40 672 l 1,36,-1
 180 672 l 1,37,-1
 240 528 l 1,38,-1
 160 528 l 1,35,-1
360 528 m 1,39,-1
 240 672 l 1,40,-1
 380 672 l 1,41,-1
 440 528 l 1,42,-1
 360 528 l 1,39,-1
EndSplineSet
Validated: 1
EndChar

StartChar: uni0202
Encoding: 514 514 438
Width: 720
Flags: W
LayerCount: 2
Fore
SplineSet
500 240 m 1,0,-1
 360 576 l 1,1,-1
 220 240 l 1,2,-1
 500 240 l 1,0,-1
0 0 m 1,3,-1
 280 672 l 1,4,-1
 440 672 l 1,5,-1
 720 0 l 1,6,-1
 600 0 l 1,7,-1
 540 144 l 1,8,-1
 180 144 l 1,9,-1
 120 0 l 1,10,-1
 0 0 l 1,3,-1
200 720 m 1,11,-1
 200 768 l 1,12,-1
 280 864 l 1,13,-1
 440 864 l 1,14,-1
 520 768 l 1,15,-1
 520 720 l 1,16,-1
 440 720 l 1,17,-1
 440 744 l 1,18,-1
 400 792 l 1,19,-1
 320 792 l 1,20,-1
 280 744 l 1,21,-1
 280 720 l 1,22,-1
 200 720 l 1,11,-1
EndSplineSet
Validated: 1
EndChar

StartChar: uni0203
Encoding: 515 515 439
Width: 560
Flags: W
LayerCount: 2
Fore
SplineSet
360 96 m 1,0,-1
 400 120 l 1,1,-1
 400 168 l 1,2,-1
 360 192 l 1,3,-1
 180 192 l 1,4,-1
 160 168 l 1,5,-1
 160 120 l 1,6,-1
 180 96 l 1,7,-1
 360 96 l 1,0,-1
120 0 m 1,8,-1
 80 24 l 1,9,-1
 60 48 l 1,10,-1
 40 96 l 1,11,-1
 40 192 l 1,12,-1
 60 240 l 1,13,-1
 80 264 l 1,14,-1
 120 288 l 1,15,-1
 320 288 l 1,16,-1
 400 240 l 1,17,-1
 400 336 l 1,18,-1
 360 384 l 1,19,-1
 180 384 l 1,20,-1
 160 360 l 1,21,-1
 160 336 l 1,22,-1
 120 336 l 1,23,-1
 40 384 l 1,24,-1
 80 432 l 1,25,-1
 160 480 l 1,26,-1
 400 480 l 1,27,-1
 480 432 l 1,28,-1
 520 336 l 1,29,-1
 520 48 l 1,30,-1
 540 0 l 1,31,-1
 420 0 l 1,32,-1
 400 48 l 1,33,-1
 320 0 l 1,34,-1
 120 0 l 1,8,-1
120 528 m 1,35,-1
 120 576 l 1,36,-1
 200 672 l 1,37,-1
 360 672 l 1,38,-1
 440 576 l 1,39,-1
 440 528 l 1,40,-1
 360 528 l 1,41,-1
 360 552 l 1,42,-1
 320 600 l 1,43,-1
 240 600 l 1,44,-1
 200 552 l 1,45,-1
 200 528 l 1,46,-1
 120 528 l 1,35,-1
EndSplineSet
Validated: 1
EndChar

StartChar: uni0204
Encoding: 516 516 440
Width: 560
Flags: W
LayerCount: 2
Fore
SplineSet
40 0 m 1,0,-1
 40 672 l 1,1,-1
 520 672 l 1,2,-1
 520 576 l 1,3,-1
 160 576 l 1,4,-1
 160 384 l 1,5,-1
 480 384 l 1,6,-1
 480 288 l 1,7,-1
 160 288 l 1,8,-1
 160 96 l 1,9,-1
 520 96 l 1,10,-1
 520 0 l 1,11,-1
 40 0 l 1,0,-1
160 720 m 1,12,-1
 40 864 l 1,13,-1
 180 864 l 1,14,-1
 240 720 l 1,15,-1
 160 720 l 1,12,-1
360 720 m 1,16,-1
 240 864 l 1,17,-1
 380 864 l 1,18,-1
 440 720 l 1,19,-1
 360 720 l 1,16,-1
EndSplineSet
Validated: 1
EndChar

StartChar: uni0205
Encoding: 517 517 441
Width: 560
Flags: W
LayerCount: 2
Fore
SplineSet
400 264 m 1,0,-1
 400 336 l 1,1,-1
 360 384 l 1,2,-1
 200 384 l 1,3,-1
 160 336 l 1,4,-1
 160 264 l 1,5,-1
 400 264 l 1,0,-1
160 0 m 1,6,-1
 80 48 l 1,7,-1
 40 144 l 1,8,-1
 40 336 l 1,9,-1
 80 432 l 1,10,-1
 160 480 l 1,11,-1
 400 480 l 1,12,-1
 480 432 l 1,13,-1
 520 336 l 1,14,-1
 520 192 l 1,15,-1
 160 192 l 1,16,-1
 160 144 l 1,17,-1
 200 96 l 1,18,-1
 360 96 l 1,19,-1
 400 144 l 1,20,-1
 520 144 l 1,21,-1
 480 48 l 1,22,-1
 400 0 l 1,23,-1
 160 0 l 1,6,-1
160 528 m 1,24,-1
 40 672 l 1,25,-1
 180 672 l 1,26,-1
 240 528 l 1,27,-1
 160 528 l 1,24,-1
360 528 m 1,28,-1
 240 672 l 1,29,-1
 380 672 l 1,30,-1
 440 528 l 1,31,-1
 360 528 l 1,28,-1
EndSplineSet
Validated: 1
EndChar

StartChar: uni0206
Encoding: 518 518 442
Width: 560
Flags: W
LayerCount: 2
Fore
SplineSet
40 0 m 1,0,-1
 40 672 l 1,1,-1
 520 672 l 1,2,-1
 520 576 l 1,3,-1
 160 576 l 1,4,-1
 160 384 l 1,5,-1
 480 384 l 1,6,-1
 480 288 l 1,7,-1
 160 288 l 1,8,-1
 160 96 l 1,9,-1
 520 96 l 1,10,-1
 520 0 l 1,11,-1
 40 0 l 1,0,-1
120 720 m 1,12,-1
 120 768 l 1,13,-1
 200 864 l 1,14,-1
 360 864 l 1,15,-1
 440 768 l 1,16,-1
 440 720 l 1,17,-1
 360 720 l 1,18,-1
 360 744 l 1,19,-1
 320 792 l 1,20,-1
 240 792 l 1,21,-1
 200 744 l 1,22,-1
 200 720 l 1,23,-1
 120 720 l 1,12,-1
EndSplineSet
Validated: 1
EndChar

StartChar: uni0207
Encoding: 519 519 443
Width: 560
Flags: W
LayerCount: 2
Fore
SplineSet
400 264 m 1,0,-1
 400 336 l 1,1,-1
 360 384 l 1,2,-1
 200 384 l 1,3,-1
 160 336 l 1,4,-1
 160 264 l 1,5,-1
 400 264 l 1,0,-1
160 0 m 1,6,-1
 80 48 l 1,7,-1
 40 144 l 1,8,-1
 40 336 l 1,9,-1
 80 432 l 1,10,-1
 160 480 l 1,11,-1
 400 480 l 1,12,-1
 480 432 l 1,13,-1
 520 336 l 1,14,-1
 520 192 l 1,15,-1
 160 192 l 1,16,-1
 160 144 l 1,17,-1
 200 96 l 1,18,-1
 360 96 l 1,19,-1
 400 144 l 1,20,-1
 520 144 l 1,21,-1
 480 48 l 1,22,-1
 400 0 l 1,23,-1
 160 0 l 1,6,-1
120 528 m 1,24,-1
 120 576 l 1,25,-1
 200 672 l 1,26,-1
 360 672 l 1,27,-1
 440 576 l 1,28,-1
 440 528 l 1,29,-1
 360 528 l 1,30,-1
 360 552 l 1,31,-1
 320 600 l 1,32,-1
 240 600 l 1,33,-1
 200 552 l 1,34,-1
 200 528 l 1,35,-1
 120 528 l 1,24,-1
EndSplineSet
Validated: 1
EndChar

StartChar: uni0208
Encoding: 520 520 444
Width: 280
Flags: W
LayerCount: 2
Fore
SplineSet
80 0 m 1,0,-1
 80 672 l 1,1,-1
 200 672 l 1,2,-1
 200 0 l 1,3,-1
 80 0 l 1,0,-1
40 720 m 1,4,-1
 -80 864 l 1,5,-1
 60 864 l 1,6,-1
 120 720 l 1,7,-1
 40 720 l 1,4,-1
240 720 m 1,8,-1
 120 864 l 1,9,-1
 260 864 l 1,10,-1
 320 720 l 1,11,-1
 240 720 l 1,8,-1
EndSplineSet
Validated: 1
EndChar

StartChar: uni0209
Encoding: 521 521 445
Width: 280
Flags: W
LayerCount: 2
Fore
SplineSet
80 0 m 1,0,-1
 80 480 l 1,1,-1
 200 480 l 1,2,-1
 200 0 l 1,3,-1
 80 0 l 1,0,-1
40 528 m 1,4,-1
 -80 672 l 1,5,-1
 60 672 l 1,6,-1
 120 528 l 1,7,-1
 40 528 l 1,4,-1
240 528 m 1,8,-1
 120 672 l 1,9,-1
 260 672 l 1,10,-1
 320 528 l 1,11,-1
 240 528 l 1,8,-1
EndSplineSet
Validated: 1
EndChar

StartChar: uni020A
Encoding: 522 522 446
Width: 400
Flags: W
LayerCount: 2
Fore
SplineSet
140 0 m 1,0,-1
 140 672 l 1,1,-1
 260 672 l 1,2,-1
 260 0 l 1,3,-1
 140 0 l 1,0,-1
40 720 m 1,4,-1
 40 768 l 1,5,-1
 120 864 l 1,6,-1
 280 864 l 1,7,-1
 360 768 l 1,8,-1
 360 720 l 1,9,-1
 280 720 l 1,10,-1
 280 744 l 1,11,-1
 240 792 l 1,12,-1
 160 792 l 1,13,-1
 120 744 l 1,14,-1
 120 720 l 1,15,-1
 40 720 l 1,4,-1
EndSplineSet
Validated: 1
EndChar

StartChar: uni020B
Encoding: 523 523 447
Width: 400
Flags: W
LayerCount: 2
Fore
SplineSet
140 0 m 1,0,-1
 140 480 l 1,1,-1
 260 480 l 1,2,-1
 260 0 l 1,3,-1
 140 0 l 1,0,-1
40 528 m 1,4,-1
 40 576 l 1,5,-1
 120 672 l 1,6,-1
 280 672 l 1,7,-1
 360 576 l 1,8,-1
 360 528 l 1,9,-1
 280 528 l 1,10,-1
 280 552 l 1,11,-1
 240 600 l 1,12,-1
 160 600 l 1,13,-1
 120 552 l 1,14,-1
 120 528 l 1,15,-1
 40 528 l 1,4,-1
EndSplineSet
Validated: 1
EndChar

StartChar: uni020C
Encoding: 524 524 448
Width: 640
Flags: W
LayerCount: 2
Fore
SplineSet
440 96 m 1,0,-1
 480 144 l 1,1,-1
 480 528 l 1,2,-1
 440 576 l 1,3,-1
 200 576 l 1,4,-1
 160 528 l 1,5,-1
 160 144 l 1,6,-1
 200 96 l 1,7,-1
 440 96 l 1,0,-1
160 0 m 1,8,-1
 80 48 l 1,9,-1
 40 144 l 1,10,-1
 40 528 l 1,11,-1
 80 624 l 1,12,-1
 160 672 l 1,13,-1
 480 672 l 1,14,-1
 560 624 l 1,15,-1
 600 528 l 1,16,-1
 600 144 l 1,17,-1
 560 48 l 1,18,-1
 480 0 l 1,19,-1
 160 0 l 1,8,-1
200 720 m 1,20,-1
 80 864 l 1,21,-1
 220 864 l 1,22,-1
 280 720 l 1,23,-1
 200 720 l 1,20,-1
400 720 m 1,24,-1
 280 864 l 1,25,-1
 420 864 l 1,26,-1
 480 720 l 1,27,-1
 400 720 l 1,24,-1
EndSplineSet
Validated: 1
EndChar

StartChar: uni020D
Encoding: 525 525 449
Width: 560
Flags: W
LayerCount: 2
Fore
SplineSet
360 96 m 1,0,-1
 400 144 l 1,1,-1
 400 336 l 1,2,-1
 360 384 l 1,3,-1
 200 384 l 1,4,-1
 160 336 l 1,5,-1
 160 144 l 1,6,-1
 200 96 l 1,7,-1
 360 96 l 1,0,-1
160 0 m 1,8,-1
 80 48 l 1,9,-1
 40 144 l 1,10,-1
 40 336 l 1,11,-1
 80 432 l 1,12,-1
 160 480 l 1,13,-1
 400 480 l 1,14,-1
 480 432 l 1,15,-1
 520 336 l 1,16,-1
 520 144 l 1,17,-1
 480 48 l 1,18,-1
 400 0 l 1,19,-1
 160 0 l 1,8,-1
160 528 m 1,20,-1
 40 672 l 1,21,-1
 180 672 l 1,22,-1
 240 528 l 1,23,-1
 160 528 l 1,20,-1
360 528 m 1,24,-1
 240 672 l 1,25,-1
 380 672 l 1,26,-1
 440 528 l 1,27,-1
 360 528 l 1,24,-1
EndSplineSet
Validated: 1
EndChar

StartChar: uni020E
Encoding: 526 526 450
Width: 640
Flags: W
LayerCount: 2
Fore
SplineSet
440 96 m 1,0,-1
 480 144 l 1,1,-1
 480 528 l 1,2,-1
 440 576 l 1,3,-1
 200 576 l 1,4,-1
 160 528 l 1,5,-1
 160 144 l 1,6,-1
 200 96 l 1,7,-1
 440 96 l 1,0,-1
160 0 m 1,8,-1
 80 48 l 1,9,-1
 40 144 l 1,10,-1
 40 528 l 1,11,-1
 80 624 l 1,12,-1
 160 672 l 1,13,-1
 480 672 l 1,14,-1
 560 624 l 1,15,-1
 600 528 l 1,16,-1
 600 144 l 1,17,-1
 560 48 l 1,18,-1
 480 0 l 1,19,-1
 160 0 l 1,8,-1
160 720 m 1,20,-1
 160 768 l 1,21,-1
 240 864 l 1,22,-1
 400 864 l 1,23,-1
 480 768 l 1,24,-1
 480 720 l 1,25,-1
 400 720 l 1,26,-1
 400 744 l 1,27,-1
 360 792 l 1,28,-1
 280 792 l 1,29,-1
 240 744 l 1,30,-1
 240 720 l 1,31,-1
 160 720 l 1,20,-1
EndSplineSet
Validated: 1
EndChar

StartChar: uni020F
Encoding: 527 527 451
Width: 560
Flags: W
LayerCount: 2
Fore
SplineSet
360 96 m 1,0,-1
 400 144 l 1,1,-1
 400 336 l 1,2,-1
 360 384 l 1,3,-1
 200 384 l 1,4,-1
 160 336 l 1,5,-1
 160 144 l 1,6,-1
 200 96 l 1,7,-1
 360 96 l 1,0,-1
160 0 m 1,8,-1
 80 48 l 1,9,-1
 40 144 l 1,10,-1
 40 336 l 1,11,-1
 80 432 l 1,12,-1
 160 480 l 1,13,-1
 400 480 l 1,14,-1
 480 432 l 1,15,-1
 520 336 l 1,16,-1
 520 144 l 1,17,-1
 480 48 l 1,18,-1
 400 0 l 1,19,-1
 160 0 l 1,8,-1
120 528 m 1,20,-1
 120 576 l 1,21,-1
 200 672 l 1,22,-1
 360 672 l 1,23,-1
 440 576 l 1,24,-1
 440 528 l 1,25,-1
 360 528 l 1,26,-1
 360 552 l 1,27,-1
 320 600 l 1,28,-1
 240 600 l 1,29,-1
 200 552 l 1,30,-1
 200 528 l 1,31,-1
 120 528 l 1,20,-1
EndSplineSet
Validated: 1
EndChar

StartChar: uni0210
Encoding: 528 528 452
Width: 640
Flags: W
LayerCount: 2
Fore
SplineSet
440 288 m 1,0,-1
 480 336 l 1,1,-1
 480 528 l 1,2,-1
 440 576 l 1,3,-1
 160 576 l 1,4,-1
 160 288 l 1,5,-1
 440 288 l 1,0,-1
40 0 m 1,6,-1
 40 672 l 1,7,-1
 480 672 l 1,8,-1
 560 624 l 1,9,-1
 600 528 l 1,10,-1
 600 336 l 1,11,-1
 580 288 l 1,12,-1
 560 264 l 1,13,-1
 520 240 l 1,14,-1
 620 0 l 1,15,-1
 500 0 l 1,16,-1
 420 192 l 1,17,-1
 160 192 l 1,18,-1
 160 0 l 1,19,-1
 40 0 l 1,6,-1
200 720 m 1,20,-1
 80 864 l 1,21,-1
 220 864 l 1,22,-1
 280 720 l 1,23,-1
 200 720 l 1,20,-1
400 720 m 1,24,-1
 280 864 l 1,25,-1
 420 864 l 1,26,-1
 480 720 l 1,27,-1
 400 720 l 1,24,-1
EndSplineSet
Validated: 1
EndChar

StartChar: uni0211
Encoding: 529 529 453
Width: 400
Flags: W
LayerCount: 2
Fore
SplineSet
40 0 m 1,0,-1
 40 480 l 1,1,-1
 160 480 l 1,2,-1
 160 432 l 1,3,-1
 240 480 l 1,4,-1
 360 480 l 1,5,-1
 360 384 l 1,6,-1
 200 384 l 1,7,-1
 160 360 l 1,8,-1
 160 0 l 1,9,-1
 40 0 l 1,0,-1
80 528 m 1,10,-1
 -40 672 l 1,11,-1
 100 672 l 1,12,-1
 160 528 l 1,13,-1
 80 528 l 1,10,-1
280 528 m 1,14,-1
 160 672 l 1,15,-1
 300 672 l 1,16,-1
 360 528 l 1,17,-1
 280 528 l 1,14,-1
EndSplineSet
Validated: 1
EndChar

StartChar: uni0212
Encoding: 530 530 454
Width: 640
Flags: W
LayerCount: 2
Fore
SplineSet
440 288 m 1,0,-1
 480 336 l 1,1,-1
 480 528 l 1,2,-1
 440 576 l 1,3,-1
 160 576 l 1,4,-1
 160 288 l 1,5,-1
 440 288 l 1,0,-1
40 0 m 1,6,-1
 40 672 l 1,7,-1
 480 672 l 1,8,-1
 560 624 l 1,9,-1
 600 528 l 1,10,-1
 600 336 l 1,11,-1
 580 288 l 1,12,-1
 560 264 l 1,13,-1
 520 240 l 1,14,-1
 620 0 l 1,15,-1
 500 0 l 1,16,-1
 420 192 l 1,17,-1
 160 192 l 1,18,-1
 160 0 l 1,19,-1
 40 0 l 1,6,-1
160 720 m 1,20,-1
 160 768 l 1,21,-1
 240 864 l 1,22,-1
 400 864 l 1,23,-1
 480 768 l 1,24,-1
 480 720 l 1,25,-1
 400 720 l 1,26,-1
 400 744 l 1,27,-1
 360 792 l 1,28,-1
 280 792 l 1,29,-1
 240 744 l 1,30,-1
 240 720 l 1,31,-1
 160 720 l 1,20,-1
EndSplineSet
Validated: 1
EndChar

StartChar: uni0213
Encoding: 531 531 455
Width: 400
Flags: W
LayerCount: 2
Fore
SplineSet
40 0 m 1,0,-1
 40 480 l 1,1,-1
 160 480 l 1,2,-1
 160 432 l 1,3,-1
 240 480 l 1,4,-1
 360 480 l 1,5,-1
 360 384 l 1,6,-1
 200 384 l 1,7,-1
 160 360 l 1,8,-1
 160 0 l 1,9,-1
 40 0 l 1,0,-1
40 528 m 1,10,-1
 40 576 l 1,11,-1
 120 672 l 1,12,-1
 280 672 l 1,13,-1
 360 576 l 1,14,-1
 360 528 l 1,15,-1
 280 528 l 1,16,-1
 280 552 l 1,17,-1
 240 600 l 1,18,-1
 160 600 l 1,19,-1
 120 552 l 1,20,-1
 120 528 l 1,21,-1
 40 528 l 1,10,-1
EndSplineSet
Validated: 1
EndChar

StartChar: uni0214
Encoding: 532 532 456
Width: 640
Flags: W
LayerCount: 2
Fore
SplineSet
160 0 m 1,0,-1
 80 48 l 1,1,-1
 40 144 l 1,2,-1
 40 672 l 1,3,-1
 160 672 l 1,4,-1
 160 144 l 1,5,-1
 200 96 l 1,6,-1
 440 96 l 1,7,-1
 480 144 l 1,8,-1
 480 672 l 1,9,-1
 600 672 l 1,10,-1
 600 144 l 1,11,-1
 560 48 l 1,12,-1
 480 0 l 1,13,-1
 160 0 l 1,0,-1
200 720 m 1,14,-1
 80 864 l 1,15,-1
 220 864 l 1,16,-1
 280 720 l 1,17,-1
 200 720 l 1,14,-1
400 720 m 1,18,-1
 280 864 l 1,19,-1
 420 864 l 1,20,-1
 480 720 l 1,21,-1
 400 720 l 1,18,-1
EndSplineSet
Validated: 1
EndChar

StartChar: uni0215
Encoding: 533 533 457
Width: 560
Flags: W
LayerCount: 2
Fore
SplineSet
160 0 m 1,0,-1
 80 48 l 1,1,-1
 40 144 l 1,2,-1
 40 480 l 1,3,-1
 160 480 l 1,4,-1
 160 144 l 1,5,-1
 200 96 l 1,6,-1
 360 96 l 1,7,-1
 400 120 l 1,8,-1
 400 480 l 1,9,-1
 520 480 l 1,10,-1
 520 0 l 1,11,-1
 400 0 l 1,12,-1
 400 48 l 1,13,-1
 320 0 l 1,14,-1
 160 0 l 1,0,-1
160 528 m 1,15,-1
 40 672 l 1,16,-1
 180 672 l 1,17,-1
 240 528 l 1,18,-1
 160 528 l 1,15,-1
360 528 m 1,19,-1
 240 672 l 1,20,-1
 380 672 l 1,21,-1
 440 528 l 1,22,-1
 360 528 l 1,19,-1
EndSplineSet
Validated: 1
EndChar

StartChar: uni0216
Encoding: 534 534 458
Width: 640
Flags: W
LayerCount: 2
Fore
SplineSet
160 0 m 1,0,-1
 80 48 l 1,1,-1
 40 144 l 1,2,-1
 40 672 l 1,3,-1
 160 672 l 1,4,-1
 160 144 l 1,5,-1
 200 96 l 1,6,-1
 440 96 l 1,7,-1
 480 144 l 1,8,-1
 480 672 l 1,9,-1
 600 672 l 1,10,-1
 600 144 l 1,11,-1
 560 48 l 1,12,-1
 480 0 l 1,13,-1
 160 0 l 1,0,-1
160 720 m 1,14,-1
 160 768 l 1,15,-1
 240 864 l 1,16,-1
 400 864 l 1,17,-1
 480 768 l 1,18,-1
 480 720 l 1,19,-1
 400 720 l 1,20,-1
 400 744 l 1,21,-1
 360 792 l 1,22,-1
 280 792 l 1,23,-1
 240 744 l 1,24,-1
 240 720 l 1,25,-1
 160 720 l 1,14,-1
EndSplineSet
Validated: 1
EndChar

StartChar: uni0217
Encoding: 535 535 459
Width: 560
Flags: W
LayerCount: 2
Fore
SplineSet
160 0 m 1,0,-1
 80 48 l 1,1,-1
 40 144 l 1,2,-1
 40 480 l 1,3,-1
 160 480 l 1,4,-1
 160 144 l 1,5,-1
 200 96 l 1,6,-1
 360 96 l 1,7,-1
 400 120 l 1,8,-1
 400 480 l 1,9,-1
 520 480 l 1,10,-1
 520 0 l 1,11,-1
 400 0 l 1,12,-1
 400 48 l 1,13,-1
 320 0 l 1,14,-1
 160 0 l 1,0,-1
120 528 m 1,15,-1
 120 576 l 1,16,-1
 200 672 l 1,17,-1
 360 672 l 1,18,-1
 440 576 l 1,19,-1
 440 528 l 1,20,-1
 360 528 l 1,21,-1
 360 552 l 1,22,-1
 320 600 l 1,23,-1
 240 600 l 1,24,-1
 200 552 l 1,25,-1
 200 528 l 1,26,-1
 120 528 l 1,15,-1
EndSplineSet
Validated: 1
EndChar

StartChar: Scommaaccent
Encoding: 536 536 460
Width: 640
Flags: W
LayerCount: 2
Fore
SplineSet
260 -240 m 1,0,-1
 300 -144 l 1,1,-1
 260 -144 l 1,2,-1
 260 -48 l 1,3,-1
 360 -48 l 1,4,-1
 360 -144 l 1,5,-1
 320 -240 l 1,6,-1
 260 -240 l 1,0,-1
160 0 m 1,7,-1
 80 48 l 1,8,-1
 40 144 l 1,9,-1
 120 192 l 1,10,-1
 160 192 l 1,11,-1
 160 144 l 1,12,-1
 200 96 l 1,13,-1
 440 96 l 1,14,-1
 480 144 l 1,15,-1
 480 240 l 1,16,-1
 440 288 l 1,17,-1
 160 288 l 1,18,-1
 80 336 l 1,19,-1
 40 432 l 1,20,-1
 40 528 l 1,21,-1
 80 624 l 1,22,-1
 160 672 l 1,23,-1
 440 672 l 1,24,-1
 520 624 l 1,25,-1
 560 528 l 1,26,-1
 480 480 l 1,27,-1
 440 480 l 1,28,-1
 440 528 l 1,29,-1
 400 576 l 1,30,-1
 200 576 l 1,31,-1
 160 528 l 1,32,-1
 160 432 l 1,33,-1
 200 384 l 1,34,-1
 480 384 l 1,35,-1
 560 336 l 1,36,-1
 600 240 l 1,37,-1
 600 144 l 1,38,-1
 560 48 l 1,39,-1
 480 0 l 1,40,-1
 160 0 l 1,7,-1
EndSplineSet
Validated: 1
EndChar

StartChar: scommaaccent
Encoding: 537 537 461
Width: 560
Flags: W
LayerCount: 2
Fore
SplineSet
220 -240 m 1,0,-1
 260 -144 l 1,1,-1
 220 -144 l 1,2,-1
 220 -48 l 1,3,-1
 320 -48 l 1,4,-1
 320 -144 l 1,5,-1
 280 -240 l 1,6,-1
 220 -240 l 1,0,-1
160 0 m 1,7,-1
 80 48 l 1,8,-1
 40 96 l 1,9,-1
 120 144 l 1,10,-1
 160 144 l 1,11,-1
 160 120 l 1,12,-1
 180 96 l 1,13,-1
 380 96 l 1,14,-1
 400 120 l 1,15,-1
 400 168 l 1,16,-1
 380 192 l 1,17,-1
 160 192 l 1,18,-1
 80 240 l 1,19,-1
 40 336 l 1,20,-1
 80 432 l 1,21,-1
 160 480 l 1,22,-1
 360 480 l 1,23,-1
 440 432 l 1,24,-1
 480 384 l 1,25,-1
 400 336 l 1,26,-1
 360 336 l 1,27,-1
 360 360 l 1,28,-1
 340 384 l 1,29,-1
 180 384 l 1,30,-1
 160 360 l 1,31,-1
 160 312 l 1,32,-1
 180 288 l 1,33,-1
 400 288 l 1,34,-1
 480 240 l 1,35,-1
 520 144 l 1,36,-1
 480 48 l 1,37,-1
 400 0 l 1,38,-1
 160 0 l 1,7,-1
EndSplineSet
Validated: 1
EndChar

StartChar: uni021A
Encoding: 538 538 462
Width: 600
Flags: W
LayerCount: 2
Fore
SplineSet
260 -240 m 1,0,-1
 300 -144 l 1,1,-1
 260 -144 l 1,2,-1
 260 -48 l 1,3,-1
 360 -48 l 1,4,-1
 360 -144 l 1,5,-1
 320 -240 l 1,6,-1
 260 -240 l 1,0,-1
240 0 m 1,7,-1
 240 576 l 1,8,-1
 40 576 l 1,9,-1
 40 672 l 1,10,-1
 560 672 l 1,11,-1
 560 576 l 1,12,-1
 360 576 l 1,13,-1
 360 0 l 1,14,-1
 240 0 l 1,7,-1
EndSplineSet
Validated: 1
EndChar

StartChar: uni021B
Encoding: 539 539 463
Width: 400
Flags: W
LayerCount: 2
Fore
SplineSet
220 -240 m 1,0,-1
 260 -144 l 1,1,-1
 220 -144 l 1,2,-1
 220 -48 l 1,3,-1
 320 -48 l 1,4,-1
 320 -144 l 1,5,-1
 280 -240 l 1,6,-1
 220 -240 l 1,0,-1
240 0 m 1,7,-1
 160 48 l 1,8,-1
 120 144 l 1,9,-1
 120 384 l 1,10,-1
 40 384 l 1,11,-1
 40 480 l 1,12,-1
 120 480 l 1,13,-1
 120 624 l 1,14,-1
 200 672 l 1,15,-1
 240 672 l 1,16,-1
 240 480 l 1,17,-1
 360 480 l 1,18,-1
 360 384 l 1,19,-1
 240 384 l 1,20,-1
 240 144 l 1,21,-1
 280 96 l 1,22,-1
 360 96 l 1,23,-1
 360 0 l 1,24,-1
 240 0 l 1,7,-1
EndSplineSet
Validated: 1
EndChar

StartChar: uni021C
Encoding: 540 540 464
Width: 640
Flags: W
LayerCount: 2
Fore
SplineSet
40 0 m 1,0,-1
 40 96 l 1,1,-1
 440 96 l 1,2,-1
 480 144 l 1,3,-1
 480 240 l 1,4,-1
 440 288 l 1,5,-1
 160 288 l 1,6,-1
 160 384 l 1,7,-1
 440 384 l 1,8,-1
 480 432 l 1,9,-1
 480 528 l 1,10,-1
 440 576 l 1,11,-1
 200 576 l 1,12,-1
 160 528 l 1,13,-1
 160 480 l 1,14,-1
 120 480 l 1,15,-1
 40 528 l 1,16,-1
 80 624 l 1,17,-1
 160 672 l 1,18,-1
 480 672 l 1,19,-1
 560 624 l 1,20,-1
 600 528 l 1,21,-1
 600 432 l 1,22,-1
 580 384 l 1,23,-1
 540 336 l 1,24,-1
 580 288 l 1,25,-1
 600 240 l 1,26,-1
 600 144 l 1,27,-1
 560 48 l 1,28,-1
 480 0 l 1,29,-1
 40 0 l 1,0,-1
EndSplineSet
Validated: 1
EndChar

StartChar: uni021D
Encoding: 541 541 465
Width: 560
Flags: W
LayerCount: 2
Fore
SplineSet
40 -192 m 1,0,-1
 40 -96 l 1,1,-1
 360 -96 l 1,2,-1
 400 -48 l 1,3,-1
 400 48 l 1,4,-1
 360 96 l 1,5,-1
 160 96 l 1,6,-1
 160 192 l 1,7,-1
 360 192 l 1,8,-1
 400 240 l 1,9,-1
 400 336 l 1,10,-1
 360 384 l 1,11,-1
 200 384 l 1,12,-1
 160 336 l 1,13,-1
 160 288 l 1,14,-1
 120 288 l 1,15,-1
 40 336 l 1,16,-1
 80 432 l 1,17,-1
 160 480 l 1,18,-1
 400 480 l 1,19,-1
 480 432 l 1,20,-1
 520 336 l 1,21,-1
 520 240 l 1,22,-1
 500 192 l 1,23,-1
 460 144 l 1,24,-1
 500 96 l 1,25,-1
 520 48 l 1,26,-1
 520 -48 l 1,27,-1
 480 -144 l 1,28,-1
 400 -192 l 1,29,-1
 40 -192 l 1,0,-1
EndSplineSet
Validated: 1
EndChar

StartChar: uni0220
Encoding: 544 544 468
Width: 640
Flags: W
LayerCount: 2
Fore
SplineSet
480 -192 m 1,0,-1
 480 528 l 1,1,-1
 440 576 l 1,2,-1
 200 576 l 1,3,-1
 160 552 l 1,4,-1
 160 0 l 1,5,-1
 40 0 l 1,6,-1
 40 672 l 1,7,-1
 160 672 l 1,8,-1
 160 624 l 1,9,-1
 240 672 l 1,10,-1
 480 672 l 1,11,-1
 560 624 l 1,12,-1
 600 528 l 1,13,-1
 600 -192 l 1,14,-1
 480 -192 l 1,0,-1
EndSplineSet
Validated: 1
EndChar

StartChar: uni0221
Encoding: 545 545 469
Width: 720
Flags: W
LayerCount: 2
Fore
SplineSet
580 -48 m 1,0,-1
 600 -24 l 1,1,-1
 600 24 l 1,2,-1
 580 48 l 1,3,-1
 520 48 l 1,4,-1
 520 -24 l 1,5,-1
 540 -48 l 1,6,-1
 580 -48 l 1,0,-1
360 96 m 1,7,-1
 400 120 l 1,8,-1
 400 360 l 1,9,-1
 360 384 l 1,10,-1
 200 384 l 1,11,-1
 160 336 l 1,12,-1
 160 144 l 1,13,-1
 200 96 l 1,14,-1
 360 96 l 1,7,-1
460 -96 m 1,15,-1
 400 -24 l 1,16,-1
 400 48 l 1,17,-1
 320 0 l 1,18,-1
 160 0 l 1,19,-1
 80 48 l 1,20,-1
 40 144 l 1,21,-1
 40 336 l 1,22,-1
 80 432 l 1,23,-1
 160 480 l 1,24,-1
 320 480 l 1,25,-1
 400 432 l 1,26,-1
 400 672 l 1,27,-1
 520 672 l 1,28,-1
 520 96 l 1,29,-1
 640 96 l 1,30,-1
 680 48 l 1,31,-1
 680 -48 l 1,32,-1
 640 -96 l 1,33,-1
 460 -96 l 1,15,-1
EndSplineSet
Validated: 1
EndChar

StartChar: uni0222
Encoding: 546 546 470
Width: 640
Flags: W
LayerCount: 2
Fore
SplineSet
440 96 m 1,0,-1
 480 144 l 1,1,-1
 480 240 l 1,2,-1
 440 288 l 1,3,-1
 200 288 l 1,4,-1
 160 240 l 1,5,-1
 160 144 l 1,6,-1
 200 96 l 1,7,-1
 440 96 l 1,0,-1
160 0 m 1,8,-1
 80 48 l 1,9,-1
 40 144 l 1,10,-1
 40 240 l 1,11,-1
 60 288 l 1,12,-1
 100 336 l 1,13,-1
 60 384 l 1,14,-1
 40 432 l 1,15,-1
 40 528 l 1,16,-1
 80 624 l 1,17,-1
 160 672 l 1,18,-1
 240 672 l 1,19,-1
 240 576 l 1,20,-1
 200 576 l 1,21,-1
 160 528 l 1,22,-1
 160 432 l 1,23,-1
 200 384 l 1,24,-1
 440 384 l 1,25,-1
 480 432 l 1,26,-1
 480 528 l 1,27,-1
 440 576 l 1,28,-1
 400 576 l 1,29,-1
 400 672 l 1,30,-1
 480 672 l 1,31,-1
 560 624 l 1,32,-1
 600 528 l 1,33,-1
 600 432 l 1,34,-1
 580 384 l 1,35,-1
 540 336 l 1,36,-1
 580 288 l 1,37,-1
 600 240 l 1,38,-1
 600 144 l 1,39,-1
 560 48 l 1,40,-1
 480 0 l 1,41,-1
 160 0 l 1,8,-1
EndSplineSet
Validated: 1
EndChar

StartChar: uni0223
Encoding: 547 547 471
Width: 560
Flags: W
LayerCount: 2
Fore
SplineSet
360 96 m 1,0,-1
 400 144 l 1,1,-1
 400 240 l 1,2,-1
 360 288 l 1,3,-1
 200 288 l 1,4,-1
 160 240 l 1,5,-1
 160 144 l 1,6,-1
 200 96 l 1,7,-1
 360 96 l 1,0,-1
160 0 m 1,8,-1
 80 48 l 1,9,-1
 40 144 l 1,10,-1
 40 240 l 1,11,-1
 60 288 l 1,12,-1
 100 336 l 1,13,-1
 60 384 l 1,14,-1
 40 432 l 1,15,-1
 40 528 l 1,16,-1
 80 624 l 1,17,-1
 160 672 l 1,18,-1
 240 672 l 1,19,-1
 240 576 l 1,20,-1
 200 576 l 1,21,-1
 160 528 l 1,22,-1
 160 432 l 1,23,-1
 200 384 l 1,24,-1
 360 384 l 1,25,-1
 400 432 l 1,26,-1
 400 528 l 1,27,-1
 360 576 l 1,28,-1
 320 576 l 1,29,-1
 320 672 l 1,30,-1
 400 672 l 1,31,-1
 480 624 l 1,32,-1
 520 528 l 1,33,-1
 520 432 l 1,34,-1
 500 384 l 1,35,-1
 460 336 l 1,36,-1
 500 288 l 1,37,-1
 520 240 l 1,38,-1
 520 144 l 1,39,-1
 480 48 l 1,40,-1
 400 0 l 1,41,-1
 160 0 l 1,8,-1
EndSplineSet
Validated: 1
EndChar

StartChar: uni0224
Encoding: 548 548 472
Width: 680
Flags: W
LayerCount: 2
Fore
SplineSet
520 -96 m 1,0,-1
 520 -48 l 1,1,-1
 480 0 l 1,2,-1
 40 0 l 1,3,-1
 40 72 l 1,4,-1
 440 552 l 1,5,-1
 440 576 l 1,6,-1
 40 576 l 1,7,-1
 40 672 l 1,8,-1
 640 672 l 1,9,-1
 640 624 l 1,10,-1
 200 96 l 1,11,-1
 520 96 l 1,12,-1
 600 48 l 1,13,-1
 640 -48 l 1,14,-1
 640 -96 l 1,15,-1
 520 -96 l 1,0,-1
EndSplineSet
Validated: 1
EndChar

StartChar: uni0225
Encoding: 549 549 473
Width: 520
Flags: W
LayerCount: 2
Fore
SplineSet
360 -96 m 1,0,-1
 360 -48 l 1,1,-1
 320 0 l 1,2,-1
 40 0 l 1,3,-1
 40 72 l 1,4,-1
 300 384 l 1,5,-1
 40 384 l 1,6,-1
 40 480 l 1,7,-1
 480 480 l 1,8,-1
 480 432 l 1,9,-1
 200 96 l 1,10,-1
 360 96 l 1,11,-1
 440 48 l 1,12,-1
 480 -48 l 1,13,-1
 480 -96 l 1,14,-1
 360 -96 l 1,0,-1
EndSplineSet
Validated: 1
EndChar

StartChar: uni0228
Encoding: 552 552 476
Width: 560
Flags: W
LayerCount: 2
Fore
SplineSet
200 -240 m 1,0,-1
 160 -192 l 1,1,-1
 160 -144 l 1,2,-1
 240 -144 l 1,3,-1
 240 -168 l 1,4,-1
 260 -192 l 1,5,-1
 300 -192 l 1,6,-1
 320 -168 l 1,7,-1
 320 -120 l 1,8,-1
 300 -96 l 1,9,-1
 240 -96 l 1,10,-1
 240 -48 l 1,11,-1
 260 0 l 1,12,-1
 40 0 l 1,13,-1
 40 672 l 1,14,-1
 520 672 l 1,15,-1
 520 576 l 1,16,-1
 160 576 l 1,17,-1
 160 384 l 1,18,-1
 480 384 l 1,19,-1
 480 288 l 1,20,-1
 160 288 l 1,21,-1
 160 96 l 1,22,-1
 520 96 l 1,23,-1
 520 0 l 1,24,-1
 320 0 l 1,25,-1
 300 -48 l 1,26,-1
 360 -48 l 1,27,-1
 400 -96 l 1,28,-1
 400 -192 l 1,29,-1
 360 -240 l 1,30,-1
 200 -240 l 1,0,-1
EndSplineSet
Validated: 1
EndChar

StartChar: uni0229
Encoding: 553 553 477
Width: 560
Flags: W
LayerCount: 2
Fore
SplineSet
400 264 m 1,0,-1
 400 336 l 1,1,-1
 360 384 l 1,2,-1
 200 384 l 1,3,-1
 160 336 l 1,4,-1
 160 264 l 1,5,-1
 400 264 l 1,0,-1
200 -240 m 1,6,-1
 160 -192 l 1,7,-1
 160 -144 l 1,8,-1
 240 -144 l 1,9,-1
 240 -168 l 1,10,-1
 260 -192 l 1,11,-1
 300 -192 l 1,12,-1
 320 -168 l 1,13,-1
 320 -120 l 1,14,-1
 300 -96 l 1,15,-1
 240 -96 l 1,16,-1
 240 -48 l 1,17,-1
 260 0 l 1,18,-1
 160 0 l 1,19,-1
 80 48 l 1,20,-1
 40 144 l 1,21,-1
 40 336 l 1,22,-1
 80 432 l 1,23,-1
 160 480 l 1,24,-1
 400 480 l 1,25,-1
 480 432 l 1,26,-1
 520 336 l 1,27,-1
 520 192 l 1,28,-1
 160 192 l 1,29,-1
 160 144 l 1,30,-1
 200 96 l 1,31,-1
 360 96 l 1,32,-1
 400 144 l 1,33,-1
 520 144 l 1,34,-1
 480 48 l 1,35,-1
 400 0 l 1,36,-1
 320 0 l 1,37,-1
 300 -48 l 1,38,-1
 360 -48 l 1,39,-1
 400 -96 l 1,40,-1
 400 -192 l 1,41,-1
 360 -240 l 1,42,-1
 200 -240 l 1,6,-1
EndSplineSet
Validated: 1
EndChar

StartChar: uni022A
Encoding: 554 554 478
Width: 640
Flags: W
LayerCount: 2
Fore
SplineSet
440 96 m 1,0,-1
 480 144 l 1,1,-1
 480 528 l 1,2,-1
 440 576 l 1,3,-1
 200 576 l 1,4,-1
 160 528 l 1,5,-1
 160 144 l 1,6,-1
 200 96 l 1,7,-1
 440 96 l 1,0,-1
160 0 m 1,8,-1
 80 48 l 1,9,-1
 40 144 l 1,10,-1
 40 528 l 1,11,-1
 80 624 l 1,12,-1
 160 672 l 1,13,-1
 480 672 l 1,14,-1
 560 624 l 1,15,-1
 600 528 l 1,16,-1
 600 144 l 1,17,-1
 560 48 l 1,18,-1
 480 0 l 1,19,-1
 160 0 l 1,8,-1
80 744 m 1,20,-1
 80 816 l 1,21,-1
 200 816 l 1,22,-1
 200 744 l 1,23,-1
 80 744 l 1,20,-1
440 744 m 1,24,-1
 440 816 l 1,25,-1
 560 816 l 1,26,-1
 560 744 l 1,27,-1
 440 744 l 1,24,-1
160 864 m 1,28,-1
 160 936 l 1,29,-1
 480 936 l 1,30,-1
 480 864 l 1,31,-1
 160 864 l 1,28,-1
EndSplineSet
Validated: 1
EndChar

StartChar: uni022B
Encoding: 555 555 479
Width: 560
Flags: W
LayerCount: 2
Fore
SplineSet
360 96 m 1,0,-1
 400 144 l 1,1,-1
 400 336 l 1,2,-1
 360 384 l 1,3,-1
 200 384 l 1,4,-1
 160 336 l 1,5,-1
 160 144 l 1,6,-1
 200 96 l 1,7,-1
 360 96 l 1,0,-1
160 0 m 1,8,-1
 80 48 l 1,9,-1
 40 144 l 1,10,-1
 40 336 l 1,11,-1
 80 432 l 1,12,-1
 160 480 l 1,13,-1
 400 480 l 1,14,-1
 480 432 l 1,15,-1
 520 336 l 1,16,-1
 520 144 l 1,17,-1
 480 48 l 1,18,-1
 400 0 l 1,19,-1
 160 0 l 1,8,-1
40 552 m 1,20,-1
 40 624 l 1,21,-1
 160 624 l 1,22,-1
 160 552 l 1,23,-1
 40 552 l 1,20,-1
400 552 m 1,24,-1
 400 624 l 1,25,-1
 520 624 l 1,26,-1
 520 552 l 1,27,-1
 400 552 l 1,24,-1
120 672 m 1,28,-1
 120 744 l 1,29,-1
 440 744 l 1,30,-1
 440 672 l 1,31,-1
 120 672 l 1,28,-1
EndSplineSet
Validated: 1
EndChar

StartChar: uni022C
Encoding: 556 556 480
Width: 640
Flags: W
LayerCount: 2
Fore
SplineSet
440 96 m 1,0,-1
 480 144 l 1,1,-1
 480 528 l 1,2,-1
 440 576 l 1,3,-1
 200 576 l 1,4,-1
 160 528 l 1,5,-1
 160 144 l 1,6,-1
 200 96 l 1,7,-1
 440 96 l 1,0,-1
160 0 m 1,8,-1
 80 48 l 1,9,-1
 40 144 l 1,10,-1
 40 528 l 1,11,-1
 80 624 l 1,12,-1
 160 672 l 1,13,-1
 480 672 l 1,14,-1
 560 624 l 1,15,-1
 600 528 l 1,16,-1
 600 144 l 1,17,-1
 560 48 l 1,18,-1
 480 0 l 1,19,-1
 160 0 l 1,8,-1
120 720 m 1,20,-1
 120 792 l 1,21,-1
 180 864 l 1,22,-1
 280 864 l 1,23,-1
 360 816 l 1,24,-1
 420 816 l 1,25,-1
 440 840 l 1,26,-1
 440 864 l 1,27,-1
 520 864 l 1,28,-1
 520 792 l 1,29,-1
 460 720 l 1,30,-1
 360 720 l 1,31,-1
 280 768 l 1,32,-1
 220 768 l 1,33,-1
 200 744 l 1,34,-1
 200 720 l 1,35,-1
 120 720 l 1,20,-1
160 912 m 1,36,-1
 160 984 l 1,37,-1
 480 984 l 1,38,-1
 480 912 l 1,39,-1
 160 912 l 1,36,-1
EndSplineSet
Validated: 1
EndChar

StartChar: uni022D
Encoding: 557 557 481
Width: 560
Flags: W
LayerCount: 2
Fore
SplineSet
360 96 m 1,0,-1
 400 144 l 1,1,-1
 400 336 l 1,2,-1
 360 384 l 1,3,-1
 200 384 l 1,4,-1
 160 336 l 1,5,-1
 160 144 l 1,6,-1
 200 96 l 1,7,-1
 360 96 l 1,0,-1
160 0 m 1,8,-1
 80 48 l 1,9,-1
 40 144 l 1,10,-1
 40 336 l 1,11,-1
 80 432 l 1,12,-1
 160 480 l 1,13,-1
 400 480 l 1,14,-1
 480 432 l 1,15,-1
 520 336 l 1,16,-1
 520 144 l 1,17,-1
 480 48 l 1,18,-1
 400 0 l 1,19,-1
 160 0 l 1,8,-1
80 528 m 1,20,-1
 80 600 l 1,21,-1
 140 672 l 1,22,-1
 240 672 l 1,23,-1
 320 624 l 1,24,-1
 380 624 l 1,25,-1
 400 648 l 1,26,-1
 400 672 l 1,27,-1
 480 672 l 1,28,-1
 480 600 l 1,29,-1
 420 528 l 1,30,-1
 320 528 l 1,31,-1
 240 576 l 1,32,-1
 180 576 l 1,33,-1
 160 552 l 1,34,-1
 160 528 l 1,35,-1
 80 528 l 1,20,-1
120 720 m 1,36,-1
 120 792 l 1,37,-1
 440 792 l 1,38,-1
 440 720 l 1,39,-1
 120 720 l 1,36,-1
EndSplineSet
Validated: 1
EndChar

StartChar: uni0230
Encoding: 560 560 484
Width: 640
Flags: W
LayerCount: 2
Fore
SplineSet
440 96 m 1,0,-1
 480 144 l 1,1,-1
 480 528 l 1,2,-1
 440 576 l 1,3,-1
 200 576 l 1,4,-1
 160 528 l 1,5,-1
 160 144 l 1,6,-1
 200 96 l 1,7,-1
 440 96 l 1,0,-1
160 0 m 1,8,-1
 80 48 l 1,9,-1
 40 144 l 1,10,-1
 40 528 l 1,11,-1
 80 624 l 1,12,-1
 160 672 l 1,13,-1
 480 672 l 1,14,-1
 560 624 l 1,15,-1
 600 528 l 1,16,-1
 600 144 l 1,17,-1
 560 48 l 1,18,-1
 480 0 l 1,19,-1
 160 0 l 1,8,-1
260 744 m 1,20,-1
 260 816 l 1,21,-1
 380 816 l 1,22,-1
 380 744 l 1,23,-1
 260 744 l 1,20,-1
160 864 m 1,24,-1
 160 936 l 1,25,-1
 480 936 l 1,26,-1
 480 864 l 1,27,-1
 160 864 l 1,24,-1
EndSplineSet
Validated: 1
EndChar

StartChar: uni0231
Encoding: 561 561 485
Width: 560
Flags: W
LayerCount: 2
Fore
SplineSet
360 96 m 1,0,-1
 400 144 l 1,1,-1
 400 336 l 1,2,-1
 360 384 l 1,3,-1
 200 384 l 1,4,-1
 160 336 l 1,5,-1
 160 144 l 1,6,-1
 200 96 l 1,7,-1
 360 96 l 1,0,-1
160 0 m 1,8,-1
 80 48 l 1,9,-1
 40 144 l 1,10,-1
 40 336 l 1,11,-1
 80 432 l 1,12,-1
 160 480 l 1,13,-1
 400 480 l 1,14,-1
 480 432 l 1,15,-1
 520 336 l 1,16,-1
 520 144 l 1,17,-1
 480 48 l 1,18,-1
 400 0 l 1,19,-1
 160 0 l 1,8,-1
220 552 m 1,20,-1
 220 624 l 1,21,-1
 340 624 l 1,22,-1
 340 552 l 1,23,-1
 220 552 l 1,20,-1
120 672 m 1,24,-1
 120 744 l 1,25,-1
 440 744 l 1,26,-1
 440 672 l 1,27,-1
 120 672 l 1,24,-1
EndSplineSet
Validated: 1
EndChar

StartChar: uni0232
Encoding: 562 562 486
Width: 680
Flags: W
LayerCount: 2
Fore
SplineSet
280 0 m 1,0,-1
 280 336 l 1,1,-1
 0 672 l 1,2,-1
 140 672 l 1,3,-1
 320 456 l 1,4,-1
 360 456 l 1,5,-1
 540 672 l 1,6,-1
 680 672 l 1,7,-1
 400 336 l 1,8,-1
 400 0 l 1,9,-1
 280 0 l 1,0,-1
180 720 m 1,10,-1
 180 792 l 1,11,-1
 500 792 l 1,12,-1
 500 720 l 1,13,-1
 180 720 l 1,10,-1
EndSplineSet
Validated: 1
EndChar

StartChar: uni0233
Encoding: 563 563 487
Width: 560
Flags: W
LayerCount: 2
Fore
SplineSet
160 -192 m 1,0,-1
 240 0 l 1,1,-1
 200 24 l 1,2,-1
 180 48 l 1,3,-1
 0 480 l 1,4,-1
 120 480 l 1,5,-1
 280 96 l 1,6,-1
 440 480 l 1,7,-1
 560 480 l 1,8,-1
 280 -192 l 1,9,-1
 160 -192 l 1,0,-1
120 552 m 1,10,-1
 120 624 l 1,11,-1
 440 624 l 1,12,-1
 440 552 l 1,13,-1
 120 552 l 1,10,-1
EndSplineSet
Validated: 1
EndChar

StartChar: uni0234
Encoding: 564 564 488
Width: 400
Flags: W
LayerCount: 2
Fore
SplineSet
260 48 m 1,0,-1
 280 72 l 1,1,-1
 280 120 l 1,2,-1
 260 144 l 1,3,-1
 200 144 l 1,4,-1
 200 72 l 1,5,-1
 220 48 l 1,6,-1
 260 48 l 1,0,-1
140 0 m 1,7,-1
 80 72 l 1,8,-1
 80 672 l 1,9,-1
 200 672 l 1,10,-1
 200 192 l 1,11,-1
 320 192 l 1,12,-1
 360 144 l 1,13,-1
 360 48 l 1,14,-1
 320 0 l 1,15,-1
 140 0 l 1,7,-1
EndSplineSet
Validated: 1
EndChar

StartChar: uni0235
Encoding: 565 565 489
Width: 720
Flags: W
LayerCount: 2
Fore
SplineSet
580 48 m 1,0,-1
 600 72 l 1,1,-1
 600 120 l 1,2,-1
 580 144 l 1,3,-1
 520 144 l 1,4,-1
 520 72 l 1,5,-1
 540 48 l 1,6,-1
 580 48 l 1,0,-1
40 0 m 1,7,-1
 40 480 l 1,8,-1
 160 480 l 1,9,-1
 160 432 l 1,10,-1
 240 480 l 1,11,-1
 400 480 l 1,12,-1
 480 432 l 1,13,-1
 520 336 l 1,14,-1
 520 192 l 1,15,-1
 640 192 l 1,16,-1
 680 144 l 1,17,-1
 680 48 l 1,18,-1
 640 0 l 1,19,-1
 460 0 l 1,20,-1
 400 72 l 1,21,-1
 400 336 l 1,22,-1
 360 384 l 1,23,-1
 200 384 l 1,24,-1
 160 360 l 1,25,-1
 160 0 l 1,26,-1
 40 0 l 1,7,-1
EndSplineSet
Validated: 1
EndChar

StartChar: uni0236
Encoding: 566 566 490
Width: 560
Flags: W
LayerCount: 2
Fore
SplineSet
420 96 m 1,0,-1
 440 120 l 1,1,-1
 440 168 l 1,2,-1
 420 192 l 1,3,-1
 380 192 l 1,4,-1
 360 168 l 1,5,-1
 360 96 l 1,6,-1
 420 96 l 1,0,-1
280 -96 m 1,7,-1
 280 0 l 1,8,-1
 240 0 l 1,9,-1
 160 48 l 1,10,-1
 120 144 l 1,11,-1
 120 384 l 1,12,-1
 40 384 l 1,13,-1
 40 480 l 1,14,-1
 120 480 l 1,15,-1
 120 624 l 1,16,-1
 200 672 l 1,17,-1
 240 672 l 1,18,-1
 240 480 l 1,19,-1
 360 480 l 1,20,-1
 360 384 l 1,21,-1
 240 384 l 1,22,-1
 240 144 l 1,23,-1
 280 96 l 1,24,-1
 280 168 l 1,25,-1
 340 240 l 1,26,-1
 480 240 l 1,27,-1
 520 192 l 1,28,-1
 520 96 l 1,29,-1
 500 48 l 1,30,-1
 480 24 l 1,31,-1
 440 0 l 1,32,-1
 360 0 l 1,33,-1
 360 -96 l 1,34,-1
 280 -96 l 1,7,-1
EndSplineSet
Validated: 1
EndChar

StartChar: uni0237
Encoding: 567 567 491
Width: 280
Flags: W
LayerCount: 2
Fore
SplineSet
-40 -192 m 1,0,-1
 -40 -96 l 1,1,-1
 40 -96 l 1,2,-1
 80 -48 l 1,3,-1
 80 480 l 1,4,-1
 200 480 l 1,5,-1
 200 -48 l 1,6,-1
 160 -144 l 1,7,-1
 80 -192 l 1,8,-1
 -40 -192 l 1,0,-1
EndSplineSet
Validated: 1
EndChar

StartChar: uni0238
Encoding: 568 568 492
Width: 920
Flags: W
LayerCount: 2
Fore
SplineSet
360 96 m 1,0,-1
 400 120 l 1,1,-1
 400 360 l 1,2,-1
 360 384 l 1,3,-1
 200 384 l 1,4,-1
 160 336 l 1,5,-1
 160 144 l 1,6,-1
 200 96 l 1,7,-1
 360 96 l 1,0,-1
720 96 m 1,8,-1
 760 144 l 1,9,-1
 760 336 l 1,10,-1
 720 384 l 1,11,-1
 560 384 l 1,12,-1
 520 360 l 1,13,-1
 520 120 l 1,14,-1
 560 96 l 1,15,-1
 720 96 l 1,8,-1
160 0 m 1,16,-1
 80 48 l 1,17,-1
 40 144 l 1,18,-1
 40 336 l 1,19,-1
 80 432 l 1,20,-1
 160 480 l 1,21,-1
 320 480 l 1,22,-1
 400 432 l 1,23,-1
 400 672 l 1,24,-1
 520 672 l 1,25,-1
 520 432 l 1,26,-1
 600 480 l 1,27,-1
 760 480 l 1,28,-1
 840 432 l 1,29,-1
 880 336 l 1,30,-1
 880 144 l 1,31,-1
 840 48 l 1,32,-1
 760 0 l 1,33,-1
 600 0 l 1,34,-1
 520 48 l 1,35,-1
 520 0 l 1,36,-1
 400 0 l 1,37,-1
 400 48 l 1,38,-1
 320 0 l 1,39,-1
 160 0 l 1,16,-1
EndSplineSet
Validated: 1
EndChar

StartChar: uni0239
Encoding: 569 569 493
Width: 920
Flags: W
LayerCount: 2
Fore
SplineSet
360 96 m 1,0,-1
 400 120 l 1,1,-1
 400 360 l 1,2,-1
 360 384 l 1,3,-1
 200 384 l 1,4,-1
 160 336 l 1,5,-1
 160 144 l 1,6,-1
 200 96 l 1,7,-1
 360 96 l 1,0,-1
720 96 m 1,8,-1
 760 144 l 1,9,-1
 760 336 l 1,10,-1
 720 384 l 1,11,-1
 560 384 l 1,12,-1
 520 360 l 1,13,-1
 520 120 l 1,14,-1
 560 96 l 1,15,-1
 720 96 l 1,8,-1
400 -192 m 1,16,-1
 400 48 l 1,17,-1
 320 0 l 1,18,-1
 160 0 l 1,19,-1
 80 48 l 1,20,-1
 40 144 l 1,21,-1
 40 336 l 1,22,-1
 80 432 l 1,23,-1
 160 480 l 1,24,-1
 320 480 l 1,25,-1
 400 432 l 1,26,-1
 400 480 l 1,27,-1
 520 480 l 1,28,-1
 520 432 l 1,29,-1
 600 480 l 1,30,-1
 760 480 l 1,31,-1
 840 432 l 1,32,-1
 880 336 l 1,33,-1
 880 144 l 1,34,-1
 840 48 l 1,35,-1
 760 0 l 1,36,-1
 600 0 l 1,37,-1
 520 48 l 1,38,-1
 520 -192 l 1,39,-1
 400 -192 l 1,16,-1
EndSplineSet
Validated: 1
EndChar

StartChar: uni023A
Encoding: 570 570 494
Width: 760
Flags: W
LayerCount: 2
Fore
SplineSet
500 240 m 1,0,-1
 450 360 l 1,1,-1
 270 360 l 1,2,-1
 220 240 l 1,3,-1
 500 240 l 1,0,-1
420 432 m 1,4,-1
 360 576 l 1,5,-1
 300 432 l 1,6,-1
 420 432 l 1,4,-1
0 0 m 1,7,-1
 150 360 l 1,8,-1
 40 360 l 1,9,-1
 40 432 l 1,10,-1
 180 432 l 1,11,-1
 280 672 l 1,12,-1
 440 672 l 1,13,-1
 540 432 l 1,14,-1
 680 432 l 1,15,-1
 680 360 l 1,16,-1
 570 360 l 1,17,-1
 720 0 l 1,18,-1
 600 0 l 1,19,-1
 540 144 l 1,20,-1
 180 144 l 1,21,-1
 120 0 l 1,22,-1
 0 0 l 1,7,-1
EndSplineSet
Validated: 1
EndChar

StartChar: uni023B
Encoding: 571 571 495
Width: 640
Flags: W
LayerCount: 2
Fore
SplineSet
280 96 m 1,0,-1
 280 576 l 1,1,-1
 200 576 l 1,2,-1
 160 528 l 1,3,-1
 160 144 l 1,4,-1
 200 96 l 1,5,-1
 280 96 l 1,0,-1
280 -96 m 1,6,-1
 280 0 l 1,7,-1
 160 0 l 1,8,-1
 80 48 l 1,9,-1
 40 144 l 1,10,-1
 40 528 l 1,11,-1
 80 624 l 1,12,-1
 160 672 l 1,13,-1
 280 672 l 1,14,-1
 280 768 l 1,15,-1
 360 768 l 1,16,-1
 360 672 l 1,17,-1
 480 672 l 1,18,-1
 560 624 l 1,19,-1
 600 528 l 1,20,-1
 600 480 l 1,21,-1
 520 432 l 1,22,-1
 480 432 l 1,23,-1
 480 528 l 1,24,-1
 440 576 l 1,25,-1
 360 576 l 1,26,-1
 360 96 l 1,27,-1
 440 96 l 1,28,-1
 480 144 l 1,29,-1
 480 240 l 1,30,-1
 520 240 l 1,31,-1
 600 192 l 1,32,-1
 600 144 l 1,33,-1
 560 48 l 1,34,-1
 480 0 l 1,35,-1
 360 0 l 1,36,-1
 360 -96 l 1,37,-1
 280 -96 l 1,6,-1
EndSplineSet
Validated: 1
EndChar

StartChar: uni023C
Encoding: 572 572 496
Width: 600
Flags: W
LayerCount: 2
Fore
SplineSet
280 96 m 1,0,-1
 280 384 l 1,1,-1
 240 384 l 1,2,-1
 200 336 l 1,3,-1
 200 144 l 1,4,-1
 240 96 l 1,5,-1
 280 96 l 1,0,-1
280 -96 m 1,6,-1
 280 0 l 1,7,-1
 200 0 l 1,8,-1
 120 48 l 1,9,-1
 80 144 l 1,10,-1
 80 336 l 1,11,-1
 120 432 l 1,12,-1
 200 480 l 1,13,-1
 280 480 l 1,14,-1
 280 576 l 1,15,-1
 360 576 l 1,16,-1
 360 480 l 1,17,-1
 440 480 l 1,18,-1
 520 432 l 1,19,-1
 560 336 l 1,20,-1
 480 288 l 1,21,-1
 440 288 l 1,22,-1
 440 336 l 1,23,-1
 400 384 l 1,24,-1
 360 384 l 1,25,-1
 360 96 l 1,26,-1
 400 96 l 1,27,-1
 440 144 l 1,28,-1
 440 192 l 1,29,-1
 480 192 l 1,30,-1
 560 144 l 1,31,-1
 520 48 l 1,32,-1
 440 0 l 1,33,-1
 360 0 l 1,34,-1
 360 -96 l 1,35,-1
 280 -96 l 1,6,-1
EndSplineSet
Validated: 1
EndChar

StartChar: uni023D
Encoding: 573 573 497
Width: 640
Flags: W
LayerCount: 2
Fore
SplineSet
120 0 m 1,0,-1
 120 312 l 1,1,-1
 40 312 l 1,2,-1
 40 384 l 1,3,-1
 120 384 l 1,4,-1
 120 672 l 1,5,-1
 240 672 l 1,6,-1
 240 384 l 1,7,-1
 400 384 l 1,8,-1
 400 312 l 1,9,-1
 240 312 l 1,10,-1
 240 96 l 1,11,-1
 600 96 l 1,12,-1
 600 0 l 1,13,-1
 120 0 l 1,0,-1
EndSplineSet
Validated: 1
EndChar

StartChar: uni023E
Encoding: 574 574 498
Width: 600
Flags: W
LayerCount: 2
Fore
SplineSet
240 0 m 1,0,-1
 240 312 l 1,1,-1
 120 312 l 1,2,-1
 120 384 l 1,3,-1
 240 384 l 1,4,-1
 240 576 l 1,5,-1
 40 576 l 1,6,-1
 40 672 l 1,7,-1
 560 672 l 1,8,-1
 560 576 l 1,9,-1
 360 576 l 1,10,-1
 360 384 l 1,11,-1
 480 384 l 1,12,-1
 480 312 l 1,13,-1
 360 312 l 1,14,-1
 360 0 l 1,15,-1
 240 0 l 1,0,-1
EndSplineSet
Validated: 1
EndChar

StartChar: uni023F
Encoding: 575 575 499
Width: 560
Flags: W
LayerCount: 2
Fore
SplineSet
400 -144 m 1,0,-1
 80 48 l 1,1,-1
 40 96 l 1,2,-1
 120 144 l 1,3,-1
 160 144 l 1,4,-1
 160 120 l 1,5,-1
 180 96 l 1,6,-1
 380 96 l 1,7,-1
 400 120 l 1,8,-1
 400 168 l 1,9,-1
 380 192 l 1,10,-1
 160 192 l 1,11,-1
 80 240 l 1,12,-1
 40 336 l 1,13,-1
 80 432 l 1,14,-1
 160 480 l 1,15,-1
 360 480 l 1,16,-1
 440 432 l 1,17,-1
 480 384 l 1,18,-1
 400 336 l 1,19,-1
 360 336 l 1,20,-1
 360 360 l 1,21,-1
 340 384 l 1,22,-1
 180 384 l 1,23,-1
 160 360 l 1,24,-1
 160 312 l 1,25,-1
 180 288 l 1,26,-1
 400 288 l 1,27,-1
 480 240 l 1,28,-1
 520 144 l 1,29,-1
 480 48 l 1,30,-1
 400 0 l 1,31,-1
 360 0 l 1,32,-1
 440 -48 l 1,33,-1
 520 -48 l 1,34,-1
 520 -144 l 1,35,-1
 400 -144 l 1,0,-1
EndSplineSet
Validated: 1
EndChar

StartChar: uni0240
Encoding: 576 576 500
Width: 520
Flags: W
LayerCount: 2
Fore
SplineSet
400 -144 m 1,0,-1
 160 0 l 1,1,-1
 40 0 l 1,2,-1
 40 72 l 1,3,-1
 300 384 l 1,4,-1
 40 384 l 1,5,-1
 40 480 l 1,6,-1
 480 480 l 1,7,-1
 480 432 l 1,8,-1
 200 96 l 1,9,-1
 440 -48 l 1,10,-1
 520 -48 l 1,11,-1
 520 -144 l 1,12,-1
 400 -144 l 1,0,-1
EndSplineSet
Validated: 1
EndChar

StartChar: uni0241
Encoding: 577 577 501
Width: 640
Flags: W
LayerCount: 2
Fore
SplineSet
240 0 m 1,0,-1
 240 240 l 1,1,-1
 280 336 l 1,2,-1
 360 384 l 1,3,-1
 440 384 l 1,4,-1
 480 432 l 1,5,-1
 480 528 l 1,6,-1
 440 576 l 1,7,-1
 200 576 l 1,8,-1
 160 528 l 1,9,-1
 160 480 l 1,10,-1
 120 480 l 1,11,-1
 40 528 l 1,12,-1
 80 624 l 1,13,-1
 160 672 l 1,14,-1
 480 672 l 1,15,-1
 560 624 l 1,16,-1
 600 528 l 1,17,-1
 600 432 l 1,18,-1
 560 336 l 1,19,-1
 480 288 l 1,20,-1
 400 288 l 1,21,-1
 360 240 l 1,22,-1
 360 0 l 1,23,-1
 240 0 l 1,0,-1
EndSplineSet
Validated: 1
EndChar

StartChar: uni0242
Encoding: 578 578 502
Width: 560
Flags: W
LayerCount: 2
Fore
SplineSet
200 0 m 1,0,-1
 200 96 l 1,1,-1
 240 192 l 1,2,-1
 320 240 l 1,3,-1
 360 240 l 1,4,-1
 400 288 l 1,5,-1
 400 336 l 1,6,-1
 360 384 l 1,7,-1
 200 384 l 1,8,-1
 160 336 l 1,9,-1
 160 288 l 1,10,-1
 120 288 l 1,11,-1
 40 336 l 1,12,-1
 80 432 l 1,13,-1
 160 480 l 1,14,-1
 400 480 l 1,15,-1
 480 432 l 1,16,-1
 520 336 l 1,17,-1
 520 288 l 1,18,-1
 480 192 l 1,19,-1
 400 144 l 1,20,-1
 360 144 l 1,21,-1
 320 96 l 1,22,-1
 320 0 l 1,23,-1
 200 0 l 1,0,-1
EndSplineSet
Validated: 1
EndChar

StartChar: uni0243
Encoding: 579 579 503
Width: 720
Flags: W
LayerCount: 2
Fore
SplineSet
520 96 m 1,0,-1
 560 144 l 1,1,-1
 560 240 l 1,2,-1
 520 288 l 1,3,-1
 240 288 l 1,4,-1
 240 240 l 1,5,-1
 400 240 l 1,6,-1
 400 168 l 1,7,-1
 240 168 l 1,8,-1
 240 96 l 1,9,-1
 520 96 l 1,0,-1
520 384 m 1,10,-1
 560 432 l 1,11,-1
 560 528 l 1,12,-1
 520 576 l 1,13,-1
 240 576 l 1,14,-1
 240 384 l 1,15,-1
 520 384 l 1,10,-1
120 0 m 1,16,-1
 120 168 l 1,17,-1
 40 168 l 1,18,-1
 40 240 l 1,19,-1
 120 240 l 1,20,-1
 120 672 l 1,21,-1
 560 672 l 1,22,-1
 640 624 l 1,23,-1
 680 528 l 1,24,-1
 680 432 l 1,25,-1
 660 384 l 1,26,-1
 620 336 l 1,27,-1
 660 288 l 1,28,-1
 680 240 l 1,29,-1
 680 144 l 1,30,-1
 640 48 l 1,31,-1
 560 0 l 1,32,-1
 120 0 l 1,16,-1
EndSplineSet
Validated: 1
EndChar

StartChar: uni0244
Encoding: 580 580 504
Width: 800
Flags: W
LayerCount: 2
Fore
SplineSet
520 96 m 1,0,-1
 560 144 l 1,1,-1
 560 360 l 1,2,-1
 240 360 l 1,3,-1
 240 144 l 1,4,-1
 280 96 l 1,5,-1
 520 96 l 1,0,-1
240 0 m 1,6,-1
 160 48 l 1,7,-1
 120 144 l 1,8,-1
 120 360 l 1,9,-1
 40 360 l 1,10,-1
 40 432 l 1,11,-1
 120 432 l 1,12,-1
 120 672 l 1,13,-1
 240 672 l 1,14,-1
 240 432 l 1,15,-1
 560 432 l 1,16,-1
 560 672 l 1,17,-1
 680 672 l 1,18,-1
 680 432 l 1,19,-1
 760 432 l 1,20,-1
 760 360 l 1,21,-1
 680 360 l 1,22,-1
 680 144 l 1,23,-1
 640 48 l 1,24,-1
 560 0 l 1,25,-1
 240 0 l 1,6,-1
EndSplineSet
Validated: 1
EndChar

StartChar: uni0246
Encoding: 582 582 506
Width: 560
Flags: W
LayerCount: 2
Fore
SplineSet
240 96 m 1,0,-1
 240 288 l 1,1,-1
 160 288 l 1,2,-1
 160 96 l 1,3,-1
 240 96 l 1,0,-1
240 384 m 1,4,-1
 240 576 l 1,5,-1
 160 576 l 1,6,-1
 160 384 l 1,7,-1
 240 384 l 1,4,-1
240 -96 m 1,8,-1
 240 0 l 1,9,-1
 40 0 l 1,10,-1
 40 672 l 1,11,-1
 240 672 l 1,12,-1
 240 768 l 1,13,-1
 320 768 l 1,14,-1
 320 672 l 1,15,-1
 520 672 l 1,16,-1
 520 576 l 1,17,-1
 320 576 l 1,18,-1
 320 384 l 1,19,-1
 480 384 l 1,20,-1
 480 288 l 1,21,-1
 320 288 l 1,22,-1
 320 96 l 1,23,-1
 520 96 l 1,24,-1
 520 0 l 1,25,-1
 320 0 l 1,26,-1
 320 -96 l 1,27,-1
 240 -96 l 1,8,-1
EndSplineSet
Validated: 1
EndChar

StartChar: uni0247
Encoding: 583 583 507
Width: 560
Flags: W
LayerCount: 2
Fore
SplineSet
240 96 m 1,0,-1
 240 192 l 1,1,-1
 160 192 l 1,2,-1
 160 144 l 1,3,-1
 200 96 l 1,4,-1
 240 96 l 1,0,-1
240 264 m 1,5,-1
 240 384 l 1,6,-1
 200 384 l 1,7,-1
 160 336 l 1,8,-1
 160 264 l 1,9,-1
 240 264 l 1,5,-1
400 264 m 1,10,-1
 400 336 l 1,11,-1
 360 384 l 1,12,-1
 320 384 l 1,13,-1
 320 264 l 1,14,-1
 400 264 l 1,10,-1
240 -96 m 1,15,-1
 240 0 l 1,16,-1
 160 0 l 1,17,-1
 80 48 l 1,18,-1
 40 144 l 1,19,-1
 40 336 l 1,20,-1
 80 432 l 1,21,-1
 160 480 l 1,22,-1
 240 480 l 1,23,-1
 240 576 l 1,24,-1
 320 576 l 1,25,-1
 320 480 l 1,26,-1
 400 480 l 1,27,-1
 480 432 l 1,28,-1
 520 336 l 1,29,-1
 520 192 l 1,30,-1
 320 192 l 1,31,-1
 320 96 l 1,32,-1
 360 96 l 1,33,-1
 400 144 l 1,34,-1
 520 144 l 1,35,-1
 480 48 l 1,36,-1
 400 0 l 1,37,-1
 320 0 l 1,38,-1
 320 -96 l 1,39,-1
 240 -96 l 1,15,-1
EndSplineSet
Validated: 1
EndChar

StartChar: uni0248
Encoding: 584 584 508
Width: 640
Flags: W
LayerCount: 2
Fore
SplineSet
160 0 m 1,0,-1
 80 48 l 1,1,-1
 40 144 l 1,2,-1
 120 192 l 1,3,-1
 160 192 l 1,4,-1
 160 144 l 1,5,-1
 200 96 l 1,6,-1
 360 96 l 1,7,-1
 400 144 l 1,8,-1
 400 312 l 1,9,-1
 240 312 l 1,10,-1
 240 384 l 1,11,-1
 400 384 l 1,12,-1
 400 672 l 1,13,-1
 520 672 l 1,14,-1
 520 384 l 1,15,-1
 600 384 l 1,16,-1
 600 312 l 1,17,-1
 520 312 l 1,18,-1
 520 144 l 1,19,-1
 480 48 l 1,20,-1
 400 0 l 1,21,-1
 160 0 l 1,0,-1
EndSplineSet
Validated: 1
EndChar

StartChar: uni0249
Encoding: 585 585 509
Width: 280
Flags: W
LayerCount: 2
Fore
SplineSet
-40 -192 m 1,0,-1
 -40 -96 l 1,1,-1
 40 -96 l 1,2,-1
 80 -48 l 1,3,-1
 80 216 l 1,4,-1
 0 216 l 1,5,-1
 0 288 l 1,6,-1
 80 288 l 1,7,-1
 80 480 l 1,8,-1
 200 480 l 1,9,-1
 200 288 l 1,10,-1
 280 288 l 1,11,-1
 280 216 l 1,12,-1
 200 216 l 1,13,-1
 200 -48 l 1,14,-1
 160 -144 l 1,15,-1
 80 -192 l 1,16,-1
 -40 -192 l 1,0,-1
80 552 m 1,17,-1
 80 672 l 1,18,-1
 200 672 l 1,19,-1
 200 552 l 1,20,-1
 80 552 l 1,17,-1
EndSplineSet
Validated: 1
EndChar

StartChar: uni024A
Encoding: 586 586 510
Width: 640
Flags: W
LayerCount: 2
Fore
SplineSet
440 96 m 1,0,-1
 480 120 l 1,1,-1
 480 528 l 1,2,-1
 440 576 l 1,3,-1
 200 576 l 1,4,-1
 160 528 l 1,5,-1
 160 144 l 1,6,-1
 200 96 l 1,7,-1
 440 96 l 1,0,-1
600 -192 m 1,8,-1
 520 -144 l 1,9,-1
 480 -48 l 1,10,-1
 480 48 l 1,11,-1
 400 0 l 1,12,-1
 160 0 l 1,13,-1
 80 48 l 1,14,-1
 40 144 l 1,15,-1
 40 528 l 1,16,-1
 80 624 l 1,17,-1
 160 672 l 1,18,-1
 480 672 l 1,19,-1
 560 624 l 1,20,-1
 600 528 l 1,21,-1
 600 -48 l 1,22,-1
 640 -96 l 1,23,-1
 720 -96 l 1,24,-1
 720 -192 l 1,25,-1
 600 -192 l 1,8,-1
EndSplineSet
Validated: 1
EndChar

StartChar: uni024B
Encoding: 587 587 511
Width: 560
Flags: W
LayerCount: 2
Fore
SplineSet
360 96 m 1,0,-1
 400 120 l 1,1,-1
 400 360 l 1,2,-1
 360 384 l 1,3,-1
 200 384 l 1,4,-1
 160 336 l 1,5,-1
 160 144 l 1,6,-1
 200 96 l 1,7,-1
 360 96 l 1,0,-1
520 -192 m 1,8,-1
 440 -144 l 1,9,-1
 400 -48 l 1,10,-1
 400 48 l 1,11,-1
 320 0 l 1,12,-1
 160 0 l 1,13,-1
 80 48 l 1,14,-1
 40 144 l 1,15,-1
 40 336 l 1,16,-1
 80 432 l 1,17,-1
 160 480 l 1,18,-1
 320 480 l 1,19,-1
 400 432 l 1,20,-1
 400 480 l 1,21,-1
 520 480 l 1,22,-1
 520 -48 l 1,23,-1
 560 -96 l 1,24,-1
 640 -96 l 1,25,-1
 640 -192 l 1,26,-1
 520 -192 l 1,8,-1
EndSplineSet
Validated: 1
EndChar

