<?xml version="1.0" standalone="no"?>
<!DOCTYPE svg PUBLIC "-//W3C//DTD SVG 1.1//EN" "http://www.w3.org/Graphics/SVG/1.1/DTD/svg11.dtd" >
<svg xmlns="http://www.w3.org/2000/svg">
<metadata>Generated by IcoMoon</metadata>
<defs>
<font id="icomoon" horiz-adv-x="1024">
<font-face units-per-em="1024" ascent="960" descent="-64" />
<missing-glyph horiz-adv-x="1024" />
<glyph unicode="&#x20;" horiz-adv-x="512" d="" />
<glyph unicode="&#xe900;" glyph-name="home" d="M475.43 856.25l-390.097-343.789v-73.668c0 0 0-24.559 24.381-24.559h73.143v-343.787c0-24.559 24.381-49.114 48.762-49.114h146.286c24.381 0 48.762 24.555 48.762 49.114v221.005c0 24.559 0 49.114 48.764 49.114h73.139c48.764 0 48.764-24.555 48.764-49.114v-221.005c0-24.559 24.38-49.114 48.764-49.114h146.283c24.384 0 48.764 24.555 48.764 49.114v343.787h73.143c24.38 0 24.38 24.559 24.38 24.559v73.668l-390.097 343.789c-24.38 24.556-48.759 24.556-73.139 0z" />
<glyph unicode="&#xe901;" glyph-name="KPI" d="M759.019 832h-494.036c-99.217 0-179.649-76.41-179.649-170.667s80.432-170.667 179.649-170.667h494.036c99.217 0 179.648 76.41 179.648 170.667s-80.431 170.667-179.648 170.667zM759.014 576c-49.609 0-89.822 38.205-89.822 85.333s40.213 85.333 89.822 85.333c49.609 0 89.826-38.205 89.826-85.333 0-22.632-9.463-44.337-26.308-60.34s-39.693-24.994-63.518-24.994zM759.019 405.333h-494.036c-99.217 0-179.649-76.412-179.649-170.667s80.432-170.667 179.649-170.667h494.036c99.217 0 179.648 76.412 179.648 170.667s-80.431 170.667-179.648 170.667zM287.438 149.333c-49.609 0-89.824 38.204-89.824 85.333s40.216 85.333 89.824 85.333c49.609 0 89.825-38.204 89.825-85.333s-40.216-85.333-89.825-85.333z" />
<glyph unicode="&#xe902;" glyph-name="request" d="M85.333 448c0 235.34 191.326 426.667 426.667 426.667s426.667-191.326 426.667-426.667c0-235.341-191.326-426.667-426.667-426.667s-426.667 191.326-426.667 426.667zM686.259 407.578h64.674c22.455 0 39.522 18.867 39.522 41.323s-17.963 40.418-40.422 40.418h-89.822c-15.27 0-28.745-8.981-35.93-22.455l-38.626-76.352-112.282 223.665c-13.474 26.947-58.385 26.947-71.858 0l-62.877-125.754h-64.674c-22.456 0-40.421-17.967-40.421-40.422s17.965-40.422 40.421-40.422h89.824c15.27 0 28.744 8.986 35.93 22.46l37.725 75.452 113.182-223.663c6.285-13.474 20.659-22.455 35.93-22.455s28.745 8.981 36.826 22.455l62.878 125.751z" />
<glyph unicode="&#xe903;" glyph-name="api" d="M824.887 518.81v-216.354c66.231-13.53 113.792-71.846 113.779-139.494-7.821-188.745-276.621-188.885-284.446 0-0.013 67.648 47.552 125.965 113.779 139.494v216.354c-0.107 91.123-66.483 168.604-156.446 182.623v-82.984c0.068-11.566-6.861-22.022-17.536-26.457-10.671-4.435-22.963-1.967-31.104 6.245l-113.775 113.872c-5.342 5.34-8.346 12.585-8.346 20.141s3.004 14.801 8.346 20.141l113.775 113.872c8.119 8.193 20.378 10.671 31.040 6.272 10.658-4.399 17.609-14.802 17.6-26.342v-87.255c121.613-14.419 213.248-117.563 213.333-240.128zM328.122 832.976c26.672-26.694 41.656-62.898 41.656-100.649 0.014-67.65-47.55-125.963-113.778-139.493v-290.374c66.228-13.53 113.792-71.842 113.778-139.494-7.823-188.74-276.623-188.881-284.445 0-0.014 67.652 47.55 125.965 113.778 139.494v290.374c-165.831 38.147-143.36 276.993 28.444 281.833 37.72 0 73.895-14.996 100.567-41.69z" />
<glyph unicode="&#xe904;" glyph-name="support" d="M85.333 448c0 235.52 191.147 426.667 426.667 426.667s426.667-191.147 426.667-426.667c0-235.52-191.147-426.667-426.667-426.667s-426.667 191.147-426.667 426.667zM711.68 521.813l118.613 49.066c-34.56 89.6-105.813 160.853-195.413 194.987l-49.067-118.613c58.453-21.333 104.107-67.413 125.867-125.44zM512 320c-70.827 0-128 57.173-128 128s57.173 128 128 128c70.827 0 128-57.173 128-128s-57.173-128-128-128zM439.467 647.679l-49.92 118.613c-90.027-34.56-161.28-105.813-195.84-195.84l118.613-49.492c21.76 58.879 68.267 105.386 127.147 126.719zM193.707 325.547l118.613 49.067c21.76-58.88 67.84-104.96 126.72-126.293l-49.92-118.613c-89.6 34.56-160.853 105.813-195.413 195.84zM585.813 248.32l49.067-118.613c89.6 34.56 160.853 105.813 195.413 195.413l-118.613 49.92c-21.333-58.88-67.413-104.96-125.867-126.72z" />
<glyph unicode="&#xe905;" glyph-name="apps" d="M170.667 661.333c0-23.564 19.103-42.667 42.667-42.667h85.333c23.564 0 42.667 19.103 42.667 42.667v85.333c0 23.564-19.103 42.667-42.667 42.667h-85.333c-23.564 0-42.667-19.103-42.667-42.667v-85.333zM426.667 149.333c0-23.565 19.102-42.667 42.667-42.667h85.333c23.565 0 42.667 19.102 42.667 42.667v85.333c0 23.565-19.102 42.667-42.667 42.667h-85.333c-23.565 0-42.667-19.102-42.667-42.667v-85.333zM170.667 149.333c0-23.565 19.103-42.667 42.667-42.667h85.333c23.564 0 42.667 19.102 42.667 42.667v85.333c0 23.565-19.103 42.667-42.667 42.667h-85.333c-23.564 0-42.667-19.102-42.667-42.667v-85.333zM170.667 405.333c0-23.565 19.103-42.667 42.667-42.667h85.333c23.564 0 42.667 19.102 42.667 42.667v85.333c0 23.565-19.103 42.667-42.667 42.667h-85.333c-23.564 0-42.667-19.102-42.667-42.667v-85.333zM426.667 405.333c0-23.565 19.102-42.667 42.667-42.667h85.333c23.565 0 42.667 19.102 42.667 42.667v85.333c0 23.565-19.102 42.667-42.667 42.667h-85.333c-23.565 0-42.667-19.102-42.667-42.667v-85.333zM725.333 789.333c-23.565 0-42.667-19.103-42.667-42.667v-85.333c0-23.564 19.102-42.667 42.667-42.667h85.333c23.565 0 42.667 19.103 42.667 42.667v85.333c0 23.564-19.102 42.667-42.667 42.667h-85.333zM426.667 661.333c0-23.564 19.102-42.667 42.667-42.667h85.333c23.565 0 42.667 19.103 42.667 42.667v85.333c0 23.564-19.102 42.667-42.667 42.667h-85.333c-23.565 0-42.667-19.103-42.667-42.667v-85.333zM682.667 405.333c0-23.565 19.102-42.667 42.667-42.667h85.333c23.565 0 42.667 19.102 42.667 42.667v85.333c0 23.565-19.102 42.667-42.667 42.667h-85.333c-23.565 0-42.667-19.102-42.667-42.667v-85.333zM682.667 149.333c0-23.565 19.102-42.667 42.667-42.667h85.333c23.565 0 42.667 19.102 42.667 42.667v85.333c0 23.565-19.102 42.667-42.667 42.667h-85.333c-23.565 0-42.667-19.102-42.667-42.667v-85.333z" />
<glyph unicode="&#xe906;" glyph-name="menu" d="M170.667 192h682.667c23.467 0 42.667 19.2 42.667 42.667s-19.2 42.667-42.667 42.667h-682.667c-23.467 0-42.667-19.2-42.667-42.667s19.2-42.667 42.667-42.667zM170.667 405.333h682.667c23.467 0 42.667 19.2 42.667 42.667s-19.2 42.667-42.667 42.667h-682.667c-23.467 0-42.667-19.2-42.667-42.667s19.2-42.667 42.667-42.667zM128 661.333c0-23.467 19.2-42.667 42.667-42.667h682.667c23.467 0 42.667 19.2 42.667 42.667s-19.2 42.667-42.667 42.667h-682.667c-23.467 0-42.667-19.2-42.667-42.667z" />
<glyph unicode="&#xe907;" glyph-name="menu_open" d="M170.667 192h469.333c23.467 0 42.667 19.2 42.667 42.667s-19.2 42.667-42.667 42.667h-469.333c-23.467 0-42.667-19.2-42.667-42.667s19.2-42.667 42.667-42.667zM170.667 405.333h341.333c23.467 0 42.667 19.2 42.667 42.667s-19.2 42.667-42.667 42.667h-341.333c-23.467 0-42.667-19.2-42.667-42.667s19.2-42.667 42.667-42.667zM128 661.333c0-23.467 19.2-42.667 42.667-42.667h469.333c23.467 0 42.667 19.2 42.667 42.667s-19.2 42.667-42.667 42.667h-469.333c-23.467 0-42.667-19.2-42.667-42.667zM866.133 325.12l-122.88 122.88 122.88 122.88c16.64 16.64 16.64 43.52 0 60.16s-43.52 16.64-60.16 0l-153.173-153.173c-16.64-16.64-16.64-43.52 0-60.16l153.173-153.173c16.64-16.64 43.52-16.64 60.16 0 16.213 16.64 16.64 43.947 0 60.587z" />
<glyph unicode="&#xe908;" glyph-name="tune" d="M128 192c0-23.467 19.2-42.667 42.667-42.667h213.333v85.333h-213.333c-23.467 0-42.667-19.2-42.667-42.667zM128 704c0-23.467 19.2-42.667 42.667-42.667h384v85.333h-384c-23.467 0-42.667-19.2-42.667-42.667zM554.667 106.667v42.667h298.667c23.467 0 42.667 19.2 42.667 42.667s-19.2 42.667-42.667 42.667h-298.667v42.667c0 23.467-19.2 42.667-42.667 42.667s-42.667-19.2-42.667-42.667v-170.667c0-23.467 19.2-42.667 42.667-42.667s42.667 19.2 42.667 42.667zM298.667 533.333v-42.667h-128c-23.467 0-42.667-19.2-42.667-42.667s19.2-42.667 42.667-42.667h128v-42.667c0-23.467 19.2-42.667 42.667-42.667s42.667 19.2 42.667 42.667v170.667c0 23.467-19.2 42.667-42.667 42.667s-42.667-19.2-42.667-42.667zM896 448c0 23.467-19.2 42.667-42.667 42.667h-384v-85.333h384c23.467 0 42.667 19.2 42.667 42.667zM682.667 576c23.467 0 42.667 19.2 42.667 42.667v42.667h128c23.467 0 42.667 19.2 42.667 42.667s-19.2 42.667-42.667 42.667h-128v42.667c0 23.467-19.2 42.667-42.667 42.667s-42.667-19.2-42.667-42.667v-170.667c0-23.467 19.2-42.667 42.667-42.667z" />
<glyph unicode="&#xe909;" glyph-name="cancel" d="M512 874.667c-235.947 0-426.667-190.72-426.667-426.667s190.72-426.667 426.667-426.667c235.947 0 426.667 190.72 426.667 426.667s-190.72 426.667-426.667 426.667zM695.467 264.533c-16.64-16.64-43.52-16.64-60.16 0l-123.307 123.307-123.307-123.307c-16.64-16.64-43.52-16.64-60.16 0s-16.64 43.52 0 60.16l123.307 123.307-123.307 123.307c-16.64 16.64-16.64 43.52 0 60.16s43.52 16.64 60.16 0l123.307-123.307 123.307 123.307c16.64 16.64 43.52 16.64 60.16 0s16.64-43.52 0-60.16l-123.307-123.307 123.307-123.307c16.213-16.213 16.213-43.52 0-60.16z" />
<glyph unicode="&#xe90a;" glyph-name="content_copy" d="M640 917.333h-469.333c-46.933 0-85.333-38.4-85.333-85.333v-554.667c0-23.467 19.2-42.667 42.667-42.667s42.667 19.2 42.667 42.667v512c0 23.467 19.2 42.667 42.667 42.667h426.667c23.467 0 42.667 19.2 42.667 42.667s-19.2 42.667-42.667 42.667zM810.667 746.667h-469.333c-46.933 0-85.333-38.4-85.333-85.333v-597.333c0-46.933 38.4-85.333 85.333-85.333h469.333c46.933 0 85.333 38.4 85.333 85.333v597.333c0 46.933-38.4 85.333-85.333 85.333zM768 64h-384c-23.467 0-42.667 19.2-42.667 42.667v512c0 23.467 19.2 42.667 42.667 42.667h384c23.467 0 42.667-19.2 42.667-42.667v-512c0-23.467-19.2-42.667-42.667-42.667z" />
<glyph unicode="&#xe90b;" glyph-name="pin_drop" d="M256 106.667h512c23.467 0 42.667-19.2 42.667-42.667s-19.2-42.667-42.667-42.667h-512c-23.467 0-42.667 19.2-42.667 42.667s19.2 42.667 42.667 42.667zM512 661.333c-46.933 0-85.333-38.4-85.333-85.333s38.4-85.333 85.333-85.333c22.63 0 44.335 8.99 60.339 24.994s24.994 37.708 24.994 60.339c0 22.632-8.99 44.337-24.994 60.34s-37.709 24.994-60.339 24.994zM512 874.667c139.52 0 298.667-104.96 298.667-305.067 0-127.147-90.88-261.12-272.64-400.64-15.36-11.947-36.693-11.947-52.053 0-181.76 139.947-272.64 273.493-272.64 400.64 0 200.107 159.147 305.067 298.667 305.067z" />
<glyph unicode="&#xe90c;" glyph-name="delete" d="M256 149.333c0-46.933 38.4-85.333 85.333-85.333h341.333c46.933 0 85.333 38.4 85.333 85.333v426.667c0 46.933-38.4 85.333-85.333 85.333h-341.333c-46.933 0-85.333-38.4-85.333-85.333v-426.667zM768 789.333h-106.667l-30.293 30.293c-7.68 7.68-18.773 12.373-29.867 12.373h-178.347c-11.093 0-22.187-4.693-29.867-12.373l-30.293-30.293h-106.667c-23.467 0-42.667-19.2-42.667-42.667s19.2-42.667 42.667-42.667h512c23.467 0 42.667 19.2 42.667 42.667s-19.2 42.667-42.667 42.667z" />
<glyph unicode="&#xe90d;" glyph-name="expand_less" d="M481.707 588.373l-195.84-195.84c-16.64-16.64-16.64-43.52 0-60.16s43.52-16.64 60.16 0l165.973 165.547 165.547-165.547c16.64-16.64 43.52-16.64 60.16 0s16.64 43.52 0 60.16l-195.84 195.84c-16.213 16.64-43.52 16.64-60.16 0z" />
<glyph unicode="&#xe90e;" glyph-name="expand_more" d="M677.547 563.627l-165.547-165.547-165.547 165.547c-16.64 16.64-43.52 16.64-60.16 0s-16.64-43.52 0-60.16l195.84-195.84c16.64-16.64 43.52-16.64 60.16 0l195.84 195.84c16.64 16.64 16.64 43.52 0 60.16-16.64 16.213-43.947 16.64-60.587 0z" />
<glyph unicode="&#xe90f;" glyph-name="more_horiz" d="M256 533.333c-46.933 0-85.333-38.4-85.333-85.333s38.4-85.333 85.333-85.333c46.933 0 85.333 38.4 85.333 85.333s-38.4 85.333-85.333 85.333zM768 533.333c-46.933 0-85.333-38.4-85.333-85.333s38.4-85.333 85.333-85.333c46.933 0 85.333 38.4 85.333 85.333s-38.4 85.333-85.333 85.333zM512 533.333c-46.933 0-85.333-38.4-85.333-85.333s38.4-85.333 85.333-85.333c46.933 0 85.333 38.4 85.333 85.333s-38.4 85.333-85.333 85.333z" />
<glyph unicode="&#xe910;" glyph-name="more_vert" d="M512 618.667c46.933 0 85.333 38.4 85.333 85.333s-38.4 85.333-85.333 85.333c-46.933 0-85.333-38.4-85.333-85.333s38.4-85.333 85.333-85.333zM512 533.333c-46.933 0-85.333-38.4-85.333-85.333s38.4-85.333 85.333-85.333c46.933 0 85.333 38.4 85.333 85.333s-38.4 85.333-85.333 85.333zM512 277.333c-46.933 0-85.333-38.4-85.333-85.333s38.4-85.333 85.333-85.333c46.933 0 85.333 38.4 85.333 85.333s-38.4 85.333-85.333 85.333z" />
<glyph unicode="&#xe911;" glyph-name="book" d="M768 874.667h-512c-46.933 0-85.333-38.4-85.333-85.333v-682.667c0-46.933 38.4-85.333 85.333-85.333h512c46.933 0 85.333 38.4 85.333 85.333v682.667c0 46.933-38.4 85.333-85.333 85.333zM256 789.333h213.333v-341.333l-106.667 64-106.667-64v341.333z" />
<glyph unicode="&#xe912;" glyph-name="calendar" d="M853.333 832h-42.667v42.667c0 23.467-19.2 42.667-42.667 42.667s-42.667-19.2-42.667-42.667v-42.667h-426.667v42.667c0 23.467-19.2 42.667-42.667 42.667s-42.667-19.2-42.667-42.667v-42.667h-42.667c-46.933 0-85.333-38.4-85.333-85.333v-682.667c0-46.933 38.4-85.333 85.333-85.333h682.667c46.933 0 85.333 38.4 85.333 85.333v682.667c0 46.933-38.4 85.333-85.333 85.333zM810.667 64h-597.333c-23.467 0-42.667 19.2-42.667 42.667v512h682.667v-512c0-23.467-19.2-42.667-42.667-42.667z" />
<glyph unicode="&#xe913;" glyph-name="filter_alt" d="M181.333 720.64c98.987-127.147 245.333-315.307 245.333-315.307v-213.333c0-46.933 38.4-85.333 85.333-85.333s85.333 38.4 85.333 85.333v213.333c0 0 146.347 188.16 245.333 315.307 21.76 28.16 1.707 68.693-34.133 68.693h-593.493c-35.413 0-55.467-40.533-33.707-68.693z" />
<glyph unicode="&#xe914;" glyph-name="help_outline" d="M512 874.667c-235.52 0-426.667-191.147-426.667-426.667s191.147-426.667 426.667-426.667c235.52 0 426.667 191.147 426.667 426.667s-191.147 426.667-426.667 426.667zM512 106.667c-188.16 0-341.333 153.173-341.333 341.333s153.173 341.333 341.333 341.333c188.16 0 341.333-153.173 341.333-341.333s-153.173-341.333-341.333-341.333zM469.333 277.333h85.333v-85.333h-85.333v85.333zM538.027 702.293c-87.893 12.8-165.547-41.387-189.013-119.040-7.68-24.747 11.093-49.92 37.12-49.92h8.533c17.493 0 31.573 12.373 37.547 28.587 13.653 37.973 54.187 64 98.133 54.613 40.533-8.533 70.4-48.213 66.987-89.6-4.267-57.173-69.12-69.547-104.533-122.88 0-0.427-0.427-0.427-0.427-0.853-0.427-0.853-0.853-1.28-1.28-2.133-3.84-6.4-7.68-13.653-10.667-21.333-0.427-1.28-1.28-2.133-1.707-3.413-0.427-0.853-0.427-1.707-0.853-2.987-5.12-14.507-8.533-32-8.533-53.333h85.333c0 17.92 4.693 32.853 11.947 45.653 0.853 1.28 1.28 2.56 2.133 3.84 3.413 5.973 7.68 11.52 11.947 16.64 0.427 0.427 0.853 1.28 1.28 1.707 4.267 5.12 8.96 9.813 14.080 14.507 40.96 38.827 96.427 70.4 84.907 151.893-10.24 74.24-68.693 136.96-142.933 148.053z" />
<glyph unicode="&#xe915;" glyph-name="info_outline" d="M469.333 661.333h85.333v-85.333h-85.333v85.333zM512 234.667c23.467 0 42.667 19.2 42.667 42.667v170.667c0 23.467-19.2 42.667-42.667 42.667s-42.667-19.2-42.667-42.667v-170.667c0-23.467 19.2-42.667 42.667-42.667zM512 874.667c-235.52 0-426.667-191.147-426.667-426.667s191.147-426.667 426.667-426.667c235.52 0 426.667 191.147 426.667 426.667s-191.147 426.667-426.667 426.667zM512 106.667c-188.16 0-341.333 153.173-341.333 341.333s153.173 341.333 341.333 341.333c188.16 0 341.333-153.173 341.333-341.333s-153.173-341.333-341.333-341.333z" />
<glyph unicode="&#xe916;" glyph-name="language" d="M511.573 874.667c-235.52 0-426.24-191.147-426.24-426.667s190.72-426.667 426.24-426.667c235.947 0 427.093 191.147 427.093 426.667s-191.147 426.667-427.093 426.667zM807.253 618.667h-125.867c-13.653 53.333-33.28 104.533-58.88 151.893 78.507-26.88 143.787-81.493 184.747-151.893zM512 787.627c35.413-51.2 63.147-107.947 81.493-168.96h-162.987c18.347 61.013 46.080 117.76 81.493 168.96zM181.76 362.667c-6.827 27.307-11.093 55.893-11.093 85.333s4.267 58.027 11.093 85.333h144.213c-3.413-28.16-5.973-56.32-5.973-85.333s2.56-57.173 5.973-85.333h-144.213zM216.747 277.333h125.867c13.653-53.333 33.28-104.533 58.88-151.893-78.507 26.88-143.787 81.067-184.747 151.893zM342.613 618.667h-125.867c40.96 70.827 106.24 125.013 184.747 151.893-25.6-47.36-45.227-98.56-58.88-151.893zM512 108.373c-35.413 51.2-63.147 107.947-81.493 168.96h162.987c-18.347-61.013-46.080-117.76-81.493-168.96zM611.84 362.667h-199.68c-3.84 28.16-6.827 56.32-6.827 85.333s2.987 57.6 6.827 85.333h199.68c3.84-27.733 6.827-56.32 6.827-85.333s-2.987-57.173-6.827-85.333zM622.507 125.44c25.6 47.36 45.227 98.56 58.88 151.893h125.867c-40.96-70.4-106.24-125.013-184.747-151.893zM698.027 362.667c3.413 28.16 5.973 56.32 5.973 85.333s-2.56 57.173-5.973 85.333h144.213c6.827-27.307 11.093-55.893 11.093-85.333s-4.267-58.027-11.093-85.333h-144.213z" />
<glyph unicode="&#xe917;" glyph-name="search" d="M661.333 362.667h-33.707l-11.947 11.52c51.2 59.733 77.653 141.227 63.147 227.839-20.053 118.613-119.040 213.333-238.507 227.84-180.48 22.187-332.373-129.706-310.187-310.186 14.507-119.467 109.227-218.453 227.84-238.507 86.613-14.507 168.107 11.947 227.84 63.147l11.52-11.947v-33.707l181.333-181.333c17.493-17.493 46.080-17.493 63.573 0s17.493 46.080 0 63.573l-180.907 181.76zM405.333 362.667c-106.24 0-192 85.76-192 191.999s85.76 192 192 192c106.24 0 192-85.76 192-192s-85.76-191.999-192-191.999z" />
<glyph unicode="&#xe918;" glyph-name="settings" d="M829.013 406.187c1.707 13.653 2.987 27.307 2.987 41.813s-1.28 28.16-2.987 41.813l90.027 70.4c8.107 6.4 10.24 17.92 5.12 27.307l-85.333 147.627c-5.12 9.387-16.64 12.8-26.027 9.387l-106.24-42.667c-22.187 17.067-46.080 31.147-72.107 41.813l-16.213 113.067c-1.28 10.24-10.24 17.92-20.907 17.92h-170.667c-10.666 0-19.626-7.68-20.906-17.92l-16.213-113.067c-26.027-10.667-49.92-25.173-72.107-41.813l-106.24 42.667c-9.813 3.84-20.907 0-26.027-9.387l-85.333-147.627c-5.547-9.387-2.987-20.907 5.12-27.307l90.027-70.4c-1.707-13.653-2.987-27.733-2.987-41.813s1.28-28.16 2.987-41.813l-90.027-70.4c-8.107-6.4-10.24-17.92-5.12-27.307l85.333-147.627c5.12-9.387 16.64-12.8 26.027-9.387l106.24 42.667c22.187-17.067 46.080-31.147 72.107-41.813l16.213-113.067c1.28-10.24 10.24-17.92 20.906-17.92h170.667c10.667 0 19.627 7.68 20.907 17.92l16.213 113.067c26.027 10.667 49.92 25.173 72.107 41.813l106.24-42.667c9.813-3.84 20.907 0 26.027 9.387l85.333 147.627c5.12 9.387 2.987 20.907-5.12 27.307l-90.027 70.4zM512 298.667c-82.347 0-149.333 66.987-149.333 149.333s66.986 149.333 149.333 149.333c82.347 0 149.333-66.987 149.333-149.333s-66.987-149.333-149.333-149.333z" />
<glyph unicode="&#xe919;" glyph-name="swap_vert" d="M682.667 234.24v256.427c0 23.467-19.2 42.667-42.667 42.667s-42.667-19.2-42.667-42.667v-256.427h-76.373c-19.2 0-28.587-23.040-14.933-36.267l119.040-118.613c8.533-8.107 21.76-8.107 30.293 0l119.040 118.613c13.653 13.227 3.84 36.267-14.933 36.267h-76.8zM369.067 817.067l-119.040-119.040c-13.653-13.227-4.267-36.267 14.933-36.267h76.373v-256.427c0-23.467 19.2-42.667 42.667-42.667s42.667 19.2 42.667 42.667v256.427h76.373c19.2 0 28.587 23.040 14.933 36.267l-119.040 119.040c-8.107 8.107-21.76 8.107-29.867 0z" />
<glyph unicode="&#xe91a;" glyph-name="warning" d="M190.72 64h642.56c65.707 0 106.667 71.253 73.813 128l-321.28 555.094c-32.853 56.747-114.773 56.747-147.627 0l-321.28-555.094c-32.853-56.747 8.107-128 73.813-128zM512 362.667c-23.467 0-42.667 19.2-42.667 42.667v85.333c0 23.467 19.2 42.667 42.667 42.667s42.667-19.2 42.667-42.667v-85.333c0-23.467-19.2-42.667-42.667-42.667zM554.667 192h-85.333v85.333h85.333v-85.333z" />
</font>
</defs>
</svg>
