<?xml version="1.0" standalone="no"?>
<!DOCTYPE svg PUBLIC "-//W3C//DTD SVG 1.1//EN" "http://www.w3.org/Graphics/SVG/1.1/DTD/svg11.dtd" >
<svg>
<metadata>
Created by FontForge 20090622 at Mon Oct 15 13:07:51 2018
 By deploy user
&#194;&#169; 2015 Microsoft Corporation. All Rights Reserved.
</metadata>
<defs>
<font id="Shruti-Bold" horiz-adv-x="1538" >
  <font-face 
    font-family="Shruti"
    font-weight="700"
    font-stretch="normal"
    units-per-em="2048"
    panose-1="2 11 8 2 4 2 4 2 2 3"
    ascent="1638"
    descent="-410"
    x-height="981"
    cap-height="1356"
    bbox="-1262 -1178 3170 2168"
    underline-thickness="64"
    underline-position="-288"
    unicode-range="U+000D-U+25CC"
  />
<missing-glyph horiz-adv-x="1024" 
d="M128 0v1320h768v-1320h-768zM256 128h512v1064h-512v-1064z" />
    <glyph glyph-name=".notdef" horiz-adv-x="1024" 
d="M128 0v1320h768v-1320h-768zM256 128h512v1064h-512v-1064z" />
    <glyph glyph-name="uni200B" unicode="&#x200b;" horiz-adv-x="0" 
 />
    <glyph glyph-name="uni000D" unicode="&#xd;" horiz-adv-x="796" 
 />
    <glyph glyph-name="space" unicode=" " horiz-adv-x="796" 
 />
    <glyph glyph-name="space" unicode="&#xa0;" horiz-adv-x="796" 
 />
    <glyph glyph-name="exclam" unicode="!" horiz-adv-x="547" 
d="M391 0h-233v219h233v-219zM391 1073l-37 -706h-161l-35 706v283h233v-283z" />
    <glyph glyph-name="quotedbl" unicode="&#x22;" horiz-adv-x="735" 
d="M659 1319l-45 -465h-135l-47 465v37h227v-37zM303 1319l-45 -465h-135l-47 465v37h227v-37z" />
    <glyph glyph-name="numbersign" unicode="#" horiz-adv-x="1092" 
d="M190 367h-161v149h192l68 322h-185v147h213l76 371h152l-76 -371h276l76 371h152l-76 -371h164v-147h-193l-67 -322h184v-149h-215l-74 -367h-151l73 367h-276l-74 -367h-151zM373 516h276l68 322h-277z" />
    <glyph glyph-name="percent" unicode="%" horiz-adv-x="1692" 
d="M424 1378q74 0 133.5 -25t101 -71.5t64 -112.5t22.5 -149q0 -84 -22.5 -150.5t-64 -113.5t-101 -72t-133.5 -25q-73 0 -132 25t-101 72t-64.5 113.5t-22.5 150.5q0 83 22.5 149t64.5 112.5t101 71.5t132 25zM424 788q75 0 111 58.5t36 173.5q0 114 -36 171.5t-111 57.5
q-145 0 -145 -229q0 -115 35.5 -173.5t109.5 -58.5zM1313 1356l-787 -1356h-147l784 1356h150zM1266 696q73 0 132 -25t101 -71.5t65 -112.5t23 -149q0 -84 -23 -150.5t-65 -113.5t-101 -72t-132 -25t-132 25t-101 71.5t-64.5 113.5t-22.5 151t22.5 150.5t64.5 112.5
t101 70.5t132 24.5zM1266 106q75 0 111 58.5t36 173.5q0 114 -36 171.5t-111 57.5q-146 0 -146 -229q0 -115 35.5 -173.5t110.5 -58.5z" />
    <glyph glyph-name="ampersand" unicode="&#x26;" horiz-adv-x="1292" 
d="M78 377q0 64 19 119t57.5 102.5t95.5 90t133 83.5q-68 88 -100.5 156.5t-32.5 136.5q0 77 29 135.5t78 98t113.5 59.5t135.5 20q73 0 134.5 -21.5t106.5 -60.5t70 -94t25 -123q0 -53 -15.5 -98.5t-48.5 -87t-83 -80.5t-119 -78l248 -301q17 47 27 98.5t12 110.5h211
q-7 -106 -34 -199t-73 -174l133 -157l-156 -138l-116 138q-81 -70 -178.5 -103t-219.5 -33q-98 0 -181 27.5t-143 79t-94 125.5t-34 168zM541 152q164 0 266 102l-315 383q-50 -32 -86.5 -60t-59.5 -57t-34 -60.5t-11 -70.5q0 -49 17.5 -92t49 -75.5t76 -51t97.5 -18.5z
M457 1081q0 -42 18 -78.5t53 -84.5l39 -52q45 24 77 47.5t52.5 49t29.5 53.5t9 61q0 32 -10.5 59t-29.5 46.5t-44 30t-53 10.5q-30 0 -56 -10t-44.5 -28.5t-29.5 -45t-11 -58.5z" />
    <glyph glyph-name="quotesingle" unicode="'" horiz-adv-x="391" 
d="M309 1319l-45 -465h-135l-47 465v37h227v-37z" />
    <glyph glyph-name="parenleft" unicode="(" horiz-adv-x="672" 
d="M438 -397q-167 214 -246 435.5t-79 453.5q0 230 80 451t247 435h170q-138 -223 -207 -442.5t-69 -443.5q0 -227 69 -446.5t207 -442.5h-172z" />
    <glyph glyph-name="parenright" unicode=")" horiz-adv-x="672" 
d="M233 1378q166 -214 246 -435t80 -451q0 -232 -80 -453.5t-246 -435.5h-170q137 223 207 442.5t70 446.5q0 224 -70 443.5t-207 442.5h170z" />
    <glyph glyph-name="asterisk" unicode="*" horiz-adv-x="758" 
d="M434 1143l213 92l49 -143l-229 -52l158 -180l-127 -90l-121 203l-119 -203l-127 90l158 180l-230 52l47 143l216 -92l-21 235h154z" />
    <glyph glyph-name="plus" unicode="+" horiz-adv-x="1106" 
d="M643 1122v-364h363v-180h-363v-363h-180v363h-363v180h363v364h180z" />
    <glyph glyph-name="comma" unicode="," horiz-adv-x="547" 
d="M391 2q0 -71 -16 -125.5t-46 -91.5t-72.5 -55.5t-94.5 -18.5v111q57 0 81.5 44t24.5 134h-110v227h233v-225z" />
    <glyph glyph-name="hyphen" unicode="-" horiz-adv-x="655" 
d="M590 416h-524v172h524v-172z" />
    <glyph glyph-name="period" unicode="." horiz-adv-x="547" 
d="M391 0h-233v227h233v-227z" />
    <glyph glyph-name="slash" unicode="/" horiz-adv-x="567" 
d="M567 1356l-393 -1356h-174l391 1356h176z" />
    <glyph glyph-name="zero" unicode="0" horiz-adv-x="1092" 
d="M545 1378q235 0 350 -176.5t115 -525.5q0 -347 -115 -523t-350 -176q-234 0 -348.5 175t-114.5 524q0 351 114 526.5t349 175.5zM545 147q63 0 108 29.5t74.5 93t43 164t13.5 242.5q0 143 -14.5 243.5t-43.5 164.5t-74.5 93t-106.5 29q-62 0 -107 -29t-74 -93t-43 -164.5
t-14 -243.5q0 -142 13.5 -242.5t42 -164t73.5 -93t109 -29.5z" />
    <glyph glyph-name="one" unicode="1" horiz-adv-x="1092" 
d="M756 0h-219v1040q-30 -19 -63 -33.5t-72 -24t-85.5 -14.5t-103.5 -5v170q166 0 257.5 61t117.5 184h168v-1378z" />
    <glyph glyph-name="two" unicode="2" horiz-adv-x="1092" 
d="M997 0h-942q0 68 21 130.5t64.5 125t111 127.5t160.5 139l164.5 137t110 111t62 103.5t19.5 113.5q0 103 -59.5 161t-165.5 58q-48 0 -89 -15t-72.5 -45t-51 -74.5t-23.5 -102.5h-219q9 94 44.5 169.5t94.5 128.5t140 82t182 29q104 0 186 -28.5t139 -80t87 -122.5
t30 -156q0 -79 -23 -145t-72 -131t-124.5 -135.5t-181.5 -157.5q-105 -85 -161 -141.5t-62 -85.5h630v-195z" />
    <glyph glyph-name="three" unicode="3" horiz-adv-x="1092" 
d="M760 741q61 -17 109 -49t81 -75.5t50.5 -98t17.5 -115.5q0 -93 -32.5 -171.5t-94 -135t-149 -88t-197.5 -31.5q-100 0 -181.5 24t-144.5 77q-134 107 -143 293h219q1 -46 17 -87t47 -71.5t77 -48t107 -17.5q57 0 103.5 19t79.5 52.5t51 80.5t18 104q0 116 -71.5 177
t-205.5 61h-72v164h46q115 0 174 50t59 159q0 96 -51.5 145t-145.5 49q-97 0 -149.5 -50.5t-65.5 -153.5h-217q10 92 46 162t92.5 117t131.5 71t162 24q101 0 176.5 -24t131.5 -74q114 -103 114 -260q0 -44 -11.5 -85.5t-34.5 -77.5t-59 -66t-85 -50z" />
    <glyph glyph-name="four" unicode="4" horiz-adv-x="1092" 
d="M1010 315h-181v-315h-213v315h-585v177l606 882h192v-880h181v-179zM616 494v120v228.5t2 230.5l-393 -579h391z" />
    <glyph glyph-name="five" unicode="5" horiz-adv-x="1092" 
d="M340 825q51 39 114 57.5t138 18.5q91 0 169 -30.5t135 -87.5t89.5 -138.5t32.5 -183.5q0 -106 -31.5 -195t-93 -153t-151.5 -100t-207 -36q-95 0 -175.5 24.5t-141.5 74t-99 122.5t-47 171h219q7 -57 28.5 -99t53.5 -69t72.5 -40.5t86.5 -13.5q64 0 113 24t82.5 64.5
t50.5 94.5t17 114q0 65 -19 116.5t-54 87t-84 54.5t-108 19q-71 0 -128.5 -24t-106.5 -72h-166l59 731h758v-191h-577z" />
    <glyph glyph-name="six" unicode="6" horiz-adv-x="1092" 
d="M305 750q65 69 141 102t162 33q96 0 171.5 -34t128 -93t80.5 -139.5t28 -174.5q0 -96 -29.5 -181t-86.5 -148.5t-141 -100.5t-194 -37q-118 0 -208.5 44t-151.5 128t-92 207.5t-31 282.5q0 365 123 552t375 187q82 0 151 -22t121.5 -65.5t86.5 -107.5t46 -149h-221
q-24 174 -195 174q-115 0 -183 -116t-81 -342zM301 590q5 -217 72.5 -330t189.5 -113q58 0 101.5 25t72 65.5t42.5 92.5t14 106q0 65 -17.5 117t-48.5 88t-74 55t-94 19q-69 0 -132 -31.5t-126 -93.5z" />
    <glyph glyph-name="seven" unicode="7" horiz-adv-x="1092" 
d="M1006 1204l-492 -1204h-235l505 1165h-694v191h916v-152z" />
    <glyph glyph-name="eight" unicode="8" horiz-adv-x="1092" 
d="M731 713q143 -63 213 -149.5t70 -201.5q0 -91 -34.5 -162.5t-96.5 -121t-148.5 -75.5t-189.5 -26q-100 0 -185.5 25t-148 73.5t-98 120.5t-35.5 166q0 115 70 201.5t212 149.5q-120 65 -174.5 146t-54.5 181q0 81 33 144t89.5 106t131.5 65.5t160 22.5q87 0 162.5 -22.5
t132 -65.5t89 -106.5t32.5 -145.5q0 -200 -230 -325zM545 797q97 43 148.5 102t51.5 133q0 87 -52 134.5t-148 47.5t-148.5 -47.5t-52.5 -134.5q0 -74 52 -133t149 -102zM788 367q0 40 -14 74.5t-43 64.5t-75.5 58t-110.5 57q-123 -57 -182.5 -115t-59.5 -139
q0 -53 17 -94.5t48.5 -71t76 -45t100.5 -15.5q55 0 100 15.5t76.5 45t49 71t17.5 94.5z" />
    <glyph glyph-name="nine" unicode="9" horiz-adv-x="1092" 
d="M788 606q-132 -135 -299 -135q-91 0 -167 31.5t-130.5 89t-85 138.5t-30.5 179q0 97 30 182t87.5 149t141.5 101t191 37q118 0 208.5 -43.5t152 -127t92.5 -206.5t31 -282q0 -368 -124 -555t-376 -187q-85 0 -157 22t-126.5 65t-89 107.5t-45.5 150.5h221
q25 -175 201 -175q59 0 107 30.5t82.5 89t56 144t28.5 195.5zM791 768q-2 106 -20.5 188t-52 138t-81.5 85t-109 29q-57 0 -99.5 -23.5t-71.5 -63t-43.5 -91t-14.5 -108.5q0 -63 17 -114.5t47.5 -88t73.5 -56.5t95 -20q134 0 259 125z" />
    <glyph glyph-name="colon" unicode=":" horiz-adv-x="547" 
d="M391 0h-233v227h233v-227zM391 754h-233v227h233v-227z" />
    <glyph glyph-name="semicolon" unicode=";" horiz-adv-x="547" 
d="M391 2q0 -71 -16 -125.5t-46 -91.5t-72.5 -55.5t-94.5 -18.5v111q57 0 81.5 44t24.5 134h-110v227h233v-225zM391 754h-233v227h233v-227z" />
    <glyph glyph-name="less" unicode="&#x3c;" horiz-adv-x="1106" 
d="M1006 205l-906 379v170l906 379v-187l-680 -276l680 -279v-186z" />
    <glyph glyph-name="equal" unicode="=" horiz-adv-x="1106" 
d="M1006 973v-178h-906v178h906zM1006 543v-181h-906v181h906z" />
    <glyph glyph-name="greater" unicode="&#x3e;" horiz-adv-x="1106" 
d="M100 1133l906 -379v-170l-906 -379v186l680 277l-680 278v187z" />
    <glyph glyph-name="question" unicode="?" horiz-adv-x="1077" 
d="M432 365q0 69 7.5 120t23.5 91.5t40.5 72.5t59.5 64l64 57l60 56.5t43 50t25.5 52t8.5 62.5q0 48 -16 88t-46 68t-72 43.5t-93 15.5q-104 0 -164 -59t-78 -174h-213q7 94 43.5 169.5t97 127.5t140.5 80t174 28q99 0 182 -27t143 -76t93.5 -119t33.5 -155
q0 -47 -9.5 -88.5t-30.5 -81t-55 -78.5t-83 -79q-52 -43 -85 -73.5t-52.5 -62t-27.5 -71t-9 -102.5h-205zM655 0h-231v217h231v-217z" />
    <glyph glyph-name="at" unicode="@" horiz-adv-x="1755" 
d="M1360 -197q-94 -40 -191.5 -57.5t-214.5 -17.5q-205 0 -366.5 53t-274 153t-172 244t-59.5 326q0 125 29 239.5t83 212.5t131 177.5t171.5 135.5t205 86.5t232.5 30.5q169 0 305.5 -51t233.5 -141t149.5 -212.5t52.5 -264.5q0 -146 -37 -261t-103 -194.5t-156.5 -121.5
t-196.5 -42q-36 0 -67 11t-54.5 30t-37.5 45t-17 56q-57 -68 -129 -105t-152 -37q-68 0 -125.5 23.5t-98.5 69t-64 111t-23 149.5q0 124 36 230t98.5 183.5t145.5 121.5t176 44q82 0 143 -27t109 -79l19 82h159l-129 -574l-15.5 -75.5t-6.5 -55.5q0 -29 13 -45t42 -16
q67 0 127 32.5t105 93.5t71.5 149.5t26.5 199.5q0 116 -45 214t-124.5 169.5t-190 112t-240.5 40.5q-156 0 -287 -58t-225.5 -159t-147.5 -237t-53 -293q0 -153 50 -272.5t144 -202t229.5 -125.5t307.5 -43q106 0 194 16.5t163 48.5zM1087 795q-35 40 -88 68t-129 28
q-56 0 -107.5 -34.5t-90.5 -93.5t-62.5 -138t-23.5 -168q0 -217 172 -217q45 0 87 18.5t76.5 53t60.5 83t40 109.5z" />
    <glyph glyph-name="bracketleft" unicode="[" horiz-adv-x="571" 
d="M543 -377h-418v1733h418v-166h-199v-1401h199v-166z" />
    <glyph glyph-name="backslash" unicode="\" horiz-adv-x="567" 
d="M172 1356l395 -1356h-176l-391 1356h172z" />
    <glyph glyph-name="bracketright" unicode="]" horiz-adv-x="571" 
d="M29 -211h198v1401h-198v166h417v-1733h-417v166z" />
    <glyph glyph-name="asciicircum" unicode="^" horiz-adv-x="928" 
d="M463 1163l-201 -399h-199l324 592h154l319 -592h-194z" />
    <glyph glyph-name="underscore" unicode="_" horiz-adv-x="1047" 
d="M1057 -297h-1069v113h1069v-113z" />
    <glyph glyph-name="braceleft" unicode="{" horiz-adv-x="672" 
d="M242 494q68 -23 110 -59.5t65 -88t30.5 -119.5t7.5 -155q0 -108 4.5 -167.5t20 -88.5t44.5 -35t78 -6h27v-172h-56q-59 0 -112 5.5t-95.5 26t-73 59.5t-44.5 107q-11 53 -14 105.5t-3 103.5v119q0 64 -5.5 114.5t-25 85.5t-56 53.5t-97.5 18.5v177q61 0 98 21.5t56.5 62
t25.5 99t6 132.5v96q0 45 3 89.5t12 86.5q15 67 46 108.5t73 64.5t94.5 31.5t111.5 8.5h56v-172h-41q-44 0 -70 -7.5t-40 -37t-18.5 -89t-4.5 -163.5q0 -101 -13 -173t-39.5 -120.5t-66.5 -77.5t-94 -44z" />
    <glyph glyph-name="bar" unicode="|" horiz-adv-x="510" 
d="M344 -397h-180v1757h180v-1757z" />
    <glyph glyph-name="braceright" unicode="}" horiz-adv-x="672" 
d="M430 494q-54 15 -94 44t-66.5 77.5t-39.5 120.5t-13 173q0 104 -4.5 163.5t-18.5 89t-40 37t-70 7.5h-41v172h55q59 0 111.5 -8.5t95 -31.5t73.5 -64.5t46 -108.5q9 -42 11.5 -86.5t2.5 -89.5v-96q0 -74 6 -132.5t26 -99t56.5 -62t98.5 -21.5v-177q-62 0 -98.5 -18.5
t-55.5 -53.5t-25 -85.5t-6 -114.5v-119q0 -51 -2.5 -103.5t-13.5 -105.5q-14 -68 -44.5 -107t-73 -59.5t-96 -26t-112.5 -5.5h-55v172h27q49 0 78 6t44.5 35t20 88.5t4.5 167.5q0 87 7.5 155t30.5 119.5t65 88t110 59.5z" />
    <glyph glyph-name="asciitilde" unicode="~" horiz-adv-x="1106" 
d="M1026 633q-98 -111 -256 -111q-49 0 -109.5 16t-130.5 48q-69 31 -120.5 46t-90.5 15q-118 0 -237 -125v187q49 54 113 82t143 28q51 0 109.5 -16t127.5 -47q72 -31 123.5 -46.5t89.5 -15.5q60 0 119 30t119 95v-186z" />
    <glyph glyph-name="ellipsis" unicode="&#x2026;" horiz-adv-x="1640" 
d="M391 0h-233v227h233v-227zM938 0h-233v227h233v-227zM1485 0h-233v227h233v-227z" />
    <glyph glyph-name="endash" unicode="&#x2013;" horiz-adv-x="993" 
d="M926 416h-860v172h860v-172z" />
    <glyph glyph-name="emdash" unicode="&#x2014;" horiz-adv-x="1458" 
d="M1458 416h-1458v172h1458v-172z" />
    <glyph glyph-name="quoteleft" unicode="&#x2018;" horiz-adv-x="457" 
d="M113 1094q0 139 58.5 211.5t166.5 72.5v-102q-56 0 -81.5 -42.5t-25.5 -129.5h109v-213h-227v203z" />
    <glyph glyph-name="quoteright" unicode="&#x2019;" horiz-adv-x="457" 
d="M340 1157q0 -139 -57 -212t-166 -73v105q55 0 81.5 42t26.5 130h-112v211h227v-203z" />
    <glyph glyph-name="divide" unicode="&#xf7;" horiz-adv-x="1282" 
d="M1006 758v-180h-906v180h906zM670 190h-233v227h233v-227zM670 922h-233v227h233v-227z" />
    <glyph glyph-name="minus" unicode="&#x2212;" horiz-adv-x="1106" 
d="M1006 758v-180h-906v180h906z" />
    <glyph glyph-name="multiply" unicode="&#xd7;" horiz-adv-x="1106" 
d="M266 1081l287 -286l287 286l127 -127l-287 -284l287 -287l-127 -129l-287 287l-287 -287l-127 129l285 287l-285 284z" />
    <glyph glyph-name="uni0A81" unicode="&#xa81;" horiz-adv-x="0" 
d="M-137 1894q0 -81 -31.5 -153t-84 -125t-122 -84t-145.5 -31q-77 0 -146.5 31.5t-122 85t-83.5 125t-31 151.5h158q0 -47 19 -89t50.5 -74t72 -51t83.5 -19t83.5 18.5t72 50t50.5 74t19 90.5h158zM-401 1872q0 -25 -9.5 -46.5t-25.5 -37.5t-38 -25.5t-46 -9.5
q-25 0 -46.5 9.5t-37 25.5t-24.5 37.5t-9 46.5q0 23 9.5 44t25 37.5t37 26t45.5 9.5t46 -9t38 -25t25.5 -37.5t9.5 -45.5z" />
    <glyph glyph-name="uni0A82" unicode="&#xa82;" horiz-adv-x="0" 
d="M-385 1667q0 -28 -10.5 -52.5t-29 -43t-43 -29t-52.5 -10.5q-29 0 -53.5 10.5t-43.5 29t-29.5 43t-10.5 52.5t11 52.5t29.5 43.5t43.5 30t53 11q26 0 50.5 -10.5t43 -29t30 -43.5t11.5 -54z" />
    <glyph glyph-name="uni0A83" unicode="&#xa83;" horiz-adv-x="477" 
d="M346 375q0 -26 -10.5 -50t-29 -42t-42.5 -28.5t-51 -10.5q-26 0 -49.5 10.5t-41 28.5t-28 42t-10.5 50q0 27 10.5 51t28 42t41 29t49.5 11q27 0 51 -11t42.5 -29t29 -42t10.5 -51zM344 981q0 -26 -10.5 -50t-28 -42t-41.5 -28.5t-51 -10.5q-26 0 -50 10.5t-42 28.5
t-28.5 42t-10.5 50q0 27 10.5 51t28.5 42.5t42 29t50 10.5q27 0 51 -10.5t41.5 -29t28 -42.5t10.5 -51z" />
    <glyph glyph-name="uni0A85" unicode="&#xa85;" horiz-adv-x="1858" 
d="M1825 53q-42 -28 -81.5 -40.5t-76.5 -12.5q-154 0 -235 111t-81 317v16q-24 -12 -51.5 -17t-56.5 -5q-48 0 -89.5 13t-76.5 44q-26 -58 -67.5 -107t-92.5 -84t-109 -55t-118 -20q-81 0 -156 32.5t-133.5 87t-95.5 127t-41 152.5h-160v197h178q220 0 220 174
q0 37 -13 69.5t-35.5 57t-53 38.5t-66.5 14q-65 0 -125 -54l-136 148q63 54 128.5 78t134.5 24q70 0 135 -29t115.5 -80t81 -119.5t30.5 -146.5q0 -56 -17.5 -108.5t-49 -97t-75.5 -78.5t-97 -52q2 -48 20.5 -90.5t49 -74t72 -50t89.5 -18.5q109 0 170 76.5t61 220.5v340
h197v-246q0 -178 125 -178q57 0 82.5 43.5t25.5 134.5v553h199v-969q0 -192 117 -192q12 0 57 22z" />
    <glyph glyph-name="uni0A86" unicode="&#xa86;" horiz-adv-x="2378" 
d="M1825 53q-42 -28 -81.5 -40.5t-76.5 -12.5q-154 0 -235 111t-81 317v16q-24 -12 -51.5 -17t-56.5 -5q-48 0 -89.5 13t-76.5 44q-26 -58 -67.5 -107t-92.5 -84t-109 -55t-118 -20q-81 0 -156 32.5t-133.5 87t-95.5 127t-41 152.5h-160v197h178q220 0 220 174
q0 37 -13 69.5t-35.5 57t-53 38.5t-66.5 14q-65 0 -125 -54l-136 148q63 54 128.5 78t134.5 24q70 0 135 -29t115.5 -80t81 -119.5t30.5 -146.5q0 -56 -17.5 -108.5t-49 -97t-75.5 -78.5t-97 -52q2 -48 20.5 -90.5t49 -74t72 -50t89.5 -18.5q109 0 170 76.5t61 220.5v340
h197v-246q0 -178 125 -178q57 0 82.5 43.5t25.5 134.5v553h199v-969q0 -192 117 -192q12 0 57 22zM2387 51q-40 -26 -79.5 -38.5t-77.5 -12.5q-74 0 -133 28t-100 78.5t-63 121.5t-22 157v970h199v-970q0 -186 119 -186q19 0 55 18z" />
    <glyph glyph-name="uni0A87" unicode="&#xa87;" horiz-adv-x="1325" 
d="M676 674q-31 25 -60 36t-55 11q-44 0 -81.5 -20t-65.5 -53.5t-44 -77t-16 -89.5q0 -57 25 -108.5t68 -90.5t99.5 -62t118.5 -23q85 0 155 27.5t119 74.5t76 109.5t27 132.5q0 53 -20 108t-50 112t-65 115t-65 116.5t-50 116.5t-20 116q0 40 12 84.5t36.5 90.5t62 91.5
t88.5 87.5l120 -158q-127 -76 -127 -196q0 -48 20 -101.5t50 -110t65.5 -115.5t65.5 -119t50 -120t20 -118q0 -116 -43 -214.5t-119 -171.5t-180.5 -114t-227.5 -41q-100 0 -191.5 38.5t-161 104.5t-111 153t-41.5 185q0 153 106 277q-34 20 -61 49t-46 64t-29.5 73.5
t-10.5 77.5q0 69 25.5 130t69.5 106.5t104 72t128 26.5q69 0 144 -34l-78 -179q-20 10 -35.5 13.5t-28.5 3.5q-61 0 -98 -39t-37 -100q0 -23 8.5 -45.5t23 -41t35 -30.5t44.5 -14q51 22 125 22q135 0 229 -73z" />
    <glyph glyph-name="uni0A88" unicode="&#xa88;" 
d="M688 672q-32 25 -62 37t-55 12q-47 0 -85 -19t-64.5 -52.5t-41 -79t-14.5 -99.5q0 -57 26 -107t69.5 -87t101.5 -58.5t123 -21.5q91 0 165.5 33t127 88.5t81.5 129.5t29 156q0 68 -20.5 130.5t-49.5 124.5l-62 127t-58 139l-26 77t-21 69.5t-14 65.5t-5 65q0 76 24.5 141
t67.5 113t102.5 75t129.5 27q67 0 124 -25.5t99 -69t66 -101.5t24 -123q0 -82 -55 -176l-197 84q51 52 51 98q0 21 -9 42t-24.5 37t-35.5 26t-41 10q-127 0 -127 -158q0 -38 10 -86.5t27 -102.5t39.5 -109t48.5 -105l45.5 -92.5t40 -97.5t28.5 -101.5t11 -103.5
q0 -125 -43.5 -234.5t-122 -192t-188 -130t-242.5 -47.5q-106 0 -190.5 32t-164.5 101q-81 70 -120 153t-39 185q0 42 8 85t22 81.5t33 71t41 53.5q-145 91 -145 256q0 66 26.5 123t73.5 111q48 55 109.5 79.5t130.5 25.5q21 0 54.5 -8t78.5 -26l-78 -177q-23 8 -40 11.5
t-30 3.5q-25 0 -49 -9.5t-43 -36.5q-18 -26 -29.5 -48.5t-11.5 -48.5q0 -92 113 -127q57 20 119 20q57 0 114.5 -17t120.5 -52z" />
    <glyph glyph-name="uni0A89" unicode="&#xa89;" horiz-adv-x="1325" 
d="M803 854h-2q86 30 86 133q0 28 -12.5 52.5t-32.5 43.5t-46 30t-53 11q-56 0 -117 -55l-98 174q57 38 111 58t108 20q66 0 126.5 -27.5t107 -74t74.5 -107t28 -125.5q0 -60 -18.5 -114t-57.5 -105q43 -26 78.5 -62.5t60.5 -80t38.5 -92t13.5 -99.5q0 -99 -34 -179
t-96 -137t-148.5 -87.5t-192.5 -30.5q-107 0 -194.5 37t-156.5 100t-120 146t-85 174.5t-50.5 186.5t-16.5 181q0 104 18 211.5t55 208t93 188.5t132.5 153t173.5 103t216 38q134 0 245 -41.5t208 -126.5l-129 -148q-143 119 -324 119q-139 -4 -232 -61.5t-152 -178.5
q-60 -122 -85.5 -234.5t-25.5 -230.5q0 -66 11.5 -138t35 -142t59 -133.5t83.5 -111.5t108 -76.5t133 -28.5q62 0 112.5 16.5t86 47.5t54.5 75t19 100q0 43 -19 81.5t-50.5 67t-73 45.5t-86.5 17q-22 0 -47 -6.5t-54 -22.5l-88 183z" />
    <glyph glyph-name="uni0A8A" unicode="&#xa8a;" horiz-adv-x="1858" 
d="M1823 51q-40 -26 -79 -38.5t-74 -12.5q-313 0 -322 373v489q0 133 -26.5 246.5t-87.5 216.5t-158 152t-242 49q-115 0 -207.5 -47.5t-158.5 -150.5t-100.5 -221t-34.5 -263q0 -62 10 -133.5t30.5 -144t52.5 -139.5t76 -118.5t101 -82.5t127 -31q55 0 102.5 16.5t82 47.5
t54 74t19.5 97q0 38 -17.5 75t-46 66.5t-65.5 47.5t-76 18q-43 0 -104 -31l-88 180l52 15t57 15.5l57 14.5l53 13q84 34 84 131q0 28 -11.5 53t-31 44t-44.5 30.5t-53 11.5q-58 0 -120 -53l-101 170q109 78 223 78q67 0 128 -27.5t107 -73.5t73.5 -106.5t27.5 -126.5
q0 -124 -77 -219q85 -66 126 -147.5t41 -178.5q0 -99 -32 -178.5t-91 -135.5t-142.5 -86t-186.5 -30q-97 0 -178.5 39t-147.5 104.5t-116 151.5t-84 180t-51 189.5t-17 179.5q0 165 44.5 311t132.5 288t215 209t292 71q194 0 330 -62t224 -190t129.5 -274.5t41.5 -319.5
v-492q3 -188 125 -188q19 0 55 24z" />
    <glyph glyph-name="uni0A8B" unicode="&#xa8b;" horiz-adv-x="1804" 
d="M1226 51q-83 -51 -157 -51q-318 0 -318 485v99l-236.5 -164.5l-236.5 -161.5l-111 160l578 397q-37 80 -93.5 114t-148.5 34q-30 0 -58.5 -13.5t-50 -36.5t-35 -53.5t-13.5 -64.5h-199q0 73 30 139t79.5 116t114 79.5t132.5 29.5q76 0 138 -21t110 -59v279h199v-453
q0 -23 14 -41.5t38 -32t55 -21t65 -7.5q49 0 89 19.5t54 54.5q-24 4 -45.5 17t-38 31.5t-26 42t-9.5 48.5q0 28 12.5 54t33 45t46.5 30.5t54 11.5q94 0 136 -56t42 -174q0 -10 -2 -18q43 -18 79 -49t61.5 -71.5t39.5 -89t14 -101.5q0 -68 -27.5 -129.5t-74.5 -108
t-109.5 -74.5t-132.5 -28v199q69 2 108.5 38t39.5 105q0 51 -15.5 85.5t-41.5 51.5q-98 -131 -287 -131q-102 0 -172 45v-231q0 -223 119 -223q19 0 53 22z" />
    <glyph glyph-name="uni0A8D" unicode="&#xa8d;" horiz-adv-x="1858" 
d="M1825 53q-42 -28 -81.5 -40.5t-76.5 -12.5q-154 0 -235 111t-81 317v16q-24 -12 -51.5 -17t-56.5 -5q-48 0 -89.5 13t-76.5 44q-26 -58 -67.5 -107t-92.5 -84t-109 -55t-118 -20q-81 0 -155.5 32.5t-133 87t-95.5 127t-42 152.5h-160v197h164q109 0 171.5 44.5
t62.5 129.5q0 31 -14 59t-38 61q-23 32 -53.5 44.5t-62.5 12.5q-65 0 -125 -54l-136 148q63 54 128.5 78t134.5 24q70 0 135 -29t115.5 -79.5t81 -118.5t30.5 -146q0 -56 -17.5 -108.5t-49 -97t-75.5 -78.5t-97 -52q2 -48 20.5 -90.5t49 -74t72 -50t89.5 -18.5
q109 0 170 76.5t61 220.5v340h197v-246q0 -178 125 -178q57 0 82.5 43.5t25.5 134.5v545q-216 68 -581 506l141 131q83 -98 150.5 -169.5t122 -122t97 -82.5t75 -50t56 -24.5t40.5 -6.5q50 0 82 74l182 -74q-32 -69 -73.5 -113t-92.5 -67v-963q0 -192 117 -192q12 0 57 22z
" />
    <glyph glyph-name="uni0A8F" unicode="&#xa8f;" horiz-adv-x="1858" 
d="M1815 53q-42 -28 -81.5 -40.5t-76.5 -12.5q-154 0 -235 111t-81 317v18q-51 -24 -118 -24q-42 0 -82 14t-74 43q-26 -58 -67.5 -107t-92.5 -84t-109 -55t-118 -20q-81 0 -156 32t-133.5 87t-95.5 127t-41 153h-160v197h166q49 0 91.5 12.5t73.5 35.5t49 55t18 71
q0 36 -13 68t-35.5 56t-53.5 38t-66 14q-65 0 -125 -54l-136 148q63 54 128.5 78t134.5 24q66 0 131 -26.5t116 -75t83 -117t32 -153.5q0 -56 -17.5 -108.5t-49 -97t-75.5 -78.5t-97 -52q2 -48 20.5 -90.5t49 -74t72 -50t89.5 -18.5q109 0 170 76.5t61 220.5v340h197v-246
q0 -178 115 -178q63 0 90.5 40t27.5 138v538q0 89 -48.5 156.5t-126 112.5t-174 68t-191.5 23h-246v195h246q85 0 173 -15t170.5 -45.5t154.5 -76.5t125.5 -107.5t84.5 -139t31 -171.5v-954q0 -192 117 -192q12 0 57 22z" />
    <glyph glyph-name="uni0A90" unicode="&#xa90;" horiz-adv-x="1858" 
d="M1822 53q-40 -28 -79.5 -40.5t-77.5 -12.5q-76 0 -135 28.5t-99 83t-61 134t-21 182.5v18q-51 -24 -116 -24q-92 0 -158 57q-26 -58 -66.5 -107t-91.5 -84t-109.5 -55t-119.5 -20q-80 0 -155 32.5t-134 87t-96 127t-41 152.5h-160v197h166q234 0 234 174q0 35 -14 66
t-37 54t-54 36.5t-65 13.5q-62 0 -125 -54l-134 148q63 54 128.5 78t134.5 24q71 0 136.5 -30t115.5 -80t80 -116.5t30 -139.5q0 -56 -17.5 -108.5t-49 -97t-75.5 -78.5t-97 -52q2 -48 20 -90.5t49 -74t72 -50t88 -18.5q109 0 170 76.5t61 220.5v340h199v-246
q0 -178 115 -178q118 0 118 178v621q0 162 -456 162h-332v172h399q137 0 232 -17t162 -59q-11 45 -43 82t-79.5 63t-109.5 40t-133 14h-258v178h258q133 0 237 -36t175.5 -105.5t109 -172t37.5 -235.5v-1123q0 -192 115 -192q14 0 59 22z" />
    <glyph glyph-name="uni0A91" unicode="&#xa91;" horiz-adv-x="2378" 
d="M1825 53q-42 -28 -81.5 -40.5t-76.5 -12.5q-154 0 -235 111t-81 317v16q-24 -12 -51.5 -17t-56.5 -5q-48 0 -89.5 13t-76.5 44q-26 -58 -67.5 -107t-92.5 -84t-109 -55t-118 -20q-81 0 -156 32.5t-133.5 87t-95.5 127t-41 152.5h-160v197h178q220 0 220 174
q0 37 -13 69.5t-35.5 57t-53 38.5t-66.5 14q-65 0 -125 -54l-136 148q63 54 128.5 78t134.5 24q70 0 135 -29t115.5 -80t81 -119.5t30.5 -146.5q0 -56 -17.5 -108.5t-49 -97t-75.5 -78.5t-97 -52q2 -48 20.5 -90.5t49 -74t72 -50t89.5 -18.5q109 0 170 76.5t61 220.5v340
h197v-246q0 -178 125 -178q57 0 82.5 43.5t25.5 134.5v553h199v-969q0 -192 117 -192q12 0 57 22zM2381 51q-83 -51 -157 -51q-84 0 -144 33.5t-99 88.5t-57 123.5t-18 139.5v976q-66 26 -148 85.5t-179 156.5l-131.5 137l-131.5 137l144 131l225 -243l72 -73t79 -69t84 -51
t87 -20q42 0 77 75l179 -73q-23 -81 -62 -127.5t-96 -65.5v-976q0 -186 119 -186q17 0 55 20z" />
    <glyph glyph-name="uni0A93" unicode="&#xa93;" horiz-adv-x="2378" 
d="M1825 53q-42 -28 -81.5 -40.5t-76.5 -12.5q-154 0 -235 111t-81 317v16q-24 -12 -51.5 -17t-56.5 -5q-48 0 -89.5 13t-76.5 44q-26 -58 -67.5 -107t-92.5 -84t-109 -55t-118 -20q-81 0 -156 32.5t-133.5 87t-95.5 127t-41 152.5h-160v197h178q220 0 220 174
q0 37 -13 69.5t-35.5 57t-53 38.5t-66.5 14q-65 0 -125 -54l-136 148q63 54 128.5 78t134.5 24q70 0 135 -29t115.5 -80t81 -119.5t30.5 -146.5q0 -56 -17.5 -108.5t-49 -97t-75.5 -78.5t-97 -52q2 -48 20.5 -90.5t49 -74t72 -50t89.5 -18.5q109 0 170 76.5t61 220.5v340
h197v-246q0 -178 125 -178q57 0 82.5 43.5t25.5 134.5v553h199v-969q0 -192 117 -192q12 0 57 22zM2377 49q-82 -49 -157 -49q-74 0 -132.5 27t-99.5 77.5t-62.5 121.5t-21.5 159v992q0 99 -51.5 170t-137 117t-195 67.5t-226.5 21.5h-176v195h176q102 0 201.5 -17
t189.5 -50t166.5 -82t132.5 -112.5t87.5 -141t31.5 -168.5v-992q0 -190 117 -190q11 0 23.5 5.5t31.5 16.5z" />
    <glyph glyph-name="uni0A94" unicode="&#xa94;" horiz-adv-x="2378" 
d="M1825 53q-42 -28 -81.5 -40.5t-76.5 -12.5q-154 0 -235 111t-81 317v16q-24 -12 -51.5 -17t-56.5 -5q-48 0 -89.5 13t-76.5 44q-26 -58 -67.5 -107t-92.5 -84t-109 -55t-118 -20q-81 0 -156 32.5t-133.5 87t-95.5 127t-41 152.5h-160v197h178q220 0 220 174
q0 37 -13 69.5t-35.5 57t-53 38.5t-66.5 14q-65 0 -125 -54l-136 148q63 54 128.5 78t134.5 24q70 0 135 -29t115.5 -80t81 -119.5t30.5 -146.5q0 -56 -17.5 -108.5t-49 -97t-75.5 -78.5t-97 -52q2 -48 20.5 -90.5t49 -74t72 -50t89.5 -18.5q109 0 170 76.5t61 220.5v340
h197v-246q0 -178 125 -178q57 0 82.5 43.5t25.5 134.5v553h199v-969q0 -192 117 -192q12 0 57 22zM2379 51q-83 -51 -157 -51q-75 0 -134.5 26.5t-100 76.5t-62 122t-21.5 164v964q0 48 -24.5 88.5t-72.5 69.5t-119 45t-163 16h-407v168h305q169 0 291.5 -30t197.5 -93
q0 69 -27.5 116.5t-85.5 77t-147 42t-213 12.5h-221v176h330q109 0 210 -28t178 -81.5t123 -132t46 -178.5v-1232q0 -192 117 -192q19 0 53 22z" />
    <glyph glyph-name="uni0A95" unicode="&#xa95;" horiz-adv-x="1167" 
d="M1042 897l-226 -141q94 -70 143.5 -160.5t49.5 -202.5q0 -78 -37.5 -149.5t-100.5 -125.5t-145.5 -86t-172.5 -32q-62 0 -125 14t-122 41t-112 67t-94 91l150 125q66 -80 139 -110.5t158 -30.5q51 0 99.5 16.5t86 45t60 67t22.5 82.5q0 34 -16 68.5t-43 64.5t-62.5 53.5
t-74.5 36.5l-149.5 -95l-150.5 -92l-104 164l200 115q-42 28 -77.5 60t-61.5 68t-40.5 77t-14.5 88q0 75 26 137.5t74.5 107.5t117 70t153.5 25q121 0 211 -43l-70 -182q-48 12 -90 18.5t-80 6.5q-33 0 -59 -11.5t-44.5 -30.5t-28 -44t-9.5 -52q0 -31 13.5 -58.5t38 -50
t59.5 -39.5t77 -26l80.5 52l84.5 56.5l84.5 56.5l80.5 52z" />
    <glyph glyph-name="uni0A96" unicode="&#xa96;" horiz-adv-x="1645" 
d="M1630 51q-83 -51 -160 -51q-85 0 -145 33.5t-97.5 88.5t-55 124.5t-17.5 140.5v180q-29 -21 -66.5 -30t-85.5 -9q-42 0 -75 8.5t-64 26.5q0 -78 -29.5 -142.5t-78 -110.5t-111 -71.5t-129.5 -25.5q-71 0 -130.5 27t-103 76.5t-68 118t-24.5 151.5v446q0 72 -18 99.5
t-61 27.5h-86v194h94q266 0 266 -350v-417q0 -46 10.5 -79t28 -54t41.5 -31t51 -10q28 0 55 10.5t48 32.5t33.5 54.5t12.5 76.5v540h197v-278q0 -23 13 -44t33.5 -37t45.5 -26t49 -10q25 0 51.5 10t49 26t37 37t14.5 44v505h198v-966q0 -190 117 -190q22 0 55 24z" />
    <glyph glyph-name="uni0A97" unicode="&#xa97;" horiz-adv-x="1662" 
d="M252 643q10 -44 34 -84t57 -70.5t72.5 -48.5t80.5 -18q55 0 103.5 28.5t84 76.5t56 112.5t20.5 136.5q0 86 -22 157t-61.5 122t-94 79t-119.5 28q-57 0 -101 -26.5t-79 -80.5l-164 113q135 190 342 190q106 0 196.5 -39t156.5 -113t103 -181t37 -243q0 -120 -35.5 -222.5
t-98 -176.5t-148.5 -116t-187 -42q-74 0 -144 31t-127.5 83.5t-97.5 122t-53 146.5zM1593 51q-40 -26 -79.5 -38.5t-77.5 -12.5q-74 0 -133 28t-100 78.5t-63 121.5t-22 157v970h199v-970q0 -186 119 -186q19 0 55 18z" />
    <glyph glyph-name="uni0A98" unicode="&#xa98;" 
d="M1519 51q-83 -51 -159 -51q-72 0 -127 26.5t-93.5 70t-61 100t-30.5 116.5q-30 -30 -69.5 -56t-83.5 -45.5t-89.5 -30.5t-88.5 -11q-95 0 -175.5 26t-139 75t-91.5 117.5t-33 154.5q0 63 13.5 109t44.5 83q-40 18 -75 46.5t-61.5 65t-41.5 78.5t-15 87q0 74 25.5 134
t71 102.5t108 65.5t137.5 23q93 0 139 -34l-51 -177q-52 23 -104 23q-60 0 -94.5 -38.5t-34.5 -98.5q0 -21 6 -41.5t20.5 -37.5t38 -30t58.5 -20q45 21 92.5 34.5t107.5 18.5l76 -180q-71 -6 -120.5 -25.5t-80.5 -48.5t-45 -65t-14 -74q0 -39 19.5 -72.5t52 -57.5
t75.5 -37.5t91 -13.5q55 0 114 26.5t107.5 68.5t80 95t31.5 107v699h197v-973q0 -188 115 -188q9 0 21.5 6t31.5 18z" />
    <glyph glyph-name="uni0A99" unicode="&#xa99;" horiz-adv-x="1167" 
d="M281 395q9 -48 34 -84t58.5 -60t73.5 -36t79 -12q45 0 85.5 13.5t72 37.5t50 55.5t18.5 67.5q0 53 -25 91.5t-66 69t-93 55.5l-107 51t-107 55t-93 68t-66 90.5t-25 121.5q0 81 29.5 150t82.5 120t127.5 80t163.5 29q111 0 218 -43l-64 -175q-32 14 -66 20.5t-71 6.5
q-115 0 -170 -48.5t-55 -139.5q0 -39 25 -70t65.5 -58t92.5 -53l106.5 -55t106.5 -63.5t92.5 -79.5t65.5 -102.5t25 -132.5t-35.5 -141t-94 -116t-134 -79t-154.5 -29q-74 0 -143.5 25t-128 71t-102 109.5t-66.5 140.5zM842 827q-23 0 -44.5 9.5t-37.5 26t-25.5 37.5
t-9.5 44q0 24 9.5 45.5t25.5 38t37.5 26t44.5 9.5t44 -9.5t37 -26t25.5 -38t9.5 -45.5q0 -23 -9.5 -44t-25.5 -37.5t-37 -26t-44 -9.5z" />
    <glyph glyph-name="uni0A9A" unicode="&#xa9a;" horiz-adv-x="1645" 
d="M1632 49q-40 -25 -81 -37t-81 -12q-70 0 -126 24.5t-95.5 71.5t-62.5 115t-27 154q-146 -111 -328 -111q-82 0 -158.5 26.5t-139 73t-107 109.5t-62.5 135h-2q-23 0 -58 1.5t-81 6.5v185q35 -8 77.5 -11.5t96.5 -3.5q260 44 260 199q0 37 -17 69.5t-44.5 57t-63 39
t-72.5 14.5q-43 0 -81 -6.5t-70 -20.5l-90 170q88 52 241 52q85 0 157 -28t124 -77.5t81 -118.5t29 -151q0 -63 -23 -120.5t-63.5 -105t-96.5 -82.5t-122 -53q14 -36 42 -66.5t66 -52t83 -34t92 -12.5q45 0 102 16t107 45t84.5 69.5t34.5 90.5v688h198v-969q0 -192 115 -192
q11 0 26 4.5t33 15.5z" />
    <glyph glyph-name="uni0A9B" unicode="&#xa9b;" 
d="M639 653q-61 -1 -119 -6.5t-103 -23.5t-72.5 -52t-27.5 -92q0 -74 31 -127.5t83 -88t121 -51.5t146 -17q95 0 177.5 35t146 95t105 140.5t55.5 171.5q-56 -35 -125 -35q-66 0 -124 32t-101 85t-68 123t-25 145q0 92 21.5 161.5t58 116t86 70t105.5 23.5q84 0 152 -42
t116 -118.5t74 -184t26 -237.5q0 -169 -47 -311t-135 -245.5t-214 -161.5t-284 -58q-119 0 -224 32.5t-183.5 94t-124 150.5t-45.5 202q0 72 30 138.5t93 115.5q-35 24 -62.5 51t-47 59.5t-30 71.5t-10.5 86q0 72 26 135.5t75 114.5t120 74t162 23v-194q-94 0 -140 -36
t-46 -117q0 -82 58 -121.5t161 -39.5h129v-187zM1065 784q23 0 43 12.5t34.5 34t23 49.5t8.5 60q0 42 -11 83t-31 72.5t-48 51t-62 19.5q-45 0 -71.5 -44.5t-26.5 -122.5q0 -43 10 -82t29 -68.5t44.5 -47t57.5 -17.5z" />
    <glyph glyph-name="uni0A9C" unicode="&#xa9c;" 
d="M1570 1257l-534 -497q97 -109 149 -213.5t52 -204.5q0 -77 -27.5 -140t-75.5 -108.5t-113.5 -70.5t-141.5 -25t-143 25t-116.5 70t-78.5 108.5t-29 140.5q0 123 64 234.5t172 203.5q-15 15 -25.5 28t-20 26.5t-21 27.5t-28.5 31q-17 -58 -49.5 -103t-72 -76t-83.5 -47
t-83 -16q-65 0 -124.5 26.5t-106 75.5t-74 118t-27.5 155q0 73 27 134t72.5 104t106 67t126.5 24q69 0 149 -47.5t168 -144.5l104 -119.5t113 -125.5l522 488zM874 627q-153 -152 -153 -285q0 -31 13.5 -57.5t35.5 -46t50.5 -30.5t58.5 -11q31 0 59 11t50 30.5t35 46
t13 57.5q0 126 -162 285zM360 860q25 0 48 9.5t41 30t29 52t11 76.5q0 25 -10.5 49t-29 42.5t-42.5 30t-51 11.5q-25 0 -48.5 -10t-42 -28t-29.5 -43t-11 -54q0 -45 11.5 -76.5t30.5 -51.5t43 -29t50 -9z" />
    <glyph glyph-name="uni0A9D" unicode="&#xa9d;" horiz-adv-x="1645" 
d="M1101 199q61 0 112.5 21t89.5 58.5t59.5 89t21.5 111.5q0 56 -17.5 103.5t-49 82t-77 53.5t-100.5 19q-40 0 -68 -19t-46 -61q-2 -73 -18 -146.5t-45 -142t-71 -128t-97 -104t-122.5 -70t-146.5 -25.5q-78 0 -152 33t-131.5 88.5t-92 128.5t-34.5 153h197q0 -41 18 -78.5
t48 -66t68 -46t79 -17.5q66 0 121.5 34t95 92.5t62 136t22.5 163.5q0 91 -23.5 166t-65.5 141q-43 66 -102 97.5t-131 31.5q-125 0 -198 -133l-168 96q31 52 72.5 95.5t89 74.5t99.5 48.5t105 17.5q85 0 159.5 -27.5t137.5 -88.5q63 -60 111 -132t76 -160q47 18 86 37.5
t67.5 45t44 60.5t15.5 84q0 100 -64 234l193 39q67 -137 67 -271q0 -128 -78 -225q58 -29 106 -74t82 -100.5t52.5 -119.5t18.5 -130q0 -100 -36.5 -185.5t-100.5 -148.5t-151.5 -99t-189.5 -36v199z" />
    <glyph glyph-name="uni0A9E" unicode="&#xa9e;" horiz-adv-x="1645" 
d="M1610 51q-83 -51 -158 -51q-83 0 -142.5 33.5t-98.5 88.5t-57.5 123.5t-18.5 139.5v172q-20 -8 -44.5 -11t-52.5 -3q-38 0 -68.5 7.5t-58.5 22.5q-21 -70 -60 -130.5t-93 -105.5t-121 -71t-145 -26q-106 0 -218 65t-239 195l139 137q37 -44 80 -81t85.5 -64t82.5 -42.5
t70 -15.5q57 0 104 26t81.5 72t53.5 108t19 134q0 33 -4 65.5t-16.5 66.5t-35.5 68.5t-60 70.5q-61 58 -137 58q-68 0 -119.5 -18t-98.5 -71l-146 129q66 79 148.5 116.5t179.5 37.5q104 0 188.5 -33t146 -96t99.5 -153.5t49 -205.5q28 -66 98 -66q39 0 66 20.5t27 51.5v543
h198v-973q0 -186 119 -186q9 0 23 4.5t32 15.5z" />
    <glyph glyph-name="uni0A9F" unicode="&#xa9f;" horiz-adv-x="1167" 
d="M1022 444q-2 -101 -38.5 -182.5t-98.5 -140t-145.5 -90t-178.5 -31.5t-179.5 35t-148.5 96.5t-101.5 144.5t-37.5 179q0 104 35.5 175.5t100.5 121.5t155.5 84t200.5 63q72 20 110.5 47.5t38.5 61.5q0 42 -12.5 71.5t-35.5 47.5t-54.5 26.5t-69.5 8.5q-100 0 -174.5 -18
t-128.5 -50l-70 178q78 45 169.5 66.5t203.5 21.5q79 0 145.5 -20.5t115 -63.5t75.5 -109.5t27 -158.5q0 -199 -183 -269l-86.5 -24l-87 -26t-76 -25l-53.5 -19q-75 -29 -112 -76.5t-37 -128.5q0 -51 21.5 -94.5t58.5 -75.5t86 -50.5t104 -18.5q58 0 106.5 17.5t84 49.5
t55.5 77t20 99h195z" />
    <glyph glyph-name="uni0AA0" unicode="&#xaa0;" horiz-adv-x="1167" 
d="M774 1148q-51 17 -99 26t-96 9q-78 0 -120.5 -33.5t-42.5 -96.5q0 -27 13.5 -50t34 -40.5t46 -27t49.5 -9.5q95 0 178 -36.5t144.5 -99.5t97 -147.5t35.5 -179.5q0 -94 -36.5 -178t-99.5 -147.5t-147.5 -100.5t-179.5 -37t-179.5 36.5t-148 99.5t-100.5 147.5t-37 179.5
q0 274 229 395q-42 34 -68 84.5t-26 116.5q0 75 28 131.5t80 94.5t126 57t167 19q42 0 88 -7t103 -19zM549 193q54 0 103 21.5t85.5 58t58 85t21.5 103.5q0 54 -21.5 103t-58 85.5t-85.5 58t-103 21.5q-55 0 -104 -21.5t-85.5 -58t-58 -85.5t-21.5 -103q0 -55 21.5 -103.5
t58 -85t85.5 -58t104 -21.5z" />
    <glyph glyph-name="uni0AA1" unicode="&#xaa1;" horiz-adv-x="1167" 
d="M653 600l-137 76l-137 76q-156 103 -156 292q0 145 90.5 223t261.5 90q35 0 90.5 -6t118.5 -6v-197q-18 0 -47 2t-59.5 4.5t-58.5 4.5t-44 2q-155 -23 -155 -117q0 -63 36 -104.5t99 -75.5l188.5 -102t83.5 -49q156 -123 156 -328q0 -79 -35.5 -149t-94.5 -122.5
t-136 -83t-160 -30.5q-94 0 -173 32t-136.5 90t-90 139t-32.5 179h196q0 -53 18 -97t50 -75.5t75 -49t93 -17.5q48 0 90 13.5t73.5 37.5t49.5 58t18 75q0 66 -33 119t-102 98v-2z" />
    <glyph glyph-name="uni0AA2" unicode="&#xaa2;" horiz-adv-x="1325" 
d="M670 207q47 -29 125 -29q40 0 76 13.5t63 36t43 51.5t16 61q0 29 -12 54.5t-35 44t-58 29.5t-81 11q-34 0 -65.5 -12.5t-55.5 -34t-38.5 -49.5t-14.5 -59q0 -80 37 -117zM348 1310q118 26 206 40t151 14q81 0 149 -17t116.5 -52.5t75.5 -90.5t27 -131q0 -203 -217 -248
q-54 -12 -116 -16.5t-123.5 -11.5t-117.5 -20.5t-99.5 -42.5t-69 -79t-25.5 -129q0 -167 152 -260q-2 14 -3 28t-1 30q0 75 27 138t74.5 109t112.5 71.5t140 25.5q80 0 150 -27t121.5 -72t81.5 -104.5t30 -124.5q0 -77 -34.5 -139.5t-95 -107t-143 -69t-178.5 -24.5
q-241 0 -426 137q-103 76 -151.5 173.5t-48.5 215.5q0 90 20 157t57 116t89.5 82t118.5 55t143.5 35t163.5 22q91 10 135.5 27.5t44.5 52.5q0 90 -150 90q-100 0 -183 -11t-155 -34z" />
    <glyph glyph-name="uni0AA3" unicode="&#xaa3;" horiz-adv-x="1645" 
d="M745 -184q29 0 54.5 3.5t44.5 12t30 23t11 36.5q0 51 -43 83.5t-137 50.5q-155 30 -254.5 61.5t-141.5 58.5q-106 66 -160.5 185t-54.5 299v729h199v-705q0 -298 201 -368q48 -17 90 -29.5t82 -22.5t80.5 -18.5l84.5 -17.5q56 -14 102 -40.5t78.5 -63.5t50 -84t17.5 -103
q0 -66 -17.5 -112.5t-45 -77t-62 -48t-69.5 -26.5t-66.5 -11t-52.5 -2h-21v187zM522 680q47 -62 117 -62q54 0 92.5 22.5t63 59.5t36 84.5t11.5 98.5q0 54 -19.5 105.5t-54 91.5t-82 64t-104.5 24q-20 0 -48.5 -6.5t-68.5 -22.5l-70 168q51 23 98 34t95 11q97 0 177 -32
t137 -93t88.5 -148t31.5 -196q0 -95 -28.5 -177t-79.5 -142t-121 -94t-154 -34q-135 0 -246 129zM1610 51q-83 -51 -158 -51q-73 0 -131.5 27.5t-100 78t-63.5 121.5t-22 158v973h198v-973q0 -186 119 -186q23 0 53 24z" />
    <glyph glyph-name="uni0AA4" unicode="&#xaa4;" 
d="M1519 51q-83 -51 -157 -51t-133 27.5t-100 78t-63 121.5t-22 158v420h-213q-123 0 -211 -15t-144.5 -42.5t-83 -66.5t-26.5 -87q0 -75 27 -143t68.5 -125.5t92 -103.5t97.5 -77l-96 -155q-80 49 -149.5 114t-121.5 143t-82 168t-30 189q0 97 38.5 171t118.5 124t203 76
t293 26h219v357h199v-973q0 -186 119 -186q17 0 55 20z" />
    <glyph glyph-name="uni0AA5" unicode="&#xaa5;" 
d="M1509 51q-43 -26 -82 -38.5t-77 -12.5q-62 0 -115.5 23t-95 64t-68.5 98.5t-35 125.5q-182 -174 -430 -174q-92 0 -173 27t-144.5 76t-106.5 117.5t-59 152.5v156h149q31 0 64.5 6.5t66 21.5t62.5 39t55 60q-8 -2 -13 -2q-53 0 -103 23t-89 65t-62.5 100t-23.5 129
q0 69 22.5 127t61.5 100.5t91.5 66.5t111.5 24q81 0 138 -25.5t92 -69t51 -100t16 -118.5q0 -127 -31.5 -227.5t-94.5 -188.5q-63 -87 -152 -134t-207 -65q14 -39 40.5 -69.5t63.5 -51.5t81.5 -32t94.5 -11q77 0 153 30t137 81.5t98.5 120t37.5 145.5v647h199v-973
q0 -186 119 -186q9 0 22.5 5t30.5 17zM516 969q30 0 53 11t38.5 29.5t23.5 44t8 54.5q0 28 -8.5 53t-24.5 44.5t-39 31t-51 11.5q-26 0 -46.5 -11.5t-34.5 -31t-21.5 -44.5t-7.5 -53q0 -29 11 -54.5t27.5 -44t35.5 -29.5t36 -11z" />
    <glyph glyph-name="uni0AA6" unicode="&#xaa6;" horiz-adv-x="1298" 
d="M1138 397q-6 -84 -47 -157t-105 -126t-145 -83.5t-167 -30.5q-95 0 -178 37t-145 99.5t-98 144.5t-36 172q0 88 30.5 161t96.5 131q-51 51 -82 110t-31 122q0 84 29.5 154.5t84.5 121t133 78.5t175 28q82 0 152 -9.5t127 -29.5l-37 -186q-45 14 -90.5 21.5t-102.5 7.5
q-81 0 -134 -15.5t-84 -41t-43.5 -59t-12.5 -70.5q0 -117 162 -117h284v-196h-284q-45 0 -78.5 -18t-55.5 -47t-32.5 -67.5t-10.5 -78.5q0 -56 20.5 -102.5t56 -81t83 -53.5t101.5 -19q50 0 96 14t82 40.5t59.5 63.5t27.5 82h199z" />
    <glyph glyph-name="uni0AA7" unicode="&#xaa7;" 
d="M1517 51q-40 -26 -79.5 -38.5t-77.5 -12.5q-65 0 -119 22.5t-95 63.5t-67 99.5t-35 129.5q-133 -118 -321 -118q-102 0 -186.5 32t-145.5 90t-95 139.5t-34 180.5q0 149 74 238q-38 24 -70.5 61t-56.5 81.5t-38 93.5t-14 97q0 230 175 342l124 -118q-104 -110 -104 -224
q0 -38 10 -71t28.5 -58.5t44 -40t56.5 -14.5h260v-190q-154 0 -222 -57t-68 -169q0 -49 19.5 -89.5t53 -69t79.5 -44.5t99 -16q62 0 121.5 26t106 69.5t74.5 99t28 114.5v658h199v-973q0 -186 121 -186q15 0 53 20z" />
    <glyph glyph-name="uni0AA8" unicode="&#xaa8;" 
d="M1507 51q-40 -26 -79.5 -38.5t-77.5 -12.5q-73 0 -132 27.5t-100 78t-63.5 121.5t-22.5 158v401h-295q37 -73 37 -155q0 -73 -27.5 -137.5t-75 -113t-111 -76.5t-136.5 -28q-75 0 -139.5 28t-112 76t-75 112.5t-27.5 138.5q0 72 28 135.5t76.5 111.5t113 75.5t136.5 27.5
h608v377h199v-973q0 -186 121 -186q15 0 53 20zM580 631q0 33 -12.5 61t-33.5 48.5t-49.5 32t-60.5 11.5t-60.5 -12t-49.5 -33t-33.5 -49t-12.5 -59q0 -32 12.5 -60.5t34 -49.5t49.5 -33.5t60 -12.5q31 0 59.5 12.5t50 34t34 49.5t12.5 60z" />
    <glyph glyph-name="uni0AAA" unicode="&#xaaa;" 
d="M1517 51q-83 -51 -157 -51t-132.5 27.5t-99.5 77.5t-63 120.5t-23 157.5q-66 -38 -136.5 -56t-152.5 -18q-89 0 -164.5 29t-130 90.5t-85.5 158.5t-31 234v304q0 12 -4 23.5t-11 21.5t-15.5 16t-18.5 6q-51 0 -66 -41l-174 74q68 164 229 164q55 0 102 -21t80.5 -57.5
t52.5 -85.5t19 -106v-300q0 -92 12.5 -153t38.5 -98t67.5 -52.5t98.5 -15.5q56 0 108.5 15.5t92.5 42.5t64 63.5t24 78.5v658h199v-973q0 -186 123 -186q13 0 51 20z" />
    <glyph glyph-name="uni0AAB" unicode="&#xaab;" horiz-adv-x="1167" 
d="M727 -287l-309 312q-38 11 -77.5 33.5t-76 52t-66.5 62.5t-48 65l155 112q54 -78 123.5 -115.5t163.5 -37.5q46 0 89.5 15.5t76.5 42.5t53 62.5t20 75.5q0 78 -43.5 134.5t-134.5 101.5l-124.5 -105l-122.5 -102l-111 135l178 152q-50 30 -94 63t-77 72.5t-52 88
t-19 109.5q0 84 27 148t77 107t121 65t160 22q48 0 98.5 -8.5t110.5 -23.5l-61 -191q-48 16 -87 22.5t-71 6.5q-91 0 -136.5 -32t-45.5 -107q0 -63 54.5 -116t154.5 -91l152.5 125l152.5 125l111 -138l-242 -196q52 -32 93 -74t69.5 -90.5t43.5 -101t15 -105.5
q0 -70 -28.5 -133.5t-77 -114t-112.5 -83.5t-134 -42l90.5 -89.5l87.5 -86.5z" />
    <glyph glyph-name="uni0AAC" unicode="&#xaac;" horiz-adv-x="1645" 
d="M1612 51q-83 -51 -160 -51q-73 0 -131.5 27.5t-99 77.5t-62.5 121.5t-22 158.5v104q-34 -18 -70.5 -26t-71.5 -8q-40 0 -75.5 7t-69.5 27q-21 -55 -57.5 -103t-83 -83t-100.5 -55.5t-111 -20.5q-86 0 -159.5 41.5t-127.5 111t-84.5 160.5t-30.5 191q0 185 68.5 317.5
t196.5 228.5q84 64 194 85l33 -196q-33 -4 -64 -18.5t-58 -35.5t-50.5 -46.5t-42.5 -52.5q-38 -54 -59 -123.5t-21 -148.5q0 -65 15.5 -122t43.5 -100t67 -68t87 -25q41 0 74 21t55.5 59.5t34.5 91.5t12 117v270h197v-254q0 -15 10.5 -29.5t27 -26t36.5 -18t40 -6.5
q144 0 144 160v547h196v-973q0 -186 119 -186q21 0 55 22z" />
    <glyph glyph-name="uni0AAD" unicode="&#xaad;" horiz-adv-x="1645" 
d="M1612 51q-83 -51 -160 -51q-74 0 -132.5 28t-99 78.5t-62 121.5t-21.5 157v221h-258q-3 -36 -19.5 -66t-42 -52t-59 -34t-70.5 -12q-34 0 -67 16.5t-59 42.5t-42 59.5t-16 68.5q0 36 14.5 68.5t39 57.5t56 41t66.5 19v255q0 21 -9.5 38t-26 29t-38.5 18.5t-47 6.5
q-64 0 -115.5 -31.5t-88 -88.5t-56.5 -136t-20 -173q0 -111 35 -208.5t97 -171t148.5 -116t188.5 -42.5v-195q-108 3 -199.5 33.5t-165 82t-129.5 121t-94 150.5t-57 171.5t-19 182.5q0 133 33.5 246t95 195.5t149 129t195.5 46.5q68 0 127 -20.5t102.5 -58t68 -89.5
t24.5 -114v-283h258v565h196v-973q0 -186 119 -186q22 0 55 18z" />
    <glyph glyph-name="uni0AAE" unicode="&#xaae;" 
d="M1507 51q-40 -26 -79.5 -38.5t-77.5 -12.5q-74 0 -132.5 27.5t-99.5 78t-62.5 121.5t-21.5 158v96h-440q-5 -36 -22.5 -69t-44 -58t-60.5 -40t-72 -15q-40 0 -76 16.5t-63.5 44t-44 64.5t-16.5 78q0 37 14.5 70.5t39.5 60.5t57.5 44.5t68.5 22.5v357q0 107 -76 107
q-15 0 -37 -31l-162 115q87 110 205 110q137 0 205 -76.5t68 -224.5v-377h456v678h197v-973q0 -186 121 -186q15 0 53 20z" />
    <glyph glyph-name="uni0AAF" unicode="&#xaaf;" 
d="M1509 51q-83 -51 -159 -51q-69 0 -124.5 23t-96 66t-64.5 104.5t-29 138.5q-78 -63 -178 -97t-215 -34q-90 0 -179 30.5t-160 86t-115 132.5t-44 171q0 42 10.5 83.5t46.5 78.5t105.5 66t188.5 46h-2q100 28 100 119q0 75 -41 111.5t-111 36.5q-46 0 -88.5 -16.5
t-87.5 -47.5l-127 148q66 55 138.5 83.5t150.5 28.5q68 0 132.5 -19.5t114.5 -61.5t80.5 -108t30.5 -159q0 -78 -23.5 -130.5t-68 -87.5t-109.5 -57t-147 -39q-45 -10 -70.5 -31.5t-25.5 -48.5q0 -47 25.5 -87t68 -69t98.5 -46t117 -17q78 0 148 23.5t122 65.5t82.5 99.5
t30.5 125.5v647h199v-973q0 -186 121 -186q15 0 53 20z" />
    <glyph glyph-name="uni0AB0" unicode="&#xab0;" horiz-adv-x="1167" 
d="M958 61q-121 -61 -213 -61q-74 0 -141.5 35t-125.5 104t-103 170.5t-74 235.5h-135v192h225q62 0 126.5 5.5t116.5 26.5t85 62.5t33 114.5q0 46 -17.5 85.5t-47.5 68.5t-70 45.5t-85 16.5q-148 0 -286 -84l-99 166q167 113 385 113q88 -2 164 -30.5t131.5 -81t87 -127.5
t31.5 -170q0 -93 -31 -167t-88 -125.5t-138.5 -80.5t-182.5 -32q37 -179 102 -270t146 -91q29 0 56.5 13t53.5 36z" />
    <glyph glyph-name="uni0AB2" unicode="&#xab2;" horiz-adv-x="1645" 
d="M921 100q-72 -26 -145 -39.5t-154 -13.5q-117 0 -215.5 49t-169 135.5t-110 203t-39.5 251.5q0 142 45 257.5t126 212.5t191.5 143.5t247.5 46.5q29 0 61.5 -2t69.5 -8l-37 -197q-37 9 -67 14t-56 5q-85 0 -155.5 -34t-121.5 -106t-78.5 -153.5t-27.5 -178.5
q0 -94 25 -177t69.5 -145.5t106 -98.5t135.5 -36q66 0 120.5 15.5t105.5 46.5zM1622 51q-83 -51 -160 -51q-74 0 -132.5 28t-99 78.5t-62 121.5t-21.5 157v344l-251.5 -101.5l-246.5 -103.5l-80 183l578 231v420h196v-973q0 -186 123 -186q8 0 20 5t29 17z" />
    <glyph glyph-name="uni0AB3" unicode="&#xab3;" horiz-adv-x="1645" 
d="M1620 51q-83 -51 -158 -51t-133.5 28t-99.5 78.5t-62.5 121.5t-21.5 157v610q0 172 -140 172q-75 0 -111 -42t-36 -130q0 -13 2 -46t5.5 -76.5t7 -93l7 -96t5.5 -85.5t2 -61q0 -205 -86.5 -309.5t-258.5 -104.5q-101 0 -180 39t-134.5 111t-84.5 173t-29 226
q0 356 318 701l141 -141q-260 -218 -260 -573q0 -79 15.5 -143t44.5 -109.5t71 -70.5t96 -25q81 0 118.5 62t37.5 194q0 17 -2.5 51l-5.5 77t-7.5 90t-7.5 89l-5.5 75t-2.5 48q0 83 24 151t68 116t106 74.5t138 26.5q81 0 144.5 -25.5t107 -73.5t66 -116.5t22.5 -154.5v-610
q0 -186 121 -186q17 0 51 22z" />
    <glyph glyph-name="uni0AB5" unicode="&#xab5;" 
d="M1509 51q-40 -26 -79.5 -38.5t-77.5 -12.5q-85 0 -145 34t-98 88.5t-55.5 123.5t-17.5 139v49q-88 -78 -186.5 -114.5t-216.5 -36.5q-98 0 -182.5 37.5t-147.5 101.5t-99 150t-36 184q0 97 35.5 182.5t98 149.5t146 101.5t179.5 37.5q100 0 185.5 -42.5t160.5 -127.5
l-158 -125q-77 98 -188 98q-56 0 -105 -21.5t-85.5 -59t-57.5 -87t-21 -106.5q0 -64 21.5 -115t60.5 -87t93.5 -55.5t121.5 -19.5q78 0 147 23t121 63.5t82.5 96t30.5 120.5v576h197v-973q0 -186 119 -186q17 0 55 18z" />
    <glyph glyph-name="uni0AB6" unicode="&#xab6;" 
d="M469 910q32 0 60 12t48.5 32.5t32 48t11.5 58.5t-12 59t-32.5 49t-48.5 33.5t-59 12.5q-32 0 -60 -12t-49 -33t-33 -49t-12 -60q0 -31 12 -58.5t33 -48t49 -32.5t60 -12zM918 78q-125 -78 -226 -78q-118 0 -217.5 92.5t-181.5 288.5h-154v174h142q103 0 170 12.5
t107.5 41t59 74.5t25.5 114q-37 -32 -80 -46.5t-94 -14.5q-66 0 -125.5 26t-104.5 70.5t-71.5 104t-26.5 126.5q0 66 26.5 125.5t71.5 104t104.5 70.5t125.5 26q354 0 354 -530q0 -96 -22 -177t-65 -142.5t-107 -101.5t-148 -53q105 -215 221 -215q52 0 109 57zM1542 51
q-40 -26 -80.5 -38.5t-79.5 -12.5q-73 0 -131 28t-99 78.5t-63 121.5t-22 157v973h199v-973q0 -186 118 -186q18 0 56 18z" />
    <glyph glyph-name="uni0AB7" unicode="&#xab7;" 
d="M498 705q0 -54 14.5 -99t46 -78t81 -51t120.5 -18q46 0 89.5 10.5t79 30t61.5 46.5t38 60l-530 385v-286zM1507 51q-83 -51 -157 -51q-68 0 -123.5 24t-97 69t-66 108.5t-29.5 142.5q-63 -42 -127 -62t-133 -20q-111 0 -198 34t-148 99t-93 160t-32 217q0 75 0.5 129.5
t0.5 92.5q0 94 -15 143.5t-64 49.5q-21 0 -42.5 -8.5t-43.5 -30.5l-125 158q88 70 205 70q44 0 78 -5.5t61.5 -20t52 -38t50.5 -59.5q22 -30 58.5 -55.5l78.5 -57.5l141 -97.5l115.5 -79l96 -65.5l81.5 -57v522h199v-978q0 -186 119 -186q17 0 55 20z" />
    <glyph glyph-name="uni0AB8" unicode="&#xab8;" 
d="M1519 51q-83 -51 -159 -51q-83 0 -143 33.5t-98.5 88.5t-56.5 123.5t-18 139.5v186q-46 -21 -98 -34t-109 -13q-173 0 -282 97q-37 -25 -94 -37q4 -81 23.5 -153t50 -126t69.5 -85.5t82 -31.5q20 0 48.5 11.5t66.5 36.5l83 -183q-139 -53 -198 -53q-92 0 -165 48
t-126 127t-85 181t-42 209h-141v189h151q61 0 113.5 13.5t90.5 38.5t59.5 61.5t21.5 82.5q0 42 -12.5 80t-35.5 67t-55.5 46t-72.5 17q-69 0 -154 -43l-96 168q121 73 246 73q79 0 148 -34t120 -90.5t80 -130.5t29 -153q0 -99 -62 -194q29 -17 65 -26t81 -9q43 0 79.5 9
t63.5 26t42 40t15 52v510h199v-973q0 -186 119 -186q18 0 53 20z" />
    <glyph glyph-name="uni0AB9" unicode="&#xab9;" horiz-adv-x="1167" 
d="M573 522q55 -76 139 -76q31 0 57.5 10t46 28.5t31 44t11.5 57.5q0 47 -13.5 77.5t-39 50t-62.5 31t-83.5 21l-102 20t-117.5 27.5q-43 12 -79.5 37t-63 59.5t-41.5 76.5t-15 89q0 67 22 120t71.5 89t128 55t192.5 19h158v-190h-248q-33 0 -57.5 -8t-41 -21t-24.5 -29.5
t-8 -34.5q0 -36 35 -59t110 -41q28 -7 63.5 -14t74.5 -16t80.5 -20t82.5 -26q46 -17 79.5 -47.5t55 -71t32 -88.5t10.5 -100q0 -75 -28 -137.5t-76 -108t-113 -71t-138 -25.5q-194 0 -295 170zM772 -195q-36 4 -102 16t-144 37.5t-159.5 67.5t-147.5 105.5t-108 152
t-42 207.5q0 132 64 225.5t176 159.5l190 -98q-75 -31 -121 -70.5t-70.5 -80t-33 -79t-8.5 -67.5q0 -60 23 -109.5t63 -89.5t92.5 -70.5t112 -52.5t121.5 -35.5t120 -19.5z" />
    <glyph glyph-name="uni0ABC" unicode="&#xabc;" horiz-adv-x="0" 
d="M-594 -381q-27 0 -51.5 11t-43 30t-29.5 44t-11 52t11 51t29.5 42.5t43 29t51.5 10.5q28 0 52.5 -10.5t43 -28.5t29 -42t10.5 -52q0 -27 -10.5 -52t-29 -44t-43 -30t-52.5 -11z" />
    <glyph glyph-name="uni0ABD" unicode="&#xabd;" horiz-adv-x="954" 
d="M276 276q29 -40 67 -59.5t81 -19.5q37 0 74 11t66 34.5t47 60.5t18 88q0 34 -11 60.5t-30.5 47.5t-45.5 38t-57 32l-198 103q-42 23 -71.5 58t-48 76t-27.5 85t-9 86q0 77 29.5 145.5t80.5 119.5t119 81t146 30h227v-196h-227q-38 0 -70.5 -15.5t-57 -41t-38.5 -57.5
t-14 -66q0 -21 6 -43t19 -43.5t33 -40t48 -31.5l227 -114q49 -27 81 -64t50.5 -78.5t25.5 -85.5t7 -86q0 -98 -33 -171.5t-88 -122.5t-126.5 -73t-149.5 -24q-193 0 -307 164z" />
    <glyph glyph-name="uni0ABE" unicode="&#xabe;" horiz-adv-x="584" 
d="M532 51q-40 -26 -79.5 -38.5t-77.5 -12.5q-74 0 -133 28t-100 78.5t-63 121.5t-22 157v970h199v-970q0 -186 119 -186q19 0 55 18z" />
    <glyph glyph-name="uni0ABF" unicode="&#xabf;" horiz-adv-x="424" 
d="M596 51q-40 -26 -80.5 -38.5t-77.5 -12.5q-74 0 -133 27.5t-100 77.5t-62.5 121.5t-21.5 158.5v975q0 180 34 308.5t100 211t164.5 121.5t227.5 39q69 0 149.5 -16.5t164.5 -46.5t168 -71t161.5 -90.5t144.5 -105.5t116.5 -115t78 -119.5t28.5 -118.5h-198q0 42 -26.5 85
t-71.5 85t-104.5 81.5t-126 74.5t-136 64t-133.5 50t-119.5 32.5t-93.5 11.5q-112 0 -177.5 -35.5t-99.5 -98.5t-44 -149.5t-11 -189.5v-983q0 -186 121 -186q5 0 19 5t37 17z" />
    <glyph glyph-name="uni0AC0" unicode="&#xac0;" horiz-adv-x="584" 
d="M580 53q-45 -28 -84 -40.5t-74 -12.5q-73 0 -131.5 29t-99.5 80.5t-63 122t-22 153.5v1033q0 70 -4 139.5t-23 125t-57.5 90t-107.5 34.5q-59 0 -93.5 -32t-51.5 -83t-21.5 -115.5t-4.5 -128.5q0 -25 0.5 -48.5t0.5 -46.5h-197q0 160 26.5 281t74.5 202.5t115.5 122.5
t150.5 41q199 0 295 -156.5t96 -478.5v-974q0 -192 117 -192q21 0 55 22z" />
    <glyph glyph-name="uni0AC1" unicode="&#xac1;" horiz-adv-x="0" 
d="M-731 -168q18 45 46.5 80.5t63.5 60.5t74.5 38.5t79.5 13.5q61 0 111.5 -22t86 -60.5t55 -92t19.5 -116.5q0 -66 -28.5 -121.5t-78 -96t-116.5 -63t-143 -22.5q-60 0 -125.5 18t-132.5 51.5t-133 81.5t-125 107l137 137q45 -45 94 -81t98.5 -62t95.5 -40t85 -14
q37 0 69.5 8.5t57 24.5t39 38t14.5 48q0 34 -24 57t-58 23q-9 0 -21.5 -5.5t-24 -14.5t-21 -20.5t-13.5 -23.5z" />
    <glyph glyph-name="uni0AC2" unicode="&#xac2;" horiz-adv-x="0" 
d="M-180 -571q-57 97 -118 172t-117 126.5t-104 78t-79 26.5t-54.5 -19t-23.5 -46q0 -26 22.5 -46t51.5 -20v-186q-56 0 -105 21t-85.5 56.5t-58 81t-21.5 93.5q0 57 21 105t58 83t87 54.5t108 19.5q49 0 109 -26t132.5 -84t157.5 -151.5t183 -228.5z" />
    <glyph glyph-name="uni0AC3" unicode="&#xac3;" horiz-adv-x="0" 
d="M-141 -252q0 -72 -27 -133t-74.5 -105t-112 -69t-139.5 -25q-73 0 -135.5 23t-108.5 64t-72 99t-26 128t29 128t81 99t122.5 63.5t154.5 22.5v-195q-40 0 -74.5 -8.5t-60 -24.5t-40.5 -37.5t-15 -47.5q0 -27 11.5 -48.5t31 -37t46 -23.5t56.5 -8q69 0 112.5 34.5
t43.5 100.5h197z" />
    <glyph glyph-name="uni0AC4" unicode="&#xac4;" horiz-adv-x="0" 
d="M-121 -657q-43 -50 -86 -81t-85 -48t-83 -23t-80 -6q-50 0 -97.5 19.5t-84.5 52.5t-59.5 78t-22.5 96q0 48 13 80.5t28 54.5q-19 15 -40 37.5t-38.5 52.5t-29 66.5t-11.5 80.5q0 64 26.5 117t73 91t111 59.5t140.5 21.5v-188q-73 0 -115.5 -25.5t-42.5 -68.5q0 -21 7 -39
t18 -31.5t23.5 -22t23.5 -10.5q13 8 32.5 15.5t41.5 14.5t45 12.5l44 10.5l84 -178q-48 -9 -91.5 -21.5t-76.5 -28.5t-52 -37t-19 -46q0 -20 8 -33t21 -20.5t28 -10.5t29 -3q33 0 62 9.5t53 23t41 28t26 25.5z" />
    <glyph glyph-name="uni0AC5" unicode="&#xac5;" horiz-adv-x="0" 
d="M-76 1548q-49 -97 -119 -145.5t-151 -48.5q-56 0 -104 12.5t-92.5 36.5t-87 58.5t-87.5 78.5l-75 76l-84.5 90.5l-81.5 91l-66 76.5l141 131l293 -317q42 -46 75.5 -73.5t62 -42.5t54 -19.5t52.5 -4.5q31 0 53.5 19.5t30.5 56.5z" />
    <glyph glyph-name="uni0AC7" unicode="&#xac7;" horiz-adv-x="0" 
d="M-465 1323q-44 81 -103.5 153.5t-131 127t-154 86.5t-172.5 32h-236v195h236q113 0 226 -45.5t214 -125.5t184 -188.5t136 -234.5h-199z" />
    <glyph glyph-name="uni0AC8" unicode="&#xac8;" horiz-adv-x="0" 
d="M-272 1317h-199v133q0 39 -17 66t-46.5 45t-69 28t-83.5 15.5t-90.5 6.5t-90.5 1h-385v161h399q135 0 230 -18.5t161 -56.5q-13 44 -49 80.5t-89.5 62.5t-120.5 40.5t-142 14.5h-289v178h330q132 0 234.5 -36t173 -105.5t107 -171.5t36.5 -235v-209z" />
    <glyph glyph-name="uni0AC9" unicode="&#xac9;" horiz-adv-x="528" 
d="M526 51q-83 -51 -157 -51q-84 0 -144 33.5t-99 88.5t-57 123.5t-18 139.5v976q-66 26 -148 85.5t-179 156.5l-131.5 137l-131.5 137l144 131l225 -243l72 -73t79 -69t84 -51t87 -20q42 0 77 75l179 -73q-23 -81 -62 -127.5t-96 -65.5v-976q0 -186 119 -186q17 0 55 20z
" />
    <glyph glyph-name="uni0ACB" unicode="&#xacb;" horiz-adv-x="532" 
d="M526 49q-82 -49 -157 -49q-74 0 -132.5 27t-99.5 77.5t-62.5 121.5t-21.5 159v992q0 99 -51.5 170t-137 117t-195 67.5t-226.5 21.5h-176v195h176q102 0 201.5 -17t189.5 -50t166.5 -82t132.5 -112.5t87.5 -141t31.5 -168.5v-992q0 -190 117 -190q11 0 23.5 5.5
t31.5 16.5z" />
    <glyph glyph-name="uni0ACC" unicode="&#xacc;" horiz-adv-x="528" 
d="M524 51q-83 -51 -157 -51q-75 0 -134.5 26.5t-100 76.5t-62 122t-21.5 164v964q0 48 -24.5 88.5t-72.5 69.5t-119 45t-163 16h-407v168h305q169 0 291.5 -30t197.5 -93q0 69 -27.5 116.5t-85.5 77t-147 42t-213 12.5h-221v176h330q109 0 210 -28t178 -81.5t123 -132
t46 -178.5v-1232q0 -192 117 -192q19 0 53 22z" />
    <glyph glyph-name="uni0ACD" unicode="&#xacd;" horiz-adv-x="0" 
d="M-129 -492l-350 279l110 160l353 -279z" />
    <glyph glyph-name="uni0AD0" unicode="&#xad0;" horiz-adv-x="2015" 
d="M1496 1889q0 -53 -16.5 -104t-45.5 -96t-68.5 -83t-85.5 -65.5t-96.5 -43t-101.5 -15.5q-78 0 -151.5 33.5t-131 89.5t-92 129.5t-34.5 154.5h194q0 -42 16.5 -81t46 -68t69 -46.5t85.5 -17.5q45 0 84.5 17.5t69 46.5t46 68t16.5 81h196zM1082 1766q-24 0 -44.5 10.5
t-36 27t-24.5 38t-9 43.5q0 24 9.5 45t25.5 37t36.5 25.5t42.5 9.5t43.5 -9.5t38.5 -26t27 -37.5t10 -44t-10 -44.5t-26.5 -38t-38 -26.5t-44.5 -10zM1267 387q58 -154 152 -154q44 0 78 22t58 58t40 82.5t25.5 95t13.5 96t4 85.5q0 98 -13 178t-37 136.5t-59 87t-80 30.5
q-39 0 -66 -26t-50.5 -75.5t-47.5 -120l-57 -159.5q-44 -86 -109 -121t-157 -35q49 -79 49 -176q0 -79 -30.5 -150t-85.5 -124.5t-131.5 -85t-168.5 -31.5q-93 0 -179.5 35.5t-153.5 97t-107.5 144t-40.5 177.5q0 5 2 15h197q0 -61 23.5 -111.5t63 -86.5t91 -56t108.5 -20
q46 0 86 14.5t69 40t45.5 59.5t16.5 72q0 48 -20.5 85t-58 63t-90.5 39.5t-119 13.5v196q133 0 195.5 54.5t62.5 160.5q0 35 -16 66.5t-42.5 55t-60 37t-68.5 13.5q-33 0 -65 -12t-57 -33t-41 -49.5t-17 -60.5h-196q0 72 31.5 136.5t84 112.5t120 76.5t140.5 28.5
q75 0 143.5 -28.5t121 -79t83.5 -119.5t31 -150q0 -60 -13 -107.5t-42 -95.5q23 -20 57 -20q68 0 113 125l65 182t31 78q86 149 260 149q91 0 162.5 -45t120.5 -127t74.5 -197.5t25.5 -256.5q0 -66 -9 -138.5t-29.5 -143t-52.5 -135t-77.5 -113.5t-106.5 -78t-138 -29
q-205 0 -332 262z" />
    <glyph glyph-name="uni0AE0" unicode="&#xae0;" horiz-adv-x="1751" 
d="M1706 307q-17 -35 -46.5 -65.5t-66 -53t-78 -35t-83.5 -12.5q-62 0 -115 19.5t-92 54.5t-61.5 83.5t-22.5 107.5q0 80 43 141q-29 12 -54.5 36.5t-39.5 55.5q-29 -11 -62 -16t-78 -5q-66 0 -127 37v-252q0 -206 123 -206q17 0 49 26l105 -172q-40 -26 -79.5 -38.5
t-74.5 -12.5q-319 0 -319 403v132l-217.5 -127.5l-214.5 -124.5l-109 163l541 322q-2 48 -17 88t-40.5 69t-60.5 45.5t-77 16.5q-182 0 -182 -196h-197q0 90 27 162t76.5 123t119.5 78.5t156 27.5q48 0 97.5 -14t97.5 -40v230h196v-463q0 -15 12.5 -29t31 -25t41 -17.5
t42.5 -6.5q127 0 172 68q-51 8 -79.5 45t-28.5 94q0 30 12.5 56t33.5 45.5t48.5 30.5t56.5 11q39 0 71 -15.5t54.5 -42.5t34.5 -64t12 -80q0 -60 -24.5 -114.5t-75.5 -105.5q6 -24 31.5 -42.5t56.5 -18.5q20 0 41.5 8t46.5 27l143 -125q-36 -20 -75.5 -38.5t-72.5 -40
t-54 -47.5t-21 -62t28.5 -60t70.5 -24q18 0 39 10t40.5 27.5t34.5 40t21 46.5z" />
    <glyph glyph-name="uni0AE6" unicode="&#xae6;" horiz-adv-x="1323" 
d="M621 201q77 0 143 38.5t114 103t75.5 149.5t27.5 178q0 94 -27.5 183.5t-76 159t-114.5 112t-142 42.5q-77 0 -142.5 -42.5t-113 -112t-74.5 -159t-27 -183.5q0 -95 27 -180.5t75 -149.5t113 -101.5t142 -37.5zM621 0q-85 0 -159 27.5t-136 75t-110 112t-81.5 139
t-51 155.5t-17.5 161q0 86 19.5 171t55 162t86 143t112 114t133 75.5t149.5 27.5q89 0 164.5 -30t137 -81.5t109 -119.5t79.5 -145t48.5 -158.5t16.5 -158.5q0 -82 -17.5 -163t-51 -155.5t-81.5 -138.5t-110 -111.5t-136 -74.5t-159 -27z" />
    <glyph glyph-name="uni0AE7" unicode="&#xae7;" horiz-adv-x="1323" 
d="M641 1038q0 27 -10 50.5t-27 41.5t-40.5 28.5t-51.5 10.5t-52 -10.5t-41.5 -28.5t-27.5 -41.5t-10 -50.5t11 -50.5t29 -41t41.5 -27.5t49.5 -10q28 0 51.5 10t40.5 27.5t27 41t10 50.5zM1116 51q-42 -25 -79.5 -38t-71.5 -13q-74 0 -134 27t-102 76t-65 117t-23 151v374
q-34 -19 -65.5 -27t-63.5 -8q-68 0 -127 25.5t-103.5 70t-70 104t-25.5 128.5q0 65 26.5 124t71.5 103.5t104 71t124 26.5q61 0 120 -25.5t104.5 -68.5t73.5 -100t28 -119v-612q0 -69 7 -115t22 -73.5t39 -39t59 -11.5q6 0 18 5.5l31 14.5z" />
    <glyph glyph-name="uni0AE8" unicode="&#xae8;" horiz-adv-x="1323" 
d="M1044 0h-129q-98 0 -169.5 29t-130 92.5t-110 163.5t-108.5 243h-131v189h233q42 0 86 1.5t86 7.5t78.5 19.5t64.5 37.5t44 60t16 89q0 43 -16.5 85.5t-45.5 75.5t-69 53.5t-86 20.5q-69 0 -130.5 -46.5t-103.5 -121.5l-157 127q40 61 81.5 106t88.5 74.5t103 43.5
t126 14q86 0 160 -36t129 -96t86 -138t31 -162q0 -93 -32 -166t-92 -124.5t-145.5 -80.5t-191.5 -33l51 -123t27 -59q23 -45 52.5 -74t71 -46t98 -24t134.5 -7v-195z" />
    <glyph glyph-name="uni0AE9" unicode="&#xae9;" horiz-adv-x="1323" 
d="M362 317q81 -118 228 -118q45 0 83.5 12.5t67.5 36t45.5 56t16.5 71.5q0 49 -20 88.5t-55.5 67t-85 42.5t-107.5 15h-156v196h156q272 0 272 189q0 41 -17 76.5t-46.5 61.5t-69 41t-84.5 15q-72 0 -129 -29t-105 -89l-166 96q27 51 68.5 91.5t94 69t112.5 43.5t125 15
q90 0 165 -28.5t129 -80.5t84.5 -123.5t30.5 -158.5q0 -91 -34.5 -162t-106.5 -125q139 -103 139 -311q0 -82 -31 -151t-86 -118.5t-129 -77.5t-161 -28q-139 0 -236 55.5t-164 167.5z" />
    <glyph glyph-name="uni0AEA" unicode="&#xaea;" horiz-adv-x="1323" 
d="M776 741l92 -106.5t67.5 -92.5t41.5 -87.5t14 -92.5q0 -75 -26.5 -141t-73.5 -115t-111.5 -77.5t-140.5 -28.5q-78 0 -143.5 28t-112 77t-72.5 115t-26 142q0 50 24.5 100t60.5 98t77 93.5t73 87.5l-201.5 245l-201.5 245l147 137l383 -473l94.5 117l98 120.5l98 120
l94.5 115.5l146 -139zM649 590q-24 -30 -54 -62.5l-56.5 -63t-44 -57t-17.5 -45.5q0 -32 13 -61.5t35.5 -52t52 -36t61.5 -13.5q31 0 60 13.5t50.5 36t34.5 52t13 61.5q0 20 -13.5 47.5t-34.5 57.5t-47.5 62z" />
    <glyph glyph-name="uni0AEB" unicode="&#xaeb;" horiz-adv-x="1323" 
d="M1229 51q-83 -51 -156 -51t-131.5 28.5t-100 80.5t-63.5 123.5t-22 158.5v19q-101 -56 -215 -56q-81 0 -153 33t-125.5 89t-84.5 129.5t-31 154.5v324q0 32 -3.5 52.5t-12 32.5t-22.5 16.5t-35 4.5v197q128 0 196 -69t68 -203v-347q0 -46 16 -86t44.5 -69.5t67.5 -46.5
t85 -17q38 0 75 15.5t66 42t46.5 60.5t17.5 72v619h198v-903q0 -74 6.5 -123.5t20.5 -79.5t36 -42.5t54 -12.5q3 0 18 4.5t41 15.5z" />
    <glyph glyph-name="uni0AEC" unicode="&#xaec;" horiz-adv-x="1323" 
d="M1087 698q-6 -6 -12.5 -21.5t-20 -37t-37 -46t-63.5 -48.5q25 -40 44.5 -90t19.5 -121q0 -88 -28.5 -151t-76.5 -103.5t-109.5 -60t-127.5 -19.5q-63 0 -120.5 13t-109.5 35.5t-98 53.5t-86 68l131 141l63 -41t67 -36t73 -25.5t80 -9.5q22 0 48 4t48 18t36.5 41t14.5 72
q0 21 -3.5 43t-10.5 42t-16 37t-21 29q-33 -6 -94 -6q-99 0 -183.5 35.5t-147 97t-97.5 143.5t-35 175q0 209 129.5 318.5t372.5 109.5h176v-194h-176q-303 0 -303 -234q0 -53 19.5 -99t54 -80.5t83 -54.5t107.5 -20q81 0 141 30.5t94 90.5z" />
    <glyph glyph-name="uni0AED" unicode="&#xaed;" horiz-adv-x="1323" 
d="M1018 697v42q0 5 -2 13q-15 -17 -32.5 -33t-40 -28t-50 -19.5t-62.5 -7.5q-61 0 -112 27t-88 75t-57.5 114t-20.5 144q0 76 20 138.5t57.5 106.5t90.5 68.5t119 24.5q94 0 164 -51.5t116.5 -141.5t70 -211.5t23.5 -260.5q0 -138 -37.5 -264t-109.5 -222.5t-178 -153.5
t-244 -57q-137 0 -242.5 53.5t-177 149.5t-108.5 229t-37 291h196q0 -105 18 -200.5t60.5 -168.5t113.5 -116t177 -43q84 0 152.5 37.5t117.5 104.5t76 159t27 201zM954 991q-3 34 -13 66.5t-24.5 58t-33 41t-37.5 15.5q-16 0 -33 -9t-31 -27.5t-23 -46.5t-9 -65
q0 -35 6 -64.5t16.5 -52t25.5 -35t33 -12.5q29 0 51 13.5t37 33.5t23.5 43t11.5 41z" />
    <glyph glyph-name="uni0AEE" unicode="&#xaee;" horiz-adv-x="1323" 
d="M1122 350q-20 -78 -63 -142.5t-101.5 -110.5t-129 -71.5t-146.5 -25.5q-108 0 -197.5 32.5t-153.5 93t-99.5 146t-35.5 191.5q0 72 21.5 144.5t68 151.5t120 166.5t177.5 188.5l72.5 70.5l79 76.5l81 78l78.5 75l143 -133l-104 -103l-108 -106l-106 -104l-99 -96
q-118 -129 -174.5 -230t-56.5 -179q0 -59 21.5 -108.5t60.5 -85t92.5 -55t118.5 -19.5q45 0 86 15t74 41.5t56.5 62.5t33.5 79z" />
    <glyph glyph-name="uni0AEF" unicode="&#xaef;" horiz-adv-x="1323" 
d="M1174 821l-521 -327l-106 161l520 330zM1096 250q-38 -59 -86 -105t-102.5 -78.5t-113.5 -49.5t-118 -17q-114 0 -214 45t-174 123t-116.5 182t-42.5 223q0 117 45.5 228.5t130 211t204.5 184.5t269 149l78 -183q-120 -50 -218.5 -116t-168 -143t-107.5 -162t-38 -173
q0 -75 28 -143t76 -120t112 -82.5t136 -30.5q156 0 252 159z" />
    <glyph glyph-name="glyph130" horiz-adv-x="0" 
d="M8 1947q0 -80 -31.5 -151t-84 -124.5t-121.5 -84.5t-145 -31q-77 0 -147 31.5t-123 85.5t-84.5 125t-31.5 149h160q0 -47 19.5 -89t51 -74t72.5 -51t83 -19q43 0 83.5 18.5t72 50.5t50.5 74t19 90h157zM-256 1925q0 -25 -9.5 -46.5t-26 -37t-37.5 -24.5t-45 -9t-45.5 9.5
t-37 25t-25 37t-9.5 45.5q0 22 9.5 43.5t25 38t37 26.5t45.5 10q22 0 43.5 -10t38 -26.5t26.5 -38t10 -43.5z" />
    <glyph glyph-name="glyph131" horiz-adv-x="0" 
d="M-236 1732q0 -28 -11 -52.5t-29.5 -43t-43 -29t-51.5 -10.5t-52 11t-44 29.5t-30.5 43t-11.5 51.5t11.5 52t30.5 43.5t44 30t52 11.5q28 0 52.5 -10.5t43 -29.5t29 -44t10.5 -53z" />
    <glyph glyph-name="glyph132" horiz-adv-x="0" 
d="M-104 1893q0 -28 -11 -52.5t-29.5 -43t-43.5 -29t-53 -10.5q-26 0 -50.5 10.5t-43.5 28.5t-30.5 42.5t-11.5 53.5q0 27 11 51t30 43t43.5 30t51.5 11t51.5 -10.5t43.5 -29t30.5 -43t11.5 -52.5z" />
    <glyph glyph-name="glyph133" horiz-adv-x="0" 
d="M28 1930q0 -29 -10.5 -54.5t-29 -44t-43 -29t-52.5 -10.5t-52.5 11.5t-43 30.5t-29.5 44t-11 52t11 51.5t29.5 43t43 29.5t52.5 11t52.5 -11t43 -29.5t29 -43t10.5 -51.5z" />
    <glyph glyph-name="glyph134" horiz-adv-x="0" 
d="M-840 -286q-29 0 -55 11.5t-45.5 31.5t-31 46.5t-11.5 55.5q0 30 11.5 56t31 45.5t46 30.5t56.5 11q29 0 55 -11t45.5 -30.5t30.5 -45.5t11 -56t-11.5 -56.5t-31 -46t-46 -31t-55.5 -11.5z" />
    <glyph glyph-name="glyph135" horiz-adv-x="424" 
d="M549 53q-43 -28 -83 -40.5t-77 -12.5q-71 0 -129 29.5t-99 82t-64 123.5t-23 154v984q0 164 44 292.5t128.5 217t207.5 134.5t281 46q98 0 213.5 -20t231.5 -58t224.5 -94t192 -128.5t134 -161t50.5 -191.5v-17h-199q0 76 -42.5 142t-113 120t-160.5 96t-185 71
t-186.5 44t-165.5 15q-457 0 -457 -508v-984q0 -88 30 -139t87 -51q21 0 55 22z" />
    <glyph glyph-name="glyph136" horiz-adv-x="477" 
d="M543 53q-42 -28 -82 -40.5t-78 -12.5q-73 0 -131.5 28t-99 78.5t-62.5 121.5t-22 157v988q0 175 30 302.5t92 210t156.5 122t222.5 39.5q87 0 173.5 -21.5t165.5 -62t146.5 -97t117 -127t77.5 -153t28 -173.5v-21h-194q-3 103 -49 187.5t-119 144.5t-163.5 93t-182.5 33
q-79 0 -136.5 -26.5t-95 -84t-55.5 -148t-18 -218.5v-988q0 -186 119 -186q10 0 57 18z" />
    <glyph glyph-name="glyph137" horiz-adv-x="477" 
d="M551 53q-42 -28 -82 -40.5t-80 -12.5q-71 0 -129.5 29t-99.5 80t-63.5 121t-22.5 153v1079q0 138 41 244.5t120 178.5t193 109t260 37q115 0 231.5 -22t230 -60.5t223.5 -91.5t211.5 -115.5t194 -132.5t171.5 -142l-137 -141q-137 137 -286.5 233.5t-298 157t-287.5 88.5
t-255 28q-112 0 -190.5 -23t-127.5 -74t-71.5 -132.5t-22.5 -198.5v-1022q0 -182 117 -182q14 0 58 18z" />
    <glyph glyph-name="glyph138" horiz-adv-x="424" 
d="M2300 1231q-81 77 -172.5 152t-192.5 143t-210.5 126.5t-225.5 101t-238 66.5t-247 24q-171 0 -307.5 -30.5t-231.5 -89.5t-145.5 -144.5t-50.5 -196.5v-996q0 -186 118 -186q17 0 58 18l102 -168q-42 -26 -82.5 -38.5t-77.5 -12.5q-74 0 -132.5 28t-99 79t-62 122
t-21.5 158v996q0 153 67 274.5t188.5 206.5t291 130.5t375.5 45.5q214 0 412 -51.5t378.5 -142.5t343.5 -215t307 -269z" />
    <glyph glyph-name="glyph139" horiz-adv-x="424" 
d="M2564 1204q-399 309 -785.5 470t-758.5 161q-177 0 -315 -30.5t-232 -89t-143 -144.5t-49 -197v-989q0 -186 118 -186q13 0 56 20l102 -168q-40 -26 -80 -38.5t-78 -12.5q-74 0 -133 28t-100 78.5t-62.5 121.5t-21.5 157v991q0 126 39 223.5t106.5 170.5t158.5 123
t195 80.5t216.5 44t222.5 13.5q205 0 402 -39.5t398.5 -121t413 -208t445.5 -300.5z" />
    <glyph glyph-name="glyph140" horiz-adv-x="424" 
d="M1919 1266q-147 150 -295.5 260t-289.5 181t-269.5 105.5t-235.5 34.5q-62 0 -127.5 -11.5t-127 -36t-116.5 -62.5t-95.5 -90t-64.5 -118.5t-24 -148.5v-995q0 -184 117 -184q13 0 58 20l102 -168q-83 -53 -160 -53q-73 0 -131 28t-99 79t-63 121.5t-22 156.5v995
q0 110 29.5 202t82 165.5t124 128.5t155 91.5t175.5 55t185 18.5q134 0 280 -34.5t301.5 -110.5t318.5 -197t331 -294z" />
    <glyph glyph-name="glyph141" horiz-adv-x="475" 
d="M543 49q-82 -49 -160 -49q-73 0 -131.5 28.5t-100 79.5t-63.5 122.5t-22 158.5v1123q0 122 37 224.5t104.5 177t163 116t211.5 41.5q96 0 185 -27t168.5 -75t148 -113t123.5 -141t95.5 -159.5t63.5 -167.5l-188 -49q-32 118 -93.5 216t-140.5 168.5t-170 109.5t-182 39
q-76 0 -137 -23.5t-104 -67.5t-66 -106t-23 -139v-1147q0 -192 121 -192q3 0 18 4.5t39 15.5z" />
    <glyph glyph-name="glyph142" horiz-adv-x="584" 
d="M578 55q-85 -55 -156 -55q-75 0 -134 28.5t-99.5 81t-61.5 128t-21 170.5v971q0 57 -0.5 112.5t-6 106t-19 93t-39 74t-66.5 49t-102 17.5q-48 0 -86 -22t-64.5 -62t-40.5 -95t-14 -122v-172h-198v162q0 110 28 202.5t80.5 159.5t127 104.5t167.5 37.5q113 0 194.5 -34.5
t134.5 -111.5t78 -200t25 -299v-941q0 -68 6 -113.5t20 -73t36.5 -39t54.5 -11.5q1 0 55 20z" />
    <glyph glyph-name="glyph143" horiz-adv-x="0" 
d="M-405 1357q-15 34 -29.5 71.5t-25.5 76t-18 75t-7 68.5q0 68 28 122.5t74 93t105.5 59t122.5 20.5q156 0 243 -96l-22 -43l-23 -45l-21 -41l-16 -31q-47 29 -84.5 43t-85.5 14q-40 0 -71.5 -15.5t-54 -42t-34.5 -62.5t-12 -76q0 -18 6 -46.5t15 -57.5t18 -53t15 -34h-123
z" />
    <glyph glyph-name="glyph144" horiz-adv-x="0" 
d="M-401 1380q-15 33 -29.5 70.5t-25.5 75.5t-18 74.5t-7 68.5q0 68 28 122.5t74 93t105 59t122 20.5q163 0 244 -97l-21.5 -43l-23 -45l-21.5 -41l-16 -30q-45 29 -83 43t-87 14q-40 0 -71.5 -15.5t-54 -42t-34.5 -62.5t-12 -77q0 -18 6.5 -46t15 -56t17.5 -52t14 -34h-122
z" />
    <glyph glyph-name="glyph145" horiz-adv-x="0" 
d="M-483 1380q-15 34 -29.5 71.5t-25.5 75t-18 74t-7 68.5q0 68 28 122.5t74 93t105 59t122 20.5q163 0 244 -97l-21.5 -43l-23 -45l-21.5 -41l-16 -30q-23 14 -43 25t-40 18.5t-41 11.5t-46 4q-40 0 -71.5 -15.5t-54 -42.5t-34.5 -63t-12 -78q0 -18 6 -46t15 -56.5
t18 -52.5t15 -33h-123z" />
    <glyph glyph-name="glyph146" horiz-adv-x="0" 
d="M-559 1316q-15 34 -29.5 71.5t-25.5 76t-18 75t-7 68.5q0 68 28 122.5t74.5 93t106 59t121.5 20.5q157 0 246 -96l-22 -43l-23.5 -45l-21.5 -41t-17 -31q-46 30 -84 43.5t-86 13.5q-40 0 -72 -15.5t-54 -42t-34 -62.5t-12 -76q0 -19 6 -47t14.5 -56.5t17.5 -52.5t15 -35
h-123z" />
    <glyph glyph-name="glyph147" horiz-adv-x="0" 
d="M-411 1350q-15 34 -29.5 71.5t-25.5 76t-18 75t-7 68.5q0 68 28 122.5t74 93t105 59t122 20.5q160 0 244 -96l-22 -43l-23 -45l-21 -41l-16 -31q-45 29 -83 43t-87 14q-40 0 -71.5 -15.5t-54 -42t-34.5 -62.5t-12 -76q0 -19 6.5 -47t15 -56.5t17.5 -52.5t14 -35h-122z
" />
    <glyph glyph-name="glyph148" horiz-adv-x="0" 
d="M-498 1347q-15 34 -29.5 71.5t-25.5 76t-18 75t-7 68.5q0 68 28 122.5t73.5 93t105 59t122.5 20.5q160 0 244 -96l-22 -43l-23 -45l-21 -41l-16 -31q-45 29 -83 43t-87 14q-40 0 -71.5 -15.5t-54 -42t-34.5 -62.5t-12 -76q0 -19 6.5 -47t15 -56.5t17.5 -52.5t14 -35h-122
z" />
    <glyph glyph-name="glyph149" horiz-adv-x="0" 
d="M-498 1347q-4 32 -7.5 73t-6.5 84t-4.5 84t-1.5 73q0 73 24 131t66.5 98t100 61t124.5 21q159 0 246 -96l-22 -44l-24 -45l-22 -40.5l-16 -30.5q-45 29 -83 43t-87 14q-42 0 -70 -13.5t-46 -36t-27.5 -52.5t-13.5 -63t-4.5 -67t-0.5 -65q0 -8 0.5 -27t0.5 -39
q0 -21 0.5 -39t0.5 -24h-127z" />
    <glyph glyph-name="glyph150" horiz-adv-x="0" 
d="M-429 1351q-15 34 -29.5 71.5t-25.5 76t-18 75t-7 68.5q0 68 28 122.5t74 93t105.5 59t122.5 20.5q156 0 243 -96l-22 -43l-23 -45l-21 -41l-16 -31q-47 29 -84.5 43t-85.5 14q-40 0 -75 -15.5t-61 -42t-41 -62.5t-15 -76q0 -19 6.5 -47t15 -56.5t17.5 -52.5t14 -35h-102
z" />
    <glyph glyph-name="glyph151" horiz-adv-x="584" 
d="M580 55q-85 -55 -158 -55q-75 0 -134 29t-99.5 82t-61.5 128.5t-21 168.5v1016q0 389 -231 389q-48 0 -86.5 -22.5t-65.5 -62t-41 -95t-14 -121.5v-106h-196v96q0 110 28.5 202.5t81 159.5t127 104.5t166.5 37.5q170 0 270 -88q42 58 102.5 97t141.5 39q187 0 291 -194
l-170 -96q-47 98 -121 98q-18 0 -36 -10t-35 -25.5t-31 -34t-23 -34.5q43 -136 43 -334v-986q0 -68 6 -113.5t20 -73t35.5 -39t53.5 -11.5q15 0 55 22z" />
    <glyph glyph-name="uni0AC0_uni0AB0_uni0ACD.rphf.abvs" horiz-adv-x="584" 
d="M580 53q-42 -28 -81.5 -40.5t-74.5 -12.5q-73 0 -132 28t-100 79t-63.5 121.5t-22.5 156.5v996q0 208 -22 287q-42 155 -178 155q-57 0 -89.5 -34.5t-48.5 -86t-20 -111t-4 -110.5v-63h-197q0 161 20.5 274.5t64 185.5t111.5 105t163 33q140 0 229 -74q19 26 47.5 51.5
t61.5 45.5t69.5 32t71.5 12q184 0 291 -195l-170 -94q-46 94 -121 94q-22 0 -42.5 -11t-37 -27.5t-28 -35.5t-15.5 -36q23 -75 33 -171.5t10 -225.5v-990q0 -192 119 -192q18 0 55 22z" />
    <glyph glyph-name="glyph153" horiz-adv-x="0" 
d="M-424 1357q-15 34 -29.5 71.5t-25.5 76t-18 75t-7 68.5q0 68 28 122.5t74 93t105.5 59t122.5 20.5q156 0 243 -96l-22 -43l-23 -45l-21 -41l-16 -31q-47 29 -84.5 43t-85.5 14q-40 0 -71.5 -15.5t-54 -42t-34.5 -62.5t-12 -76q0 -18 6 -46.5t15 -57.5t18 -53t15 -34h-123
zM28 1516q0 -28 -11 -52.5t-29.5 -43t-43 -29t-51.5 -10.5t-52 11t-44 29.5t-30.5 43t-11.5 51.5t11.5 52t30.5 43.5t44 30t52 11.5q28 0 52.5 -10.5t43 -29.5t29 -44t10.5 -53z" />
    <glyph glyph-name="glyph154" horiz-adv-x="0" 
d="M28 1516q0 -28 -11 -52.5t-29.5 -43t-43 -29t-51.5 -10.5t-52 11t-44 29.5t-30.5 43t-11.5 51.5t11.5 52t30.5 43.5t44 30t52 11.5q28 0 52.5 -10.5t43 -29.5t29 -44t10.5 -53zM-401 1380q-15 33 -29.5 70.5t-25.5 75.5t-18 74.5t-7 68.5q0 68 28 122.5t74 93t105 59
t122 20.5q163 0 244 -97l-21.5 -43l-23 -45l-21.5 -41l-16 -30q-45 29 -83 43t-87 14q-40 0 -71.5 -15.5t-54 -42t-34.5 -62.5t-12 -77q0 -18 6.5 -46t15 -56t17.5 -52t14 -34h-122z" />
    <glyph glyph-name="glyph155" horiz-adv-x="0" 
d="M-32 1506q0 -28 -11 -52.5t-29.5 -43t-43 -29t-51.5 -10.5t-52 11t-44 29.5t-30.5 43t-11.5 51.5t11.5 52t30.5 43.5t44 30t52 11.5q28 0 52.5 -10.5t43 -29.5t29 -44t10.5 -53zM-483 1371q-15 34 -29.5 71.5t-25.5 75t-18 74t-7 68.5q0 68 28 122.5t74 93t105 59
t122 20.5q163 0 244 -97l-21.5 -43l-23 -45l-21.5 -41l-16 -30q-23 14 -43 25t-40 18.5t-41 11.5t-46 4q-40 0 -71.5 -15.5t-54 -42.5t-34.5 -63t-12 -78q0 -18 6 -46t15 -56.5t18 -52.5t15 -33h-123z" />
    <glyph glyph-name="glyph156" horiz-adv-x="0" 
d="M-92 1496q0 -28 -11 -52.5t-29.5 -43t-43 -29t-51.5 -10.5t-52 11t-44 29.5t-30.5 43t-11.5 51.5t11.5 52t30.5 43.5t44 30t52 11.5q28 0 52.5 -10.5t43 -29.5t29 -44t10.5 -53zM-559 1316q-15 34 -29.5 71.5t-25.5 76t-18 75t-7 68.5q0 68 28 122.5t74.5 93t106 59
t121.5 20.5q157 0 246 -96l-22 -43l-23.5 -45l-21.5 -41t-17 -31q-46 30 -84 43.5t-86 13.5q-40 0 -72 -15.5t-54 -42t-34 -62.5t-12 -76q0 -19 6 -47t14.5 -56.5t17.5 -52.5t15 -35h-123z" />
    <glyph glyph-name="glyph157" horiz-adv-x="0" 
d="M38 1486q0 -28 -11 -52.5t-29.5 -43t-43 -29t-51.5 -10.5t-52 11t-44 29.5t-30.5 43t-11.5 51.5t11.5 52t30.5 43.5t44 30t52 11.5q28 0 52.5 -10.5t43 -29.5t29 -44t10.5 -53zM-411 1350q-15 34 -29.5 71.5t-25.5 76t-18 75t-7 68.5q0 68 28 122.5t74 93t105 59
t122 20.5q160 0 244 -96l-22 -43l-23 -45l-21 -41l-16 -31q-45 29 -83 43t-87 14q-40 0 -71.5 -15.5t-54 -42t-34.5 -62.5t-12 -76q0 -19 6.5 -47t15 -56.5t17.5 -52.5t14 -35h-122z" />
    <glyph glyph-name="glyph158" horiz-adv-x="0" 
d="M-22 1496q0 -28 -11 -52.5t-29.5 -43t-43 -29t-51.5 -10.5t-52 11t-44 29.5t-30.5 43t-11.5 51.5t11.5 52t30.5 43.5t44 30t52 11.5q28 0 52.5 -10.5t43 -29.5t29 -44t10.5 -53zM-498 1347q-15 34 -29.5 71.5t-25.5 76t-18 75t-7 68.5q0 68 28 122.5t73.5 93t105 59
t122.5 20.5q160 0 244 -96l-22 -43l-23 -45l-21 -41l-16 -31q-45 29 -83 43t-87 14q-40 0 -71.5 -15.5t-54 -42t-34.5 -62.5t-12 -76q0 -19 6.5 -47t15 -56.5t17.5 -52.5t14 -35h-122z" />
    <glyph glyph-name="glyph159" horiz-adv-x="0" 
d="M-498 1347q-4 32 -7.5 73t-6.5 84t-4.5 84t-1.5 73q0 73 24 131t66.5 98t100 61t124.5 21q159 0 246 -96l-22 -44l-24 -45l-22 -40.5l-16 -30.5q-45 29 -83 43t-87 14q-42 0 -70 -13.5t-46 -36t-27.5 -52.5t-13.5 -63t-4.5 -67t-0.5 -65q0 -8 0.5 -27t0.5 -39
q0 -21 0.5 -39t0.5 -24h-127zM1 1530q0 -28 -11 -52.5t-29.5 -43t-43 -29t-51.5 -10.5t-52 11t-44 29.5t-30.5 43t-11.5 51.5t11.5 52t30.5 43.5t44 30t52 11.5q28 0 52.5 -10.5t43 -29.5t29 -44t10.5 -53z" />
    <glyph glyph-name="glyph160" horiz-adv-x="0" 
d="M-429 1351q-15 34 -29.5 71.5t-25.5 76t-18 75t-7 68.5q0 68 28 122.5t74 93t105.5 59t122.5 20.5q156 0 243 -96l-22 -43l-23 -45l-21 -41l-16 -31q-47 29 -84.5 43t-85.5 14q-40 0 -75 -15.5t-61 -42t-41 -62.5t-15 -76q0 -19 6.5 -47t15 -56.5t17.5 -52.5t14 -35h-102
zM14 1510q0 -28 -11 -52.5t-29.5 -43t-43 -29t-51.5 -10.5t-52 11t-44 29.5t-30.5 43t-11.5 51.5t11.5 52t30.5 43.5t44 30t52 11.5q28 0 52.5 -10.5t43 -29.5t29 -44t10.5 -53z" />
    <glyph glyph-name="glyph161" horiz-adv-x="584" 
d="M580 55q-85 -55 -158 -55q-75 0 -133.5 29t-99 82t-62 128.5t-21.5 168.5v1014q0 108 -13 182t-41 120t-72 66.5t-105 20.5q-48 0 -86 -22.5t-65 -62t-41.5 -95t-14.5 -121.5v-150h-196v140q0 108 28.5 200.5t81 160t127 105.5t166.5 38q173 0 270 -88q86 116 244 116
q182 0 291 -151l-69 -49l-85 -60q-65 68 -137 68q-43 0 -75.5 -17t-57.5 -49q26 -75 38.5 -164t12.5 -192v-980q0 -68 6.5 -113.5t20.5 -73t35.5 -39t52.5 -11.5q18 0 55 22zM465 1446q-21 0 -41 8.5t-35 22.5t-24 33.5t-9 41.5t9 41.5t24 34t34 23t40 8.5t40 -8.5t33.5 -23
t23.5 -34t9 -41.5q0 -21 -8.5 -40.5t-23 -34t-33 -23t-39.5 -8.5z" />
    <glyph glyph-name="uni0AC0_uni0AB0_uni0ACD.rphf_uni0A82.abvs" horiz-adv-x="584" 
d="M580 53q-42 -28 -81.5 -40.5t-74.5 -12.5q-73 0 -132 28t-100 79t-63.5 121.5t-22.5 156.5v980q0 41 -0.5 89.5t-5.5 98t-17 95t-34 81t-57 57t-86 21.5q-45 0 -75 -17t-49.5 -45.5t-29.5 -67t-14.5 -81.5t-5 -89t-0.5 -89v-29h-197v37q0 73 4.5 144t17.5 135t38 118
t66.5 93.5t101.5 61.5t143 22q140 0 229 -74q19 26 47.5 48.5t61.5 38.5t69.5 25t71.5 9q190 0 295 -158q-35 -25 -74 -49.5l-84 -50.5q-32 32 -67 47.5t-70 15.5q-21 0 -41.5 -6t-38.5 -16t-31 -24t-18 -30q26 -78 37.5 -179t11.5 -232v-974q0 -192 119 -192q18 0 55 22z
M465 1458q-21 0 -40.5 8.5t-34.5 22.5t-23.5 33.5t-8.5 42.5q0 21 8.5 40.5t23 34t34 23t41.5 8.5q21 0 40 -8.5t33.5 -23t22.5 -34t8 -40.5q0 -23 -8 -42.5t-22.5 -33.5t-33.5 -22.5t-40 -8.5z" />
    <glyph glyph-name="glyph163" horiz-adv-x="1024" 
d="M128 0v1320h768v-1320h-768zM256 128h512v1064h-512v-1064z" />
    <glyph glyph-name="glyph164" horiz-adv-x="0" 
d="M-205 -240q37 32 80.5 47.5t91.5 15.5q45 0 87 -19.5t73.5 -52t50.5 -74.5t19 -87q0 -62 -27.5 -113t-75.5 -87.5t-112.5 -56.5t-139.5 -20q-121 0 -235.5 43.5t-220.5 131.5l116 133q145 -129 340 -129q88 0 132 22.5t44 73.5q0 25 -19.5 44t-45.5 19t-68 -39z" />
    <glyph glyph-name="glyph165" horiz-adv-x="0" 
d="M-825 -564q40 91 100 133.5t141 42.5q61 0 111 -22t86 -60.5t56 -91.5t20 -116q0 -66 -29 -121t-79 -95.5t-117.5 -63t-143.5 -22.5q-236 0 -471 238l137 135q179 -176 330 -176q36 0 68.5 9t56.5 25t38.5 38.5t14.5 48.5q0 34 -23 56t-57 22q-38 0 -55 -47z" />
    <glyph glyph-name="glyph166" horiz-adv-x="1024" 
d="M128 0v1320h768v-1320h-768zM256 128h512v1064h-512v-1064z" />
    <glyph glyph-name="glyph167" horiz-adv-x="0" 
d="M96 -725q-80 115 -142 192t-110.5 123.5t-85.5 66t-65 19.5q-42 0 -62 -20.5t-20 -54.5q0 -20 7.5 -33.5t19.5 -21.5t27 -11.5t30 -3.5v-176q-49 1 -95.5 19t-82.5 50.5t-58 77.5t-22 99q0 55 18.5 101.5t52.5 80t81 52t104 18.5q58 0 110 -21.5t100 -58t92 -85t86 -102
l82.5 -108.5l80.5 -105z" />
    <glyph glyph-name="glyph168" horiz-adv-x="0" 
d="M-162 -952q-56 87 -113.5 164t-110.5 134.5t-98.5 91.5t-76.5 34q-15 0 -29 -5.5t-25 -14.5t-17.5 -21t-6.5 -25q0 -26 27 -45.5t67 -19.5v-187q-64 0 -117 21t-91.5 56.5t-59.5 81t-21 93.5q0 58 21 106t57.5 82.5t86.5 54t108 19.5q48 0 104 -25.5t124 -85t151 -157.5
t184 -242z" />
    <glyph glyph-name="glyph169" horiz-adv-x="1024" 
d="M128 0v1320h768v-1320h-768zM256 128h512v1064h-512v-1064z" />
    <glyph glyph-name="glyph170" horiz-adv-x="0" 
d="M111 -457q-12 -57 -44 -104t-78.5 -81.5t-104 -53.5t-120.5 -19q-67 0 -125 20.5t-100.5 57.5t-67 87.5t-24.5 109.5q0 64 28 116.5t77 89t116.5 56.5t145.5 20v-174q-40 -1 -75.5 -8.5t-62 -21t-42 -32t-15.5 -42.5t11.5 -43.5t31 -33t46 -21t56.5 -7.5q31 0 60 9
t52.5 25.5t39.5 38.5t21 48z" />
    <glyph glyph-name="glyph171" horiz-adv-x="1024" 
d="M128 0v1320h768v-1320h-768zM256 128h512v1064h-512v-1064z" />
    <glyph glyph-name="glyph172" horiz-adv-x="0" 
d="M178 -780q-46 -57 -106.5 -84t-132.5 -27q-65 0 -114.5 18t-83.5 50.5t-51.5 78t-17.5 100.5q0 5 2 11q-41 11 -75.5 33t-59 52.5t-38 69t-13.5 83.5q0 52 22 100t61.5 85t96 59t125.5 22v-174q-38 0 -63 -9t-40 -23t-21.5 -33t-6.5 -38q0 -32 24 -53.5t58 -21.5
q67 0 102 75l160 -69q-13 -38 -39 -64.5t-65 -46.5q-49 -25 -49 -61q0 -32 24.5 -51t59.5 -19q30 0 57.5 13.5t50.5 37.5z" />
    <glyph glyph-name="glyph173" horiz-adv-x="0" 
d="M-217 1544q-21 -41 -53 -75.5t-70.5 -59.5t-81 -39t-84.5 -14q-79 0 -150.5 40.5t-140.5 121.5q-40 46 -87.5 121t-102.5 184l176 86q179 -359 305 -359q67 0 107 76z" />
    <glyph glyph-name="glyph174" horiz-adv-x="0" 
d="M-137 1894q0 -81 -31.5 -153t-84 -125t-122 -84t-145.5 -31q-77 0 -146.5 31.5t-122 85t-83.5 125t-31 151.5h158q0 -47 19 -89t50.5 -74t72 -51t83.5 -19q44 0 84.5 18.5t72 50t50 74t18.5 90.5h158z" />
    <glyph glyph-name="glyph175" horiz-adv-x="0" 
d="M20 1894q0 -81 -31.5 -153t-84.5 -125t-122 -84t-144 -31q-76 0 -146 31.5t-123 85t-85 125t-32 151.5h158q1 -47 21 -89t51.5 -74t72 -51t83.5 -19t83.5 18.5t72 50.5t50.5 74t19 90h157z" />
    <glyph glyph-name="glyph176" horiz-adv-x="0" 
d="M-602 1338q0 88 -23 168t-61.5 140t-89.5 95.5t-107 35.5h-145v190h143q65 0 126.5 -24.5t115.5 -67.5t98.5 -102t76.5 -129t49.5 -148t17.5 -158h-201z" />
    <glyph glyph-name="uni0AC7_uni0AB0_uni0ACD.rphf.abvs" horiz-adv-x="0" 
d="M-66 1640q-24 96 -129 96q-27 0 -53 -12t-48 -31.5t-37.5 -45t-20.5 -52.5q37 -54 57.5 -116t30.5 -134h-201q-4 55 -29.5 105.5t-67 94.5t-96.5 80.5t-118 62.5t-131 40t-135 14h-209v199h209q78 0 156.5 -16.5t151 -44.5t135 -65t109.5 -79q42 103 113.5 150t183.5 47
q51 0 101.5 -17.5t94 -49t76.5 -75.5t48 -98z" />
    <glyph glyph-name="glyph178" horiz-adv-x="0" 
d="M-100 1630q-29 101 -133 101q-29 0 -56.5 -9.5t-50 -26t-38 -38.5t-19.5 -47q24 -54 46.5 -121t39.5 -152h-201q-19 114 -58.5 188.5t-101.5 119t-149.5 62.5t-202.5 19v197q187 0 312 -34.5t200 -112.5q85 147 291 147q50 0 98.5 -17.5t90 -49t73.5 -76t49 -97.5z" />
    <glyph glyph-name="uni0AC7_uni0AB0_uni0ACD.rphf_uni0A82.abvs" horiz-adv-x="0" 
d="M-131 1415q-21 0 -40.5 8.5t-34.5 23t-23.5 34t-8.5 40.5q0 22 8.5 42t23 34t34 22.5t41.5 8.5q21 0 40 -8.5t33.5 -22.5t22.5 -34t8 -42q0 -21 -8 -40.5t-22.5 -34t-33.5 -23t-40 -8.5zM-45 1650q-43 76 -150 76q-27 0 -53 -12t-48 -31.5t-37.5 -45t-20.5 -52.5
q37 -54 57.5 -116t30.5 -134h-201q-4 55 -29.5 105.5t-67 94.5t-96.5 80.5t-118 62.5t-131 40t-135 14h-209v199h209q78 0 156.5 -16.5t151 -44.5t135 -65t109.5 -79q12 42 39 78t66 62.5t87.5 41.5t104.5 15q51 0 100.5 -14.5t94 -42.5t81.5 -69.5t64 -95.5z" />
    <glyph glyph-name="glyph180" horiz-adv-x="0" 
d="M-70 1501q0 -21 -8.5 -39.5t-23 -33t-33 -23t-39.5 -8.5t-40.5 8.5t-34.5 23t-23.5 33t-8.5 39.5q0 22 8.5 41.5t23.5 34t34.5 23t40.5 8.5t39.5 -8.5t33 -23t23 -34t8.5 -41.5zM-74 1642q-23 42 -65 65.5t-94 23.5q-29 0 -56.5 -9.5t-50 -26t-38 -38.5t-19.5 -47
q24 -54 46.5 -121t39.5 -152h-201q-19 114 -58.5 188.5t-101.5 119t-149.5 62.5t-202.5 19v197q187 0 312 -34.5t200 -112.5q85 147 291 147q49 0 96.5 -13t88 -37.5t72.5 -60t50 -81.5z" />
    <glyph glyph-name="glyph181" horiz-adv-x="0" 
d="M-324 1343h-194v106q0 168 -461 168v158q97 0 161.5 -2.5t102.5 -10.5q42 -9 95 -27t98 -42q-10 49 -41.5 87.5t-81 65t-116 40.5t-146.5 14v176q124 0 227 -30.5t179 -84.5t121.5 -129t55.5 -164v-325z" />
    <glyph glyph-name="uni0AC8_uni0AB0_uni0ACD.rphf.abvs" horiz-adv-x="0" 
d="M-268 1336h-199v33q0 65 -20 111t-68 75t-126.5 42.5t-195.5 13.5h-376v158h372q143 0 246.5 -23.5t175.5 -65.5q-5 58 -27.5 98t-68 65t-116 36.5t-171.5 11.5h-260v179h279q64 0 123.5 -6.5t112.5 -23t98 -45t81 -73.5q21 32 50 59.5t63 47t72 30.5t78 11
q51 0 98 -17.5t87 -49.5t70 -76.5t46 -98.5l-168 -53q-6 24 -20 44.5t-32 35.5t-39 23.5t-42 8.5q-27 0 -49.5 -10.5t-39 -28t-25.5 -41t-9 -49.5v-422z" />
    <glyph glyph-name="glyph183" horiz-adv-x="0" 
d="M-319 1352h-195v107q0 43 -25.5 75t-80.5 53t-142 31.5t-211 10.5v157q160 0 271.5 -19.5t183.5 -61.5q-19 103 -117.5 155.5t-265.5 52.5v177q75 0 138.5 -8t117.5 -26t98.5 -48t81.5 -74q21 40 50.5 68.5t64.5 46.5t73.5 26t79.5 8q51 0 99.5 -19t89.5 -52.5t72 -78.5
t47 -97l-170 -50q-44 123 -144 123q-63 0 -89.5 -40.5t-26.5 -106.5v-410z" />
    <glyph glyph-name="uni0AC8_uni0AB0_uni0ACD.rphf_uni0A82.abvs" horiz-adv-x="0" 
d="M-6 1676q0 -21 -9 -40.5t-24 -34t-34.5 -23t-41.5 -8.5q-21 0 -39.5 8.5t-33 23t-23 34t-8.5 40.5t8.5 40t23 33.5t33 23t39.5 8.5q22 0 41.5 -8.5t34.5 -23t24 -33.5t9 -40zM-266 1346h-201v117q0 158 -432 158h-354v158h372q147 0 250 -20t172 -58q-13 46 -46.5 83
t-82 63t-109.5 40t-128 14h-328v179h229q184 0 312 -38t206 -110q48 66 118.5 106t152.5 40q48 0 96.5 -18t90.5 -49.5t76 -74.5t54 -94l-172 -49q-18 52 -57.5 78t-97.5 26q-57 0 -95.5 -25t-58.5 -79q11 -63 19 -147.5t14 -190.5v-109z" />
    <glyph glyph-name="glyph185" horiz-adv-x="0" 
d="M-319 1338h-195v106q0 26 -18.5 51t-50.5 46t-76 37t-95 24q-32 5 -86.5 7.5t-132.5 2.5v158h49q139 0 238 -20t168 -60q-9 42 -38 80t-70 66.5t-90.5 45.5t-98.5 17q-11 0 -27.5 -1t-36.5 -3l-26 174q28 2 50 3t42 1q190 0 348 -149q94 145 268 145q52 0 101 -19.5
t89.5 -51t70.5 -72t45 -82.5l-172 -49q-11 43 -47 70.5t-93 27.5q-20 0 -43.5 -10t-45 -26t-38 -36.5t-22.5 -42.5q18 -43 25.5 -90.5t7.5 -105.5v-244zM-143 1510q-22 0 -41.5 8.5t-34 23t-23 34t-8.5 40.5q0 22 8.5 42t23 34t34 22.5t41.5 8.5q21 0 40 -8.5t33.5 -22.5
t22.5 -34t8 -42q0 -21 -8 -40.5t-22.5 -34t-33.5 -23t-40 -8.5z" />
    <glyph glyph-name="glyph186" horiz-adv-x="0" 
d="M-209 88h-199v1270h199v-1270zM-43 -420l-340 227l113 162l342 -227z" />
    <glyph glyph-name="glyph187" horiz-adv-x="0" 
d="M-227 -698l-371 237l109 158l374 -238z" />
    <glyph glyph-name="glyph188" horiz-adv-x="0" 
d="M-371 1174q-31 -8 -56.5 -11.5t-45.5 -3.5q-65 0 -124 27t-104 72t-71.5 103.5t-26.5 121.5q0 64 24 120.5t66 99t98.5 67t121.5 24.5q57 0 108 -17t96 -55l-108 -157q-28 15 -51 23.5t-43 8.5q-113 0 -113 -112q0 -26 10 -49.5t26.5 -42.5t38.5 -30t46 -11q11 0 53 14z
" />
    <glyph glyph-name="uni0AB0_uni0ACD.rphf" horiz-adv-x="0" 
d="M-266 1278q-97 0 -173.5 21.5t-130 63t-82 102.5t-28.5 141q0 60 25.5 115t68.5 97t99 66.5t116 24.5q57 0 108 -18.5t99 -53.5l-110 -158q-28 17 -51.5 24t-45.5 7q-49 0 -80.5 -28t-31.5 -76q0 -131 217 -131v-197z" />
    <glyph glyph-name="glyph190" horiz-adv-x="0" 
d="M-268 1530q0 -23 -9.5 -43.5t-25 -36.5t-36.5 -25.5t-44 -9.5q-22 0 -42.5 9.5t-36 25.5t-25 36.5t-9.5 43.5q0 22 9.5 43t25 37t36 25.5t42.5 9.5t43 -9.5t37 -25.5t25.5 -37t9.5 -43zM-373 1153h-39q-93 0 -168.5 27t-129.5 77.5t-83.5 122.5t-29.5 162q0 76 31.5 146
t84.5 123t122.5 84.5t146.5 31.5q125 0 225 -55l-88 -170q-75 29 -137 29q-37 0 -71.5 -16t-61 -42t-42.5 -60t-16 -71q0 -44 15.5 -79.5t44 -61t67.5 -40.5t86 -18z" />
    <glyph glyph-name="uni0AB0_uni0ACD.rphf_uni0A82.abvs" horiz-adv-x="0" 
d="M-133 1717q0 -23 -9.5 -44t-25 -37t-36.5 -25t-44 -9t-43.5 9t-35.5 25t-24 37t-9 44t9 44t24 36.5t35.5 25t43.5 9.5t44 -9.5t36.5 -25t25 -36.5t9.5 -44zM-254 1317q-101 0 -182.5 29t-138.5 82t-88 127.5t-31 165.5q0 84 30 155t83 123t125.5 81.5t158.5 29.5
q116 0 213 -55l-88 -172q-34 17 -65 23.5t-60 6.5q-44 0 -81 -14.5t-63.5 -40t-41.5 -60.5t-15 -77q0 -94 60.5 -149.5t183.5 -55.5v-199z" />
    <glyph glyph-name="glyph192" horiz-adv-x="0" 
d="M-467 1327q-65 144 -65 242q0 75 20.5 136.5t60 105.5t96.5 68t130 24q158 0 245 -97l-23 -43l-23 -45l-21 -41l-16 -30q-46 30 -84 44.5t-86 14.5q-25 0 -50 -8.5t-45.5 -25.5t-33.5 -43t-13 -60q0 -23 6.5 -59t16.5 -72t20.5 -67t18.5 -44h-154z" />
    <glyph glyph-name="glyph193" horiz-adv-x="0" 
d="M-403 1337q-32 69 -49 127.5t-17 112.5q0 75 21 137t60.5 106.5t96.5 68.5t129 24q81 0 142 -25t104 -73l-23 -43l-23.5 -45l-21.5 -40.5l-16 -29.5q-23 14 -43 24.5t-40 18t-41 11t-46 3.5q-57 0 -91 -34t-34 -103q1 -25 9.5 -60t20.5 -70t24.5 -65t21.5 -45h-184z" />
    <glyph glyph-name="uni0AB0_uni0ACD.blwf" horiz-adv-x="0" 
d="M-180 -182l-146 -125l-245 284l-242 -286l-152 127l299 344h193z" />
    <glyph glyph-name="glyph195" horiz-adv-x="0" 
d="M-252 426l-569 -520l-148 147l598 492z" />
    <glyph glyph-name="glyph196" horiz-adv-x="0" 
d="M-602 279l-143 106l292 340l144 -107z" />
    <glyph glyph-name="glyph197" horiz-adv-x="0" 
d="M281 150l-496 -373l-104 137l495 375z" />
    <glyph glyph-name="glyph198" horiz-adv-x="1221" 
d="M1196 51q-38 -26 -77.5 -38.5t-78.5 -12.5q-67 0 -122.5 24.5t-96 69.5t-65 108.5t-29.5 141.5q-135 -117 -332 -117q-86 0 -159.5 26t-127.5 74t-85 115t-31 150q0 124 100 184q8 5 51.5 20.5t124.5 41.5q76 24 76 69q0 113 -131 113q-163 0 -338 -129l-115 162
q115 81 227.5 122.5t227.5 41.5q66 0 125.5 -23t104.5 -62.5t71.5 -93.5t26.5 -116q0 -78 -26.5 -133t-74.5 -87q-13 -8 -54 -23t-116 -38q-75 -24 -75 -80q0 -32 13.5 -57t38.5 -42t59 -26.5t75 -9.5q70 0 132 23t108.5 64t74 97t27.5 123v623h199v-963q0 -196 116 -196
q18 0 58 22z" />
    <glyph glyph-name="glyph199" horiz-adv-x="1221" 
d="M1200 51q-83 -51 -160 -51q-68 0 -123 24.5t-95 69.5t-64.5 108.5t-30.5 141.5q-69 -60 -151.5 -89.5t-176.5 -29.5q-85 0 -159.5 28t-130 77.5t-87.5 117.5t-32 148q0 60 26 97t65.5 60.5t85.5 38l85.5 28t65.5 32t26 49.5q0 30 -7 51.5t-24 35t-45 20t-69 6.5h-461v194
h485q69 0 127.5 -20t101 -57t67 -89t24.5 -116q0 -78 -25.5 -127t-64 -80t-83.5 -48.5l-83.5 -32t-64 -31.5t-25.5 -46q0 -32 17 -57.5t46 -43.5t67.5 -28t80.5 -10q61 0 118.5 27.5t101.5 72.5t70.5 103t26.5 118v620h201v-970q0 -196 118 -196q21 0 56 24z" />
    <glyph glyph-name="glyph200" horiz-adv-x="1221" 
d="M1249 51q-83 -51 -155 -51q-153 0 -230 88.5t-88 273.5q-110 -108 -311 -108q-92 0 -169.5 26.5t-133.5 75t-87.5 116.5t-31.5 151q0 155 100 231q8 6 56 28l120 56q36 17 57 42.5t21 53.5q0 107 -229 107h-479v194h524q86 0 156 -20t119.5 -58.5t76.5 -94.5t27 -128
t-27 -126t-78 -91q-42 -22 -84.5 -41l-87.5 -41q-77 -36 -77 -119q0 -38 14.5 -68.5t41 -52t63 -33t81.5 -11.5q69 0 130 23.5t106.5 64.5t72.5 97.5t27 121.5v598h195v-936q0 -223 116 -223q26 0 60 22z" />
    <glyph glyph-name="uni0A95_uni0ABC.nukt" horiz-adv-x="1168" 
d="M1042 897l-226 -141q94 -70 143.5 -160.5t49.5 -202.5q0 -78 -37.5 -149.5t-100.5 -125.5t-145.5 -86t-172.5 -32q-62 0 -125 14t-122 41t-112 67t-94 91l150 125q66 -80 139 -110.5t158 -30.5q51 0 99.5 16.5t86 45t60 67t22.5 82.5q0 34 -16 68.5t-43 64.5t-62.5 53.5
t-74.5 36.5l-149.5 -95l-150.5 -92l-104 164l200 115q-42 28 -77.5 60t-61.5 68t-40.5 77t-14.5 88q0 75 26 137.5t74.5 107.5t117 70t153.5 25q121 0 211 -43l-70 -182q-48 12 -90 18.5t-80 6.5q-33 0 -59 -11.5t-44.5 -30.5t-28 -44t-9.5 -52q0 -31 13.5 -58.5t38 -50
t59.5 -39.5t77 -26l80.5 52l84.5 56.5l84.5 56.5l80.5 52zM573 -381q-27 0 -51.5 11t-43 30t-29.5 44t-11 52t11 51t29.5 42.5t43 29t51.5 10.5q28 0 52.5 -10.5t43 -28.5t29 -42t10.5 -52q0 -27 -10.5 -52t-29 -44t-43 -30t-52.5 -11z" />
    <glyph glyph-name="uni0A96_uni0ABC.nukt" horiz-adv-x="1644" 
d="M1630 51q-83 -51 -160 -51q-85 0 -145 33.5t-97.5 88.5t-55 124.5t-17.5 140.5v180q-29 -21 -66.5 -30t-85.5 -9q-42 0 -75 8.5t-64 26.5q0 -78 -29.5 -142.5t-78 -110.5t-111 -71.5t-129.5 -25.5q-71 0 -130.5 27t-103 76.5t-68 118t-24.5 151.5v446q0 72 -18 99.5
t-61 27.5h-86v194h94q266 0 266 -350v-417q0 -46 10.5 -79t28 -54t41.5 -31t51 -10q28 0 55 10.5t48 32.5t33.5 54.5t12.5 76.5v540h197v-278q0 -23 13 -44t33.5 -37t45.5 -26t49 -10q25 0 51.5 10t49 26t37 37t14.5 44v505h198v-966q0 -190 117 -190q22 0 55 24zM804 -286
q-29 0 -55 11.5t-45.5 31.5t-31 46.5t-11.5 55.5q0 30 11.5 56t31 45.5t46 30.5t56.5 11q29 0 55 -11t45.5 -30.5t30.5 -45.5t11 -56t-11.5 -56.5t-31 -46t-46 -31t-55.5 -11.5z" />
    <glyph glyph-name="uni0A97_uni0ABC.nukt" horiz-adv-x="1644" 
d="M252 643q10 -44 34 -84t57 -70.5t72.5 -48.5t80.5 -18q55 0 103.5 28.5t84 76.5t56 112.5t20.5 136.5q0 86 -22 157t-61.5 122t-94 79t-119.5 28q-57 0 -101 -26.5t-79 -80.5l-164 113q135 190 342 190q106 0 196.5 -39t156.5 -113t103 -181t37 -243q0 -120 -35.5 -222.5
t-98 -176.5t-148.5 -116t-187 -42q-74 0 -144 31t-127.5 83.5t-97.5 122t-53 146.5zM1644 51q-40 -26 -79.5 -38.5t-77.5 -12.5q-74 0 -133 28t-100 78.5t-63 121.5t-22 157v970h199v-970q0 -186 119 -186q19 0 55 18zM804 -286q-29 0 -55 11.5t-45.5 31.5t-31 46.5
t-11.5 55.5q0 30 11.5 56t31 45.5t46 30.5t56.5 11q29 0 55 -11t45.5 -30.5t30.5 -45.5t11 -56t-11.5 -56.5t-31 -46t-46 -31t-55.5 -11.5z" />
    <glyph glyph-name="uni0A98_uni0ABC.nukt" 
d="M1519 51q-83 -51 -159 -51q-72 0 -127 26.5t-93.5 70t-61 100t-30.5 116.5q-30 -30 -69.5 -56t-83.5 -45.5t-89.5 -30.5t-88.5 -11q-95 0 -175.5 26t-139 75t-91.5 117.5t-33 154.5q0 63 13.5 109t44.5 83q-40 18 -75 46.5t-61.5 65t-41.5 78.5t-15 87q0 74 25.5 134
t71 102.5t108 65.5t137.5 23q93 0 139 -34l-51 -177q-52 23 -104 23q-60 0 -94.5 -38.5t-34.5 -98.5q0 -21 6 -41.5t20.5 -37.5t38 -30t58.5 -20q45 21 92.5 34.5t107.5 18.5l76 -180q-71 -6 -120.5 -25.5t-80.5 -48.5t-45 -65t-14 -74q0 -39 19.5 -72.5t52 -57.5
t75.5 -37.5t91 -13.5q55 0 114 26.5t107.5 68.5t80 95t31.5 107v699h197v-973q0 -188 115 -188q9 0 21.5 6t31.5 18zM698 -286q-29 0 -55 11.5t-45.5 31.5t-31 46.5t-11.5 55.5q0 30 11.5 56t31 45.5t46 30.5t56.5 11q29 0 55 -11t45.5 -30.5t30.5 -45.5t11 -56t-11.5 -56.5
t-31 -46t-46 -31t-55.5 -11.5z" />
    <glyph glyph-name="uni0A99_uni0ABC.nukt" horiz-adv-x="1168" 
d="M281 395q9 -48 34 -84t58.5 -60t73.5 -36t79 -12q45 0 85.5 13.5t72 37.5t50 55.5t18.5 67.5q0 53 -25 91.5t-66 69t-93 55.5l-107 51t-107 55t-93 68t-66 90.5t-25 121.5q0 81 29.5 150t82.5 120t127.5 80t163.5 29q111 0 218 -43l-64 -175q-32 14 -66 20.5t-71 6.5
q-115 0 -170 -48.5t-55 -139.5q0 -39 25 -70t65.5 -58t92.5 -53l106.5 -55t106.5 -63.5t92.5 -79.5t65.5 -102.5t25 -132.5t-35.5 -141t-94 -116t-134 -79t-154.5 -29q-74 0 -143.5 25t-128 71t-102 109.5t-66.5 140.5zM842 827q-23 0 -44.5 9.5t-37.5 26t-25.5 37.5
t-9.5 44q0 24 9.5 45.5t25.5 38t37.5 26t44.5 9.5t44 -9.5t37 -26t25.5 -38t9.5 -45.5q0 -23 -9.5 -44t-25.5 -37.5t-37 -26t-44 -9.5zM573 -381q-27 0 -51.5 11t-43 30t-29.5 44t-11 52t11 51t29.5 42.5t43 29t51.5 10.5q28 0 52.5 -10.5t43 -28.5t29 -42t10.5 -52
q0 -27 -10.5 -52t-29 -44t-43 -30t-52.5 -11z" />
    <glyph glyph-name="uni0A9A_uni0ABC.nukt" horiz-adv-x="1644" 
d="M1632 49q-40 -25 -81 -37t-81 -12q-70 0 -126 24.5t-95.5 71.5t-62.5 115t-27 154q-146 -111 -328 -111q-82 0 -158.5 26.5t-139 73t-107 109.5t-62.5 135h-2q-23 0 -58 1.5t-81 6.5v185q35 -8 77.5 -11.5t96.5 -3.5q260 44 260 199q0 37 -17 69.5t-44.5 57t-63 39
t-72.5 14.5q-43 0 -81 -6.5t-70 -20.5l-90 170q88 52 241 52q85 0 157 -28t124 -77.5t81 -118.5t29 -151q0 -63 -23 -120.5t-63.5 -105t-96.5 -82.5t-122 -53q14 -36 42 -66.5t66 -52t83 -34t92 -12.5q45 0 102 16t107 45t84.5 69.5t34.5 90.5v688h198v-969q0 -192 115 -192
q11 0 26 4.5t33 15.5zM804 -286q-29 0 -55 11.5t-45.5 31.5t-31 46.5t-11.5 55.5q0 30 11.5 56t31 45.5t46 30.5t56.5 11q29 0 55 -11t45.5 -30.5t30.5 -45.5t11 -56t-11.5 -56.5t-31 -46t-46 -31t-55.5 -11.5z" />
    <glyph glyph-name="uni0A9B_uni0ABC.nukt" 
d="M639 653q-61 -1 -119 -6.5t-103 -23.5t-72.5 -52t-27.5 -92q0 -74 31 -127.5t83 -88t121 -51.5t146 -17q95 0 177.5 35t146 95t105 140.5t55.5 171.5q-56 -35 -125 -35q-66 0 -124 32t-101 85t-68 123t-25 145q0 92 21.5 161.5t58 116t86 70t105.5 23.5q84 0 152 -42
t116 -118.5t74 -184t26 -237.5q0 -169 -47 -311t-135 -245.5t-214 -161.5t-284 -58q-119 0 -224 32.5t-183.5 94t-124 150.5t-45.5 202q0 72 30 138.5t93 115.5q-35 24 -62.5 51t-47 59.5t-30 71.5t-10.5 86q0 72 26 135.5t75 114.5t120 74t162 23v-194q-94 0 -140 -36
t-46 -117q0 -82 58 -121.5t161 -39.5h129v-187zM1065 784q23 0 43 12.5t34.5 34t23 49.5t8.5 60q0 42 -11 83t-31 72.5t-48 51t-62 19.5q-45 0 -71.5 -44.5t-26.5 -122.5q0 -43 10 -82t29 -68.5t44.5 -47t57.5 -17.5zM698 -405q-29 0 -55 11.5t-45.5 31.5t-31 46.5
t-11.5 55.5q0 30 11.5 56t31 45.5t46 30.5t56.5 11q29 0 55 -11t45.5 -30.5t30.5 -45.5t11 -56t-11.5 -56.5t-31 -46t-46 -31t-55.5 -11.5z" />
    <glyph glyph-name="uni0A9C_uni0ABC.nukt" 
d="M1570 1257l-534 -497q97 -109 149 -213.5t52 -204.5q0 -77 -27.5 -140t-75.5 -108.5t-113.5 -70.5t-141.5 -25t-143 25t-116.5 70t-78.5 108.5t-29 140.5q0 123 64 234.5t172 203.5q-15 15 -25.5 28t-20 26.5t-21 27.5t-28.5 31q-17 -58 -49.5 -103t-72 -76t-83.5 -47
t-83 -16q-65 0 -124.5 26.5t-106 75.5t-74 118t-27.5 155q0 73 27 134t72.5 104t106 67t126.5 24q69 0 149 -47.5t168 -144.5l104 -119.5t113 -125.5l522 488zM874 627q-153 -152 -153 -285q0 -31 13.5 -57.5t35.5 -46t50.5 -30.5t58.5 -11q31 0 59 11t50 30.5t35 46
t13 57.5q0 126 -162 285zM360 860q25 0 48 9.5t41 30t29 52t11 76.5q0 25 -10.5 49t-29 42.5t-42.5 30t-51 11.5q-25 0 -48.5 -10t-42 -28t-29.5 -43t-11 -54q0 -45 11.5 -76.5t30.5 -51.5t43 -29t50 -9zM886 -377q-27 0 -51.5 11t-43 30t-29.5 44t-11 52t11 51t29.5 42.5
t43 29t51.5 10.5q28 0 52.5 -10.5t43 -28.5t29 -42t10.5 -52q0 -27 -10.5 -52t-29 -44t-43 -30t-52.5 -11z" />
    <glyph glyph-name="uni0A9D_uni0ABC.nukt" horiz-adv-x="1644" 
d="M1101 199q61 0 112.5 21t89.5 58.5t59.5 89t21.5 111.5q0 56 -17.5 103.5t-49 82t-77 53.5t-100.5 19q-40 0 -68 -19t-46 -61q-2 -73 -18 -146.5t-45 -142t-71 -128t-97 -104t-122.5 -70t-146.5 -25.5q-78 0 -152 33t-131.5 88.5t-92 128.5t-34.5 153h197q0 -41 18 -78.5
t48 -66t68 -46t79 -17.5q66 0 121.5 34t95 92.5t62 136t22.5 163.5q0 91 -23.5 166t-65.5 141q-43 66 -102 97.5t-131 31.5q-125 0 -198 -133l-168 96q31 52 72.5 95.5t89 74.5t99.5 48.5t105 17.5q85 0 159.5 -27.5t137.5 -88.5q63 -60 111 -132t76 -160q47 18 86 37.5
t67.5 45t44 60.5t15.5 84q0 100 -64 234l193 39q67 -137 67 -271q0 -128 -78 -225q58 -29 106 -74t82 -100.5t52.5 -119.5t18.5 -130q0 -100 -36.5 -185.5t-100.5 -148.5t-151.5 -99t-189.5 -36v199zM906 -381q-27 0 -51.5 11t-43 30t-29.5 44t-11 52t11 51t29.5 42.5t43 29
t51.5 10.5q28 0 52.5 -10.5t43 -28.5t29 -42t10.5 -52q0 -27 -10.5 -52t-29 -44t-43 -30t-52.5 -11z" />
    <glyph glyph-name="uni0A9E_uni0ABC.nukt" horiz-adv-x="1644" 
d="M1610 51q-83 -51 -158 -51q-83 0 -142.5 33.5t-98.5 88.5t-57.5 123.5t-18.5 139.5v172q-20 -8 -44.5 -11t-52.5 -3q-38 0 -68.5 7.5t-58.5 22.5q-21 -70 -60 -130.5t-93 -105.5t-121 -71t-145 -26q-106 0 -218 65t-239 195l139 137q37 -44 80 -81t85.5 -64t82.5 -42.5
t70 -15.5q57 0 104 26t81.5 72t53.5 108t19 134q0 33 -4 65.5t-16.5 66.5t-35.5 68.5t-60 70.5q-61 58 -137 58q-68 0 -119.5 -18t-98.5 -71l-146 129q66 79 148.5 116.5t179.5 37.5q104 0 188.5 -33t146 -96t99.5 -153.5t49 -205.5q28 -66 98 -66q39 0 66 20.5t27 51.5v543
h198v-973q0 -186 119 -186q9 0 23 4.5t32 15.5zM804 -286q-29 0 -55 11.5t-45.5 31.5t-31 46.5t-11.5 55.5q0 30 11.5 56t31 45.5t46 30.5t56.5 11q29 0 55 -11t45.5 -30.5t30.5 -45.5t11 -56t-11.5 -56.5t-31 -46t-46 -31t-55.5 -11.5z" />
    <glyph glyph-name="uni0A9F_uni0ABC.nukt" horiz-adv-x="1168" 
d="M1022 444q-2 -101 -38.5 -182.5t-98.5 -140t-145.5 -90t-178.5 -31.5t-179.5 35t-148.5 96.5t-101.5 144.5t-37.5 179q0 104 35.5 175.5t100.5 121.5t155.5 84t200.5 63q72 20 110.5 47.5t38.5 61.5q0 42 -12.5 71.5t-35.5 47.5t-54.5 26.5t-69.5 8.5q-100 0 -174.5 -18
t-128.5 -50l-70 178q78 45 169.5 66.5t203.5 21.5q79 0 145.5 -20.5t115 -63.5t75.5 -109.5t27 -158.5q0 -199 -183 -269l-86.5 -24l-87 -26t-76 -25l-53.5 -19q-75 -29 -112 -76.5t-37 -128.5q0 -51 21.5 -94.5t58.5 -75.5t86 -50.5t104 -18.5q58 0 106.5 17.5t84 49.5
t55.5 77t20 99h195zM573 -381q-27 0 -51.5 11t-43 30t-29.5 44t-11 52t11 51t29.5 42.5t43 29t51.5 10.5q28 0 52.5 -10.5t43 -28.5t29 -42t10.5 -52q0 -27 -10.5 -52t-29 -44t-43 -30t-52.5 -11z" />
    <glyph glyph-name="uni0AA0_uni0ABC.nukt" horiz-adv-x="1168" 
d="M774 1148q-51 17 -99 26t-96 9q-78 0 -120.5 -33.5t-42.5 -96.5q0 -27 13.5 -50t34 -40.5t46 -27t49.5 -9.5q95 0 178 -36.5t144.5 -99.5t97 -147.5t35.5 -179.5q0 -94 -36.5 -178t-99.5 -147.5t-147.5 -100.5t-179.5 -37t-179.5 36.5t-148 99.5t-100.5 147.5t-37 179.5
q0 274 229 395q-42 34 -68 84.5t-26 116.5q0 75 28 131.5t80 94.5t126 57t167 19q42 0 88 -7t103 -19zM549 193q54 0 103 21.5t85.5 58t58 85t21.5 103.5q0 54 -21.5 103t-58 85.5t-85.5 58t-103 21.5q-55 0 -104 -21.5t-85.5 -58t-58 -85.5t-21.5 -103q0 -55 21.5 -103.5
t58 -85t85.5 -58t104 -21.5zM573 -381q-27 0 -51.5 11t-43 30t-29.5 44t-11 52t11 51t29.5 42.5t43 29t51.5 10.5q28 0 52.5 -10.5t43 -28.5t29 -42t10.5 -52q0 -27 -10.5 -52t-29 -44t-43 -30t-52.5 -11z" />
    <glyph glyph-name="uni0AA1_uni0ABC.nukt" horiz-adv-x="1168" 
d="M653 600l-137 76l-137 76q-156 103 -156 292q0 145 90.5 223t261.5 90q35 0 90.5 -6t118.5 -6v-197q-18 0 -47 2t-59.5 4.5t-58.5 4.5t-44 2q-155 -23 -155 -117q0 -63 36 -104.5t99 -75.5l188.5 -102t83.5 -49q156 -123 156 -328q0 -79 -35.5 -149t-94.5 -122.5
t-136 -83t-160 -30.5q-94 0 -173 32t-136.5 90t-90 139t-32.5 179h196q0 -53 18 -97t50 -75.5t75 -49t93 -17.5q48 0 90 13.5t73.5 37.5t49.5 58t18 75q0 66 -33 119t-102 98v-2zM573 -381q-27 0 -51.5 11t-43 30t-29.5 44t-11 52t11 51t29.5 42.5t43 29t51.5 10.5
q28 0 52.5 -10.5t43 -28.5t29 -42t10.5 -52q0 -27 -10.5 -52t-29 -44t-43 -30t-52.5 -11z" />
    <glyph glyph-name="uni0AA2_uni0ABC.nukt" horiz-adv-x="1326" 
d="M670 207q47 -29 125 -29q40 0 76 13.5t63 36t43 51.5t16 61q0 29 -12 54.5t-35 44t-58 29.5t-81 11q-34 0 -65.5 -12.5t-55.5 -34t-38.5 -49.5t-14.5 -59q0 -80 37 -117zM348 1310q118 26 206 40t151 14q81 0 149 -17t116.5 -52.5t75.5 -90.5t27 -131q0 -203 -217 -248
q-54 -12 -116 -16.5t-123.5 -11.5t-117.5 -20.5t-99.5 -42.5t-69 -79t-25.5 -129q0 -167 152 -260q-2 14 -3 28t-1 30q0 75 27 138t74.5 109t112.5 71.5t140 25.5q80 0 150 -27t121.5 -72t81.5 -104.5t30 -124.5q0 -77 -34.5 -139.5t-95 -107t-143 -69t-178.5 -24.5
q-241 0 -426 137q-103 76 -151.5 173.5t-48.5 215.5q0 90 20 157t57 116t89.5 82t118.5 55t143.5 35t163.5 22q91 10 135.5 27.5t44.5 52.5q0 90 -150 90q-100 0 -183 -11t-155 -34zM731 -381q-27 0 -51.5 11t-43 30t-29.5 44t-11 52t11 51t29.5 42.5t43 29t51.5 10.5
q28 0 52.5 -10.5t43 -28.5t29 -42t10.5 -52q0 -27 -10.5 -52t-29 -44t-43 -30t-52.5 -11z" />
    <glyph glyph-name="uni0AA3_uni0ABC.nukt" horiz-adv-x="1644" 
d="M745 -184q29 0 54.5 3.5t44.5 12t30 23t11 36.5q0 51 -43 83.5t-137 50.5q-155 30 -254.5 61.5t-141.5 58.5q-106 66 -160.5 185t-54.5 299v729h199v-705q0 -298 201 -368q48 -17 90 -29.5t82 -22.5t80.5 -18.5l84.5 -17.5q56 -14 102 -40.5t78.5 -63.5t50 -84t17.5 -103
q0 -66 -17.5 -112.5t-45 -77t-62 -48t-69.5 -26.5t-66.5 -11t-52.5 -2h-21v187zM522 680q47 -62 117 -62q54 0 92.5 22.5t63 59.5t36 84.5t11.5 98.5q0 54 -19.5 105.5t-54 91.5t-82 64t-104.5 24q-20 0 -48.5 -6.5t-68.5 -22.5l-70 168q51 23 98 34t95 11q97 0 177 -32
t137 -93t88.5 -148t31.5 -196q0 -95 -28.5 -177t-79.5 -142t-121 -94t-154 -34q-135 0 -246 129zM1610 51q-83 -51 -158 -51q-73 0 -131.5 27.5t-100 78t-63.5 121.5t-22 158v973h198v-973q0 -186 119 -186q23 0 53 24zM326 -381q-27 0 -51.5 11t-43 30t-29.5 44t-11 52
t11 51t29.5 42.5t43 29t51.5 10.5q28 0 52.5 -10.5t43 -28.5t29 -42t10.5 -52q0 -27 -10.5 -52t-29 -44t-43 -30t-52.5 -11z" />
    <glyph glyph-name="uni0AA4_uni0ABC.nukt" 
d="M1519 51q-83 -51 -157 -51t-133 27.5t-100 78t-63 121.5t-22 158v420h-213q-123 0 -211 -15t-144.5 -42.5t-83 -66.5t-26.5 -87q0 -75 27 -143t68.5 -125.5t92 -103.5t97.5 -77l-96 -155q-80 49 -149.5 114t-121.5 143t-82 168t-30 189q0 97 38.5 171t118.5 124t203 76
t293 26h219v357h199v-973q0 -186 119 -186q17 0 55 20zM860 -286q-29 0 -55 11.5t-45.5 31.5t-31 46.5t-11.5 55.5q0 30 11.5 56t31 45.5t46 30.5t56.5 11q29 0 55 -11t45.5 -30.5t30.5 -45.5t11 -56t-11.5 -56.5t-31 -46t-46 -31t-55.5 -11.5z" />
    <glyph glyph-name="uni0AA5_uni0ABC.nukt" 
d="M1509 51q-43 -26 -82 -38.5t-77 -12.5q-62 0 -115.5 23t-95 64t-68.5 98.5t-35 125.5q-182 -174 -430 -174q-92 0 -173 27t-144.5 76t-106.5 117.5t-59 152.5v156h149q31 0 64.5 6.5t66 21.5t62.5 39t55 60q-8 -2 -13 -2q-53 0 -103 23t-89 65t-62.5 100t-23.5 129
q0 69 22.5 127t61.5 100.5t91.5 66.5t111.5 24q81 0 138 -25.5t92 -69t51 -100t16 -118.5q0 -127 -31.5 -227.5t-94.5 -188.5q-63 -87 -152 -134t-207 -65q14 -39 40.5 -69.5t63.5 -51.5t81.5 -32t94.5 -11q77 0 153 30t137 81.5t98.5 120t37.5 145.5v647h199v-973
q0 -186 119 -186q9 0 22.5 5t30.5 17zM516 969q30 0 53 11t38.5 29.5t23.5 44t8 54.5q0 28 -8.5 53t-24.5 44.5t-39 31t-51 11.5q-26 0 -46.5 -11.5t-34.5 -31t-21.5 -44.5t-7.5 -53q0 -29 11 -54.5t27.5 -44t35.5 -29.5t36 -11zM698 -286q-29 0 -55 11.5t-45.5 31.5
t-31 46.5t-11.5 55.5q0 30 11.5 56t31 45.5t46 30.5t56.5 11q29 0 55 -11t45.5 -30.5t30.5 -45.5t11 -56t-11.5 -56.5t-31 -46t-46 -31t-55.5 -11.5z" />
    <glyph glyph-name="uni0AA6_uni0ABC.nukt" horiz-adv-x="1298" 
d="M1138 397q-6 -84 -47 -157t-105 -126t-145 -83.5t-167 -30.5q-95 0 -178 37t-145 99.5t-98 144.5t-36 172q0 88 30.5 161t96.5 131q-51 51 -82 110t-31 122q0 84 29.5 154.5t84.5 121t133 78.5t175 28q82 0 152 -9.5t127 -29.5l-37 -186q-45 14 -90.5 21.5t-102.5 7.5
q-81 0 -134 -15.5t-84 -41t-43.5 -59t-12.5 -70.5q0 -117 162 -117h284v-196h-284q-45 0 -78.5 -18t-55.5 -47t-32.5 -67.5t-10.5 -78.5q0 -56 20.5 -102.5t56 -81t83 -53.5t101.5 -19q50 0 96 14t82 40.5t59.5 63.5t27.5 82h199zM573 -381q-27 0 -51.5 11t-43 30t-29.5 44
t-11 52t11 51t29.5 42.5t43 29t51.5 10.5q28 0 52.5 -10.5t43 -28.5t29 -42t10.5 -52q0 -27 -10.5 -52t-29 -44t-43 -30t-52.5 -11z" />
    <glyph glyph-name="uni0AA7_uni0ABC.nukt" 
d="M1517 51q-40 -26 -79.5 -38.5t-77.5 -12.5q-65 0 -119 22.5t-95 63.5t-67 99.5t-35 129.5q-133 -118 -321 -118q-102 0 -186.5 32t-145.5 90t-95 139.5t-34 180.5q0 149 74 238q-38 24 -70.5 61t-56.5 81.5t-38 93.5t-14 97q0 230 175 342l124 -118q-104 -110 -104 -224
q0 -38 10 -71t28.5 -58.5t44 -40t56.5 -14.5h260v-190q-154 0 -222 -57t-68 -169q0 -49 19.5 -89.5t53 -69t79.5 -44.5t99 -16q62 0 121.5 26t106 69.5t74.5 99t28 114.5v658h199v-973q0 -186 121 -186q15 0 53 20zM698 -286q-29 0 -55 11.5t-45.5 31.5t-31 46.5t-11.5 55.5
q0 30 11.5 56t31 45.5t46 30.5t56.5 11q29 0 55 -11t45.5 -30.5t30.5 -45.5t11 -56t-11.5 -56.5t-31 -46t-46 -31t-55.5 -11.5z" />
    <glyph glyph-name="uni0AA8_uni0ABC.nukt" 
d="M1507 51q-40 -26 -79.5 -38.5t-77.5 -12.5q-73 0 -132 27.5t-100 78t-63.5 121.5t-22.5 158v401h-295q37 -73 37 -155q0 -73 -27.5 -137.5t-75 -113t-111 -76.5t-136.5 -28q-75 0 -139.5 28t-112 76t-75 112.5t-27.5 138.5q0 72 28 135.5t76.5 111.5t113 75.5t136.5 27.5
h608v377h199v-973q0 -186 121 -186q15 0 53 20zM580 631q0 33 -12.5 61t-33.5 48.5t-49.5 32t-60.5 11.5t-60.5 -12t-49.5 -33t-33.5 -49t-12.5 -59q0 -32 12.5 -60.5t34 -49.5t49.5 -33.5t60 -12.5q31 0 59.5 12.5t50 34t34 49.5t12.5 60zM698 -286q-29 0 -55 11.5
t-45.5 31.5t-31 46.5t-11.5 55.5q0 30 11.5 56t31 45.5t46 30.5t56.5 11q29 0 55 -11t45.5 -30.5t30.5 -45.5t11 -56t-11.5 -56.5t-31 -46t-46 -31t-55.5 -11.5z" />
    <glyph glyph-name="uni0AAA_uni0ABC.nukt" 
d="M1517 51q-83 -51 -157 -51t-132.5 27.5t-99.5 77.5t-63 120.5t-23 157.5q-66 -38 -136.5 -56t-152.5 -18q-89 0 -164.5 29t-130 90.5t-85.5 158.5t-31 234v304q0 12 -4 23.5t-11 21.5t-15.5 16t-18.5 6q-51 0 -66 -41l-174 74q68 164 229 164q55 0 102 -21t80.5 -57.5
t52.5 -85.5t19 -106v-300q0 -92 12.5 -153t38.5 -98t67.5 -52.5t98.5 -15.5q56 0 108.5 15.5t92.5 42.5t64 63.5t24 78.5v658h199v-973q0 -186 123 -186q13 0 51 20zM698 -286q-29 0 -55 11.5t-45.5 31.5t-31 46.5t-11.5 55.5q0 30 11.5 56t31 45.5t46 30.5t56.5 11
q29 0 55 -11t45.5 -30.5t30.5 -45.5t11 -56t-11.5 -56.5t-31 -46t-46 -31t-55.5 -11.5z" />
    <glyph glyph-name="uni0AAB_uni0ABC.nukt" horiz-adv-x="1168" 
d="M727 -287l-309 312q-38 11 -77.5 33.5t-76 52t-66.5 62.5t-48 65l155 112q54 -78 123.5 -115.5t163.5 -37.5q46 0 89.5 15.5t76.5 42.5t53 62.5t20 75.5q0 78 -43.5 134.5t-134.5 101.5l-124.5 -105l-122.5 -102l-111 135l178 152q-50 30 -94 63t-77 72.5t-52 88
t-19 109.5q0 84 27 148t77 107t121 65t160 22q48 0 98.5 -8.5t110.5 -23.5l-61 -191q-48 16 -87 22.5t-71 6.5q-91 0 -136.5 -32t-45.5 -107q0 -63 54.5 -116t154.5 -91l152.5 125l152.5 125l111 -138l-242 -196q52 -32 93 -74t69.5 -90.5t43.5 -101t15 -105.5
q0 -70 -28.5 -133.5t-77 -114t-112.5 -83.5t-134 -42l90.5 -89.5l87.5 -86.5zM294 -381q-27 0 -51.5 11t-43 30t-29.5 44t-11 52t11 51t29.5 42.5t43 29t51.5 10.5q28 0 52.5 -10.5t43 -28.5t29 -42t10.5 -52q0 -27 -10.5 -52t-29 -44t-43 -30t-52.5 -11z" />
    <glyph glyph-name="uni0AAC_uni0ABC.nukt" horiz-adv-x="1644" 
d="M1612 51q-83 -51 -160 -51q-73 0 -131.5 27.5t-99 77.5t-62.5 121.5t-22 158.5v104q-34 -18 -70.5 -26t-71.5 -8q-40 0 -75.5 7t-69.5 27q-21 -55 -57.5 -103t-83 -83t-100.5 -55.5t-111 -20.5q-86 0 -159.5 41.5t-127.5 111t-84.5 160.5t-30.5 191q0 185 68.5 317.5
t196.5 228.5q84 64 194 85l33 -196q-33 -4 -64 -18.5t-58 -35.5t-50.5 -46.5t-42.5 -52.5q-38 -54 -59 -123.5t-21 -148.5q0 -65 15.5 -122t43.5 -100t67 -68t87 -25q41 0 74 21t55.5 59.5t34.5 91.5t12 117v270h197v-254q0 -15 10.5 -29.5t27 -26t36.5 -18t40 -6.5
q144 0 144 160v547h196v-973q0 -186 119 -186q21 0 55 22zM804 -286q-29 0 -55 11.5t-45.5 31.5t-31 46.5t-11.5 55.5q0 30 11.5 56t31 45.5t46 30.5t56.5 11q29 0 55 -11t45.5 -30.5t30.5 -45.5t11 -56t-11.5 -56.5t-31 -46t-46 -31t-55.5 -11.5z" />
    <glyph glyph-name="uni0AAD_uni0ABC.nukt" horiz-adv-x="1644" 
d="M1612 51q-83 -51 -160 -51q-74 0 -132.5 28t-99 78.5t-62 121.5t-21.5 157v221h-258q-3 -36 -19.5 -66t-42 -52t-59 -34t-70.5 -12q-34 0 -67 16.5t-59 42.5t-42 59.5t-16 68.5q0 36 14.5 68.5t39 57.5t56 41t66.5 19v255q0 21 -9.5 38t-26 29t-38.5 18.5t-47 6.5
q-64 0 -115.5 -31.5t-88 -88.5t-56.5 -136t-20 -173q0 -111 35 -208.5t97 -171t148.5 -116t188.5 -42.5v-195q-108 3 -199.5 33.5t-165 82t-129.5 121t-94 150.5t-57 171.5t-19 182.5q0 133 33.5 246t95 195.5t149 129t195.5 46.5q68 0 127 -20.5t102.5 -58t68 -89.5
t24.5 -114v-283h258v565h196v-973q0 -186 119 -186q22 0 55 18zM1010 -286q-29 0 -55 11.5t-45.5 31.5t-31 46.5t-11.5 55.5q0 30 11.5 56t31 45.5t46 30.5t56.5 11q29 0 55 -11t45.5 -30.5t30.5 -45.5t11 -56t-11.5 -56.5t-31 -46t-46 -31t-55.5 -11.5z" />
    <glyph glyph-name="uni0AAE_uni0ABC.nukt" 
d="M1507 51q-40 -26 -79.5 -38.5t-77.5 -12.5q-74 0 -132.5 27.5t-99.5 78t-62.5 121.5t-21.5 158v96h-440q-5 -36 -22.5 -69t-44 -58t-60.5 -40t-72 -15q-40 0 -76 16.5t-63.5 44t-44 64.5t-16.5 78q0 37 14.5 70.5t39.5 60.5t57.5 44.5t68.5 22.5v357q0 107 -76 107
q-15 0 -37 -31l-162 115q87 110 205 110q137 0 205 -76.5t68 -224.5v-377h456v678h197v-973q0 -186 121 -186q15 0 53 20zM698 -286q-29 0 -55 11.5t-45.5 31.5t-31 46.5t-11.5 55.5q0 30 11.5 56t31 45.5t46 30.5t56.5 11q29 0 55 -11t45.5 -30.5t30.5 -45.5t11 -56
t-11.5 -56.5t-31 -46t-46 -31t-55.5 -11.5z" />
    <glyph glyph-name="uni0AAF_uni0ABC.nukt" 
d="M1509 51q-83 -51 -159 -51q-69 0 -124.5 23t-96 66t-64.5 104.5t-29 138.5q-78 -63 -178 -97t-215 -34q-90 0 -179 30.5t-160 86t-115 132.5t-44 171q0 42 10.5 83.5t46.5 78.5t105.5 66t188.5 46h-2q100 28 100 119q0 75 -41 111.5t-111 36.5q-46 0 -88.5 -16.5
t-87.5 -47.5l-127 148q66 55 138.5 83.5t150.5 28.5q68 0 132.5 -19.5t114.5 -61.5t80.5 -108t30.5 -159q0 -78 -23.5 -130.5t-68 -87.5t-109.5 -57t-147 -39q-45 -10 -70.5 -31.5t-25.5 -48.5q0 -47 25.5 -87t68 -69t98.5 -46t117 -17q78 0 148 23.5t122 65.5t82.5 99.5
t30.5 125.5v647h199v-973q0 -186 121 -186q15 0 53 20zM698 -286q-29 0 -55 11.5t-45.5 31.5t-31 46.5t-11.5 55.5q0 30 11.5 56t31 45.5t46 30.5t56.5 11q29 0 55 -11t45.5 -30.5t30.5 -45.5t11 -56t-11.5 -56.5t-31 -46t-46 -31t-55.5 -11.5z" />
    <glyph glyph-name="uni0AB0_uni0ABC.nukt" horiz-adv-x="1168" 
d="M958 61q-121 -61 -213 -61q-74 0 -141.5 35t-125.5 104t-103 170.5t-74 235.5h-135v192h225q62 0 126.5 5.5t116.5 26.5t85 62.5t33 114.5q0 46 -17.5 85.5t-47.5 68.5t-70 45.5t-85 16.5q-148 0 -286 -84l-99 166q167 113 385 113q88 -2 164 -30.5t131.5 -81t87 -127.5
t31.5 -170q0 -93 -31 -167t-88 -125.5t-138.5 -80.5t-182.5 -32q37 -179 102 -270t146 -91q29 0 56.5 13t53.5 36zM573 -381q-27 0 -51.5 11t-43 30t-29.5 44t-11 52t11 51t29.5 42.5t43 29t51.5 10.5q28 0 52.5 -10.5t43 -28.5t29 -42t10.5 -52q0 -27 -10.5 -52t-29 -44
t-43 -30t-52.5 -11z" />
    <glyph glyph-name="uni0AB2_uni0ABC.nukt" horiz-adv-x="1644" 
d="M921 100q-72 -26 -145 -39.5t-154 -13.5q-117 0 -215.5 49t-169 135.5t-110 203t-39.5 251.5q0 142 45 257.5t126 212.5t191.5 143.5t247.5 46.5q29 0 61.5 -2t69.5 -8l-37 -197q-37 9 -67 14t-56 5q-85 0 -155.5 -34t-121.5 -106t-78.5 -153.5t-27.5 -178.5
q0 -94 25 -177t69.5 -145.5t106 -98.5t135.5 -36q66 0 120.5 15.5t105.5 46.5zM1622 51q-83 -51 -160 -51q-74 0 -132.5 28t-99 78.5t-62 121.5t-21.5 157v344l-251.5 -101.5l-246.5 -103.5l-80 183l578 231v420h196v-973q0 -186 123 -186q8 0 20 5t29 17zM606 -381
q-27 0 -51.5 11t-43 30t-29.5 44t-11 52t11 51t29.5 42.5t43 29t51.5 10.5q28 0 52.5 -10.5t43 -28.5t29 -42t10.5 -52q0 -27 -10.5 -52t-29 -44t-43 -30t-52.5 -11z" />
    <glyph glyph-name="uni0AB3_uni0ABC.nukt" horiz-adv-x="1644" 
d="M1620 51q-83 -51 -158 -51t-133.5 28t-99.5 78.5t-62.5 121.5t-21.5 157v610q0 172 -140 172q-75 0 -111 -42t-36 -130q0 -13 2 -46t5.5 -76.5t7 -93l7 -96t5.5 -85.5t2 -61q0 -205 -86.5 -309.5t-258.5 -104.5q-101 0 -180 39t-134.5 111t-84.5 173t-29 226
q0 356 318 701l141 -141q-260 -218 -260 -573q0 -79 15.5 -143t44.5 -109.5t71 -70.5t96 -25q81 0 118.5 62t37.5 194q0 17 -2.5 51l-5.5 77t-7.5 90t-7.5 89l-5.5 75t-2.5 48q0 83 24 151t68 116t106 74.5t138 26.5q81 0 144.5 -25.5t107 -73.5t66 -116.5t22.5 -154.5v-610
q0 -186 121 -186q17 0 51 22zM804 -286q-29 0 -55 11.5t-45.5 31.5t-31 46.5t-11.5 55.5q0 30 11.5 56t31 45.5t46 30.5t56.5 11q29 0 55 -11t45.5 -30.5t30.5 -45.5t11 -56t-11.5 -56.5t-31 -46t-46 -31t-55.5 -11.5z" />
    <glyph glyph-name="uni0AB5_uni0ABC.nukt" 
d="M1509 51q-40 -26 -79.5 -38.5t-77.5 -12.5q-85 0 -145 34t-98 88.5t-55.5 123.5t-17.5 139v49q-88 -78 -186.5 -114.5t-216.5 -36.5q-98 0 -182.5 37.5t-147.5 101.5t-99 150t-36 184q0 97 35.5 182.5t98 149.5t146 101.5t179.5 37.5q100 0 185.5 -42.5t160.5 -127.5
l-158 -125q-77 98 -188 98q-56 0 -105 -21.5t-85.5 -59t-57.5 -87t-21 -106.5q0 -64 21.5 -115t60.5 -87t93.5 -55.5t121.5 -19.5q78 0 147 23t121 63.5t82.5 96t30.5 120.5v576h197v-973q0 -186 119 -186q17 0 55 18zM698 -286q-29 0 -55 11.5t-45.5 31.5t-31 46.5
t-11.5 55.5q0 30 11.5 56t31 45.5t46 30.5t56.5 11q29 0 55 -11t45.5 -30.5t30.5 -45.5t11 -56t-11.5 -56.5t-31 -46t-46 -31t-55.5 -11.5z" />
    <glyph glyph-name="uni0AB6_uni0ABC.nukt" 
d="M469 907q32 0 60 12t48.5 32.5t32 48t11.5 58.5t-12 59t-32.5 49t-48.5 33.5t-59 12.5q-32 0 -60 -12t-49 -33t-33 -49t-12 -60q0 -31 12 -58.5t33 -48t49 -32.5t60 -12zM918 78q-124 -78 -226 -78q-118 0 -217.5 92.5t-181.5 288.5h-154v174h142q99 0 165.5 14.5
t108.5 44t62 74.5t26 106q-37 -32 -80 -46.5t-94 -14.5q-66 0 -125.5 26t-104.5 70.5t-71.5 104t-26.5 126.5q0 66 26.5 125.5t71.5 104t104.5 70.5t125.5 26q354 0 354 -530q0 -92 -23 -172t-67 -142t-107.5 -103t-144.5 -54q105 -215 221 -215q52 0 109 57zM1541 51
q-40 -26 -79.5 -38.5t-77.5 -12.5q-74 0 -133 28t-100 78.5t-63 121.5t-22 157v970h199v-970q0 -186 119 -186q19 0 55 18zM944 -381q-27 0 -51.5 11t-43 30t-29.5 44t-11 52t11 51t29.5 42.5t43 29t51.5 10.5q28 0 52.5 -10.5t43 -28.5t29 -42t10.5 -52q0 -27 -10.5 -52
t-29 -44t-43 -30t-52.5 -11z" />
    <glyph glyph-name="uni0AB7_uni0ABC.nukt" 
d="M498 705q0 -54 14.5 -99t46 -78t81 -51t120.5 -18q46 0 89.5 10.5t79 30t61.5 46.5t38 60l-530 385v-286zM1507 51q-83 -51 -157 -51q-68 0 -123.5 24t-97 69t-66 108.5t-29.5 142.5q-63 -42 -127 -62t-133 -20q-111 0 -198 34t-148 99t-93 160t-32 217q0 75 0.5 129.5
t0.5 92.5q0 94 -15 143.5t-64 49.5q-21 0 -42.5 -8.5t-43.5 -30.5l-125 158q88 70 205 70q44 0 78 -5.5t61.5 -20t52 -38t50.5 -59.5q22 -30 58.5 -55.5l78.5 -57.5l141 -97.5l115.5 -79l96 -65.5l81.5 -57v522h199v-978q0 -186 119 -186q17 0 55 20zM698 -286
q-29 0 -55 11.5t-45.5 31.5t-31 46.5t-11.5 55.5q0 30 11.5 56t31 45.5t46 30.5t56.5 11q29 0 55 -11t45.5 -30.5t30.5 -45.5t11 -56t-11.5 -56.5t-31 -46t-46 -31t-55.5 -11.5z" />
    <glyph glyph-name="uni0AB8_uni0ABC.nukt" 
d="M1519 51q-83 -51 -159 -51q-83 0 -143 33.5t-98.5 88.5t-56.5 123.5t-18 139.5v186q-46 -21 -98 -34t-109 -13q-173 0 -282 97q-37 -25 -94 -37q4 -81 23.5 -153t50 -126t69.5 -85.5t82 -31.5q20 0 48.5 11.5t66.5 36.5l83 -183q-139 -53 -198 -53q-92 0 -165 48
t-126 127t-85 181t-42 209h-141v189h151q61 0 113.5 13.5t90.5 38.5t59.5 61.5t21.5 82.5q0 42 -12.5 80t-35.5 67t-55.5 46t-72.5 17q-69 0 -154 -43l-96 168q121 73 246 73q79 0 148 -34t120 -90.5t80 -130.5t29 -153q0 -99 -62 -194q29 -17 65 -26t81 -9q43 0 79.5 9
t63.5 26t42 40t15 52v510h199v-973q0 -186 119 -186q18 0 53 20zM944 -381q-27 0 -51.5 11t-43 30t-29.5 44t-11 52t11 51t29.5 42.5t43 29t51.5 10.5q28 0 52.5 -10.5t43 -28.5t29 -42t10.5 -52q0 -27 -10.5 -52t-29 -44t-43 -30t-52.5 -11z" />
    <glyph glyph-name="uni0AB9_uni0ABC.nukt" horiz-adv-x="1168" 
d="M573 522q55 -76 139 -76q31 0 57.5 10t46 28.5t31 44t11.5 57.5q0 47 -13.5 77.5t-39 50t-62.5 31t-83.5 21l-102 20t-117.5 27.5q-43 12 -79.5 37t-63 59.5t-41.5 76.5t-15 89q0 67 22 120t71.5 89t128 55t192.5 19h158v-190h-248q-33 0 -57.5 -8t-41 -21t-24.5 -29.5
t-8 -34.5q0 -36 35 -59t110 -41q28 -7 63.5 -14t74.5 -16t80.5 -20t82.5 -26q46 -17 79.5 -47.5t55 -71t32 -88.5t10.5 -100q0 -75 -28 -137.5t-76 -108t-113 -71t-138 -25.5q-194 0 -295 170zM772 -195q-36 4 -102 16t-144 37.5t-159.5 67.5t-147.5 105.5t-108 152
t-42 207.5q0 132 64 225.5t176 159.5l190 -98q-75 -31 -121 -70.5t-70.5 -80t-33 -79t-8.5 -67.5q0 -60 23 -109.5t63 -89.5t92.5 -70.5t112 -52.5t121.5 -35.5t120 -19.5zM306 -440q-27 0 -51.5 11t-43 30t-29.5 44t-11 52t11 51t29.5 42.5t43 29t51.5 10.5
q28 0 52.5 -10.5t43 -28.5t29 -42t10.5 -52q0 -27 -10.5 -52t-29 -44t-43 -30t-52.5 -11z" />
    <glyph glyph-name="uni0A95_uni0ACD_uni0AB7.akhn" horiz-adv-x="1645" 
d="M575 906q29 0 57 13.5t50 35.5t35.5 50t13.5 57t-13 55.5t-35 46t-50 31t-58 11.5q-29 0 -57 -11.5t-49.5 -31t-35 -45.5t-13.5 -56q0 -29 13.5 -57t35.5 -50t49.5 -35.5t56.5 -13.5zM1612 51q-83 -51 -160 -51q-73 0 -131.5 28t-99 78.5t-62.5 121.5t-22 157v283
q-42 -22 -83.5 -27.5t-89.5 -5.5q-58 0 -110.5 2t-101.5 9t-96 21t-93 37q-69 -39 -114.5 -76.5t-72 -75t-37.5 -75.5t-11 -78q0 -41 16 -75.5t44 -59t65.5 -38t81.5 -13.5q40 0 77 13t65.5 37t46 57t17.5 73h201q-5 -66 -27 -120t-53 -97l191 -258l-164 -108l-178 245
q-48 -18 -94 -29.5t-91 -11.5q-82 0 -153.5 29.5t-124 81t-83 122t-30.5 152.5q0 58 16 113t46.5 105t75 93t100.5 76q-73 54 -110.5 122.5t-37.5 153.5q0 67 30 128t79 107.5t112 74.5t129 28t130 -28t114 -75t80.5 -108t30.5 -127q0 -155 -113 -250q14 -3 28.5 -3.5
t31.5 -0.5q48 0 95 6.5t83.5 20.5t59 36.5t22.5 54.5v432h196v-973q0 -186 121 -186q11 0 24.5 4.5t28.5 15.5z" />
    <glyph glyph-name="uni0A9C_uni0ACD_uni0A9E.akhn" horiz-adv-x="1645" 
d="M1612 51q-83 -51 -158 -51t-133.5 28t-99.5 78.5t-62.5 121.5t-21.5 157v596h-500q-38 0 -74.5 -4.5t-65 -16t-46 -30t-17.5 -45.5q0 -32 27 -50t84 -26q112 -17 172.5 -31.5t73.5 -19.5q75 -27 110 -80.5t35 -130.5q0 -53 -23 -100t-64.5 -85.5t-99 -66.5t-126.5 -43
q27 -51 88.5 -73.5t152.5 -22.5v-176q-172 0 -281 65.5t-163 204.5q-103 26 -164 96.5t-84 185.5l190 41q0 -33 15 -61.5t39.5 -50t56 -33.5t64.5 -12q43 0 82 9t68 26t46 41t17 55q0 48 -113 71q-115 23 -177 36.5t-77 19.5q-72 29 -109.5 79.5t-37.5 125.5q0 71 29 124.5
t82 89t129 53t171 17.5h488v195h198v-973q0 -186 119 -186q11 0 25.5 4.5t29.5 15.5z" />
    <glyph glyph-name="glyph237" horiz-adv-x="1024" 
d="M895 0h-768v1321h768v-1321zM768 127v1065h-512v-1065h512z" />
    <glyph glyph-name="glyph238" horiz-adv-x="1024" 
d="M895 0h-768v1321h768v-1321zM768 127v1065h-512v-1065h512z" />
    <glyph glyph-name="uni0A95_uni0ACD.half_uni0A95.pres" horiz-adv-x="1962" 
d="M1923 719l-354 -49q100 -133 100 -277q0 -77 -31.5 -148t-85 -125.5t-124 -87t-148.5 -32.5q-56 0 -111.5 14.5t-106 42.5t-95 68t-78.5 90l164 109q43 -63 97.5 -95t123.5 -32q39 0 75 16.5t63.5 43.5t44 62.5t16.5 73.5q0 57 -38.5 118.5t-101.5 115.5l-136.5 -17.5
l-130.5 -17.5l-131 -18l-136 -19q29 -45 43 -84.5t14 -71.5q0 -78 -31 -150.5t-84.5 -127.5t-124 -88t-149.5 -33q-56 0 -110.5 15t-104.5 43t-94 67.5t-78 89.5l164 109q82 -127 217 -127q40 0 76 16t63 43t43 63t16 76q0 49 -79 125q-88 -12 -180.5 -26t-180.5 -25
l-45 195l236 30q-106 73 -161.5 164t-55.5 188q0 73 25 131t71.5 98t114 61t151.5 21q57 0 107 -10t104 -33l-64 -182q-49 15 -91 23t-76 8q-152 0 -152 -127q0 -26 22.5 -63.5t63 -79.5t95.5 -84.5t120 -79.5l116.5 16.5l105 15l105 15.5l115.5 17q-27 22 -49 52.5
t-38.5 64.5t-25.5 69t-9 67q0 74 25 132t72.5 98.5t115 61.5t151.5 21q114 0 209 -43l-64 -182q-48 16 -89.5 22.5t-75.5 6.5q-152 0 -152 -115q0 -26 8.5 -51.5t30.5 -51.5t58.5 -53.5t92.5 -57.5l121 18l131.5 20.5l131 20.5l118.5 18z" />
    <glyph glyph-name="uni0A95_uni0ACD.half_uni0AAF.pres" horiz-adv-x="2335" 
d="M2333 51q-42 -26 -83 -38.5t-79 -12.5q-68 0 -123.5 24.5t-95.5 70t-63.5 109.5t-28.5 144q-79 -63 -160 -93t-172 -30q-80 0 -152.5 26.5t-128 73t-88.5 108t-33 132.5q0 75 26 126t77 83q18 12 172 57q76 22 76 72q0 54 -37 85.5t-94 31.5q-112 0 -291 -107l2 2
l-66 -43.5l-61 -40l-60.5 -40l-64.5 -43.5q100 -73 147 -157t47 -190q0 -87 -33.5 -161t-92 -127t-137 -83t-169.5 -30q-138 0 -248 56t-204 171l149 125q131 -155 297 -155q49 0 93.5 16.5t78.5 45t54 67.5t20 84q0 141 -199 213l-148.5 -95.5l-146.5 -95.5l-104 166
l203 125q-172 117 -172 305q0 70 27.5 131t76.5 106.5t116 71.5t146 26q122 0 211 -43l-69 -182q-86 23 -142 23q-36 0 -66.5 -12t-52.5 -31t-34.5 -44t-12.5 -50q0 -111 162 -178l170 117l170 114q115 69 215 104.5t191 35.5q67 0 125.5 -22t102 -61t68.5 -92.5t25 -115.5
q0 -81 -27.5 -140t-70.5 -94q-23 -19 -66 -31t-106 -32q-35 -11 -54.5 -25t-19.5 -29q0 -34 17 -62t46 -48.5t67.5 -31.5t82.5 -11q61 0 118.5 27t102.5 71t72 100.5t27 116.5v621h196v-965q0 -194 117 -194q23 0 59 18z" />
    <glyph glyph-name="glyph241" horiz-adv-x="1167" 
d="M1017 813l-216 -72q97 -72 141.5 -157t44.5 -191q0 -81 -35.5 -153t-95.5 -125t-139 -84t-166 -31q-269 0 -451 227l150 125q66 -78 139 -116.5t158 -38.5q48 0 93 17t80 45.5t56 67t21 81.5q0 104 -115 180q-32 -69 -62 -127.5l-61 -124.5l-149 74l116 243l-178 -60
l-178 -58l-53 170l217 71q-54 48 -80.5 110.5t-26.5 137.5q0 73 25.5 135.5t73 107.5t115 70.5t151.5 25.5q60 0 110 -10.5t101 -32.5l-70 -182q-48 12 -90.5 18.5t-79.5 6.5q-35 0 -62 -11t-45 -29.5t-27 -43t-9 -51.5q0 -118 151 -176l95 30.5l101.5 34l101.5 34.5l95 32z
" />
    <glyph glyph-name="uni0A99_uni0ACD_uni0A95.cjct" horiz-adv-x="1114" 
d="M657 -180h-178v127q-64 -37 -135 -37q-53 0 -100.5 19t-83.5 52.5t-57 79.5t-21 101q0 52 21 98.5t57 81t83.5 54.5t100.5 20q37 0 71.5 -10t63.5 -27v119q-103 18 -202 83t-199 177l135 112q159 -204 391 -204q36 0 66.5 7.5t53 21t35.5 32t13 41.5q0 25 -29.5 43
t-83.5 31q-46 7 -87.5 15t-74.5 15.5t-56.5 14t-32.5 10.5q-36 15 -63 40t-45.5 58t-28 72t-9.5 81q0 54 21.5 97t60.5 73t93.5 46t119.5 16q34 -2 80.5 -3t120.5 -5v-181q-4 0 -27 2.5t-53 5l-60 5t-47 2.5q-137 0 -137 -64q0 -38 28.5 -62t77.5 -41t114 -30l139 -28
q151 -61 151 -225q0 -48 -22 -91t-60.5 -77t-91 -58t-113.5 -34v-119q32 18 64.5 28.5t64.5 10.5q55 0 102 -21t81.5 -57.5t54.5 -85t20 -102.5q0 -51 -19 -95.5t-52 -77.5t-77 -52t-93 -19q-12 0 -70 6l41 174q19 -3 23.5 -3.5t7.5 -0.5q26 0 45.5 20t19.5 48
q0 18 -6.5 34.5t-17.5 29t-26.5 20.5t-33.5 8q-92 0 -129 -60v-362zM469 162q0 84 -123 84q-17 0 -33 -7t-28 -18.5t-19.5 -27t-7.5 -31.5q0 -17 7.5 -32.5t19.5 -27.5t28 -19t33 -7q26 0 48.5 6.5t39 17.5t26 27t9.5 35zM1038 1126q0 -20 -8 -37.5t-21.5 -31t-31.5 -21.5
t-37 -8q-20 0 -37.5 8t-31 21.5t-21.5 31t-8 37.5t8 38t21.5 31.5t31 21.5t37.5 8q19 0 37 -8t31.5 -21.5t21.5 -31.5t8 -38z" />
    <glyph glyph-name="uni0A99_uni0ACD_uni0A96.cjct" horiz-adv-x="1114" 
d="M948 -180h-174v190q-17 -3 -37 -5.5t-39 -2.5q-50 0 -93 16.5t-74.5 45.5t-49.5 70t-18 89q0 51 21.5 95t59 76.5t88 50.5t109.5 18v-176q-102 0 -102 -66q0 -28 23.5 -44.5t58.5 -16.5q10 0 19.5 5.5t17 14t12 18.5t4.5 19v305q-90 -30 -196 -30q-38 0 -72.5 3.5
t-65.5 12.5q-3 -103 -20.5 -168t-59.5 -100q0 -63 5.5 -109t20.5 -76.5t41.5 -45.5t68.5 -15v-176q-78 1 -135 28.5t-95 74.5t-58 109.5t-24 133.5h-110v174q23 -3 31 -3.5t14 -0.5q51 0 80.5 14t44 45t18.5 80t4 119q-49 29 -99 72.5t-99 103.5l135 113q85 -112 184 -163.5
t217 -51.5q168 0 168 94q0 32 -27.5 53t-87.5 35q-118 25 -179.5 39.5t-69.5 17.5q-73 31 -109.5 91.5t-36.5 141.5q0 54 19.5 97t55.5 73t87 46t115 16q18 0 52.5 -1.5l69 -3t63 -2.5t34.5 -1v-181q-5 1 -27.5 3t-50.5 3.5l-56 3t-44 1.5q-146 0 -146 -54q0 -35 30.5 -63
t84.5 -41q100 -18 168 -33.5t88 -25.5q72 -36 107 -107t36 -174v-874zM1038 1126q0 -20 -8 -37.5t-21.5 -31t-31.5 -21.5t-37 -8q-20 0 -37.5 8t-31 21.5t-21.5 31t-8 37.5t8 38t21.5 31.5t31 21.5t37.5 8q19 0 37 -8t31.5 -21.5t21.5 -31.5t8 -38z" />
    <glyph glyph-name="uni0A99_uni0ACD_uni0A97.cjct" horiz-adv-x="1114" 
d="M862 -180h-180v678q-41 -6 -88 -6q-19 0 -35 0.5t-33 3.5q32 -63 49 -122t17 -116q0 -68 -17.5 -123t-50.5 -93.5t-79 -59.5t-103 -21q-59 0 -107 22.5t-81.5 63.5t-51.5 98t-18 125h178q0 -60 20.5 -98.5t55.5 -38.5t57.5 32.5t22.5 86.5q0 64 -19.5 118.5t-61.5 112
t-109 125l-162 158.5l137 115q85 -112 184 -163.5t217 -51.5q168 0 168 94q0 59 -115 84q-112 21 -174.5 35.5t-74.5 19.5q-72 29 -109 91.5t-37 147.5q0 232 277 232q22 0 56 -1.5l67 -3t60 -2.5t36 -1v-178q-18 0 -52 2l-70.5 4l-70.5 4t-53 2q-78 0 -78 -58
q0 -86 115 -104q112 -19 172.5 -31t71.5 -12q151 -61 151 -243q0 -60 -21 -104t-61 -75v-749zM1038 1126q0 -20 -8 -37.5t-21.5 -31t-31.5 -21.5t-37 -8q-20 0 -37.5 8t-31 21.5t-21.5 31t-8 37.5t8 38t21.5 31.5t31 21.5t37.5 8q19 0 37 -8t31.5 -21.5t21.5 -31.5t8 -38z
" />
    <glyph glyph-name="uni0A99_uni0ACD_uni0A98.cjct" horiz-adv-x="1114" 
d="M565 295q-25 -6 -51 -18.5t-47.5 -29.5t-35 -37.5t-13.5 -41.5q0 -98 123 -98q32 0 62.5 10.5t54.5 29t38.5 43t14.5 52.5v299q-71 -12 -127 -12q-116 0 -222 47q-15 -11 -26.5 -31t-11.5 -49q0 -34 14.5 -53.5t30.5 -28.5q47 28 110 51zM885 -180h-174v135
q-35 -26 -78 -38.5t-92 -12.5q-67 0 -121.5 18.5t-93 53.5t-59.5 85t-21 113q0 41 12 76q-100 87 -100 209q0 54 14.5 96.5t40.5 71.5q-43 35 -75.5 67.5t-57.5 63.5l133 110q81 -103 173 -151.5t198 -48.5q188 0 188 94q0 54 -113 80q-112 20 -174 34.5t-77 20.5
q-73 31 -109.5 92.5t-36.5 142.5q0 55 21 99t59.5 75t91.5 47.5t117 16.5q20 0 49.5 -1.5l60 -3t57.5 -2.5t42 -1v-178q-18 0 -47 2l-60 4t-59 4t-43 2q-117 0 -117 -64q0 -28 12 -47t35.5 -32t58.5 -22.5t81 -18.5h-3q89 -19 177 -31q149 -59 149 -227q0 -42 -13.5 -77
t-45.5 -69v-788zM1038 1126q0 -20 -8 -37.5t-21.5 -31t-31.5 -21.5t-37 -8q-20 0 -37.5 8t-31 21.5t-21.5 31t-8 37.5t8 38t21.5 31.5t31 21.5t37.5 8q19 0 37 -8t31.5 -21.5t21.5 -31.5t8 -38z" />
    <glyph glyph-name="uni0A99_uni0ACD_uni0AAE.cjct" horiz-adv-x="1114" 
d="M897 -180h-197v229h-274q-6 -23 -21.5 -46t-37 -41.5t-47.5 -30t-54 -11.5q-34 0 -63.5 13t-52 35.5t-35.5 52t-13 63.5q0 31 11 58t30.5 48.5t45.5 36t55 19.5v332q-31 21 -75.5 67l-107.5 115l150 123q51 -63 94 -105.5t83.5 -68t81 -36.5t87.5 -11q106 0 156.5 24
t50.5 78q0 24 -30.5 44.5t-84.5 31.5l-165.5 33.5t-86.5 23.5q-72 33 -107.5 98.5t-35.5 153.5q0 229 291 229q35 -2 85 -2q49 0 128 -4v-199q-17 0 -47.5 2.5t-64.5 5l-66.5 5t-53.5 2.5q-42 0 -62 -10.5t-20 -28.5q0 -34 29 -61.5t86 -38.5l177 -36t73 -18
q145 -64 145 -247q0 -82 -57 -164v-764zM700 240v256q-46 -11 -80.5 -15t-62.5 -4q-22 0 -51.5 5t-67.5 18v-260h262zM1038 1126q0 -20 -8 -37.5t-21.5 -31t-31.5 -21.5t-37 -8q-20 0 -37.5 8t-31 21.5t-21.5 31t-8 37.5q0 21 8 39t21.5 31.5t31 21t37.5 7.5q19 0 37 -7.5
t31.5 -21t21.5 -31.5t8 -39z" />
    <glyph glyph-name="uni0A99_uni0ACD_uni0A95_uni0ACD_uni0AB7.akhn.cjct" horiz-adv-x="1114" 
d="M711 502q-29 -5 -63.5 -7.5t-72.5 -2.5q4 -11 4.5 -23t0.5 -23q0 -52 -29 -96q33 4 62 12.5t51 20.5t34.5 28t12.5 35v56zM406 446q0 13 -5 25.5t-14 22.5t-21 16t-26 6q-13 0 -25 -6t-21 -16t-14.5 -22.5t-5.5 -25.5q0 -12 5.5 -23.5t15 -20t21.5 -14t24 -5.5
q26 0 46 19.5t20 43.5zM885 -180h-174v393q-45 -22 -89.5 -31.5t-95.5 -9.5q-15 0 -41.5 6t-54 13.5t-52.5 13.5t-38 6q-18 0 -36 -11.5t-32.5 -29t-23 -38.5t-8.5 -40q0 -24 6 -46.5t17 -39.5t26.5 -27t34.5 -10q23 0 45 13q-11 15 -22 34t-19 31l141 88l213 -338l-137 -92
l-82 129q-35 -15 -74 -24t-74 -9q-54 0 -100 24.5t-80.5 65t-54 93t-19.5 108.5q0 131 97 213q-58 64 -58 141q0 117 97 193q-56 46 -129 129l135 113q85 -112 184 -163.5t217 -51.5q168 0 168 94q0 59 -115 86l-173.5 39.5t-75.5 21.5q-72 34 -109 98.5t-37 149.5
q0 215 277 215q37 -2 88 -3t133 -5v-181q-16 0 -45 2.5l-60.5 5l-62 5t-49.5 2.5q-109 0 -109 -47q0 -37 29 -65.5t86 -39.5q229 -47 252 -57q143 -65 143 -250q0 -40 -13.5 -77.5t-45.5 -75.5v-764zM1036 1124q0 -20 -7.5 -37.5t-21 -31t-31 -21.5t-38.5 -8q-20 0 -37.5 8
t-30.5 21.5t-20.5 31t-7.5 37.5q0 21 7.5 39.5t20.5 32t30.5 21.5t37.5 8q21 0 38.5 -8t31 -21.5t21 -32t7.5 -39.5z" />
    <glyph glyph-name="uni0A9B_uni0ACD_uni0AB5.cjct" horiz-adv-x="1114" 
d="M846 1047q0 28 -11.5 53.5t-30 45t-43 31t-50.5 11.5q-28 0 -47 -16.5t-19 -42.5q0 -27 11 -52t29 -44.5t42 -31t51 -11.5q28 0 48 15.5t20 41.5zM801 -180h-183v112q-40 -29 -87.5 -44t-110.5 -15q-47 0 -93 19t-82 51t-58.5 75.5t-22.5 92.5q0 219 328 219h71v-170h-2
q-15 0 -28 1t-25 1q-85 0 -127.5 -13.5t-42.5 -37.5q0 -64 92 -64q37 0 71 8.5t60 24t41.5 36t15.5 44.5v229q-24 -5 -56.5 -7.5t-67.5 -2.5q-82 0 -152 23.5t-121.5 66.5t-80.5 101.5t-29 129.5q0 61 20 119q-121 76 -121 228q0 65 25.5 121.5t72 98t111 65.5t141.5 25
v-174q-43 -1 -75 -12t-53.5 -29.5t-32.5 -43t-11 -51.5q0 -29 15 -52.5t47 -42.5q61 31 151 31v-172q-23 -2 -43.5 -11.5t-36.5 -24.5t-25 -34t-9 -41q0 -32 16.5 -59.5t45 -47.5t66.5 -31t81 -11q63 0 120.5 23t102.5 61t74 88.5t36 104.5q-14 -2 -27 -3t-26 -1
q-57 0 -111.5 23.5t-97 63t-68.5 90.5t-26 107q0 55 17 101t48 79t75 51.5t98 18.5q67 0 124.5 -32.5t98.5 -87t64.5 -127t23.5 -152.5q0 -73 -15.5 -146.5t-44 -139.5t-69.5 -121.5t-92 -92.5v-639z" />
    <glyph glyph-name="glyph249" horiz-adv-x="1696" 
d="M1163 199q52 0 97.5 22.5t79 60t52.5 86.5t19 103q0 57 -19 106.5t-53.5 86.5t-83 58t-108.5 21q-108 0 -168 -86v-8q0 -70 -15.5 -142t-45.5 -139.5t-73.5 -127t-99 -104t-122 -70t-142.5 -25.5q-77 0 -149.5 32.5t-129 87.5t-92.5 128.5t-40 154.5h196q4 -43 24 -80.5
t50 -66t66.5 -45t74.5 -16.5q65 0 120 35t94.5 93.5t62 135.5t22.5 162q0 45 -6 92l-175.5 -150.5t-172.5 -150.5l-117 135l406 348q-21 33 -47 61.5t-57 49.5t-66.5 33t-75.5 12q-66 0 -113.5 -40t-81.5 -106l-174 94q32 55 74.5 101t91.5 79.5t101 52t102 18.5
q85 0 162 -33.5t139.5 -90t108.5 -131t69 -155.5q38 17 78 38.5l80 43.5l-2 -2q84 52 84 151q0 34 -19.5 78.5t-56.5 99.5l193 53q42 -75 61.5 -133.5t19.5 -103.5q0 -107 -75 -201q65 -24 120.5 -69t95.5 -103.5t62.5 -125.5t22.5 -136q0 -94 -35.5 -179t-96.5 -150
t-143 -103.5t-174 -38.5v199z" />
    <glyph glyph-name="uni0A9E_uni0ACD.half_uni0A9A.pres" 
d="M1520 51q-82 -51 -158 -51q-54 0 -102.5 17.5t-87.5 49t-67 76.5t-42 101q-66 -48 -144.5 -74.5t-166.5 -26.5q-118 0 -176 52.5t-66 152.5l-121 -57l-115 -55l-73 159l620 297l76 -160l-213 -100q-18 -30 -18 -57q0 -26 21 -39.5t69 -13.5t99.5 16t94 43t70 62t27.5 73
v334q-23 -6 -53 -10t-64 -4q-77 0 -135 36q-23 -41 -59.5 -76t-82.5 -60.5t-98.5 -39.5t-108.5 -14q-41 0 -90.5 11.5t-103.5 29.5t-110.5 40.5l-110.5 45.5l57 166q42 -17 86 -37.5t89 -38.5t90 -30.5t89 -12.5q42 0 80 11.5t66.5 32.5t45.5 49t17 61q0 35 -15 63.5
t-41.5 48.5t-63.5 30.5t-80 10.5q-51 0 -89.5 -20.5t-72.5 -65.5l-142 109q123 153 314 153q67 0 129 -22t111.5 -61t82.5 -91.5t41 -113.5q25 -17 54 -25t63 -8q29 0 55.5 7t49.5 19v314h196v-973q0 -186 119 -186q19 0 55 18z" />
    <glyph glyph-name="uni0A9E_uni0ACD.half_uni0A9C.pres" horiz-adv-x="1591" 
d="M1559 51q-82 -51 -158 -51q-75 0 -134 27.5t-100 78t-62.5 122.5t-21.5 161v234l-118.5 -67l-120.5 -69q69 -75 69 -192q0 -66 -25 -120.5t-69 -93t-104.5 -60t-130.5 -21.5q-60 0 -116 18t-113.5 58t-118.5 104t-130 156l150 98q173 -260 328 -260q30 0 58 9t49.5 25
t34.5 38.5t13 48.5q0 18 -6 34.5t-16 30t-24 21.5t-29 8q-16 0 -38.5 -10t-43.5 -29l-84 158l585 315v39q-29 -11 -57.5 -17.5t-50.5 -6.5q-40 0 -74.5 8.5t-69.5 30.5q-23 -46 -61 -83.5t-86 -64t-104 -41t-115 -14.5q-206 0 -420 186l111 133q181 -145 309 -145
q44 0 84.5 13t71 35.5t49 52.5t18.5 65q0 33 -16.5 60.5t-45 48t-65.5 31.5t-78 11q-80 0 -133 -71l-139 110q127 142 272 142q72 0 127 -17.5t99 -50.5t79 -79.5t66 -104.5q25 -35 56 -54.5t65 -19.5q31 0 57.5 10t50.5 35v293h197v-969q0 -190 121 -190q11 0 55 16z" />
    <glyph glyph-name="uni0A9F_uni0ACD_uni0A9F.cjct" horiz-adv-x="1006" 
d="M944 176q-10 -84 -46.5 -149.5t-92.5 -111t-130 -69.5t-159 -24q-86 0 -159.5 25t-127 70t-84 108t-30.5 139q0 66 21 115t62 86t101.5 65t138.5 51q27 7 31 64q-81 4 -147 30t-113.5 71t-73.5 107.5t-26 139.5q0 233 297 289q52 15 71 31.5t19 39.5q0 17 -23 66l172 76
q22 -45 31.5 -83t9.5 -75q-21 -197 -293 -244q-88 -19 -88 -114q0 -32 16.5 -60t43.5 -48.5t62 -32t73 -11.5q43 0 83 12.5t71 34.5t50 52t19 65h203q-10 -64 -33.5 -119t-58.5 -98t-80 -71.5t-97 -39.5q-1 -66 -12 -111t-36.5 -77t-68.5 -55t-108 -44q-37 -11 -60 -21.5
t-36 -24t-18 -30.5t-5 -40q0 -33 15.5 -59.5t43 -45.5t64.5 -29t80 -10q45 0 86.5 11.5t72.5 32.5t49.5 50.5t18.5 65.5h201z" />
    <glyph glyph-name="uni0A9F_uni0ACD_uni0AA0.cjct" horiz-adv-x="1006" 
d="M922 891q-8 -135 -87 -224.5t-237 -113.5q-3 -9 -5.5 -19t-2.5 -22q0 -18 4 -29q60 -9 116 -31.5t99.5 -61.5t69.5 -95.5t26 -132.5q0 -84 -31 -148t-85 -106.5t-128 -64t-161 -21.5q-90 0 -164.5 19.5t-128.5 60.5t-83.5 105.5t-29.5 154.5q0 54 18 105t55 94t93 74.5
t133 45.5q-3 7 -3 15q0 14 0.5 31t4.5 28q-66 12 -119 41t-90 72.5t-57 100t-20 124.5q0 55 15.5 102.5t48.5 84.5t85 63t125 39q43 7 70 16t42.5 26.5t21 46.5t5.5 77h195v-60q0 -196 -119 -246q-29 -12 -79.5 -23.5t-125.5 -25.5q-45 -9 -66.5 -38.5t-21.5 -75.5
q0 -32 16.5 -60t43.5 -48.5t62 -32t73 -11.5q43 0 83 12t71 34t50 52t19 66h199zM709 162q0 36 -19 64t-49 47.5t-67 29.5t-74 10q-39 0 -76 -10.5t-66 -30t-47 -47.5t-18 -63q0 -44 15.5 -74.5t43 -50t65.5 -28.5t83 -9q42 0 80 9.5t66.5 29t45.5 50.5t17 73z" />
    <glyph glyph-name="uni0AA0_uni0ACD_uni0AA0.cjct" horiz-adv-x="1006" 
d="M662 1358q-21 -33 -35 -49.5t-22.5 -29t-11.5 -28.5t-3 -49q0 -5 1 -8t1 -8q61 -9 118 -32t100 -62.5t69 -96.5t26 -133q0 -70 -24 -126.5t-66.5 -98.5t-99.5 -69.5t-123 -39.5q-2 -6 -2 -11q0 -10 0.5 -18t3.5 -16q60 -9 116 -31.5t99.5 -61.5t69.5 -95.5t26 -132.5
q0 -84 -31 -148t-85 -106.5t-128 -64t-161 -21.5q-90 0 -164.5 19.5t-128.5 60.5t-83.5 105.5t-29.5 154.5q0 54 18 105t55 94t93 74.5t133 45.5q-2 9 -3 21t-1 22q1 0 1 1q0 3 1 5q-68 10 -122.5 35t-93.5 65.5t-60 98t-21 133.5q0 54 18.5 105.5t55.5 94.5t93 74.5
t130 45.5q0 57 17 105.5t43 70.5h211zM709 862q0 37 -19 65.5t-49 47.5t-67 29t-74 10q-39 0 -76.5 -10.5t-67 -30t-47.5 -47.5t-18 -64q0 -43 15.5 -73t43.5 -49.5t66.5 -28.5t83.5 -9q42 0 80 9.5t66.5 29t45.5 50t17 71.5zM709 162q0 36 -19 64t-49 47.5t-67 29.5t-74 10
q-39 0 -76.5 -10.5t-67 -30t-47.5 -47.5t-18 -63q0 -44 15.5 -74.5t43.5 -50t66.5 -28.5t83.5 -9q42 0 80 9.5t66.5 29t45.5 50.5t17 73z" />
    <glyph glyph-name="uni0AA1_uni0ACD_uni0AA1.cjct" horiz-adv-x="1006" 
d="M233 182q51 -92 130.5 -134t171.5 -42q172 0 172 98q0 24 -28 43t-73 27l-154.5 29t-68.5 16q-66 28 -97.5 73t-31.5 126q0 25 6 52.5t19 53.5q-69 38 -121.5 107t-94.5 166l183 61q13 -44 40 -79.5t63.5 -61t81.5 -39.5t93 -14q38 0 71 8t57.5 23t38.5 36t14 47
q0 44 -39.5 64t-118.5 37q-56 12 -109.5 26.5t-95 40t-67 66.5t-25.5 106q0 122 74 192t225 70q17 0 43.5 -1.5l54.5 -3t53 -2.5t39 -1v-189q-16 0 -44.5 2.5t-60 6t-61 6t-47.5 2.5q-46 0 -70 -25.5t-24 -56.5q0 -15 26 -28.5t77 -22.5q88 -19 142 -35.5t83 -30.5
q131 -66 131 -223q0 -64 -26 -117.5t-71 -92t-105 -60t-128 -21.5q-121 0 -121 -69q0 -20 24 -31t75 -18q174 -24 221 -45q63 -29 98 -85t35 -135q0 -145 -90.5 -214.5t-272.5 -69.5q-72 0 -133 13t-116 42t-107.5 77t-107.5 118z" />
    <glyph glyph-name="uni0AA1_uni0ACD_uni0AA2.cjct" horiz-adv-x="1006" 
d="M729 1174l-61.5 2t-55 2t-45 1.5t-30.5 0.5q-109 0 -109 -60q0 -17 27.5 -29.5t70.5 -19.5q85 -14 143 -25.5t81 -21.5q66 -29 98.5 -84.5t32.5 -122.5q0 -54 -20 -104t-53.5 -90.5t-78.5 -69.5t-96 -41q-3 -57 -28.5 -96.5t-76.5 -65.5l-91 -35.5l-91 -35.5
q-40 -15 -61 -43.5t-21 -61.5q0 -71 43 -108q21 43 55 79t77 62.5t92.5 41.5t101.5 15q46 0 84.5 -16.5t66 -45.5t43 -69t15.5 -86q0 -51 -23.5 -93t-65.5 -72t-99.5 -46t-125.5 -16q-83 0 -160.5 25.5t-137.5 70.5t-96 106.5t-36 133.5q0 149 107 227q15 11 61.5 30.5
t118.5 45.5q31 11 49.5 22.5t26.5 28.5q-132 20 -232 87t-176 179l174 98q21 -41 52 -74.5t67.5 -57.5t77.5 -37t82 -13q37 0 70 9t58 25t39.5 39t14.5 52q0 21 -26.5 39t-71.5 27l-151.5 30t-69.5 17q-129 52 -129 190q0 240 286 240h158q22 0 45 -2v-184zM457 -12
q32 -17 98 -17q26 0 49 6t40.5 16.5t27.5 24.5t10 31q0 22 -17 36.5t-38 14.5q-30 0 -59 -9t-53 -24t-39.5 -35.5t-18.5 -43.5z" />
    <glyph glyph-name="uni0AA2_uni0ACD_uni0AA2.cjct" horiz-adv-x="1006" 
d="M479 -10q37 -17 92 -17q23 0 46 5.5t41 15t29 22t11 27.5q0 51 -98 51q-22 0 -43 -8t-37.5 -22.5t-27.5 -33.5t-13 -40zM471 684q32 -20 86 -20q133 0 133 69q0 60 -86 60q-111 0 -133 -109zM367 299q-86 -35 -86 -125q0 -38 13 -72.5t38 -50.5q14 45 41 83.5t63.5 67
t79.5 44.5t90 16q55 0 101 -16.5t79.5 -45.5t52.5 -70t19 -89q0 -54 -23.5 -95.5t-67 -70t-106.5 -43t-141 -14.5q-77 0 -149.5 26.5t-129 72.5t-90.5 107.5t-34 131.5q0 74 21.5 128.5t62.5 93t100.5 63.5t136.5 40q22 3 33 10.5t16 16.5q-84 15 -153 48.5t-117.5 83
t-75 113t-26.5 138.5q1 79 27 135t71.5 93t108 58t137.5 31q58 19 61 60l-15 26t-30 31l162 98q34 -26 53 -64.5t27 -80.5q0 -149 -117 -195q-54 -18 -106.5 -33t-106.5 -26q-49 -15 -74.5 -47t-25.5 -86q0 -84 45 -123q30 91 101.5 144t170.5 53q51 0 96 -19.5t79.5 -53
t54.5 -79t20 -96.5q0 -147 -188 -203q-6 -121 -111 -164z" />
    <glyph glyph-name="uni0AA4_uni0ACD.half_uni0AA4.pres" horiz-adv-x="1591" 
d="M1561 51q-83 -51 -160 -51q-72 0 -130.5 28.5t-100 79.5t-63.5 121t-22 154v410h-190q-108 0 -183.5 -12.5t-122.5 -38.5t-68 -66.5t-21 -95.5q0 -52 21.5 -110.5t58.5 -115.5t85 -106.5t101 -83.5l-92 -172q-78 41 -146 109t-118.5 149t-79.5 168.5t-29 167.5
q0 54 16 104t45 96h-315v195h1038v377h199v-975q0 -186 117 -186q19 0 53 22z" />
    <glyph glyph-name="glyph259" 
d="M1505 53q-42 -28 -80 -40.5t-75 -12.5q-73 0 -132 28.5t-100 79.5t-63.5 122t-22.5 155v201l-365 -218.5l-366 -215.5l-100 172l682 399q-12 61 -46.5 116t-84.5 96t-112.5 65t-129.5 24q-181 0 -266 -160l-172 101q37 60 86.5 108.5t107.5 82t122 51.5t130 18
q166 0 291.5 -82.5t222.5 -249.5v465h199v-973q0 -186 119 -186q19 0 51 24z" />
    <glyph glyph-name="uni0AA6_uni0ACD_uni0A97.cjct" horiz-adv-x="1114" 
d="M934 -28q-28 72 -77 178.5l-109 248.5q-16 -10 -37 -20t-44 -19t-45.5 -16t-41.5 -10q24 -45 37.5 -87.5t13.5 -84.5q0 -53 -23 -99.5t-61 -81t-87 -54t-101 -19.5q-46 0 -92 21.5t-83.5 57.5t-61.5 83t-25 98h186q1 -18 9 -34t19.5 -28t25.5 -19t28 -7q17 0 33 6
t28 16.5t19.5 25t7.5 32.5q0 37 -13.5 68.5t-36 59t-51.5 52l-59 48l-59.5 46t-53.5 45.5q-106 112 -106 279q0 92 35.5 162t94.5 118t135 75t157 34q52 6 86.5 12t54.5 16.5t28.5 27.5t8.5 44v111h198v-135q0 -184 -178 -236l-142 -24t-142 -23q-138 -38 -138 -182
q0 -55 19.5 -101t53 -79t79.5 -51.5t100 -18.5q18 0 36.5 4t36 10.5t32 15.5t24.5 19q-35 44 -35 105q0 32 12.5 60.5t34.5 49.5t51 33t62 12q31 0 60 -12t51.5 -33t35.5 -49.5t13 -60.5q0 -67 -43 -113l108.5 -244l108.5 -241z" />
    <glyph glyph-name="uni0AA6_uni0ACD_uni0A98.cjct" horiz-adv-x="1272" 
d="M496 209q-34 -26 -61.5 -42.5t-55.5 -23.5q9 -90 133 -90q45 0 87 21t74 56t51 80t19 93q0 25 -6 49q-5 -2 -8 -2h-8q-146 0 -252 42.5t-184 139.5q-35 -6 -56.5 -39.5t-21.5 -78.5q0 -21 9 -40t24 -33.5t34.5 -23t40.5 -8.5q26 0 60 31zM1071 -12q-28 51 -66.5 130.5
l-86.5 176.5q-3 -82 -36 -157.5t-88 -133.5t-127.5 -92.5t-154.5 -34.5q-67 0 -122.5 21t-96 58t-63.5 88.5t-25 113.5q-39 18 -71.5 44.5t-55 59.5t-35 71.5t-12.5 80.5q0 43 13 84.5t36 77.5t56 65t73 47q-6 25 -9 46.5t-3 47.5q0 202 135 283q13 8 72.5 28t162.5 50
q54 16 81.5 40.5t27.5 63.5v111h196v-111q0 -166 -137 -225l-233 -68q-57 -21 -83 -66.5t-26 -111.5q0 -48 22.5 -91t61 -75t88 -50.5t103.5 -18.5q74 0 123 34q-48 51 -48 105q0 28 11.5 56.5t31 51t46 36.5t57.5 14q33 0 63.5 -12t53.5 -33t37 -48t14 -57q0 -43 -15 -83.5
t-38 -72.5l111.5 -222.5l111.5 -219.5z" />
    <glyph glyph-name="uni0AA6_uni0ACD_uni0AA6.cjct" horiz-adv-x="1063" 
d="M1079 18l-150 -115l-235 275q-43 -32 -93.5 -46.5t-113.5 -14.5q-81 0 -151 30t-121.5 82t-81 123t-29.5 152q0 180 129 284q-118 96 -118 232q0 71 28.5 133t79 107.5t120.5 71.5t153 26q213 0 329 -86l-86 -166q-48 32 -111 49t-145 17q-94 0 -139 -39.5t-45 -102.5
q0 -139 250 -139h219v-199h-219q-118 0 -185 -48.5t-67 -139.5q0 -45 14.5 -84t40.5 -67t63.5 -44t82.5 -16q54 0 88 14q-19 19 -25 41t-6 51q0 32 12.5 60.5t33.5 49.5t49.5 33.5t60.5 12.5t60 -12.5t48.5 -33.5t32.5 -49.5t12 -60.5q0 -61 -28 -104z" />
    <glyph glyph-name="uni0AA6_uni0ACD_uni0AA7.cjct" horiz-adv-x="1325" 
d="M1124 -10l-66 120l-50 91.5l-38.5 73.5l-31.5 65q-11 -89 -44.5 -165t-86 -131.5t-120.5 -86.5t-148 -31q-62 0 -117 21t-97 58t-67.5 88t-28.5 112q-112 52 -169.5 167t-57.5 298h170q0 -161 39 -238.5t121 -77.5q25 0 41 64l147 -88q-40 -97 -114 -127q5 -48 41 -76.5
t96 -28.5q45 0 84 20t69 54.5t48.5 80.5t23.5 97h-12q-107 0 -198.5 31t-158.5 87t-105 134.5t-38 173.5q0 200 133 283q11 7 68.5 25l160.5 51q107 30 107 110v113h199v-113q0 -181 -136 -241q-58 -19 -114 -35.5t-113 -30.5q-52 -22 -78 -64t-26 -108q0 -109 68 -169
t194 -60q76 0 123 36q-23 23 -33 50t-10 59q0 30 12.5 58t33 49t47.5 34t56 13q31 0 60 -13t51.5 -34t36.5 -49t14 -58q0 -93 -55 -166l107.5 -213l109.5 -213z" />
    <glyph glyph-name="uni0AA6_uni0ACD_uni0AA8.cjct" horiz-adv-x="1114" 
d="M891 -8l-217 428l-96.5 -91.5l-126.5 -123.5q26 -26 39.5 -58.5t13.5 -74.5q0 -39 -15.5 -73t-41.5 -59.5t-60.5 -40t-71.5 -14.5t-71 14.5t-60 39.5t-41.5 59.5t-15.5 73.5q0 45 30 97.5t93 109.5l77 68.5l70 62.5q-68 19 -127 56.5t-102 88t-67.5 111t-24.5 125.5
q0 83 23 145.5t73.5 107t131 72.5t194.5 41q75 8 111.5 15.5t41.5 11.5q23 35 23 78v96h198v-103q0 -200 -176 -245l-143 -21.5t-143 -19.5q-138 -32 -138 -178q0 -42 19.5 -78.5t53 -62.5t77.5 -41t94 -15q25 0 49 3.5t45 12.5q-16 38 -16 88q0 28 13 53t34.5 44.5t49.5 31
t59 11.5q30 0 59 -11.5t52 -32t37.5 -48t14.5 -58.5q0 -85 -61 -137l112.5 -232l112.5 -229z" />
    <glyph glyph-name="uni0AA6_uni0ACD_uni0AAC.cjct" horiz-adv-x="1114" 
d="M926 -8l-26.5 52l-29 60l-34.5 74l-43 94q-22 -57 -58.5 -104t-83 -81.5t-100.5 -53.5t-111 -19q-58 0 -111 22.5t-93.5 61.5t-64.5 90.5t-24 110.5q0 48 20 96.5t48 85.5q-141 123 -141 310q0 172 102 266t322 106q63 3 98 3h25q25 0 28 5q25 28 25 52v135h198v-125
q0 -199 -178 -242q-72 -6 -142 -13t-142 -15q-69 -16 -103.5 -61t-34.5 -124q0 -41 16.5 -76.5t44.5 -61.5t64.5 -41t77.5 -15q77 0 139 24q-20 38 -20 86q0 29 13 55t35 45.5t50.5 30.5t59.5 11q30 0 58 -12t50 -33t35.5 -48.5t13.5 -58.5q0 -72 -55 -121l112.5 -248
l112.5 -245zM600 231q73 76 82 215q-42 -18 -87 -29.5t-91 -15.5l46 -83zM354 403q-9 -6 -18 -17t-16.5 -24.5t-12 -29.5t-4.5 -31q0 -31 12 -57.5t33 -46.5t48.5 -31.5t58.5 -11.5q3 0 9 0.5l12.5 1t12 1t7.5 1.5z" />
    <glyph glyph-name="uni0AA6_uni0ACD_uni0AAD.cjct" horiz-adv-x="1221" 
d="M948 -8l-174 340l-61.5 -51l-66 -54.5l-66 -54.5l-62.5 -51q-3 -69 -31.5 -100t-85.5 -31q-26 0 -46 10.5t-34 27.5t-21 38.5t-7 44.5q0 17 8.5 37.5t42.5 50.5q-5 12 -20 22t-39 10q-21 0 -39.5 -9t-33 -25t-22.5 -37.5t-8 -46.5q0 -45 22 -85.5t58.5 -71t83 -48
t96.5 -17.5q34 0 71 14t77 40l90 -133q-57 -38 -118.5 -56t-121.5 -18q-87 0 -162 30.5t-131 82.5t-88 120.5t-32 145.5q0 59 21.5 109t58 86t84 56.5t98.5 20.5q66 0 114.5 -28t73.5 -74l31.5 24.5l38 30.5l37.5 31l32 26q-5 -2 -11 -2h-64q-52 0 -102.5 16t-96 44.5
t-83.5 66.5t-66 82t-44 91t-16 94q0 82 23 144.5t73.5 107t131 72.5t194.5 42q59 7 94 15t53 20t23.5 29t5.5 41v96h199v-103q0 -202 -172 -245q-40 -11 -87 -15.5t-94.5 -10t-91.5 -15t-78 -30t-54.5 -56t-20.5 -92.5q0 -42 19 -78.5t52 -62.5t76.5 -41t93.5 -15
q53 0 97 16q-11 20 -15 42t-4 46q0 28 13 53t34.5 44.5t49.5 31t59 11.5t60.5 -11.5t52.5 -32t37 -48t14 -58.5q0 -84 -62 -137l112.5 -232l115.5 -229z" />
    <glyph glyph-name="uni0AA6_uni0ACD_uni0AAE.cjct" 
d="M1456 51q-40 -26 -80 -38.5t-78 -12.5q-205 0 -278 186h-309q-2 -43 -15.5 -78t-37 -60t-55.5 -38.5t-71 -13.5q-37 0 -70.5 14t-59 38.5t-41 57t-15.5 70.5q0 82 52.5 130t140.5 54v175q-22 -5 -43 -7t-41 -2q-78 0 -142 22t-110 62.5t-71.5 97.5t-25.5 128
q0 88 32.5 147t101.5 90q43 19 231 43q54 7 78 23t24 39q0 59 -63 59h-150v178h117q264 0 264 -233q0 -82 -45 -136.5t-127 -72.5l-86.5 -12.5l-47.5 -7t-27 -3.5t-23 -2q-102 -21 -102 -117q0 -126 170 -126q21 0 44 4t46 10v14q0 29 12.5 54.5t33 44t46.5 29.5t53 11
q28 0 55 -12.5t47.5 -32.5t33 -47t12.5 -55q0 -26 -10 -50t-26.5 -43.5t-39 -32.5t-47.5 -17v-232h268v1008h199v-993q0 -78 31.5 -122t88.5 -44q18 0 52 22z" />
    <glyph glyph-name="uni0AA6_uni0ACD_uni0AAF.cjct" horiz-adv-x="1487" 
d="M1411 51q-40 -26 -78 -38.5t-76 -12.5q-103 0 -177 54.5t-109 148.5q-88 -88 -187.5 -130t-220.5 -42q-89 0 -162.5 24t-126 69t-81.5 109t-29 144q0 148 106 254q-60 40 -88 94.5t-28 126.5q0 79 30 133.5t90 89.5q20 12 71 29t136 37q92 23 92 65q0 22 -17.5 31.5
t-55.5 9.5h-133v197h59q166 0 249 -54.5t83 -183.5q0 -71 -31.5 -116.5t-78.5 -73.5t-103 -42.5t-105 -23.5q-88 -22 -88 -98q0 -119 236 -119h129v-190h-142q-217 0 -217 -166q0 -69 54.5 -111.5t150.5 -42.5q60 0 118.5 20.5t121.5 59.5q135 84 135 186v869h197v-973
q0 -186 120 -186q16 0 54 20z" />
    <glyph glyph-name="glyph269" horiz-adv-x="1114" 
d="M926 -10l-201 434l-234.5 -238.5l-173.5 -171.5l-137 138l199 194q-68 18 -124.5 58.5t-97 97t-63 124.5t-22.5 142q0 73 22 142.5t70 123.5t123.5 88.5t183.5 38.5q39 0 66 4.5t44.5 16t25 31t7.5 49.5v96h199v-96q0 -301 -293 -301q-250 0 -250 -203q0 -48 16 -90
t44 -72.5t67 -48t84 -17.5q48 0 86 13.5t70 38.5q-35 44 -35 100q0 32 11.5 60.5t32 49.5t48.5 33.5t60 12.5q34 0 63.5 -12.5t50.5 -34t33 -51.5t12 -64q0 -61 -34 -113l101 -235l101 -238z" />
    <glyph glyph-name="uni0AA6_uni0ACD_uni0AB5.cjct" horiz-adv-x="1114" 
d="M926 -25q-12 31 -27 76.5l-33 99l-39.5 113t-46.5 119.5q-9 -89 -38 -159.5t-76 -120.5t-110 -76.5t-140 -26.5q-54 0 -102 18.5t-84 51.5t-57 77.5t-21 96.5q0 66 19.5 113.5t64.5 76.5q-164 138 -164 320q0 118 41 197t129 122q22 11 95.5 28t199.5 40q137 24 137 104
v113h198v-123q0 -184 -174 -242l-145 -27.5l-145 -27.5q-70 -23 -104 -67.5t-34 -116.5q0 -48 18 -91.5t48.5 -76.5t71.5 -52.5t86 -19.5q46 0 80.5 14t62.5 52q-39 40 -39 102q0 31 12 58.5t33 48.5t49 33t60 12q34 0 63.5 -11t50.5 -30.5t33 -47t12 -61.5q0 -32 -8 -62.5
t-26 -56.5l50 -116.5l52 -121.5l52 -121.5l50 -115.5zM391 326q-65 -26 -65 -82q0 -16 7.5 -30t20.5 -24t29 -16t33 -6q41 0 74 16t57.5 43t40.5 61.5t24 71.5q-40 -14 -88 -19l-86 -9z" />
    <glyph glyph-name="uni0AA6_uni0ACD_uni0AB0.rkrf_uni0ACD_uni0AAF.cjct" 
d="M1507 51q-40 -26 -79.5 -38.5t-77.5 -12.5q-47 0 -91 15t-81.5 42t-66.5 63.5t-46 80.5q-100 -91 -198.5 -136t-207.5 -45q-71 0 -133 21t-111.5 59t-83 92t-46.5 119l-91 -67t-88 -64l-116 154l364 278q-54 38 -85 93t-31 133q0 81 36.5 137t96.5 88q21 11 74 25t135 28
q90 15 90 53q0 45 -78 45h-131v187h127q264 0 264 -232q0 -141 -125 -188l-203 -43h2q-46 -12 -75 -37.5t-29 -62.5q0 -31 10.5 -52.5t34 -35t62 -19.5t94.5 -6q54 0 106.5 1t83.5 1v-195l-41.5 2t-37 1.5t-28 1t-14.5 0.5q-121 0 -179 -41.5t-58 -122.5q0 -37 15 -66.5
t42 -50.5t64.5 -32t82.5 -11q35 0 76.5 11t83 30.5t80 46.5t68 59t47.5 69t18 75v855h199v-974q0 -186 123 -186q10 0 53 20z" />
    <glyph glyph-name="glyph272" horiz-adv-x="1167" 
d="M494 53l147 328q-17 -5 -39.5 -9.5t-45 -8t-42.5 -5.5t-30 -2h-9q-4 0 -8 2q5 -29 7.5 -48.5t2.5 -28.5q0 -56 -18.5 -103.5t-51.5 -82t-79.5 -53.5t-102.5 -19q-33 0 -66 12.5t-61 38t-49 63t-31 88.5l179 33q0 -31 13.5 -48t33.5 -17q61 0 61 86q0 81 -94 227
q-51 78 -75.5 143t-24.5 119q0 96 35 166.5t103.5 118t169.5 73.5t232 33q19 1 32 6t20.5 16t10.5 30t3 49v102h198v-111q0 -207 -178 -256q-99 -1 -169.5 -12t-118.5 -29.5t-76.5 -43t-43.5 -52.5t-19.5 -58t-4.5 -59q0 -42 18 -81.5t48.5 -70t69.5 -49t81 -18.5
q48 0 84.5 14t71.5 46q-19 21 -26 45t-7 55q0 33 11 61t30.5 48t47 31.5t61.5 11.5q31 0 59.5 -11.5t49.5 -32t33.5 -48.5t12.5 -60q0 -63 -45 -111l94.5 -201.5l94.5 -201.5q-9 -5 -26.5 -16.5l-38.5 -25l-44 -28l-43 -26.5l-133 309l-64 -167l-86 -222z" />
    <glyph glyph-name="uni0AA8_uni0ACD.half_uni0AA8.pres" 
d="M1507 51q-83 -51 -157 -51t-133 28t-100 79t-63 121.5t-22 156.5v309l-134.5 -116l-139.5 -119q112 -69 112 -201q0 -51 -19 -98t-52 -82.5t-78.5 -56.5t-97.5 -21t-97 21.5t-78.5 57.5t-53 82.5t-19.5 96.5q0 110 98 197l316 255t212 185h-434q10 -22 12.5 -42t2.5 -46
q0 -56 -22 -104.5t-59 -84.5t-86 -56.5t-104 -20.5q-53 0 -100.5 21.5t-83.5 58.5t-57 85t-21 101t21 101.5t56.5 85.5t83 59t101.5 22h721v288h199v-978q0 -186 119 -186q17 0 55 20zM315 717q18 0 34 8t28 21.5t19 30t7 34.5q0 16 -7.5 32t-19.5 28.5t-28 20t-33 7.5
q-18 0 -34.5 -7t-29 -19t-20.5 -28t-8 -34q0 -19 7 -36t19 -30t29 -20.5t37 -7.5zM702 254q0 32 -23.5 55t-55.5 23q-15 0 -28 -6.5t-23.5 -17t-16.5 -25t-6 -29.5t6 -29t16.5 -24.5t23.5 -16.5t28 -6q32 0 55.5 22t23.5 54z" />
    <glyph glyph-name="glyph274" horiz-adv-x="1167" 
d="M727 -287l-315 316q-37 7 -76.5 28.5t-75.5 51t-64.5 63.5t-43.5 66l155 112q23 -35 55.5 -63.5t70 -48.5t78 -30.5t79.5 -10.5q48 0 91.5 15.5t76.5 42.5t53 63t20 77q0 31 -10.5 62.5t-29 60t-44 53.5t-55.5 43q-22 -64 -49 -135l-51 -131l-162 66l111 260h-2
l-171 -55.5l-171 -55.5l-58 168l203 66q-115 99 -115 247q0 75 30 137.5t82.5 108t123.5 71t153 25.5q92 0 207 -34l-59 -191q-48 16 -85.5 22.5t-68.5 6.5q-40 0 -74.5 -10t-60 -29t-40.5 -45t-15 -57q0 -57 38.5 -101t123.5 -76l193.5 64.5l193.5 62.5l53 -170l-217 -65
q112 -79 166.5 -170t54.5 -203q0 -64 -24.5 -122t-70.5 -106.5t-110.5 -85.5t-144.5 -59l90.5 -89.5l87.5 -88.5z" />
    <glyph glyph-name="glyph275" 
d="M1507 51q-83 -51 -157 -51t-133 27.5t-100 78t-63 121.5t-22 158v92l-280.5 -244l-280.5 -241l-129 147l387 334l-104 96.5l-107 96.5l-180 -135.5l-180 -135.5l-117 156l299 225q-32 20 -58 49.5t-45 64.5t-29.5 74t-10.5 78q0 69 25.5 129t69.5 104.5t103 69.5t127 25
q65 0 124 -26t103.5 -70.5t70.5 -103t26 -123.5q0 -40 -11.5 -80t-31.5 -76.5t-48 -67t-61 -51.5l92 -84l95 -86l76.5 66l74.5 65v621h199v-969q0 -186 119 -186q17 0 55 20zM655 1044q0 26 -10.5 50t-28.5 42t-42 29t-52 11q-26 0 -49.5 -11t-41 -29t-28 -42.5t-10.5 -51.5
q0 -26 10.5 -49.5t28 -41t41 -28t49.5 -10.5q28 0 52 10.5t42 28.5t28.5 41.5t10.5 50.5z" />
    <glyph glyph-name="uni0AB6_uni0ACD.half_uni0A9A.pres" 
d="M606 1089q0 23 -9.5 44t-25.5 36.5t-37.5 25t-44.5 9.5q-22 0 -42 -9.5t-35 -25.5t-24 -37t-9 -43q0 -23 8.5 -43.5t23 -36t34 -24.5t42.5 -9q25 0 46.5 9t37.5 24.5t25.5 36t9.5 43.5zM1507 51q-83 -51 -157 -51q-59 0 -110 21t-91.5 58t-68 87.5t-38.5 109.5
q-75 -75 -155.5 -111t-177.5 -36q-47 0 -88.5 14t-74 40.5t-54 63.5t-27.5 83l-101 -55l-98 -54l-84 152l420 233q-15 15 -32 34.5l-34 39.5l-34 39t-33 34l-81 -44.5l-84.5 -47.5l-84 -47.5l-80.5 -44.5l-86 158l256 143q-20 19 -38 45.5t-32 56t-22 60t-8 57.5
q0 57 22 109.5t59.5 92t87.5 63.5t107 24q59 0 112.5 -23.5t93.5 -63t63.5 -92.5t23.5 -112q0 -168 -143 -252q31 -28 60 -66t61 -69q15 10 33.5 20.5t29.5 18.5l90 -153l-109 -57t-91.5 -54.5t-63.5 -52t-24 -49.5q0 -64 94 -64q66 0 124 30.5t100.5 81.5t67.5 118.5
t25 142.5v676h199v-996q0 -35 8.5 -65t24.5 -52t38 -35t48 -13q8 0 57 20z" />
    <glyph glyph-name="uni0AB6_uni0ACD.half_uni0AA8.pres" 
d="M1509 51q-83 -51 -159 -51q-75 0 -134 27.5t-99.5 80t-61.5 128.5t-21 172v155l-70.5 -34l-66.5 -32.5l-67.5 -33.5l-71.5 -35q55 -64 55 -152q0 -49 -18.5 -93t-50.5 -77.5t-76 -53t-95 -19.5q-49 0 -92 18.5t-75.5 51.5t-51 77.5t-18.5 95.5q0 74 43 132t131 100
l89.5 41.5l68 31l53 25t45.5 23.5l-96.5 51l-96.5 53l-191.5 -96l-191.5 -96l-81 157l278 138q-54 46 -78 99.5t-24 113.5q0 54 25 106.5t66 93t92.5 65.5t104.5 25q55 0 108 -25t94.5 -65.5t67 -93t25.5 -106.5q0 -60 -27.5 -115t-78.5 -103l100 -54.5l103 -55.5l33.5 17
l35.5 18v602h199v-950q0 -211 119 -211q19 0 53 22zM573 211q12 0 24 5.5t21.5 15t15 21t5.5 23.5t-6 23t-15.5 19.5t-21 14t-23.5 5.5t-23 -5t-20 -13.5t-14.5 -20t-5.5 -23.5t5.5 -23.5t14.5 -21t20.5 -15t22.5 -5.5zM573 934q22 0 43 9.5t37 25.5t25.5 36.5t9.5 43.5
q0 22 -9.5 42.5t-25.5 36.5t-37 25.5t-43 9.5q-20 0 -40 -10t-36.5 -26t-27 -36.5t-10.5 -41.5q0 -23 10 -43.5t26 -36.5t36.5 -25.5t41.5 -9.5z" />
    <glyph glyph-name="uni0AB6_uni0ACD.half_uni0AB5.pres" 
d="M1507 51q-40 -26 -79.5 -38.5t-77.5 -12.5q-59 0 -111 22t-92.5 60.5t-67.5 91t-37 113.5q-163 -121 -352 -121q-57 0 -107 21.5t-87.5 59t-59.5 87t-22 106.5q0 82 45 153.5t123 119.5q-29 15 -55.5 39.5t-57.5 39.5l-81 -38l-86.5 -41l-86 -41l-80.5 -38l-76 160
l240 115q-104 86 -104 211q0 54 23.5 104t62 87.5t88.5 60t104 22.5t104 -23t88.5 -61t61.5 -87.5t23 -102.5q0 -66 -28 -121.5t-85 -97.5q42 -24 84.5 -55.5t85.5 -54.5h127v-170h-35q-63 0 -120 -13t-99.5 -37t-68 -57.5t-25.5 -73.5q0 -20 8.5 -37.5t23 -30.5t33 -20.5
t39.5 -7.5q55 0 106.5 11.5t96.5 32.5t81 50t60 64v856h199v-969q0 -192 119 -192q15 0 55 22zM473 1017q20 0 38.5 8.5t32.5 23t22.5 33t8.5 38.5q0 19 -8.5 37t-22.5 32t-32.5 22.5t-38.5 8.5q-19 0 -37.5 -8t-32.5 -22t-23 -32t-9 -38t8.5 -38.5t22.5 -33t32.5 -23
t38.5 -8.5z" />
    <glyph glyph-name="glyph279" horiz-adv-x="1591" 
d="M1561 51q-83 -51 -158 -51q-74 0 -133 28t-100 78.5t-63 121.5t-22 157v80l-94.5 -110l-93.5 -107l-139 106l250 258q-65 -12 -158 -12q-117 0 -232 72q-34 -32 -79 -57.5t-99 -41.5q23 -89 49 -160t54.5 -121t58.5 -77t60 -27q31 0 83 31l78 -180q-49 -20 -92 -29.5
t-78 -9.5q-57 0 -105.5 22.5t-89 62t-73.5 93t-59 115.5t-46 128.5t-34 133.5h-127v199h143q149 0 220 50t71 159q0 81 -44.5 128.5t-125.5 47.5q-37 0 -76 -12t-84 -33l-96 168q121 73 244 73q82 0 152 -29.5t121 -81t79.5 -122t28.5 -152.5q0 -58 -29 -131
q31 -18 74.5 -29.5t97.5 -11.5q88 0 139 29.5t51 83.5v467h197v-973q0 -186 121 -186q11 0 24.5 4.5t28.5 15.5z" />
    <glyph glyph-name="uni0AB8_uni0ACD.half_uni0AA4_uni0AB0_uni0ACD.blwf.vatu" horiz-adv-x="1751" 
d="M1712 53q-40 -28 -79 -40.5t-77 -12.5q-72 0 -130.5 28.5t-100 79.5t-64 122t-22.5 155v23l-194 -145l-191 -142l-100 164l485 358v27q0 68 -34.5 129t-89 107t-122 73t-133.5 27q-43 0 -87.5 -11.5t-92.5 -29.5l-72 182q66 26 132 41.5t120 15.5q48 0 101 -14t104 -38
t96.5 -54.5t77.5 -63.5v324h199v-973q0 -186 118 -186q20 0 52 24zM705 53q-67 -28 -116.5 -40.5t-84.5 -12.5q-46 0 -94 23t-93 63t-85.5 94.5t-71.5 117t-50.5 131t-23.5 136.5h-139v189h137q307 0 307 196q0 39 -14.5 73t-39.5 59.5t-58.5 40t-71.5 14.5q-35 0 -73 -11
t-83 -32l-96 168q124 73 246 73q78 0 147.5 -29t122 -81t83 -123.5t30.5 -155.5q0 -24 -3.5 -50t-11 -51.5t-19.5 -48.5t-28 -42q28 -20 48 -31t39 -16.5t38.5 -7t46.5 -1.5q131 0 260 123l138 -137q-36 -36 -85.5 -68.5t-103.5 -57.5t-108.5 -39.5t-100.5 -14.5
q-178 0 -319 117q-19 -13 -45.5 -23t-50.5 -16q3 -71 22.5 -141.5t50.5 -126.5t70.5 -91t81.5 -35q43 0 117 48z" />
    <glyph glyph-name="uni0AB9_uni0ACD_uni0AA3.cjct" horiz-adv-x="1272" 
d="M571 500q0 -103 62 -103q32 0 46.5 31t14.5 94v256h-123v-278zM1137 0h-193v549q0 78 -19 130t-71 69v-226q0 -145 -57.5 -211.5t-169.5 -66.5q-213 0 -213 278v213q-29 -18 -53 -45t-41 -61t-27 -72.5t-10 -79.5q0 -99 30 -170t83.5 -125t126.5 -97t159 -85l-109 -154
q-107 58 -196 119t-153 135.5t-99 167.5t-35 215q0 59 13.5 115.5t39.5 105.5t63 89.5t85 68.5q-40 35 -59 84.5t-19 103.5q0 83 30.5 142.5t85.5 97.5t131 55.5t167 17.5h346v-194h-404q-81 0 -123.5 -31t-42.5 -88q0 -45 38 -71.5t116 -26.5h150q96 0 165 -16.5
t116.5 -46.5t77 -71t45 -90.5t21 -105t5.5 -114.5v-508z" />
    <glyph glyph-name="uni0AB9_uni0ACD_uni0AA8.cjct" horiz-adv-x="1272" 
d="M1147 0h-207v377h-168q-5 -25 -19 -46.5t-33.5 -37t-43 -24.5t-47.5 -9q-31 0 -58 11.5t-47.5 31.5t-32.5 47t-12 58t12 57.5t32.5 46.5t48 31.5t57.5 11.5h307q-8 48 -28 86.5t-58 65.5t-98 41t-148 14q-65 0 -123 -20.5t-101 -58.5t-68 -92.5t-25 -121.5
q0 -81 35.5 -152.5t92 -131.5t127 -107t140.5 -78l-111 -164q-111 61 -200.5 129t-151.5 146t-95.5 167.5t-33.5 194.5q0 112 49 208t140 171q-38 34 -61 85t-23 114q0 68 20.5 117.5t56 83.5t83.5 55t103.5 32t115.5 15t120 4h279v-194h-336q-39 0 -80.5 -3t-75.5 -14.5
t-56 -33.5t-22 -60q0 -45 44.5 -73t138.5 -28q130 0 234 -22t177 -80.5t111.5 -160t38.5 -261.5v-428z" />
    <glyph glyph-name="uni0AB9_uni0ACD_uni0AAE.cjct" horiz-adv-x="1591" 
d="M1559 51q-83 -51 -156 -51q-76 0 -135.5 28.5t-100.5 80t-62.5 124t-21.5 160.5v19h-176q-4 -31 -18.5 -58t-36 -47t-50 -31.5t-59.5 -11.5q-33 0 -63 13.5t-52.5 36.5t-36 53t-13.5 63q0 30 10.5 57t29.5 48.5t43.5 35.5t53.5 19q-4 48 -14 81t-30 52.5t-51.5 28
t-78.5 8.5q-40 0 -84 -20t-81 -58t-61 -92t-24 -121q0 -81 35.5 -152.5t92 -131.5t127 -107t140.5 -78l-108 -164q-112 61 -201.5 129t-152.5 146t-96.5 167.5t-33.5 194.5q0 112 49 209t140 172q-16 16 -28.5 39t-20.5 50.5t-12.5 57t-4.5 59.5q0 102 41.5 161.5t109.5 90
t154 38.5t176 8h166v-194h-223q-39 0 -80.5 -1.5t-75 -11.5t-55.5 -30.5t-22 -58.5q0 -46 43.5 -77.5t134.5 -38.5q96 -7 157 -35t96.5 -74t49.5 -108.5t16 -138.5h178v768h199v-924q0 -66 6.5 -111t20.5 -72.5t36 -39.5t54 -12q9 0 23 5t32 17z" />
    <glyph glyph-name="uni0AB9_uni0ACD_uni0AAF.cjct" horiz-adv-x="1645" 
d="M1612 51q-83 -51 -160 -51q-54 0 -101 16t-84.5 45t-65 71t-42.5 93q-38 -21 -77.5 -33t-84.5 -12q-190 0 -479 256l23.5 36.5l27 44.5l26 45t21.5 40q44 -29 70 -29q20 0 37 9.5t30 26t20 37.5t7 44q0 25 -14 42.5t-38.5 29t-58 17t-71.5 5.5q-65 0 -121 -23.5t-97 -65
t-64 -99.5t-23 -127q0 -81 35 -152.5t91.5 -131.5t126.5 -107t140 -78l-108 -164q-112 61 -201.5 129t-151.5 146t-95.5 167.5t-33.5 194.5q0 112 49.5 209t137.5 172q-32 32 -49 84t-17 112q0 102 42 163t110 93t154.5 42t176.5 10h234v-194h-293q-39 0 -80.5 -3.5t-75 -15
t-55.5 -34t-22 -59.5q0 -26 21 -44t55.5 -29.5t79 -17t91.5 -5.5q73 0 133 -19t103 -54.5t66.5 -86t23.5 -114.5q0 -72 -42 -138.5t-112 -111.5q83 -53 172 -53q60 0 99 30.5t39 79.5v869h196v-973q0 -186 119 -186q11 0 25 5t32 17z" />
    <glyph glyph-name="glyph285" horiz-adv-x="1272" 
d="M1147 0h-207v463q0 43 -3.5 81t-14.5 70l-155.5 -155l-154.5 -152l-137 137l297 297q-32 10 -73 15.5t-95 5.5q-65 0 -123 -20.5t-101 -58.5t-68 -92.5t-25 -121.5q0 -81 35.5 -152.5t92 -131.5t127 -107t140.5 -78l-111 -164q-111 61 -200.5 129t-151.5 146t-95.5 167.5
t-33.5 194.5q0 112 49 209t140 172q-32 32 -49 85.5t-17 113.5q0 68 19 117.5t52.5 83t79.5 54t99.5 32t112 15t118.5 3.5h279v-194h-336q-39 0 -80.5 -3t-75.5 -14t-56 -33t-22 -59q0 -45 44.5 -74t138.5 -29q163 0 271 -37.5t172.5 -106t91 -165.5t26.5 -215v-428z" />
    <glyph glyph-name="uni0AB9_uni0ACD_uni0AB2.cjct" horiz-adv-x="1272" 
d="M1147 0h-207v338l-88.5 -33l-83.5 -31l-49 148l221 88q-2 59 -18.5 106t-54.5 79.5t-102 49.5t-161 17q-65 0 -123 -20.5t-101 -58.5t-68 -92.5t-25 -121.5q0 -81 35 -153.5t91.5 -133t126.5 -108t140 -78.5l-109 -160q-111 61 -200.5 129t-151.5 146t-95.5 167.5
t-33.5 194.5q0 112 49 209t140 172q-16 16 -28.5 39t-20.5 50.5t-12.5 57t-4.5 59.5q0 102 41.5 162.5t109.5 91.5t154 40t176 9h279v-194h-336q-39 0 -80.5 -2.5t-75.5 -13t-56 -32t-22 -59.5q0 -22 11.5 -42t34 -35t57 -24t80.5 -9q164 0 272.5 -33t172.5 -98.5t90 -164
t26 -228.5v-428zM719 80q-71 28 -119.5 61t-78.5 73t-43 86.5t-13 102.5q0 41 15.5 86.5t47.5 84t80.5 63.5t114.5 25q42 0 98 -9v-147l-52 6t-38 2q-29 0 -49 -12.5t-32.5 -31t-18.5 -39.5t-6 -38q0 -41 14 -68t36 -46.5t50 -34l55 -29.5z" />
    <glyph glyph-name="uni0AB9_uni0ACD_uni0AB5.cjct" horiz-adv-x="1272" 
d="M1147 0h-207v184q-71 -47 -174 -47q-54 0 -104.5 20.5t-89.5 55.5t-62 82t-23 100q0 64 20 113t54.5 82.5t80.5 51t99 17.5q13 0 31 -3t36.5 -7.5t35.5 -9.5t28 -10l-36 -162q-28 17 -50.5 26t-42.5 9q-46 0 -70 -29.5t-24 -77.5q0 -23 10.5 -41t27 -30t37.5 -18.5
t42 -6.5q36 0 63 6.5t47 17t35 23.5t29 27v51q0 77 -9.5 139.5t-43.5 106.5t-101 68t-182 24q-65 0 -123 -20.5t-101 -58.5t-68 -92.5t-25 -121.5q0 -81 35.5 -152.5t92 -131.5t127 -107t140.5 -78l-111 -164q-111 61 -200.5 129t-151.5 146t-95.5 167.5t-33.5 194.5
q0 112 49 209t140 172q-32 32 -49 85t-17 113q0 102 41.5 163t109.5 92.5t154 41t176 9.5h279v-194h-336q-39 0 -80.5 -3t-75.5 -14t-56 -33t-22 -60q0 -45 44.5 -73.5t138.5 -28.5q164 0 272.5 -32t172.5 -97t90 -163.5t26 -231.5v-428z" />
    <glyph glyph-name="uni0A9B_uni0AC1.blws" 
d="M639 653q-61 -1 -119 -6.5t-103 -23.5t-72.5 -52t-27.5 -92q0 -74 31 -127.5t83 -88t121 -51.5t146 -17q95 0 177.5 35t146 95t105 140.5t55.5 171.5q-56 -35 -125 -35q-66 0 -124 32t-101 85t-68 123t-25 145q0 92 21.5 161.5t58 116t86 70t105.5 23.5q84 0 152 -42
t116 -118.5t74 -184t26 -237.5q0 -169 -47 -311t-135 -245.5t-214 -161.5t-284 -58q-119 0 -224 32.5t-183.5 94t-124 150.5t-45.5 202q0 72 30 138.5t93 115.5q-35 24 -62.5 51t-47 59.5t-30 71.5t-10.5 86q0 72 26 135.5t75 114.5t120 74t162 23v-194q-94 0 -140 -36
t-46 -117q0 -82 58 -121.5t161 -39.5h129v-187zM1065 784q23 0 43 12.5t34.5 34t23 49.5t8.5 60q0 42 -11 83t-31 72.5t-48 51t-62 19.5q-45 0 -71.5 -44.5t-26.5 -122.5q0 -43 10 -82t29 -68.5t44.5 -47t57.5 -17.5zM506 -198q18 45 46.5 80.5t63.5 60.5t74.5 38.5
t79.5 13.5q61 0 111.5 -22t86 -60.5t55 -92t19.5 -116.5q0 -66 -28.5 -121.5t-78 -96t-116.5 -63t-143 -22.5q-60 0 -125.5 18t-132.5 51.5t-133 81.5t-125 107l137 137q45 -45 94 -81t98.5 -62t95.5 -40t85 -14q37 0 69.5 8.5t57 24.5t39 38t14.5 48q0 34 -24 57t-58 23
q-9 0 -21.5 -5.5t-24 -14.5t-21 -20.5t-13.5 -23.5z" />
    <glyph glyph-name="uni0A9B_uni0AC2.blws" 
d="M639 653q-61 -1 -119 -6.5t-103 -23.5t-72.5 -52t-27.5 -92q0 -74 31 -127.5t83 -88t121 -51.5t146 -17q95 0 177.5 35t146 95t105 140.5t55.5 171.5q-56 -35 -125 -35q-66 0 -124 32t-101 85t-68 123t-25 145q0 92 21.5 161.5t58 116t86 70t105.5 23.5q84 0 152 -42
t116 -118.5t74 -184t26 -237.5q0 -169 -47 -311t-135 -245.5t-214 -161.5t-284 -58q-119 0 -224 32.5t-183.5 94t-124 150.5t-45.5 202q0 72 30 138.5t93 115.5q-35 24 -62.5 51t-47 59.5t-30 71.5t-10.5 86q0 72 26 135.5t75 114.5t120 74t162 23v-194q-94 0 -140 -36
t-46 -117q0 -82 58 -121.5t161 -39.5h129v-187zM1065 784q23 0 43 12.5t34.5 34t23 49.5t8.5 60q0 42 -11 83t-31 72.5t-48 51t-62 19.5q-45 0 -71.5 -44.5t-26.5 -122.5q0 -43 10 -82t29 -68.5t44.5 -47t57.5 -17.5zM1139 -606q-57 97 -118 172t-117 126.5t-104 78
t-79 26.5t-54.5 -19t-23.5 -46q0 -26 22.5 -46t51.5 -20v-186q-56 0 -105 21t-85.5 56.5t-58 81t-21.5 93.5q0 57 21 105t58 83t87 54.5t108 19.5q49 0 109 -26t132.5 -84t157.5 -151.5t183 -228.5z" />
    <glyph glyph-name="uni0A9B_uni0AC3.blws" 
d="M639 653q-61 -1 -119 -6.5t-103 -23.5t-72.5 -52t-27.5 -92q0 -74 31 -127.5t83 -88t121 -51.5t146 -17q95 0 177.5 35t146 95t105 140.5t55.5 171.5q-56 -35 -125 -35q-66 0 -124 32t-101 85t-68 123t-25 145q0 92 21.5 161.5t58 116t86 70t105.5 23.5q84 0 152 -42
t116 -118.5t74 -184t26 -237.5q0 -169 -47 -311t-135 -245.5t-214 -161.5t-284 -58q-119 0 -224 32.5t-183.5 94t-124 150.5t-45.5 202q0 72 30 138.5t93 115.5q-35 24 -62.5 51t-47 59.5t-30 71.5t-10.5 86q0 72 26 135.5t75 114.5t120 74t162 23v-194q-94 0 -140 -36
t-46 -117q0 -82 58 -121.5t161 -39.5h129v-187zM1065 784q23 0 43 12.5t34.5 34t23 49.5t8.5 60q0 42 -11 83t-31 72.5t-48 51t-62 19.5q-45 0 -71.5 -44.5t-26.5 -122.5q0 -43 10 -82t29 -68.5t44.5 -47t57.5 -17.5zM1041 -252q0 -72 -27 -133t-74.5 -105t-112 -69
t-139.5 -25q-73 0 -135.5 23t-108.5 64t-72 99t-26 128t29 128t81 99t122.5 63.5t154.5 22.5v-195q-40 0 -74.5 -8.5t-60 -24.5t-40.5 -37.5t-15 -47.5q0 -27 11.5 -48.5t31 -37t46 -23.5t56.5 -8q69 0 112.5 34.5t43.5 100.5h197z" />
    <glyph glyph-name="uni0A9B_uni0AC4.blws" 
d="M639 653q-61 -1 -119 -6.5t-103 -23.5t-72.5 -52t-27.5 -92q0 -74 31 -127.5t83 -88t121 -51.5t146 -17q95 0 177.5 35t146 95t105 140.5t55.5 171.5q-56 -35 -125 -35q-66 0 -124 32t-101 85t-68 123t-25 145q0 92 21.5 161.5t58 116t86 70t105.5 23.5q84 0 152 -42
t116 -118.5t74 -184t26 -237.5q0 -169 -47 -311t-135 -245.5t-214 -161.5t-284 -58q-119 0 -224 32.5t-183.5 94t-124 150.5t-45.5 202q0 72 30 138.5t93 115.5q-35 24 -62.5 51t-47 59.5t-30 71.5t-10.5 86q0 72 26 135.5t75 114.5t120 74t162 23v-194q-94 0 -140 -36
t-46 -117q0 -82 58 -121.5t161 -39.5h129v-187zM1065 784q23 0 43 12.5t34.5 34t23 49.5t8.5 60q0 42 -11 83t-31 72.5t-48 51t-62 19.5q-45 0 -71.5 -44.5t-26.5 -122.5q0 -43 10 -82t29 -68.5t44.5 -47t57.5 -17.5zM1119 -657q-43 -50 -86 -81t-85 -48t-83 -23t-80 -6
q-50 0 -97.5 19.5t-84.5 52.5t-59.5 78t-22.5 96q0 48 13 80.5t28 54.5q-19 15 -40 37.5t-38.5 52.5t-29 66.5t-11.5 80.5q0 64 26.5 117t73 91t111 59.5t140.5 21.5v-188q-73 0 -115.5 -25.5t-42.5 -68.5q0 -21 7 -39t18 -31.5t23.5 -22t23.5 -10.5q13 8 32.5 15.5
t41.5 14.5t45 12.5l44 10.5l84 -178q-48 -9 -91.5 -21.5t-76.5 -28.5t-52 -37t-19 -46q0 -20 8 -33t21 -20.5t28 -10.5t29 -3q33 0 62 9.5t53 23t41 28t26 25.5z" />
    <glyph glyph-name="uni0A9C_uni0ABE.psts" horiz-adv-x="2015" 
d="M887 635q-33 -26 -63 -62.5t-52.5 -76t-35.5 -80t-13 -74.5q0 -31 13.5 -57.5t36 -46t51.5 -30.5t59 -11q31 0 59.5 11t50.5 30.5t35.5 46t13.5 57.5q0 117 -155 293zM369 876q24 0 46 10t39 30.5t27.5 52t10.5 75.5q0 24 -10 48t-26.5 43t-39 30.5t-47.5 11.5
q-29 0 -54 -10.5t-43.5 -29t-29.5 -43t-11 -52.5q0 -47 11.5 -78.5t31 -51t44.5 -28t51 -8.5zM1919 49q-40 -25 -81 -37t-79 -12q-81 0 -140.5 32.5t-97.5 86t-56.5 121.5t-18.5 139v736q-105 -85 -202 -177.5t-202 -179.5q97 -118 145 -220t48 -196q0 -77 -26.5 -140.5
t-73.5 -108.5t-111.5 -70t-140.5 -25q-75 0 -140 25t-112 70t-74 108.5t-27 140.5q0 109 56 219.5t174 222.5l-54 59l-57 62q-13 -58 -46.5 -100t-75.5 -69.5t-86.5 -41t-78.5 -13.5q-62 0 -120 23.5t-104 69t-73.5 113t-27.5 155.5q0 68 26.5 128.5t72 105.5t105.5 71
t128 26q146 0 317 -188q34 -33 66 -70t61 -74l55 -71.5l47 -62.5l135.5 111.5l136.5 117.5l136 117l135 110h182v-984q0 -182 121 -182q11 0 58 18z" />
    <glyph glyph-name="uni0A9C_uni0AC0.psts" horiz-adv-x="1911" 
d="M430 137q188 -194 451 -194q85 0 167 22.5t155 63.5t134.5 98.5t106 127t69.5 150t25 166.5q0 154 -55 288.5t-164 237.5q-100 -103 -174.5 -190.5l-126.5 -144.5q190 -217 190 -340q0 -67 -26 -124.5t-70 -100t-104 -67t-127 -24.5q-68 0 -127.5 24t-103.5 66.5
t-69.5 100t-25.5 125.5q0 72 51 159t154 187l-52 47.5l-55 50.5q-21 -57 -52 -95t-68.5 -61t-80 -33t-85.5 -10q-65 0 -124.5 23.5t-106 69t-74 113t-27.5 155.5q0 67 26.5 127t71.5 105.5t105.5 72t128.5 26.5q56 0 109.5 -35.5t114.5 -97t134 -143.5t168 -176l104.5 111
l107.5 116.5l107 115.5l103 109q212 -173 316 -370.5t104 -417.5q0 -112 -32.5 -216.5t-90.5 -196.5t-138 -168t-175 -131t-201.5 -85t-216.5 -30q-349 0 -592 258zM883 631q-23 -17 -47 -39t-44.5 -48.5t-33.5 -57t-13 -64.5q0 -25 11.5 -45.5t30.5 -35.5t43.5 -23.5
t50.5 -8.5q27 0 51 8.5t43 23.5t30 35.5t11 45.5q0 76 -133 209zM358 860q25 0 49.5 9.5t43 30t30 53t11.5 77.5q0 27 -11 51t-29 43t-42.5 30t-51.5 11q-26 0 -49.5 -11.5t-41 -30t-28 -43t-10.5 -50.5q0 -45 11 -77t29 -52.5t41.5 -30.5t47.5 -10z" />
    <glyph glyph-name="uni0A9D_uni0AC1.blws" horiz-adv-x="1645" 
d="M1081 199q61 0 112.5 21t89.5 58.5t59.5 89t21.5 111.5q0 56 -17.5 103.5t-49 82t-77 53.5t-100.5 19q-40 0 -68 -19t-46 -61q-2 -73 -18 -146.5t-45 -142t-71 -128t-97 -104t-122.5 -70t-146.5 -25.5q-78 0 -152 33t-131.5 88.5t-92 128.5t-34.5 153h197q0 -41 18 -78.5
t48 -66t68 -46t79 -17.5q66 0 121.5 34t95 92.5t62 136t22.5 163.5q0 90 -23 166t-65.5 132t-102 87.5t-131.5 31.5q-125 0 -198 -133l-168 96q31 52 72.5 95.5t89 74.5t99.5 48.5t105 17.5q83 0 158.5 -27.5t138.5 -78.5t111 -123t76 -160q47 18 86 37.5t67.5 45t44 60.5
t15.5 84q0 48 -16 111.5t-48 123.5l193 39q34 -63 50.5 -134.5t16.5 -137.5q0 -128 -78 -225q58 -29 106 -74t82 -100.5t52.5 -119.5t18.5 -130q0 -100 -36.5 -185.5t-100.5 -148.5t-151.5 -99t-189.5 -36v199zM877 -199q19 44 47.5 79.5t63 61t74 39t81.5 13.5
q61 0 111.5 -22t86 -61t55 -92.5t19.5 -117.5q0 -65 -29 -120.5t-79 -95.5t-117 -62.5t-143 -22.5q-59 0 -124.5 18t-133 51.5t-133.5 81.5t-124 107l138 137q43 -45 92.5 -81t99 -61.5t96 -39.5t84.5 -14q36 0 68.5 8.5t57 24.5t39 37.5t14.5 47.5q0 34 -23 56t-57 22
q-10 0 -22.5 -5t-24.5 -13t-21 -19.5t-12 -23.5z" />
    <glyph glyph-name="uni0A9D_uni0AC2.blws" horiz-adv-x="1645" 
d="M1081 199q61 0 112.5 21t89.5 58.5t59.5 89t21.5 111.5q0 56 -17.5 103.5t-49 82t-77 53.5t-100.5 19q-40 0 -68 -19t-46 -61q-2 -73 -18 -146.5t-45 -142t-71 -128t-97 -104t-122.5 -70t-146.5 -25.5q-78 0 -152 33t-131.5 88.5t-92 128.5t-34.5 153h197q0 -41 18 -78.5
t48 -66t68 -46t79 -17.5q66 0 121.5 34t95 92.5t62 136t22.5 163.5q0 90 -23 166t-65.5 132t-102 87.5t-131.5 31.5q-125 0 -198 -133l-168 96q31 52 72.5 95.5t89 74.5t99.5 48.5t105 17.5q83 0 158.5 -27.5t138.5 -78.5t111 -123t76 -160q47 18 86 37.5t67.5 45t44 60.5
t15.5 84q0 97 -64 215l193 39q67 -121 67 -252q0 -128 -78 -225q58 -29 106 -74t82 -100.5t52.5 -119.5t18.5 -130q0 -100 -36.5 -185.5t-100.5 -148.5t-151.5 -99t-189.5 -36v199zM1573 -608q-57 97 -118 172.5t-117.5 126.5t-105 77.5t-79.5 26.5q-15 0 -29 -5.5t-25 -14
t-17.5 -20t-6.5 -23.5q0 -27 22.5 -47.5t53.5 -20.5v-186q-56 0 -105.5 21.5t-86 56.5t-57.5 81t-21 95q0 57 21 104.5t57.5 82t86 54t107.5 19.5q48 0 108.5 -26t133 -83.5t157.5 -150.5t183 -228z" />
    <glyph glyph-name="uni0A9D_uni0AC3.blws" horiz-adv-x="1645" 
d="M1386 -283q0 -72 -26.5 -132.5t-74 -105t-112 -69t-139.5 -24.5q-73 0 -135 23t-107.5 64.5t-71.5 99.5t-26 128t29 127.5t80.5 98.5t122.5 64t155 23v185q61 0 112.5 21t89.5 58.5t59.5 89t21.5 111.5q0 56 -17.5 103.5t-49 82t-77 53.5t-100.5 19q-40 0 -68 -19
t-46 -61q-2 -73 -18 -146.5t-45 -142t-71 -128t-97 -104t-122.5 -70t-146.5 -25.5q-78 0 -152 33t-131.5 88.5t-92 128.5t-34.5 153h197q0 -41 18 -78.5t48 -66t68 -46t79 -17.5q66 0 121.5 34t95 92.5t62 136t22.5 163.5q0 90 -23 166t-65.5 132t-102 87.5t-131.5 31.5
q-125 0 -198 -133l-168 96q31 52 72.5 95.5t89 74.5t99.5 48.5t105 17.5q83 0 158.5 -27.5t138.5 -78.5t111 -123t76 -160q47 18 86 37.5t67.5 45t44 60.5t15.5 84q0 97 -64 215l193 39q67 -121 67 -252q0 -128 -78 -225q58 -29 106 -74t82 -100.5t52.5 -119.5t18.5 -130
q0 -100 -36.5 -185.5t-100.5 -148.5t-151.5 -99t-189.5 -36v-180q-41 0 -75.5 -9t-60 -25t-40 -38t-14.5 -47q0 -27 11 -49t30.5 -37.5t45.5 -24t56 -8.5q34 0 63 9t50 26t33 42.5t12 57.5h194z" />
    <glyph glyph-name="uni0A9D_uni0AC4.blws" horiz-adv-x="1645" 
d="M1081 199q61 0 112.5 21t89.5 58.5t59.5 89t21.5 111.5q0 56 -17.5 103.5t-49 82t-77 53.5t-100.5 19q-40 0 -68 -19t-46 -61q-2 -73 -18 -146.5t-45 -142t-71 -128t-97 -104t-122.5 -70t-146.5 -25.5q-78 0 -152 33t-131.5 88.5t-92 128.5t-34.5 153h197q0 -41 18 -78.5
t48 -66t68 -46t79 -17.5q66 0 121.5 34t95 92.5t62 136t22.5 163.5q0 90 -23 166t-65.5 132t-102 87.5t-131.5 31.5q-125 0 -198 -133l-168 96q31 52 72.5 95.5t89 74.5t99.5 48.5t105 17.5q83 0 158.5 -27.5t138.5 -78.5t111 -123t76 -160q47 18 86 37.5t67.5 45t44 60.5
t15.5 84q0 97 -64 215l193 39q67 -121 67 -252q0 -128 -78 -225q58 -29 106 -74t82 -100.5t52.5 -119.5t18.5 -130q0 -100 -36.5 -185.5t-100.5 -148.5t-151.5 -99t-189.5 -36v199zM1405 -748q-44 -50 -87 -80.5t-84.5 -47.5t-82.5 -23t-80 -6q-50 0 -97.5 19.5t-84.5 52.5
t-59.5 78t-22.5 96q0 48 12.5 80.5t28.5 54.5q-19 15 -40 37.5t-38.5 52.5t-29 66.5t-11.5 80.5q0 64 26 117t72.5 91t110.5 59.5t139 21.5v-188q-72 0 -113.5 -25t-41.5 -70q0 -21 7 -38.5t18 -31t23 -22t23 -10.5q13 8 32.5 15.5t41.5 14.5t45 12.5l43 10.5l84 -178
q-48 -9 -91 -21.5t-75.5 -28.5t-52 -37t-19.5 -46q0 -20 8.5 -33t21 -21t27.5 -11t29 -3q32 0 61.5 10t53.5 23.5t41 28t25 24.5z" />
    <glyph glyph-name="uni0AAB_uni0AC4.blws" horiz-adv-x="1167" 
d="M1178 -907q-44 -50 -87.5 -81t-85.5 -48t-82.5 -23t-78.5 -6q-50 0 -97.5 19.5t-85 53t-60.5 78t-23 95.5q0 48 13 80.5t30 54.5q-20 15 -41.5 37.5t-38.5 52.5t-28 67t-11 81q0 80 38.5 141.5t106.5 98.5l-229 231q-38 11 -77.5 33.5t-76 52t-66.5 62.5t-48 65l155 112
q54 -78 123.5 -115.5t163.5 -37.5q46 0 89.5 15.5t76.5 42.5t53 62.5t20 75.5q0 78 -43.5 134.5t-134.5 101.5l-124.5 -105l-122.5 -102l-111 135l178 152q-50 30 -94 63t-77 72.5t-52 88t-19 109.5q0 84 27 148t77 107t121 65t160 22q48 0 98.5 -8.5t110.5 -23.5l-61 -191
q-48 16 -87 22.5t-71 6.5q-91 0 -136.5 -32t-45.5 -107q0 -63 54.5 -116t154.5 -91l152.5 125l152.5 125l111 -138l-242 -196q52 -32 93 -74t69.5 -90.5t43.5 -101t15 -105.5q0 -70 -28.5 -133.5t-77 -114t-112.5 -83.5t-134 -42l90.5 -89.5l87.5 -86.5l-4 -4v-182
q-72 0 -115 -26t-43 -68q0 -21 7 -39t18 -31.5t24 -22t25 -10.5q13 8 32 15.5t41 14.5t45 13l44 11l84 -179q-48 -9 -91.5 -21.5t-76.5 -28.5t-52.5 -37t-19.5 -46q0 -20 8 -33t21 -20.5t28 -10.5t29 -3q33 0 62.5 9.5t53.5 23t41 28.5t25 25z" />
    <glyph glyph-name="uni0AAB_uni0AC3.blws" horiz-adv-x="1167" 
d="M1157 -453q0 -72 -26.5 -132.5t-74 -105t-112 -69t-139.5 -24.5q-74 0 -136 23t-107.5 64.5t-71 99.5t-25.5 128q0 91 47.5 160t128.5 108l-223 226q-38 11 -77.5 33.5t-76 52t-66.5 62.5t-48 65l155 112q54 -78 123.5 -115.5t163.5 -37.5q46 0 89.5 15.5t76.5 42.5
t53 62.5t20 75.5q0 78 -43.5 134.5t-134.5 101.5l-124.5 -105l-122.5 -102l-111 135l178 152q-50 30 -94 63t-77 72.5t-52 88t-19 109.5q0 84 27 148t77 107t121 65t160 22q48 0 98.5 -8.5t110.5 -23.5l-61 -191q-48 16 -87 22.5t-71 6.5q-91 0 -136.5 -32t-45.5 -107
q0 -63 54.5 -116t154.5 -91l152.5 125l152.5 125l111 -138l-242 -196q52 -32 93 -74t69.5 -90.5t43.5 -101t15 -105.5q0 -70 -28.5 -133.5t-77 -114t-112.5 -83.5t-134 -42l88 -87l86 -85h2l2 -4l-2 -2v-188q-41 0 -75.5 -9t-60 -25t-40 -38t-14.5 -47q0 -27 11 -49
t30.5 -37.5t45.5 -24t56 -8.5q69 0 112.5 34.5t43.5 100.5h196z" />
    <glyph glyph-name="uni0AAB_uni0AC1.blws" horiz-adv-x="1167" 
d="M469 -336q23 56 60.5 97.5t84.5 65.5l-196 198q-38 11 -77.5 33.5t-76 52t-66.5 62.5t-48 65l155 112q54 -78 123.5 -115.5t163.5 -37.5q46 0 89.5 15.5t76.5 42.5t53 62.5t20 75.5q0 78 -43.5 134.5t-134.5 101.5l-124.5 -105l-122.5 -102l-111 135l178 152
q-50 30 -94 63t-77 72.5t-52 88t-19 109.5q0 84 27 148t77 107t121 65t160 22q48 0 98.5 -8.5t110.5 -23.5l-61 -191q-48 16 -87 22.5t-71 6.5q-91 0 -136.5 -32t-45.5 -107q0 -63 54.5 -116t154.5 -91l152.5 125l152.5 125l111 -138l-242 -196q52 -32 93 -74t69.5 -90.5
t43.5 -101t15 -105.5q0 -70 -28.5 -133.5t-77 -114t-112.5 -83.5t-134 -42l90.5 -89.5l87.5 -86.5l-6 -6q74 -32 117 -103t43 -165q0 -66 -29 -121.5t-79.5 -96t-117.5 -63t-143 -22.5q-59 0 -124.5 18t-132.5 51.5t-133 81.5t-124 107l135 137q45 -45 94.5 -81t99 -62
t96 -40t85.5 -14q36 0 68.5 9t56.5 24.5t38.5 37.5t14.5 48q0 34 -24 56t-58 22q-9 0 -21 -5t-24 -13.5t-21.5 -19.5t-13.5 -23z" />
    <glyph glyph-name="uni0AAB_uni0AC2.blws" horiz-adv-x="1167" 
d="M1075 -702q-56 97 -116.5 172t-117 126.5t-105 78t-79.5 26.5q-15 0 -28.5 -5.5t-24.5 -14.5t-17.5 -21t-6.5 -25t6 -24.5t16 -20.5t23 -14.5t28 -5.5v-186q-55 0 -104 21t-86 56t-58.5 80.5t-21.5 93.5q0 44 13 83t36.5 71t55.5 55.5t71 37.5l-141 143
q-38 11 -77.5 33.5t-76 52t-66.5 62.5t-48 65l155 112q54 -78 123.5 -115.5t163.5 -37.5q46 0 89.5 15.5t76.5 42.5t53 62.5t20 75.5q0 78 -43.5 134.5t-134.5 101.5l-124.5 -105l-122.5 -102l-111 135l178 152q-50 30 -94 63t-77 72.5t-52 88t-19 109.5q0 84 27 148t77 107
t121 65t160 22q48 0 98.5 -8.5t110.5 -23.5l-61 -191q-48 16 -87 22.5t-71 6.5q-91 0 -136.5 -32t-45.5 -107q0 -63 54.5 -116t154.5 -91l152.5 125l152.5 125l111 -138l-242 -196q52 -32 93 -74t69.5 -90.5t43.5 -101t15 -105.5q0 -70 -28.5 -133.5t-77 -114t-112.5 -83.5
t-134 -42l90.5 -89.5l87.5 -86.5l-11 -11q81 -54 179.5 -156.5t216.5 -264.5z" />
    <glyph glyph-name="uni0AB0_uni0AC2.blws" horiz-adv-x="1006" 
d="M877 -266q-154 -121 -254 -121q-60 0 -105 18.5t-79.5 50.5t-59.5 73t-45 87t-36.5 92.5t-33.5 88.5q-63 37 -113 100.5t-79 157.5l170 77q17 -50 40.5 -84.5t54.5 -55.5t70.5 -30.5t88.5 -9.5q41 0 79.5 15t68 41t47.5 61t18 74q0 43 -19.5 80t-53.5 64t-78.5 42.5
t-94.5 15.5h-283v195h289q229 0 229 199q0 43 -15 80.5t-45.5 64.5t-76.5 42.5t-108 15.5q-66 0 -130 -18.5t-133 -55.5l-94 166q81 54 169 78t188 24t182 -30t139.5 -83t89 -126t31.5 -158q0 -211 -137 -301q141 -117 141 -295q0 -177 -110.5 -270t-327.5 -99
q19 -59 36 -99t35.5 -64t40 -34t50.5 -10q48 0 127 70z" />
    <glyph glyph-name="uni0AB3_uni0AC1.blws" horiz-adv-x="1644" 
d="M1339 0h-196v988q0 172 -142 172q-75 0 -110 -40.5t-35 -121.5q0 -20 2 -55.5t5 -80t7 -93t7 -93t5 -81.5t2 -58q0 -203 -87.5 -308.5t-258.5 -105.5q-100 0 -179 39t-134 110.5t-84 173t-29 226.5q0 167 78.5 332t239.5 342l141 -144q-62 -51 -110 -113.5t-81.5 -133
t-51 -146t-17.5 -150.5q0 -79 15.5 -143t44.5 -109.5t71 -70.5t96 -25q76 0 116 67.5t40 188.5q0 18 -2.5 51l-5.5 73t-7.5 84.5t-7.5 85.5l-5.5 75t-2.5 54q0 81 23.5 149t67 116.5t105 75.5t138.5 27q81 0 144.5 -25.5t107.5 -73t67 -116t23 -155.5v-988zM966 -168
q18 45 46.5 80.5t63.5 60.5t74.5 38.5t79.5 13.5q61 0 111.5 -22t86 -60.5t55 -92t19.5 -116.5q0 -66 -28.5 -121.5t-78 -96t-116.5 -63t-143 -22.5q-60 0 -125.5 18t-132.5 51.5t-133 81.5t-125 107l137 137q45 -45 94 -81t98.5 -62t95.5 -40t85 -14q37 0 69.5 8.5t57 24.5
t39 38t14.5 48q0 34 -24 57t-58 23q-9 0 -21.5 -5.5t-24 -14.5t-21 -20.5t-13.5 -23.5z" />
    <glyph glyph-name="uni0AB3_uni0AC2.blws" horiz-adv-x="1644" 
d="M1339 0h-196v988q0 172 -142 172q-75 0 -110 -40.5t-35 -121.5q0 -20 2 -55.5t5 -80t7 -93t7 -93t5 -81.5t2 -58q0 -203 -87.5 -308.5t-258.5 -105.5q-100 0 -179 39t-134 110.5t-84 173t-29 226.5q0 167 78.5 332t239.5 342l141 -144q-62 -51 -110 -113.5t-81.5 -133
t-51 -146t-17.5 -150.5q0 -79 15.5 -143t44.5 -109.5t71 -70.5t96 -25q76 0 116 67.5t40 188.5q0 18 -2.5 51l-5.5 73t-7.5 84.5t-7.5 85.5l-5.5 75t-2.5 54q0 81 23.5 149t67 116.5t105 75.5t138.5 27q81 0 144.5 -25.5t107.5 -73t67 -116t23 -155.5v-988zM1679 -571
q-57 97 -118 172t-117 126.5t-104 78t-79 26.5t-54.5 -19t-23.5 -46q0 -26 22.5 -46t51.5 -20v-186q-56 0 -105 21t-85.5 56.5t-58 81t-21.5 93.5q0 57 21 105t58 83t87 54.5t108 19.5q49 0 109 -26t132.5 -84t157.5 -151.5t183 -228.5z" />
    <glyph glyph-name="uni0AB3_uni0AC3.blws" horiz-adv-x="1644" 
d="M1339 0h-196v988q0 172 -142 172q-75 0 -110 -40.5t-35 -121.5q0 -20 2 -55.5t5 -80t7 -93t7 -93t5 -81.5t2 -58q0 -203 -87.5 -308.5t-258.5 -105.5q-100 0 -179 39t-134 110.5t-84 173t-29 226.5q0 167 78.5 332t239.5 342l141 -144q-62 -51 -110 -113.5t-81.5 -133
t-51 -146t-17.5 -150.5q0 -79 15.5 -143t44.5 -109.5t71 -70.5t96 -25q76 0 116 67.5t40 188.5q0 18 -2.5 51l-5.5 73t-7.5 84.5t-7.5 85.5l-5.5 75t-2.5 54q0 81 23.5 149t67 116.5t105 75.5t138.5 27q81 0 144.5 -25.5t107.5 -73t67 -116t23 -155.5v-988zM1691 -271
q0 -72 -27 -133t-74.5 -105t-112 -69t-139.5 -25q-73 0 -135.5 23t-108.5 64t-72 99t-26 128t29 128t81 99t122.5 63.5t154.5 22.5v-195q-40 0 -74.5 -8.5t-60 -24.5t-40.5 -37.5t-15 -47.5q0 -27 11.5 -48.5t31 -37t46 -23.5t56.5 -8q69 0 112.5 34.5t43.5 100.5h197z" />
    <glyph glyph-name="uni0AB3_uni0AC4.blws" horiz-adv-x="1644" 
d="M1339 0h-196v988q0 172 -142 172q-75 0 -110 -40.5t-35 -121.5q0 -20 2 -55.5t5 -80t7 -93t7 -93t5 -81.5t2 -58q0 -203 -87.5 -308.5t-258.5 -105.5q-100 0 -179 39t-134 110.5t-84 173t-29 226.5q0 167 78.5 332t239.5 342l141 -144q-62 -51 -110 -113.5t-81.5 -133
t-51 -146t-17.5 -150.5q0 -79 15.5 -143t44.5 -109.5t71 -70.5t96 -25q76 0 116 67.5t40 188.5q0 18 -2.5 51l-5.5 73t-7.5 84.5t-7.5 85.5l-5.5 75t-2.5 54q0 81 23.5 149t67 116.5t105 75.5t138.5 27q81 0 144.5 -25.5t107.5 -73t67 -116t23 -155.5v-988zM1711 -657
q-43 -50 -86 -81t-85 -48t-83 -23t-80 -6q-50 0 -97.5 19.5t-84.5 52.5t-59.5 78t-22.5 96q0 48 13 80.5t28 54.5q-19 15 -40 37.5t-38.5 52.5t-29 66.5t-11.5 80.5q0 64 26.5 117t73 91t111 59.5t140.5 21.5v-188q-73 0 -115.5 -25.5t-42.5 -68.5q0 -21 7 -39t18 -31.5
t23.5 -22t23.5 -10.5q13 8 32.5 15.5t41.5 14.5t45 12.5l44 10.5l84 -178q-48 -9 -91.5 -21.5t-76.5 -28.5t-52 -37t-19 -46q0 -20 8 -33t21 -20.5t28 -10.5t29 -3q33 0 62 9.5t53 23t41 28t26 25.5z" />
    <glyph glyph-name="uni0AB9_uni0AC3.blws" horiz-adv-x="1272" 
d="M1044 217q-110 -117 -247 -117q-64 0 -120.5 26t-99 70t-67.5 102t-25 122q0 57 24 106.5t65 87.5t95.5 63t116.5 32q-15 19 -39 33t-51 23.5t-54.5 14t-49.5 4.5q-65 0 -121.5 -23.5t-97.5 -65t-64.5 -99.5t-23.5 -127q0 -81 35.5 -152.5t92 -131.5t127 -107t140.5 -78
l-109 -164q-112 61 -201.5 129t-152 146t-96 167.5t-33.5 194.5q0 112 48.5 209t139.5 172q-32 32 -48.5 84t-16.5 112q0 102 41.5 163t109.5 92.5t154 41t176 9.5h172v-194h-227q-40 0 -82 -3t-76 -14t-56 -33t-22 -60q0 -24 21 -40.5t56 -27.5t80 -17.5t93 -10.5
q83 -7 143.5 -31.5t102 -60.5t66.5 -80t38.5 -90t18 -90.5t4.5 -81.5h-121q-223 0 -223 -106q0 -54 31.5 -87.5t85.5 -33.5q26 0 50 11.5t46 37.5z" />
    <glyph glyph-name="uni0A95_uni0ACD_uni0AB0.rkrf_uni0AC1.blws" horiz-adv-x="1168" 
d="M1017 813l-216 -72q97 -72 141.5 -157t44.5 -191q0 -81 -35.5 -153t-95.5 -125t-139 -84t-166 -31q-269 0 -451 227l150 125q66 -78 139 -116.5t158 -38.5q48 0 93 17t80 45.5t56 67t21 81.5q0 104 -115 180q-32 -69 -62 -127.5l-61 -124.5l-149 74l116 243l-178 -60
l-178 -58l-53 170l217 71q-54 48 -80.5 110.5t-26.5 137.5q0 73 25.5 135.5t73 107.5t115 70.5t151.5 25.5q60 0 110 -10.5t101 -32.5l-70 -182q-48 12 -90.5 18.5t-79.5 6.5q-35 0 -62 -11t-45 -29.5t-27 -43t-9 -51.5q0 -118 151 -176l95 30.5l101.5 34l101.5 34.5l95 32z
M295 -168q18 45 46.5 80.5t63.5 60.5t74.5 38.5t79.5 13.5q61 0 111.5 -22t86 -60.5t55 -92t19.5 -116.5q0 -66 -28.5 -121.5t-78 -96t-116.5 -63t-143 -22.5q-60 0 -125.5 18t-132.5 51.5t-133 81.5t-125 107l137 137q45 -45 94 -81t98.5 -62t95.5 -40t85 -14
q37 0 69.5 8.5t57 24.5t39 38t14.5 48q0 34 -24 57t-58 23q-9 0 -21.5 -5.5t-24 -14.5t-21 -20.5t-13.5 -23.5z" />
    <glyph glyph-name="uni0A99_uni0ACD_uni0A95.cjct_uni0AC1.blws" horiz-adv-x="1114" 
d="M657 -180h-178v127q-64 -37 -135 -37q-53 0 -100.5 19t-83.5 52.5t-57 79.5t-21 101q0 52 21 98.5t57 81t83.5 54.5t100.5 20q37 0 71.5 -10t63.5 -27v119q-103 18 -202 83t-199 177l135 112q159 -204 391 -204q36 0 66.5 7.5t53 21t35.5 32t13 41.5q0 25 -29.5 43
t-83.5 31q-46 7 -87.5 15t-74.5 15.5t-56.5 14t-32.5 10.5q-36 15 -63 40t-45.5 58t-28 72t-9.5 81q0 54 21.5 97t60.5 73t93.5 46t119.5 16q34 -2 80.5 -3t120.5 -5v-181q-4 0 -27 2.5t-53 5l-60 5t-47 2.5q-137 0 -137 -64q0 -38 28.5 -62t77.5 -41t114 -30l139 -28
q151 -61 151 -225q0 -48 -22 -91t-60.5 -77t-91 -58t-113.5 -34v-119q32 18 64.5 28.5t64.5 10.5q55 0 102 -21t81.5 -57.5t54.5 -85t20 -102.5q0 -51 -19 -95.5t-52 -77.5t-77 -52t-93 -19q-12 0 -70 6l41 174q19 -3 23.5 -3.5t7.5 -0.5q26 0 45.5 20t19.5 48
q0 18 -6.5 34.5t-17.5 29t-26.5 20.5t-33.5 8q-92 0 -129 -60v-362zM469 162q0 84 -123 84q-17 0 -33 -7t-28 -18.5t-19.5 -27t-7.5 -31.5q0 -17 7.5 -32.5t19.5 -27.5t28 -19t33 -7q26 0 48.5 6.5t39 17.5t26 27t9.5 35zM1038 1126q0 -20 -8 -37.5t-21.5 -31t-31.5 -21.5
t-37 -8q-20 0 -37.5 8t-31 21.5t-21.5 31t-8 37.5t8 38t21.5 31.5t31 21.5t37.5 8q19 0 37 -8t31.5 -21.5t21.5 -31.5t8 -38zM395 -240q37 32 80.5 47.5t91.5 15.5q45 0 87 -19.5t73.5 -52t50.5 -74.5t19 -87q0 -62 -27.5 -113t-75.5 -87.5t-112.5 -56.5t-139.5 -20
q-121 0 -235.5 43.5t-220.5 131.5l116 133q145 -129 340 -129q88 0 132 22.5t44 73.5q0 25 -19.5 44t-45.5 19t-68 -39z" />
    <glyph glyph-name="uni0A99_uni0ACD_uni0A96.cjct_uni0AC1.blws" horiz-adv-x="1114" 
d="M948 -180h-174v190q-17 -3 -37 -5.5t-39 -2.5q-50 0 -93 16.5t-74.5 45.5t-49.5 70t-18 89q0 51 21.5 95t59 76.5t88 50.5t109.5 18v-176q-102 0 -102 -66q0 -28 23.5 -44.5t58.5 -16.5q10 0 19.5 5.5t17 14t12 18.5t4.5 19v305q-90 -30 -196 -30q-38 0 -72.5 3.5
t-65.5 12.5q-3 -103 -20.5 -168t-59.5 -100q0 -63 5.5 -109t20.5 -76.5t41.5 -45.5t68.5 -15v-176q-78 1 -135 28.5t-95 74.5t-58 109.5t-24 133.5h-110v174q23 -3 31 -3.5t14 -0.5q51 0 80.5 14t44 45t18.5 80t4 119q-49 29 -99 72.5t-99 103.5l135 113q85 -112 184 -163.5
t217 -51.5q168 0 168 94q0 32 -27.5 53t-87.5 35q-118 25 -179.5 39.5t-69.5 17.5q-73 31 -109.5 91.5t-36.5 141.5q0 54 19.5 97t55.5 73t87 46t115 16q18 0 52.5 -1.5l69 -3t63 -2.5t34.5 -1v-181q-5 1 -27.5 3t-50.5 3.5l-56 3t-44 1.5q-146 0 -146 -54q0 -35 30.5 -63
t84.5 -41q100 -18 168 -33.5t88 -25.5q72 -36 107 -107t36 -174v-874zM1038 1126q0 -20 -8 -37.5t-21.5 -31t-31.5 -21.5t-37 -8q-20 0 -37.5 8t-31 21.5t-21.5 31t-8 37.5t8 38t21.5 31.5t31 21.5t37.5 8q19 0 37 -8t31.5 -21.5t21.5 -31.5t8 -38zM685 -240
q37 32 80.5 47.5t91.5 15.5q45 0 87 -19.5t73.5 -52t50.5 -74.5t19 -87q0 -62 -27.5 -113t-75.5 -87.5t-112.5 -56.5t-139.5 -20q-121 0 -235.5 43.5t-220.5 131.5l116 133q145 -129 340 -129q88 0 132 22.5t44 73.5q0 25 -19.5 44t-45.5 19t-68 -39z" />
    <glyph glyph-name="uni0A99_uni0ACD_uni0A97.cjct_uni0AC1.blws" horiz-adv-x="1114" 
d="M862 -180h-180v678q-41 -6 -88 -6q-19 0 -35 0.5t-33 3.5q32 -63 49 -122t17 -116q0 -68 -17.5 -123t-50.5 -93.5t-79 -59.5t-103 -21q-59 0 -107 22.5t-81.5 63.5t-51.5 98t-18 125h178q0 -60 20.5 -98.5t55.5 -38.5t57.5 32.5t22.5 86.5q0 64 -19.5 118.5t-61.5 112
t-109 125l-162 158.5l137 115q85 -112 184 -163.5t217 -51.5q168 0 168 94q0 59 -115 84q-112 21 -174.5 35.5t-74.5 19.5q-72 29 -109 91.5t-37 147.5q0 232 277 232q22 0 56 -1.5l67 -3t60 -2.5t36 -1v-178q-18 0 -52 2l-70.5 4l-70.5 4t-53 2q-78 0 -78 -58
q0 -86 115 -104q112 -19 172.5 -31t71.5 -12q151 -61 151 -243q0 -60 -21 -104t-61 -75v-749zM1038 1126q0 -20 -8 -37.5t-21.5 -31t-31.5 -21.5t-37 -8q-20 0 -37.5 8t-31 21.5t-21.5 31t-8 37.5t8 38t21.5 31.5t31 21.5t37.5 8q19 0 37 -8t31.5 -21.5t21.5 -31.5t8 -38z
M595 -240q37 32 80.5 47.5t91.5 15.5q45 0 87 -19.5t73.5 -52t50.5 -74.5t19 -87q0 -62 -27.5 -113t-75.5 -87.5t-112.5 -56.5t-139.5 -20q-121 0 -235.5 43.5t-220.5 131.5l116 133q145 -129 340 -129q88 0 132 22.5t44 73.5q0 25 -19.5 44t-45.5 19t-68 -39z" />
    <glyph glyph-name="uni0A99_uni0ACD_uni0A98.cjct_uni0AC1.blws" horiz-adv-x="1114" 
d="M565 295q-25 -6 -51 -18.5t-47.5 -29.5t-35 -37.5t-13.5 -41.5q0 -98 123 -98q32 0 62.5 10.5t54.5 29t38.5 43t14.5 52.5v299q-71 -12 -127 -12q-116 0 -222 47q-15 -11 -26.5 -31t-11.5 -49q0 -34 14.5 -53.5t30.5 -28.5q47 28 110 51zM885 -180h-174v135
q-35 -26 -78 -38.5t-92 -12.5q-67 0 -121.5 18.5t-93 53.5t-59.5 85t-21 113q0 41 12 76q-100 87 -100 209q0 54 14.5 96.5t40.5 71.5q-43 35 -75.5 67.5t-57.5 63.5l133 110q81 -103 173 -151.5t198 -48.5q188 0 188 94q0 54 -113 80q-112 20 -174 34.5t-77 20.5
q-73 31 -109.5 92.5t-36.5 142.5q0 55 21 99t59.5 75t91.5 47.5t117 16.5q20 0 49.5 -1.5l60 -3t57.5 -2.5t42 -1v-178q-18 0 -47 2l-60 4t-59 4t-43 2q-117 0 -117 -64q0 -28 12 -47t35.5 -32t58.5 -22.5t81 -18.5h-3q89 -19 177 -31q149 -59 149 -227q0 -42 -13.5 -77
t-45.5 -69v-788zM1038 1126q0 -20 -8 -37.5t-21.5 -31t-31.5 -21.5t-37 -8q-20 0 -37.5 8t-31 21.5t-21.5 31t-8 37.5t8 38t21.5 31.5t31 21.5t37.5 8q19 0 37 -8t31.5 -21.5t21.5 -31.5t8 -38zM635 -240q37 32 80.5 47.5t91.5 15.5q45 0 87 -19.5t73.5 -52t50.5 -74.5
t19 -87q0 -62 -27.5 -113t-75.5 -87.5t-112.5 -56.5t-139.5 -20q-121 0 -235.5 43.5t-220.5 131.5l116 133q145 -129 340 -129q88 0 132 22.5t44 73.5q0 25 -19.5 44t-45.5 19t-68 -39z" />
    <glyph glyph-name="uni0A99_uni0ACD_uni0AAE.cjct_uni0AC1.blws" horiz-adv-x="1114" 
d="M897 -180h-197v229h-274q-6 -23 -21.5 -46t-37 -41.5t-47.5 -30t-54 -11.5q-34 0 -63.5 13t-52 35.5t-35.5 52t-13 63.5q0 31 11 58t30.5 48.5t45.5 36t55 19.5v332q-31 21 -75.5 67l-107.5 115l150 123q51 -63 94 -105.5t83.5 -68t81 -36.5t87.5 -11q106 0 156.5 24
t50.5 78q0 24 -30.5 44.5t-84.5 31.5l-165.5 33.5t-86.5 23.5q-72 33 -107.5 98.5t-35.5 153.5q0 229 291 229q35 -2 85 -2q49 0 128 -4v-199q-17 0 -47.5 2.5t-64.5 5l-66.5 5t-53.5 2.5q-42 0 -62 -10.5t-20 -28.5q0 -34 29 -61.5t86 -38.5l177 -36t73 -18
q145 -64 145 -247q0 -82 -57 -164v-764zM700 240v256q-46 -11 -80.5 -15t-62.5 -4q-22 0 -51.5 5t-67.5 18v-260h262zM1038 1126q0 -20 -8 -37.5t-21.5 -31t-31.5 -21.5t-37 -8q-20 0 -37.5 8t-31 21.5t-21.5 31t-8 37.5q0 21 8 39t21.5 31.5t31 21t37.5 7.5q19 0 37 -7.5
t31.5 -21t21.5 -31.5t8 -39zM635 -240q37 32 80.5 47.5t91.5 15.5q45 0 87 -19.5t73.5 -52t50.5 -74.5t19 -87q0 -62 -27.5 -113t-75.5 -87.5t-112.5 -56.5t-139.5 -20q-121 0 -235.5 43.5t-220.5 131.5l116 133q145 -129 340 -129q88 0 132 22.5t44 73.5q0 25 -19.5 44
t-45.5 19t-68 -39z" />
    <glyph glyph-name="uni0A99_uni0ACD_uni0A95_uni0ACD_uni0AB7.akhn.cjct_uni0AC1.blws" horiz-adv-x="1114" 
d="M711 502q-29 -5 -63.5 -7.5t-72.5 -2.5q4 -11 4.5 -23t0.5 -23q0 -52 -29 -96q33 4 62 12.5t51 20.5t34.5 28t12.5 35v56zM406 446q0 13 -5 25.5t-14 22.5t-21 16t-26 6q-13 0 -25 -6t-21 -16t-14.5 -22.5t-5.5 -25.5q0 -12 5.5 -23.5t15 -20t21.5 -14t24 -5.5
q26 0 46 19.5t20 43.5zM885 -180h-174v393q-45 -22 -89.5 -31.5t-95.5 -9.5q-15 0 -41.5 6t-54 13.5t-52.5 13.5t-38 6q-18 0 -36 -11.5t-32.5 -29t-23 -38.5t-8.5 -40q0 -24 6 -46.5t17 -39.5t26.5 -27t34.5 -10q23 0 45 13q-11 15 -22 34t-19 31l141 88l213 -338l-137 -92
l-82 129q-35 -15 -74 -24t-74 -9q-54 0 -100 24.5t-80.5 65t-54 93t-19.5 108.5q0 131 97 213q-58 64 -58 141q0 117 97 193q-56 46 -129 129l135 113q85 -112 184 -163.5t217 -51.5q168 0 168 94q0 59 -115 86l-173.5 39.5t-75.5 21.5q-72 34 -109 98.5t-37 149.5
q0 215 277 215q37 -2 88 -3t133 -5v-181q-16 0 -45 2.5l-60.5 5l-62 5t-49.5 2.5q-109 0 -109 -47q0 -37 29 -65.5t86 -39.5q229 -47 252 -57q143 -65 143 -250q0 -40 -13.5 -77.5t-45.5 -75.5v-764zM1036 1124q0 -20 -7.5 -37.5t-21 -31t-31 -21.5t-38.5 -8q-20 0 -37.5 8
t-30.5 21.5t-20.5 31t-7.5 37.5q0 21 7.5 39.5t20.5 32t30.5 21.5t37.5 8q21 0 38.5 -8t31 -21.5t21 -32t7.5 -39.5zM695 -240q37 32 80.5 47.5t91.5 15.5q45 0 87 -19.5t73.5 -52t50.5 -74.5t19 -87q0 -62 -27.5 -113t-75.5 -87.5t-112.5 -56.5t-139.5 -20
q-121 0 -235.5 43.5t-220.5 131.5l116 133q145 -129 340 -129q88 0 132 22.5t44 73.5q0 25 -19.5 44t-45.5 19t-68 -39z" />
    <glyph glyph-name="uni0A9B_uni0ACD_uni0AB5.cjct_uni0AC1.blws" horiz-adv-x="1114" 
d="M846 1047q0 28 -11.5 53.5t-30 45t-43 31t-50.5 11.5q-28 0 -47 -16.5t-19 -42.5q0 -27 11 -52t29 -44.5t42 -31t51 -11.5q28 0 48 15.5t20 41.5zM801 -180h-183v112q-40 -29 -87.5 -44t-110.5 -15q-47 0 -93 19t-82 51t-58.5 75.5t-22.5 92.5q0 219 328 219h71v-170h-2
q-15 0 -28 1t-25 1q-85 0 -127.5 -13.5t-42.5 -37.5q0 -64 92 -64q37 0 71 8.5t60 24t41.5 36t15.5 44.5v229q-24 -5 -56.5 -7.5t-67.5 -2.5q-82 0 -152 23.5t-121.5 66.5t-80.5 101.5t-29 129.5q0 61 20 119q-121 76 -121 228q0 65 25.5 121.5t72 98t111 65.5t141.5 25
v-174q-43 -1 -75 -12t-53.5 -29.5t-32.5 -43t-11 -51.5q0 -29 15 -52.5t47 -42.5q61 31 151 31v-172q-23 -2 -43.5 -11.5t-36.5 -24.5t-25 -34t-9 -41q0 -32 16.5 -59.5t45 -47.5t66.5 -31t81 -11q63 0 120.5 23t102.5 61t74 88.5t36 104.5q-14 -2 -27 -3t-26 -1
q-57 0 -111.5 23.5t-97 63t-68.5 90.5t-26 107q0 55 17 101t48 79t75 51.5t98 18.5q67 0 124.5 -32.5t98.5 -87t64.5 -127t23.5 -152.5q0 -73 -15.5 -146.5t-44 -139.5t-69.5 -121.5t-92 -92.5v-639zM545 -240q37 32 80.5 47.5t91.5 15.5q45 0 87 -19.5t73.5 -52t50.5 -74.5
t19 -87q0 -62 -27.5 -113t-75.5 -87.5t-112.5 -56.5t-139.5 -20q-121 0 -235.5 43.5t-220.5 131.5l116 133q145 -129 340 -129q88 0 132 22.5t44 73.5q0 25 -19.5 44t-45.5 19t-68 -39z" />
    <glyph glyph-name="uni0A9F_uni0ACD_uni0A9F.cjct_uni0AC1.blws" horiz-adv-x="1006" 
d="M944 176q-10 -84 -46.5 -149.5t-92.5 -111t-130 -69.5t-159 -24q-86 0 -159.5 25t-127 70t-84 108t-30.5 139q0 66 21 115t62 86t101.5 65t138.5 51q27 7 31 64q-81 4 -147 30t-113.5 71t-73.5 107.5t-26 139.5q0 233 297 289q52 15 71 31.5t19 39.5q0 17 -23 66l172 76
q22 -45 31.5 -83t9.5 -75q-21 -197 -293 -244q-88 -19 -88 -114q0 -32 16.5 -60t43.5 -48.5t62 -32t73 -11.5q43 0 83 12.5t71 34.5t50 52t19 65h203q-10 -64 -33.5 -119t-58.5 -98t-80 -71.5t-97 -39.5q-1 -66 -12 -111t-36.5 -77t-68.5 -55t-108 -44q-37 -11 -60 -21.5
t-36 -24t-18 -30.5t-5 -40q0 -33 15.5 -59.5t43 -45.5t64.5 -29t80 -10q45 0 86.5 11.5t72.5 32.5t49.5 50.5t18.5 65.5h201zM395 -240q37 32 80.5 47.5t91.5 15.5q45 0 87 -19.5t73.5 -52t50.5 -74.5t19 -87q0 -62 -27.5 -113t-75.5 -87.5t-112.5 -56.5t-139.5 -20
q-121 0 -235.5 43.5t-220.5 131.5l116 133q145 -129 340 -129q88 0 132 22.5t44 73.5q0 25 -19.5 44t-45.5 19t-68 -39z" />
    <glyph glyph-name="uni0A9F_uni0ACD_uni0AA0.cjct_uni0AC1.blws" horiz-adv-x="1006" 
d="M922 891q-8 -135 -87 -224.5t-237 -113.5q-3 -9 -5.5 -19t-2.5 -22q0 -18 4 -29q60 -9 116 -31.5t99.5 -61.5t69.5 -95.5t26 -132.5q0 -84 -31 -148t-85 -106.5t-128 -64t-161 -21.5q-90 0 -164.5 19.5t-128.5 60.5t-83.5 105.5t-29.5 154.5q0 54 18 105t55 94t93 74.5
t133 45.5q-3 7 -3 15q0 14 0.5 31t4.5 28q-66 12 -119 41t-90 72.5t-57 100t-20 124.5q0 55 15.5 102.5t48.5 84.5t85 63t125 39q43 7 70 16t42.5 26.5t21 46.5t5.5 77h195v-60q0 -196 -119 -246q-29 -12 -79.5 -23.5t-125.5 -25.5q-45 -9 -66.5 -38.5t-21.5 -75.5
q0 -32 16.5 -60t43.5 -48.5t62 -32t73 -11.5q43 0 83 12t71 34t50 52t19 66h199zM709 162q0 36 -19 64t-49 47.5t-67 29.5t-74 10q-39 0 -76 -10.5t-66 -30t-47 -47.5t-18 -63q0 -44 15.5 -74.5t43 -50t65.5 -28.5t83 -9q42 0 80 9.5t66.5 29t45.5 50.5t17 73zM395 -240
q37 32 80.5 47.5t91.5 15.5q45 0 87 -19.5t73.5 -52t50.5 -74.5t19 -87q0 -62 -27.5 -113t-75.5 -87.5t-112.5 -56.5t-139.5 -20q-121 0 -235.5 43.5t-220.5 131.5l116 133q145 -129 340 -129q88 0 132 22.5t44 73.5q0 25 -19.5 44t-45.5 19t-68 -39z" />
    <glyph glyph-name="uni0AA0_uni0ACD_uni0AA0.cjct_uni0AC1.blws" horiz-adv-x="1006" 
d="M662 1358q-21 -33 -35 -49.5t-22.5 -29t-11.5 -28.5t-3 -49q0 -5 1 -8t1 -8q61 -9 118 -32t100 -62.5t69 -96.5t26 -133q0 -70 -24 -126.5t-66.5 -98.5t-99.5 -69.5t-123 -39.5q-2 -6 -2 -11q0 -10 0.5 -18t3.5 -16q60 -9 116 -31.5t99.5 -61.5t69.5 -95.5t26 -132.5
q0 -84 -31 -148t-85 -106.5t-128 -64t-161 -21.5q-90 0 -164.5 19.5t-128.5 60.5t-83.5 105.5t-29.5 154.5q0 54 18 105t55 94t93 74.5t133 45.5q-2 9 -3 21t-1 22q1 0 1 1q0 3 1 5q-68 10 -122.5 35t-93.5 65.5t-60 98t-21 133.5q0 54 18.5 105.5t55.5 94.5t93 74.5
t130 45.5q0 57 17 105.5t43 70.5h211zM709 862q0 37 -19 65.5t-49 47.5t-67 29t-74 10q-39 0 -76.5 -10.5t-67 -30t-47.5 -47.5t-18 -64q0 -43 15.5 -73t43.5 -49.5t66.5 -28.5t83.5 -9q42 0 80 9.5t66.5 29t45.5 50t17 71.5zM709 162q0 36 -19 64t-49 47.5t-67 29.5t-74 10
q-39 0 -76.5 -10.5t-67 -30t-47.5 -47.5t-18 -63q0 -44 15.5 -74.5t43.5 -50t66.5 -28.5t83.5 -9q42 0 80 9.5t66.5 29t45.5 50.5t17 73zM395 -240q37 32 80.5 47.5t91.5 15.5q45 0 87 -19.5t73.5 -52t50.5 -74.5t19 -87q0 -62 -27.5 -113t-75.5 -87.5t-112.5 -56.5
t-139.5 -20q-121 0 -235.5 43.5t-220.5 131.5l116 133q145 -129 340 -129q88 0 132 22.5t44 73.5q0 25 -19.5 44t-45.5 19t-68 -39z" />
    <glyph glyph-name="uni0AA1_uni0ACD_uni0AA1.cjct_uni0AC1.blws" horiz-adv-x="1006" 
d="M233 182q51 -92 130.5 -134t171.5 -42q172 0 172 98q0 24 -28 43t-73 27l-154.5 29t-68.5 16q-66 28 -97.5 73t-31.5 126q0 25 6 52.5t19 53.5q-69 38 -121.5 107t-94.5 166l183 61q13 -44 40 -79.5t63.5 -61t81.5 -39.5t93 -14q38 0 71 8t57.5 23t38.5 36t14 47
q0 44 -39.5 64t-118.5 37q-56 12 -109.5 26.5t-95 40t-67 66.5t-25.5 106q0 122 74 192t225 70q17 0 43.5 -1.5l54.5 -3t53 -2.5t39 -1v-189q-16 0 -44.5 2.5t-60 6t-61 6t-47.5 2.5q-46 0 -70 -25.5t-24 -56.5q0 -15 26 -28.5t77 -22.5q88 -19 142 -35.5t83 -30.5
q131 -66 131 -223q0 -64 -26 -117.5t-71 -92t-105 -60t-128 -21.5q-121 0 -121 -69q0 -20 24 -31t75 -18q174 -24 221 -45q63 -29 98 -85t35 -135q0 -145 -90.5 -214.5t-272.5 -69.5q-72 0 -133 13t-116 42t-107.5 77t-107.5 118zM395 -240q37 32 80.5 47.5t91.5 15.5
q45 0 87 -19.5t73.5 -52t50.5 -74.5t19 -87q0 -62 -27.5 -113t-75.5 -87.5t-112.5 -56.5t-139.5 -20q-121 0 -235.5 43.5t-220.5 131.5l116 133q145 -129 340 -129q88 0 132 22.5t44 73.5q0 25 -19.5 44t-45.5 19t-68 -39z" />
    <glyph glyph-name="uni0AA1_uni0ACD_uni0AA2.cjct_uni0AC1.blws" horiz-adv-x="1006" 
d="M729 1174l-61.5 2t-55 2t-45 1.5t-30.5 0.5q-109 0 -109 -60q0 -17 27.5 -29.5t70.5 -19.5q85 -14 143 -25.5t81 -21.5q66 -29 98.5 -84.5t32.5 -122.5q0 -54 -20 -104t-53.5 -90.5t-78.5 -69.5t-96 -41q-3 -57 -28.5 -96.5t-76.5 -65.5l-91 -35.5l-91 -35.5
q-40 -15 -61 -43.5t-21 -61.5q0 -71 43 -108q21 43 55 79t77 62.5t92.5 41.5t101.5 15q46 0 84.5 -16.5t66 -45.5t43 -69t15.5 -86q0 -51 -23.5 -93t-65.5 -72t-99.5 -46t-125.5 -16q-83 0 -160.5 25.5t-137.5 70.5t-96 106.5t-36 133.5q0 149 107 227q15 11 61.5 30.5
t118.5 45.5q31 11 49.5 22.5t26.5 28.5q-132 20 -232 87t-176 179l174 98q21 -41 52 -74.5t67.5 -57.5t77.5 -37t82 -13q37 0 70 9t58 25t39.5 39t14.5 52q0 21 -26.5 39t-71.5 27l-151.5 30t-69.5 17q-129 52 -129 190q0 240 286 240h158q22 0 45 -2v-184zM457 -12
q32 -17 98 -17q26 0 49 6t40.5 16.5t27.5 24.5t10 31q0 22 -17 36.5t-38 14.5q-30 0 -59 -9t-53 -24t-39.5 -35.5t-18.5 -43.5zM395 -240q37 32 80.5 47.5t91.5 15.5q45 0 87 -19.5t73.5 -52t50.5 -74.5t19 -87q0 -62 -27.5 -113t-75.5 -87.5t-112.5 -56.5t-139.5 -20
q-121 0 -235.5 43.5t-220.5 131.5l116 133q145 -129 340 -129q88 0 132 22.5t44 73.5q0 25 -19.5 44t-45.5 19t-68 -39z" />
    <glyph glyph-name="uni0AA2_uni0ACD_uni0AA2.cjct_uni0AC1.blws" horiz-adv-x="1006" 
d="M479 -10q37 -17 92 -17q23 0 46 5.5t41 15t29 22t11 27.5q0 51 -98 51q-22 0 -43 -8t-37.5 -22.5t-27.5 -33.5t-13 -40zM471 684q32 -20 86 -20q133 0 133 69q0 60 -86 60q-111 0 -133 -109zM367 299q-86 -35 -86 -125q0 -38 13 -72.5t38 -50.5q14 45 41 83.5t63.5 67
t79.5 44.5t90 16q55 0 101 -16.5t79.5 -45.5t52.5 -70t19 -89q0 -54 -23.5 -95.5t-67 -70t-106.5 -43t-141 -14.5q-77 0 -149.5 26.5t-129 72.5t-90.5 107.5t-34 131.5q0 74 21.5 128.5t62.5 93t100.5 63.5t136.5 40q22 3 33 10.5t16 16.5q-84 15 -153 48.5t-117.5 83
t-75 113t-26.5 138.5q1 79 27 135t71.5 93t108 58t137.5 31q58 19 61 60l-15 26t-30 31l162 98q34 -26 53 -64.5t27 -80.5q0 -149 -117 -195q-54 -18 -106.5 -33t-106.5 -26q-49 -15 -74.5 -47t-25.5 -86q0 -84 45 -123q30 91 101.5 144t170.5 53q51 0 96 -19.5t79.5 -53
t54.5 -79t20 -96.5q0 -147 -188 -203q-6 -121 -111 -164zM395 -240q37 32 80.5 47.5t91.5 15.5q45 0 87 -19.5t73.5 -52t50.5 -74.5t19 -87q0 -62 -27.5 -113t-75.5 -87.5t-112.5 -56.5t-139.5 -20q-121 0 -235.5 43.5t-220.5 131.5l116 133q145 -129 340 -129
q88 0 132 22.5t44 73.5q0 25 -19.5 44t-45.5 19t-68 -39z" />
    <glyph glyph-name="uni0AA6_uni0ACD_uni0A97.cjct_uni0AC1.blws" horiz-adv-x="1114" 
d="M934 -28q-28 72 -77 178.5l-109 248.5q-16 -10 -37 -20t-44 -19t-45.5 -16t-41.5 -10q24 -45 37.5 -87.5t13.5 -84.5q0 -53 -23 -99.5t-61 -81t-87 -54t-101 -19.5q-46 0 -92 21.5t-83.5 57.5t-61.5 83t-25 98h186q1 -18 9 -34t19.5 -28t25.5 -19t28 -7q17 0 33 6
t28 16.5t19.5 25t7.5 32.5q0 37 -13.5 68.5t-36 59t-51.5 52l-59 48l-59.5 46t-53.5 45.5q-106 112 -106 279q0 92 35.5 162t94.5 118t135 75t157 34q52 6 86.5 12t54.5 16.5t28.5 27.5t8.5 44v111h198v-135q0 -184 -178 -236l-142 -24t-142 -23q-138 -38 -138 -182
q0 -55 19.5 -101t53 -79t79.5 -51.5t100 -18.5q18 0 36.5 4t36 10.5t32 15.5t24.5 19q-35 44 -35 105q0 32 12.5 60.5t34.5 49.5t51 33t62 12q31 0 60 -12t51.5 -33t35.5 -49.5t13 -60.5q0 -67 -43 -113l108.5 -244l108.5 -241zM713 -168q18 45 46.5 80.5t63.5 60.5
t74.5 38.5t79.5 13.5q61 0 111.5 -22t86 -60.5t55 -92t19.5 -116.5q0 -66 -28.5 -121.5t-78 -96t-116.5 -63t-143 -22.5q-60 0 -125.5 18t-132.5 51.5t-133 81.5t-125 107l137 137q45 -45 94 -81t98.5 -62t95.5 -40t85 -14q37 0 69.5 8.5t57 24.5t39 38t14.5 48q0 34 -24 57
t-58 23q-9 0 -21.5 -5.5t-24 -14.5t-21 -20.5t-13.5 -23.5z" />
    <glyph glyph-name="uni0AA6_uni0ACD_uni0A98.cjct_uni0AC1.blws" horiz-adv-x="1272" 
d="M496 209q-34 -26 -61.5 -42.5t-55.5 -23.5q9 -90 133 -90q45 0 87 21t74 56t51 80t19 93q0 25 -6 49q-5 -2 -8 -2h-8q-146 0 -252 42.5t-184 139.5q-35 -6 -56.5 -39.5t-21.5 -78.5q0 -21 9 -40t24 -33.5t34.5 -23t40.5 -8.5q26 0 60 31zM1071 -12q-28 51 -66.5 130.5
l-86.5 176.5q-3 -82 -36 -157.5t-88 -133.5t-127.5 -92.5t-154.5 -34.5q-67 0 -122.5 21t-96 58t-63.5 88.5t-25 113.5q-39 18 -71.5 44.5t-55 59.5t-35 71.5t-12.5 80.5q0 43 13 84.5t36 77.5t56 65t73 47q-6 25 -9 46.5t-3 47.5q0 202 135 283q13 8 72.5 28t162.5 50
q54 16 81.5 40.5t27.5 63.5v111h196v-111q0 -166 -137 -225l-233 -68q-57 -21 -83 -66.5t-26 -111.5q0 -48 22.5 -91t61 -75t88 -50.5t103.5 -18.5q74 0 123 34q-48 51 -48 105q0 28 11.5 56.5t31 51t46 36.5t57.5 14q33 0 63.5 -12t53.5 -33t37 -48t14 -57q0 -43 -15 -83.5
t-38 -72.5l111.5 -222.5l111.5 -219.5zM889 -168q18 45 46.5 80.5t63.5 60.5t74.5 38.5t79.5 13.5q61 0 111.5 -22t86 -60.5t55 -92t19.5 -116.5q0 -66 -28.5 -121.5t-78 -96t-116.5 -63t-143 -22.5q-60 0 -125.5 18t-132.5 51.5t-133 81.5t-125 107l137 137q45 -45 94 -81
t98.5 -62t95.5 -40t85 -14q37 0 69.5 8.5t57 24.5t39 38t14.5 48q0 34 -24 57t-58 23q-9 0 -21.5 -5.5t-24 -14.5t-21 -20.5t-13.5 -23.5z" />
    <glyph glyph-name="uni0AA6_uni0ACD_uni0AA6.cjct_uni0AC1.blws" horiz-adv-x="1062" 
d="M1079 18l-150 -115l-235 275q-43 -32 -93.5 -46.5t-113.5 -14.5q-81 0 -151 30t-121.5 82t-81 123t-29.5 152q0 180 129 284q-118 96 -118 232q0 71 28.5 133t79 107.5t120.5 71.5t153 26q213 0 329 -86l-86 -166q-48 32 -111 49t-145 17q-94 0 -139 -39.5t-45 -102.5
q0 -139 250 -139h219v-199h-219q-118 0 -185 -48.5t-67 -139.5q0 -45 14.5 -84t40.5 -67t63.5 -44t82.5 -16q54 0 88 14q-19 19 -25 41t-6 51q0 32 12.5 60.5t33.5 49.5t49.5 33.5t60.5 12.5t60 -12.5t48.5 -33.5t32.5 -49.5t12 -60.5q0 -61 -28 -104zM564 -168
q18 45 46.5 80.5t63.5 60.5t74.5 38.5t79.5 13.5q61 0 111.5 -22t86 -60.5t55 -92t19.5 -116.5q0 -66 -28.5 -121.5t-78 -96t-116.5 -63t-143 -22.5q-60 0 -125.5 18t-132.5 51.5t-133 81.5t-125 107l137 137q45 -45 94 -81t98.5 -62t95.5 -40t85 -14q37 0 69.5 8.5t57 24.5
t39 38t14.5 48q0 34 -24 57t-58 23q-9 0 -21.5 -5.5t-24 -14.5t-21 -20.5t-13.5 -23.5z" />
    <glyph glyph-name="uni0AA6_uni0ACD_uni0AA7.cjct_uni0AC1.blws" horiz-adv-x="1326" 
d="M1124 -10l-66 120l-50 91.5l-38.5 73.5l-31.5 65q-11 -89 -44.5 -165t-86 -131.5t-120.5 -86.5t-148 -31q-62 0 -117 21t-97 58t-67.5 88t-28.5 112q-112 52 -169.5 167t-57.5 298h170q0 -161 39 -238.5t121 -77.5q25 0 41 64l147 -88q-40 -97 -114 -127q5 -48 41 -76.5
t96 -28.5q45 0 84 20t69 54.5t48.5 80.5t23.5 97h-12q-107 0 -198.5 31t-158.5 87t-105 134.5t-38 173.5q0 200 133 283q11 7 68.5 25l160.5 51q107 30 107 110v113h199v-113q0 -181 -136 -241q-58 -19 -114 -35.5t-113 -30.5q-52 -22 -78 -64t-26 -108q0 -109 68 -169
t194 -60q76 0 123 36q-23 23 -33 50t-10 59q0 30 12.5 58t33 49t47.5 34t56 13q31 0 60 -13t51.5 -34t36.5 -49t14 -58q0 -93 -55 -166l107.5 -213l109.5 -213zM939 -168q18 45 46.5 80.5t63.5 60.5t74.5 38.5t79.5 13.5q61 0 111.5 -22t86 -60.5t55 -92t19.5 -116.5
q0 -66 -28.5 -121.5t-78 -96t-116.5 -63t-143 -22.5q-60 0 -125.5 18t-132.5 51.5t-133 81.5t-125 107l137 137q45 -45 94 -81t98.5 -62t95.5 -40t85 -14q37 0 69.5 8.5t57 24.5t39 38t14.5 48q0 34 -24 57t-58 23q-9 0 -21.5 -5.5t-24 -14.5t-21 -20.5t-13.5 -23.5z" />
    <glyph glyph-name="uni0AA6_uni0ACD_uni0AA8.cjct_uni0AC1.blws" horiz-adv-x="1114" 
d="M891 -8l-217 428l-96.5 -91.5l-126.5 -123.5q26 -26 39.5 -58.5t13.5 -74.5q0 -39 -15.5 -73t-41.5 -59.5t-60.5 -40t-71.5 -14.5t-71 14.5t-60 39.5t-41.5 59.5t-15.5 73.5q0 45 30 97.5t93 109.5l77 68.5l70 62.5q-68 19 -127 56.5t-102 88t-67.5 111t-24.5 125.5
q0 83 23 145.5t73.5 107t131 72.5t194.5 41q75 8 111.5 15.5t41.5 11.5q23 35 23 78v96h198v-103q0 -200 -176 -245l-143 -21.5t-143 -19.5q-138 -32 -138 -178q0 -42 19.5 -78.5t53 -62.5t77.5 -41t94 -15q25 0 49 3.5t45 12.5q-16 38 -16 88q0 28 13 53t34.5 44.5t49.5 31
t59 11.5q30 0 59 -11.5t52 -32t37.5 -48t14.5 -58.5q0 -85 -61 -137l112.5 -232l112.5 -229zM697 -168q18 45 46.5 80.5t63.5 60.5t74.5 38.5t79.5 13.5q61 0 111.5 -22t86 -60.5t55 -92t19.5 -116.5q0 -66 -28.5 -121.5t-78 -96t-116.5 -63t-143 -22.5q-60 0 -125.5 18
t-132.5 51.5t-133 81.5t-125 107l137 137q45 -45 94 -81t98.5 -62t95.5 -40t85 -14q37 0 69.5 8.5t57 24.5t39 38t14.5 48q0 34 -24 57t-58 23q-9 0 -21.5 -5.5t-24 -14.5t-21 -20.5t-13.5 -23.5z" />
    <glyph glyph-name="uni0AA6_uni0ACD_uni0AAC.cjct_uni0AC1.blws" horiz-adv-x="1114" 
d="M926 -8l-26.5 52l-29 60l-34.5 74l-43 94q-22 -57 -58.5 -104t-83 -81.5t-100.5 -53.5t-111 -19q-58 0 -111 22.5t-93.5 61.5t-64.5 90.5t-24 110.5q0 48 20 96.5t48 85.5q-141 123 -141 310q0 172 102 266t322 106q63 3 98 3h25q25 0 28 5q25 28 25 52v135h198v-125
q0 -199 -178 -242q-72 -6 -142 -13t-142 -15q-69 -16 -103.5 -61t-34.5 -124q0 -41 16.5 -76.5t44.5 -61.5t64.5 -41t77.5 -15q77 0 139 24q-20 38 -20 86q0 29 13 55t35 45.5t50.5 30.5t59.5 11q30 0 58 -12t50 -33t35.5 -48.5t13.5 -58.5q0 -72 -55 -121l112.5 -248
l112.5 -245zM600 231q73 76 82 215q-42 -18 -87 -29.5t-91 -15.5l46 -83zM354 403q-9 -6 -18 -17t-16.5 -24.5t-12 -29.5t-4.5 -31q0 -31 12 -57.5t33 -46.5t48.5 -31.5t58.5 -11.5q3 0 9 0.5l12.5 1t12 1t7.5 1.5zM706 -168q18 45 46.5 80.5t63.5 60.5t74.5 38.5t79.5 13.5
q61 0 111.5 -22t86 -60.5t55 -92t19.5 -116.5q0 -66 -28.5 -121.5t-78 -96t-116.5 -63t-143 -22.5q-60 0 -125.5 18t-132.5 51.5t-133 81.5t-125 107l137 137q45 -45 94 -81t98.5 -62t95.5 -40t85 -14q37 0 69.5 8.5t57 24.5t39 38t14.5 48q0 34 -24 57t-58 23
q-9 0 -21.5 -5.5t-24 -14.5t-21 -20.5t-13.5 -23.5z" />
    <glyph glyph-name="uni0AA6_uni0ACD_uni0AAD.cjct_uni0AC1.blws" horiz-adv-x="1220" 
d="M948 -8l-174 340l-61.5 -51l-66 -54.5l-66 -54.5l-62.5 -51q-3 -69 -31.5 -100t-85.5 -31q-26 0 -46 10.5t-34 27.5t-21 38.5t-7 44.5q0 17 8.5 37.5t42.5 50.5q-5 12 -20 22t-39 10q-21 0 -39.5 -9t-33 -25t-22.5 -37.5t-8 -46.5q0 -45 22 -85.5t58.5 -71t83 -48
t96.5 -17.5q34 0 71 14t77 40l90 -133q-57 -38 -118.5 -56t-121.5 -18q-87 0 -162 30.5t-131 82.5t-88 120.5t-32 145.5q0 59 21.5 109t58 86t84 56.5t98.5 20.5q66 0 114.5 -28t73.5 -74l31.5 24.5l38 30.5l37.5 31l32 26q-5 -2 -11 -2h-64q-52 0 -102.5 16t-96 44.5
t-83.5 66.5t-66 82t-44 91t-16 94q0 82 23 144.5t73.5 107t131 72.5t194.5 42q59 7 94 15t53 20t23.5 29t5.5 41v96h199v-103q0 -202 -172 -245q-40 -11 -87 -15.5t-94.5 -10t-91.5 -15t-78 -30t-54.5 -56t-20.5 -92.5q0 -42 19 -78.5t52 -62.5t76.5 -41t93.5 -15
q53 0 97 16q-11 20 -15 42t-4 46q0 28 13 53t34.5 44.5t49.5 31t59 11.5t60.5 -11.5t52.5 -32t37 -48t14 -58.5q0 -84 -62 -137l112.5 -232l115.5 -229zM895 -108q37 32 80.5 47.5t91.5 15.5q45 0 87 -19.5t73.5 -52t50.5 -74.5t19 -87q0 -62 -27.5 -113t-75.5 -87.5
t-112.5 -56.5t-139.5 -20q-121 0 -235.5 43.5t-220.5 131.5l116 133q145 -129 340 -129q88 0 132 22.5t44 73.5q0 25 -19.5 44t-45.5 19t-68 -39z" />
    <glyph glyph-name="glyph329" horiz-adv-x="1114" 
d="M926 -10l-201 434l-234.5 -238.5l-173.5 -171.5l-137 138l199 194q-68 18 -124.5 58.5t-97 97t-63 124.5t-22.5 142q0 73 22 142.5t70 123.5t123.5 88.5t183.5 38.5q39 0 66 4.5t44.5 16t25 31t7.5 49.5v96h199v-96q0 -301 -293 -301q-250 0 -250 -203q0 -48 16 -90
t44 -72.5t67 -48t84 -17.5q48 0 86 13.5t70 38.5q-35 44 -35 100q0 32 11.5 60.5t32 49.5t48.5 33.5t60 12.5q34 0 63.5 -12.5t50.5 -34t33 -51.5t12 -64q0 -61 -34 -113l101 -235l101 -238zM627 -168q18 45 46.5 80.5t63.5 60.5t74.5 38.5t79.5 13.5q61 0 111.5 -22
t86 -60.5t55 -92t19.5 -116.5q0 -66 -28.5 -121.5t-78 -96t-116.5 -63t-143 -22.5q-60 0 -125.5 18t-132.5 51.5t-133 81.5t-125 107l137 137q45 -45 94 -81t98.5 -62t95.5 -40t85 -14q37 0 69.5 8.5t57 24.5t39 38t14.5 48q0 34 -24 57t-58 23q-9 0 -21.5 -5.5t-24 -14.5
t-21 -20.5t-13.5 -23.5z" />
    <glyph glyph-name="uni0AA6_uni0ACD_uni0AB5.cjct_uni0AC1.blws" horiz-adv-x="1114" 
d="M926 -25q-12 31 -27 76.5l-33 99l-39.5 113t-46.5 119.5q-9 -89 -38 -159.5t-76 -120.5t-110 -76.5t-140 -26.5q-54 0 -102 18.5t-84 51.5t-57 77.5t-21 96.5q0 66 19.5 113.5t64.5 76.5q-164 138 -164 320q0 118 41 197t129 122q22 11 95.5 28t199.5 40q137 24 137 104
v113h198v-123q0 -184 -174 -242l-145 -27.5l-145 -27.5q-70 -23 -104 -67.5t-34 -116.5q0 -48 18 -91.5t48.5 -76.5t71.5 -52.5t86 -19.5q46 0 80.5 14t62.5 52q-39 40 -39 102q0 31 12 58.5t33 48.5t49 33t60 12q34 0 63.5 -11t50.5 -30.5t33 -47t12 -61.5q0 -32 -8 -62.5
t-26 -56.5l50 -116.5l52 -121.5l52 -121.5l50 -115.5zM391 326q-65 -26 -65 -82q0 -16 7.5 -30t20.5 -24t29 -16t33 -6q41 0 74 16t57.5 43t40.5 61.5t24 71.5q-40 -14 -88 -19l-86 -9zM647 -168q18 45 46.5 80.5t63.5 60.5t74.5 38.5t79.5 13.5q61 0 111.5 -22t86 -60.5
t55 -92t19.5 -116.5q0 -66 -28.5 -121.5t-78 -96t-116.5 -63t-143 -22.5q-60 0 -125.5 18t-132.5 51.5t-133 81.5t-125 107l137 137q45 -45 94 -81t98.5 -62t95.5 -40t85 -14q37 0 69.5 8.5t57 24.5t39 38t14.5 48q0 34 -24 57t-58 23q-9 0 -21.5 -5.5t-24 -14.5t-21 -20.5
t-13.5 -23.5z" />
    <glyph glyph-name="uni0AA6_uni0ACD_uni0A97_uni0ACD_uni0AB0.rkrf.cjct_uni0AC1.blws" horiz-adv-x="1168" 
d="M494 53l147 328q-17 -5 -39.5 -9.5t-45 -8t-42.5 -5.5t-30 -2h-9q-4 0 -8 2q5 -29 7.5 -48.5t2.5 -28.5q0 -56 -18.5 -103.5t-51.5 -82t-79.5 -53.5t-102.5 -19q-33 0 -66 12.5t-61 38t-49 63t-31 88.5l179 33q0 -31 13.5 -48t33.5 -17q61 0 61 86q0 81 -94 227
q-51 78 -75.5 143t-24.5 119q0 96 35 166.5t103.5 118t169.5 73.5t232 33q19 1 32 6t20.5 16t10.5 30t3 49v102h198v-111q0 -207 -178 -256q-99 -1 -169.5 -12t-118.5 -29.5t-76.5 -43t-43.5 -52.5t-19.5 -58t-4.5 -59q0 -42 18 -81.5t48.5 -70t69.5 -49t81 -18.5
q48 0 84.5 14t71.5 46q-19 21 -26 45t-7 55q0 33 11 61t30.5 48t47 31.5t61.5 11.5q31 0 59.5 -11.5t49.5 -32t33.5 -48.5t12.5 -60q0 -63 -45 -111l94.5 -201.5l94.5 -201.5q-9 -5 -26.5 -16.5l-38.5 -25l-44 -28l-43 -26.5l-133 309l-64 -167l-86 -222zM697 -168
q18 45 46.5 80.5t63.5 60.5t74.5 38.5t79.5 13.5q61 0 111.5 -22t86 -60.5t55 -92t19.5 -116.5q0 -66 -28.5 -121.5t-78 -96t-116.5 -63t-143 -22.5q-60 0 -125.5 18t-132.5 51.5t-133 81.5t-125 107l137 137q45 -45 94 -81t98.5 -62t95.5 -40t85 -14q37 0 69.5 8.5t57 24.5
t39 38t14.5 48q0 34 -24 57t-58 23q-9 0 -21.5 -5.5t-24 -14.5t-21 -20.5t-13.5 -23.5z" />
    <glyph glyph-name="uni0AAB_uni0ACD_uni0AB0.rkrf_uni0AC1.blws" horiz-adv-x="1168" 
d="M727 -287l-315 316q-37 7 -76.5 28.5t-75.5 51t-64.5 63.5t-43.5 66l155 112q23 -35 55.5 -63.5t70 -48.5t78 -30.5t79.5 -10.5q48 0 91.5 15.5t76.5 42.5t53 63t20 77q0 31 -10.5 62.5t-29 60t-44 53.5t-55.5 43q-22 -64 -49 -135l-51 -131l-162 66l111 260h-2
l-171 -55.5l-171 -55.5l-58 168l203 66q-115 99 -115 247q0 75 30 137.5t82.5 108t123.5 71t153 25.5q92 0 207 -34l-59 -191q-48 16 -85.5 22.5t-68.5 6.5q-40 0 -74.5 -10t-60 -29t-40.5 -45t-15 -57q0 -57 38.5 -101t123.5 -76l193.5 64.5l193.5 62.5l53 -170l-217 -65
q112 -79 166.5 -170t54.5 -203q0 -64 -24.5 -122t-70.5 -106.5t-110.5 -85.5t-144.5 -59l90.5 -89.5l87.5 -88.5zM659 -240q37 32 80.5 47.5t91.5 15.5q45 0 87 -19.5t73.5 -52t50.5 -74.5t19 -87q0 -62 -27.5 -113t-75.5 -87.5t-112.5 -56.5t-139.5 -20q-121 0 -235.5 43.5
t-220.5 131.5l116 133q145 -129 340 -129q88 0 132 22.5t44 73.5q0 25 -19.5 44t-45.5 19t-68 -39z" />
    <glyph glyph-name="uni0AB9_uni0ACD_uni0AA3.cjct_uni0AC1.blws" horiz-adv-x="1272" 
d="M571 500q0 -103 62 -103q32 0 46.5 31t14.5 94v256h-123v-278zM1137 0h-193v549q0 78 -19 130t-71 69v-226q0 -145 -57.5 -211.5t-169.5 -66.5q-213 0 -213 278v213q-29 -18 -53 -45t-41 -61t-27 -72.5t-10 -79.5q0 -99 30 -170t83.5 -125t126.5 -97t159 -85l-109 -154
q-107 58 -196 119t-153 135.5t-99 167.5t-35 215q0 59 13.5 115.5t39.5 105.5t63 89.5t85 68.5q-40 35 -59 84.5t-19 103.5q0 83 30.5 142.5t85.5 97.5t131 55.5t167 17.5h346v-194h-404q-81 0 -123.5 -31t-42.5 -88q0 -45 38 -71.5t116 -26.5h150q96 0 165 -16.5
t116.5 -46.5t77 -71t45 -90.5t21 -105t5.5 -114.5v-508zM535 -240q37 32 80.5 47.5t91.5 15.5q45 0 87 -19.5t73.5 -52t50.5 -74.5t19 -87q0 -62 -27.5 -113t-75.5 -87.5t-112.5 -56.5t-139.5 -20q-121 0 -235.5 43.5t-220.5 131.5l116 133q145 -129 340 -129q88 0 132 22.5
t44 73.5q0 25 -19.5 44t-45.5 19t-68 -39z" />
    <glyph glyph-name="uni0AB9_uni0ACD_uni0AA8.cjct_uni0AC1.blws" horiz-adv-x="1272" 
d="M1512 0h-207v377h-168q-5 -25 -19 -46.5t-33.5 -37t-43 -24.5t-47.5 -9q-31 0 -58 11.5t-47.5 31.5t-32.5 47t-12 58t12 57.5t32.5 46.5t48 31.5t57.5 11.5h307q-8 48 -28 86.5t-58 65.5t-98 41t-148 14q-65 0 -123 -20.5t-101 -58.5t-68 -92.5t-25 -121.5
q0 -81 35.5 -152.5t92 -131.5t127 -107t140.5 -78l-111 -164q-111 61 -200.5 129t-151.5 146t-95.5 167.5t-33.5 194.5q0 112 49 208t140 171q-38 34 -61 85t-23 114q0 68 20.5 117.5t56 83.5t83.5 55t103.5 32t115.5 15t120 4h279v-194h-336q-39 0 -80.5 -3t-75.5 -14.5
t-56 -33.5t-22 -60q0 -45 44.5 -73t138.5 -28q130 0 234 -22t177 -80.5t111.5 -160t38.5 -261.5v-428zM579 -240q37 32 80.5 47.5t91.5 15.5q45 0 87 -19.5t73.5 -52t50.5 -74.5t19 -87q0 -62 -27.5 -113t-75.5 -87.5t-112.5 -56.5t-139.5 -20q-121 0 -235.5 43.5
t-220.5 131.5l116 133q145 -129 340 -129q88 0 132 22.5t44 73.5q0 25 -19.5 44t-45.5 19t-68 -39z" />
    </font>
</defs>
</svg>
