<?xml version="1.0" standalone="no"?>
<!DOCTYPE svg PUBLIC "-//W3C//DTD SVG 1.1//EN" "http://www.w3.org/Graphics/SVG/1.1/DTD/svg11.dtd" >
<svg xmlns="http://www.w3.org/2000/svg" xmlns:xlink="http://www.w3.org/1999/xlink" version="1.1">
<metadata>
Created by FontForge 20150318 at Thu Jun  4 11:50:32 2015
 By uniteet7
Copyright (c) 1981, 2002 Heidelberger Druckmaschinen AG. All rights reserved.
</metadata>
<defs>
<font id="DINCondensedBold" horiz-adv-x="370" >
  <font-face
    font-family="DINCondensedBold"
    font-weight="700"
    font-stretch="condensed"
    units-per-em="1000"
    panose-1="0 0 5 0 0 0 0 0 0 0"
    ascent="712"
    descent="-288"
    x-height="507"
    cap-height="712"
    bbox="-165 -250 1000 937"
    underline-thickness="50"
    underline-position="-50"
    unicode-range="U+0020-FB02"
  />
<missing-glyph horiz-adv-x="500"
d="M0 700h500v-700h-500v700zM420 650h-340l170 -255zM450 95v510l-170 -255zM420 50l-170 255l-170 -255h340zM50 95l170 255l-170 255v-510z" />
    <glyph glyph-name=".notdef" horiz-adv-x="500"
d="M0 700h500v-700h-500v700zM420 650h-340l170 -255zM450 95v510l-170 -255zM420 50l-170 255l-170 -255h340zM50 95l170 255l-170 255v-510z" />
    <glyph glyph-name=".null" horiz-adv-x="0"
 />
    <glyph glyph-name="nonmarkingreturn" horiz-adv-x="333"
 />
    <glyph glyph-name="space" unicode=" " horiz-adv-x="186"
 />
    <glyph glyph-name="exclam" unicode="!" horiz-adv-x="240"
d="M56 712h128l-39 -536h-50zM69 102h102v-102h-102v102z" />
    <glyph glyph-name="quotedbl" unicode="&#x22;" horiz-adv-x="278"
d="M33 712h80v-176h-80v176zM165 712h80v-176h-80v176z" />
    <glyph glyph-name="numbersign" unicode="#" horiz-adv-x="372"
d="M209 215h-84l-29 -215h-68l29 215h-51v60h59l22 162h-50v60h58l29 215h68l-29 -215h84l29 215h68l-29 -215h51v-60h-59l-22 -162h50v-60h-58l-29 -215h-68zM239 437h-84l-22 -162h84z" />
    <glyph glyph-name="dollar" unicode="$" horiz-adv-x="372"
d="M161 616q-26 -10 -34.5 -35t-8.5 -57q0 -36 7 -54.5t36 -32.5v179zM212 96q32 8 39.5 35t7.5 71q0 25 -1.5 42t-7 28t-14.5 18.5t-24 13.5v-208zM161 -6q-33 4 -60.5 18t-47.5 36t-31 51t-11 62v40h102v-36q0 -23 11 -43t37 -26v230l-34 14q-66 27 -88.5 71.5
t-22.5 111.5q0 76 36 130.5t109 64.5v75h51v-75q34 -4 61.5 -19t47 -37.5t30 -49.5t10.5 -55v-50h-102v23q0 32 -10.5 55t-36.5 31v-201l42 -17q34 -13 55 -30.5t32.5 -41t15.5 -54t4 -69.5q0 -43 -7.5 -79.5t-25 -64t-46 -44.5t-70.5 -21v-84h-51v84z" />
    <glyph glyph-name="percent" unicode="%" horiz-adv-x="352"
d="M94 555q10 0 17.5 7.5t7.5 18.5v51q0 11 -7.5 18.5t-17.5 7.5t-17.5 -7.5t-7.5 -18.5v-51q0 -11 7.5 -18.5t17.5 -7.5zM94 495q-39 0 -62 21t-23 55v65q0 38 23 60t62 22t62 -22t23 -60v-65q0 -34 -23 -55t-62 -21zM233 80q0 -11 7.5 -18.5t17.5 -7.5t17.5 7.5t7.5 18.5
v51q0 11 -7.5 18.5t-17.5 7.5t-17.5 -7.5t-7.5 -18.5v-51zM258 -6q-39 0 -62 21t-23 55v65q0 38 23 60t62 22t62 -22t23 -60v-65q0 -34 -23 -55t-62 -21zM265 712h66l-244 -712h-66z" />
    <glyph glyph-name="ampersand" unicode="&#x26;" horiz-adv-x="481"
d="M319 54q-30 -30 -62.5 -45t-73.5 -15q-30 0 -57 12t-47 33.5t-31.5 52t-11.5 67.5q0 59 28 103t70 82q-27 38 -44.5 78.5t-17.5 85.5q0 28 9 53.5t26 44t43 29.5t61 11q33 0 58 -10.5t42 -28t26 -41t9 -49.5q0 -50 -31 -95.5t-73 -83.5q19 -29 43.5 -70t50.5 -79l55 75
l63 -44l-76 -98l77 -122h-102zM126 164q0 -37 21.5 -63.5t54.5 -26.5q23 0 44 14.5t32 28.5l-98 156q-23 -23 -38.5 -49.5t-15.5 -59.5zM162 506q0 -23 11 -49.5t28 -53.5q9 9 20 20.5t20 25.5t15 30.5t6 35.5t-13 35t-36 16t-37 -18.5t-14 -41.5z" />
    <glyph glyph-name="quotesingle" unicode="'" horiz-adv-x="186"
d="M53 712h80v-176h-80v176z" />
    <glyph glyph-name="parenleft" unicode="(" horiz-adv-x="222"
d="M203 712q-29 -103 -40 -213.5t-11 -220.5q0 -102 13.5 -196t37.5 -182h-34q-30 43 -52.5 94t-37 104t-22 106.5t-7.5 101.5q0 51 8 105.5t23.5 107.5t37.5 102t50 91h34z" />
    <glyph glyph-name="parenright" unicode=")" horiz-adv-x="222"
d="M19 -100q29 103 40 213.5t11 220.5q0 102 -13.5 196t-37.5 182h34q30 -44 52.5 -94.5t37 -103.5t22 -106.5t7.5 -101.5q0 -51 -8 -105.5t-23.5 -107.5t-37.5 -102t-50 -91h-34z" />
    <glyph glyph-name="asterisk" unicode="*"
d="M59 656l98 -60l-4 116h64l-4 -116l98 60l28 -52l-100 -56l100 -55l-28 -53l-98 60l4 -116h-64l4 116l-98 -60l-28 53l100 55l-100 56z" />
    <glyph glyph-name="plus" unicode="+" horiz-adv-x="600"
d="M260 506h80v-213h213v-80h-213v-213h-80v213h-213v80h213v213z" />
    <glyph glyph-name="comma" unicode="," horiz-adv-x="186"
d="M42 102h102v-102l-102 -74v176z" />
    <glyph glyph-name="hyphen" unicode="-" horiz-adv-x="389"
d="M44 328h301v-102h-301v102z" />
    <glyph glyph-name="period" unicode="." horiz-adv-x="186"
d="M42 102h102v-102h-102v102z" />
    <glyph glyph-name="slash" unicode="/" horiz-adv-x="222"
d="M137 718h80l-132 -724h-80z" />
    <glyph glyph-name="zero" unicode="0" horiz-adv-x="372"
d="M34 565q0 36 12.5 64t33.5 48t48.5 30.5t57.5 10.5t57.5 -10.5t48.5 -30.5t33.5 -48t12.5 -64v-418q0 -36 -12.5 -64t-33.5 -48t-48.5 -30.5t-57.5 -10.5t-57.5 10.5t-48.5 30.5t-33.5 48t-12.5 64v418zM136 147q0 -22 14 -36.5t36 -14.5t36 14.5t14 36.5v418
q0 22 -14 36.5t-36 14.5t-36 -14.5t-14 -36.5v-418z" />
    <glyph glyph-name="one" unicode="1" horiz-adv-x="372"
d="M155 604l-102 -75v108l102 75h102v-712h-102v604z" />
    <glyph glyph-name="two" unicode="2" horiz-adv-x="372"
d="M34 96l184 347q14 26 16 45.5t2 48.5q0 13 -1 27.5t-5.5 25.5t-14.5 18.5t-29 7.5q-23 0 -36.5 -13t-13.5 -38v-58h-102v56q0 32 12 60t32.5 49t48.5 33.5t60 12.5q40 0 68.5 -14.5t47 -39.5t27 -57t8.5 -68q0 -26 -1 -43.5t-4 -33.5t-10 -32t-19 -39l-150 -289h184v-102
h-304v96z" />
    <glyph glyph-name="three" unicode="3" horiz-adv-x="372"
d="M155 412q46 0 63.5 11t17.5 51v92q0 22 -13.5 36t-36.5 14q-27 0 -38.5 -17t-11.5 -33v-58h-102v59q0 31 12 59t33 48t49 32t60 12q42 0 69.5 -16.5t41.5 -33.5q10 -12 17.5 -24.5t12 -29t7 -40t2.5 -57.5q0 -37 -1.5 -60t-8 -38.5t-19 -26.5t-34.5 -24q24 -15 36.5 -28
t18.5 -30.5t7 -42t1 -62.5q0 -35 -1.5 -58t-4.5 -38.5t-8 -26.5t-13 -23q-19 -28 -49 -46.5t-77 -18.5q-24 0 -51 8t-49 26t-36.5 47t-14.5 71v58h102v-53q0 -24 13.5 -39.5t36.5 -15.5t36.5 15.5t13.5 41.5v102q0 21 -3.5 34t-12.5 20.5t-24.5 10t-40.5 2.5v90z" />
    <glyph glyph-name="four" unicode="4" horiz-adv-x="372"
d="M212 106h-203v96l147 510h108l-153 -510h101v203h102v-203h49v-96h-49v-106h-102v106z" />
    <glyph glyph-name="five" unicode="5" horiz-adv-x="372"
d="M338 616h-202v-192q14 14 36 23.5t49 9.5q52 0 84.5 -32t32.5 -94v-184q0 -36 -12.5 -64t-33.5 -48t-48.5 -30.5t-57.5 -10.5t-57.5 10.5t-48.5 30.5t-33.5 48t-12.5 64v30h102v-26q0 -26 14.5 -40.5t37.5 -14.5t35.5 14t12.5 39v167q0 21 -13.5 36t-34.5 15
q-13 0 -22 -4.5t-15 -10.5t-9.5 -13l-5.5 -11h-90v384h292v-96z" />
    <glyph glyph-name="six" unicode="6" horiz-adv-x="372"
d="M185 413l2 -2q5 4 15.5 6.5t27.5 2.5q27 0 50 -13t36 -33q7 -11 11 -22t6.5 -29t3.5 -45.5t1 -69.5q0 -35 -1 -57.5t-3.5 -38t-7 -26.5t-11.5 -23q-20 -33 -53.5 -51t-75.5 -18t-75 18.5t-53 50.5q-8 12 -12.5 23t-7 26.5t-3.5 38t-1 57.5q0 33 1 54.5t3 37t6 28t9 26.5
l134 358h114zM236 279q0 23 -15 37t-35 14t-35 -14t-15 -37v-132q0 -23 15 -37t35 -14t35 14t15 37v132z" />
    <glyph glyph-name="seven" unicode="7" horiz-adv-x="372"
d="M236 616h-112v-82h-90v178h304v-102l-173 -610h-108z" />
    <glyph glyph-name="eight" unicode="8" horiz-adv-x="372"
d="M236 566q0 21 -15 35.5t-35 14.5t-35 -14.5t-15 -35.5v-104q0 -21 15 -35.5t35 -14.5t35 14.5t15 35.5v104zM34 526q0 29 2 49.5t6.5 35.5t11.5 27t17 25q20 26 50 40.5t65 14.5t65 -14.5t50 -40.5q10 -13 17 -25t11.5 -27t6.5 -35.5t2 -49.5q0 -32 -1 -54t-6 -39
t-15.5 -30.5t-28.5 -28.5q18 -14 28.5 -28t15.5 -33t6 -46.5t1 -67.5q0 -33 -1.5 -54.5t-4.5 -37.5t-8.5 -27t-13.5 -23q-17 -26 -48 -44.5t-76 -18.5t-76 18.5t-48 44.5q-8 12 -13.5 23t-8.5 27t-4.5 37.5t-1.5 54.5q0 40 1 67.5t6 46.5t15.5 33t28.5 28q-18 15 -28.5 28.5
t-15.5 30.5t-6 39t-1 54zM236 286q0 21 -15 35.5t-35 14.5t-35 -14.5t-15 -35.5v-140q0 -21 15 -35.5t35 -14.5t35 14.5t15 35.5v140z" />
    <glyph glyph-name="nine" unicode="9" horiz-adv-x="372"
d="M187 299l-2 2q-5 -4 -15.5 -6.5t-27.5 -2.5q-27 0 -50 13t-36 33q-7 10 -11 21.5t-6.5 29.5t-3.5 45.5t-1 69.5q0 35 1 57.5t3.5 38t7 26.5t11.5 23q20 33 53.5 51t75.5 18t75 -18.5t53 -50.5q7 -12 12 -23t7.5 -26.5t3.5 -38t1 -57.5q0 -33 -1 -54.5t-3.5 -37t-6 -28
t-8.5 -26.5l-134 -358h-114zM136 433q0 -23 15 -37t35 -14t35 14t15 37v132q0 23 -15 37t-35 14t-35 -14t-15 -37v-132z" />
    <glyph glyph-name="colon" unicode=":" horiz-adv-x="186"
d="M42 102h102v-102h-102v102zM42 329h102v-102h-102v102z" />
    <glyph glyph-name="semicolon" unicode=";" horiz-adv-x="186"
d="M42 102h102v-102l-102 -74v176zM42 329h102v-102h-102v102z" />
    <glyph glyph-name="less" unicode="&#x3c;" horiz-adv-x="600"
d="M553 434l-397 -181l397 -181v-80l-506 231v60l506 231v-80z" />
    <glyph glyph-name="equal" unicode="=" horiz-adv-x="600"
d="M47 393h506v-80h-506v80zM47 193h506v-80h-506v80z" />
    <glyph glyph-name="greater" unicode="&#x3e;" horiz-adv-x="600"
d="M47 72l397 181l-397 181v80l506 -231v-60l-506 -231v80z" />
    <glyph glyph-name="question" unicode="?"
d="M32 566q0 31 12 59t33 48.5t49 32.5t60 12q37 0 67.5 -15t50.5 -42q10 -14 16.5 -26t10.5 -25.5t5.5 -30.5t1.5 -40q0 -26 -0.5 -43.5t-2.5 -30.5t-5 -22.5t-8 -17.5l-69 -118q-7 -12 -12 -24.5t-5 -26.5v-80h-102v93q0 22 7 42t18 39l64 104q8 13 10.5 28t2.5 30v53
q0 21 -14.5 36t-35.5 15q-18 0 -35 -13t-17 -38v-58h-102v59zM134 102h102v-102h-102v102z" />
    <glyph glyph-name="at" unicode="@" horiz-adv-x="800"
d="M513 410q0 35 -19 59t-55 24q-33 0 -61 -18.5t-48.5 -47.5t-32.5 -63.5t-12 -65.5q0 -42 22.5 -64.5t60.5 -22.5q28 0 54.5 20t46.5 49.5t32 64.5t12 65zM552 273q-5 -14 -7.5 -26t-2.5 -19q0 -13 5 -21t18 -8q24 0 48 20t43.5 51.5t32 69.5t12.5 74q0 52 -22 96
t-59 75.5t-85.5 49t-101.5 17.5q-63 0 -118 -25t-96 -66t-64.5 -95.5t-23.5 -112.5q0 -61 23.5 -114.5t65 -93t97.5 -62.5t121 -23q36 0 72 8.5t68 22.5t58.5 33.5t44.5 40.5h77q-24 -40 -59.5 -72t-78 -54t-91 -33.5t-99.5 -11.5q-78 0 -146.5 27.5t-119.5 76t-80.5 115.5
t-29.5 145q0 75 30 140.5t81.5 114.5t120.5 77t146 28q70 0 133 -22t110.5 -62t75 -94.5t27.5 -120.5q0 -63 -23.5 -114.5t-58.5 -88t-74.5 -57t-71.5 -20.5q-34 0 -54 15.5t-24 47.5h-2q-11 -12 -22.5 -23t-26 -20t-32.5 -14.5t-41 -5.5q-32 0 -58.5 12t-45.5 33t-29 48.5
t-10 58.5q0 49 17 98t47.5 88t73.5 63.5t96 24.5q35 0 67.5 -18.5t47.5 -59.5h2l20 61h63z" />
    <glyph glyph-name="A" unicode="A" horiz-adv-x="407"
d="M204 507h-2l-50 -258h102zM161 712h85l159 -712h-102l-30 153h-139l-30 -153h-102z" />
    <glyph glyph-name="B" unicode="B" horiz-adv-x="426"
d="M48 712h149q49 0 83.5 -15t56.5 -40t31.5 -57.5t9.5 -67.5v-26q0 -29 -4.5 -49t-13.5 -35t-22 -26.5t-30 -21.5q36 -17 53 -50.5t17 -89.5v-40q0 -94 -45.5 -144t-145.5 -50h-139v712zM150 102h44q31 0 48.5 9t26.5 25t11 38t2 48q0 27 -3 47t-12.5 33.5t-26.5 20.5
t-45 7h-45v-228zM150 420h46q51 0 68.5 25.5t17.5 74.5q0 48 -19.5 72t-70.5 24h-42v-196z" />
    <glyph glyph-name="C" unicode="C" horiz-adv-x="407"
d="M372 159q0 -33 -12.5 -63t-34.5 -52.5t-51.5 -36t-63.5 -13.5q-29 0 -59 8t-54 27.5t-39.5 51.5t-15.5 81v392q0 35 12 65t34 52t52.5 34.5t67.5 12.5q35 0 65 -12.5t52 -35t34.5 -54t12.5 -68.5v-40h-102v34q0 30 -17 52t-46 22q-38 0 -50.5 -23.5t-12.5 -59.5v-364
q0 -31 13.5 -52t48.5 -21q10 0 21.5 3.5t21 11.5t15.5 22t6 35v35h102v-44z" />
    <glyph glyph-name="D" unicode="D" horiz-adv-x="426"
d="M48 712h151q87 0 133 -48.5t46 -135.5v-333q0 -100 -48.5 -147.5t-139.5 -47.5h-142v712zM150 96h47q43 0 61 21.5t18 67.5v343q0 42 -17 65t-62 23h-47v-520z" />
    <glyph glyph-name="E" unicode="E"
d="M48 712h304v-96h-202v-209h176v-96h-176v-209h202v-102h-304v712z" />
    <glyph glyph-name="F" unicode="F"
d="M48 712h304v-96h-202v-216h176v-96h-176v-304h-102v712z" />
    <glyph glyph-name="G" unicode="G" horiz-adv-x="426"
d="M42 544q0 43 15 76t39.5 54.5t55 32.5t61.5 11t61.5 -11t55 -32.5t39.5 -54.5t15 -76v-36h-102v36q0 37 -20.5 54.5t-48.5 17.5t-48.5 -17.5t-20.5 -54.5v-376q0 -37 20.5 -54.5t48.5 -17.5t48.5 17.5t20.5 54.5v134h-81v90h183v-224q0 -44 -15 -76.5t-39.5 -54
t-55 -32.5t-61.5 -11t-61.5 11t-55 32.5t-39.5 54t-15 76.5v376z" />
    <glyph glyph-name="H" unicode="H" horiz-adv-x="426"
d="M48 712h102v-305h126v305h102v-712h-102v317h-126v-317h-102v712z" />
    <glyph glyph-name="I" unicode="I" horiz-adv-x="204"
d="M51 712h102v-712h-102v712z" />
    <glyph glyph-name="J" unicode="J" horiz-adv-x="333"
d="M285 168q0 -35 -12 -66.5t-34.5 -55.5t-54.5 -38t-73 -14q-49 0 -81.5 21.5t-51.5 42.5l80 64q11 -11 25.5 -18.5t30.5 -7.5q9 0 21 3.5t22.5 13t18 26t7.5 43.5v530h102v-544z" />
    <glyph glyph-name="K" unicode="K" horiz-adv-x="426"
d="M48 712h102v-325h2l149 325h102l-139 -285l165 -427h-108l-116 316l-55 -103v-213h-102v712z" />
    <glyph glyph-name="L" unicode="L"
d="M48 712h102v-610h202v-102h-304v712z" />
    <glyph glyph-name="M" unicode="M" horiz-adv-x="556"
d="M48 712h98l131 -377h2l130 377h99v-712h-102v433h-2l-101 -306h-51l-100 306h-2v-433h-102v712z" />
    <glyph glyph-name="N" unicode="N" horiz-adv-x="444"
d="M44 712h98l154 -429h2v429h102v-712h-96l-156 428h-2v-428h-102v712z" />
    <glyph glyph-name="O" unicode="O" horiz-adv-x="426"
d="M42 544q0 43 15 76t39.5 54.5t55 32.5t61.5 11t61.5 -11t55 -32.5t39.5 -54.5t15 -76v-376q0 -44 -15 -76.5t-39.5 -54t-55 -32.5t-61.5 -11t-61.5 11t-55 32.5t-39.5 54t-15 76.5v376zM144 168q0 -37 20.5 -54.5t48.5 -17.5t48.5 17.5t20.5 54.5v376q0 37 -20.5 54.5
t-48.5 17.5t-48.5 -17.5t-20.5 -54.5v-376z" />
    <glyph glyph-name="P" unicode="P" horiz-adv-x="407"
d="M48 712h153q42 0 74 -11t58 -39t36 -65.5t10 -101.5q0 -47 -5.5 -80.5t-23.5 -62.5q-21 -35 -56 -54.5t-92 -19.5h-52v-278h-102v712zM150 374h49q31 0 48 9t25 24.5t9.5 37.5t1.5 49q0 25 -1.5 47.5t-9 39t-23.5 26t-46 9.5h-53v-242z" />
    <glyph glyph-name="Q" unicode="Q" horiz-adv-x="426"
d="M144 168q0 -37 20.5 -54.5t48.5 -17.5q13 0 22 4l-46 37l52 62l41 -33v2v376q0 37 -20.5 54.5t-48.5 17.5t-48.5 -17.5t-20.5 -54.5v-376zM42 544q0 43 15 76t39.5 54.5t55 32.5t61.5 11t61.5 -11t55 -32.5t39.5 -54.5t15 -76v-376q0 -42 -15 -73l63 -51l-52 -62l-60 49
q-23 -19 -50.5 -28t-56.5 -9q-31 0 -61.5 11t-55 32.5t-39.5 54t-15 76.5v376z" />
    <glyph glyph-name="R" unicode="R" horiz-adv-x="426"
d="M150 394h58q27 0 43 7.5t24.5 21.5t11.5 34.5t3 47.5t-3 47.5t-12.5 35t-26.5 21.5t-45 7h-53v-222zM48 712h164q180 0 180 -209q0 -62 -19.5 -106.5t-68.5 -71.5l110 -325h-108l-95 304h-61v-304h-102v712z" />
    <glyph glyph-name="S" unicode="S" horiz-adv-x="406"
d="M378 507h-102v23q0 35 -16.5 60.5t-55.5 25.5q-21 0 -34.5 -8t-21 -20.5t-10.5 -29t-3 -34.5q0 -21 1.5 -35.5t7.5 -25t17.5 -18.5t31.5 -16l78 -31q34 -13 55 -30.5t32.5 -41t15.5 -54t4 -69.5q0 -45 -9 -83.5t-29.5 -66t-54.5 -43.5t-83 -16q-37 0 -69 13t-55 35.5
t-36.5 53.5t-13.5 67v38h102v-32q0 -28 16.5 -50.5t55.5 -22.5q26 0 40.5 7.5t22 21t9.5 33.5t2 44q0 28 -2 46t-8.5 29t-18 18t-30.5 15l-73 30q-66 27 -88.5 71.5t-22.5 111.5q0 40 11 76t32.5 62t54.5 41.5t77 15.5q38 0 69.5 -14t54 -37t34.5 -51.5t12 -58.5v-50z" />
    <glyph glyph-name="T" unicode="T" horiz-adv-x="332"
d="M115 616h-118v96h338v-96h-118v-616h-102v616z" />
    <glyph glyph-name="U" unicode="U" horiz-adv-x="426"
d="M378 160q0 -35 -13 -65t-35.5 -52.5t-52.5 -35.5t-64 -13t-64 13t-52.5 35.5t-35.5 52.5t-13 65v552h102v-542q0 -38 18 -56t45 -18t45 18t18 56v542h102v-552z" />
    <glyph glyph-name="V" unicode="V" horiz-adv-x="407"
d="M248 0h-90l-145 712h108l81 -497h2l82 497h108z" />
    <glyph glyph-name="W" unicode="W" horiz-adv-x="593"
d="M471 0h-96l-78 462h-2l-77 -462h-96l-106 712h108l51 -452h2l80 452h78l83 -463h2l49 463h108z" />
    <glyph glyph-name="X" unicode="X" horiz-adv-x="389"
d="M142 373l-133 339h108l77 -211l78 211h108l-136 -339l147 -373h-108l-89 240l-88 -240h-108z" />
    <glyph glyph-name="Y" unicode="Y" horiz-adv-x="388"
d="M143 301l-140 411h108l82 -283h2l82 283h108l-140 -411v-301h-102v301z" />
    <glyph glyph-name="Z" unicode="Z" horiz-adv-x="333"
d="M15 90l192 526h-182v96h293v-81l-196 -535h196v-96h-303v90z" />
    <glyph glyph-name="bracketleft" unicode="[" horiz-adv-x="222"
d="M214 652h-66v-692h66v-60h-156v812h156v-60z" />
    <glyph glyph-name="backslash" unicode="\" horiz-adv-x="222"
d="M217 -6h-80l-132 724h80z" />
    <glyph glyph-name="bracketright" unicode="]" horiz-adv-x="222"
d="M8 -40h66v692h-66v60h156v-812h-156v60z" />
    <glyph glyph-name="asciicircum" unicode="^" horiz-adv-x="600"
d="M267 712h66l217 -429h-80l-170 339l-170 -339h-80z" />
    <glyph glyph-name="underscore" unicode="_" horiz-adv-x="500"
d="M0 -75h500v-50h-500v50z" />
    <glyph glyph-name="grave" unicode="`" horiz-adv-x="186"
d="M158 574h-66l-132 141h108z" />
    <glyph glyph-name="a" unicode="a"
d="M235 52h-2q-20 -28 -40.5 -43t-57.5 -15q-18 0 -37 5.5t-35.5 20t-27 41t-10.5 68.5q0 43 7 75.5t25.5 54t49.5 32t79 10.5q11 0 22 -1t27 -2v53q0 26 -11 43t-40 17q-20 0 -36.5 -13t-21.5 -38h-99q5 69 46 110q20 20 48 31.5t63 11.5q32 0 60 -10t48.5 -30t32.5 -50
t12 -70v-353h-102v52zM235 218q-17 3 -28 3q-33 0 -56.5 -15.5t-23.5 -56.5q0 -29 14 -47t39 -18q26 0 40.5 17t14.5 48v69z" />
    <glyph glyph-name="b" unicode="b" horiz-adv-x="389"
d="M42 712h102v-251h2q17 25 40.5 38.5t53.5 13.5q37 0 57.5 -13t33.5 -33q10 -16 13 -42t3 -81v-193q0 -42 -4 -67t-13 -42q-26 -48 -89 -48q-38 0 -58 15t-39 37v-46h-102v712zM245 351q0 24 -10.5 42t-39.5 18q-22 0 -36.5 -15.5t-14.5 -39.5v-197q0 -28 14 -45.5
t37 -17.5q26 0 38 19t12 50v186z" />
    <glyph glyph-name="c" unicode="c"
d="M150 146q0 -24 13.5 -37t36.5 -13q29 0 38.5 17t11.5 34h102q0 -32 -10.5 -60t-30.5 -48q-20 -21 -48 -33t-63 -12q-47 0 -81 20t-52 53q-11 20 -15 46t-4 57v167q0 31 4 57t15 46q18 33 52 53t81 20q35 0 63.5 -12t48 -33.5t30 -51.5t10.5 -65h-102q0 31 -13.5 45.5
t-36.5 14.5t-36.5 -14.5t-13.5 -43.5v-207z" />
    <glyph glyph-name="d" unicode="d" horiz-adv-x="389"
d="M144 165q0 -31 12 -50t38 -19q23 0 37 17.5t14 45.5v197q0 24 -14.5 39.5t-36.5 15.5q-29 0 -39.5 -18t-10.5 -42v-186zM245 46q-10 -11 -19 -20.5t-20 -16.5t-25 -11t-33 -4q-63 0 -89 48q-9 17 -13 42t-4 67v193q0 55 3 81t13 42q13 20 33.5 33t57.5 13
q30 0 53.5 -13.5t40.5 -38.5h2v251h102v-712h-102v46z" />
    <glyph glyph-name="e" unicode="e"
d="M135 215v-69q0 -24 13.5 -37t36.5 -13q29 0 38.5 17t11.5 34h102q0 -32 -10.5 -60t-30.5 -48q-20 -21 -48 -33t-63 -12q-47 0 -81 20t-52 53q-11 20 -15 46t-4 57v167q0 31 4 57t15 46q18 33 52 53t81 20q35 0 63.5 -12t48 -33.5t30 -50.5t10.5 -62v-140h-202zM135 295
h100v58q0 29 -13.5 43.5t-36.5 14.5t-36.5 -14.5t-13.5 -43.5v-58z" />
    <glyph glyph-name="f" unicode="f" horiz-adv-x="222"
d="M55 427h-50v80h50v69q0 37 11 62.5t29.5 42t42 24t48.5 7.5h47v-96h-46q-30 0 -30 -35v-74h76v-80h-76v-427h-102v427z" />
    <glyph glyph-name="g" unicode="g" horiz-adv-x="389"
d="M144 -59q1 -18 14.5 -34t39.5 -16q25 0 36 15.5t11 39.5v100h-2q-17 -25 -40.5 -38.5t-54.5 -13.5q-63 0 -89 48q-9 17 -13 42t-4 67v193q0 55 3 81t13 42q13 20 33.5 33t57.5 13q19 0 32.5 -4t24.5 -11t20 -16.5t19 -20.5v46h102v-569q0 -26 -8.5 -52.5t-27.5 -48
t-48 -35t-69 -13.5q-23 0 -48 7.5t-46.5 25t-37 46.5t-20.5 73h102zM144 156q0 -24 10.5 -42t39.5 -18q22 0 36.5 15.5t14.5 39.5v197q0 28 -14 45.5t-37 17.5q-26 0 -38 -19t-12 -50v-186z" />
    <glyph glyph-name="h" unicode="h" horiz-adv-x="389"
d="M42 712h102v-254h2q16 24 38.5 39.5t57.5 15.5q19 0 38 -6.5t34 -21.5t24 -38.5t9 -57.5v-389h-102v351q0 28 -13 44t-37 16q-29 0 -40 -18t-11 -52v-341h-102v712z" />
    <glyph glyph-name="i" unicode="i" horiz-adv-x="186"
d="M42 507h102v-507h-102v507zM42 712h102v-102h-102v102z" />
    <glyph glyph-name="j" unicode="j" horiz-adv-x="186"
d="M42 507h102v-561q0 -75 -47 -113t-119 -38v96q18 0 30.5 4t20 14.5t10.5 28.5t3 46v523zM42 712h102v-102h-102v102z" />
    <glyph glyph-name="k" unicode="k" horiz-adv-x="389"
d="M42 712h102v-426h2l123 221h102l-121 -206l146 -301h-111l-92 219l-49 -77v-142h-102v712z" />
    <glyph glyph-name="l" unicode="l" horiz-adv-x="186"
d="M36 712h102v-569q0 -29 10.5 -39.5t39.5 -13.5v-96q-35 0 -63.5 5.5t-48 21t-30 43.5t-10.5 72v576z" />
    <glyph glyph-name="m" unicode="m" horiz-adv-x="592"
d="M42 507h102v-49h2q16 24 38.5 39.5t57.5 15.5q33 0 55 -16t36 -35q19 21 42 36t64 15q19 0 39 -6.5t36 -21.5t26 -38.5t10 -57.5v-389h-102v351q0 28 -13 44t-37 16q-29 0 -40 -18t-11 -52v-341h-102v351q0 28 -13 44t-37 16q-29 0 -40 -18t-11 -52v-341h-102v507z" />
    <glyph glyph-name="n" unicode="n" horiz-adv-x="389"
d="M42 507h102v-49h2q16 24 38.5 39.5t57.5 15.5q19 0 38 -6.5t34 -21.5t24 -38.5t9 -57.5v-389h-102v351q0 28 -13 44t-37 16q-29 0 -40 -18t-11 -52v-341h-102v507z" />
    <glyph glyph-name="o" unicode="o"
d="M33 337q0 31 4 57t15 46q18 33 52 53t81 20t81 -20t52 -53q11 -20 15 -46t4 -57v-167q0 -31 -4 -57t-15 -46q-18 -33 -52 -53t-81 -20t-81 20t-52 53q-11 20 -15 46t-4 57v167zM135 154q0 -29 13.5 -43.5t36.5 -14.5t36.5 14.5t13.5 43.5v199q0 29 -13.5 43.5t-36.5 14.5
t-36.5 -14.5t-13.5 -43.5v-199z" />
    <glyph glyph-name="p" unicode="p" horiz-adv-x="389"
d="M42 507h102v-46q19 22 39 37t58 15q63 0 89 -48q9 -17 13 -42t4 -67v-193q0 -55 -3 -81t-13 -42q-13 -20 -33.5 -33t-57.5 -13q-30 0 -53.5 13.5t-40.5 38.5h-2v-251h-102v712zM245 342q0 31 -12 50t-38 19q-23 0 -37 -17.5t-14 -45.5v-197q0 -24 14.5 -39.5t36.5 -15.5
q29 0 39.5 18t10.5 42v186z" />
    <glyph glyph-name="q" unicode="q" horiz-adv-x="389"
d="M245 46h-2q-17 -25 -40.5 -38.5t-53.5 -13.5q-37 0 -57.5 13t-33.5 33q-10 16 -13 42t-3 81v193q0 42 4 67t13 42q26 48 89 48q19 0 33 -4t25 -11t20 -16.5t19 -20.5v46h102v-712h-102v251zM144 156q0 -24 10.5 -42t39.5 -18q22 0 36.5 15.5t14.5 39.5v197q0 28 -14 45.5
t-37 17.5q-26 0 -38 -19t-12 -50v-186z" />
    <glyph glyph-name="r" unicode="r" horiz-adv-x="278"
d="M42 507h102v-54q31 28 61 44t74 16v-108q-15 6 -31 6t-34.5 -5.5t-34 -18.5t-25.5 -34t-10 -52v-301h-102v507z" />
    <glyph glyph-name="s" unicode="s" horiz-adv-x="352"
d="M227 365q-1 26 -16.5 39t-35.5 13q-24 0 -37 -15.5t-13 -35.5q0 -14 7 -27.5t36 -24.5l60 -24q57 -22 78.5 -60t21.5 -83q0 -32 -11.5 -59.5t-31.5 -48.5t-48 -33t-61 -12q-30 0 -57 10t-47.5 29t-33.5 47.5t-14 66.5h96q3 -21 14.5 -39t40.5 -18q22 0 39.5 14.5
t17.5 40.5q0 21 -11 36t-40 26l-49 18q-48 18 -75.5 53.5t-27.5 86.5q0 32 12 59.5t32.5 47t47.5 30.5t58 11t57.5 -11.5t45.5 -31t30 -47t11 -58.5h-96z" />
    <glyph glyph-name="t" unicode="t" horiz-adv-x="204"
d="M42 661h102v-154h63v-80h-63v-281q0 -18 3.5 -28t11 -15t19.5 -6t29 -1v-96h-42q-35 0 -58.5 11t-37.5 28t-20.5 38.5t-6.5 41.5v308h-51v80h51v154z" />
    <glyph glyph-name="u" unicode="u" horiz-adv-x="389"
d="M347 0h-102v49h-2q-16 -24 -38.5 -39.5t-57.5 -15.5q-19 0 -38 6.5t-34 21.5t-24 38.5t-9 57.5v389h102v-351q0 -28 13 -44t37 -16q29 0 40 18t11 52v341h102v-507z" />
    <glyph glyph-name="v" unicode="v" horiz-adv-x="352"
d="M221 0h-90l-132 507h108l68 -324h2l68 324h108z" />
    <glyph glyph-name="w" unicode="w" horiz-adv-x="536"
d="M415 0h-90l-56 301h-2l-56 -301h-90l-120 507h108l62 -315h2l57 315h80l54 -315h2l61 315h108z" />
    <glyph glyph-name="x" unicode="x" horiz-adv-x="332"
d="M114 259l-119 248h108l63 -144l63 144h108l-121 -248l127 -259h-108l-69 155l-69 -155h-108z" />
    <glyph glyph-name="y" unicode="y" horiz-adv-x="352"
d="M107 507l70 -316h2l69 316h105l-146 -595q-8 -34 -22.5 -56.5t-33.5 -36t-40.5 -19t-44.5 -5.5h-28v96h23q15 0 26 4t19.5 17.5t15.5 40t16 70.5l-139 484h108z" />
    <glyph glyph-name="z" unicode="z" horiz-adv-x="315"
d="M17 81l165 336h-152v90h268v-81l-165 -330h165v-96h-281v81z" />
    <glyph glyph-name="braceleft" unicode="{" horiz-adv-x="222"
d="M3 337q28 0 46 31.5t18 80.5v152q0 53 29 82t69 29h54v-60h-18q-24 0 -34 -17.5t-10 -48.5v-151q0 -33 -7 -56.5t-17 -38.5t-22.5 -23t-22.5 -10v-2q10 -2 22.5 -9.5t22.5 -22.5t17 -39t7 -58v-149q0 -32 10 -49.5t34 -17.5h18v-60h-54q-40 0 -69 29t-29 82v151
q0 51 -18 83t-46 32v60z" />
    <glyph glyph-name="bar" unicode="|" horiz-adv-x="222"
d="M71 750h80v-1000h-80v1000z" />
    <glyph glyph-name="braceright" unicode="}" horiz-adv-x="222"
d="M219 277q-28 0 -46 -32t-18 -83v-151q0 -53 -29 -82t-69 -29h-54v60h18q24 0 34 17.5t10 49.5v149q0 34 7 58t17 39t22 22.5t23 9.5v2q-11 2 -23 10t-22 23t-17 38.5t-7 56.5v151q0 31 -10 48.5t-34 17.5h-18v60h54q40 0 69 -29t29 -82v-152q0 -49 18 -80.5t46 -31.5v-60
z" />
    <glyph glyph-name="asciitilde" unicode="~" horiz-adv-x="600"
d="M531 265q-8 -16 -19.5 -31.5t-26.5 -28t-34.5 -20t-44.5 -7.5q-26 0 -54 9.5t-57 23.5q-28 12 -55 24t-47 12q-15 0 -27.5 -6.5t-23 -16.5t-19.5 -22.5t-18 -25.5l-36 64q8 16 19.5 31.5t26.5 28t34.5 20t44.5 7.5q26 0 54 -9.5t57 -23.5q28 -12 55 -24t47 -12
q15 0 27.5 6.5t23 16.5t19.5 23l18 26z" />
    <glyph glyph-name="uni00A0" unicode="&#xa0;" horiz-adv-x="186"
 />
    <glyph glyph-name="exclamdown" unicode="&#xa1;" horiz-adv-x="240"
d="M95 331h50l39 -536h-128zM69 507h102v-102h-102v102z" />
    <glyph glyph-name="cent" unicode="&#xa2;" horiz-adv-x="372"
d="M164 411q-12 -4 -20 -19q-8 -14 -8 -35v-215q0 -36 28 -46v315zM164 -6q-38 3 -66.5 22t-44.5 48q-11 20 -15 46t-4 57v172q0 31 4 57t15 46q16 29 44.5 48t66.5 23v75h41v-75q62 -5 97.5 -49.5t35.5 -112.5h-102q0 26 -8 40.5t-23 19.5v-315q17 6 23 20.5t8 30.5h102
q0 -33 -10.5 -61.5t-30.5 -48.5q-17 -18 -40 -29.5t-52 -13.5v-84h-41v84z" />
    <glyph glyph-name="sterling" unicode="&#xa3;" horiz-adv-x="372"
d="M13 369h55q-19 35 -28.5 68t-9.5 84q0 39 9 75t28.5 63t50.5 43t74 16q25 0 51 -9.5t47.5 -29.5t35.5 -50.5t14 -73.5v-45h-96v40q0 27 -11.5 49.5t-43.5 22.5q-35 0 -49 -30t-14 -72q0 -39 10 -79t22 -72h116v-71h-93q7 -19 12.5 -37.5t5.5 -50.5q0 -30 -9 -57t-23 -52
q17 -2 39 -6.5t43 -4.5q17 0 32.5 5t33.5 27l68 -69q-23 -32 -49.5 -45.5t-61.5 -13.5q-14 0 -36 3t-46 6.5t-47.5 6.5t-40.5 3q-22 0 -45.5 -5.5t-33.5 -10.5v86q8 5 27.5 11.5t36.5 8.5q13 19 20 41.5t7 45.5q0 22 -6 51.5t-17 56.5h-78v71z" />
    <glyph glyph-name="currency" unicode="&#xa4;" horiz-adv-x="372"
d="M46 256q-16 17 -25.5 43.5t-9.5 56.5t9 56.5t25 43.5l-41 42l41 41l41 -42q17 15 43.5 24.5t56.5 9.5t56.5 -9t44.5 -25l41 42l40 -41l-41 -41q16 -18 25 -44.5t9 -56.5q0 -31 -9.5 -57t-24.5 -43l41 -41l-41 -41l-41 41q-17 -16 -43.5 -25t-56.5 -9t-56.5 9.5
t-43.5 25.5l-41 -42l-41 40zM77 356q0 -23 8.5 -42.5t23.5 -34.5t34.5 -23.5t42.5 -8.5q22 0 42 8.5t35 23.5t23.5 34.5t8.5 42.5q0 22 -8.5 42t-23.5 35t-35 23.5t-42 8.5q-23 0 -42.5 -8.5t-34.5 -23.5t-23.5 -35t-8.5 -42z" />
    <glyph glyph-name="yen" unicode="&#xa5;" horiz-adv-x="372"
d="M138 172h-114v66h114v49h-114v66h98l-118 359h102l79 -283h2l79 283h102l-118 -359h98v-66h-114v-49h114v-66h-114v-172h-96v172z" />
    <glyph glyph-name="brokenbar" unicode="&#xa6;" horiz-adv-x="222"
d="M71 175h80v-350h-80v350zM71 675h80v-350h-80v350z" />
    <glyph glyph-name="section" unicode="&#xa7;"
d="M325 535h-85v42q0 23 -12.5 42t-37.5 19q-32 0 -42 -21.5t-10 -51.5q0 -18 1 -29.5t6 -20t14 -16.5t26 -18l97 -63q18 -12 29 -23.5t16.5 -28.5t7.5 -42.5t2 -64.5q0 -36 -2 -60.5t-11 -42.5t-26.5 -31t-47.5 -27q25 -13 40 -25t22.5 -28t10 -37t2.5 -51q0 -42 -5 -67
t-20 -47q-17 -25 -48.5 -39.5t-65.5 -14.5q-41 0 -68.5 14t-44 35.5t-23.5 46.5t-7 47v42h85v-41q0 -26 15.5 -45t39.5 -19q31 0 44 19t13 59q0 19 -1.5 31t-5 20.5t-9.5 14.5t-16 12l-118 72q-20 12 -31.5 25.5t-17 32.5t-7 44t-1.5 60q0 43 4 72t14.5 48t28 30.5
t45.5 20.5q-25 12 -39 25t-21.5 28.5t-9.5 35t-2 45.5q0 39 11 68t29.5 48t43.5 28.5t53 9.5q25 0 49 -8.5t43 -25.5t31 -43t12 -60v-46zM135 213q0 -22 14.5 -37.5t35.5 -15.5q20 0 35 15.5t15 37.5v99q0 22 -15 37.5t-35 15.5q-21 0 -35.5 -15.5t-14.5 -37.5v-99z" />
    <glyph glyph-name="dieresis" unicode="&#xa8;" horiz-adv-x="186"
d="M-33 688h90v-102h-90v102zM129 688h90v-102h-90v102z" />
    <glyph glyph-name="copyright" unicode="&#xa9;" horiz-adv-x="800"
d="M590 287q-7 -35 -23 -64t-39.5 -49.5t-52.5 -31.5t-62 -11q-49 0 -88.5 17.5t-67.5 48t-43 71.5t-15 88q0 49 14.5 90.5t41.5 71.5t66 47t89 17q34 0 64.5 -10t54.5 -29t40 -47.5t21 -64.5h-66q-4 18 -14 33.5t-25 27t-34 18t-40 6.5q-33 0 -59 -12.5t-44 -34t-27.5 -50
t-9.5 -61.5q0 -31 10 -60t28.5 -51.5t45 -36t58.5 -13.5q43 0 73.5 26t37.5 64h66zM690 356q0 61 -23 115t-62 94t-92 63.5t-113 23.5t-113 -23.5t-92 -63.5t-62 -94t-23 -115t23 -115t62 -94t92 -63.5t113 -23.5t113 23.5t92 63.5t62 94t23 115zM38 356q0 75 28.5 141
t77.5 115t115 77.5t141 28.5t141 -28.5t115 -77.5t77.5 -115t28.5 -141t-28.5 -141t-77.5 -115t-115 -77.5t-141 -28.5t-141 28.5t-115 77.5t-77.5 115t-28.5 141z" />
    <glyph glyph-name="ordfeminine" unicode="&#xaa;" horiz-adv-x="240"
d="M154 441h-2q-13 -17 -26 -26t-37 -9q-12 0 -25 3t-24 12t-18.5 25t-7.5 42q0 52 23 79t85 27q7 0 14 -0.5t18 -1.5v24q0 15 -7.5 25.5t-25.5 10.5q-13 0 -24 -6.5t-13 -23.5h-66q3 44 30 70q29 26 73 26q21 0 40 -6t33.5 -18t23 -30t8.5 -42v-212h-72v31zM154 541
q-5 1 -9.5 1.5t-8.5 0.5q-22 0 -36 -9.5t-14 -34.5q0 -29 32 -29q17 0 26.5 10t9.5 24v37z" />
    <glyph glyph-name="guillemotleft" unicode="&#xab;" horiz-adv-x="426"
d="M398 377l-101 -100l101 -100v-102l-203 202l203 202v-102zM213 377l-101 -100l101 -100v-102l-203 202l203 202v-102z" />
    <glyph glyph-name="logicalnot" unicode="&#xac;" horiz-adv-x="600"
d="M473 313h-426v80h506v-280h-80v200z" />
    <glyph glyph-name="uni00AD" unicode="&#xad;" horiz-adv-x="389"
d="M44 328h301v-102h-301v102z" />
    <glyph glyph-name="registered" unicode="&#xae;" horiz-adv-x="800"
d="M329 388h75q49 0 73.5 14.5t24.5 48.5q0 29 -21.5 42.5t-55.5 13.5h-96v-119zM263 567h160q145 0 145 -119q0 -30 -8.5 -51t-23.5 -35t-34.5 -21.5t-41.5 -10.5l121 -185h-80l-121 183h-51v-183h-66v422zM690 356q0 61 -23 115t-62 94t-92 63.5t-113 23.5t-113 -23.5
t-92 -63.5t-62 -94t-23 -115t23 -115t62 -94t92 -63.5t113 -23.5t113 23.5t92 63.5t62 94t23 115zM38 356q0 75 28.5 141t77.5 115t115 77.5t141 28.5t141 -28.5t115 -77.5t77.5 -115t28.5 -141t-28.5 -141t-77.5 -115t-115 -77.5t-141 -28.5t-141 28.5t-115 77.5t-77.5 115
t-28.5 141z" />
    <glyph glyph-name="macron" unicode="&#xaf;" horiz-adv-x="186"
d="M-44 667h274v-60h-274v60z" />
    <glyph glyph-name="degree" unicode="&#xb0;" horiz-adv-x="260"
d="M69 606q0 -26 17.5 -43.5t43.5 -17.5t43.5 17.5t17.5 43.5t-17.5 43.5t-43.5 17.5t-43.5 -17.5t-17.5 -43.5zM18 606q0 23 9 43.5t24 35.5t35.5 24t43.5 9t43.5 -9t35.5 -24t24 -35.5t9 -43.5t-9 -43.5t-24 -35.5t-35.5 -24t-43.5 -9t-43.5 9t-35.5 24t-24 35.5t-9 43.5z
" />
    <glyph glyph-name="plusminus" unicode="&#xb1;" horiz-adv-x="600"
d="M260 265h-213v80h213v161h80v-161h213v-80h-213v-161h-80v161zM47 80h506v-80h-506v80z" />
    <glyph glyph-name="two.superior" unicode="&#xb2;" horiz-adv-x="242"
d="M11 620q0 21 8.5 39t23.5 31t35 20.5t43 7.5q22 0 42 -7t35 -19t24 -28.5t9 -36.5v-33q0 -26 -6 -42t-17 -33l-95 -160h118v-72h-220v54l128 212q5 9 8.5 18.5t3.5 20.5v23q0 15 -10 23t-21 8t-20 -8t-9 -23v-31h-80v36z" />
    <glyph glyph-name="three.superior" unicode="&#xb3;" horiz-adv-x="242"
d="M100 540q29 0 39.5 6.5t11.5 27.5v42q0 13 -8 21.5t-22 8.5q-16 0 -23 -10.5t-7 -19.5v-26h-80v32q0 42 31 69t81 27q28 0 48 -8.5t33.5 -23t20 -32.5t6.5 -36v-41q0 -22 -7 -38.5t-34 -30.5q24 -14 32.5 -31t8.5 -42v-51q0 -18 -6 -36.5t-19.5 -32.5t-34.5 -23t-50 -9
q-20 0 -40 5t-35.5 16t-25 29t-9.5 44v34h80v-23q0 -15 8 -24t22 -9q13 0 21.5 9.5t8.5 20.5v52q0 23 -10 30t-41 7v66z" />
    <glyph glyph-name="acute" unicode="&#xb4;" horiz-adv-x="186"
d="M118 715h108l-132 -141h-66z" />
    <glyph glyph-name="mu" unicode="&#xb5;" horiz-adv-x="389"
d="M347 0h-102v49h-2q-7 -14 -15.5 -24.5t-16.5 -17.5q-17 -13 -34 -13q-21 0 -31 10h-2v-209h-102v712h102v-351q0 -28 13 -44t37 -16q29 0 40 18t11 52v341h102v-507z" />
    <glyph glyph-name="paragraph" unicode="&#xb6;" horiz-adv-x="444"
d="M182 334q-33 0 -64 14.5t-55.5 39.5t-39.5 59t-15 73q0 49 16 85t44.5 60t68.5 35.5t89 11.5h172v-917h-72v866h-72v-866h-72v539z" />
    <glyph glyph-name="periodcentered" unicode="&#xb7;" horiz-adv-x="186"
d="M29 298q0 26 19 45t45 19t45 -19t19 -45t-19 -45t-45 -19t-45 19t-19 45z" />
    <glyph glyph-name="cedilla" unicode="&#xb8;" horiz-adv-x="186"
d="M85 0h46l-46 -60q8 1 15.5 1.5t15.5 0.5q25 0 41 -7t26 -18.5t14 -24.5t4 -25q0 -24 -11.5 -41.5t-29.5 -28.5t-39.5 -16t-42.5 -5q-29 0 -54 7t-39 12l17 42q16 -6 32 -10.5t33 -4.5q8 0 17.5 1.5t17.5 6t13.5 12.5t5.5 21q0 17 -14 27.5t-31 10.5q-21 0 -39 -7l-17 20z
" />
    <glyph glyph-name="one.superior" unicode="&#xb9;" horiz-adv-x="242"
d="M93 640l-66 -43v72l66 43h80v-425h-80v353z" />
    <glyph glyph-name="ordmasculine" unicode="&#xba;" horiz-adv-x="240"
d="M18 619q0 43 27.5 71t74.5 28t74.5 -28t27.5 -71v-114q0 -43 -27.5 -71t-74.5 -28t-74.5 28t-27.5 71v114zM90 506q0 -34 30 -34t30 34v111q0 35 -30 35t-30 -35v-111z" />
    <glyph glyph-name="guillemotright" unicode="&#xbb;" horiz-adv-x="426"
d="M213 177l101 100l-101 100v102l203 -202l-203 -202v102zM28 177l101 100l-101 100v102l203 -202l-203 -202v102z" />
    <glyph glyph-name="onequarter" unicode="&#xbc;" horiz-adv-x="555"
d="M455 729h60l-437 -746h-60zM77 640l-66 -43v72l66 43h80v-425h-80v353zM434 62h-143v62l98 303h80l-94 -299h59v115h80v-115h30v-66h-30v-62h-80v62z" />
    <glyph glyph-name="onehalf" unicode="&#xbd;" horiz-adv-x="555"
d="M455 729h60l-437 -746h-60zM77 640l-66 -43v72l66 43h80v-425h-80v353zM322 54l130 212q5 9 8.5 18.5t3.5 20.5v23q0 15 -10 23t-21 8q-13 0 -22 -8t-9 -23v-31h-80v36q0 42 32 70t80 28q22 0 42 -7t35 -19t24 -28.5t9 -36.5v-33q0 -26 -6 -42t-17 -33l-95 -160h118v-72
h-222v54z" />
    <glyph glyph-name="threequarters" unicode="&#xbe;" horiz-adv-x="555"
d="M474 729h60l-437 -746h-60zM100 540q29 0 39.5 6.5t11.5 27.5v42q0 13 -8 21.5t-22 8.5q-16 0 -23 -10.5t-7 -19.5v-26h-80v32q0 42 31 69t81 27q28 0 48 -8.5t33.5 -23t20 -32.5t6.5 -36v-41q0 -22 -7 -38.5t-34 -30.5q24 -14 32.5 -31t8.5 -42v-51q0 -18 -6 -36.5
t-19.5 -32.5t-34.5 -23t-50 -9q-20 0 -40 5t-35.5 16t-25 29t-9.5 44v34h80v-23q0 -15 8 -24t22 -9q13 0 21.5 9.5t8.5 20.5v52q0 23 -10 30t-41 7v66zM434 62h-143v62l98 303h80l-94 -299h59v115h80v-115h30v-66h-30v-62h-80v62z" />
    <glyph glyph-name="questiondown" unicode="&#xbf;"
d="M338 -59q0 -32 -12 -59.5t-33 -48t-49 -32.5t-60 -12q-37 0 -67.5 15t-50.5 42q-10 13 -16.5 25.5t-10.5 26t-5.5 30.5t-1.5 40q0 25 0.5 43t2.5 31t5 22.5t8 17.5l69 118q7 12 12 24.5t5 26.5v80h102v-93q0 -22 -7 -42t-18 -39l-64 -104q-8 -13 -10.5 -28t-2.5 -30v-53
q0 -21 14.5 -36t35.5 -15q18 0 35 13t17 38v58h102v-59zM236 405h-102v102h102v-102z" />
    <glyph glyph-name="Agrave" unicode="&#xc0;" horiz-adv-x="407"
d="M204 507h-2l-50 -258h102zM161 712h85l159 -712h-102l-30 153h-139l-30 -153h-102zM269 744h-66l-132 141h108z" />
    <glyph glyph-name="Aacute" unicode="&#xc1;" horiz-adv-x="407"
d="M204 507h-2l-50 -258h102zM161 712h85l159 -712h-102l-30 153h-139l-30 -153h-102zM229 885h108l-132 -141h-66z" />
    <glyph glyph-name="Acircumflex" unicode="&#xc2;" horiz-adv-x="407"
d="M204 507h-2l-50 -258h102zM161 712h85l159 -712h-102l-30 153h-139l-30 -153h-102zM157 885h94l98 -141h-78l-67 95l-67 -95h-78z" />
    <glyph glyph-name="Atilde" unicode="&#xc3;" horiz-adv-x="407"
d="M204 507h-2l-50 -258h102zM161 712h85l159 -712h-102l-30 153h-139l-30 -153h-102zM374 869q-5 -23 -12 -43t-19 -35t-29 -24t-41 -9q-12 0 -32.5 6t-42.5 13.5t-41 14t-28 6.5q-21 0 -32 -12.5t-12 -32.5h-51q4 23 11.5 43t19.5 35t29 24t41 9q12 0 32.5 -6.5t42.5 -14
t41.5 -13.5t27.5 -6q21 0 32 12.5t12 32.5h51z" />
    <glyph glyph-name="Adieresis" unicode="&#xc4;" horiz-adv-x="407"
d="M204 507h-2l-50 -258h102zM161 712h85l159 -712h-102l-30 153h-139l-30 -153h-102zM78 858h90v-102h-90v102zM240 858h90v-102h-90v102z" />
    <glyph glyph-name="Aring" unicode="&#xc5;" horiz-adv-x="407"
d="M204 507h-2l-50 -258h102zM161 712h85l159 -712h-102l-30 153h-139l-30 -153h-102zM102 835q0 21 8 39.5t22 32.5t32.5 22t39.5 8t39.5 -8t32.5 -22t22 -32.5t8 -39.5t-8 -39.5t-22 -32.5t-32.5 -22t-39.5 -8t-39.5 8t-32.5 22t-22 32.5t-8 39.5zM143 835
q0 -26 17.5 -43.5t43.5 -17.5t43.5 17.5t17.5 43.5t-17.5 43.5t-43.5 17.5t-43.5 -17.5t-17.5 -43.5z" />
    <glyph glyph-name="AE" unicode="&#xc6;" horiz-adv-x="611"
d="M204 712h389v-96h-202v-209h176v-96h-176v-209h202v-102h-304v153h-140l-39 -153h-108zM289 616h-24l-92 -367h116v367z" />
    <glyph glyph-name="Ccedilla" unicode="&#xc7;" horiz-adv-x="407"
d="M192 -6q-27 2 -54 12t-48.5 29.5t-34.5 50.5t-13 76v392q0 35 12 65t34 52t52.5 34.5t67.5 12.5q35 0 65 -12.5t52 -35t34.5 -54t12.5 -68.5v-40h-102v34q0 30 -17 52t-46 22q-38 0 -50.5 -23.5t-12.5 -59.5v-364q0 -31 13.5 -52t48.5 -21q10 0 21.5 3.5t21 11.5t15.5 22
t6 35v35h102v-44q0 -29 -10 -56t-27.5 -49t-42 -37t-53.5 -21l-43 -56q8 1 15.5 1.5t15.5 0.5q25 0 41 -7t26 -18.5t14 -24.5t4 -25q0 -24 -11.5 -41.5t-29.5 -28.5t-39.5 -16t-42.5 -5q-29 0 -54 7t-39 12l17 42q16 -6 32 -10.5t33 -4.5q8 0 17.5 1.5t17.5 6t13.5 12.5
t5.5 21q0 17 -14 27.5t-31 10.5q-21 0 -39 -7l-17 20z" />
    <glyph glyph-name="Egrave" unicode="&#xc8;"
d="M48 712h304v-96h-202v-209h176v-96h-176v-209h202v-102h-304v712zM260 744h-66l-132 141h108z" />
    <glyph glyph-name="Eacute" unicode="&#xc9;"
d="M48 712h304v-96h-202v-209h176v-96h-176v-209h202v-102h-304v712zM220 885h108l-132 -141h-66z" />
    <glyph glyph-name="Ecircumflex" unicode="&#xca;"
d="M48 712h304v-96h-202v-209h176v-96h-176v-209h202v-102h-304v712zM148 885h94l98 -141h-78l-67 95l-67 -95h-78z" />
    <glyph glyph-name="Edieresis" unicode="&#xcb;"
d="M48 712h304v-96h-202v-209h176v-96h-176v-209h202v-102h-304v712zM69 858h90v-102h-90v102zM231 858h90v-102h-90v102z" />
    <glyph glyph-name="Igrave" unicode="&#xcc;" horiz-adv-x="204"
d="M51 712h102v-712h-102v712zM167 744h-66l-132 141h108z" />
    <glyph glyph-name="Iacute" unicode="&#xcd;" horiz-adv-x="204"
d="M51 712h102v-712h-102v712zM127 885h108l-132 -141h-66z" />
    <glyph glyph-name="Icircumflex" unicode="&#xce;" horiz-adv-x="204"
d="M51 712h102v-712h-102v712zM55 885h94l98 -141h-78l-67 95l-67 -95h-78z" />
    <glyph glyph-name="Idieresis" unicode="&#xcf;" horiz-adv-x="204"
d="M51 712h102v-712h-102v712zM-24 858h90v-102h-90v102zM138 858h90v-102h-90v102z" />
    <glyph glyph-name="Eth" unicode="&#xd0;" horiz-adv-x="426"
d="M150 416h70v-66h-70v-254h47q43 0 61 21.5t18 67.5v343q0 42 -17 65t-62 23h-47v-200zM48 350h-48v66h48v296h151q87 0 133 -48.5t46 -135.5v-333q0 -100 -48.5 -147.5t-139.5 -47.5h-142v350z" />
    <glyph glyph-name="Ntilde" unicode="&#xd1;" horiz-adv-x="444"
d="M44 712h98l154 -429h2v429h102v-712h-96l-156 428h-2v-428h-102v712zM392 869q-5 -23 -12 -43t-19 -35t-29 -24t-41 -9q-12 0 -32.5 6t-42.5 13.5t-41 14t-28 6.5q-21 0 -32 -12.5t-12 -32.5h-51q4 23 11.5 43t19.5 35t29 24t41 9q12 0 32.5 -6.5t42.5 -14t41.5 -13.5
t27.5 -6q21 0 32 12.5t12 32.5h51z" />
    <glyph glyph-name="Ograve" unicode="&#xd2;" horiz-adv-x="426"
d="M42 544q0 43 15 76t39.5 54.5t55 32.5t61.5 11t61.5 -11t55 -32.5t39.5 -54.5t15 -76v-376q0 -44 -15 -76.5t-39.5 -54t-55 -32.5t-61.5 -11t-61.5 11t-55 32.5t-39.5 54t-15 76.5v376zM144 168q0 -37 20.5 -54.5t48.5 -17.5t48.5 17.5t20.5 54.5v376q0 37 -20.5 54.5
t-48.5 17.5t-48.5 -17.5t-20.5 -54.5v-376zM278 744h-66l-132 141h108z" />
    <glyph glyph-name="Oacute" unicode="&#xd3;" horiz-adv-x="426"
d="M42 544q0 43 15 76t39.5 54.5t55 32.5t61.5 11t61.5 -11t55 -32.5t39.5 -54.5t15 -76v-376q0 -44 -15 -76.5t-39.5 -54t-55 -32.5t-61.5 -11t-61.5 11t-55 32.5t-39.5 54t-15 76.5v376zM144 168q0 -37 20.5 -54.5t48.5 -17.5t48.5 17.5t20.5 54.5v376q0 37 -20.5 54.5
t-48.5 17.5t-48.5 -17.5t-20.5 -54.5v-376zM238 885h108l-132 -141h-66z" />
    <glyph glyph-name="Ocircumflex" unicode="&#xd4;" horiz-adv-x="426"
d="M42 544q0 43 15 76t39.5 54.5t55 32.5t61.5 11t61.5 -11t55 -32.5t39.5 -54.5t15 -76v-376q0 -44 -15 -76.5t-39.5 -54t-55 -32.5t-61.5 -11t-61.5 11t-55 32.5t-39.5 54t-15 76.5v376zM144 168q0 -37 20.5 -54.5t48.5 -17.5t48.5 17.5t20.5 54.5v376q0 37 -20.5 54.5
t-48.5 17.5t-48.5 -17.5t-20.5 -54.5v-376zM166 885h94l98 -141h-78l-67 95l-67 -95h-78z" />
    <glyph glyph-name="Otilde" unicode="&#xd5;" horiz-adv-x="426"
d="M42 544q0 43 15 76t39.5 54.5t55 32.5t61.5 11t61.5 -11t55 -32.5t39.5 -54.5t15 -76v-376q0 -44 -15 -76.5t-39.5 -54t-55 -32.5t-61.5 -11t-61.5 11t-55 32.5t-39.5 54t-15 76.5v376zM144 168q0 -37 20.5 -54.5t48.5 -17.5t48.5 17.5t20.5 54.5v376q0 37 -20.5 54.5
t-48.5 17.5t-48.5 -17.5t-20.5 -54.5v-376zM383 869q-5 -23 -12 -43t-19 -35t-29 -24t-41 -9q-12 0 -32.5 6t-42.5 13.5t-41 14t-28 6.5q-21 0 -32 -12.5t-12 -32.5h-51q4 23 11.5 43t19.5 35t29 24t41 9q12 0 32.5 -6.5t42.5 -14t41.5 -13.5t27.5 -6q21 0 32 12.5t12 32.5
h51z" />
    <glyph glyph-name="Odieresis" unicode="&#xd6;" horiz-adv-x="426"
d="M42 544q0 43 15 76t39.5 54.5t55 32.5t61.5 11t61.5 -11t55 -32.5t39.5 -54.5t15 -76v-376q0 -44 -15 -76.5t-39.5 -54t-55 -32.5t-61.5 -11t-61.5 11t-55 32.5t-39.5 54t-15 76.5v376zM144 168q0 -37 20.5 -54.5t48.5 -17.5t48.5 17.5t20.5 54.5v376q0 37 -20.5 54.5
t-48.5 17.5t-48.5 -17.5t-20.5 -54.5v-376zM87 858h90v-102h-90v102zM249 858h90v-102h-90v102z" />
    <glyph glyph-name="multiply" unicode="&#xd7;" horiz-adv-x="600"
d="M244 253l-177 177l57 56l176 -176l177 176l56 -56l-176 -177l176 -176l-56 -57l-177 177l-176 -177l-57 57z" />
    <glyph glyph-name="Oslash" unicode="&#xd8;" horiz-adv-x="426"
d="M60 87q-18 34 -18 81v376q0 43 15 76t39.5 54.5t55 32.5t61.5 11q34 0 66.5 -13t58.5 -39l40 84l38 -22l-50 -103q8 -16 13 -36.5t5 -44.5v-376q0 -44 -15 -76.5t-39.5 -54t-55 -32.5t-61.5 -11q-35 0 -68 13t-57 39l-40 -84l-38 22zM282 549q-2 35 -22.5 51t-46.5 16
q-28 0 -48.5 -17.5t-20.5 -54.5v-282h2zM144 163q2 -34 22 -50.5t47 -16.5q28 0 48.5 17.5t20.5 54.5v281h-2z" />
    <glyph glyph-name="Ugrave" unicode="&#xd9;" horiz-adv-x="426"
d="M378 160q0 -35 -13 -65t-35.5 -52.5t-52.5 -35.5t-64 -13t-64 13t-52.5 35.5t-35.5 52.5t-13 65v552h102v-542q0 -38 18 -56t45 -18t45 18t18 56v542h102v-552zM278 744h-66l-132 141h108z" />
    <glyph glyph-name="Uacute" unicode="&#xda;" horiz-adv-x="426"
d="M378 160q0 -35 -13 -65t-35.5 -52.5t-52.5 -35.5t-64 -13t-64 13t-52.5 35.5t-35.5 52.5t-13 65v552h102v-542q0 -38 18 -56t45 -18t45 18t18 56v542h102v-552zM238 885h108l-132 -141h-66z" />
    <glyph glyph-name="Ucircumflex" unicode="&#xdb;" horiz-adv-x="426"
d="M378 160q0 -35 -13 -65t-35.5 -52.5t-52.5 -35.5t-64 -13t-64 13t-52.5 35.5t-35.5 52.5t-13 65v552h102v-542q0 -38 18 -56t45 -18t45 18t18 56v542h102v-552zM166 885h94l98 -141h-78l-67 95l-67 -95h-78z" />
    <glyph glyph-name="Udieresis" unicode="&#xdc;" horiz-adv-x="426"
d="M378 160q0 -35 -13 -65t-35.5 -52.5t-52.5 -35.5t-64 -13t-64 13t-52.5 35.5t-35.5 52.5t-13 65v552h102v-542q0 -38 18 -56t45 -18t45 18t18 56v542h102v-552zM87 858h90v-102h-90v102zM249 858h90v-102h-90v102z" />
    <glyph glyph-name="Yacute" unicode="&#xdd;" horiz-adv-x="388"
d="M143 301l-140 411h108l82 -283h2l82 283h108l-140 -411v-301h-102v301zM219 885h108l-132 -141h-66z" />
    <glyph glyph-name="Thorn" unicode="&#xde;" horiz-adv-x="407"
d="M48 712h102v-124h51q42 0 74 -11t58 -39t36 -65.5t10 -101.5q0 -47 -5.5 -80.5t-23.5 -62.5q-21 -35 -56 -54.5t-92 -19.5h-52v-154h-102v712zM150 250h49q31 0 48 9t25 24.5t9.5 37.5t1.5 49q0 25 -1.5 47.5t-9 39t-23.5 26t-46 9.5h-53v-242z" />
    <glyph glyph-name="germandbls" unicode="&#xdf;" horiz-adv-x="389"
d="M42 552q0 33 9 63t27.5 53t47 36.5t67.5 13.5q43 0 72.5 -14t47.5 -38.5t26 -58t8 -71.5q0 -27 -2.5 -45t-9 -32t-18 -24.5t-29.5 -22.5q29 -16 44 -40t15 -62v-176q0 -47 -12.5 -74.5t-32.5 -42t-46.5 -19t-54.5 -4.5v96q22 0 33 9.5t11 41.5v190q0 20 -11.5 26.5
t-32.5 6.5v90q23 0 33.5 7.5t10.5 31.5v80q0 21 -9.5 35t-38.5 14t-41 -19t-12 -69v-534h-102v552z" />
    <glyph glyph-name="agrave" unicode="&#xe0;"
d="M235 52h-2q-20 -28 -40.5 -43t-57.5 -15q-18 0 -37 5.5t-35.5 20t-27 41t-10.5 68.5q0 43 7 75.5t25.5 54t49.5 32t79 10.5q11 0 22 -1t27 -2v53q0 26 -11 43t-40 17q-20 0 -36.5 -13t-21.5 -38h-99q5 69 46 110q20 20 48 31.5t63 11.5q32 0 60 -10t48.5 -30t32.5 -50
t12 -70v-353h-102v52zM235 218q-17 3 -28 3q-33 0 -56.5 -15.5t-23.5 -56.5q0 -29 14 -47t39 -18q26 0 40.5 17t14.5 48v69zM250 574h-66l-132 141h108z" />
    <glyph glyph-name="aacute" unicode="&#xe1;"
d="M235 52h-2q-20 -28 -40.5 -43t-57.5 -15q-18 0 -37 5.5t-35.5 20t-27 41t-10.5 68.5q0 43 7 75.5t25.5 54t49.5 32t79 10.5q11 0 22 -1t27 -2v53q0 26 -11 43t-40 17q-20 0 -36.5 -13t-21.5 -38h-99q5 69 46 110q20 20 48 31.5t63 11.5q32 0 60 -10t48.5 -30t32.5 -50
t12 -70v-353h-102v52zM235 218q-17 3 -28 3q-33 0 -56.5 -15.5t-23.5 -56.5q0 -29 14 -47t39 -18q26 0 40.5 17t14.5 48v69zM210 715h108l-132 -141h-66z" />
    <glyph glyph-name="acircumflex" unicode="&#xe2;"
d="M235 52h-2q-20 -28 -40.5 -43t-57.5 -15q-18 0 -37 5.5t-35.5 20t-27 41t-10.5 68.5q0 43 7 75.5t25.5 54t49.5 32t79 10.5q11 0 22 -1t27 -2v53q0 26 -11 43t-40 17q-20 0 -36.5 -13t-21.5 -38h-99q5 69 46 110q20 20 48 31.5t63 11.5q32 0 60 -10t48.5 -30t32.5 -50
t12 -70v-353h-102v52zM235 218q-17 3 -28 3q-33 0 -56.5 -15.5t-23.5 -56.5q0 -29 14 -47t39 -18q26 0 40.5 17t14.5 48v69zM138 715h94l98 -141h-78l-67 95l-67 -95h-78z" />
    <glyph glyph-name="atilde" unicode="&#xe3;"
d="M235 52h-2q-20 -28 -40.5 -43t-57.5 -15q-18 0 -37 5.5t-35.5 20t-27 41t-10.5 68.5q0 43 7 75.5t25.5 54t49.5 32t79 10.5q11 0 22 -1t27 -2v53q0 26 -11 43t-40 17q-20 0 -36.5 -13t-21.5 -38h-99q5 69 46 110q20 20 48 31.5t63 11.5q32 0 60 -10t48.5 -30t32.5 -50
t12 -70v-353h-102v52zM235 218q-17 3 -28 3q-33 0 -56.5 -15.5t-23.5 -56.5q0 -29 14 -47t39 -18q26 0 40.5 17t14.5 48v69zM355 699q-5 -23 -12 -43t-19 -35t-29 -24t-41 -9q-12 0 -32.5 6t-42.5 13.5t-41 14t-28 6.5q-21 0 -32 -12.5t-12 -32.5h-51q4 23 11.5 43t19.5 35
t29 24t41 9q12 0 32.5 -6.5t42.5 -14t41.5 -13.5t27.5 -6q21 0 32 12.5t12 32.5h51z" />
    <glyph glyph-name="adieresis" unicode="&#xe4;"
d="M235 52h-2q-20 -28 -40.5 -43t-57.5 -15q-18 0 -37 5.5t-35.5 20t-27 41t-10.5 68.5q0 43 7 75.5t25.5 54t49.5 32t79 10.5q11 0 22 -1t27 -2v53q0 26 -11 43t-40 17q-20 0 -36.5 -13t-21.5 -38h-99q5 69 46 110q20 20 48 31.5t63 11.5q32 0 60 -10t48.5 -30t32.5 -50
t12 -70v-353h-102v52zM235 218q-17 3 -28 3q-33 0 -56.5 -15.5t-23.5 -56.5q0 -29 14 -47t39 -18q26 0 40.5 17t14.5 48v69zM59 688h90v-102h-90v102zM221 688h90v-102h-90v102z" />
    <glyph glyph-name="aring" unicode="&#xe5;"
d="M235 52h-2q-20 -28 -40.5 -43t-57.5 -15q-18 0 -37 5.5t-35.5 20t-27 41t-10.5 68.5q0 43 7 75.5t25.5 54t49.5 32t79 10.5q11 0 22 -1t27 -2v53q0 26 -11 43t-40 17q-20 0 -36.5 -13t-21.5 -38h-99q5 69 46 110q20 20 48 31.5t63 11.5q32 0 60 -10t48.5 -30t32.5 -50
t12 -70v-353h-102v52zM235 218q-17 3 -28 3q-33 0 -56.5 -15.5t-23.5 -56.5q0 -29 14 -47t39 -18q26 0 40.5 17t14.5 48v69zM83 660q0 21 8 39.5t22 32.5t32.5 22t39.5 8t39.5 -8t32.5 -22t22 -32.5t8 -39.5t-8 -39.5t-22 -32.5t-32.5 -22t-39.5 -8t-39.5 8t-32.5 22
t-22 32.5t-8 39.5zM124 660q0 -26 17.5 -43.5t43.5 -17.5t43.5 17.5t17.5 43.5t-17.5 43.5t-43.5 17.5t-43.5 -17.5t-17.5 -43.5z" />
    <glyph glyph-name="ae" unicode="&#xe6;" horiz-adv-x="572"
d="M337 295h100v58q0 29 -13.5 43.5t-36.5 14.5t-36.5 -14.5t-13.5 -43.5v-58zM539 215h-202v-69q0 -24 13.5 -37t36.5 -13q29 0 38.5 17t11.5 34h102q0 -33 -11 -61t-31.5 -48t-48.5 -32t-61 -12q-51 -1 -84.5 21t-48.5 51q-18 -36 -49.5 -54t-69.5 -18q-18 0 -37 5.5
t-35.5 20t-27 41t-10.5 68.5q0 43 7 75.5t25.5 54t49.5 32t79 10.5q11 0 22 -1t27 -2v53q0 26 -11 43t-40 17q-20 0 -36.5 -13t-21.5 -38h-99q2 34 14 62t32 48t48 31.5t63 11.5q32 0 56.5 -9.5t44.5 -26.5q19 17 46 26.5t56 9.5q35 0 63.5 -12t48 -33.5t30 -50.5t10.5 -62
v-140zM235 218q-17 3 -28 3q-33 0 -56.5 -15.5t-23.5 -56.5q0 -29 14 -47t39 -18q26 0 40.5 17t14.5 48v69z" />
    <glyph glyph-name="ccedilla" unicode="&#xe7;"
d="M175 -4q-38 5 -65.5 24t-42.5 47q-11 20 -15 46t-4 57v167q0 31 4 57t15 46q18 33 52 53t81 20q35 0 63.5 -12t48 -33.5t30 -51.5t10.5 -65h-102q0 31 -13.5 45.5t-36.5 14.5t-36.5 -14.5t-13.5 -43.5v-207q0 -24 13.5 -37t36.5 -13q29 0 38.5 17t11.5 34h102
q0 -32 -10.5 -60t-30.5 -48q-36 -37 -91 -43l-43 -56q8 1 15.5 1.5t15.5 0.5q25 0 41 -7t26 -18.5t14 -24.5t4 -25q0 -24 -11.5 -41.5t-29.5 -28.5t-39.5 -16t-42.5 -5q-29 0 -54 7t-39 12l17 42q16 -6 32 -10.5t33 -4.5q8 0 17.5 1.5t17.5 6t13.5 12.5t5.5 21
q0 17 -14 27.5t-31 10.5q-21 0 -39 -7l-17 20z" />
    <glyph glyph-name="egrave" unicode="&#xe8;"
d="M135 215v-69q0 -24 13.5 -37t36.5 -13q29 0 38.5 17t11.5 34h102q0 -32 -10.5 -60t-30.5 -48q-20 -21 -48 -33t-63 -12q-47 0 -81 20t-52 53q-11 20 -15 46t-4 57v167q0 31 4 57t15 46q18 33 52 53t81 20q35 0 63.5 -12t48 -33.5t30 -50.5t10.5 -62v-140h-202zM135 295
h100v58q0 29 -13.5 43.5t-36.5 14.5t-36.5 -14.5t-13.5 -43.5v-58zM250 574h-66l-132 141h108z" />
    <glyph glyph-name="eacute" unicode="&#xe9;"
d="M135 215v-69q0 -24 13.5 -37t36.5 -13q29 0 38.5 17t11.5 34h102q0 -32 -10.5 -60t-30.5 -48q-20 -21 -48 -33t-63 -12q-47 0 -81 20t-52 53q-11 20 -15 46t-4 57v167q0 31 4 57t15 46q18 33 52 53t81 20q35 0 63.5 -12t48 -33.5t30 -50.5t10.5 -62v-140h-202zM135 295
h100v58q0 29 -13.5 43.5t-36.5 14.5t-36.5 -14.5t-13.5 -43.5v-58zM210 715h108l-132 -141h-66z" />
    <glyph glyph-name="ecircumflex" unicode="&#xea;"
d="M135 215v-69q0 -24 13.5 -37t36.5 -13q29 0 38.5 17t11.5 34h102q0 -32 -10.5 -60t-30.5 -48q-20 -21 -48 -33t-63 -12q-47 0 -81 20t-52 53q-11 20 -15 46t-4 57v167q0 31 4 57t15 46q18 33 52 53t81 20q35 0 63.5 -12t48 -33.5t30 -50.5t10.5 -62v-140h-202zM135 295
h100v58q0 29 -13.5 43.5t-36.5 14.5t-36.5 -14.5t-13.5 -43.5v-58zM138 715h94l98 -141h-78l-67 95l-67 -95h-78z" />
    <glyph glyph-name="edieresis" unicode="&#xeb;"
d="M135 215v-69q0 -24 13.5 -37t36.5 -13q29 0 38.5 17t11.5 34h102q0 -32 -10.5 -60t-30.5 -48q-20 -21 -48 -33t-63 -12q-47 0 -81 20t-52 53q-11 20 -15 46t-4 57v167q0 31 4 57t15 46q18 33 52 53t81 20q35 0 63.5 -12t48 -33.5t30 -50.5t10.5 -62v-140h-202zM135 295
h100v58q0 29 -13.5 43.5t-36.5 14.5t-36.5 -14.5t-13.5 -43.5v-58zM59 688h90v-102h-90v102zM221 688h90v-102h-90v102z" />
    <glyph glyph-name="igrave" unicode="&#xec;" horiz-adv-x="186"
d="M42 507h102v-507h-102v507zM158 574h-66l-132 141h108z" />
    <glyph glyph-name="iacute" unicode="&#xed;" horiz-adv-x="186"
d="M42 507h102v-507h-102v507zM118 715h108l-132 -141h-66z" />
    <glyph glyph-name="icircumflex" unicode="&#xee;" horiz-adv-x="186"
d="M42 507h102v-507h-102v507zM46 715h94l98 -141h-78l-67 95l-67 -95h-78z" />
    <glyph glyph-name="idieresis" unicode="&#xef;" horiz-adv-x="186"
d="M42 507h102v-507h-102v507zM-33 688h90v-102h-90v102zM129 688h90v-102h-90v102z" />
    <glyph glyph-name="eth" unicode="&#xf0;"
d="M135 154q0 -29 13.5 -43.5t36.5 -14.5t36.5 14.5t13.5 43.5v199q0 29 -13.5 43.5t-36.5 14.5t-36.5 -14.5t-13.5 -43.5v-199zM155 640q-29 24 -77 43l83 44q46 -16 80 -47l68 32l28 -40l-63 -29q19 -25 31 -53.5t19 -59.5t10 -62t3 -60v-238q0 -31 -4 -57t-15 -46
q-18 -33 -52 -53t-81 -20t-81 20t-52 53q-11 20 -15 46t-4 57v167q0 31 4 57t15 46q18 33 52 53t81 20q14 0 27 -6.5t21 -16.5l2 2q-8 35 -19 62.5t-28 48.5l-74 -35l-28 40z" />
    <glyph glyph-name="ntilde" unicode="&#xf1;" horiz-adv-x="389"
d="M42 507h102v-49h2q16 24 38.5 39.5t57.5 15.5q19 0 38 -6.5t34 -21.5t24 -38.5t9 -57.5v-389h-102v351q0 28 -13 44t-37 16q-29 0 -40 -18t-11 -52v-341h-102v507zM365 699q-5 -23 -12 -43t-19 -35t-29 -24t-41 -9q-12 0 -32.5 6t-42.5 13.5t-41 14t-28 6.5
q-21 0 -32 -12.5t-12 -32.5h-51q4 23 11.5 43t19.5 35t29 24t41 9q12 0 32.5 -6.5t42.5 -14t41.5 -13.5t27.5 -6q21 0 32 12.5t12 32.5h51z" />
    <glyph glyph-name="ograve" unicode="&#xf2;"
d="M33 337q0 31 4 57t15 46q18 33 52 53t81 20t81 -20t52 -53q11 -20 15 -46t4 -57v-167q0 -31 -4 -57t-15 -46q-18 -33 -52 -53t-81 -20t-81 20t-52 53q-11 20 -15 46t-4 57v167zM135 154q0 -29 13.5 -43.5t36.5 -14.5t36.5 14.5t13.5 43.5v199q0 29 -13.5 43.5t-36.5 14.5
t-36.5 -14.5t-13.5 -43.5v-199zM250 574h-66l-132 141h108z" />
    <glyph glyph-name="oacute" unicode="&#xf3;"
d="M33 337q0 31 4 57t15 46q18 33 52 53t81 20t81 -20t52 -53q11 -20 15 -46t4 -57v-167q0 -31 -4 -57t-15 -46q-18 -33 -52 -53t-81 -20t-81 20t-52 53q-11 20 -15 46t-4 57v167zM135 154q0 -29 13.5 -43.5t36.5 -14.5t36.5 14.5t13.5 43.5v199q0 29 -13.5 43.5t-36.5 14.5
t-36.5 -14.5t-13.5 -43.5v-199zM210 715h108l-132 -141h-66z" />
    <glyph glyph-name="ocircumflex" unicode="&#xf4;"
d="M33 337q0 31 4 57t15 46q18 33 52 53t81 20t81 -20t52 -53q11 -20 15 -46t4 -57v-167q0 -31 -4 -57t-15 -46q-18 -33 -52 -53t-81 -20t-81 20t-52 53q-11 20 -15 46t-4 57v167zM135 154q0 -29 13.5 -43.5t36.5 -14.5t36.5 14.5t13.5 43.5v199q0 29 -13.5 43.5t-36.5 14.5
t-36.5 -14.5t-13.5 -43.5v-199zM138 715h94l98 -141h-78l-67 95l-67 -95h-78z" />
    <glyph glyph-name="otilde" unicode="&#xf5;"
d="M33 337q0 31 4 57t15 46q18 33 52 53t81 20t81 -20t52 -53q11 -20 15 -46t4 -57v-167q0 -31 -4 -57t-15 -46q-18 -33 -52 -53t-81 -20t-81 20t-52 53q-11 20 -15 46t-4 57v167zM135 154q0 -29 13.5 -43.5t36.5 -14.5t36.5 14.5t13.5 43.5v199q0 29 -13.5 43.5t-36.5 14.5
t-36.5 -14.5t-13.5 -43.5v-199zM355 699q-5 -23 -12 -43t-19 -35t-29 -24t-41 -9q-12 0 -32.5 6t-42.5 13.5t-41 14t-28 6.5q-21 0 -32 -12.5t-12 -32.5h-51q4 23 11.5 43t19.5 35t29 24t41 9q12 0 32.5 -6.5t42.5 -14t41.5 -13.5t27.5 -6q21 0 32 12.5t12 32.5h51z" />
    <glyph glyph-name="odieresis" unicode="&#xf6;"
d="M33 337q0 31 4 57t15 46q18 33 52 53t81 20t81 -20t52 -53q11 -20 15 -46t4 -57v-167q0 -31 -4 -57t-15 -46q-18 -33 -52 -53t-81 -20t-81 20t-52 53q-11 20 -15 46t-4 57v167zM135 154q0 -29 13.5 -43.5t36.5 -14.5t36.5 14.5t13.5 43.5v199q0 29 -13.5 43.5t-36.5 14.5
t-36.5 -14.5t-13.5 -43.5v-199zM59 688h90v-102h-90v102zM221 688h90v-102h-90v102z" />
    <glyph glyph-name="divide" unicode="&#xf7;" horiz-adv-x="600"
d="M47 293h506v-80h-506v80zM236 46q0 26 19 45t45 19t45 -19t19 -45t-19 -45t-45 -19t-45 19t-19 45zM236 460q0 26 19 45t45 19t45 -19t19 -45t-19 -45t-45 -19t-45 19t-19 45z" />
    <glyph glyph-name="oslash" unicode="&#xf8;"
d="M232 372q-6 39 -47 39q-23 0 -36.5 -14.5t-13.5 -43.5v-144h2zM138 135q6 -39 47 -39q23 0 36.5 14.5t13.5 43.5v144h-2zM53 71q-20 40 -20 87v191q0 36 10.5 66t30 51.5t48 34t63.5 12.5q66 0 106 -42l41 69l34 -21l-49 -83q20 -40 20 -87v-191q0 -36 -10.5 -66
t-30 -51.5t-48 -34t-63.5 -12.5q-66 0 -106 42l-41 -69l-34 21z" />
    <glyph glyph-name="ugrave" unicode="&#xf9;" horiz-adv-x="389"
d="M347 0h-102v49h-2q-16 -24 -38.5 -39.5t-57.5 -15.5q-19 0 -38 6.5t-34 21.5t-24 38.5t-9 57.5v389h102v-351q0 -28 13 -44t37 -16q29 0 40 18t11 52v341h102v-507zM260 574h-66l-132 141h108z" />
    <glyph glyph-name="uacute" unicode="&#xfa;" horiz-adv-x="389"
d="M347 0h-102v49h-2q-16 -24 -38.5 -39.5t-57.5 -15.5q-19 0 -38 6.5t-34 21.5t-24 38.5t-9 57.5v389h102v-351q0 -28 13 -44t37 -16q29 0 40 18t11 52v341h102v-507zM220 715h108l-132 -141h-66z" />
    <glyph glyph-name="ucircumflex" unicode="&#xfb;" horiz-adv-x="389"
d="M347 0h-102v49h-2q-16 -24 -38.5 -39.5t-57.5 -15.5q-19 0 -38 6.5t-34 21.5t-24 38.5t-9 57.5v389h102v-351q0 -28 13 -44t37 -16q29 0 40 18t11 52v341h102v-507zM148 715h94l98 -141h-78l-67 95l-67 -95h-78z" />
    <glyph glyph-name="udieresis" unicode="&#xfc;" horiz-adv-x="389"
d="M347 0h-102v49h-2q-16 -24 -38.5 -39.5t-57.5 -15.5q-19 0 -38 6.5t-34 21.5t-24 38.5t-9 57.5v389h102v-351q0 -28 13 -44t37 -16q29 0 40 18t11 52v341h102v-507zM69 688h90v-102h-90v102zM231 688h90v-102h-90v102z" />
    <glyph glyph-name="yacute" unicode="&#xfd;" horiz-adv-x="352"
d="M107 507l70 -316h2l69 316h105l-146 -595q-8 -34 -22.5 -56.5t-33.5 -36t-40.5 -19t-44.5 -5.5h-28v96h23q15 0 26 4t19.5 17.5t15.5 40t16 70.5l-139 484h108zM201 715h108l-132 -141h-66z" />
    <glyph glyph-name="thorn" unicode="&#xfe;" horiz-adv-x="389"
d="M42 712h102v-251q19 22 39 37t58 15q63 0 89 -48q9 -17 13 -42t4 -67v-193q0 -55 -3 -81t-13 -42q-13 -20 -33.5 -33t-57.5 -13q-30 0 -53.5 13.5t-40.5 38.5h-2v-251h-102v917zM245 342q0 31 -12 50t-38 19q-23 0 -37 -17.5t-14 -45.5v-197q0 -24 14.5 -39.5t36.5 -15.5
q29 0 39.5 18t10.5 42v186z" />
    <glyph glyph-name="ydieresis" unicode="&#xff;" horiz-adv-x="352"
d="M107 507l70 -316h2l69 316h105l-146 -595q-8 -34 -22.5 -56.5t-33.5 -36t-40.5 -19t-44.5 -5.5h-28v96h23q15 0 26 4t19.5 17.5t15.5 40t16 70.5l-139 484h108zM50 688h90v-102h-90v102zM212 688h90v-102h-90v102z" />
    <glyph glyph-name="dotlessi" unicode="&#x131;" horiz-adv-x="186"
d="M42 507h102v-507h-102v507z" />
    <glyph glyph-name="Lslash" unicode="&#x141;"
d="M48 265l-48 -38v90l48 38v357h102v-277l120 96v-90l-120 -96v-243h202v-102h-304v265z" />
    <glyph glyph-name="lslash" unicode="&#x142;" horiz-adv-x="186"
d="M36 308l-50 -44v72l50 44v332h102v-242l50 43v-72l-50 -43v-255q0 -29 10.5 -39.5t39.5 -13.5v-96q-35 0 -63.5 5.5t-48 21t-30 43.5t-10.5 72v172z" />
    <glyph glyph-name="OE" unicode="&#x152;" horiz-adv-x="610"
d="M288 554q0 30 -18.5 52t-50.5 22t-50.5 -22t-18.5 -52v-396q0 -30 18.5 -52t50.5 -22t50.5 22t18.5 52v396zM592 616h-202v-209h176v-96h-176v-209h202v-102h-304v34h-2q-13 -17 -36.5 -28.5t-48.5 -11.5q-36 0 -64.5 13.5t-48 37t-30 54t-10.5 64.5v386q0 34 10.5 64.5
t30 53.5t48 37t64.5 14q33 0 53.5 -12.5t31.5 -29.5h2v36h304v-96z" />
    <glyph glyph-name="oe" unicode="&#x153;" horiz-adv-x="572"
d="M33 337q0 31 4 57t15 46q18 33 52 53t81 20q32 0 58 -10t43 -24q20 17 46 25.5t55 8.5q35 0 63.5 -12t48 -33.5t30 -50.5t10.5 -62v-140h-202v-69q0 -24 13.5 -37t36.5 -13q29 0 38.5 17t11.5 34h102q0 -32 -10.5 -60t-30.5 -48q-20 -21 -48 -33t-63 -12q-28 0 -58 8.5
t-47 26.5q-17 -16 -42.5 -25.5t-54.5 -9.5q-47 0 -81 20t-52 53q-11 20 -15 46t-4 57v167zM337 295h100v58q0 29 -13.5 43.5t-36.5 14.5t-36.5 -14.5t-13.5 -43.5v-58zM135 154q0 -29 13.5 -43.5t36.5 -14.5t36.5 14.5t13.5 43.5v199q0 29 -13.5 43.5t-36.5 14.5
t-36.5 -14.5t-13.5 -43.5v-199z" />
    <glyph glyph-name="Scaron" unicode="&#x160;" horiz-adv-x="406"
d="M378 507h-102v23q0 35 -16.5 60.5t-55.5 25.5q-21 0 -34.5 -8t-21 -20.5t-10.5 -29t-3 -34.5q0 -21 1.5 -35.5t7.5 -25t17.5 -18.5t31.5 -16l78 -31q34 -13 55 -30.5t32.5 -41t15.5 -54t4 -69.5q0 -45 -9 -83.5t-29.5 -66t-54.5 -43.5t-83 -16q-37 0 -69 13t-55 35.5
t-36.5 53.5t-13.5 67v38h102v-32q0 -28 16.5 -50.5t55.5 -22.5q26 0 40.5 7.5t22 21t9.5 33.5t2 44q0 28 -2 46t-8.5 29t-18 18t-30.5 15l-73 30q-66 27 -88.5 71.5t-22.5 111.5q0 40 11 76t32.5 62t54.5 41.5t77 15.5q38 0 69.5 -14t54 -37t34.5 -51.5t12 -58.5v-50z
M250 744h-94l-98 141h78l67 -95l67 95h78z" />
    <glyph glyph-name="scaron" unicode="&#x161;" horiz-adv-x="352"
d="M227 365q-1 26 -16.5 39t-35.5 13q-24 0 -37 -15.5t-13 -35.5q0 -14 7 -27.5t36 -24.5l60 -24q57 -22 78.5 -60t21.5 -83q0 -32 -11.5 -59.5t-31.5 -48.5t-48 -33t-61 -12q-30 0 -57 10t-47.5 29t-33.5 47.5t-14 66.5h96q3 -21 14.5 -39t40.5 -18q22 0 39.5 14.5
t17.5 40.5q0 21 -11 36t-40 26l-49 18q-48 18 -75.5 53.5t-27.5 86.5q0 32 12 59.5t32.5 47t47.5 30.5t58 11t57.5 -11.5t45.5 -31t30 -47t11 -58.5h-96zM223 574h-94l-98 141h78l67 -95l67 95h78z" />
    <glyph glyph-name="Ydieresis" unicode="&#x178;" horiz-adv-x="388"
d="M143 301l-140 411h108l82 -283h2l82 283h108l-140 -411v-301h-102v301zM68 858h90v-102h-90v102zM230 858h90v-102h-90v102z" />
    <glyph glyph-name="Zcaron" unicode="&#x17d;" horiz-adv-x="333"
d="M15 90l192 526h-182v96h293v-81l-196 -535h196v-96h-303v90zM214 744h-94l-98 141h78l67 -95l67 95h78z" />
    <glyph glyph-name="zcaron" unicode="&#x17e;" horiz-adv-x="315"
d="M17 81l165 336h-152v90h268v-81l-165 -330h165v-96h-281v81zM205 574h-94l-98 141h78l67 -95l67 95h78z" />
    <glyph glyph-name="florin" unicode="&#x192;" horiz-adv-x="372"
d="M56 451h84l23 128q8 43 21.5 70t31.5 42.5t40 21t46 5.5q14 0 29 -1t35 -3l-14 -92q-10 2 -19.5 4t-19.5 2q-26 0 -39 -15.5t-20 -58.5l-18 -103h77l-13 -80h-78l-71 -398q-7 -38 -17.5 -70.5t-28.5 -55.5t-45 -36t-67 -13q-17 0 -28.5 2t-24.5 6l11 94q18 -6 40 -6
q26 0 40 16t19 44l75 417h-80z" />
    <glyph glyph-name="circumflex" unicode="&#x2c6;" horiz-adv-x="186"
d="M46 715h94l98 -141h-78l-67 95l-67 -95h-78z" />
    <glyph glyph-name="caron" unicode="&#x2c7;" horiz-adv-x="186"
d="M140 574h-94l-98 141h78l67 -95l67 95h78z" />
    <glyph glyph-name="uni02C9" unicode="&#x2c9;" horiz-adv-x="186"
d="M-44 667h274v-60h-274v60z" />
    <glyph glyph-name="breve" unicode="&#x2d8;" horiz-adv-x="186"
d="M247 715q-21 -136 -154 -136t-154 136h51q2 -14 7.5 -27.5t17.5 -24.5t31 -17.5t47 -6.5t47 6.5t31 17.5t17.5 24.5t7.5 27.5h51z" />
    <glyph glyph-name="dotaccent" unicode="&#x2d9;" horiz-adv-x="186"
d="M48 688h90v-102h-90v102z" />
    <glyph glyph-name="ring" unicode="&#x2da;" horiz-adv-x="186"
d="M-9 660q0 21 8 39.5t22 32.5t32.5 22t39.5 8t39.5 -8t32.5 -22t22 -32.5t8 -39.5t-8 -39.5t-22 -32.5t-32.5 -22t-39.5 -8t-39.5 8t-32.5 22t-22 32.5t-8 39.5zM32 660q0 -26 17.5 -43.5t43.5 -17.5t43.5 17.5t17.5 43.5t-17.5 43.5t-43.5 17.5t-43.5 -17.5t-17.5 -43.5z
" />
    <glyph glyph-name="ogonek" unicode="&#x2db;" horiz-adv-x="186"
d="M195 -202q-15 -8 -39.5 -15t-57.5 -7q-42 0 -70.5 24.5t-28.5 66.5q0 24 7 43t20 34.5t29.5 28.5t36.5 27h51q-30 -29 -47 -62t-17 -64q0 -24 14.5 -38t34.5 -14q17 0 29.5 3.5t23.5 9.5z" />
    <glyph glyph-name="tilde" unicode="&#x2dc;" horiz-adv-x="186"
d="M263 699q-5 -23 -12 -43t-19 -35t-29 -24t-41 -9q-12 0 -32.5 6t-42.5 13.5t-41 14t-28 6.5q-21 0 -32 -12.5t-12 -32.5h-51q4 23 11.5 43t19.5 35t29 24t41 9q12 0 32.5 -6.5t42.5 -14t41.5 -13.5t27.5 -6q21 0 32 12.5t12 32.5h51z" />
    <glyph glyph-name="hungarumlaut" unicode="&#x2dd;" horiz-adv-x="186"
d="M36 715h108l-132 -141h-66zM198 715h108l-132 -141h-66z" />
    <glyph glyph-name="uni03A9" unicode="&#x3a9;" horiz-adv-x="455"
d="M110 92q-31 51 -54 127t-23 170q0 69 14 127.5t40 101t62.5 67t81.5 24.5q49 0 84.5 -27.5t58.5 -72t34 -100t11 -110.5q0 -48 -6.5 -93t-17.5 -85t-25 -72.5t-29 -56.5v-3h88v-89h-172v63q25 32 44.5 111t19.5 197q0 46 -5 90t-16 78t-29 54.5t-43 20.5q-24 0 -42.5 -18
t-30.5 -51t-18.5 -78t-6.5 -99t5.5 -102.5t14.5 -88.5t20.5 -69t23.5 -45v-63h-172v89h88v3z" />
    <glyph glyph-name="uni03BC" unicode="&#x3bc;" horiz-adv-x="389"
d="M347 0h-102v49h-2q-7 -14 -15.5 -24.5t-16.5 -17.5q-17 -13 -34 -13q-21 0 -31 10h-2v-209h-102v712h102v-351q0 -28 13 -44t37 -16q29 0 40 18t11 52v341h102v-507z" />
    <glyph glyph-name="pi" unicode="&#x3c0;" horiz-adv-x="422"
d="M357 430v-302q0 -48 2 -77.5t7 -50.5h-91q-13 32 -13 129v301h-88q-2 -39 -5.5 -94.5t-9 -114.5t-14 -117.5t-18.5 -103.5h-91q10 47 18 104.5t13.5 116t9 113t3.5 96.5q-25 0 -38.5 -2t-22.5 -5l-12 72q14 12 43 21t74 9h285l-6 -95h-46z" />
    <glyph glyph-name="endash" unicode="&#x2013;" horiz-adv-x="500"
d="M0 325h500v-96h-500v96z" />
    <glyph glyph-name="emdash" unicode="&#x2014;" horiz-adv-x="1000"
d="M0 325h1000v-96h-1000v96z" />
    <glyph glyph-name="quoteleft" unicode="&#x2018;" horiz-adv-x="186"
d="M144 536h-102v102l102 74v-176z" />
    <glyph glyph-name="quoteright" unicode="&#x2019;" horiz-adv-x="186"
d="M42 712h102v-102l-102 -74v176z" />
    <glyph glyph-name="quotesinglbase" unicode="&#x201a;" horiz-adv-x="186"
d="M42 102h102v-102l-102 -74v176z" />
    <glyph glyph-name="quotedblleft" unicode="&#x201c;" horiz-adv-x="278"
d="M260 536h-102v102l102 74v-176zM120 536h-102v102l102 74v-176z" />
    <glyph glyph-name="quotedblright" unicode="&#x201d;" horiz-adv-x="278"
d="M18 712h102v-102l-102 -74v176zM158 712h102v-102l-102 -74v176z" />
    <glyph glyph-name="quotedblbase" unicode="&#x201e;" horiz-adv-x="278"
d="M18 102h102v-102l-102 -74v176zM158 102h102v-102l-102 -74v176z" />
    <glyph glyph-name="dagger" unicode="&#x2020;"
d="M140 396h-134v90h134v226h90v-226h134v-90h-134v-601h-90v601z" />
    <glyph glyph-name="daggerdbl" unicode="&#x2021;"
d="M140 712h90v-218h134v-80h-134v-321h134v-80h-134v-218h-90v218h-134v80h134v321h-134v80h134v218z" />
    <glyph glyph-name="bullet" unicode="&#x2022;" horiz-adv-x="500"
d="M72 356q0 37 14 69.5t38 56.5t56.5 38t69.5 14t69.5 -14t56.5 -38t38 -56.5t14 -69.5t-14 -69.5t-38 -56.5t-56.5 -38t-69.5 -14t-69.5 14t-56.5 38t-38 56.5t-14 69.5z" />
    <glyph glyph-name="ellipsis" unicode="&#x2026;" horiz-adv-x="1000"
d="M116 102h102v-102h-102v102zM449 102h102v-102h-102v102zM782 102h102v-102h-102v102z" />
    <glyph glyph-name="perthousand" unicode="&#x2030;" horiz-adv-x="537"
d="M418 80q0 -11 7.5 -18.5t17.5 -7.5t17.5 7.5t7.5 18.5v51q0 11 -7.5 18.5t-17.5 7.5t-17.5 -7.5t-7.5 -18.5v-51zM358 135q0 38 23 60t62 22t62 -22t23 -60v-65q0 -34 -23 -55t-62 -21t-62 21t-23 55v65zM69 581q0 -11 7.5 -18.5t17.5 -7.5t17.5 7.5t7.5 18.5v51
q0 11 -7.5 18.5t-17.5 7.5t-17.5 -7.5t-7.5 -18.5v-51zM9 636q0 38 23 60t62 22t62 -22t23 -60v-65q0 -34 -23 -55t-62 -21t-62 21t-23 55v65zM225 80q0 -11 7.5 -18.5t17.5 -7.5t17.5 7.5t7.5 18.5v51q0 11 -7.5 18.5t-17.5 7.5t-17.5 -7.5t-7.5 -18.5v-51zM165 135
q0 38 23 60t62 22t62 -22t23 -60v-65q0 -34 -23 -55t-62 -21t-62 21t-23 55v65zM264 712h66l-244 -712h-66z" />
    <glyph glyph-name="guilsinglleft" unicode="&#x2039;" horiz-adv-x="241"
d="M213 377l-101 -100l101 -100v-102l-203 202l203 202v-102z" />
    <glyph glyph-name="guilsinglright" unicode="&#x203a;" horiz-adv-x="241"
d="M28 177l101 100l-101 100v102l203 -202l-203 -202v102z" />
    <glyph glyph-name="fraction" unicode="&#x2044;" horiz-adv-x="167"
d="M272 729h60l-437 -746h-60z" />
    <glyph glyph-name="Euro" unicode="&#x20ac;" horiz-adv-x="372"
d="M341 599q-11 11 -28.5 18t-47.5 7q-42 0 -64 -37.5t-27 -117.5h143l-20 -78h-128v-33v-34h111l-20 -79h-86q5 -85 28 -121.5t63 -36.5q30 0 47.5 6.5t28.5 17.5v-97q-10 -8 -33 -13.5t-62 -5.5q-72 0 -115.5 57.5t-54.5 192.5h-60l20 79h32q-1 7 -1 16v18v15.5t1 17.5
h-52l20 78h38q10 127 53.5 187.5t119.5 60.5q36 0 60 -7.5t34 -15.5v-95z" />
    <glyph glyph-name="afii61289" unicode="&#x2113;" horiz-adv-x="358"
d="M348 114q-25 -62 -60.5 -89t-77.5 -27q-39 0 -64.5 14.5t-41 38.5t-21.5 56t-6 68v15q-9 -9 -19 -19.5t-20 -20.5l-22 56q18 19 32.5 35t28.5 35v265q0 61 10.5 105t28.5 72.5t42 42t50 13.5q47 0 69.5 -45t22.5 -121q0 -85 -35 -170.5t-95 -166.5v-60q0 -72 15.5 -102
t44.5 -30q26 0 46 24t35 52zM170 374q35 59 57 122.5t22 120.5q0 40 -8.5 58.5t-28.5 18.5q-8 0 -15.5 -8t-13.5 -28t-9.5 -53.5t-3.5 -83.5v-147z" />
    <glyph glyph-name="trademark" unicode="&#x2122;" horiz-adv-x="990"
d="M166 646h-127v66h326v-66h-127v-346h-72v346zM805 646h-2l-137 -346h-41l-136 346h-2v-346h-72v412h114l117 -301l117 301h114v-412h-72v346z" />
    <glyph glyph-name="Omega" unicode="&#x2126;" horiz-adv-x="455"
d="M110 92q-31 51 -54 127t-23 170q0 69 14 127.5t40 101t62.5 67t81.5 24.5q49 0 84.5 -27.5t58.5 -72t34 -100t11 -110.5q0 -48 -6.5 -93t-17.5 -85t-25 -72.5t-29 -56.5v-3h88v-89h-172v63q25 32 44.5 111t19.5 197q0 46 -5 90t-16 78t-29 54.5t-43 20.5q-24 0 -42.5 -18
t-30.5 -51t-18.5 -78t-6.5 -99t5.5 -102.5t14.5 -88.5t20.5 -69t23.5 -45v-63h-172v89h88v3z" />
    <glyph glyph-name="estimated" unicode="&#x212e;" horiz-adv-x="873"
d="M187 346q-5 0 -5 -4v-197q0 -13 8 -23q48 -49 111 -78t135 -29q78 0 145 32.5t115 87.5h57q-54 -64 -137 -102t-181 -38q-83 0 -156 28.5t-127.5 77t-86 114t-31.5 140.5t31.5 141.5t86 115.5t127.5 77.5t156 28.5q84 0 157 -28.5t128 -77.5t86.5 -115.5t31.5 -141.5v-9
h-651zM690 570q0 14 -9 23q-48 47 -110.5 75t-134.5 28t-134.5 -29t-110.5 -77q-9 -9 -9 -25v-193q0 -7 5 -7h499q4 0 4 7v198z" />
    <glyph glyph-name="partialdiff" unicode="&#x2202;" horiz-adv-x="410"
d="M54 746q19 17 48.5 34t76.5 17q36 0 70.5 -20t61.5 -64.5t44 -115.5t17 -173q0 -212 -51 -318t-146 -106q-34 0 -60.5 18t-45 49.5t-28 73t-9.5 88.5q0 64 13.5 113.5t35.5 83.5t50.5 52t58.5 18q35 0 56.5 -18t30.5 -36h1v29q0 45 -8 87t-22.5 75t-35 53t-46.5 20
q-29 0 -50 -14.5t-37 -32.5zM186 93q19 0 34 21.5t25.5 56.5t17.5 79.5t9 90.5q-6 23 -22.5 44.5t-43.5 21.5q-18 0 -32.5 -15.5t-24.5 -41.5t-15.5 -59.5t-5.5 -68.5q0 -59 14.5 -94t41.5 -35h2z" />
    <glyph glyph-name="Delta" unicode="&#x2206;" horiz-adv-x="451"
d="M22 64l152 648h111l143 -645v-67h-406v64zM332 86l-67 296q-4 22 -9.5 46.5t-11 48.5t-10 46.5t-7.5 39.5h-1q-5 -33 -17 -78.5t-20 -91.5l-72 -307h215z" />
    <glyph glyph-name="product" unicode="&#x220f;" horiz-adv-x="513"
d="M425 599v-696h-97v696h-144v-696h-97v696h-64v100h466v-100h-64z" />
    <glyph glyph-name="summation" unicode="&#x2211;" horiz-adv-x="391"
d="M21 -97v75l170 326l-166 318v77h338v-88h-215v-3l149 -281l-170 -318v-3h249v-103h-355z" />
    <glyph glyph-name="minus" unicode="&#x2212;" horiz-adv-x="600"
d="M47 293h506v-80h-506v80z" />
    <glyph glyph-name="uni2215" unicode="&#x2215;" horiz-adv-x="167"
d="M272 729h60l-437 -746h-60z" />
    <glyph glyph-name="uni2219" unicode="&#x2219;" horiz-adv-x="186"
d="M29 298q0 26 19 45t45 19t45 -19t19 -45t-19 -45t-45 -19t-45 19t-19 45z" />
    <glyph glyph-name="radical" unicode="&#x221a;" horiz-adv-x="439"
d="M277 -137h-78l-103 443l-54 -21l-15 63l131 51l64 -294q5 -28 9 -55t6 -42l1 -1q2 15 4 43.5t7 57.5l119 734h65z" />
    <glyph glyph-name="infinity" unicode="&#x221e;" horiz-adv-x="635"
d="M597 289q0 -34 -11 -60.5t-29.5 -45t-42.5 -28.5t-49 -10q-37 0 -71 18.5t-74 73.5q-32 -40 -67.5 -66t-85.5 -26q-26 0 -49 10t-41 28.5t-28.5 44.5t-10.5 57t10 57.5t28 45.5t43 29.5t55 10.5q46 0 80 -24.5t66 -66.5q13 14 27.5 30t32 29.5t39.5 22.5t50 9
q27 0 50.5 -10t40.5 -28t27 -43.5t10 -56.5v-1zM176 202q34 0 60 24.5t52 55.5q-13 18 -25.5 34t-26 28t-29 19.5t-35.5 7.5q-37 0 -56 -25t-19 -62q0 -35 23 -58.5t55 -23.5h1zM463 371q-19 0 -35 -9t-30.5 -21.5t-26 -27t-21.5 -25.5q18 -23 32.5 -39.5t27.5 -27t26.5 -15
t30.5 -4.5t30 8t22 20t14 26.5t5 28.5q0 38 -20 62t-54 24h-1z" />
    <glyph glyph-name="integral" unicode="&#x222b;" horiz-adv-x="327"
d="M285 776q-5 3 -10.5 5t-13.5 2q-22 0 -36 -26q-12 -20 -16 -61.5t-4 -108.5q0 -61 1.5 -120t3.5 -118.5t3.5 -121.5t1.5 -128q0 -75 -7 -124t-22 -80q-16 -35 -44.5 -49.5t-58.5 -14.5q-19 0 -33 4t-22 9l14 80q5 -2 11.5 -5t16.5 -3q9 0 17.5 5t14.5 16q8 17 12.5 53.5
t4.5 104.5q0 67 -1.5 130t-3.5 124t-3.5 122t-1.5 124q0 44 2.5 78t8 60.5t14.5 46.5t21 37q16 21 42 33t53 12q14 0 26 -2.5t20 -6.5z" />
    <glyph glyph-name="approxequal" unicode="&#x2248;" horiz-adv-x="401"
d="M372 394q-14 -38 -40 -65t-61 -27q-20 0 -37.5 7.5t-42.5 24.5q-19 14 -32.5 22t-30.5 8q-24 0 -37.5 -19.5t-25.5 -42.5l-37 29q15 39 42.5 65t63.5 26q29 0 48 -11.5t32 -19.5q18 -12 32.5 -21t28.5 -9q21 0 34 18t26 44zM372 242q-14 -38 -40 -65t-61 -27
q-20 0 -37.5 7.5t-42.5 24.5q-19 14 -32.5 22t-30.5 8q-24 0 -38 -19.5t-25 -42.5l-37 28q15 40 42.5 65.5t63.5 25.5q29 0 48 -11t32 -19q19 -12 33 -21.5t28 -9.5q21 0 34 18.5t26 44.5z" />
    <glyph glyph-name="notequal" unicode="&#x2260;" horiz-adv-x="401"
d="M268 400h95v-62h-114l-44 -111h158v-61h-178l-34 -86l-46 15l28 71h-96v61h116l43 111h-159v62h179l34 87l46 -16z" />
    <glyph glyph-name="lessequal" unicode="&#x2264;" horiz-adv-x="401"
d="M41 301v67l319 193v-75l-264 -150v-2l264 -151v-75zM38 10v64h327v-64h-327z" />
    <glyph glyph-name="greaterequal" unicode="&#x2265;" horiz-adv-x="401"
d="M363 368v-66l-319 -194v75l263 151v2l-263 150v75zM39 10v64h326v-64h-326z" />
    <glyph glyph-name="lozenge" unicode="&#x25ca;" horiz-adv-x="438"
d="M257 -38h-83l-134 387l142 388h83l134 -388zM238 571q-5 17 -9 36.5t-6 34.5h-3q-3 -16 -6.5 -34t-8.5 -37l-76 -219l73 -230q5 -17 8 -36t5 -30h5l2.5 15t3.5 18.5t3.5 17.5t3.5 13l77 227z" />
    <glyph glyph-name="nine.alt" unicode="&#xe000;" horiz-adv-x="372"
d="M34 565q0 36 12.5 64t33.5 48t48.5 30.5t57.5 10.5t57.5 -10.5t48.5 -30.5t33.5 -48t12.5 -64v-418q0 -36 -12.5 -64t-33.5 -48t-48.5 -30.5t-57.5 -10.5t-57.5 10.5t-48.5 30.5t-33.5 48t-12.5 64h102q0 -22 14 -36.5t36 -14.5t36 14.5t14 36.5v96q-24 -11 -46 -17
t-48 -6q-27 0 -50 13t-36 33q-14 21 -18 42t-4 52v205zM136 361q0 -23 15 -37t35 -14t35 14t15 37v204q0 23 -15 37t-35 14t-35 -14t-15 -37v-204z" />
    <glyph glyph-name="six.alt" unicode="&#xe001;" horiz-adv-x="372"
d="M34 565q0 36 12.5 64t33.5 48t48.5 30.5t57.5 10.5t57.5 -10.5t48.5 -30.5t33.5 -48t12.5 -64h-102q0 22 -14 36.5t-36 14.5t-36 -14.5t-14 -36.5v-96q24 11 46 17t48 6q27 0 50 -13t36 -33q14 -21 18 -42t4 -52v-205q0 -36 -12.5 -64t-33.5 -48t-48.5 -30.5t-57.5 -10.5
t-57.5 10.5t-48.5 30.5t-33.5 48t-12.5 64v418zM136 147q0 -23 15 -37t35 -14t35 14t15 37v204q0 23 -15 37t-35 14t-35 -14t-15 -37v-204z" />
    <glyph glyph-name="f_i" unicode="&#xfb01;" horiz-adv-x="407"
d="M55 427h-50v80h50v69q0 37 11 62.5t29.5 42t42 24t48.5 7.5h47v-96h-46q-30 0 -30 -35v-74h76v-80h-76v-427h-102v427zM263 507h102v-507h-102v507zM263 712h102v-102h-102v102z" />
    <glyph glyph-name="f_l" unicode="&#xfb02;" horiz-adv-x="407"
d="M55 427h-50v80h50v69q0 37 11 62.5t29.5 42t42 24t48.5 7.5h47v-96h-46q-30 0 -30 -35v-74h76v-80h-76v-427h-102v427zM263 712h102v-569q0 -29 10.5 -39.5t39.5 -13.5v-96q-35 0 -63.5 5.5t-48 21t-30 43.5t-10.5 72v576z" />
    </font>
</defs>
</svg>
