<?xml version="1.0" standalone="no"?>
<!DOCTYPE svg PUBLIC "-//W3C//DTD SVG 1.1//EN" "http://www.w3.org/Graphics/SVG/1.1/DTD/svg11.dtd" >
<svg xmlns="http://www.w3.org/2000/svg" xmlns:xlink="http://www.w3.org/1999/xlink" version="1.1">
<metadata>
Created by FontForge 20190801 at Mon Apr 15 00:00:57 2019
 By Unknown
Copyright \(c\) 2019 by Lucas Descroix. All rights reserved.
</metadata>
<defs>
<font id="Nostrav1.0-Sett" horiz-adv-x="1200" >
  <font-face 
    font-family="Nostra v1.0 Sett"
    font-weight="900"
    font-stretch="extra-expanded"
    units-per-em="1000"
    panose-1="0 0 10 7 0 0 0 0 0 0"
    ascent="800"
    descent="-200"
    x-height="600"
    cap-height="700"
    bbox="-944 -20 1237 725"
    underline-thickness="40"
    underline-position="-60"
    stemh="390"
    stemv="600"
    unicode-range="U+0020-1F525"
  />
<missing-glyph 
d="M20 0v700h1160v-700h-1160zM600 371l332 139h-664zM220 211l329 138l-329 138v-276zM980 211v276l-329 -138zM272 190h656l-328 138z" />
    <glyph glyph-name=".notdef" 
d="M20 0v700h1160v-700h-1160zM600 371l332 139h-664zM220 211l329 138l-329 138v-276zM980 211v276l-329 -138zM272 190h656l-328 138z" />
    <glyph glyph-name="space" unicode=" " 
 />
    <glyph glyph-name="A" unicode="A" 
d="M630 0l-8 155h-44l-8 -155h-560l80 700h1020l80 -700h-560zM582 225h36l-12 235h-12z" />
    <glyph glyph-name="Aacute" unicode="&#xc1;" 
d="M931 715v-60l-665 -10v40zM630 0l-9 135h-42l-9 -135h-560l90 600h1000l90 -600h-560zM584 206h32l-10 154h-12z" />
    <glyph glyph-name="Abreve" unicode="&#x102;" 
d="M602 650c-303 0 -332 11 -344 65h40c10 -14 21 -15 304 -15s294 1 304 15h40c-12 -54 -41 -65 -344 -65zM630 0l-9 135h-42l-9 -135h-560l90 600h1000l90 -600h-560zM584 206h32l-10 154h-12z" />
    <glyph glyph-name="Acircumflex" unicode="&#xc2;" 
d="M930 645l-330 15l-330 -15v40l330 30l330 -30v-40zM630 0l-9 135h-42l-9 -135h-560l90 600h1000l90 -600h-560zM584 206h32l-10 154h-12z" />
    <glyph glyph-name="Adieresis" unicode="&#xc4;" 
d="M302 650c-23 0 -40 14 -40 33c0 18 17 32 40 32s41 -14 41 -32c0 -19 -18 -33 -41 -33zM897 650c-23 0 -40 14 -40 33c0 18 17 32 40 32s41 -14 41 -32c0 -19 -18 -33 -41 -33zM630 0l-9 135h-42l-9 -135h-560l90 600h1000l90 -600h-560zM584 206h32l-10 154h-12z" />
    <glyph glyph-name="Agrave" unicode="&#xc0;" 
d="M932 685v-40l-665 10v60zM630 0l-9 135h-42l-9 -135h-560l90 600h1000l90 -600h-560zM584 206h32l-10 154h-12z" />
    <glyph glyph-name="Amacron" unicode="&#x100;" 
d="M933 700v-55h-665v55h665zM630 0l-9 135h-42l-9 -135h-560l90 600h1000l90 -600h-560zM584 206h32l-10 154h-12z" />
    <glyph glyph-name="Aogonek" unicode="&#x104;" 
d="M1145 31c15 0 35 1 57 4l-6 -35c-15 -6 -37 -12 -67 -12c-82 0 -121 28 -121 67c0 19 8 34 28 45h-406l-9 135h-42l-9 -135h-560l90 600h1000l90 -600c-81 -5 -114 -15 -114 -39c0 -18 20 -30 69 -30zM584 306h32l-10 154h-12z" />
    <glyph glyph-name="Aring" unicode="&#xc5;" 
d="M603 602c-59 0 -87 15 -87 57c0 35 33 56 87 56c56 0 86 -19 86 -56c0 -42 -27 -57 -86 -57zM603 677c-33 0 -47 -5 -47 -18s15 -19 47 -19s46 6 46 19s-14 18 -46 18zM630 0l-9 135h-42l-9 -135h-560l90 600h392c21 -26 58 -38 109 -38s88 12 108 38h391l90 -600h-560z
M584 206h32l-10 154h-12z" />
    <glyph glyph-name="Atilde" unicode="&#xc3;" 
d="M478 665c-88 0 -155 -11 -181 -17l-10 38c31 9 103 29 191 29c90 0 140 -17 240 -17c88 0 155 10 181 17l10 -38c-31 -9 -103 -29 -191 -29c-111 0 -150 17 -240 17zM630 0l-9 135h-42l-9 -135h-560l90 600h1000l90 -600h-560zM584 206h32l-10 154h-12z" />
    <glyph glyph-name="AE" unicode="&#xc6;" 
d="M1179 418l-283 9l1 -41l231 -6v-60l-227 -6l1 -41l277 9v-282h-619l-9 180h-42l-9 -180h-460l60 700h1079v-282zM513 251h34l-11 209h-12z" />
    <glyph glyph-name="B" unicode="B" 
d="M675 329c343 -1 515 -9 515 -156c0 -143 -165 -173 -570 -173h-600v700h742c240 0 428 -13 428 -172c0 -149 -172 -157 -515 -158v-41zM634 548h-14v-152c33 2 51 20 51 90c0 47 -8 62 -37 62zM634 151c29 0 37 15 37 62c0 70 -18 88 -51 90v-152h14z" />
    <glyph glyph-name="C" unicode="C" 
d="M585 -15c-375 0 -575 96 -575 366c0 258 184 363 637 363c171 0 362 -15 533 -35l10 -320h-540c0 53 -7 73 -27 73c-29 0 -31 -45 -31 -90s2 -94 31 -94c19 0 27 20 27 71h540c0 -195 -153 -334 -605 -334z" />
    <glyph glyph-name="Cacute" unicode="&#x106;" 
d="M285 645v40l665 30v-60zM590 -15c-378 0 -580 87 -580 323c0 234 199 312 607 312c202 0 440 -21 563 -36l10 -263h-540c0 47 -7 73 -28 73c-28 0 -30 -47 -30 -91c0 -52 6 -73 30 -73c20 0 28 11 28 51h540c0 -176 -156 -296 -600 -296z" />
    <glyph glyph-name="Ccaron" unicode="&#x10c;" 
d="M619 645l-330 30v40l330 -15l330 15v-40zM590 -15c-378 0 -580 87 -580 323c0 234 199 312 607 312c202 0 440 -21 563 -36l10 -263h-540c0 47 -7 73 -28 73c-28 0 -30 -47 -30 -91c0 -52 6 -73 30 -73c20 0 28 11 28 51h540c0 -176 -156 -296 -600 -296z" />
    <glyph glyph-name="Ccedilla" unicode="&#xc7;" 
d="M622 325c20 0 28 11 28 51h540c0 -172 -149 -290 -570 -296l10 -67v-30h-60v30l10 67c-372 2 -570 89 -570 323s199 312 607 312c202 0 440 -21 563 -36l10 -263h-540c0 47 -7 73 -28 73c-28 0 -30 -47 -30 -91c0 -52 5 -73 30 -73z" />
    <glyph glyph-name="Cdotaccent" unicode="&#x10a;" 
d="M618 650c-53 0 -67 11 -67 33c0 21 14 32 67 32s68 -11 68 -32c0 -22 -15 -33 -68 -33zM590 -15c-378 0 -580 87 -580 323c0 234 199 312 607 312c202 0 440 -21 563 -36l10 -263h-540c0 47 -7 73 -28 73c-28 0 -30 -47 -30 -91c0 -52 6 -73 30 -73c20 0 28 11 28 51h540
c0 -176 -156 -296 -600 -296z" />
    <glyph glyph-name="D" unicode="D" 
d="M1190 347c0 -260 -153 -346 -590 -347h-580v700h580c433 -1 590 -89 590 -353zM613 266c22 0 37 19 37 82s-15 82 -37 82h-13v-164h13z" />
    <glyph glyph-name="Eth" unicode="&#xd0;" 
d="M1190 347c0 -260 -153 -346 -590 -347h-560v328h-40v40h40v332h560c433 -1 590 -89 590 -353zM613 266c22 0 37 19 37 82s-15 82 -37 82h-13v-164h13z" />
    <glyph glyph-name="Dcaron" unicode="&#x10e;" 
d="M880 675l-330 -30l-330 30v40l330 -15l330 15v-40zM1190 297c0 -240 -152 -297 -590 -297h-580v600h580c436 0 590 -61 590 -303zM613 216c22 0 37 19 37 82s-15 82 -37 82h-13v-164h13z" />
    <glyph glyph-name="Dcroat" unicode="&#x110;" 
d="M1190 347c0 -260 -153 -346 -590 -347h-560v328h-40v40h40v332h560c433 -1 590 -89 590 -353zM613 266c22 0 37 19 37 82s-15 82 -37 82h-13v-164h13z" />
    <glyph glyph-name="E" unicode="E" 
d="M1181 411l-561 10v-37l439 -4v-60l-439 -4v-37l560 10v-289h-1160v700h1161v-289z" />
    <glyph glyph-name="Eacute" unicode="&#xc9;" 
d="M931 715v-60l-665 -10v40zM1180 359l-564 10v-38l443 -8v-50l-443 -8v-38l564 10v-237h-1160v600h1160v-241z" />
    <glyph glyph-name="Ecaron" unicode="&#x11a;" 
d="M930 675l-330 -30l-330 30v40l330 -15l330 15v-40zM1180 359l-564 10v-38l443 -8v-50l-443 -8v-38l564 10v-237h-1160v600h1160v-241z" />
    <glyph glyph-name="Ecircumflex" unicode="&#xca;" 
d="M930 645l-330 15l-330 -15v40l330 30l330 -30v-40zM1180 359l-564 10v-38l443 -8v-50l-443 -8v-38l564 10v-237h-1160v600h1160v-241z" />
    <glyph glyph-name="Edieresis" unicode="&#xcb;" 
d="M302 650c-23 0 -40 14 -40 33c0 18 17 32 40 32s41 -14 41 -32c0 -19 -18 -33 -41 -33zM897 650c-23 0 -40 14 -40 33c0 18 17 32 40 32s41 -14 41 -32c0 -19 -18 -33 -41 -33zM1180 359l-564 10v-38l443 -8v-50l-443 -8v-38l564 10v-237h-1160v600h1160v-241z" />
    <glyph glyph-name="Edotaccent" unicode="&#x116;" 
d="M599 650c-53 0 -67 11 -67 33c0 21 14 32 67 32s68 -11 68 -32c0 -22 -15 -33 -68 -33zM1180 359l-564 10v-38l443 -8v-50l-443 -8v-38l564 10v-237h-1160v600h1160v-241z" />
    <glyph glyph-name="Egrave" unicode="&#xc8;" 
d="M932 685v-40l-665 10v60zM1180 359l-564 10v-38l443 -8v-50l-443 -8v-38l564 10v-237h-1160v600h1160v-241z" />
    <glyph glyph-name="Emacron" unicode="&#x112;" 
d="M933 700v-55h-665v55h665zM1180 359l-564 10v-38l443 -8v-50l-443 -8v-38l564 10v-237h-1160v600h1160v-241z" />
    <glyph glyph-name="Eogonek" unicode="&#x118;" 
d="M1135 31c15 0 35 1 57 4l-6 -35c-15 -6 -37 -12 -67 -12c-82 0 -121 28 -121 67c0 19 8 34 28 45h-1006v600h1160v-241l-564 10v-38l443 -8v-50l-443 -8v-38l564 10v-237c-81 -5 -114 -15 -114 -39c0 -18 20 -30 69 -30z" />
    <glyph glyph-name="F" unicode="F" 
d="M1180 411l-560 10v-33l449 -8v-180l-449 -8v-192h-600v700h1160v-289z" />
    <glyph glyph-name="G" unicode="G" 
d="M644 259v70h546l-10 -291c-139 -24 -364 -53 -577 -53c-415 0 -593 110 -593 365c0 259 186 365 627 365c180 0 424 -17 543 -30l10 -316h-540c0 44 -3 73 -26 73c-30 0 -32 -47 -32 -85c0 -133 31 -138 68 -138c35 0 56 13 60 40h-76z" />
    <glyph glyph-name="Gbreve" unicode="&#x11e;" 
d="M621 650c-303 0 -332 11 -344 65h40c10 -14 21 -15 304 -15s294 1 304 15h40c-12 -54 -41 -65 -344 -65zM644 209v70h546l-10 -236c-121 -25 -366 -58 -594 -58c-369 0 -576 81 -576 322c0 233 194 313 611 313c204 0 439 -21 559 -36l10 -265h-540c0 46 -3 75 -26 75
c-30 0 -32 -47 -32 -85c0 -125 21 -140 68 -140c35 0 56 13 60 40h-76z" />
    <glyph glyph-name="uni0122" unicode="&#x122;" 
d="M644 304v70h546l-10 -236c-121 -25 -366 -58 -594 -58c-369 0 -576 81 -576 322c0 233 194 313 611 313c204 0 439 -21 559 -36l10 -265h-540c0 46 -3 75 -26 75c-30 0 -32 -47 -32 -85c0 -125 21 -140 68 -140c35 0 56 13 60 40h-76zM447 25c133 0 134 1 134 35h75
c0 -74 -2 -75 -209 -75v40z" />
    <glyph glyph-name="Gdotaccent" unicode="&#x120;" 
d="M618 650c-53 0 -67 11 -67 33c0 21 14 32 67 32s68 -11 68 -32c0 -22 -15 -33 -68 -33zM644 209v70h546l-10 -236c-121 -25 -366 -58 -594 -58c-369 0 -576 81 -576 322c0 233 194 313 611 313c204 0 439 -21 559 -36l10 -265h-540c0 46 -3 75 -26 75
c-30 0 -32 -47 -32 -85c0 -125 21 -140 68 -140c35 0 56 13 60 40h-76z" />
    <glyph glyph-name="H" unicode="H" 
d="M620 700h560v-700h-560v315h-40v-315h-560v700h560v-315h40v315z" />
    <glyph glyph-name="Hbar" unicode="&#x126;" 
d="M1180 465v-40h-40v-425h-520v315h-40v-315h-520v425h-40v40h40v235h520v-235h40v235h520v-235h40zM620 385v40h-40v-40h40z" />
    <glyph glyph-name="I" unicode="I" 
d="M1180 420h-280v-140h280v-280h-1160v280h280v140h-280v280h1160v-280z" />
    <glyph glyph-name="Iacute" unicode="&#xcd;" 
d="M931 715v-60l-665 -10v40zM1180 320h-280v-40h280v-280h-1160v280h280v40h-280v280h1160v-280z" />
    <glyph glyph-name="Icircumflex" unicode="&#xce;" 
d="M930 645l-330 15l-330 -15v40l330 30l330 -30v-40zM1180 320h-280v-40h280v-280h-1160v280h280v40h-280v280h1160v-280z" />
    <glyph glyph-name="Idieresis" unicode="&#xcf;" 
d="M302 650c-23 0 -40 14 -40 33c0 18 17 32 40 32s41 -14 41 -32c0 -19 -18 -33 -41 -33zM897 650c-23 0 -40 14 -40 33c0 18 17 32 40 32s41 -14 41 -32c0 -19 -18 -33 -41 -33zM1180 320h-280v-40h280v-280h-1160v280h280v40h-280v280h1160v-280z" />
    <glyph glyph-name="Idotaccent" unicode="&#x130;" 
d="M599 650c-53 0 -67 11 -67 33c0 21 14 32 67 32s68 -11 68 -32c0 -22 -15 -33 -68 -33zM1180 320h-280v-40h280v-280h-1160v280h280v40h-280v280h1160v-280z" />
    <glyph glyph-name="Igrave" unicode="&#xcc;" 
d="M932 685v-40l-665 10v60zM1180 320h-280v-40h280v-280h-1160v280h280v40h-280v280h1160v-280z" />
    <glyph glyph-name="Imacron" unicode="&#x12a;" 
d="M933 700v-55h-665v55h665zM1180 320h-280v-40h280v-280h-1160v280h280v40h-280v280h1160v-280z" />
    <glyph glyph-name="Iogonek" unicode="&#x12e;" 
d="M1135 31c15 0 35 1 57 4l-6 -35c-15 -6 -37 -12 -67 -12c-82 0 -121 28 -121 67c0 19 8 34 28 45h-1006v280h280v40h-280v280h1160v-280h-280v-40h280v-280c-81 -5 -114 -15 -114 -39c0 -18 20 -30 69 -30z" />
    <glyph glyph-name="J" unicode="J" 
d="M1180 700v-317c0 -349 -324 -398 -611 -398c-225 0 -549 30 -549 30v265s102 -2 214 -2c317 0 346 16 346 103v39h-560v280h1160z" />
    <glyph glyph-name="K" unicode="K" 
d="M1190 700l-83 -350l83 -350h-540l-40 315h-10v-315h-580v700h580v-315h10l40 315h540z" />
    <glyph glyph-name="uni0136" unicode="&#x136;" 
d="M1190 700l-83 -311l83 -289h-540l-38 270h-12v-270h-580v600h580v-270h11l39 270h540zM453 25c133 0 134 1 134 35h75c0 -74 -2 -75 -209 -75v40z" />
    <glyph glyph-name="L" unicode="L" 
d="M620 319h560v-319h-1160v700h600v-381z" />
    <glyph glyph-name="Lacute" unicode="&#x139;" 
d="M684 715v-60l-665 -10v40zM620 319h560v-319h-1160v600h600v-281z" />
    <glyph glyph-name="Lcaron" unicode="&#x13d;" 
d="M620 319h560v-319h-1160v700h600v-381zM940 359h-40l-10 170v171h60v-171z" />
    <glyph glyph-name="uni013B" unicode="&#x13b;" 
d="M620 419h560v-319h-1160v600h600v-281zM428 25c133 0 134 1 134 35h75c0 -74 -2 -75 -209 -75v40z" />
    <glyph glyph-name="Ldot" unicode="&#x13f;" 
d="M620 319h560v-319h-1160v700h600v-381zM911 434c-63 0 -113 50 -113 113s50 113 113 113s113 -50 113 -113s-50 -113 -113 -113z" />
    <glyph glyph-name="Lslash" unicode="&#x141;" 
d="M620 319h560v-319h-1160v700h600v-266l213 56l12 -42l-225 -56v-73z" />
    <glyph glyph-name="M" unicode="M" 
d="M1190 0h-509l-29 434h-6l-24 -434h-45l-24 434h-6l-29 -434h-508l40 700h515l30 -514h10l29 514h516z" />
    <glyph glyph-name="N" unicode="N" 
d="M640 700h540v-700h-540l-70 434h-10v-434h-540v700h540l70 -434h10v434z" />
    <glyph glyph-name="Nacute" unicode="&#x143;" 
d="M931 715v-60l-665 -10v40zM637 600h543v-600h-543l-64 359h-10v-359h-543v600h543l64 -359h10v359z" />
    <glyph glyph-name="Ncaron" unicode="&#x147;" 
d="M930 675l-330 -30l-330 30v40l330 -15l330 15v-40zM637 600h543v-600h-543l-64 359h-10v-359h-543v600h543l64 -359h10v359z" />
    <glyph glyph-name="uni0145" unicode="&#x145;" 
d="M640 700h540v-600h-540l-70 354h-10v-354h-540v600h540l70 -364h10v364zM428 25c133 0 134 1 134 35h75c0 -74 -2 -75 -209 -75v40z" />
    <glyph glyph-name="Eng" unicode="&#x14a;" 
d="M640 700h540v-570c0 -110 -40 -140 -139 -140h-441v70c37 0 45 15 40 40l-70 371h-10v-471h-540v700h540l70 -375h10v375z" />
    <glyph glyph-name="Ntilde" unicode="&#xd1;" 
d="M478 665c-88 0 -155 -11 -181 -17l-10 38c31 9 103 29 191 29c90 0 140 -17 240 -17c88 0 155 10 181 17l10 -38c-31 -9 -103 -29 -191 -29c-111 0 -150 17 -240 17zM637 600h543v-600h-543l-64 359h-10v-359h-543v600h543l64 -359h10v359z" />
    <glyph glyph-name="O" unicode="O" 
d="M601 -15c-427 0 -591 109 -591 366c0 262 170 364 590 364c426 0 590 -105 590 -363s-163 -367 -589 -367zM602 238c16 0 26 8 26 116c0 99 -9 108 -27 108s-27 -9 -27 -109c0 -104 9 -115 28 -115z" />
    <glyph glyph-name="Oacute" unicode="&#xd3;" 
d="M266 645v40l665 30v-60zM600 -15c-429 0 -590 107 -590 317c0 213 167 318 590 318c426 0 590 -106 590 -318c0 -210 -161 -317 -590 -317zM601 226c12 0 25 9 25 82s-13 82 -25 82c-13 0 -25 -9 -25 -82s12 -82 25 -82z" />
    <glyph glyph-name="Ocircumflex" unicode="&#xd4;" 
d="M270 645v40l330 30l330 -30v-40l-330 15zM600 -15c-429 0 -590 107 -590 317c0 213 167 318 590 318c426 0 590 -106 590 -318c0 -210 -161 -317 -590 -317zM601 226c12 0 25 9 25 82s-13 82 -25 82c-13 0 -25 -9 -25 -82s12 -82 25 -82z" />
    <glyph glyph-name="Odieresis" unicode="&#xd6;" 
d="M302 650c-23 0 -40 14 -40 33c0 18 17 32 40 32s41 -14 41 -32c0 -19 -18 -33 -41 -33zM897 650c-23 0 -40 14 -40 33c0 18 17 32 40 32s41 -14 41 -32c0 -19 -18 -33 -41 -33zM600 -15c-429 0 -590 107 -590 317c0 213 167 318 590 318c426 0 590 -106 590 -318
c0 -210 -161 -317 -590 -317zM601 226c12 0 25 9 25 82s-13 82 -25 82c-13 0 -25 -9 -25 -82s12 -82 25 -82z" />
    <glyph glyph-name="Ograve" unicode="&#xd2;" 
d="M932 645l-665 10v60l665 -30v-40zM600 -15c-429 0 -590 107 -590 317c0 213 167 318 590 318c426 0 590 -106 590 -318c0 -210 -161 -317 -590 -317zM601 226c12 0 25 9 25 82s-13 82 -25 82c-13 0 -25 -9 -25 -82s12 -82 25 -82z" />
    <glyph glyph-name="Ohungarumlaut" unicode="&#x150;" 
d="M177 645v40l403 30v-60zM620 645v40l403 30v-60zM600 -15c-429 0 -590 107 -590 317c0 213 167 318 590 318c426 0 590 -106 590 -318c0 -210 -161 -317 -590 -317zM601 226c12 0 25 9 25 82s-13 82 -25 82c-13 0 -25 -9 -25 -82s12 -82 25 -82z" />
    <glyph glyph-name="Omacron" unicode="&#x14c;" 
d="M268 645v55h665v-55h-665zM600 -15c-429 0 -590 107 -590 317c0 213 167 318 590 318c426 0 590 -106 590 -318c0 -210 -161 -317 -590 -317zM601 226c12 0 25 9 25 82s-13 82 -25 82c-13 0 -25 -9 -25 -82s12 -82 25 -82z" />
    <glyph glyph-name="Oslash" unicode="&#xd8;" 
d="M1019 598c120 -52 171 -138 171 -256c0 -210 -161 -317 -590 -317c-166 0 -292 16 -384 48l-81 -88l-40 40l74 67c-112 52 -159 136 -159 250c0 213 167 318 590 318c160 0 282 -15 373 -45l92 100l40 -40zM601 266c12 0 25 9 25 82s-13 82 -25 82c-13 0 -25 -9 -25 -82
s12 -82 25 -82z" />
    <glyph glyph-name="Otilde" unicode="&#xd5;" 
d="M297 648l-10 38c31 9 103 29 191 29c90 0 140 -17 240 -17c88 0 155 10 181 17l10 -38c-31 -9 -103 -29 -191 -29c-111 0 -150 17 -240 17c-88 0 -155 -11 -181 -17zM600 -15c-429 0 -590 107 -590 317c0 213 167 318 590 318c426 0 590 -106 590 -318
c0 -210 -161 -317 -590 -317zM601 226c12 0 25 9 25 82s-13 82 -25 82c-13 0 -25 -9 -25 -82s12 -82 25 -82z" />
    <glyph glyph-name="OE" unicode="&#x152;" 
d="M1180 411l-281 4c1 -11 1 -22 1 -33l229 -3v-58l-229 -3c0 -12 -1 -23 -1 -34l281 4v-288h-502c-46 -7 -101 -11 -167 -11c-316 0 -501 81 -501 364c0 282 185 362 498 362c78 0 140 -5 190 -15h482v-289zM495 248c12 0 25 9 25 102s-13 102 -25 102
c-13 0 -25 -9 -25 -102s12 -102 25 -102z" />
    <glyph glyph-name="P" unicode="P" 
d="M687 700c374 0 503 -58 503 -225c0 -182 -155 -249 -540 -249h-40v-226h-590v700h667zM613 296c22 0 47 25 47 90c0 51 -15 74 -37 74h-13v-164h3z" />
    <glyph glyph-name="Thorn" unicode="&#xde;" 
d="M1190 369c0 -225 -172 -273 -580 -274v-95h-590v700h590v-95c409 0 580 -26 580 -236zM613 268c22 0 47 29 47 82c0 63 -15 82 -37 82h-13v-164h3z" />
    <glyph glyph-name="Q" unicode="Q" 
d="M601 67c-427 0 -591 93 -591 320c0 226 164 328 591 328c425 0 589 -102 589 -328c0 -227 -164 -320 -589 -320zM600 288c13 0 28 11 28 92c0 77 -14 86 -27 86c-14 0 -27 -9 -27 -86c0 -85 16 -92 26 -92zM541 -15v40l514 10v-50h-514z" />
    <glyph glyph-name="R" unicode="R" 
d="M1190 475c0 -77 -28 -133 -89 -173l78 -302h-509l-26 226h-34v-226h-590v700h667c374 0 503 -58 503 -225zM613 296c22 0 47 25 47 90c0 51 -15 74 -37 74h-13v-164h3z" />
    <glyph glyph-name="Racute" unicode="&#x154;" 
d="M941 715v-60l-665 -10v40zM1190 405c0 -69 -24 -116 -87 -148l76 -257h-509l-31 200h-29v-200h-590v600h590c449 0 580 -33 580 -195zM613 226c22 0 47 29 47 82c0 63 -15 82 -37 82h-13v-164h3z" />
    <glyph glyph-name="Rcaron" unicode="&#x158;" 
d="M940 675l-330 -30l-330 30v40l330 -15l330 15v-40zM1190 405c0 -69 -24 -116 -87 -148l76 -257h-509l-31 200h-29v-200h-590v600h590c449 0 580 -33 580 -195zM613 226c22 0 47 29 47 82c0 63 -15 82 -37 82h-13v-164h3z" />
    <glyph glyph-name="uni0156" unicode="&#x156;" 
d="M1190 508c0 -69 -28 -116 -87 -149l76 -259h-509l-31 200h-29v-200h-590v600h664c375 0 506 -45 506 -192zM613 326c22 0 47 25 47 90c0 51 -15 74 -37 74h-13v-164h3zM468 25c133 0 134 1 134 35h75c0 -74 -2 -75 -209 -75v40z" />
    <glyph glyph-name="S" unicode="S" 
d="M593 -15c-217 0 -475 39 -563 68v303c93 -57 213 -84 366 -84c88 0 176 9 246 29l-6 26c-77 -10 -167 -18 -248 -18c-235 0 -378 68 -378 180c0 160 229 226 591 226c271 0 526 -49 569 -68v-301c-92 56 -209 84 -366 84c-84 0 -173 -8 -256 -29l6 -26
c83 11 177 18 258 18c245 0 378 -65 378 -191c0 -155 -205 -217 -597 -217z" />
    <glyph glyph-name="Sacute" unicode="&#x15a;" 
d="M296 645v40l665 30v-60zM593 -15c-185 0 -400 19 -573 45v258c76 -39 235 -68 377 -68c84 0 188 14 245 33l-6 26c-69 -14 -168 -24 -239 -24c-244 0 -387 56 -387 178c0 141 159 187 647 187c164 0 344 -15 523 -44v-248c-77 34 -235 59 -377 59
c-87 0 -195 -14 -255 -34l6 -26c70 14 175 25 249 25c254 0 387 -62 387 -180c0 -145 -135 -187 -597 -187z" />
    <glyph glyph-name="Scaron" unicode="&#x160;" 
d="M630 645l-330 30v40l330 -15l330 15v-40zM593 -15c-185 0 -400 19 -573 45v258c76 -39 235 -68 377 -68c84 0 188 14 245 33l-6 26c-69 -14 -168 -24 -239 -24c-244 0 -387 56 -387 178c0 141 159 187 647 187c164 0 344 -15 523 -44v-248c-77 34 -235 59 -377 59
c-87 0 -195 -14 -255 -34l6 -26c70 14 175 25 249 25c254 0 387 -62 387 -180c0 -145 -135 -187 -597 -187z" />
    <glyph glyph-name="Scedilla" unicode="&#x15e;" 
d="M1190 267c0 -142 -129 -185 -568 -187l8 -54v-30h-60v30l8 54c-182 1 -390 20 -558 45v258c76 -39 235 -68 377 -68c84 0 188 14 245 33l-6 26c-69 -14 -168 -24 -239 -24c-244 0 -387 56 -387 178c0 141 159 187 647 187c164 0 344 -15 523 -44v-248
c-77 34 -235 59 -377 59c-87 0 -195 -14 -255 -34l6 -26c70 14 175 25 249 25c254 0 387 -62 387 -180z" />
    <glyph glyph-name="uni0218" unicode="&#x218;" 
d="M593 80c-185 0 -400 19 -573 45v258c76 -39 235 -68 377 -68c84 0 188 14 245 33l-6 26c-69 -14 -168 -24 -239 -24c-244 0 -387 56 -387 178c0 141 159 187 647 187c164 0 344 -15 523 -44v-248c-77 34 -235 59 -377 59c-87 0 -195 -14 -255 -34l6 -26
c70 14 175 25 249 25c254 0 387 -62 387 -180c0 -145 -135 -187 -597 -187zM454 -15v40c133 0 134 1 134 35h75c0 -74 -2 -75 -209 -75z" />
    <glyph glyph-name="uni1E9E" unicode="&#x1e9e;" 
d="M699 329c277 0 491 -1 491 -157c0 -135 -160 -172 -570 -172v228v101v40v133c0 45 -20 46 -40 46v-548h-560v700h1160v-132c0 -127 -65 -198 -481 -198v-41z" />
    <glyph glyph-name="T" unicode="T" 
d="M1180 700v-390h-280v-310h-600v310h-280v390h1160z" />
    <glyph glyph-name="Tbar" unicode="&#x166;" 
d="M1180 310h-280v-40h280v-40h-280v-230h-600v230h-280v40h280v40h-280v390h1160v-390z" />
    <glyph glyph-name="Tcaron" unicode="&#x164;" 
d="M930 675l-330 -30l-330 30v40l330 -15l330 15v-40zM1180 600v-390h-280v-210h-600v210h-280v390h1160z" />
    <glyph glyph-name="uni0162" unicode="&#x162;" 
d="M1180 700v-390h-280v-210h-280l10 -69v-30h-60v30l10 69h-280v210h-280v390h1160z" />
    <glyph glyph-name="uni021A" unicode="&#x21a;" 
d="M1180 700v-390h-280v-210h-600v210h-280v390h1160zM433 25c133 0 134 1 134 35h75c0 -74 -2 -75 -209 -75v40z" />
    <glyph glyph-name="U" unicode="U" 
d="M600 -15c-441 0 -580 96 -580 398v317h560v-417c0 -43 7 -52 20 -52c12 0 20 9 20 52v417h560v-317c0 -302 -140 -398 -580 -398z" />
    <glyph glyph-name="Uacute" unicode="&#xda;" 
d="M266 645v40l665 30v-60zM600 -15c-441 0 -580 106 -580 378v237h560v-297c0 -63 7 -72 20 -72c12 0 20 9 20 72v297h560v-237c0 -272 -140 -378 -580 -378z" />
    <glyph glyph-name="Ucircumflex" unicode="&#xdb;" 
d="M270 645v40l330 30l330 -30v-40l-330 15zM600 -15c-441 0 -580 106 -580 378v237h560v-297c0 -63 7 -72 20 -72c12 0 20 9 20 72v297h560v-237c0 -272 -140 -378 -580 -378z" />
    <glyph glyph-name="Udieresis" unicode="&#xdc;" 
d="M302 650c-23 0 -40 14 -40 33c0 18 17 32 40 32s41 -14 41 -32c0 -19 -18 -33 -41 -33zM897 650c-23 0 -40 14 -40 33c0 18 17 32 40 32s41 -14 41 -32c0 -19 -18 -33 -41 -33zM600 -15c-441 0 -580 106 -580 378v237h560v-297c0 -63 7 -72 20 -72c12 0 20 9 20 72v297
h560v-237c0 -272 -140 -378 -580 -378z" />
    <glyph glyph-name="Ugrave" unicode="&#xd9;" 
d="M932 645l-665 10v60l665 -30v-40zM600 -15c-441 0 -580 106 -580 378v237h560v-297c0 -63 7 -72 20 -72c12 0 20 9 20 72v297h560v-237c0 -272 -140 -378 -580 -378z" />
    <glyph glyph-name="Uhungarumlaut" unicode="&#x170;" 
d="M177 645v40l403 30v-60zM620 645v40l403 30v-60zM600 -15c-441 0 -580 106 -580 378v237h560v-297c0 -63 7 -72 20 -72c12 0 20 9 20 72v297h560v-237c0 -272 -140 -378 -580 -378z" />
    <glyph glyph-name="Umacron" unicode="&#x16a;" 
d="M268 645v55h665v-55h-665zM600 -15c-441 0 -580 106 -580 378v237h560v-297c0 -63 7 -72 20 -72c12 0 20 9 20 72v297h560v-237c0 -272 -140 -378 -580 -378z" />
    <glyph glyph-name="Uogonek" unicode="&#x172;" 
d="M620 700h560v-237c0 -137 -35 -232 -127 -292c-65 -51 -87 -80 -87 -108c0 -25 20 -35 69 -35c15 0 35 1 57 4l-6 -35c-15 -6 -37 -12 -67 -12c-82 0 -121 28 -121 67c0 24 14 46 45 70c-86 -26 -198 -37 -343 -37c-441 0 -580 106 -580 378v237h560v-297
c0 -63 7 -72 20 -72c12 0 20 9 20 72v297z" />
    <glyph glyph-name="Uring" unicode="&#x16e;" 
d="M602 602c-59 0 -87 15 -87 57c0 35 33 56 87 56c56 0 86 -19 86 -56c0 -42 -27 -57 -86 -57zM602 640c32 0 46 6 46 19s-14 18 -46 18c-33 0 -47 -5 -47 -18s15 -19 47 -19zM600 -15c-441 0 -580 106 -580 378v237h472c18 -22 48 -34 88 -37v-260c0 -55 4 -72 19 -72
s21 17 21 72v260c41 2 71 14 89 37h471v-237c0 -272 -140 -378 -580 -378z" />
    <glyph glyph-name="V" unicode="V" 
d="M630 700h560l-120 -700h-940l-120 700h560l25 -480h10z" />
    <glyph glyph-name="W" unicode="W" 
d="M681 700h509l-60 -700h-499l-27 459h-9l-37 -459h-488l-60 700h508l25 -434h10l24 324h45l18 -324h10z" />
    <glyph glyph-name="Wacute" unicode="&#x1e82;" 
d="M931 715v-60l-665 -10v40zM681 600h509l-70 -600h-489l-27 371h-9l-37 -371h-478l-70 600h508l26 -397h9l24 304h45l18 -304h8z" />
    <glyph glyph-name="Wcircumflex" unicode="&#x174;" 
d="M930 645l-330 15l-330 -15v40l330 30l330 -30v-40zM681 600h509l-70 -600h-489l-27 371h-9l-37 -371h-478l-70 600h508l26 -397h9l24 304h45l18 -304h8z" />
    <glyph glyph-name="Wdieresis" unicode="&#x1e84;" 
d="M302 650c-23 0 -40 14 -40 33c0 18 17 32 40 32s41 -14 41 -32c0 -19 -18 -33 -41 -33zM897 650c-23 0 -40 14 -40 33c0 18 17 32 40 32s41 -14 41 -32c0 -19 -18 -33 -41 -33zM681 600h509l-70 -600h-489l-27 371h-9l-37 -371h-478l-70 600h508l26 -397h9l24 304h45
l18 -304h8z" />
    <glyph glyph-name="Wgrave" unicode="&#x1e80;" 
d="M932 685v-40l-665 10v60zM681 600h509l-70 -600h-489l-27 371h-9l-37 -371h-478l-70 600h508l26 -397h9l24 304h45l18 -304h8z" />
    <glyph glyph-name="X" unicode="X" 
d="M1190 700l-82 -361l82 -339h-558l-27 302h-10l-27 -302h-558l82 339l-82 361h558l27 -328h10l27 328h558z" />
    <glyph glyph-name="Y" unicode="Y" 
d="M1190 700l-289 -562v-138h-600v136l-291 564h558l26 -300h14l24 300h558z" />
    <glyph glyph-name="Yacute" unicode="&#xdd;" 
d="M931 715v-60l-665 -10v40zM1190 600l-290 -488v-112h-598v110l-292 490h558l26 -247h12l26 247h558z" />
    <glyph glyph-name="Ycircumflex" unicode="&#x176;" 
d="M930 645l-330 15l-330 -15v40l330 30l330 -30v-40zM1190 600l-290 -488v-112h-598v110l-292 490h558l26 -247h12l26 247h558z" />
    <glyph glyph-name="Ydieresis" unicode="&#x178;" 
d="M302 650c-23 0 -40 14 -40 33c0 18 17 32 40 32s41 -14 41 -32c0 -19 -18 -33 -41 -33zM897 650c-23 0 -40 14 -40 33c0 18 17 32 40 32s41 -14 41 -32c0 -19 -18 -33 -41 -33zM1190 600l-290 -488v-112h-598v110l-292 490h558l26 -247h12l26 247h558z" />
    <glyph glyph-name="Ygrave" unicode="&#x1ef2;" 
d="M932 685v-40l-665 10v60zM1190 600l-290 -488v-112h-598v110l-292 490h558l26 -247h12l26 247h558z" />
    <glyph glyph-name="Z" unicode="Z" 
d="M20 -1v349l647 63v10l-647 -11v290h1157v-348l-642 -64v-9l645 11v-291h-1160z" />
    <glyph glyph-name="Zacute" unicode="&#x179;" 
d="M266 645v40l665 30v-60zM20 -1v261l697 99v10l-697 -59v290h1160v-261l-695 -109v-10l695 69v-290h-1160z" />
    <glyph glyph-name="Zcaron" unicode="&#x17d;" 
d="M600 645l-330 30v40l330 -15l330 15v-40zM20 -1v261l697 99v10l-697 -59v290h1160v-261l-695 -109v-10l695 69v-290h-1160z" />
    <glyph glyph-name="Zdotaccent" unicode="&#x17b;" 
d="M599 650c-53 0 -67 11 -67 33c0 21 14 32 67 32s68 -11 68 -32c0 -22 -15 -33 -68 -33zM20 -1v261l697 99v10l-697 -59v290h1160v-261l-695 -109v-10l695 69v-290h-1160z" />
    <glyph glyph-name="A.ext-l" 
d="M630 0l-8 155h-44l-8 -155h-595l90 700h1045l80 -700h-560zM582 225h36l-12 235h-12z" />
    <glyph glyph-name="Aacute.ext-l" 
d="M913 715v-60l-665 -10v40zM613 0l-9 135h-42l-9 -135h-578l80 600h1045l90 -600h-577zM567 206h32l-10 154h-12z" />
    <glyph glyph-name="Abreve.ext-l" 
d="M584 650c-303 0 -332 11 -344 65h40c10 -14 21 -15 304 -15s294 1 304 15h40c-12 -54 -41 -65 -344 -65zM613 0l-9 135h-42l-9 -135h-578l80 600h1045l90 -600h-577zM567 206h32l-10 154h-12z" />
    <glyph glyph-name="Acircumflex.ext-l" 
d="M912 645l-330 15l-330 -15v40l330 30l330 -30v-40zM613 0l-9 135h-42l-9 -135h-578l80 600h1045l90 -600h-577zM567 206h32l-10 154h-12z" />
    <glyph glyph-name="Adieresis.ext-l" 
d="M284 650c-23 0 -40 14 -40 33c0 18 17 32 40 32s41 -14 41 -32c0 -19 -18 -33 -41 -33zM879 650c-23 0 -40 14 -40 33c0 18 17 32 40 32s41 -14 41 -32c0 -19 -18 -33 -41 -33zM613 0l-9 135h-42l-9 -135h-578l80 600h1045l90 -600h-577zM567 206h32l-10 154h-12z" />
    <glyph glyph-name="Agrave.ext-l" 
d="M914 685v-40l-665 10v60zM613 0l-9 135h-42l-9 -135h-578l80 600h1045l90 -600h-577zM567 206h32l-10 154h-12z" />
    <glyph glyph-name="Amacron.ext-l" 
d="M915 700v-55h-665v55h665zM613 0l-9 135h-42l-9 -135h-578l80 600h1045l90 -600h-577zM567 206h32l-10 154h-12z" />
    <glyph glyph-name="Aogonek.ext-l" 
d="M1145 31c15 0 35 1 57 4l-6 -35c-15 -6 -37 -12 -67 -12c-82 0 -121 28 -121 67c0 19 8 34 28 45h-423l-9 135h-42l-9 -135h-578l80 600h1045l90 -600c-81 -5 -114 -15 -114 -39c0 -18 20 -30 69 -30zM567 306h32l-10 154h-12z" />
    <glyph glyph-name="Aring.ext-l" 
d="M586 602c-59 0 -87 15 -87 57c0 35 33 56 87 56c56 0 86 -19 86 -56c0 -42 -27 -57 -86 -57zM586 677c-33 0 -47 -5 -47 -18s15 -19 47 -19s46 6 46 19s-14 18 -46 18zM613 0l-9 135h-42l-9 -135h-578l80 600h420c21 -26 58 -38 109 -38s88 12 108 38h408l90 -600h-577z
M567 206h32l-10 154h-12z" />
    <glyph glyph-name="Atilde.ext-l" 
d="M460 665c-88 0 -155 -11 -181 -17l-10 38c31 9 103 29 191 29c90 0 140 -17 240 -17c88 0 155 10 181 17l10 -38c-31 -9 -103 -29 -191 -29c-111 0 -150 17 -240 17zM613 0l-9 135h-42l-9 -135h-578l80 600h1045l90 -600h-577zM567 206h32l-10 154h-12z" />
    <glyph glyph-name="AE.ext-l" 
d="M1179 418l-283 9l1 -41l231 -6v-60l-227 -6l1 -41l277 9v-282h-619l-9 180h-42l-9 -180h-525l90 700h1114v-282zM513 251h34l-11 209h-12z" />
    <glyph glyph-name="M.ext-l" 
d="M1190 0h-509l-29 434h-10l-20 -434h-45l-20 434h-10l-29 -434h-543l90 700h500l30 -514h10l29 514h516z" />
    <glyph glyph-name="V.ext-l" 
d="M627 700h563l-120 -700h-985l-90 700h572l25 -480h10z" />
    <glyph glyph-name="W.ext-l" 
d="M681 700h509l-60 -700h-499l-27 459h-9l-37 -459h-473l-90 700h523l25 -434h10l24 324h45l18 -324h10z" />
    <glyph glyph-name="X.ext-l" 
d="M1190 700l-82 -361l82 -339h-588l-27 291h-10l-27 -291h-567l82 339l-83 361h568l27 -317h10l27 317h588z" />
    <glyph glyph-name="Y.ext-l" 
d="M1190 700l-279 -542v-158h-700v158l-241 542h553l26 -300h14l24 300h603z" />
    <glyph glyph-name="Yacute.ext-l" 
d="M921 715v-60l-665 -10v40zM1190 600l-290 -488v-112h-598v109l-322 491h578l26 -247h12l26 247h568z" />
    <glyph glyph-name="Ycircumflex.ext-l" 
d="M920 645l-330 15l-330 -15v40l330 30l330 -30v-40zM1190 600l-290 -488v-112h-598v109l-322 491h578l26 -247h12l26 247h568z" />
    <glyph glyph-name="Ydieresis.ext-l" 
d="M292 650c-23 0 -40 14 -40 33c0 18 17 32 40 32s41 -14 41 -32c0 -19 -18 -33 -41 -33zM887 650c-23 0 -40 14 -40 33c0 18 17 32 40 32s41 -14 41 -32c0 -19 -18 -33 -41 -33zM1190 600l-290 -488v-112h-598v109l-322 491h578l26 -247h12l26 247h568z" />
    <glyph glyph-name="Ygrave.ext-l" 
d="M922 685v-40l-665 10v60zM1190 600l-290 -488v-112h-598v109l-322 491h578l26 -247h12l26 247h568z" />
    <glyph glyph-name="A.ext-lr" 
d="M630 0l-8 155h-44l-8 -155h-595l90 700h1070l90 -700h-595zM582 225h36l-12 235h-12z" />
    <glyph glyph-name="Aacute.ext-lr" 
d="M931 715v-60l-665 -10v40zM630 0l-9 135h-42l-9 -135h-595l80 600h1080l90 -600h-595zM584 206h32l-10 154h-12z" />
    <glyph glyph-name="Abreve.ext-lr" 
d="M602 650c-303 0 -332 11 -344 65h40c10 -14 21 -15 304 -15s294 1 304 15h40c-12 -54 -41 -65 -344 -65zM630 0l-9 135h-42l-9 -135h-595l80 600h1080l90 -600h-595zM584 206h32l-10 154h-12z" />
    <glyph glyph-name="Acircumflex.ext-lr" 
d="M930 645l-330 15l-330 -15v40l330 30l330 -30v-40zM630 0l-9 135h-42l-9 -135h-595l80 600h1080l90 -600h-595zM584 206h32l-10 154h-12z" />
    <glyph glyph-name="Adieresis.ext-lr" 
d="M302 650c-23 0 -40 14 -40 33c0 18 17 32 40 32s41 -14 41 -32c0 -19 -18 -33 -41 -33zM897 650c-23 0 -40 14 -40 33c0 18 17 32 40 32s41 -14 41 -32c0 -19 -18 -33 -41 -33zM630 0l-9 135h-42l-9 -135h-595l80 600h1080l90 -600h-595zM584 206h32l-10 154h-12z" />
    <glyph glyph-name="Agrave.ext-lr" 
d="M932 685v-40l-665 10v60zM630 0l-9 135h-42l-9 -135h-595l80 600h1080l90 -600h-595zM584 206h32l-10 154h-12z" />
    <glyph glyph-name="Amacron.ext-lr" 
d="M933 700v-55h-665v55h665zM630 0l-9 135h-42l-9 -135h-595l80 600h1080l90 -600h-595zM584 206h32l-10 154h-12z" />
    <glyph glyph-name="Aogonek.ext-lr" 
d="M1180 31c15 0 35 1 57 4l-6 -35c-15 -6 -37 -12 -67 -12c-82 0 -121 28 -121 67c0 19 8 34 28 45h-441l-9 135h-42l-9 -135h-595l80 600h1080l90 -600c-81 -5 -114 -15 -114 -39c0 -18 20 -30 69 -30zM584 306h32l-10 154h-12z" />
    <glyph glyph-name="Aring.ext-lr" 
d="M603 602c-59 0 -87 15 -87 57c0 35 33 56 87 56c56 0 86 -19 86 -56c0 -42 -27 -57 -86 -57zM603 677c-33 0 -47 -5 -47 -18s15 -19 47 -19s46 6 46 19s-14 18 -46 18zM630 0l-9 135h-42l-9 -135h-595l80 600h437c21 -26 58 -38 109 -38s88 12 108 38h426l90 -600h-595z
M584 206h32l-10 154h-12z" />
    <glyph glyph-name="Atilde.ext-lr" 
d="M478 665c-88 0 -155 -11 -181 -17l-10 38c31 9 103 29 191 29c90 0 140 -17 240 -17c88 0 155 10 181 17l10 -38c-31 -9 -103 -29 -191 -29c-111 0 -150 17 -240 17zM630 0l-9 135h-42l-9 -135h-595l80 600h1080l90 -600h-595zM584 206h32l-10 154h-12z" />
    <glyph glyph-name="M.ext-lr" 
d="M1214 0h-533l-29 434h-10l-20 -434h-45l-20 434h-10l-29 -434h-543l90 700h500l30 -514h10l29 514h490z" />
    <glyph glyph-name="V.ext-lr" 
d="M630 700h575l-90 -700h-1030l-90 700h575l25 -480h10z" />
    <glyph glyph-name="W.ext-lr" 
d="M681 700h524l-90 -700h-484l-27 459h-9l-37 -459h-473l-90 700h523l25 -434h10l24 324h45l18 -324h10z" />
    <glyph glyph-name="X.ext-lr" 
d="M1230 700l-82 -361l82 -339h-608l-27 291h-10l-27 -291h-587l82 339l-83 361h588l27 -317h10l27 317h608z" />
    <glyph glyph-name="Y.ext-lr" 
d="M1230 700l-247 -558v-142h-754v140l-259 560h598l26 -300h14l24 300h598z" />
    <glyph glyph-name="Yacute.ext-lr" 
d="M931 715v-60l-665 -10v40zM1220 600l-320 -489v-111h-598v109l-322 491h588l26 -247h12l26 247h588z" />
    <glyph glyph-name="Ycircumflex.ext-lr" 
d="M930 645l-330 15l-330 -15v40l330 30l330 -30v-40zM1220 600l-320 -489v-111h-598v109l-322 491h588l26 -247h12l26 247h588z" />
    <glyph glyph-name="Ydieresis.ext-lr" 
d="M302 650c-23 0 -40 14 -40 33c0 18 17 32 40 32s41 -14 41 -32c0 -19 -18 -33 -41 -33zM897 650c-23 0 -40 14 -40 33c0 18 17 32 40 32s41 -14 41 -32c0 -19 -18 -33 -41 -33zM1220 600l-320 -489v-111h-598v109l-322 491h588l26 -247h12l26 247h588z" />
    <glyph glyph-name="Ygrave.ext-lr" 
d="M932 685v-40l-665 10v60zM1220 600l-320 -489v-111h-598v109l-322 491h588l26 -247h12l26 247h588z" />
    <glyph glyph-name="A.ext-r" 
d="M648 0l-8 155h-44l-8 -155h-578l80 700h1045l90 -700h-577zM600 225h36l-12 235h-12z" />
    <glyph glyph-name="Aacute.ext-r" 
d="M948 715v-60l-665 -10v40zM648 0l-9 135h-42l-9 -135h-578l80 600h1045l90 -600h-577zM602 206h32l-10 154h-12z" />
    <glyph glyph-name="Abreve.ext-r" 
d="M619 650c-303 0 -332 11 -344 65h40c10 -14 21 -15 304 -15s294 1 304 15h40c-12 -54 -41 -65 -344 -65zM648 0l-9 135h-42l-9 -135h-578l80 600h1045l90 -600h-577zM602 206h32l-10 154h-12z" />
    <glyph glyph-name="Acircumflex.ext-r" 
d="M947 645l-330 15l-330 -15v40l330 30l330 -30v-40zM648 0l-9 135h-42l-9 -135h-578l80 600h1045l90 -600h-577zM602 206h32l-10 154h-12z" />
    <glyph glyph-name="Adieresis.ext-r" 
d="M319 650c-23 0 -40 14 -40 33c0 18 17 32 40 32s41 -14 41 -32c0 -19 -18 -33 -41 -33zM914 650c-23 0 -40 14 -40 33c0 18 17 32 40 32s41 -14 41 -32c0 -19 -18 -33 -41 -33zM648 0l-9 135h-42l-9 -135h-578l80 600h1045l90 -600h-577zM602 206h32l-10 154h-12z" />
    <glyph glyph-name="Agrave.ext-r" 
d="M949 685v-40l-665 10v60zM648 0l-9 135h-42l-9 -135h-578l80 600h1045l90 -600h-577zM602 206h32l-10 154h-12z" />
    <glyph glyph-name="Amacron.ext-r" 
d="M950 700v-55h-665v55h665zM648 0l-9 135h-42l-9 -135h-578l80 600h1045l90 -600h-577zM602 206h32l-10 154h-12z" />
    <glyph glyph-name="Aogonek.ext-r" 
d="M1180 31c15 0 35 1 57 4l-6 -35c-15 -6 -37 -12 -67 -12c-82 0 -121 28 -121 67c0 19 8 34 28 45h-423l-9 135h-42l-9 -135h-578l80 600h1045l90 -600c-81 -5 -114 -15 -114 -39c0 -18 20 -30 69 -30zM602 306h32l-10 154h-12z" />
    <glyph glyph-name="Aring.ext-r" 
d="M621 602c-59 0 -87 15 -87 57c0 35 33 56 87 56c56 0 86 -19 86 -56c0 -42 -27 -57 -86 -57zM621 677c-33 0 -47 -5 -47 -18s15 -19 47 -19s46 6 46 19s-14 18 -46 18zM648 0l-9 135h-42l-9 -135h-578l80 600h420c21 -26 58 -38 109 -38s88 12 108 38h408l90 -600h-577z
M602 206h32l-10 154h-12z" />
    <glyph glyph-name="Atilde.ext-r" 
d="M495 665c-88 0 -155 -11 -181 -17l-10 38c31 9 103 29 191 29c90 0 140 -17 240 -17c88 0 155 10 181 17l10 -38c-31 -9 -103 -29 -191 -29c-111 0 -150 17 -240 17zM648 0l-9 135h-42l-9 -135h-578l80 600h1045l90 -600h-577zM602 206h32l-10 154h-12z" />
    <glyph glyph-name="K.ext-r" 
d="M1230 700l-83 -361l83 -339h-580l-39 320h-11v-320h-580v700h580v-320h10l40 320h580z" />
    <glyph glyph-name="uni0136.ext-r" 
d="M1214 700l-83 -311l83 -289h-564l-38 270h-12v-270h-580v600h580v-270h11l39 270h564zM453 25c133 0 134 1 134 35h75c0 -74 -2 -75 -209 -75v40z" />
    <glyph glyph-name="M.ext-r" 
d="M1225 0h-544l-29 434h-10l-20 -434h-45l-20 434h-10l-29 -434h-508l40 700h515l30 -514h10l29 514h501z" />
    <glyph glyph-name="V.ext-r" 
d="M637 700h568l-90 -700h-985l-120 700h567l25 -480h10z" />
    <glyph glyph-name="W.ext-r" 
d="M681 700h524l-90 -700h-484l-27 459h-9l-37 -459h-488l-60 700h508l25 -434h10l24 324h45l18 -324h10z" />
    <glyph glyph-name="X.ext-r" 
d="M1230 700l-83 -361l82 -339h-567l-27 291h-10l-27 -291h-588l82 339l-62 361h568l27 -317h10l27 317h568z" />
    <glyph glyph-name="Y.ext-r" 
d="M1230 700l-229 -539v-161h-700v155l-291 545h603l26 -300h14l24 300h553z" />
    <glyph glyph-name="Yacute.ext-r" 
d="M941 715v-60l-665 -10v40zM1220 600l-320 -489v-111h-598v110l-292 490h568l26 -247h12l26 247h578z" />
    <glyph glyph-name="Ycircumflex.ext-r" 
d="M940 645l-330 15l-330 -15v40l330 30l330 -30v-40zM1220 600l-320 -489v-111h-598v110l-292 490h568l26 -247h12l26 247h578z" />
    <glyph glyph-name="Ydieresis.ext-r" 
d="M312 650c-23 0 -40 14 -40 33c0 18 17 32 40 32s41 -14 41 -32c0 -19 -18 -33 -41 -33zM907 650c-23 0 -40 14 -40 33c0 18 17 32 40 32s41 -14 41 -32c0 -19 -18 -33 -41 -33zM1220 600l-320 -489v-111h-598v110l-292 490h568l26 -247h12l26 247h578z" />
    <glyph glyph-name="Ygrave.ext-r" 
d="M942 685v-40l-665 10v60zM1220 600l-320 -489v-111h-598v110l-292 490h568l26 -247h12l26 247h578z" />
    <glyph glyph-name="A.ss02" 
d="M527 331h109v-218c0 -53 -12 -128 -89 -128s-90 75 -90 128v112h70v-112c0 -35 2 -58 20 -58c17 0 19 23 19 58v151h-109v323c0 35 -2 58 -19 58c-18 0 -20 -23 -20 -58v-474c0 -53 -12 -128 -89 -128s-90 75 -90 128v151h-109v323c0 53 13 128 90 128s89 -75 89 -128
v-217h-70v217c0 35 -2 58 -19 58c-18 0 -20 -23 -20 -58v-256h109v-218c0 -35 2 -58 20 -58c17 0 19 23 19 58v474c0 53 13 128 90 128s89 -75 89 -128v-256zM963 330h108v-217c0 -53 -12 -128 -89 -128s-89 75 -89 128v111h70v-111c0 -35 1 -58 19 -58c17 0 19 23 19 58
v150h-108v324c0 35 -2 58 -19 58c-18 0 -20 -23 -20 -58v-474c0 -53 -12 -128 -89 -128s-90 75 -90 128v257h-109v217c0 53 13 128 90 128s89 -75 89 -128v-111h-70v111c0 35 -2 58 -19 58c-18 0 -20 -23 -20 -58v-150h109v-324c0 -35 2 -58 20 -58c17 0 19 23 19 58v474
c0 53 13 128 90 128s89 -75 89 -128v-257zM1091 715c77 0 89 -75 89 -128v-112h-70v112c0 35 -2 58 -19 58c-18 0 -20 -23 -20 -58v-151h109v-436h-70v369h-109v218c0 53 13 128 90 128zM130 225h70v-112c0 -53 -12 -128 -89 -128s-91 75 -91 128v587h70v-587
c0 -35 3 -58 21 -58c17 0 19 23 19 58v112z" />
    <glyph glyph-name="B.ss02" 
d="M131 528c-53 0 -128 9 -128 86s75 86 128 86h449v-67h-449c-35 0 -58 -1 -58 -19s23 -19 58 -19h489v105h560v-67h-490v-105h-559zM131 317c-53 0 -128 10 -128 87s75 86 128 86h339v-67h-339c-35 0 -58 -1 -58 -19s23 -20 58 -20h379v106h559c35 0 58 1 58 19
s-23 19 -58 19h-339v67h339c53 0 128 -9 128 -86s-75 -86 -128 -86h-489v-106h-449zM1069 384c53 0 128 -9 128 -86s-75 -87 -128 -87h-339v67h339c35 0 58 2 58 20s-23 19 -58 19h-379v-106h-559c-35 0 -58 -2 -58 -19c0 -18 23 -20 58 -20h339v-67h-339
c-53 0 -128 10 -128 87s75 86 128 86h489v106h449zM1069 172c53 0 128 -8 128 -85s-75 -87 -128 -87h-22v-1h-427v67h408v1h41c35 0 58 2 58 20c0 17 -23 18 -58 18h-489v-106h-560v67h490v106h559z" />
    <glyph glyph-name="C.ss02" 
d="M963 330h108v-217c0 -53 -12 -128 -89 -128s-89 75 -89 128v111h70v-111c0 -35 1 -58 19 -58c17 0 19 23 19 58v150h-108v324c0 35 -2 58 -19 58c-18 0 -20 -23 -20 -58v-257c0 -53 -12 -128 -89 -128s-90 75 -90 128v257c0 35 -2 58 -19 58c-18 0 -20 -23 -20 -58v-46
c0 -53 -12 -128 -89 -128s-90 75 -90 128v92h-324c-35 0 -58 -1 -58 -19s23 -19 58 -19h167c53 0 128 -9 128 -86s-75 -86 -128 -86h-167c-35 0 -58 -1 -58 -19s23 -20 58 -20h384c53 0 128 -9 128 -86s-75 -87 -128 -87h-384c-35 0 -58 -2 -58 -19c0 -18 23 -20 58 -20h337
v-67h-337c-53 0 -128 10 -128 87s75 86 128 86h384c35 0 58 2 58 20s-23 19 -58 19h-384c-53 0 -128 10 -128 87s75 86 128 86h167c35 0 58 1 58 19s-23 19 -58 19h-167c-53 0 -128 9 -128 86s75 86 128 86h394v-159c0 -35 2 -58 20 -58c17 0 19 23 19 58v46
c0 53 13 128 90 128s89 -75 89 -128v-257c0 -35 2 -58 20 -58c17 0 19 23 19 58v257c0 53 13 128 90 128s89 -75 89 -128v-257zM1091 715c77 0 89 -75 89 -128v-112h-70v112c0 35 -2 58 -19 58c-18 0 -20 -23 -20 -58v-151h109v-436h-70v369h-109v218c0 53 13 128 90 128z
M735 172c53 0 128 -8 128 -85s-75 -87 -128 -87h-115v67h115c35 0 58 2 58 20c0 17 -23 18 -58 18h-155v-105h-560v67h490v105h225z" />
    <glyph glyph-name="D.ss02" 
d="M239 364h-109v223c0 53 13 128 90 128s89 -75 89 -128v-117h-70v117c0 35 -2 58 -19 58c-18 0 -20 -23 -20 -58v-156h109v-206c0 -35 2 -58 20 -58c17 0 19 23 19 58v362c0 53 12 128 89 128s90 -75 90 -128v-151c0 -35 2 -58 19 -58c18 0 20 23 20 58v151
c0 53 12 128 89 128s90 -75 90 -128v-59h-70v59c0 35 -2 58 -20 58c-17 0 -19 -23 -19 -58v-151c0 -53 -13 -128 -90 -128s-89 75 -89 128v151c0 35 -2 58 -20 58c-17 0 -19 -23 -19 -58v-362c0 -53 -12 -128 -89 -128s-90 75 -90 128v139zM90 331h109v-218
c0 -53 -13 -128 -90 -128s-89 75 -89 128v112h70v-112c0 -35 2 -58 19 -58c18 0 20 23 20 58v151h-109v436h70v-369zM1067 384c53 0 128 -9 128 -86s-75 -87 -128 -87h-493c-35 0 -58 -1 -58 -19s23 -20 58 -20h229v-67h-229c-53 0 -127 10 -127 87s74 86 127 86h493
c35 0 58 2 58 20c0 17 -23 19 -58 19h-274c-53 0 -127 9 -127 86s74 86 127 86h274c35 0 58 2 58 20s-23 19 -58 19h-164c-53 0 -128 9 -128 86s75 86 128 86h277v-67h-277c-35 0 -58 -1 -58 -19s23 -19 58 -19h164c53 0 128 -9 128 -86s-75 -87 -128 -87h-274
c-35 0 -58 -1 -58 -19s23 -19 58 -19h274zM1067 172c53 0 128 -8 128 -85s-75 -87 -128 -87h-115v67h115c35 0 58 2 58 20c0 17 -23 18 -58 18h-155v-105h-673v67h603v105h225z" />
    <glyph glyph-name="E.ss02" 
d="M1091 715c77 0 89 -75 89 -128v-112h-70v112c0 35 -2 58 -19 58c-18 0 -20 -23 -20 -58v-151h109v-436h-70v369h-109v218c0 53 13 128 90 128zM133 528c-53 0 -128 8 -128 85s75 87 128 87h115v-67h-115c-35 0 -58 -2 -58 -20c0 -17 23 -18 58 -18h155v105h673v-67h-603
v-105h-225zM961 336h109v-223c0 -53 -13 -128 -90 -128s-89 75 -89 128v117h70v-117c0 -35 2 -58 19 -58c18 0 20 23 20 58v156h-109v206c0 35 -2 58 -20 58c-17 0 -19 -23 -19 -58v-362c0 -53 -12 -128 -89 -128s-90 75 -90 128v151c0 35 -2 58 -19 58
c-18 0 -20 -23 -20 -58v-151c0 -53 -12 -128 -89 -128s-90 75 -90 128v59h70v-59c0 -35 2 -58 20 -58c17 0 19 23 19 58v151c0 53 13 128 90 128s89 -75 89 -128v-151c0 -35 2 -58 20 -58c17 0 19 23 19 58v362c0 53 12 128 89 128s90 -75 90 -128v-139zM297 172
c53 0 128 -9 128 -86s-75 -86 -128 -86h-277v67h277c35 0 58 1 58 19s-23 19 -58 19h-164c-53 0 -128 9 -128 86s75 87 128 87h274c35 0 58 1 58 19s-23 19 -58 19h-274c-53 0 -128 9 -128 86s75 87 128 87h493c35 0 58 1 58 19s-23 20 -58 20h-229v67h229
c53 0 127 -10 127 -87s-74 -86 -127 -86h-493c-35 0 -58 -2 -58 -20c0 -17 23 -19 58 -19h274c53 0 127 -9 127 -86s-74 -86 -127 -86h-274c-35 0 -58 -2 -58 -20s23 -19 58 -19h164z" />
    <glyph glyph-name="F.ss02" 
d="M900 210c-35 0 -58 -1 -58 -19s23 -19 58 -19h167c53 0 128 -9 128 -86s-75 -86 -128 -86h-394v159c0 35 -2 58 -20 58c-17 0 -19 -23 -19 -58v-46c0 -53 -13 -128 -90 -128s-89 75 -89 128v257c0 35 -2 58 -20 58c-17 0 -19 -23 -19 -58v-257c0 -53 -13 -128 -90 -128
s-89 75 -89 128v257h-108v217c0 53 12 128 89 128s89 -75 89 -128v-111h-70v111c0 35 -1 58 -19 58c-17 0 -19 -23 -19 -58v-150h108v-324c0 -35 2 -58 19 -58c18 0 20 23 20 58v257c0 53 12 128 89 128s90 -75 90 -128v-257c0 -35 2 -58 19 -58c18 0 20 23 20 58v46
c0 53 12 128 89 128s90 -75 90 -128v-92h324c35 0 58 1 58 19s-23 19 -58 19h-167c-53 0 -128 9 -128 86s75 86 128 86h167c35 0 58 1 58 19s-23 20 -58 20h-384c-53 0 -128 9 -128 86s75 87 128 87h384c35 0 58 2 58 19c0 18 -23 20 -58 20h-337v67h337
c53 0 128 -10 128 -87s-75 -86 -128 -86h-384c-35 0 -58 -2 -58 -20s23 -19 58 -19h384c53 0 128 -10 128 -87s-75 -86 -128 -86h-167zM90 331h109v-218c0 -53 -13 -128 -90 -128s-89 75 -89 128v112h70v-112c0 -35 2 -58 19 -58c18 0 20 23 20 58v151h-109v436h70v-369z
M465 528c-53 0 -128 8 -128 85s75 87 128 87h115v-67h-115c-35 0 -58 -2 -58 -20c0 -17 23 -18 58 -18h155v105h560v-67h-490v-105h-225z" />
    <glyph glyph-name="a" unicode="a" 
d="M694 620c326 0 486 -49 486 -348v-272h-590l-10 60h-10c-75 -46 -155 -75 -298 -75c-205 0 -262 59 -262 140c0 168 244 177 569 177c-2 30 -15 42 -81 42h-458v241c166 15 448 35 654 35zM564 127c6 0 12 2 16 5v100c-5 1 -11 1 -14 1c-23 0 -26 -20 -26 -53
s3 -53 24 -53z" />
    <glyph glyph-name="aacute" unicode="&#xe1;" 
d="M991 715v-60l-665 -10v40zM694 620c326 0 486 -49 486 -348v-272h-590l-10 60h-10c-75 -46 -155 -75 -298 -75c-205 0 -262 59 -262 140c0 168 244 177 569 177c-2 30 -15 42 -81 42h-458v241c166 15 448 35 654 35zM564 127c6 0 12 2 16 5v100c-5 1 -11 1 -14 1
c-23 0 -26 -20 -26 -53s3 -53 24 -53z" />
    <glyph glyph-name="abreve" unicode="&#x103;" 
d="M662 650c-303 0 -332 11 -344 65h40c10 -14 21 -15 304 -15s294 1 304 15h40c-12 -54 -41 -65 -344 -65zM694 620c326 0 486 -49 486 -348v-272h-590l-10 60h-10c-75 -46 -155 -75 -298 -75c-205 0 -262 59 -262 140c0 168 244 177 569 177c-2 30 -15 42 -81 42h-458v241
c166 15 448 35 654 35zM564 127c6 0 12 2 16 5v100c-5 1 -11 1 -14 1c-23 0 -26 -20 -26 -53s3 -53 24 -53z" />
    <glyph glyph-name="acircumflex" unicode="&#xe2;" 
d="M990 645l-330 15l-330 -15v40l330 30l330 -30v-40zM694 620c326 0 486 -49 486 -348v-272h-590l-10 60h-10c-75 -46 -155 -75 -298 -75c-205 0 -262 59 -262 140c0 168 244 177 569 177c-2 30 -15 42 -81 42h-458v241c166 15 448 35 654 35zM564 127c6 0 12 2 16 5v100
c-5 1 -11 1 -14 1c-23 0 -26 -20 -26 -53s3 -53 24 -53z" />
    <glyph glyph-name="adieresis" unicode="&#xe4;" 
d="M362 650c-23 0 -40 14 -40 33c0 18 17 32 40 32s41 -14 41 -32c0 -19 -18 -33 -41 -33zM957 650c-23 0 -40 14 -40 33c0 18 17 32 40 32s41 -14 41 -32c0 -19 -18 -33 -41 -33zM694 620c326 0 486 -49 486 -348v-272h-590l-10 60h-10c-75 -46 -155 -75 -298 -75
c-205 0 -262 59 -262 140c0 168 244 177 569 177c-2 30 -15 42 -81 42h-458v241c166 15 448 35 654 35zM564 127c6 0 12 2 16 5v100c-5 1 -11 1 -14 1c-23 0 -26 -20 -26 -53s3 -53 24 -53z" />
    <glyph glyph-name="agrave" unicode="&#xe0;" 
d="M992 685v-40l-665 10v60zM694 620c326 0 486 -49 486 -348v-272h-590l-10 60h-10c-75 -46 -155 -75 -298 -75c-205 0 -262 59 -262 140c0 168 244 177 569 177c-2 30 -15 42 -81 42h-458v241c166 15 448 35 654 35zM564 127c6 0 12 2 16 5v100c-5 1 -11 1 -14 1
c-23 0 -26 -20 -26 -53s3 -53 24 -53z" />
    <glyph glyph-name="amacron" unicode="&#x101;" 
d="M993 700v-55h-665v55h665zM694 620c326 0 486 -49 486 -348v-272h-590l-10 60h-10c-75 -46 -155 -75 -298 -75c-205 0 -262 59 -262 140c0 168 244 177 569 177c-2 30 -15 42 -81 42h-458v241c166 15 448 35 654 35zM564 127c6 0 12 2 16 5v100c-5 1 -11 1 -14 1
c-23 0 -26 -20 -26 -53s3 -53 24 -53z" />
    <glyph glyph-name="aogonek" unicode="&#x105;" 
d="M1135 31c15 0 35 1 57 4l-6 -35c-15 -6 -37 -12 -67 -12c-82 0 -121 28 -121 67c0 20 9 35 30 46l-4 9c-40 0 -66 -15 -66 -50h-388c-75 -46 -155 -75 -298 -75c-205 0 -262 59 -262 140c0 168 243 177 569 177c-4 34 -21 42 -81 42h-458v241c166 15 448 35 654 35
c326 0 486 -49 486 -348v-172c-81 -5 -114 -15 -114 -39c0 -18 20 -30 69 -30zM564 127c6 0 12 2 16 5v100c-5 1 -11 1 -14 1c-23 0 -26 -20 -26 -53s3 -53 24 -53z" />
    <glyph glyph-name="aring" unicode="&#xe5;" 
d="M652 602c-59 0 -87 15 -87 57c0 35 33 56 87 56c56 0 86 -19 86 -56c0 -42 -27 -57 -86 -57zM652 640c32 0 46 6 46 19s-14 18 -46 18c-33 0 -47 -5 -47 -18s15 -19 47 -19zM272 -15c-205 0 -262 59 -262 140c0 168 244 177 568 177c-2 27 -18 42 -80 42h-458v241
c111 10 321 25 491 32c17 -37 58 -55 119 -55c62 0 103 18 119 57c279 -10 411 -73 411 -347v-272h-590l-10 60h-10c-75 -46 -155 -75 -298 -75zM564 127c6 0 12 2 16 5v100l-13 1c-24 0 -27 -20 -27 -53s3 -53 24 -53z" />
    <glyph glyph-name="atilde" unicode="&#xe3;" 
d="M538 665c-88 0 -155 -11 -181 -17l-10 38c31 9 103 29 191 29c90 0 140 -17 240 -17c88 0 155 10 181 17l10 -38c-31 -9 -103 -29 -191 -29c-111 0 -150 17 -240 17zM694 620c326 0 486 -49 486 -348v-272h-590l-10 60h-10c-75 -46 -155 -75 -298 -75
c-205 0 -262 59 -262 140c0 168 244 177 569 177c-2 30 -15 42 -81 42h-458v241c166 15 448 35 654 35zM564 127c6 0 12 2 16 5v100c-5 1 -11 1 -14 1c-23 0 -26 -20 -26 -53s3 -53 24 -53z" />
    <glyph glyph-name="ae" unicode="&#xe6;" 
d="M190 -15c-134 0 -180 57 -180 137c0 171 214 180 418 180c-4 28 -20 41 -80 42h-308v241c204 22 414 35 608 35c269 0 542 -26 542 -280l-20 -50h-425c11 -36 46 -40 120 -40h295v-230c-108 -17 -223 -35 -358 -35c-188 0 -309 35 -372 75h-10c-75 -46 -134 -75 -230 -75
zM742 349h58c-2 49 -8 70 -27 70c-23 0 -29 -26 -31 -70zM414 127c6 0 12 2 16 5v100c-6 1 -13 1 -15 1c-22 0 -25 -21 -25 -53c0 -33 3 -53 24 -53z" />
    <glyph glyph-name="b" unicode="b" 
d="M919 620c164 0 271 -83 271 -315c0 -230 -106 -320 -272 -320c-134 0 -233 59 -298 165h-20l-10 -150h-570v700h580v-240h20c62 102 161 160 299 160zM616 247c17 0 24 13 24 58s-7 58 -24 58c-6 0 -12 -2 -16 -5v-106c4 -3 10 -5 16 -5z" />
    <glyph glyph-name="c" unicode="c" 
d="M623 -15c-420 0 -613 82 -613 316c0 240 203 319 606 319c287 0 564 -40 564 -40v-258h-495c-50 0 -83 -1 -83 -20s33 -20 83 -20h495l-20 -262s-262 -35 -537 -35z" />
    <glyph glyph-name="cacute" unicode="&#x107;" 
d="M282 645v40l665 30v-60zM623 -15c-420 0 -613 82 -613 316c0 240 203 319 606 319c287 0 564 -40 564 -40v-258h-495c-50 0 -83 -1 -83 -20s33 -20 83 -20h495l-20 -262s-262 -35 -537 -35z" />
    <glyph glyph-name="ccaron" unicode="&#x10d;" 
d="M616 645l-330 30v40l330 -15l330 15v-40zM623 -15c-420 0 -613 82 -613 316c0 240 203 319 606 319c287 0 564 -40 564 -40v-258h-495c-50 0 -83 -1 -83 -20s33 -20 83 -20h495l-20 -262s-262 -35 -537 -35z" />
    <glyph glyph-name="ccedilla" unicode="&#xe7;" 
d="M681 370c-65 0 -79 -5 -79 -20s14 -20 79 -20h499l-20 -212c-140 -20 -340 -37 -519 -39l9 -64v-30h-60v30l9 64c-396 2 -589 91 -589 272c0 183 195 270 602 270c180 0 394 -17 568 -41v-210h-499z" />
    <glyph glyph-name="cdotaccent" unicode="&#x10b;" 
d="M615 650c-53 0 -67 11 -67 33c0 21 14 32 67 32s68 -11 68 -32c0 -22 -15 -33 -68 -33zM623 -15c-420 0 -613 82 -613 316c0 240 203 319 606 319c287 0 564 -40 564 -40v-258h-495c-50 0 -83 -1 -83 -20s33 -20 83 -20h495l-20 -262s-262 -35 -537 -35z" />
    <glyph glyph-name="d" unicode="d" 
d="M610 700h570v-700h-560l-10 150h-10c-72 -103 -183 -165 -305 -165c-174 0 -261 126 -261 308c0 202 107 276 395 276c56 0 110 -3 181 -8v139zM591 247c6 0 13 2 19 6v178h-9c-29 0 -47 -26 -47 -95c0 -59 13 -89 37 -89z" />
    <glyph glyph-name="eth" unicode="&#xf0;" 
d="M1190 649v-40h-40v-609h-520l-10 150h-10c-72 -103 -193 -165 -315 -165c-175 0 -261 127 -261 308c0 199 104 276 394 276c57 0 121 -3 192 -8v48h-131v40h131v51h530v-51h40zM601 247c6 0 13 2 19 6v178h-9c-29 0 -47 -26 -47 -95c0 -59 13 -89 37 -89z" />
    <glyph glyph-name="dcaron" unicode="&#x10f;" 
d="M570 561v139h510v-700h-500l-10 150h-10c-71 -101 -189 -165 -297 -165c-149 0 -229 122 -229 309c0 202 93 275 350 275c50 0 115 -3 186 -8zM1120 700h60v-100l-10 -100h-40l-10 100v100zM551 247c6 0 13 2 19 6v178h-9c-29 0 -47 -26 -47 -95c0 -59 13 -89 37 -89z
" />
    <glyph glyph-name="dcroat" unicode="&#x111;" 
d="M1200 652v-40h-40v-612h-540l-10 150h-10c-75 -105 -170 -165 -299 -165c-187 0 -267 128 -267 303c0 203 108 281 396 281c55 0 109 -3 180 -8v51h-180v40h180v48h550v-48h40zM591 247c6 0 13 2 19 6v178h-9c-29 0 -47 -26 -47 -95c0 -59 13 -89 37 -89z" />
    <glyph glyph-name="e" unicode="e" 
d="M1190 340l-20 -50h-573c9 -35 36 -40 108 -40h455v-230c-108 -15 -320 -35 -531 -35c-427 0 -619 80 -619 312c0 237 199 323 591 323c433 0 589 -105 589 -280zM623 419c-26 0 -30 -40 -31 -70h58c-2 49 -8 70 -27 70z" />
    <glyph glyph-name="eacute" unicode="&#xe9;" 
d="M931 715v-60l-665 -10v40zM1190 340l-20 -50h-573c9 -35 36 -40 108 -40h455v-230c-108 -15 -320 -35 -531 -35c-427 0 -619 80 -619 312c0 237 199 323 591 323c433 0 589 -105 589 -280zM623 419c-26 0 -30 -40 -31 -70h58c-2 49 -8 70 -27 70z" />
    <glyph glyph-name="ecaron" unicode="&#x11b;" 
d="M930 675l-330 -30l-330 30v40l330 -15l330 15v-40zM1190 340l-20 -50h-573c9 -35 36 -40 108 -40h455v-230c-108 -15 -320 -35 -531 -35c-427 0 -619 80 -619 312c0 237 199 323 591 323c433 0 589 -105 589 -280zM623 419c-26 0 -30 -40 -31 -70h58c-2 49 -8 70 -27 70z
" />
    <glyph glyph-name="ecircumflex" unicode="&#xea;" 
d="M930 645l-330 15l-330 -15v40l330 30l330 -30v-40zM1190 340l-20 -50h-573c9 -35 36 -40 108 -40h455v-230c-108 -15 -320 -35 -531 -35c-427 0 -619 80 -619 312c0 237 199 323 591 323c433 0 589 -105 589 -280zM623 419c-26 0 -30 -40 -31 -70h58c-2 49 -8 70 -27 70z
" />
    <glyph glyph-name="edieresis" unicode="&#xeb;" 
d="M303 650c-23 0 -37 14 -37 33c0 18 14 32 37 32s38 -14 38 -32c0 -19 -15 -33 -38 -33zM898 650c-23 0 -37 14 -37 33c0 18 14 32 37 32s38 -14 38 -32c0 -19 -15 -33 -38 -33zM1190 340l-20 -50h-573c9 -35 36 -40 108 -40h455v-230c-108 -15 -320 -35 -531 -35
c-427 0 -619 80 -619 312c0 237 199 323 591 323c433 0 589 -105 589 -280zM623 419c-26 0 -30 -40 -31 -70h58c-2 49 -8 70 -27 70z" />
    <glyph glyph-name="edotaccent" unicode="&#x117;" 
d="M599 650c-53 0 -67 11 -67 33c0 21 14 32 67 32s68 -11 68 -32c0 -22 -15 -33 -68 -33zM1190 340l-20 -50h-573c9 -35 36 -40 108 -40h455v-230c-108 -15 -320 -35 -531 -35c-427 0 -619 80 -619 312c0 237 199 323 591 323c433 0 589 -105 589 -280zM623 419
c-26 0 -30 -40 -31 -70h58c-2 49 -8 70 -27 70z" />
    <glyph glyph-name="egrave" unicode="&#xe8;" 
d="M934 685v-40l-665 10v60zM1190 340l-20 -50h-573c9 -35 36 -40 108 -40h455v-230c-108 -15 -320 -35 -531 -35c-427 0 -619 80 -619 312c0 237 199 323 591 323c433 0 589 -105 589 -280zM623 419c-26 0 -30 -40 -31 -70h58c-2 49 -8 70 -27 70z" />
    <glyph glyph-name="emacron" unicode="&#x113;" 
d="M933 700v-55h-665v55h665zM1190 340l-20 -50h-573c9 -35 36 -40 108 -40h455v-230c-108 -15 -320 -35 -531 -35c-427 0 -619 80 -619 312c0 237 199 323 591 323c433 0 589 -105 589 -280zM623 419c-26 0 -30 -40 -31 -70h58c-2 49 -8 70 -27 70z" />
    <glyph glyph-name="eogonek" unicode="&#x119;" 
d="M1046 58c0 -18 20 -30 69 -30c15 0 35 1 57 4l-6 -35c-15 -6 -37 -12 -67 -12c-82 0 -121 28 -121 67c0 6 1 13 3 18c-74 -40 -191 -85 -402 -85c-377 0 -569 80 -569 312c0 237 199 323 591 323c433 0 589 -105 589 -280l-20 -50h-573c9 -35 36 -40 108 -40h455v-153
c-81 -5 -114 -15 -114 -39zM623 419c-26 0 -30 -40 -31 -70h58c-2 49 -8 70 -27 70z" />
    <glyph glyph-name="f" unicode="f" 
d="M906 420c-63 0 -78 -13 -81 -40h295v-280h-296v-100h-600v100h-214v280h215c12 258 174 335 506 335c151 0 338 -16 449 -35v-260h-274z" />
    <glyph glyph-name="g" unicode="g" 
d="M226 268c0 -19 42 -23 325 -23c334 0 538 21 619 30v-259c-120 -11 -371 -31 -619 -31c-370 0 -541 26 -541 176c0 62 44 123 172 142c-121 18 -172 54 -172 124c0 118 164 193 591 193c165 0 291 -12 383 -32v23c0 78 34 103 89 103c57 0 83 -25 83 -73
c0 -65 -61 -78 -113 -78h-8v-11c111 -10 155 -44 155 -105c0 -145 -224 -162 -589 -162h-60h2c-294 0 -317 -1 -317 -17zM601 470c-13 0 -27 -9 -27 -42s14 -42 27 -42c12 0 27 9 27 42s-15 42 -27 42z" />
    <glyph glyph-name="gbreve" unicode="&#x11f;" 
d="M602 650c-303 0 -332 11 -344 65h40c10 -14 21 -15 304 -15s294 1 304 15h40c-12 -54 -41 -65 -344 -65zM226 268c0 -19 42 -23 325 -23c334 0 538 21 619 30v-259c-120 -11 -371 -31 -619 -31c-370 0 -541 26 -541 176c0 62 44 123 172 142c-121 18 -172 54 -172 124
c0 118 164 193 591 193c165 0 291 -12 383 -32v23c0 78 34 103 89 103c57 0 83 -25 83 -73c0 -65 -61 -78 -113 -78h-8v-11c111 -10 155 -44 155 -105c0 -145 -224 -162 -589 -162h-60h2c-294 0 -317 -1 -317 -17zM601 470c-13 0 -27 -9 -27 -42s14 -42 27 -42
c12 0 27 9 27 42s-15 42 -27 42z" />
    <glyph glyph-name="uni0123" unicode="&#x123;" 
d="M778 675c-133 0 -134 -1 -134 -35h-75c0 74 2 75 209 75v-40zM226 266c0 -17 54 -21 325 -21c430 0 619 40 619 40v-265s-279 -35 -619 -35c-370 0 -541 26 -541 176c0 62 44 123 172 142c-121 18 -172 54 -172 124c0 118 164 183 591 183c165 0 291 -8 383 -24v25
c0 78 34 103 89 103c57 0 83 -25 83 -73c0 -65 -61 -78 -113 -78h-8v-11c111 -10 155 -44 155 -105c0 -145 -224 -162 -589 -162h-60h2c-299 0 -317 -1 -317 -19zM601 470c-13 0 -27 -9 -27 -42s14 -42 27 -42c12 0 27 9 27 42s-15 42 -27 42z" />
    <glyph glyph-name="gdotaccent" unicode="&#x121;" 
d="M599 650c-53 0 -67 11 -67 33c0 21 14 32 67 32s68 -11 68 -32c0 -22 -15 -33 -68 -33zM226 268c0 -19 42 -23 325 -23c334 0 538 21 619 30v-259c-120 -11 -371 -31 -619 -31c-370 0 -541 26 -541 176c0 62 44 123 172 142c-121 18 -172 54 -172 124
c0 118 164 193 591 193c165 0 291 -12 383 -32v23c0 78 34 103 89 103c57 0 83 -25 83 -73c0 -65 -61 -78 -113 -78h-8v-11c111 -10 155 -44 155 -105c0 -145 -224 -162 -589 -162h-60h2c-294 0 -317 -1 -317 -17zM601 470c-13 0 -27 -9 -27 -42s14 -42 27 -42
c12 0 27 9 27 42s-15 42 -27 42z" />
    <glyph glyph-name="h" unicode="h" 
d="M913 620c160 0 267 -30 267 -200v-420h-560v335c0 13 -3 28 -17 28c-9 0 -17 -2 -23 -6v-357h-560v700h560v-240h10c75 106 183 160 323 160z" />
    <glyph glyph-name="hbar" unicode="&#x127;" 
d="M913 580c160 0 267 -30 267 -200v-380h-550v335c0 13 -3 28 -17 28c-9 0 -17 -2 -23 -6v-357h-540v612h-50v40h50v48h540v-48h180v-40h-180v-152h10c75 66 173 120 313 120z" />
    <glyph glyph-name="i" unicode="i" 
d="M920 700v-60h-580v60h580zM920 280h260v-280h-1160v280h320v40h-320v280h900v-320z" />
    <glyph glyph-name="dotlessi" unicode="&#x131;" 
d="M920 280h260v-280h-1160v280h320v40h-320v280h900v-320z" />
    <glyph glyph-name="iacute" unicode="&#xed;" 
d="M971 715v-60l-665 -10v40zM920 280h260v-280h-1160v280h320v40h-320v280h900v-320z" />
    <glyph glyph-name="icircumflex" unicode="&#xee;" 
d="M970 645l-330 15l-330 -15v40l330 30l330 -30v-40zM920 280h260v-280h-1160v280h320v40h-320v280h900v-320z" />
    <glyph glyph-name="idieresis" unicode="&#xef;" 
d="M342 650c-23 0 -40 14 -40 33c0 18 17 32 40 32s41 -14 41 -32c0 -19 -18 -33 -41 -33zM937 650c-23 0 -40 14 -40 33c0 18 17 32 40 32s41 -14 41 -32c0 -19 -18 -33 -41 -33zM920 280h260v-280h-1160v280h320v40h-320v280h900v-320z" />
    <glyph glyph-name="i.loclTRK" 
d="M639 650c-53 0 -67 11 -67 33c0 21 14 32 67 32s68 -11 68 -32c0 -22 -15 -33 -68 -33zM920 280h260v-280h-1160v280h320v40h-320v280h900v-320z" />
    <glyph glyph-name="igrave" unicode="&#xec;" 
d="M972 685v-40l-665 10v60zM920 280h260v-280h-1160v280h320v40h-320v280h900v-320z" />
    <glyph glyph-name="imacron" unicode="&#x12b;" 
d="M973 700v-55h-665v55h665zM920 280h260v-280h-1160v280h320v40h-320v280h900v-320z" />
    <glyph glyph-name="iogonek" unicode="&#x12f;" 
d="M940 700v-60h-600v60h600zM1135 28c15 0 35 1 57 4l-6 -35c-15 -6 -37 -12 -67 -12c-82 0 -121 28 -121 67c0 19 8 34 28 45h-1006v231h320v40h-320v232h920v-272h240v-231c-81 -5 -114 -15 -114 -39c0 -18 20 -30 69 -30z" />
    <glyph glyph-name="j" unicode="j" 
d="M580 700h600v-60h-600v60zM20 600h1160v-227c0 -332 -324 -388 -572 -388c-289 0 -588 30 -588 30v265h245c271 0 310 3 314 40h-559v280z" />
    <glyph glyph-name="k" unicode="k" 
d="M1190 600l-88 -311l88 -289h-535l-40 270h-15v-270h-580v700h580v-370h14l41 270h535z" />
    <glyph glyph-name="uni0137" unicode="&#x137;" 
d="M1190 600l-87 -261l87 -239h-535l-39 220h-16v-220h-580v600h580v-320h14l41 220h535zM449 25c133 0 134 1 134 35h75c0 -74 -2 -75 -209 -75v40z" />
    <glyph glyph-name="l" unicode="l" 
d="M940 280h240v-280h-1160v280h320v140h-320v280h920v-420z" />
    <glyph glyph-name="lacute" unicode="&#x13a;" 
d="M1005 715v-60l-665 -10v40zM920 280h260v-280h-1160v280h320v140h-320v280h280v-90h620v-330z" />
    <glyph glyph-name="lcaron" unicode="&#x13e;" 
d="M940 280h240v-280h-1160v280h320v140h-320v280h920v-420zM1101 389h-40l-10 155v156h60v-156z" />
    <glyph glyph-name="uni013C" unicode="&#x13c;" 
d="M940 370h240v-270h-1160v270h320v60h-320v270h920v-330zM466 25c133 0 134 1 134 35h75c0 -74 -2 -75 -209 -75v40z" />
    <glyph glyph-name="ldot" unicode="&#x140;" 
d="M940 700v-420h240v-280h-1160v280h320v140h-320v280h920zM1080 447c-63 0 -103 50 -103 113s40 113 103 113s103 -50 103 -113s-40 -113 -103 -113z" />
    <glyph glyph-name="lslash" unicode="&#x142;" 
d="M940 280h240v-280h-1160v280h320v140h-320v280h920v-258l227 59l12 -42l-239 -59v-120z" />
    <glyph glyph-name="m" unicode="m" 
d="M1023 620c100 0 157 -50 157 -200v-420h-360v335c0 13 -3 28 -17 28c-9 0 -17 -2 -23 -6v-357h-360v335c0 13 -3 28 -17 28c-9 0 -17 -2 -23 -6v-357h-360v600h350l10 -140h10c65 106 130 160 220 160c91 0 156 -41 168 -160h12c65 106 143 160 233 160z" />
    <glyph glyph-name="n" unicode="n" 
d="M913 620c160 0 267 -30 267 -200v-420h-560v335c0 13 -3 28 -17 28c-9 0 -17 -2 -23 -6v-357h-560v600h550l10 -140h10c75 106 183 160 323 160z" />
    <glyph glyph-name="nacute" unicode="&#x144;" 
d="M931 715v-60l-665 -10v40zM913 620c160 0 267 -30 267 -200v-420h-560v335c0 13 -3 28 -17 28c-9 0 -17 -2 -23 -6v-357h-560v600h550l10 -140h10c75 106 183 160 323 160z" />
    <glyph glyph-name="ncaron" unicode="&#x148;" 
d="M930 675l-330 -30l-330 30v40l330 -15l330 15v-40zM913 620c160 0 267 -30 267 -200v-420h-560v335c0 13 -3 28 -17 28c-9 0 -17 -2 -23 -6v-357h-560v600h550l10 -140h10c75 106 183 160 323 160z" />
    <glyph glyph-name="uni0146" unicode="&#x146;" 
d="M913 620c160 0 267 -40 267 -200v-320h-560v235c0 13 -3 28 -17 28c-9 0 -17 -2 -23 -6v-257h-560v500h550l10 -140h10c75 106 183 160 323 160zM426 25c133 0 134 1 134 35h75c0 -74 -2 -75 -209 -75v40z" />
    <glyph glyph-name="eng" unicode="&#x14b;" 
d="M913 620c160 0 267 -30 267 -200v-290c0 -110 -40 -140 -139 -140h-421v70c15 0 25 6 23 40l-15 235c-1 23 -11 28 -25 28c-9 0 -17 -2 -23 -6v-357h-560v600h550l10 -140h10c75 106 183 160 323 160z" />
    <glyph glyph-name="ntilde" unicode="&#xf1;" 
d="M478 665c-88 0 -155 -11 -181 -17l-10 38c31 9 103 29 191 29c90 0 140 -17 240 -17c88 0 155 10 181 17l10 -38c-31 -9 -103 -29 -191 -29c-111 0 -150 17 -240 17zM913 620c160 0 267 -30 267 -200v-420h-560v335c0 13 -3 28 -17 28c-9 0 -17 -2 -23 -6v-357h-560v600
h550l10 -140h10c75 106 183 160 323 160z" />
    <glyph glyph-name="o" unicode="o" 
d="M600 -15c-429 0 -590 107 -590 317c0 213 167 318 590 318c426 0 590 -106 590 -318c0 -210 -161 -317 -590 -317zM601 226c12 0 25 9 25 82s-13 82 -25 82c-13 0 -25 -9 -25 -82s12 -82 25 -82z" />
    <glyph glyph-name="oacute" unicode="&#xf3;" 
d="M266 645v40l665 30v-60zM600 -15c-429 0 -590 107 -590 317c0 213 167 318 590 318c426 0 590 -106 590 -318c0 -210 -161 -317 -590 -317zM601 226c12 0 25 9 25 82s-13 82 -25 82c-13 0 -25 -9 -25 -82s12 -82 25 -82z" />
    <glyph glyph-name="ocircumflex" unicode="&#xf4;" 
d="M270 645v40l330 30l330 -30v-40l-330 15zM600 -15c-429 0 -590 107 -590 317c0 213 167 318 590 318c426 0 590 -106 590 -318c0 -210 -161 -317 -590 -317zM601 226c12 0 25 9 25 82s-13 82 -25 82c-13 0 -25 -9 -25 -82s12 -82 25 -82z" />
    <glyph glyph-name="odieresis" unicode="&#xf6;" 
d="M302 650c-23 0 -40 14 -40 33c0 18 17 32 40 32s41 -14 41 -32c0 -19 -18 -33 -41 -33zM897 650c-23 0 -40 14 -40 33c0 18 17 32 40 32s41 -14 41 -32c0 -19 -18 -33 -41 -33zM600 -15c-429 0 -590 107 -590 317c0 213 167 318 590 318c426 0 590 -106 590 -318
c0 -210 -161 -317 -590 -317zM601 226c12 0 25 9 25 82s-13 82 -25 82c-13 0 -25 -9 -25 -82s12 -82 25 -82z" />
    <glyph glyph-name="ograve" unicode="&#xf2;" 
d="M932 645l-665 10v60l665 -30v-40zM600 -15c-429 0 -590 107 -590 317c0 213 167 318 590 318c426 0 590 -106 590 -318c0 -210 -161 -317 -590 -317zM601 226c12 0 25 9 25 82s-13 82 -25 82c-13 0 -25 -9 -25 -82s12 -82 25 -82z" />
    <glyph glyph-name="ohungarumlaut" unicode="&#x151;" 
d="M177 645v40l403 30v-60zM620 645v40l403 30v-60zM600 -15c-429 0 -590 107 -590 317c0 213 167 318 590 318c426 0 590 -106 590 -318c0 -210 -161 -317 -590 -317zM601 226c12 0 25 9 25 82s-13 82 -25 82c-13 0 -25 -9 -25 -82s12 -82 25 -82z" />
    <glyph glyph-name="omacron" unicode="&#x14d;" 
d="M268 645v55h665v-55h-665zM600 -15c-429 0 -590 107 -590 317c0 213 167 318 590 318c426 0 590 -106 590 -318c0 -210 -161 -317 -590 -317zM601 226c12 0 25 9 25 82s-13 82 -25 82c-13 0 -25 -9 -25 -82s12 -82 25 -82z" />
    <glyph glyph-name="oslash" unicode="&#xf8;" 
d="M1019 598c120 -52 171 -138 171 -256c0 -210 -161 -317 -590 -317c-166 0 -292 16 -384 48l-81 -88l-40 40l74 67c-112 52 -159 136 -159 250c0 213 167 318 590 318c160 0 282 -15 373 -45l92 100l40 -40zM601 266c12 0 25 9 25 82s-13 82 -25 82c-13 0 -25 -9 -25 -82
s12 -82 25 -82z" />
    <glyph glyph-name="otilde" unicode="&#xf5;" 
d="M297 648l-10 38c31 9 103 29 191 29c90 0 140 -17 240 -17c88 0 155 10 181 17l10 -38c-31 -9 -103 -29 -191 -29c-111 0 -150 17 -240 17c-88 0 -155 -11 -181 -17zM600 -15c-429 0 -590 107 -590 317c0 213 167 318 590 318c426 0 590 -106 590 -318
c0 -210 -161 -317 -590 -317zM601 226c12 0 25 9 25 82s-13 82 -25 82c-13 0 -25 -9 -25 -82s12 -82 25 -82z" />
    <glyph glyph-name="oe" unicode="&#x153;" 
d="M1190 340l-20 -50h-414c8 -39 33 -40 99 -40h305v-230c-106 -15 -323 -35 -529 -35c-438 0 -621 84 -621 312c0 237 198 323 594 323c440 0 586 -106 586 -280zM783 419c-26 0 -30 -40 -31 -70h58c-2 49 -8 70 -27 70zM415 226c13 0 27 9 27 79c0 73 -15 85 -28 85
c-10 0 -26 -8 -26 -85c0 -70 13 -79 27 -79z" />
    <glyph glyph-name="p" unicode="p" 
d="M1190 373c0 -178 -102 -248 -583 -249v-124h-587v600h577l10 -145h10c75 105 189 165 323 165c163 0 250 -82 250 -247zM616 194c25 0 37 27 37 82c0 50 -3 82 -27 82c-6 0 -13 -2 -19 -6v-158h9z" />
    <glyph glyph-name="thorn" unicode="&#xfe;" 
d="M923 667c160 0 267 -85 267 -315s-107 -320 -267 -320c-130 0 -228 59 -293 165h-20v-198h-590v701h590v-193h20c65 106 163 160 293 160zM629 284c14 0 21 15 21 68s-7 68 -21 68c-8 0 -14 -2 -19 -5v-126c5 -3 11 -5 19 -5z" />
    <glyph glyph-name="q" unicode="q" 
d="M593 600h587v-600h-587v293h-10c-75 -105 -186 -165 -320 -165c-163 0 -253 82 -253 247c0 179 106 225 583 225zM574 380c6 0 13 2 19 6v158h-9c-31 0 -47 -27 -47 -82c0 -50 13 -82 37 -82z" />
    <glyph glyph-name="r" unicode="r" 
d="M960 620c112 0 191 -23 220 -40v-313c-61 7 -185 16 -300 16c-130 0 -230 -12 -260 -20v-263h-600v600h590l10 -170h10c95 146 180 190 330 190z" />
    <glyph glyph-name="racute" unicode="&#x155;" 
d="M931 715v-60l-665 -10v40zM960 620c112 0 191 -23 220 -40v-313c-61 7 -185 16 -300 16c-130 0 -230 -12 -260 -20v-263h-600v600h590l10 -170h10c95 146 180 190 330 190z" />
    <glyph glyph-name="rcaron" unicode="&#x159;" 
d="M930 675l-330 -30l-330 30v40l330 -15l330 15v-40zM960 620c112 0 191 -23 220 -40v-313c-61 7 -185 16 -300 16c-130 0 -230 -12 -260 -20v-263h-600v600h590l10 -170h10c95 146 180 190 330 190z" />
    <glyph glyph-name="uni0157" unicode="&#x157;" 
d="M960 620c112 0 191 -23 220 -40v-313c-61 7 -185 16 -300 16c-130 0 -230 -12 -260 -20v-163h-600v500h590l10 -170h10c95 146 180 190 330 190zM149 25c133 0 134 1 134 35h75c0 -74 -2 -75 -209 -75v40z" />
    <glyph glyph-name="s" unicode="s" 
d="M593 -15c-185 0 -400 19 -573 45v258c76 -39 235 -68 377 -68c84 0 188 14 245 33l-6 26c-69 -14 -168 -24 -239 -24c-244 0 -387 56 -387 178c0 141 159 187 647 187c164 0 344 -15 523 -44v-248c-77 34 -235 59 -377 59c-87 0 -195 -14 -255 -34l6 -26
c70 14 175 25 249 25c254 0 387 -62 387 -180c0 -145 -135 -187 -597 -187z" />
    <glyph glyph-name="sacute" unicode="&#x15b;" 
d="M266 645v40l665 30v-60zM593 -15c-185 0 -400 19 -573 45v258c76 -39 235 -68 377 -68c84 0 188 14 245 33l-6 26c-69 -14 -168 -24 -239 -24c-244 0 -387 56 -387 178c0 141 159 187 647 187c164 0 344 -15 523 -44v-248c-77 34 -235 59 -377 59
c-87 0 -195 -14 -255 -34l6 -26c70 14 175 25 249 25c254 0 387 -62 387 -180c0 -145 -135 -187 -597 -187z" />
    <glyph glyph-name="scaron" unicode="&#x161;" 
d="M600 645l-330 30v40l330 -15l330 15v-40zM593 -15c-185 0 -400 19 -573 45v258c76 -39 235 -68 377 -68c84 0 188 14 245 33l-6 26c-69 -14 -168 -24 -239 -24c-244 0 -387 56 -387 178c0 141 159 187 647 187c164 0 344 -15 523 -44v-248c-77 34 -235 59 -377 59
c-87 0 -195 -14 -255 -34l6 -26c70 14 175 25 249 25c254 0 387 -62 387 -180c0 -145 -135 -187 -597 -187z" />
    <glyph glyph-name="scedilla" unicode="&#x15f;" 
d="M1190 247c0 -117 -149 -166 -569 -167l9 -65v-30h-60v30l9 65c-206 3 -431 38 -559 70v183c88 -42 221 -67 380 -67c84 0 158 7 242 32l-6 26c-69 -14 -163 -24 -250 -24c-253 0 -376 64 -376 157c0 106 148 163 541 163c264 0 545 -34 629 -54v-193
c-70 32 -234 59 -369 59c-98 0 -203 -14 -263 -34l6 -26c70 14 183 26 282 26c250 0 354 -60 354 -151z" />
    <glyph glyph-name="uni0219" unicode="&#x219;" 
d="M554 372c70 14 183 26 282 26c250 0 354 -60 354 -151c0 -119 -153 -167 -588 -167c-212 0 -449 37 -582 70v183c88 -42 221 -67 380 -67c84 0 158 7 242 32l-6 26c-69 -14 -163 -24 -250 -24c-253 0 -376 64 -376 157c0 106 148 163 541 163c264 0 545 -34 629 -54v-193
c-70 32 -234 59 -369 59c-98 0 -203 -14 -263 -34zM434 -15v40c133 0 134 1 134 35h75c0 -74 -2 -75 -209 -75z" />
    <glyph glyph-name="germandbls" unicode="&#xdf;" 
d="M20 0v352c0 273 163 358 579 358c379 0 561 -36 561 -182c0 -167 -169 -168 -450 -168v-40c311 0 480 -1 480 -138c0 -145 -136 -182 -569 -182v502c0 45 -24 46 -40 46v-548h-561z" />
    <glyph glyph-name="t" unicode="t" 
d="M1180 600v-280h-355c3 -26 17 -40 73 -40h282v-260c-79 -15 -257 -35 -456 -35c-374 0 -496 45 -500 335h-214v280h214c167 0 270 30 290 100h310v-100h356z" />
    <glyph glyph-name="tbar" unicode="&#x167;" 
d="M1180 360h-356v-40h356v-40h-354c5 -26 23 -40 79 -40h275v-220c-79 -15 -257 -35 -456 -35c-385 0 -492 24 -500 295h-214v40h214v40h-214v240h214c167 0 270 30 290 100h310v-100h356v-240z" />
    <glyph glyph-name="tcaron" unicode="&#x165;" 
d="M824 700v-100h356v-280h-355c3 -26 17 -40 73 -40h282v-260c-79 -15 -257 -35 -456 -35c-374 0 -496 45 -500 335h-214v280h214c167 0 270 30 290 100h310zM1120 700h60v-60h-60l-256 10v40z" />
    <glyph glyph-name="uni0163" unicode="&#x163;" 
d="M1180 600v-240h-354c4 -26 21 -40 77 -40h277v-206c-79 -15 -259 -35 -466 -35h-23l9 -64v-30h-60v30l9 65c-308 5 -408 53 -423 280h-216v240h214c167 0 270 30 290 100h310v-100h356z" />
    <glyph glyph-name="uni021B" unicode="&#x21b;" 
d="M1180 600v-240h-354c6 -26 24 -40 80 -40h274v-206c-79 -15 -259 -35 -466 -35c-359 0 -472 39 -488 281h-216v240h214c167 0 270 30 290 100h310v-100h356zM494 25c133 0 134 1 134 35h75c0 -74 -2 -75 -209 -75v40z" />
    <glyph glyph-name="u" unicode="u" 
d="M620 600h560v-600h-550l-10 140h-10c-75 -106 -183 -155 -323 -155c-160 0 -267 50 -267 230v385h560v-335c0 -13 3 -28 17 -28c9 0 17 2 23 6v357z" />
    <glyph glyph-name="uacute" unicode="&#xfa;" 
d="M931 715v-60l-665 -10v40zM620 600h560v-600h-550l-10 140h-10c-75 -106 -183 -155 -323 -155c-160 0 -267 50 -267 230v385h560v-335c0 -13 3 -28 17 -28c9 0 17 2 23 6v357z" />
    <glyph glyph-name="ucircumflex" unicode="&#xfb;" 
d="M930 645l-330 15l-330 -15v40l330 30l330 -30v-40zM620 600h560v-600h-550l-10 140h-10c-75 -106 -183 -155 -323 -155c-160 0 -267 50 -267 230v385h560v-335c0 -13 3 -28 17 -28c9 0 17 2 23 6v357z" />
    <glyph glyph-name="udieresis" unicode="&#xfc;" 
d="M302 650c-23 0 -40 14 -40 33c0 18 17 32 40 32s41 -14 41 -32c0 -19 -18 -33 -41 -33zM897 650c-23 0 -40 14 -40 33c0 18 17 32 40 32s41 -14 41 -32c0 -19 -18 -33 -41 -33zM620 600h560v-600h-550l-10 140h-10c-75 -106 -183 -155 -323 -155c-160 0 -267 50 -267 230
v385h560v-335c0 -13 3 -28 17 -28c9 0 17 2 23 6v357z" />
    <glyph glyph-name="ugrave" unicode="&#xf9;" 
d="M932 685v-40l-665 10v60zM620 600h560v-600h-550l-10 140h-10c-75 -106 -183 -155 -323 -155c-160 0 -267 50 -267 230v385h560v-335c0 -13 3 -28 17 -28c9 0 17 2 23 6v357z" />
    <glyph glyph-name="uhungarumlaut" unicode="&#x171;" 
d="M580 715v-60l-403 -10v40zM1023 715v-60l-403 -10v40zM620 600h560v-600h-550l-10 140h-10c-75 -106 -183 -155 -323 -155c-160 0 -267 50 -267 230v385h560v-335c0 -13 3 -28 17 -28c9 0 17 2 23 6v357z" />
    <glyph glyph-name="umacron" unicode="&#x16b;" 
d="M933 700v-55h-665v55h665zM620 600h560v-600h-550l-10 140h-10c-75 -106 -183 -155 -323 -155c-160 0 -267 50 -267 230v385h560v-335c0 -13 3 -28 17 -28c9 0 17 2 23 6v357z" />
    <glyph glyph-name="uogonek" unicode="&#x173;" 
d="M1135 31c15 0 35 1 57 4l-6 -35c-15 -6 -37 -12 -67 -12c-82 0 -121 28 -121 67c0 20 9 35 30 46l-4 9c-40 0 -66 -15 -66 -50h-328l-10 80h-10c-75 -106 -183 -155 -323 -155c-160 0 -267 30 -267 200v415h560v-335c0 -13 3 -28 17 -28c9 0 17 2 23 6v357h560v-500
c-81 -5 -114 -15 -114 -39c0 -18 20 -30 69 -30z" />
    <glyph glyph-name="uring" unicode="&#x16f;" 
d="M602 602c-59 0 -87 15 -87 57c0 35 33 56 87 56c56 0 86 -19 86 -56c0 -42 -27 -57 -86 -57zM602 640c32 0 46 6 46 19s-14 18 -46 18c-33 0 -47 -5 -47 -18s15 -19 47 -19zM287 -15c-160 0 -267 30 -267 200v415h471c18 -22 48 -34 89 -37v-298c0 -13 3 -28 17 -28
c9 0 17 2 23 6v320c41 3 71 15 88 37h472v-600h-550l-10 140h-10c-75 -106 -183 -155 -323 -155z" />
    <glyph glyph-name="v" unicode="v" 
d="M630 600h560l-120 -600h-940l-120 600h560l25 -360h10z" />
    <glyph glyph-name="w" unicode="w" 
d="M681 600h509l-70 -600h-489l-27 434h-9l-37 -434h-478l-70 600h508l22 -337l3 3h10l24 304h45l18 -304h10l3 -2z" />
    <glyph glyph-name="wacute" unicode="&#x1e83;" 
d="M931 715v-60l-665 -10v40zM681 600h509l-70 -600h-489l-27 434h-9l-37 -434h-478l-70 600h508l22 -337l3 3h10l24 304h45l18 -304h10l3 -2z" />
    <glyph glyph-name="wcircumflex" unicode="&#x175;" 
d="M930 645l-330 15l-330 -15v40l330 30l330 -30v-40zM681 600h509l-70 -600h-489l-27 434h-9l-37 -434h-478l-70 600h508l22 -337l3 3h10l24 304h45l18 -304h10l3 -2z" />
    <glyph glyph-name="wdieresis" unicode="&#x1e85;" 
d="M302 650c-23 0 -40 14 -40 33c0 18 17 32 40 32s41 -14 41 -32c0 -19 -18 -33 -41 -33zM897 650c-23 0 -40 14 -40 33c0 18 17 32 40 32s41 -14 41 -32c0 -19 -18 -33 -41 -33zM681 600h509l-70 -600h-489l-27 434h-9l-37 -434h-478l-70 600h508l22 -337l3 3h10l24 304
h45l18 -304h10l3 -2z" />
    <glyph glyph-name="wgrave" unicode="&#x1e81;" 
d="M932 685v-40l-665 10v60zM681 600h509l-70 -600h-489l-27 434h-9l-37 -434h-478l-70 600h508l22 -337l3 3h10l24 304h45l18 -304h10l3 -2z" />
    <glyph glyph-name="x" unicode="x" 
d="M1108 289l82 -289h-558l-25 241h-14l-25 -241h-558l82 289l-62 311h538l26 -267h12l26 267h538z" />
    <glyph glyph-name="y" unicode="y" 
d="M620 600h560v-300c0 -239 -184 -315 -619 -315c-196 0 -424 14 -541 25v230h287c211 0 313 14 313 90h-10c-56 -42 -173 -50 -283 -50c-170 0 -307 35 -307 205v115h560v-155c0 -13 3 -28 17 -28c9 0 17 2 23 6v177z" />
    <glyph glyph-name="yacute" unicode="&#xfd;" 
d="M931 715v-60l-665 -10v40zM620 600h560v-300c0 -239 -184 -315 -619 -315c-196 0 -424 14 -541 25v230h287c211 0 313 14 313 90h-10c-56 -42 -173 -50 -283 -50c-170 0 -307 35 -307 205v115h560v-155c0 -13 3 -28 17 -28c9 0 17 2 23 6v177z" />
    <glyph glyph-name="ycircumflex" unicode="&#x177;" 
d="M930 645l-330 15l-330 -15v40l330 30l330 -30v-40zM620 600h560v-300c0 -239 -184 -315 -619 -315c-196 0 -424 14 -541 25v230h287c211 0 313 14 313 90h-10c-56 -42 -173 -50 -283 -50c-170 0 -307 35 -307 205v115h560v-155c0 -13 3 -28 17 -28c9 0 17 2 23 6v177z
" />
    <glyph glyph-name="ydieresis" unicode="&#xff;" 
d="M302 650c-23 0 -40 14 -40 33c0 18 17 32 40 32s41 -14 41 -32c0 -19 -18 -33 -41 -33zM897 650c-23 0 -40 14 -40 33c0 18 17 32 40 32s41 -14 41 -32c0 -19 -18 -33 -41 -33zM620 600h560v-300c0 -239 -184 -315 -619 -315c-196 0 -424 14 -541 25v230h287
c211 0 313 14 313 90h-10c-56 -42 -173 -50 -283 -50c-170 0 -307 35 -307 205v115h560v-155c0 -13 3 -28 17 -28c9 0 17 2 23 6v177z" />
    <glyph glyph-name="ygrave" unicode="&#x1ef3;" 
d="M932 685v-40l-665 10v60zM620 600h560v-300c0 -239 -184 -315 -619 -315c-196 0 -424 14 -541 25v230h287c211 0 313 14 313 90h-10c-56 -42 -173 -50 -283 -50c-170 0 -307 35 -307 205v115h560v-155c0 -13 3 -28 17 -28c9 0 17 2 23 6v177z" />
    <glyph glyph-name="z" unicode="z" 
d="M20 -1v261l697 99v10l-697 -59v290h1160v-261l-695 -109v-10l695 69v-290h-1160z" />
    <glyph glyph-name="zacute" unicode="&#x17a;" 
d="M266 645v40l665 30v-60zM20 -1v261l697 99v10l-697 -59v290h1160v-261l-695 -109v-10l695 69v-290h-1160z" />
    <glyph glyph-name="zcaron" unicode="&#x17e;" 
d="M600 645l-330 30v40l330 -15l330 15v-40zM20 -1v261l697 99v10l-697 -59v290h1160v-261l-695 -109v-10l695 69v-290h-1160z" />
    <glyph glyph-name="zdotaccent" unicode="&#x17c;" 
d="M599 650c-53 0 -67 11 -67 33c0 21 14 32 67 32s68 -11 68 -32c0 -22 -15 -33 -68 -33zM20 -1v261l697 99v10l-697 -59v290h1160v-261l-695 -109v-10l695 69v-290h-1160z" />
    <glyph glyph-name="x.ext-l" 
d="M1108 289l82 -289h-573l-25 241h-14l-25 -241h-573l82 289l-62 311h553l26 -267h12l26 267h553z" />
    <glyph glyph-name="x.ext-lr" 
d="M1138 289l82 -289h-588l-25 241h-14l-25 -241h-588l82 289l-62 311h568l26 -267h12l26 267h568z" />
    <glyph glyph-name="k.ext-r" 
d="M1220 600l-88 -311l88 -289h-565l-40 270h-15v-270h-580v700h580v-370h14l41 270h565z" />
    <glyph glyph-name="uni0137.ext-r" 
d="M1210 600l-87 -261l87 -239h-555l-39 220h-16v-220h-580v600h580v-320h14l41 220h555zM449 25c133 0 134 1 134 35h75c0 -74 -2 -75 -209 -75v40z" />
    <glyph glyph-name="x.ext-r" 
d="M1138 289l82 -289h-573l-25 241h-14l-25 -241h-573l82 289l-62 311h553l26 -267h12l26 267h553z" />
    <glyph glyph-name="a.ss02" 
d="M1180 700v-700h-70v633h-39v-633h-179v633h-39v-633h-179v633h-39v-633h-179v633h-39v-633h-179v633h-39v-633h-179v700h70v-633h39v633h179v-633h39v633h179v-633h39v633h179v-633h39v633h179v-633h39v633h179z" />
    <glyph glyph-name="b.ss02" 
d="M1180 633h-1090v-38h1090v-172h-1090v-39h1090v-173h-1089v-39h1089v-172h-1160v67h1090v38h-1090v173h1090v39h-1090v173h1091v38h-1091v172h1160v-67z" />
    <glyph glyph-name="c.ss02" 
d="M1180 700v-700h-70v633h-39v-633h-178v633h-39v-422h-179v422h-39v-210h-179v210h-367v-38h328v-172h-328v-39h545v-173h-544v-39h762v-172h-833v67h763v38h-763v173h545v39h-545v173h329v38h-329v172h507v-210h39v210h179v-422h39v422h179v-633h38v633h179z" />
    <glyph glyph-name="d.ss02" 
d="M237 633h-38v-633h-179v700h70v-633h39v633h178v-528h39v528h179v-316h39v316h179v-172h-70v105h-39v-316h-179v316h-39v-528h-179v528zM1180 633h-328v-38h328v-172h-438v-39h438v-173h-655v-39h655v-172h-943v67h872v38h-654v173h655v39h-437v173h437v38h-328v172h398
v-67z" />
    <glyph glyph-name="e.ss02" 
d="M418 172v-172h-398v67h328v38h-328v172h438v39h-438v173h655v39h-655v172h943v-67h-872v-38h654v-173h-655v-39h437v-173h-437v-38h328zM1180 700v-700h-70v633h-39v-633h-178v528h-39v-528h-179v316h-39v-316h-179v172h70v-105h39v316h179v-316h39v528h179v-528h38v633
h179z" />
    <glyph glyph-name="f.ss02" 
d="M1180 633h-763v-38h763v-173h-545v-39h545v-173h-329v-38h329v-172h-507v210h-39v-210h-179v422h-39v-422h-179v633h-38v-633h-179v700h70v-633h39v633h178v-633h39v422h179v-422h39v210h179v-210h367v38h-328v172h328v39h-545v173h544v39h-762v172h833v-67z" />
    <glyph glyph-name="uni0410" unicode="&#x410;" 
d="M630 0l-8 155h-44l-8 -155h-560l80 700h1020l80 -700h-560zM582 225h36l-12 235h-12z" />
    <glyph glyph-name="uni0411" unicode="&#x411;" 
d="M620 359c379 0 570 -2 570 -176c0 -153 -165 -183 -533 -183h-37h-600v700h1160v-289h-560v-52zM634 151c29 0 37 15 37 62c0 70 -18 88 -51 90v-152h14z" />
    <glyph glyph-name="uni0412" unicode="&#x412;" 
d="M675 329c343 -1 515 -9 515 -156c0 -143 -165 -173 -570 -173h-600v700h742c240 0 428 -13 428 -172c0 -149 -172 -157 -515 -158v-41zM634 548h-14v-152c33 2 51 20 51 90c0 47 -8 62 -37 62zM634 151c29 0 37 15 37 62c0 70 -18 88 -51 90v-152h14z" />
    <glyph glyph-name="uni0413" unicode="&#x413;" 
d="M1180 700v-390h-560v-310h-600v700h1160z" />
    <glyph glyph-name="uni0403" unicode="&#x403;" 
d="M942 715v-60l-665 -10v40zM1180 600v-320h-560v-280h-600v600h1160z" />
    <glyph glyph-name="uni0490" unicode="&#x490;" 
d="M650 700h530v-470h-560v-230h-600v620h630v80z" />
    <glyph glyph-name="uni0414" unicode="&#x414;" 
d="M1100 300h80v-300h-280v80h-600v-80h-280v300h46c50 86 94 266 94 400h940v-400zM541 502c-5 -52 -27 -166 -37 -202h67v202h-30z" />
    <glyph glyph-name="uni0415" unicode="&#x415;" 
d="M1181 411l-561 10v-37l439 -4v-60l-439 -4v-37l560 10v-289h-1160v700h1161v-289z" />
    <glyph glyph-name="uni0400" unicode="&#x400;" 
d="M932 685v-40l-665 10v60zM1180 359l-564 10v-38l443 -8v-50l-443 -8v-38l564 10v-237h-1160v600h1160v-241z" />
    <glyph glyph-name="uni0401" unicode="&#x401;" 
d="M302 650c-23 0 -40 14 -40 33c0 18 17 32 40 32s41 -14 41 -32c0 -19 -18 -33 -41 -33zM897 650c-23 0 -40 14 -40 33c0 18 17 32 40 32s41 -14 41 -32c0 -19 -18 -33 -41 -33zM1180 359l-564 10v-38l443 -8v-50l-443 -8v-38l564 10v-237h-1160v600h1160v-241z" />
    <glyph glyph-name="uni0416" unicode="&#x416;" 
d="M1190 700l-73 -350l73 -350h-350l-39 320h-11v-320h-375v320h-16l-39 -320h-350l73 350l-73 350h350l40 -320h15v320h375v-320h10l40 320h350z" />
    <glyph glyph-name="uni0417" unicode="&#x417;" 
d="M622 -15c-500 0 -607 153 -607 308h540v-32c0 -30 4 -51 26 -51c18 0 24 14 24 54c0 38 -9 66 -74 66h-115v40h113c67 0 76 28 76 66c0 40 -6 54 -24 54c-22 0 -26 -21 -26 -51v-32h-540c0 155 107 308 607 308c331 0 568 -29 568 -199c0 -135 -118 -146 -387 -146h-137
v-40h137c269 0 387 -1 387 -146c0 -170 -237 -199 -568 -199z" />
    <glyph glyph-name="uni0418" unicode="&#x418;" 
d="M640 700h540v-700h-540v434h-10l-70 -434h-540v700h540v-434h10z" />
    <glyph glyph-name="uni0419" unicode="&#x419;" 
d="M600 650c-293 0 -322 11 -344 65h130c10 -14 21 -25 214 -25s204 11 214 25h130c-22 -54 -51 -65 -344 -65zM640 600h540v-600h-540v354h-10l-70 -354h-540v600h540v-364h10z" />
    <glyph glyph-name="uni040D" unicode="&#x40d;" 
d="M932 685v-40l-665 10v60zM637 600h543v-600h-543v359h-10l-64 -359h-543v600h543v-359h10z" />
    <glyph glyph-name="uni041A" unicode="&#x41a;" 
d="M1190 700l-83 -350l83 -350h-540l-40 315h-10v-315h-580v700h580v-315h10l40 315h540z" />
    <glyph glyph-name="uni040C" unicode="&#x40c;" 
d="M931 715v-60l-665 -10v40zM1190 600l-83 -311l83 -289h-540l-38 270h-12v-270h-580v600h580v-270h11l39 270h540z" />
    <glyph glyph-name="uni041B" unicode="&#x41b;" 
d="M1180 700v-700h-534v381h-30l-6 -121c-10 -200 -110 -275 -315 -275c-107 0 -204 15 -275 30v355c53 0 80 14 84 70l20 260h1056z" />
    <glyph glyph-name="uni041C" unicode="&#x41c;" 
d="M1190 0h-509l-29 434h-6l-24 -434h-45l-24 434h-6l-29 -434h-508l40 700h515l30 -514h10l29 514h516z" />
    <glyph glyph-name="uni041D" unicode="&#x41d;" 
d="M620 700h560v-700h-560v315h-40v-315h-560v700h560v-315h40v315z" />
    <glyph glyph-name="uni041E" unicode="&#x41e;" 
d="M601 -15c-427 0 -591 109 -591 366c0 262 170 364 590 364c426 0 590 -105 590 -363s-163 -367 -589 -367zM602 238c16 0 26 8 26 116c0 99 -9 108 -27 108s-27 -9 -27 -109c0 -104 9 -115 28 -115z" />
    <glyph glyph-name="uni041F" unicode="&#x41f;" 
d="M1180 700v-700h-560v381h-40v-381h-560v700h1160z" />
    <glyph glyph-name="uni0420" unicode="&#x420;" 
d="M687 700c374 0 503 -58 503 -225c0 -182 -155 -249 -540 -249h-40v-226h-590v700h667zM613 296c22 0 47 25 47 90c0 51 -15 74 -37 74h-13v-164h3z" />
    <glyph glyph-name="uni0421" unicode="&#x421;" 
d="M585 -15c-375 0 -575 96 -575 366c0 258 184 363 637 363c171 0 362 -15 533 -35l10 -320h-540c0 53 -7 73 -27 73c-29 0 -31 -45 -31 -90s2 -94 31 -94c19 0 27 20 27 71h540c0 -195 -153 -334 -605 -334z" />
    <glyph glyph-name="uni0422" unicode="&#x422;" 
d="M1180 700v-390h-280v-310h-600v310h-280v390h1160z" />
    <glyph glyph-name="uni0423" unicode="&#x423;" 
d="M620 700h560v-400c0 -239 -184 -315 -619 -315c-196 0 -424 14 -541 25v230h287c211 0 313 14 313 90h-10c-56 -42 -173 -50 -283 -50c-170 0 -307 35 -307 205v215h560v-255c0 -13 3 -28 17 -28c9 0 17 2 23 6v277z" />
    <glyph glyph-name="uni040E" unicode="&#x40e;" 
d="M600 650c-293 0 -322 11 -344 65h130c10 -14 21 -25 214 -25s204 11 214 25h130c-22 -54 -51 -65 -344 -65zM620 600h560v-300c0 -239 -184 -315 -619 -315c-196 0 -424 14 -541 25v230h287c211 0 313 14 313 90h-10c-56 -42 -173 -50 -283 -50c-170 0 -307 35 -307 205
v115h560v-155c0 -13 3 -28 17 -28c9 0 17 2 23 6v177z" />
    <glyph glyph-name="uni0424" unicode="&#x424;" 
d="M1190 352c0 -197 -111 -285 -390 -309v-43h-400v43c-278 25 -390 113 -390 308c0 199 115 283 390 307v42h400v-42c278 -24 390 -110 390 -306zM364 353c0 -102 18 -114 46 -115v224c-27 0 -46 -10 -46 -109zM792 238c26 0 46 8 46 116c0 99 -19 108 -47 108h-1v-224h2z
" />
    <glyph glyph-name="uni0425" unicode="&#x425;" 
d="M1190 700l-82 -361l82 -339h-558l-27 302h-10l-27 -302h-558l82 339l-82 361h558l27 -328h10l27 328h558z" />
    <glyph glyph-name="uni0427" unicode="&#x427;" 
d="M620 700h560v-700h-560v320h-10c-75 -106 -183 -155 -323 -155c-160 0 -267 40 -267 240v295h560v-255c0 -13 3 -28 17 -28c9 0 17 2 23 6v277z" />
    <glyph glyph-name="uni0426" unicode="&#x426;" 
d="M1100 400h80v-400h-280v80h-880v620h510v-300h40v300h530v-300z" />
    <glyph glyph-name="uni0428" unicode="&#x428;" 
d="M820 700h360v-700h-1160v700h360v-420h40v420h360v-420h40v420z" />
    <glyph glyph-name="uni0429" unicode="&#x429;" 
d="M1102 360h78v-360h-280v80h-880v620h334v-340h40v340h334v-340h40v340h334v-340z" />
    <glyph glyph-name="uni040F" unicode="&#x40f;" 
d="M610 700h570v-620h-315v-80h-530v80h-315v620h550v-340h40v340z" />
    <glyph glyph-name="uni042C" unicode="&#x42c;" 
d="M668 474c361 0 522 -57 522 -240c0 -170 -138 -234 -503 -234h-667v700h590v-227c19 1 38 1 58 1zM623 240c22 0 37 23 37 74c0 65 -25 90 -47 90h-3v-164h13z" />
    <glyph glyph-name="uni042A" unicode="&#x42a;" 
d="M732 474c290 0 458 -37 458 -233c0 -173 -132 -241 -463 -241h-627v420h-80v280h630v-227c26 1 53 1 82 1zM663 240c22 0 37 23 37 74c0 65 -25 90 -47 90h-3v-164h13z" />
    <glyph glyph-name="uni042B" unicode="&#x42b;" 
d="M432 474c196 0 348 -47 348 -237c0 -179 -135 -237 -373 -237h-387v700h360v-227c16 1 34 1 52 1zM820 700h360v-700h-360v700zM393 240c22 0 37 23 37 74c0 65 -25 90 -47 90h-3v-164h13z" />
    <glyph glyph-name="uni0409" unicode="&#x409;" 
d="M839 474c194 0 351 -47 351 -240c0 -176 -130 -234 -373 -234h-387v381h-23l-9 -171c-4 -87 -12 -225 -205 -225c-70 0 -138 18 -173 30v355c53 0 80 14 84 70l20 260h666v-227c15 1 32 1 49 1zM803 240c22 0 37 23 37 74c0 65 -25 90 -47 90h-3v-164h13z" />
    <glyph glyph-name="uni040A" unicode="&#x40a;" 
d="M830 415c205 0 360 -38 360 -200c0 -157 -129 -215 -373 -215h-392v345h-40v-345h-365v700h365v-285h40v285h365v-285h40zM803 180c22 0 37 23 37 74c0 65 -25 90 -47 90h-3v-164h13z" />
    <glyph glyph-name="uni0405" unicode="&#x405;" 
d="M593 -15c-217 0 -475 39 -563 68v303c93 -57 213 -84 366 -84c88 0 176 9 246 29l-6 26c-77 -10 -167 -18 -248 -18c-235 0 -378 68 -378 180c0 160 229 226 591 226c271 0 526 -49 569 -68v-301c-92 56 -209 84 -366 84c-84 0 -173 -8 -256 -29l6 -26
c83 11 177 18 258 18c245 0 378 -65 378 -191c0 -155 -205 -217 -597 -217z" />
    <glyph glyph-name="uni0404" unicode="&#x404;" 
d="M583 -15c-408 0 -568 110 -568 365c0 281 217 365 568 365c500 0 607 -153 607 -308h-540v32c0 30 -4 51 -25 51c-19 0 -25 -14 -25 -54v-66h189v-40h-189v-66c0 -40 6 -54 24 -54c22 0 26 21 26 51v32h540c0 -155 -107 -308 -607 -308z" />
    <glyph glyph-name="uni042D" unicode="&#x42d;" 
d="M622 -15c-500 0 -607 153 -607 308h540v-32c0 -30 4 -51 26 -51c18 0 24 14 24 54v66h-189v40h189v66c0 40 -6 54 -24 54c-22 0 -26 -21 -26 -51v-32h-540c0 155 107 308 607 308c351 0 568 -84 568 -365c0 -255 -160 -365 -568 -365z" />
    <glyph glyph-name="uni0406" unicode="&#x406;" 
d="M1180 420h-280v-140h280v-280h-1160v280h280v140h-280v280h1160v-280z" />
    <glyph glyph-name="uni0407" unicode="&#x407;" 
d="M302 650c-23 0 -40 14 -40 33c0 18 17 32 40 32s41 -14 41 -32c0 -19 -18 -33 -41 -33zM897 650c-23 0 -40 14 -40 33c0 18 17 32 40 32s41 -14 41 -32c0 -19 -18 -33 -41 -33zM1180 320h-280v-40h280v-280h-1160v280h280v40h-280v280h1160v-280z" />
    <glyph glyph-name="uni0408" unicode="&#x408;" 
d="M1180 700v-317c0 -349 -324 -398 -611 -398c-225 0 -549 30 -549 30v265s102 -2 214 -2c317 0 346 16 346 103v39h-560v280h1160z" />
    <glyph glyph-name="uni040B" unicode="&#x40b;" 
d="M943 415c130 0 237 -40 237 -240v-175h-500v135c0 13 -3 28 -17 28c-9 0 -17 -2 -23 -6v-157h-500v405h-120v295h740v-295h-120v-145h10c75 106 183 155 293 155z" />
    <glyph glyph-name="uni042E" unicode="&#x42e;" 
d="M790 715c236 0 400 -106 400 -363c0 -258 -163 -367 -399 -367c-226 0 -383 99 -398 330h-21v-315h-352v700h352v-315h21c14 237 177 330 397 330zM794 238c16 0 26 8 26 116c0 99 -9 108 -27 108s-27 -9 -27 -109c0 -104 9 -115 28 -115z" />
    <glyph glyph-name="uni042F" unicode="&#x42f;" 
d="M1180 700v-700h-590v250h-31l-29 -250h-509l80 310c-63 35 -91 87 -91 165c0 167 129 225 503 225h667zM587 296h3v164h-13c-22 0 -37 -23 -37 -74c0 -65 25 -90 47 -90z" />
    <glyph glyph-name="uni0402" unicode="&#x402;" 
d="M953 415c130 0 237 -50 237 -200c0 -143 -102 -215 -510 -215v120c27 0 40 7 40 22c0 14 -13 21 -42 21c-17 0 -29 -3 -38 -7v-156h-500v405h-120v295h740v-295h-120v-145h10c75 106 183 155 303 155z" />
    <glyph glyph-name="uni0492" unicode="&#x492;" 
d="M1180 310h-520v-40h181v-40h-181v-230h-600v230h-40v40h40v430h1120v-390z" />
    <glyph glyph-name="uni0496" unicode="&#x496;" 
d="M1117 390l26 -110h47v-280h-280v80h-70l-39 280h-11v-280h-375v280h-16l-39 -280h-350l73 310l-73 310h350l40 -280h15v280h375v-280h10l40 280h350z" />
    <glyph glyph-name="uni0498" unicode="&#x498;" 
d="M803 377c269 0 387 -1 387 -121c0 -147 -237 -176 -568 -176h-1l9 -65v-30h-60v30l9 65c-463 9 -564 156 -564 260h539v-32c0 -30 4 -51 27 -51c18 0 24 14 24 54c0 38 -9 66 -74 66h-115v40h113c67 0 76 28 76 66c0 40 -6 54 -24 54c-23 0 -27 -21 -27 -51v-32h-539
c0 105 107 261 607 261c331 0 568 -29 568 -177c0 -110 -118 -121 -387 -121h-137v-40h137z" />
    <glyph glyph-name="uni049A" unicode="&#x49a;" 
d="M1107 379l28 -99h55v-280h-280v80h-260l-38 280h-12v-280h-580v620h580v-280h10l40 280h540z" />
    <glyph glyph-name="uni049C" unicode="&#x49c;" 
d="M1190 700l-83 -350l83 -350h-500l-20 320h-30v-240h-40v240h-40v-320h-540v700h540v-320h40v240h40v-240h30l20 320h500z" />
    <glyph glyph-name="uni04A0" unicode="&#x4a0;" 
d="M1190 700l-83 -350l83 -350h-510l-40 320h-10v-320h-530v420h-80v280h610v-320h10l40 320h510z" />
    <glyph glyph-name="uni04A2" unicode="&#x4a2;" 
d="M1140 280h50v-280h-280v80h-310v275h-40v-275h-540v620h540v-275h40v275h540v-420z" />
    <glyph glyph-name="uni04AA" unicode="&#x4aa;" 
d="M622 325c20 0 28 11 28 51h540c0 -172 -149 -290 -570 -296l10 -67v-30h-60v30l10 67c-372 2 -570 89 -570 323s199 312 607 312c202 0 440 -21 563 -36l10 -263h-540c0 47 -7 73 -28 73c-28 0 -30 -47 -30 -91c0 -52 5 -73 30 -73z" />
    <glyph glyph-name="uni04AE" unicode="&#x4ae;" 
d="M1190 700l-289 -562v-138h-600v136l-291 564h558l26 -300h14l24 300h558z" />
    <glyph glyph-name="uni04B0" unicode="&#x4b0;" 
d="M1190 700l-278 -541h176v-40h-187v-119h-600v119h-189v40h177l-279 541h558l26 -300h14l24 300h558z" />
    <glyph glyph-name="uni04B2" unicode="&#x4b2;" 
d="M1108 389l29 -109h53v-280h-280v80h-278l-27 251h-10l-27 -251h-558l82 309l-82 311h558l27 -277h10l27 277h558z" />
    <glyph glyph-name="uni04B6" unicode="&#x4b6;" 
d="M1110 280h80v-280h-280v80h-310v240h-10c-75 -106 -183 -155 -313 -155c-150 0 -257 40 -257 240v295h540v-255c0 -13 3 -28 17 -28c9 0 17 2 23 6v277h510v-420z" />
    <glyph glyph-name="uni04B8" unicode="&#x4b8;" 
d="M620 700h560v-700h-560v320h-40v-140h-40v140h-10c-75 -106 -183 -155 -283 -155c-120 0 -227 30 -227 230v305h480v-215c0 -45 4 -63 40 -67v182h40v-183c17 1 30 2 40 7v276z" />
    <glyph glyph-name="uni04BA" unicode="&#x4ba;" 
d="M913 535c160 0 267 -40 267 -240v-295h-560v255c0 13 -3 28 -17 28c-9 0 -17 -2 -23 -6v-277h-560v700h560v-320h10c75 106 183 155 323 155z" />
    <glyph glyph-name="uni04C0" unicode="&#x4c0;" 
d="M1180 420h-280v-140h280v-280h-1160v280h280v140h-280v280h1160v-280z" />
    <glyph glyph-name="uni04C1" unicode="&#x4c1;" 
d="M600 650c-293 0 -322 11 -344 65h130c10 -14 21 -25 214 -25s204 11 214 25h130c-22 -54 -51 -65 -344 -65zM1190 600l-73 -300l73 -300h-350l-39 270h-11v-270h-375v270h-16l-39 -270h-350l73 300l-73 300h350l40 -270h15v270h375v-270h10l40 270h350z" />
    <glyph glyph-name="uni04D0" unicode="&#x4d0;" 
d="M600 650c-293 0 -322 11 -344 65h130c10 -14 21 -25 214 -25s204 11 214 25h130c-22 -54 -51 -65 -344 -65zM630 0l-9 135h-42l-9 -135h-560l90 600h1000l90 -600h-560zM584 206h32l-10 154h-12z" />
    <glyph glyph-name="uni04D6" unicode="&#x4d6;" 
d="M600 650c-293 0 -322 11 -344 65h130c10 -14 21 -25 214 -25s204 11 214 25h130c-22 -54 -51 -65 -344 -65zM1180 359l-564 10v-38l443 -8v-50l-443 -8v-38l564 10v-237h-1160v600h1160v-241z" />
    <glyph glyph-name="uni04D8" unicode="&#x4d8;" 
d="M571 715c427 0 619 -100 619 -357c0 -287 -199 -373 -591 -373c-413 0 -589 105 -589 330l20 50h573c-9 35 -36 40 -108 40h-455v275c108 15 320 35 531 35zM577 236c26 0 30 40 31 70h-58c2 -49 8 -70 27 -70z" />
    <glyph glyph-name="uni04E2" unicode="&#x4e2;" 
d="M933 700v-55h-665v55h665zM637 600h543v-600h-543v359h-10l-64 -359h-543v600h543v-359h10z" />
    <glyph glyph-name="uni04E6" unicode="&#x4e6;" 
d="M302 650c-23 0 -40 14 -40 33c0 18 17 32 40 32s41 -14 41 -32c0 -19 -18 -33 -41 -33zM897 650c-23 0 -40 14 -40 33c0 18 17 32 40 32s41 -14 41 -32c0 -19 -18 -33 -41 -33zM600 -15c-429 0 -590 107 -590 317c0 213 167 318 590 318c426 0 590 -106 590 -318
c0 -210 -161 -317 -590 -317zM601 226c12 0 25 9 25 82s-13 82 -25 82c-13 0 -25 -9 -25 -82s12 -82 25 -82z" />
    <glyph glyph-name="uni04E8" unicode="&#x4e8;" 
d="M600 715c426 0 590 -105 590 -363s-163 -367 -589 -367c-427 0 -591 109 -591 366c0 262 170 364 590 364zM601 502c-17 0 -25 -8 -27 -117h54c-2 109 -10 117 -27 117zM602 198c14 0 24 7 26 117h-54c2 -108 11 -117 28 -117z" />
    <glyph glyph-name="uni04EE" unicode="&#x4ee;" 
d="M933 700v-55h-665v55h665zM620 600h560v-300c0 -239 -184 -315 -619 -315c-196 0 -424 14 -541 25v230h287c211 0 313 14 313 90h-10c-56 -42 -173 -50 -283 -50c-170 0 -307 35 -307 205v115h560v-155c0 -13 3 -28 17 -28c9 0 17 2 23 6v177z" />
    <glyph glyph-name="uni04F2" unicode="&#x4f2;" 
d="M580 715v-60l-403 -10v40zM1023 715v-60l-403 -10v40zM620 600h560v-300c0 -239 -184 -315 -619 -315c-196 0 -424 14 -541 25v230h287c211 0 313 14 313 90h-10c-56 -42 -173 -50 -283 -50c-170 0 -307 35 -307 205v115h560v-155c0 -13 3 -28 17 -28c9 0 17 2 23 6v177z
" />
    <glyph glyph-name="uni0410.ext-l" 
d="M630 0l-8 155h-44l-8 -155h-595l90 700h1045l80 -700h-560zM582 225h36l-12 235h-12z" />
    <glyph glyph-name="uni0416.ext-l" 
d="M1190 700l-73 -350l73 -350h-370l-39 320h-11v-320h-375v320h-16l-39 -320h-370l73 350l-73 350h370l40 -320h15v320h375v-320h10l40 320h370z" />
    <glyph glyph-name="uni04AE.ext-l" 
d="M1190 700l-279 -542v-158h-700v158l-241 542h553l26 -300h14l24 300h603z" />
    <glyph glyph-name="uni04B0.ext-l" 
d="M1190 700l-278 -541h156v-40h-157v-119h-700v119h-119v40h119l-241 541h553l26 -300h14l24 300h603z" />
    <glyph glyph-name="uni04C1.ext-l" 
d="M589 650c-293 0 -322 11 -344 65h130c10 -14 21 -25 214 -25s204 11 214 25h130c-22 -54 -51 -65 -344 -65zM1190 600l-73 -300l73 -300h-360l-39 270h-11v-270h-385v270h-16l-39 -270h-360l73 300l-73 300h360l40 -270h15v270h385v-270h10l40 270h360z" />
    <glyph glyph-name="uni04D0.ext-l" 
d="M600 650c-293 0 -322 11 -344 65h130c10 -14 21 -25 214 -25s204 11 214 25h130c-22 -54 -51 -65 -344 -65zM613 0l-9 135h-42l-9 -135h-578l80 600h1045l90 -600h-577zM567 206h32l-10 154h-12z" />
    <glyph glyph-name="uni041B.loclBGR.ext-l" 
d="M1110 700l80 -700h-570l-24 460h-12l-24 -460h-585l90 700h1045z" />
    <glyph glyph-name="uni0410.ext-lr" 
d="M630 0l-8 155h-44l-8 -155h-595l90 700h1070l90 -700h-595zM582 225h36l-12 235h-12z" />
    <glyph glyph-name="uni0416.ext-lr" 
d="M1230 700l-73 -350l73 -350h-390l-39 320h-11v-320h-375v320h-16l-39 -320h-390l73 350l-73 350h390l40 -320h15v320h375v-320h10l40 320h390z" />
    <glyph glyph-name="uni04AE.ext-lr" 
d="M1230 700l-247 -558v-142h-754v140l-259 560h598l26 -300h14l24 300h598z" />
    <glyph glyph-name="uni04B0.ext-lr" 
d="M1230 700l-240 -541h108v-40h-115v-119h-754v119h-127v40h118l-250 541h598l26 -300h14l24 300h598z" />
    <glyph glyph-name="uni04C1.ext-lr" 
d="M604 650c-293 0 -322 11 -344 65h130c10 -14 21 -25 214 -25s204 11 214 25h130c-22 -54 -51 -65 -344 -65zM1220 600l-73 -300l73 -300h-370l-39 270h-11v-270h-395v270h-16l-39 -270h-370l73 300l-73 300h370l40 -270h15v270h395v-270h10l40 270h370z" />
    <glyph glyph-name="uni04D0.ext-lr" 
d="M600 650c-293 0 -322 11 -344 65h130c10 -14 21 -25 214 -25s204 11 214 25h130c-22 -54 -51 -65 -344 -65zM630 0l-9 135h-42l-9 -135h-595l80 600h1080l90 -600h-595zM584 206h32l-10 154h-12z" />
    <glyph glyph-name="uni041B.loclBGR.ext-lr" 
d="M1135 700l90 -700h-595l-24 460h-12l-24 -460h-595l90 700h1070z" />
    <glyph glyph-name="uni0410.ext-r" 
d="M648 0l-8 155h-44l-8 -155h-578l80 700h1045l90 -700h-577zM600 225h36l-12 235h-12z" />
    <glyph glyph-name="uni0416.ext-r" 
d="M1230 700l-73 -350l73 -350h-370l-39 320h-11v-320h-375v320h-16l-39 -320h-370l73 350l-73 350h370l40 -320h15v320h375v-320h10l40 320h370z" />
    <glyph glyph-name="uni041A.ext-r" 
d="M1230 700l-83 -361l83 -339h-580l-39 320h-11v-320h-580v700h580v-320h10l40 320h580z" />
    <glyph glyph-name="uni040C.ext-r" 
d="M931 715v-60l-665 -10v40zM1220 600l-83 -311l83 -289h-570l-38 270h-12v-270h-580v600h580v-270h11l39 270h570z" />
    <glyph glyph-name="uni049C.ext-r" 
d="M1230 700l-83 -350l83 -350h-530l-20 320h-30v-240h-40v240h-40v-320h-550v700h550v-320h40v240h40v-240h30l20 320h530z" />
    <glyph glyph-name="uni04A0.ext-r" 
d="M1230 700l-83 -350l83 -350h-530l-40 320h-10v-320h-550v420h-80v280h630v-320h10l40 320h530z" />
    <glyph glyph-name="uni04AE.ext-r" 
d="M1230 700l-229 -539v-161h-700v155l-291 545h603l26 -300h14l24 300h553z" />
    <glyph glyph-name="uni04B0.ext-r" 
d="M1001 161v-2h107v-40h-107v-119h-700v119h-169v40h167l-289 541h603l26 -300h14l24 300h553z" />
    <glyph glyph-name="uni04C1.ext-r" 
d="M619 650c-293 0 -322 11 -344 65h130c10 -14 21 -25 214 -25s204 11 214 25h130c-22 -54 -51 -65 -344 -65zM1220 600l-73 -300l73 -300h-360l-39 270h-11v-270h-385v270h-16l-39 -270h-360l73 300l-73 300h360l40 -270h15v270h385v-270h10l40 270h360z" />
    <glyph glyph-name="uni04D0.ext-r" 
d="M600 650c-293 0 -322 11 -344 65h130c10 -14 21 -25 214 -25s204 11 214 25h130c-22 -54 -51 -65 -344 -65zM648 0l-9 135h-42l-9 -135h-578l80 600h1045l90 -600h-577zM602 206h32l-10 154h-12z" />
    <glyph glyph-name="uni041B.loclBGR.ext-r" 
d="M1135 700l90 -700h-578l-24 460h-12l-24 -460h-577l80 700h1045z" />
    <glyph glyph-name="uni0414.loclBGR" 
d="M1118 300h62v-300h-280v80h-600v-80h-280v300h62l98 400h840zM590 502l-14 -202h48l-14 202h-20z" />
    <glyph glyph-name="uni041B.loclBGR" 
d="M1110 700l80 -700h-560l-24 460h-12l-24 -460h-560l80 700h1020z" />
    <glyph glyph-name="uni0424.loclBGR" 
d="M1190 352c0 -197 -111 -285 -390 -309v-43h-400v43c-278 25 -390 113 -390 308c0 199 115 283 390 307v42h400v-42c278 -24 390 -110 390 -306zM364 353c0 -102 18 -114 46 -115v224c-27 0 -46 -10 -46 -109zM792 238c26 0 46 8 46 116c0 99 -19 108 -47 108h-1v-224h2z
" />
    <glyph glyph-name="uni0430" unicode="&#x430;" 
d="M694 620c326 0 486 -49 486 -348v-272h-590l-10 60h-10c-75 -46 -155 -75 -298 -75c-205 0 -262 59 -262 140c0 168 244 177 569 177c-2 30 -15 42 -81 42h-458v241c166 15 448 35 654 35zM564 127c6 0 12 2 16 5v100c-5 1 -11 1 -14 1c-23 0 -26 -20 -26 -53
s3 -53 24 -53z" />
    <glyph glyph-name="uni0431" unicode="&#x431;" 
d="M307 322c115 118 307 139 468 139c323 0 415 -73 415 -206c0 -150 -103 -270 -582 -270c-391 0 -598 85 -598 312c0 280 291 384 693 384c41 0 48 13 48 33h429c0 -155 -130 -216 -405 -216c-272 0 -418 -63 -488 -159zM602 143c16 0 24 22 24 87c0 42 -3 69 -22 69
c-10 0 -18 -7 -23 -15c0 -112 2 -141 21 -141z" />
    <glyph glyph-name="uni0432" unicode="&#x432;" 
d="M675 280c343 -1 515 -9 515 -131c0 -119 -165 -149 -570 -149h-600v601h742c240 0 428 -13 428 -147c0 -124 -172 -132 -515 -133v-41zM620 347c33 2 51 20 51 65c0 47 -8 62 -37 62h-14v-127zM634 127c29 0 37 15 37 62c0 45 -18 63 -51 65v-127h14z" />
    <glyph glyph-name="uni0433" unicode="&#x433;" 
d="M1180 600v-320h-560v-280h-600v600h1160z" />
    <glyph glyph-name="uni0453" unicode="&#x453;" 
d="M942 715v-60l-665 -10v40zM1180 600v-320h-560v-280h-600v600h1160z" />
    <glyph glyph-name="uni0491" unicode="&#x491;" 
d="M650 700h530v-420h-560v-280h-600v600h630v100z" />
    <glyph glyph-name="uni0434" unicode="&#x434;" 
d="M1100 240h80v-240h-280v80h-600v-80h-280v240h46c50 84 94 246 94 360h940v-360zM541 442c-5 -52 -27 -166 -37 -202h67v202h-30z" />
    <glyph glyph-name="uni0435" unicode="&#x435;" 
d="M1190 340l-20 -50h-573c9 -35 36 -40 108 -40h455v-230c-108 -15 -320 -35 -531 -35c-427 0 -619 80 -619 312c0 237 199 323 591 323c433 0 589 -105 589 -280zM623 419c-26 0 -30 -40 -31 -70h58c-2 49 -8 70 -27 70z" />
    <glyph glyph-name="uni0450" unicode="&#x450;" 
d="M932 685v-40l-665 10v60zM1190 340l-20 -50h-573c9 -35 36 -40 108 -40h455v-230c-108 -15 -320 -35 -531 -35c-427 0 -619 80 -619 312c0 237 199 323 591 323c433 0 589 -105 589 -280zM623 419c-26 0 -30 -40 -31 -70h58c-2 49 -8 70 -27 70z" />
    <glyph glyph-name="uni0451" unicode="&#x451;" 
d="M302 650c-23 0 -40 14 -40 33c0 18 17 32 40 32s41 -14 41 -32c0 -19 -18 -33 -41 -33zM897 650c-23 0 -40 14 -40 33c0 18 17 32 40 32s41 -14 41 -32c0 -19 -18 -33 -41 -33zM1190 340l-20 -50h-573c9 -35 36 -40 108 -40h455v-230c-108 -15 -320 -35 -531 -35
c-427 0 -619 80 -619 312c0 237 199 323 591 323c433 0 589 -105 589 -280zM623 419c-26 0 -30 -40 -31 -70h58c-2 49 -8 70 -27 70z" />
    <glyph glyph-name="uni0436" unicode="&#x436;" 
d="M1190 600l-73 -300l73 -300h-350l-39 270h-11v-270h-375v270h-16l-39 -270h-350l73 300l-73 300h350l40 -270h15v270h375v-270h10l40 270h350z" />
    <glyph glyph-name="uni0437" unicode="&#x437;" 
d="M622 -15c-500 0 -607 153 -607 260h539v-32c0 -30 4 -51 27 -51c18 0 24 14 24 54c0 38 -9 66 -74 66h-115v40h113c67 0 76 28 76 66c0 40 -6 54 -24 54c-23 0 -27 -21 -27 -51v-32h-539c0 105 107 261 607 261c331 0 568 -29 568 -177c0 -110 -118 -121 -387 -121h-137
v-40h137c269 0 387 -1 387 -121c0 -147 -237 -176 -568 -176z" />
    <glyph glyph-name="uni0438" unicode="&#x438;" 
d="M637 600h543v-600h-543v359h-10l-64 -359h-543v600h543v-359h10z" />
    <glyph glyph-name="uni0439" unicode="&#x439;" 
d="M600 650c-293 0 -322 11 -344 65h130c10 -14 21 -25 214 -25s204 11 214 25h130c-22 -54 -51 -65 -344 -65zM640 600h540v-600h-540v354h-10l-70 -354h-540v600h540v-364h10z" />
    <glyph glyph-name="uni045D" unicode="&#x45d;" 
d="M932 685v-40l-665 10v60zM637 600h543v-600h-543v359h-10l-64 -359h-543v600h543v-359h10z" />
    <glyph glyph-name="uni043A" unicode="&#x43a;" 
d="M1190 600l-83 -311l83 -289h-540l-38 270h-12v-270h-580v600h580v-270h11l39 270h540z" />
    <glyph glyph-name="uni045C" unicode="&#x45c;" 
d="M931 715v-60l-665 -10v40zM1190 600l-83 -311l83 -289h-540l-38 270h-12v-270h-580v600h580v-270h11l39 270h540z" />
    <glyph glyph-name="uni043B" unicode="&#x43b;" 
d="M1180 600v-600h-534v320h-31l-5 -80c-13 -200 -110 -255 -315 -255c-107 0 -204 15 -275 30v315c53 0 78 14 84 70l20 200h1056z" />
    <glyph glyph-name="uni043C" unicode="&#x43c;" 
d="M1190 0h-509l-28 354h-7l-24 -354h-45l-24 354h-7l-28 -354h-508l40 600h515l30 -444h10l29 444h516z" />
    <glyph glyph-name="uni043D" unicode="&#x43d;" 
d="M620 600h560v-600h-560v265h-40v-265h-560v600h560v-265h40v265z" />
    <glyph glyph-name="uni043E" unicode="&#x43e;" 
d="M600 -15c-429 0 -590 107 -590 317c0 213 167 318 590 318c426 0 590 -106 590 -318c0 -210 -161 -317 -590 -317zM601 226c12 0 25 9 25 82s-13 82 -25 82c-13 0 -25 -9 -25 -82s12 -82 25 -82z" />
    <glyph glyph-name="uni043F" unicode="&#x43f;" 
d="M1180 600v-600h-560v320h-40v-320h-560v600h1160z" />
    <glyph glyph-name="uni0440" unicode="&#x440;" 
d="M1190 373c0 -178 -102 -248 -583 -249v-124h-587v600h577l10 -145h10c75 105 189 165 323 165c163 0 250 -82 250 -247zM616 194c25 0 37 27 37 82c0 50 -3 82 -27 82c-6 0 -13 -2 -19 -6v-158h9z" />
    <glyph glyph-name="uni0441" unicode="&#x441;" 
d="M623 -15c-420 0 -613 82 -613 316c0 240 203 319 606 319c287 0 564 -40 564 -40v-258h-495c-50 0 -83 -1 -83 -20s33 -20 83 -20h495l-20 -262s-262 -35 -537 -35z" />
    <glyph glyph-name="uni0442" unicode="&#x442;" 
d="M1180 600v-280h-280v-320h-600v320h-280v280h1160z" />
    <glyph glyph-name="uni0443" unicode="&#x443;" 
d="M620 600h560v-300c0 -239 -184 -315 -619 -315c-196 0 -424 14 -541 25v230h287c211 0 313 14 313 90h-10c-56 -42 -173 -50 -283 -50c-170 0 -307 35 -307 205v115h560v-155c0 -13 3 -28 17 -28c9 0 17 2 23 6v177z" />
    <glyph glyph-name="uni045E" unicode="&#x45e;" 
d="M600 650c-293 0 -322 11 -344 65h130c10 -14 21 -25 214 -25s204 11 214 25h130c-22 -54 -51 -65 -344 -65zM620 600h560v-300c0 -239 -184 -315 -619 -315c-196 0 -424 14 -541 25v230h287c211 0 313 14 313 90h-10c-56 -42 -173 -50 -283 -50c-170 0 -307 35 -307 205
v115h560v-155c0 -13 3 -28 17 -28c9 0 17 2 23 6v177z" />
    <glyph glyph-name="uni0444" unicode="&#x444;" 
d="M1190 352c0 -197 -111 -285 -390 -309v-43h-400v43c-278 25 -390 113 -390 308c0 199 115 283 390 307v42h400v-42c278 -24 390 -110 390 -306zM364 353c0 -102 18 -114 46 -115v224c-27 0 -46 -10 -46 -109zM792 238c26 0 46 8 46 116c0 99 -19 108 -47 108h-1v-224h2z
" />
    <glyph glyph-name="uni0445" unicode="&#x445;" 
d="M1108 289l82 -289h-558l-25 241h-14l-25 -241h-558l82 289l-62 311h538l26 -267h12l26 267h538z" />
    <glyph glyph-name="uni0447" unicode="&#x447;" 
d="M620 600h560v-600h-560v270h-10c-75 -106 -183 -155 -323 -155c-160 0 -267 40 -267 240v245h560v-205c0 -13 3 -28 17 -28c9 0 17 2 23 6v227z" />
    <glyph glyph-name="uni0446" unicode="&#x446;" 
d="M1100 320h80v-320h-280v80h-880v520h510v-280h40v280h530v-280z" />
    <glyph glyph-name="uni0448" unicode="&#x448;" 
d="M820 600h360v-600h-1160v600h360v-320h40v320h360v-320h40v320z" />
    <glyph glyph-name="uni0449" unicode="&#x449;" 
d="M1102 320h78v-320h-280v80h-880v520h334v-280h40v280h334v-280h40v280h334v-280z" />
    <glyph glyph-name="uni045F" unicode="&#x45f;" 
d="M610 600h570v-520h-315v-80h-530v80h-315v520h550v-240h40v240z" />
    <glyph glyph-name="uni044C" unicode="&#x44c;" 
d="M650 455c385 0 540 -28 540 -220c0 -177 -139 -235 -503 -235h-667v600h590v-145h40zM623 220c22 0 37 23 37 74c0 65 -25 90 -47 90h-3v-164h13z" />
    <glyph glyph-name="uni044A" unicode="&#x44a;" 
d="M690 455c345 0 500 -28 500 -220c0 -177 -129 -235 -463 -235h-627v320h-80v280h630v-145h40zM663 220c22 0 37 23 37 74c0 65 -25 90 -47 90h-3v-164h13z" />
    <glyph glyph-name="uni044B" unicode="&#x44b;" 
d="M420 455c215 0 370 -28 370 -210c0 -187 -129 -245 -383 -245h-387v600h360v-146c13 1 26 1 40 1zM820 600h360v-600h-360v600zM393 220c22 0 37 23 37 74c0 65 -25 90 -47 90h-3v-164h13z" />
    <glyph glyph-name="uni0459" unicode="&#x459;" 
d="M830 435c205 0 360 -18 360 -200c0 -177 -129 -235 -373 -235h-387v320h-25l-7 -110c-10 -150 -58 -225 -193 -225c-87 0 -142 16 -185 30v315c53 0 78 14 84 70l20 200h666v-165h40zM803 200c22 0 37 23 37 74c0 65 -25 90 -47 90h-3v-164h13z" />
    <glyph glyph-name="uni045A" unicode="&#x45a;" 
d="M830 435c205 0 360 -28 360 -210c0 -167 -129 -225 -373 -225h-392v365h-40v-365h-365v600h365v-165h40v165h365v-165h40zM803 200c22 0 37 23 37 74c0 65 -25 90 -47 90h-3v-164h13z" />
    <glyph glyph-name="uni0455" unicode="&#x455;" 
d="M593 -15c-185 0 -400 19 -573 45v258c76 -39 235 -68 377 -68c84 0 188 14 245 33l-6 26c-69 -14 -168 -24 -239 -24c-244 0 -387 56 -387 178c0 141 159 187 647 187c164 0 344 -15 523 -44v-248c-77 34 -235 59 -377 59c-87 0 -195 -14 -255 -34l6 -26
c70 14 175 25 249 25c254 0 387 -62 387 -180c0 -145 -135 -187 -597 -187z" />
    <glyph glyph-name="uni0454" unicode="&#x454;" 
d="M583 -15c-408 0 -568 101 -568 317c0 228 187 318 568 318c500 0 607 -156 607 -261h-540v32c0 30 -4 51 -26 51c-17 0 -23 -14 -23 -54v-66h188v-40h-188v-66c0 -40 6 -54 23 -54c22 0 26 21 26 51v32h540c0 -107 -107 -260 -607 -260z" />
    <glyph glyph-name="uni044D" unicode="&#x44d;" 
d="M622 -15c-500 0 -607 153 -607 260h540v-32c0 -30 4 -51 26 -51c17 0 23 14 23 54v66h-188v40h188v66c0 40 -6 54 -23 54c-22 0 -26 -21 -26 -51v-32h-540c0 105 107 261 607 261c381 0 568 -90 568 -318c0 -216 -160 -317 -568 -317z" />
    <glyph glyph-name="uni0456" unicode="&#x456;" 
d="M920 700v-60h-580v60h580zM920 280h260v-280h-1160v280h320v40h-320v280h900v-320z" />
    <glyph glyph-name="uni0457" unicode="&#x457;" 
d="M342 650c-23 0 -40 14 -40 33c0 18 17 32 40 32s41 -14 41 -32c0 -19 -18 -33 -41 -33zM937 650c-23 0 -40 14 -40 33c0 18 17 32 40 32s41 -14 41 -32c0 -19 -18 -33 -41 -33zM920 280h260v-280h-1160v280h320v40h-320v280h900v-320z" />
    <glyph glyph-name="uni0458" unicode="&#x458;" 
d="M580 700h600v-60h-600v60zM20 600h1160v-227c0 -332 -324 -388 -572 -388c-289 0 -588 30 -588 30v265h245c271 0 310 3 314 40h-559v280z" />
    <glyph glyph-name="uni045B" unicode="&#x45b;" 
d="M913 580c160 0 267 -30 267 -200v-380h-550v335c0 13 -3 28 -17 28c-9 0 -17 -2 -23 -6v-357h-540v612h-50v40h50v48h540v-48h180v-40h-180v-152h10c75 66 173 120 313 120z" />
    <glyph glyph-name="uni044E" unicode="&#x44e;" 
d="M790 620c256 0 400 -86 400 -313c0 -233 -143 -322 -399 -322c-243 0 -383 80 -398 285h-21v-270h-352v600h352v-260h21c14 206 160 280 397 280zM794 193c16 0 26 8 26 116c0 99 -9 108 -27 108s-27 -9 -27 -109c0 -104 9 -115 28 -115z" />
    <glyph glyph-name="uni044F" unicode="&#x44f;" 
d="M590 600h590v-600h-590v200h-29l-31 -200h-509l76 257c-63 32 -87 79 -87 148c0 162 131 195 580 195zM587 226h3v164h-13c-22 0 -37 -19 -37 -82c0 -53 25 -82 47 -82z" />
    <glyph glyph-name="uni0452" unicode="&#x452;" 
d="M923 580c150 0 257 -40 257 -200v-190c0 -160 -50 -200 -199 -200h-361v120c25 0 38 6 33 40l-25 185c-3 23 -11 28 -25 28c-5 0 -9 -1 -13 -2v-361h-540v612h-50v40h50v48h540v-48h180v-40h-180v-152h10c75 66 183 120 323 120z" />
    <glyph glyph-name="uni0493" unicode="&#x493;" 
d="M1180 280h-560v-40h221v-40h-221v-200h-560v200h-40v40h40v360h1120v-320z" />
    <glyph glyph-name="uni0497" unicode="&#x497;" 
d="M1117 390l26 -110h47v-280h-280v80h-70l-39 280h-11v-280h-375v280h-16l-39 -280h-350l73 310l-73 310h350l40 -280h15v280h375v-280h10l40 280h350z" />
    <glyph glyph-name="uni0499" unicode="&#x499;" 
d="M803 282c269 0 387 -1 387 -121c0 -146 -233 -176 -560 -176h-60v1c-455 10 -555 156 -555 259h539v-32c0 -30 4 -51 27 -51c18 0 24 14 24 54c0 38 -9 66 -74 66h-115v40h113c67 0 76 28 76 66c0 40 -6 54 -24 54c-23 0 -27 -21 -27 -51v-32h-539c0 105 107 261 607 261
c331 0 568 -29 568 -177c0 -110 -118 -121 -387 -121h-137v-40h137z" />
    <glyph glyph-name="uni049B" unicode="&#x49b;" 
d="M1107 379l28 -99h55v-280h-280v80h-260l-38 280h-12v-280h-580v620h580v-280h10l40 280h540z" />
    <glyph glyph-name="uni049D" unicode="&#x49d;" 
d="M1190 600l-83 -301l83 -299h-480l-38 270h-32v-190h-40v190h-40v-270h-540v600h540v-270h40v190h40v-190h31l39 270h480z" />
    <glyph glyph-name="uni04A1" unicode="&#x4a1;" 
d="M1190 600l-83 -301l83 -299h-520l-38 270h-12v-270h-520v320h-80v280h600v-270h11l39 270h520z" />
    <glyph glyph-name="uni04A3" unicode="&#x4a3;" 
d="M1140 280h50v-280h-280v80h-310v275h-40v-275h-540v620h540v-275h40v275h540v-420z" />
    <glyph glyph-name="uni04AB" unicode="&#x4ab;" 
d="M681 370c-65 0 -79 -5 -79 -20s14 -20 79 -20h499l-20 -212c-140 -20 -340 -37 -519 -39l9 -64v-30h-60v30l9 64c-396 2 -589 91 -589 272c0 183 195 270 602 270c180 0 394 -17 568 -41v-210h-499z" />
    <glyph glyph-name="uni04AF" unicode="&#x4af;" 
d="M1190 600l-290 -488v-112h-598v110l-292 490h558l26 -247h12l26 247h558z" />
    <glyph glyph-name="uni04B1" unicode="&#x4b1;" 
d="M1190 600l-262 -441h160v-40h-184l-4 -7v-112h-598v110l-5 9h-185v40h161l-263 441h558l26 -247h12l26 247h558z" />
    <glyph glyph-name="uni04B3" unicode="&#x4b3;" 
d="M1135 280h55v-280h-280v80h-278l-25 251h-14l-25 -251h-558l82 299l-62 321h538l26 -277h12l26 277h538l-62 -321z" />
    <glyph glyph-name="uni04B7" unicode="&#x4b7;" 
d="M1110 280h80v-280h-280v80h-310v240h-10c-75 -106 -183 -155 -313 -155c-150 0 -257 40 -257 240v295h540v-255c0 -13 3 -28 17 -28c9 0 17 2 23 6v277h510v-420z" />
    <glyph glyph-name="uni04B9" unicode="&#x4b9;" 
d="M620 600h560v-600h-560v270h-40v-130h-40v130h-10c-75 -106 -183 -155 -283 -155c-120 0 -227 30 -227 230v255h480v-165c0 -45 4 -63 40 -67v132h40v-133c17 1 30 2 40 7v226z" />
    <glyph glyph-name="uni04BB" unicode="&#x4bb;" 
d="M913 620c160 0 267 -30 267 -200v-420h-560v335c0 13 -3 28 -17 28c-9 0 -17 -2 -23 -6v-357h-560v700h560v-240h10c75 106 183 160 323 160z" />
    <glyph glyph-name="uni04CF" unicode="&#x4cf;" 
d="M940 280h240v-280h-1160v280h320v140h-320v280h920v-420z" />
    <glyph glyph-name="uni04C2" unicode="&#x4c2;" 
d="M600 650c-293 0 -322 11 -344 65h130c10 -14 21 -25 214 -25s204 11 214 25h130c-22 -54 -51 -65 -344 -65zM1190 600l-73 -300l73 -300h-350l-39 270h-11v-270h-375v270h-16l-39 -270h-350l73 300l-73 300h350l40 -270h15v270h375v-270h10l40 270h350z" />
    <glyph glyph-name="uni04D1" unicode="&#x4d1;" 
d="M600 650c-293 0 -322 11 -344 65h130c10 -14 21 -25 214 -25s204 11 214 25h130c-22 -54 -51 -65 -344 -65zM694 620c326 0 486 -49 486 -348v-272h-590l-10 60h-10c-75 -46 -155 -75 -298 -75c-205 0 -262 59 -262 140c0 168 244 177 569 177c-2 30 -15 42 -81 42h-458
v241c166 15 448 35 654 35zM564 127c6 0 12 2 16 5v100c-5 1 -11 1 -14 1c-23 0 -26 -20 -26 -53s3 -53 24 -53z" />
    <glyph glyph-name="uni04D7" unicode="&#x4d7;" 
d="M600 650c-293 0 -322 11 -344 65h130c10 -14 21 -25 214 -25s204 11 214 25h130c-22 -54 -51 -65 -344 -65zM1190 340l-20 -50h-573c9 -35 36 -40 108 -40h455v-230c-108 -15 -320 -35 -531 -35c-427 0 -619 80 -619 312c0 237 199 323 591 323c433 0 589 -105 589 -280z
M623 419c-26 0 -30 -40 -31 -70h58c-2 49 -8 70 -27 70z" />
    <glyph glyph-name="uni04D9" unicode="&#x4d9;" 
d="M571 615c427 0 619 -80 619 -312c0 -237 -199 -323 -591 -323c-433 0 -589 105 -589 280l20 50h573c-9 35 -36 40 -108 40h-455v230c108 15 320 35 531 35zM577 181c26 0 30 40 31 70h-58c2 -49 8 -70 27 -70z" />
    <glyph glyph-name="uni04E3" unicode="&#x4e3;" 
d="M933 700v-55h-665v55h665zM637 600h543v-600h-543v359h-10l-64 -359h-543v600h543v-359h10z" />
    <glyph glyph-name="uni04E7" unicode="&#x4e7;" 
d="M302 650c-23 0 -40 14 -40 33c0 18 17 32 40 32s41 -14 41 -32c0 -19 -18 -33 -41 -33zM897 650c-23 0 -40 14 -40 33c0 18 17 32 40 32s41 -14 41 -32c0 -19 -18 -33 -41 -33zM600 -15c-429 0 -590 107 -590 317c0 213 167 318 590 318c426 0 590 -106 590 -318
c0 -210 -161 -317 -590 -317zM601 226c12 0 25 9 25 82s-13 82 -25 82c-13 0 -25 -9 -25 -82s12 -82 25 -82z" />
    <glyph glyph-name="uni04E9" unicode="&#x4e9;" 
d="M600 620c426 0 590 -106 590 -318c0 -210 -161 -317 -590 -317s-590 107 -590 317c0 213 167 318 590 318zM601 458c-17 0 -26 -8 -27 -121h54c-1 113 -10 121 -27 121zM602 154c14 0 24 6 26 113h-54c2 -104 11 -113 28 -113z" />
    <glyph glyph-name="uni04EF" unicode="&#x4ef;" 
d="M933 700v-55h-665v55h665zM620 600h560v-300c0 -239 -184 -315 -619 -315c-196 0 -424 14 -541 25v230h287c211 0 313 14 313 90h-10c-56 -42 -173 -50 -283 -50c-170 0 -307 35 -307 205v115h560v-155c0 -13 3 -28 17 -28c9 0 17 2 23 6v177z" />
    <glyph glyph-name="uni04F3" unicode="&#x4f3;" 
d="M580 715v-60l-403 -10v40zM1023 715v-60l-403 -10v40zM620 600h560v-300c0 -239 -184 -315 -619 -315c-196 0 -424 14 -541 25v230h287c211 0 313 14 313 90h-10c-56 -42 -173 -50 -283 -50c-170 0 -307 35 -307 205v115h560v-155c0 -13 3 -28 17 -28c9 0 17 2 23 6v177z
" />
    <glyph glyph-name="uni0436.ext-l" 
d="M1190 600l-73 -300l73 -300h-360l-39 270h-11v-270h-385v270h-16l-39 -270h-360l73 300l-73 300h360l40 -270h15v270h385v-270h10l40 270h360z" />
    <glyph glyph-name="uni04AF.ext-l" 
d="M1190 600l-290 -488v-112h-598v109l-322 491h578l26 -247h12l26 247h568z" />
    <glyph glyph-name="uni04B1.ext-l" 
d="M1190 600l-262 -441h160v-40h-184l-4 -7v-112h-598v109l-6 10h-184v40h157l-289 441h578l26 -247h12l26 247h568z" />
    <glyph glyph-name="uni04C2.ext-l" 
d="M589 650c-293 0 -322 11 -344 65h130c10 -14 21 -25 214 -25s204 11 214 25h130c-22 -54 -51 -65 -344 -65zM1190 600l-73 -300l73 -300h-360l-39 270h-11v-270h-385v270h-16l-39 -270h-360l73 300l-73 300h360l40 -270h15v270h385v-270h10l40 270h360z" />
    <glyph glyph-name="uni0436.loclBGR.ext-l" 
d="M1220 600l-73 -300l73 -300h-360l-39 270h-11v-270h-385v270h-16l-39 -270h-360l73 300l-73 300h360l40 -270h15v370h385v-370h10l40 270h360z" />
    <glyph glyph-name="uni043B.loclBGR.ext-l" 
d="M1100 600l90 -600h-575l-24 360h-12l-24 -360h-580l80 600h1045z" />
    <glyph glyph-name="uni0436.ext-lr" 
d="M1220 600l-73 -300l73 -300h-370l-39 270h-11v-270h-395v270h-16l-39 -270h-370l73 300l-73 300h370l40 -270h15v270h395v-270h10l40 270h370z" />
    <glyph glyph-name="uni04AF.ext-lr" 
d="M1220 600l-320 -489v-111h-598v109l-322 491h588l26 -247h12l26 247h588z" />
    <glyph glyph-name="uni04B1.ext-lr" 
d="M1220 600l-288 -441h156v-40h-183l-5 -8v-111h-598v109l-6 10h-184v40h157l-289 441h588l26 -247h12l26 247h588z" />
    <glyph glyph-name="uni04C2.ext-lr" 
d="M604 650c-293 0 -322 11 -344 65h130c10 -14 21 -25 214 -25s204 11 214 25h130c-22 -54 -51 -65 -344 -65zM1220 600l-73 -300l73 -300h-370l-39 270h-11v-270h-395v270h-16l-39 -270h-370l73 300l-73 300h370l40 -270h15v270h395v-270h10l40 270h370z" />
    <glyph glyph-name="uni0436.loclBGR.ext-lr" 
d="M1220 600l-73 -300l73 -300h-370l-39 270h-11v-270h-395v270h-16l-39 -270h-370l73 300l-73 300h370l40 -270h15v370h395v-370h10l40 270h370z" />
    <glyph glyph-name="uni043B.loclBGR.ext-lr" 
d="M1135 600l90 -600h-595l-24 360h-12l-24 -360h-595l80 600h1080z" />
    <glyph glyph-name="uni0436.ext-r" 
d="M1220 600l-73 -300l73 -300h-360l-39 270h-11v-270h-385v270h-16l-39 -270h-360l73 300l-73 300h360l40 -270h15v270h385v-270h10l40 270h360z" />
    <glyph glyph-name="uni049D.ext-r" 
d="M1220 600l-83 -301l83 -299h-490l-38 270h-32v-190h-40v190h-40v-270h-560v600h560v-270h40v190h40v-190h31l39 270h490z" />
    <glyph glyph-name="uni04A1.ext-r" 
d="M1220 600l-83 -301l83 -299h-530l-38 270h-12v-270h-540v320h-80v280h620v-270h11l39 270h530z" />
    <glyph glyph-name="uni04AF.ext-r" 
d="M1220 600l-320 -489v-111h-598v110l-292 490h568l26 -247h12l26 247h578z" />
    <glyph glyph-name="uni04B1.ext-r" 
d="M1220 600l-288 -441h156v-40h-183l-5 -8v-111h-598v110l-5 9h-185v40h161l-263 441h568l26 -247h12l26 247h578z" />
    <glyph glyph-name="uni04C2.ext-r" 
d="M619 650c-293 0 -322 11 -344 65h130c10 -14 21 -25 214 -25s204 11 214 25h130c-22 -54 -51 -65 -344 -65zM1220 600l-73 -300l73 -300h-360l-39 270h-11v-270h-385v270h-16l-39 -270h-360l73 300l-73 300h360l40 -270h15v270h385v-270h10l40 270h360z" />
    <glyph glyph-name="uni0436.loclBGR.ext-r" 
d="M1190 600l-73 -300l73 -300h-360l-39 270h-11v-270h-385v270h-16l-39 -270h-360l73 300l-73 300h360l40 -270h15v370h385v-370h10l40 270h360z" />
    <glyph glyph-name="uni043B.loclBGR.ext-r" 
d="M1145 600l80 -600h-580l-24 360h-12l-24 -360h-575l80 600h1055z" />
    <glyph glyph-name="uni0432.loclBGR" 
d="M20 315v37c0 273 163 358 579 358c389 0 591 -26 591 -172c0 -167 -199 -168 -515 -168v-41c346 0 515 -20 515 -147c0 -148 -134 -182 -609 -182c-402 0 -561 70 -561 315zM634 548h-14v-152c33 2 51 20 51 90c0 47 -8 62 -37 62zM634 151c29 0 37 15 37 62
c0 70 -16 88 -51 90v-152h14z" />
    <glyph glyph-name="uni0433.loclBGR" 
d="M607 -15c-462 0 -597 42 -597 187c0 118 133 180 387 180c74 0 179 -11 249 -25l6 26c-60 20 -168 34 -255 34c-142 0 -300 -25 -377 -59v248c179 29 359 44 523 44c488 0 647 -46 647 -187c0 -122 -143 -178 -387 -178c-71 0 -170 10 -239 24l-6 -26
c57 -19 161 -33 245 -33c142 0 301 29 377 68v-258c-173 -26 -388 -45 -573 -45z" />
    <glyph glyph-name="uni0434.loclBGR" 
d="M1180 600v-300c0 -239 -184 -315 -619 -315c-196 0 -424 14 -541 25v230h287c211 0 313 14 313 90h-10c-56 -42 -173 -50 -283 -50c-170 0 -307 35 -307 165c0 128 140 155 366 155h794zM597 417c9 0 17 2 23 6v121h-13c-21 0 -27 -7 -27 -27v-72c0 -13 3 -28 17 -28z
" />
    <glyph glyph-name="uni0436.loclBGR" 
d="M1190 600l-73 -300l73 -300h-350l-39 270h-11v-270h-375v270h-16l-39 -270h-350l73 300l-73 300h350l40 -270h15v370h375v-370h10l40 270h350z" />
    <glyph glyph-name="uni0437.loclBGR" 
d="M622 -15c-500 0 -607 153 -607 260h539v-32c0 -30 4 -51 27 -51c18 0 24 14 24 54c0 38 -9 66 -74 66h-115v40h113c67 0 76 28 76 66c0 40 -6 54 -24 54c-23 0 -27 -21 -27 -51v-32h-539c0 105 107 261 607 261c331 0 568 -29 568 -177c0 -110 -118 -121 -387 -121h-137
v-40h137c269 0 387 -1 387 -121c0 -147 -237 -176 -568 -176z" />
    <glyph glyph-name="uni0438.loclBGR" 
d="M620 600h560v-600h-550l-10 140h-10c-75 -106 -183 -155 -323 -155c-160 0 -267 50 -267 230v385h560v-335c0 -13 3 -28 17 -28c9 0 17 2 23 6v357z" />
    <glyph glyph-name="uni0439.loclBGR" 
d="M600 650c-293 0 -322 11 -344 65h130c10 -14 21 -25 214 -25s204 11 214 25h130c-22 -54 -51 -65 -344 -65zM620 600h560v-600h-550l-10 140h-10c-75 -106 -183 -155 -323 -155c-160 0 -267 50 -267 230v385h560v-335c0 -13 3 -28 17 -28c9 0 17 2 23 6v357z" />
    <glyph glyph-name="uni045D.loclBGR" 
d="M932 685v-40l-665 10v60zM620 600h560v-600h-550l-10 140h-10c-75 -106 -183 -155 -323 -155c-160 0 -267 50 -267 230v385h560v-335c0 -13 3 -28 17 -28c9 0 17 2 23 6v357z" />
    <glyph glyph-name="uni043A.loclBGR" 
d="M1190 600l-88 -311l88 -289h-535l-40 270h-15v-270h-580v700h580v-370h14l41 270h535z" />
    <glyph glyph-name="uni043B.loclBGR" 
d="M1100 600l90 -600h-560l-24 360h-12l-24 -360h-560l90 600h1000z" />
    <glyph glyph-name="uni043F.loclBGR" 
d="M913 620c160 0 267 -30 267 -200v-420h-560v335c0 13 -3 28 -17 28c-9 0 -17 -2 -23 -6v-357h-560v600h550l10 -140h10c75 106 183 160 323 160z" />
    <glyph glyph-name="uni0442.loclBGR" 
d="M1023 620c100 0 157 -50 157 -200v-420h-360v335c0 13 -3 28 -17 28c-9 0 -17 -2 -23 -6v-357h-360v335c0 13 -3 28 -17 28c-9 0 -17 -2 -23 -6v-357h-360v600h350l10 -140h10c65 106 130 160 220 160c91 0 156 -41 168 -160h12c65 106 143 160 233 160z" />
    <glyph glyph-name="uni0446.loclBGR" 
d="M1140 280h50v-280h-280v80h-280l-10 60h-10c-75 -106 -183 -155 -323 -155c-160 0 -267 50 -267 230v385h560v-335c0 -13 3 -28 17 -28c9 0 17 2 23 6v357h520v-320z" />
    <glyph glyph-name="uni0448.loclBGR" 
d="M820 600h360v-600h-350l-10 145h-10c-65 -106 -130 -160 -220 -160c-91 0 -156 41 -168 160h-12c-65 -106 -143 -160 -233 -160c-100 0 -157 50 -157 200v415h360v-330c0 -13 3 -28 17 -28c9 0 17 2 23 6v352h360v-330c0 -13 3 -28 17 -28c9 0 17 2 23 6v352z" />
    <glyph glyph-name="uni0449.loclBGR" 
d="M1103 280h87v-280h-280v80h-131l-10 65h-10c-65 -106 -104 -160 -194 -160c-91 0 -156 41 -168 160h-12c-65 -106 -118 -160 -208 -160c-100 0 -157 50 -157 200v415h335v-330c0 -13 3 -28 17 -28c9 0 17 2 23 6v352h334v-330c0 -13 3 -28 17 -28c9 0 17 2 23 6v352h334
v-320z" />
    <glyph glyph-name="uni044C.loclBGR" 
d="M650 455c385 0 540 -28 540 -220c0 -167 -129 -235 -503 -235h-114c-404 0 -553 58 -553 285v315h590v-145h40zM623 220c22 0 37 23 37 74c0 65 -25 90 -47 90h-3v-164h13z" />
    <glyph glyph-name="uni044A.loclBGR" 
d="M690 455c345 0 500 -28 500 -220c0 -177 -139 -235 -463 -235h-114c-394 0 -513 58 -513 285v35h-80v280h630v-145h40zM663 220c22 0 37 23 37 74c0 65 -25 90 -47 90h-3v-164h13z" />
    <glyph glyph-name="uni044E.loclBGR" 
d="M790 620c256 0 400 -86 400 -313c0 -233 -143 -322 -399 -322c-243 0 -383 80 -398 285h-21v-270h-352v700h352v-360h21c14 206 160 280 397 280zM794 193c16 0 26 8 26 116c0 99 -9 108 -27 108s-27 -9 -27 -109c0 -104 9 -115 28 -115z" />
    <glyph glyph-name="uni0431.loclSRB" 
d="M20 560c0 110 130 121 405 121h268c51 0 58 13 58 33h429c0 -185 -100 -201 -405 -201h-508c-42 0 -58 -3 -58 -19c0 -15 16 -18 58 -18c722 0 923 -29 923 -219c0 -197 -207 -272 -598 -272c-479 0 -582 120 -582 250c0 133 92 166 415 166v37c-275 0 -405 12 -405 122z
M598 143c19 0 21 29 21 141c-5 8 -13 15 -23 15c-19 0 -22 -27 -22 -69c0 -65 8 -87 24 -87z" />
    <glyph glyph-name="uni0394" unicode="&#x394;" 
d="M72 0l528 715l528 -715h-1056zM520 220h160l-80 109z" />
    <glyph glyph-name="uni03A9" unicode="&#x3a9;" 
d="M765 243v-37c193 0 353 59 420 103v-309h-565c3 111 8 283 8 350c0 83 -15 92 -27 92c-13 0 -27 -9 -27 -92c0 -67 3 -239 6 -350h-565v309c68 -44 230 -103 423 -103v37c-306 21 -428 86 -428 216c0 176 164 256 591 256c425 0 589 -80 589 -256
c0 -130 -122 -195 -425 -216z" />
    <glyph glyph-name="uni03BC" unicode="&#x3bc;" 
d="M620 600h560v-560h-550l-10 150h-10c-9 -13 -19 -26 -30 -37v-168h-560v615h560v-285c0 -13 3 -28 17 -28c9 0 17 2 23 6v307z" />
    <glyph glyph-name="pi" unicode="&#x3c0;" 
d="M1180 600v-280h-80v-320h-480v320h-40v-320h-480v320h-80v280h1160z" />
    <glyph glyph-name="zero" unicode="0" 
d="M600 -15c-411 0 -590 96 -590 360c0 274 179 370 590 370c410 0 590 -96 590 -370c0 -264 -180 -360 -590 -360zM600 321c93 0 102 11 102 24c0 12 -9 25 -102 25s-102 -12 -102 -25s9 -24 102 -24z" />
    <glyph glyph-name="one" unicode="1" 
d="M970 280h210v-280h-1160v280h350v40h-350v280c271 0 350 25 350 100h600v-420z" />
    <glyph glyph-name="two" unicode="2" 
d="M804 208c204 0 334 67 376 118v-326h-1160v75c0 236 170 263 487 263c86 0 97 8 97 53c0 34 -6 51 -24 51c-22 0 -26 -25 -26 -47v-17h-539c0 166 116 337 606 337c337 0 569 -36 569 -225c0 -176 -183 -244 -388 -244c-91 0 -189 10 -238 18l-6 -36
c43 -9 139 -20 246 -20z" />
    <glyph glyph-name="three" unicode="3" 
d="M622 -15c-500 0 -607 153 -607 308h540v-32c0 -30 4 -51 26 -51c18 0 24 14 24 54c0 38 -9 66 -74 66h-115v40h113c67 0 76 28 76 66c0 40 -6 54 -24 54c-22 0 -26 -21 -26 -51v-32h-540c0 155 107 308 607 308c331 0 568 -29 568 -199c0 -135 -118 -146 -387 -146h-137
v-40h137c269 0 387 -1 387 -146c0 -170 -237 -199 -568 -199z" />
    <glyph glyph-name="four" unicode="4" 
d="M641 571h539v-571h-569l2 40h-598l30 660h564l-31 -590h39z" />
    <glyph glyph-name="five" unicode="5" 
d="M632 -15c-510 0 -617 153 -617 313h535v-32c0 -30 4 -51 31 -51c22 0 28 14 28 54c0 45 -1 69 -38 69h-551v362h1160v-277h-630v-40h193c287 0 442 -15 442 -169c0 -180 -244 -229 -553 -229z" />
    <glyph glyph-name="six" unicode="6" 
d="M621 -15c-424 0 -611 85 -611 380c0 259 194 350 605 350c197 0 428 -17 547 -30l10 -271h-526c0 50 -7 68 -28 68c-28 0 -30 -37 -30 -107c434 0 602 -2 602 -168c0 -162 -172 -222 -569 -222zM615 165c25 0 28 28 28 93c0 60 -19 77 -55 77v-77c0 -65 1 -93 27 -93z
" />
    <glyph glyph-name="seven" unicode="7" 
d="M1180 700v-312c-98 -48 -238 -187 -263 -388h-600c0 100 57 222 138 340h-435v360h1160z" />
    <glyph glyph-name="eight" unicode="8" 
d="M765 350c328 -6 425 -37 425 -153c0 -140 -158 -213 -590 -213c-431 0 -590 73 -590 213c0 117 99 147 434 153v38c-290 3 -394 20 -394 136c0 147 232 191 550 191s550 -44 550 -191c0 -115 -107 -133 -385 -135v-39zM603 497c-83 0 -92 -13 -92 -27c0 -15 9 -27 92 -27
s92 12 92 27c0 14 -9 27 -92 27zM603 243c93 0 102 12 102 27c0 14 -9 27 -102 27s-102 -13 -102 -27c0 -15 9 -27 102 -27z" />
    <glyph glyph-name="nine" unicode="9" 
d="M588 -15c-331 0 -565 86 -565 296h534c0 -27 1 -67 29 -67s29 28 29 106c-404 0 -600 11 -600 182c0 160 188 213 557 213c424 0 618 -75 618 -365c0 -279 -194 -365 -602 -365zM614 359v77c0 65 -1 93 -27 93c-25 0 -28 -28 -28 -93c0 -60 19 -77 55 -77z" />
    <glyph glyph-name="zero.dnom" 
d="M600 -15c-411 0 -590 26 -590 155s179 145 590 145c410 0 590 -16 590 -145s-180 -155 -590 -155zM600 110c113 0 122 12 122 25c0 12 -9 25 -122 25s-122 -12 -122 -25s9 -25 122 -25z" />
    <glyph glyph-name="one.dnom" 
d="M970 79h210v-79h-1160v79h350v40h-350v76c238 0 350 11 350 91h600v-207z" />
    <glyph glyph-name="two.dnom" 
d="M20 0v8c0 123 160 125 457 125c156 0 171 1 171 53c0 24 -6 41 -28 41c-27 0 -31 -25 -31 -37s1 -20 1 -26h-580c0 106 151 136 611 136c427 0 559 -11 559 -82c0 -69 -173 -114 -378 -114c-91 0 -189 5 -238 8l-6 -22c43 -4 139 -10 246 -10c204 0 327 39 363 68v-148
h-1147z" />
    <glyph glyph-name="three.dnom" 
d="M622 -15c-500 0 -609 48 -609 98h567v-7c0 -15 7 -36 31 -36c22 0 28 14 28 34c0 30 -16 39 -100 41l-213 4v32l213 4c91 2 100 18 100 41c0 20 -6 34 -28 34c-27 0 -31 -21 -31 -31v-12h-567c0 80 109 98 609 98c331 0 565 -4 565 -74c0 -59 -115 -64 -384 -64h-107v-24
h107c269 0 384 -4 384 -64c0 -73 -234 -74 -565 -74z" />
    <glyph glyph-name="four.dnom" 
d="M607 0l7 40h-599l30 245h573l-36 -169h35l26 129h542v-245h-578z" />
    <glyph glyph-name="five.dnom" 
d="M592 -15c-480 0 -577 38 -577 123h555v-16c0 -15 4 -36 31 -36c22 0 28 14 28 39c0 24 -1 43 -38 43h-571v147h1165v-84h-616v-28h174c287 0 442 -2 442 -84c0 -101 -139 -104 -593 -104z" />
    <glyph glyph-name="six.dnom" 
d="M621 -15c-424 0 -611 35 -611 155c0 129 194 145 605 145c197 0 428 -11 547 -20l10 -81h-526c0 24 -7 40 -28 40c-28 0 -30 -28 -30 -64c434 0 597 -2 597 -78c0 -87 -167 -97 -564 -97zM615 38c25 0 28 23 28 43c0 30 -19 49 -55 49v-49c0 -20 1 -43 27 -43z" />
    <glyph glyph-name="seven.dnom" 
d="M1190 285v-112c-78 -15 -202 -72 -260 -173h-730c18 39 44 76 76 108l-266 -3v180h1180z" />
    <glyph glyph-name="eight.dnom" 
d="M600 -15c-461 0 -590 12 -590 70c0 44 92 63 434 63v24c-320 0 -394 20 -394 63c0 66 202 80 550 80s550 -14 550 -80c0 -41 -77 -62 -385 -62v-25c341 0 425 -26 425 -69c0 -58 -128 -64 -590 -64zM603 170c83 0 92 11 92 24c0 12 -9 25 -92 25s-92 -13 -92 -25
c0 -13 9 -24 92 -24zM603 51c93 0 102 12 102 25c0 12 -9 24 -102 24s-102 -12 -102 -24c0 -13 9 -25 102 -25z" />
    <glyph glyph-name="nine.dnom" 
d="M580 -15c-422 0 -557 30 -557 101h526c0 -24 7 -40 28 -40c28 0 30 28 30 64c-434 0 -597 2 -597 78c0 87 167 97 564 97c431 0 611 -35 611 -155c0 -129 -180 -145 -605 -145zM607 140v49c0 20 -1 43 -27 43c-25 0 -28 -23 -28 -43c0 -30 19 -49 55 -49z" />
    <glyph glyph-name="zero.numr" 
d="M600 415c-411 0 -590 26 -590 155s179 145 590 145c410 0 590 -16 590 -145s-180 -155 -590 -155zM600 540c113 0 122 12 122 25c0 12 -9 25 -122 25s-122 -12 -122 -25s9 -25 122 -25z" />
    <glyph glyph-name="one.numr" 
d="M970 493h210v-79h-1160v79h350v40h-350v76c238 0 350 11 350 91h600v-207z" />
    <glyph glyph-name="two.numr" 
d="M20 415v8c0 123 160 125 457 125c156 0 171 1 171 53c0 24 -6 41 -28 41c-27 0 -31 -25 -31 -37s1 -20 1 -26h-580c0 106 151 136 611 136c427 0 559 -11 559 -82c0 -69 -173 -114 -378 -114c-91 0 -189 5 -238 8l-6 -22c43 -4 139 -10 246 -10c204 0 327 39 363 68v-148
h-1147z" />
    <glyph glyph-name="three.numr" 
d="M622 415c-500 0 -609 48 -609 98h567v-7c0 -15 7 -36 31 -36c22 0 28 14 28 34c0 30 -16 39 -100 41l-213 4v32l213 4c91 2 100 18 100 41c0 20 -6 34 -28 34c-27 0 -31 -21 -31 -31v-12h-567c0 80 109 98 609 98c331 0 565 -4 565 -74c0 -59 -115 -64 -384 -64h-107v-24
h107c269 0 384 -4 384 -64c0 -73 -234 -74 -565 -74z" />
    <glyph glyph-name="four.numr" 
d="M607 430l7 40h-599l30 245h573l-36 -169h35l26 129h542v-245h-578z" />
    <glyph glyph-name="five.numr" 
d="M592 400c-480 0 -577 38 -577 123h555v-16c0 -15 4 -36 31 -36c22 0 28 14 28 39c0 24 -1 43 -38 43h-571v147h1165v-84h-616v-28h174c287 0 442 -2 442 -84c0 -101 -139 -104 -593 -104z" />
    <glyph glyph-name="six.numr" 
d="M621 415c-424 0 -611 35 -611 155c0 129 194 145 605 145c197 0 428 -11 547 -20l10 -81h-526c0 24 -7 40 -28 40c-28 0 -30 -28 -30 -64c434 0 597 -2 597 -78c0 -87 -167 -97 -564 -97zM615 468c25 0 28 23 28 43c0 30 -19 49 -55 49v-49c0 -20 1 -43 27 -43z" />
    <glyph glyph-name="seven.numr" 
d="M1190 700v-112c-78 -15 -202 -72 -260 -173h-730c18 39 44 76 76 108l-266 -3v180h1180z" />
    <glyph glyph-name="eight.numr" 
d="M600 415c-461 0 -590 12 -590 70c0 44 92 63 434 63v24c-320 0 -394 20 -394 63c0 66 202 80 550 80s550 -14 550 -80c0 -41 -77 -62 -385 -62v-25c341 0 425 -26 425 -69c0 -58 -128 -64 -590 -64zM603 600c83 0 92 11 92 24c0 12 -9 25 -92 25s-92 -13 -92 -25
c0 -13 9 -24 92 -24zM603 481c93 0 102 12 102 25c0 12 -9 24 -102 24s-102 -12 -102 -24c0 -13 9 -25 102 -25z" />
    <glyph glyph-name="nine.numr" 
d="M580 415c-422 0 -557 30 -557 101h526c0 -24 7 -40 28 -40c28 0 30 28 30 64c-434 0 -597 2 -597 78c0 87 167 97 564 97c431 0 611 -35 611 -155c0 -129 -180 -145 -605 -145zM607 570v49c0 20 -1 43 -27 43c-25 0 -28 -23 -28 -43c0 -30 19 -49 55 -49z" />
    <glyph glyph-name="uni00B9" unicode="&#xb9;" 
d="M970 493h210v-79h-1160v79h350v40h-350v76c238 0 350 11 350 91h600v-207z" />
    <glyph glyph-name="uni00B2" unicode="&#xb2;" 
d="M20 415v8c0 123 160 125 457 125c156 0 171 1 171 53c0 24 -6 41 -28 41c-27 0 -31 -25 -31 -37s1 -20 1 -26h-580c0 106 151 136 611 136c427 0 559 -11 559 -82c0 -69 -173 -114 -378 -114c-91 0 -189 5 -238 8l-6 -22c43 -4 139 -10 246 -10c204 0 327 39 363 68v-148
h-1147z" />
    <glyph glyph-name="uni00B3" unicode="&#xb3;" 
d="M622 415c-500 0 -609 48 -609 98h567v-7c0 -15 7 -36 31 -36c22 0 28 14 28 34c0 30 -16 39 -100 41l-213 4v32l213 4c91 2 100 18 100 41c0 20 -6 34 -28 34c-27 0 -31 -21 -31 -31v-12h-567c0 80 109 98 609 98c331 0 565 -4 565 -74c0 -59 -115 -64 -384 -64h-107v-24
h107c269 0 384 -4 384 -64c0 -73 -234 -74 -565 -74z" />
    <glyph glyph-name="fraction" unicode="&#x2044;" 
d="M15 327v45h1170v-45h-1170z" />
    <glyph glyph-name="uni215F" unicode="&#x215f;" 
d="M23 414v79h350v40h-350v76c238 0 350 11 350 91h600v-207h210v-79h-1160zM15 372h1170v-45h-1170v45z" />
    <glyph glyph-name="onehalf" unicode="&#xbd;" 
d="M23 414v79h350v40h-350v76c238 0 350 11 350 91h600v-207h210v-79h-1160zM16 372h1170v-45h-1170v45zM803 104c-91 0 -189 5 -238 8l-6 -22c43 -4 139 -10 246 -10c204 0 327 39 363 68v-148h-1147v8c0 123 160 125 457 125c156 0 171 1 171 53c0 24 -6 41 -28 41
c-27 0 -31 -25 -31 -37s1 -20 1 -26h-580c0 106 151 136 611 136c427 0 559 -11 559 -82c0 -69 -173 -114 -378 -114z" />
    <glyph glyph-name="uni2189" unicode="&#x2189;" 
d="M599 415c-411 0 -590 26 -590 155s179 145 590 145c410 0 590 -16 590 -145s-180 -155 -590 -155zM599 540c113 0 122 12 122 25c0 12 -9 25 -122 25s-122 -12 -122 -25s9 -25 122 -25zM14 327v45h1170v-45h-1170zM621 -15c-500 0 -609 48 -609 98h567v-7
c0 -15 7 -36 31 -36c22 0 28 14 28 34c0 30 -16 39 -100 41l-213 4v32l213 4c91 2 100 18 100 41c0 20 -6 34 -28 34c-27 0 -31 -21 -31 -31v-12h-567c0 80 109 98 609 98c331 0 565 -4 565 -74c0 -59 -115 -64 -384 -64h-107v-24h107c269 0 384 -4 384 -64
c0 -73 -234 -74 -565 -74z" />
    <glyph glyph-name="uni2153" unicode="&#x2153;" 
d="M23 414v79h350v40h-350v76c238 0 350 11 350 91h600v-207h210v-79h-1160zM1185 372v-45h-1170v45h1170zM803 123c269 0 384 -4 384 -64c0 -73 -234 -74 -565 -74c-500 0 -609 48 -609 98h567v-7c0 -15 7 -36 31 -36c22 0 28 14 28 34c0 30 -16 39 -100 41l-213 4v32
l213 4c91 2 100 18 100 41c0 20 -6 34 -28 34c-27 0 -31 -21 -31 -31v-12h-567c0 80 109 98 609 98c331 0 565 -4 565 -74c0 -59 -115 -64 -384 -64h-107v-24h107z" />
    <glyph glyph-name="uni2154" unicode="&#x2154;" 
d="M21 415v8c0 123 160 125 457 125c156 0 171 1 171 53c0 24 -6 41 -28 41c-27 0 -31 -25 -31 -37s1 -20 1 -26h-580c0 106 151 136 611 136c427 0 559 -11 559 -82c0 -69 -173 -114 -378 -114c-91 0 -189 5 -238 8l-6 -22c43 -4 139 -10 246 -10c204 0 327 39 363 68v-148
h-1147zM16 327v45h1170v-45h-1170zM623 -15c-500 0 -609 48 -609 98h567v-7c0 -15 7 -36 31 -36c22 0 28 14 28 34c0 30 -16 39 -100 41l-213 4v32l213 4c91 2 100 18 100 41c0 20 -6 34 -28 34c-27 0 -31 -21 -31 -31v-12h-567c0 80 109 98 609 98c331 0 565 -4 565 -74
c0 -59 -115 -64 -384 -64h-107v-24h107c269 0 384 -4 384 -64c0 -73 -234 -74 -565 -74z" />
    <glyph glyph-name="onequarter" unicode="&#xbc;" 
d="M23 414v79h350v40h-350v76c238 0 350 11 350 91h600v-207h210v-79h-1160zM15 372h1170v-45h-1170v45zM617 116l26 129h542v-245h-578l7 40h-599l30 245h573l-36 -169h35z" />
    <glyph glyph-name="threequarters" unicode="&#xbe;" 
d="M622 415c-500 0 -609 48 -609 98h567v-7c0 -15 7 -36 31 -36c22 0 28 14 28 34c0 30 -16 39 -100 41l-213 4v32l213 4c91 2 100 18 100 41c0 20 -6 34 -28 34c-27 0 -31 -21 -31 -31v-12h-567c0 80 109 98 609 98c331 0 565 -4 565 -74c0 -59 -115 -64 -384 -64h-107v-24
h107c269 0 384 -4 384 -64c0 -73 -234 -74 -565 -74zM15 327v45h1170v-45h-1170zM607 0l7 40h-599l30 245h573l-36 -169h35l26 129h542v-245h-578z" />
    <glyph glyph-name="uni2155" unicode="&#x2155;" 
d="M28 414v79h350v40h-350v76c238 0 350 11 350 91h600v-207h210v-79h-1160zM20 372h1170v-45h-1170v45zM25 138v147h1165v-84h-616v-28h174c287 0 442 -2 442 -84c0 -101 -139 -104 -593 -104c-480 0 -577 38 -577 123h555v-16c0 -15 4 -36 31 -36c22 0 28 14 28 39
c0 24 -1 43 -38 43h-571z" />
    <glyph glyph-name="uni2156" unicode="&#x2156;" 
d="M20 415v8c0 123 160 125 457 125c156 0 171 1 171 53c0 24 -6 41 -28 41c-27 0 -31 -25 -31 -37s1 -20 1 -26h-580c0 106 151 136 611 136c427 0 559 -11 559 -82c0 -69 -173 -114 -378 -114c-91 0 -189 5 -238 8l-6 -22c43 -4 139 -10 246 -10c204 0 327 39 363 68v-148
h-1147zM15 327v45h1170v-45h-1170zM592 -15c-480 0 -577 38 -577 123h555v-16c0 -15 4 -36 31 -36c22 0 28 14 28 39c0 24 -1 43 -38 43h-571v147h1165v-84h-616v-28h174c287 0 442 -2 442 -84c0 -101 -139 -104 -593 -104z" />
    <glyph glyph-name="uni2157" unicode="&#x2157;" 
d="M622 415c-500 0 -609 48 -609 98h567v-7c0 -15 7 -36 31 -36c22 0 28 14 28 34c0 30 -16 39 -100 41l-213 4v32l213 4c91 2 100 18 100 41c0 20 -6 34 -28 34c-27 0 -31 -21 -31 -31v-12h-567c0 80 109 98 609 98c331 0 565 -4 565 -74c0 -59 -115 -64 -384 -64h-107v-24
h107c269 0 384 -4 384 -64c0 -73 -234 -74 -565 -74zM15 327v45h1170v-45h-1170zM592 -15c-480 0 -577 38 -577 123h555v-16c0 -15 4 -36 31 -36c22 0 28 14 28 39c0 24 -1 43 -38 43h-571v147h1165v-84h-616v-28h174c287 0 442 -2 442 -84c0 -101 -139 -104 -593 -104z" />
    <glyph glyph-name="uni2158" unicode="&#x2158;" 
d="M607 415l7 40h-599l30 245h573l-36 -169h35l26 129h542v-245h-578zM15 327v45h1170v-45h-1170zM592 -15c-480 0 -577 38 -577 123h555v-16c0 -15 4 -36 31 -36c22 0 28 14 28 39c0 24 -1 43 -38 43h-571v147h1165v-84h-616v-28h174c287 0 442 -2 442 -84
c0 -101 -139 -104 -593 -104z" />
    <glyph glyph-name="uni2159" unicode="&#x2159;" 
d="M23 414v79h350v40h-350v76c238 0 350 11 350 91h600v-207h210v-79h-1160zM1185 372v-45h-1170v45h1170zM591 160c434 0 597 -2 597 -78c0 -87 -167 -97 -564 -97c-424 0 -611 35 -611 155c0 129 194 145 605 145c197 0 428 -11 547 -20l10 -81h-526c0 24 -7 40 -28 40
c-28 0 -30 -28 -30 -64zM618 38c25 0 28 23 28 43c0 30 -19 49 -55 49v-49c0 -20 1 -43 27 -43z" />
    <glyph glyph-name="uni215A" unicode="&#x215a;" 
d="M591 400c-480 0 -577 38 -577 123h555v-16c0 -15 4 -36 31 -36c22 0 28 14 28 39c0 24 -1 43 -38 43h-571v147h1165v-84h-616v-28h174c287 0 442 -2 442 -84c0 -101 -139 -104 -593 -104zM14 327v45h1170v-45h-1170zM623 -15c-424 0 -611 35 -611 155
c0 129 194 145 605 145c197 0 428 -11 547 -20l10 -81h-526c0 24 -7 40 -28 40c-28 0 -30 -28 -30 -64c434 0 597 -2 597 -78c0 -87 -167 -97 -564 -97zM617 38c25 0 28 23 28 43c0 30 -19 49 -55 49v-49c0 -20 1 -43 27 -43z" />
    <glyph glyph-name="uni2150" unicode="&#x2150;" 
d="M22 414v79h350v40h-350v76c238 0 350 11 350 91h600v-207h210v-79h-1160zM1185 372v-45h-1170v45h1170zM1190 285v-112c-78 -15 -202 -72 -260 -173h-730c18 39 44 76 76 108l-266 -3v180h1180z" />
    <glyph glyph-name="oneeighth" unicode="&#x215b;" 
d="M22 414v79h350v40h-350v76c238 0 350 11 350 91h600v-207h210v-79h-1160zM1185 372v-45h-1170v45h1170zM765 118c341 0 425 -26 425 -69c0 -58 -128 -64 -590 -64c-461 0 -590 12 -590 70c0 44 92 63 434 63v24c-320 0 -394 20 -394 63c0 66 202 80 550 80
s550 -14 550 -80c0 -41 -77 -62 -385 -62v-25zM603 219c-83 0 -92 -13 -92 -25c0 -13 9 -24 92 -24s92 11 92 24c0 12 -9 25 -92 25zM603 51c93 0 102 12 102 25c0 12 -9 24 -102 24s-102 -12 -102 -24c0 -13 9 -25 102 -25z" />
    <glyph glyph-name="threeeighths" unicode="&#x215c;" 
d="M622 415c-500 0 -609 48 -609 98h567v-7c0 -15 7 -36 31 -36c22 0 28 14 28 34c0 30 -16 39 -100 41l-213 4v32l213 4c91 2 100 18 100 41c0 20 -6 34 -28 34c-27 0 -31 -21 -31 -31v-12h-567c0 80 109 98 609 98c331 0 565 -4 565 -74c0 -59 -115 -64 -384 -64h-107v-24
h107c269 0 384 -4 384 -64c0 -73 -234 -74 -565 -74zM15 327v45h1170v-45h-1170zM600 -15c-461 0 -590 12 -590 70c0 44 92 63 434 63v24c-320 0 -394 20 -394 63c0 66 202 80 550 80s550 -14 550 -80c0 -41 -77 -62 -385 -62v-25c341 0 425 -26 425 -69
c0 -58 -128 -64 -590 -64zM603 170c83 0 92 11 92 24c0 12 -9 25 -92 25s-92 -13 -92 -25c0 -13 9 -24 92 -24zM603 51c93 0 102 12 102 25c0 12 -9 24 -102 24s-102 -12 -102 -24c0 -13 9 -25 102 -25z" />
    <glyph glyph-name="fiveeighths" unicode="&#x215d;" 
d="M592 400c-480 0 -577 38 -577 123h555v-16c0 -15 4 -36 31 -36c22 0 28 14 28 39c0 24 -1 43 -38 43h-571v147h1165v-84h-616v-28h174c287 0 442 -2 442 -84c0 -101 -139 -104 -593 -104zM15 327v45h1170v-45h-1170zM600 -15c-461 0 -590 12 -590 70c0 44 92 63 434 63
v24c-320 0 -394 20 -394 63c0 66 202 80 550 80s550 -14 550 -80c0 -41 -77 -62 -385 -62v-25c341 0 425 -26 425 -69c0 -58 -128 -64 -590 -64zM603 170c83 0 92 11 92 24c0 12 -9 25 -92 25s-92 -13 -92 -25c0 -13 9 -24 92 -24zM603 51c93 0 102 12 102 25
c0 12 -9 24 -102 24s-102 -12 -102 -24c0 -13 9 -25 102 -25z" />
    <glyph glyph-name="seveneighths" unicode="&#x215e;" 
d="M1190 700v-112c-78 -15 -202 -72 -260 -173h-730c18 39 44 76 76 108l-266 -3v180h1180zM1185 372v-45h-1170v45h1170zM765 118c341 0 425 -26 425 -69c0 -58 -128 -64 -590 -64c-461 0 -590 12 -590 70c0 44 92 63 434 63v24c-320 0 -394 20 -394 63c0 66 202 80 550 80
s550 -14 550 -80c0 -41 -77 -62 -385 -62v-25zM603 219c-83 0 -92 -13 -92 -25c0 -13 9 -24 92 -24s92 11 92 24c0 12 -9 25 -92 25zM603 51c93 0 102 12 102 25c0 12 -9 24 -102 24s-102 -12 -102 -24c0 -13 9 -25 102 -25z" />
    <glyph glyph-name="uni2151" unicode="&#x2151;" 
d="M22 414v79h350v40h-350v76c238 0 350 11 350 91h600v-207h210v-79h-1160zM1184 372v-45h-1170v45h1170zM576 285c431 0 611 -35 611 -155c0 -129 -180 -145 -605 -145c-422 0 -557 30 -557 101h526c0 -24 7 -40 28 -40c28 0 30 28 30 64c-434 0 -597 2 -597 78
c0 87 167 97 564 97zM609 140v49c0 20 -1 43 -27 43c-25 0 -28 -23 -28 -43c0 -30 19 -49 55 -49z" />
    <glyph glyph-name="uni2152" unicode="&#x2152;" 
d="M23 414v79h350v40h-350v76c238 0 350 11 350 91h600v-207h210v-79h-1160zM1185 372v-45h-1170v45h1170zM463 286v-207h41v-79h-486v79h147v44h-147v72c110 0 146 33 146 91h299zM860 285c205 0 333 -16 333 -145s-128 -155 -333 -155c-211 0 -332 26 -332 155
s121 145 332 145zM860 108c53 0 62 14 62 27c0 12 -9 27 -62 27s-62 -14 -62 -27s9 -27 62 -27z" />
    <glyph glyph-name="period" unicode="." 
d="M475 0v250h250v-250h-250z" />
    <glyph glyph-name="comma" unicode="," 
d="M475 362h250v-218c0 -119 -78 -159 -227 -159h-23v114h23c69 0 89 6 89 45h-112v218z" />
    <glyph glyph-name="colon" unicode=":" 
d="M475 386v250h250v-250h-250zM475 96v250h250v-250h-250z" />
    <glyph glyph-name="semicolon" unicode=";" 
d="M505 652h250v-250h-250v250zM505 144v218h250v-218c0 -119 -78 -159 -227 -159h-23v114h23c69 0 89 6 89 45h-112z" />
    <glyph glyph-name="ellipsis" unicode="&#x2026;" 
d="M25 0v220h355v-220h-355zM420 0v220h359v-220h-359zM819 0v220h356v-220h-356z" />
    <glyph glyph-name="exclam" unicode="!" 
d="M300 260v440h600v-440h-600zM300 0v220h600v-220h-600z" />
    <glyph glyph-name="exclamdown" unicode="&#xa1;" 
d="M300 700h600v-220h-600v220zM300 440h600v-440h-600v440z" />
    <glyph glyph-name="question" unicode="?" 
d="M620 715c297 0 531 -46 531 -241c0 -180 -185 -244 -390 -244h-481v71h226c86 0 101 8 101 65c0 34 -6 51 -28 51c-27 0 -31 -25 -31 -47v-29h-499c0 171 81 374 571 374zM280 0v190h530v-190h-530z" />
    <glyph glyph-name="questiondown" unicode="&#xbf;" 
d="M920 700v-190h-530v190h530zM652 359h499c0 -171 -81 -374 -571 -374c-297 0 -531 46 -531 241c0 180 185 244 390 244h481v-71h-226c-86 0 -101 -8 -101 -65c0 -34 6 -51 28 -51c27 0 31 25 31 47v29z" />
    <glyph glyph-name="periodcentered" unicode="&#xb7;" 
d="M475 240v250h250v-250h-250z" />
    <glyph glyph-name="bullet" unicode="&#x2022;" 
d="M600 100c-151 0 -246 110 -246 246s95 246 246 246s246 -110 246 -246s-95 -246 -246 -246z" />
    <glyph glyph-name="asterisk" unicode="*" 
d="M504 95l-165 118l130 144l-186 41l59 194l175 -82l-20 190h204l-22 -189l176 81l62 -196l-188 -39l131 -139l-164 -120l-95 165z" />
    <glyph glyph-name="numbersign" unicode="#" 
d="M491 -10l-443 10l27 126h-63l40 200h64l10 48h-111l40 200h112l29 137l463 -10l-32 -127h52l30 137l443 -10l-27 -127h63l-40 -200h-64l-10 -48h111l-40 -200h-112l-29 -136l-463 10l32 126h-52zM537 326h115l11 48h-115z" />
    <glyph glyph-name="slash" unicode="/" 
d="M118 25l-93 232l1047 418l103 -232z" />
    <glyph glyph-name="backslash" unicode="\" 
d="M1082 25l-1057 418l103 232l1047 -418z" />
    <glyph glyph-name="comma.ss03" 
d="M474 383h250v-210c0 -126 -75 -188 -222 -188v39c130 0 178 42 185 129h-213v230z" />
    <glyph glyph-name="semicolon.ss03" 
d="M505 673h250v-250h-250v250zM504 153v230h250v-210c0 -126 -75 -188 -222 -188v39c130 0 178 42 185 129h-213z" />
    <glyph glyph-name="asterisk.ss03" 
d="M430 130l-32 23l168 229l-270 86l12 38l268 -91v285h40v-285l268 91l12 -38l-270 -86l168 -229l-32 -23l-166 231z" />
    <glyph glyph-name="numbersign.ss03" 
d="M1045 455h-283l-47 -209h270v-38h-279l-51 -223l-38 8l49 215h-203l-51 -223l-38 8l49 215h-268v38h277l48 209h-265v38h273l51 222l38 -8l-49 -214h203l51 222l38 -8l-49 -214h274v-38zM675 246l48 209h-204l-47 -209h203z" />
    <glyph glyph-name="slash.ss03" 
d="M118 -15l-23 32l987 698l23 -32z" />
    <glyph glyph-name="backslash.ss03" 
d="M1082 -15l-987 698l23 32l987 -698z" />
    <glyph glyph-name="parenleft" unicode="(" 
d="M812 -6c-249 0 -434 121 -434 356c0 241 184 356 434 356l10 -182c-145 -30 -199 -75 -199 -174c0 -101 57 -144 199 -174z" />
    <glyph glyph-name="parenright" unicode=")" 
d="M388 -6l-10 182c142 30 199 73 199 174c0 99 -54 144 -199 174l10 182c250 0 434 -115 434 -356c0 -235 -185 -356 -434 -356z" />
    <glyph glyph-name="braceleft" unicode="{" 
d="M831 510c-125 0 -151 -1 -151 -39c0 -19 16 -48 16 -70c0 -32 -47 -47 -146 -53c99 -8 146 -25 146 -51c0 -22 -16 -49 -16 -68c0 -29 26 -39 151 -39v-200c-356 0 -418 42 -418 122c0 62 63 105 63 148s-44 44 -107 44v90c63 0 107 1 107 44s-63 88 -63 150
c0 80 62 122 418 122v-200z" />
    <glyph glyph-name="braceright" unicode="}" 
d="M724 438c0 -43 44 -44 107 -44v-90c-63 0 -107 -1 -107 -44s63 -86 63 -148c0 -80 -62 -122 -418 -122v200c125 0 151 10 151 39c0 19 -16 46 -16 68c0 26 47 43 146 51c-99 6 -146 21 -146 53c0 22 16 51 16 70c0 38 -26 39 -151 39v200c356 0 418 -42 418 -122
c0 -62 -63 -107 -63 -150z" />
    <glyph glyph-name="bracketleft" unicode="[" 
d="M822 500h-224v-300h224v-200h-444v700h444v-200z" />
    <glyph glyph-name="bracketright" unicode="]" 
d="M822 700v-700h-444v200h224v300h-224v200h444z" />
    <glyph glyph-name="parenleft.ss03" 
d="M762 -5c-114 11 -289 108 -289 355c0 253 175 344 289 355l10 -38c-115 -11 -259 -96 -259 -317c0 -223 147 -306 259 -317z" />
    <glyph glyph-name="parenright.ss03" 
d="M438 -5l-10 38c112 11 259 94 259 317c0 221 -144 306 -259 317l10 38c114 -11 289 -102 289 -355c0 -247 -175 -344 -289 -355z" />
    <glyph glyph-name="braceleft.ss03" 
d="M736 671c-111 0 -157 -20 -157 -72c0 -59 47 -120 47 -168c0 -34 -19 -66 -89 -82c70 -15 89 -47 89 -81c0 -48 -47 -108 -47 -167c0 -52 46 -72 157 -72v-39c-155 0 -197 47 -197 111c0 67 47 117 47 167c0 46 -28 61 -161 61v40c133 0 161 16 161 62
c0 50 -47 101 -47 168c0 64 42 111 197 111v-39z" />
    <glyph glyph-name="braceright.ss03" 
d="M615 431c0 -46 28 -62 161 -62v-40c-133 0 -161 -15 -161 -61c0 -50 47 -100 47 -167c0 -64 -42 -111 -197 -111v39c111 0 157 20 157 72c0 59 -47 119 -47 167c0 34 19 66 89 81c-70 16 -89 48 -89 82c0 48 47 109 47 168c0 52 -46 72 -157 72v39
c155 0 197 -47 197 -111c0 -67 -47 -118 -47 -168z" />
    <glyph glyph-name="bracketleft.ss03" 
d="M702 661h-163v-622h163v-39h-203v700h203v-39z" />
    <glyph glyph-name="bracketright.ss03" 
d="M701 700v-700h-203v39h163v622h-163v39h203z" />
    <glyph glyph-name="hyphen" unicode="-" 
d="M296 238v220h660v-220h-660z" />
    <glyph glyph-name="uni00AD" unicode="&#xad;" 
d="M296 238v220h660v-220h-660z" />
    <glyph glyph-name="endash" unicode="&#x2013;" 
d="M301 238v220h600v-220h-600z" />
    <glyph glyph-name="emdash" unicode="&#x2014;" 
d="M20 237v220h1160v-220h-1160z" />
    <glyph glyph-name="underscore" unicode="_" 
d="M20 0v220h1160v-220h-1160z" />
    <glyph glyph-name="hyphen.ss03" 
d="M251 328v40h700v-40h-700z" />
    <glyph glyph-name="endash.ss03" 
d="M271 328v40h659v-40h-659z" />
    <glyph glyph-name="emdash.ss03" 
d="M90 328v40h1020v-40h-1020z" />
    <glyph glyph-name="underscore.ss03" 
d="M40 0v40h1120v-40h-1120z" />
    <glyph glyph-name="quotesinglbase" unicode="&#x201a;" 
d="M475 362h250v-218c0 -119 -78 -159 -227 -159h-23v114h23c69 0 89 6 89 45h-112v218z" />
    <glyph glyph-name="quotedblbase" unicode="&#x201e;" 
d="M330 144v218h250v-218c0 -119 -78 -159 -227 -159h-23v114h23c69 0 89 6 89 45h-112zM620 362h250v-218c0 -119 -78 -159 -227 -159h-23v114h23c69 0 89 6 89 45h-112v218z" />
    <glyph glyph-name="quotedblleft" unicode="&#x201c;" 
d="M330 566c0 119 78 159 227 159h23v-114h-23c-69 0 -89 -6 -89 -45h112v-218h-250v218zM847 611c-69 0 -89 -6 -89 -45h112v-218h-250v218c0 119 78 159 227 159h23v-114h-23z" />
    <glyph glyph-name="quotedblright" unicode="&#x201d;" 
d="M330 482v218h250v-218c0 -119 -78 -159 -227 -159h-23v114h23c69 0 89 6 89 45h-112zM620 700h250v-218c0 -119 -78 -159 -227 -159h-23v114h23c69 0 89 6 89 45h-112v218z" />
    <glyph glyph-name="quoteleft" unicode="&#x2018;" 
d="M672 601c-69 0 -89 -6 -89 -45h112v-218h-250v218c0 119 78 159 227 159h23v-114h-23z" />
    <glyph glyph-name="quoteright" unicode="&#x2019;" 
d="M475 700h250v-218c0 -119 -78 -159 -227 -159h-23v114h23c69 0 89 6 89 45h-112v218z" />
    <glyph glyph-name="guillemotleft" unicode="&#xab;" 
d="M618 470l-120 -120l120 -120l-161 -161l-281 281l281 281zM1000 470l-120 -120l120 -120l-161 -161l-281 281l281 281z" />
    <glyph glyph-name="guillemotright" unicode="&#xbb;" 
d="M642 350l-281 -281l-161 161l120 120l-120 120l161 161zM1024 350l-281 -281l-161 161l120 120l-120 120l161 161z" />
    <glyph glyph-name="guilsinglleft" unicode="&#x2039;" 
d="M816 470l-120 -120l120 -120l-161 -161l-281 281l281 281z" />
    <glyph glyph-name="guilsinglright" unicode="&#x203a;" 
d="M826 350l-281 -281l-161 161l120 120l-120 120l161 161z" />
    <glyph glyph-name="quotedbl" unicode="&#x22;" 
d="M417 325l-90 160v215h250v-215l-90 -160h-70zM713 325l-90 160v215h250v-215l-90 -160h-70z" />
    <glyph glyph-name="quotesingle" unicode="'" 
d="M565 325l-90 160v215h250v-215l-90 -160h-70z" />
    <glyph glyph-name="quotesinglbase.ss03" 
d="M474 383h250v-210c0 -126 -75 -188 -222 -188v39c130 0 178 42 185 129h-213v230z" />
    <glyph glyph-name="quotedblbase.ss03" 
d="M329 153v230h250v-210c0 -126 -75 -188 -222 -188v39c130 0 178 42 185 129h-213zM619 383h250v-210c0 -126 -75 -188 -222 -188v39c130 0 178 42 185 129h-213v230z" />
    <glyph glyph-name="quotedblleft.ss03" 
d="M552 676c-130 0 -178 -42 -185 -129h213v-230h-250v210c0 126 75 188 222 188v-39zM657 547h213v-230h-250v210c0 126 75 188 222 188v-39c-130 0 -178 -42 -185 -129z" />
    <glyph glyph-name="quotedblright.ss03" 
d="M330 470v230h250v-210c0 -126 -75 -188 -222 -188v39c130 0 178 42 185 129h-213zM620 700h250v-210c0 -126 -75 -188 -222 -188v39c130 0 178 42 185 129h-213v230z" />
    <glyph glyph-name="quoteleft.ss03" 
d="M483 547h213v-230h-250v210c0 126 75 188 222 188v-39c-130 0 -178 -42 -185 -129z" />
    <glyph glyph-name="quoteright.ss03" 
d="M473 700h250v-210c0 -126 -75 -188 -222 -188v39c130 0 178 42 185 129h-213v230z" />
    <glyph glyph-name="guillemotleft.ss03" 
d="M657 623l-272 -273l273 -272l-28 -28l-301 300l301 301zM597 350l273 -272l-28 -28l-301 300l301 301l27 -28z" />
    <glyph glyph-name="guillemotright.ss03" 
d="M659 350l-301 -300l-28 28l273 272l-272 273l27 28zM871 350l-301 -300l-28 28l273 272l-272 273l27 28z" />
    <glyph glyph-name="guilsinglleft.ss03" 
d="M491 350l273 -272l-28 -28l-301 300l301 301l27 -28z" />
    <glyph glyph-name="guilsinglright.ss03" 
d="M765 350l-301 -300l-28 28l273 272l-272 273l27 28z" />
    <glyph glyph-name="quotedbl.ss03" 
d="M452 325v375h40v-375h-40zM708 325v375h40v-375h-40z" />
    <glyph glyph-name="quotesingle.ss03" 
d="M580 325v375h40v-375h-40z" />
    <glyph glyph-name="uni20BF" unicode="&#x20bf;" 
d="M675 329c343 -1 515 -9 515 -136c0 -115 -143 -140 -490 -143v-65h-40v65h-40v-65h-40v65h-560v600h560v65h40v-65h40v65h40v-65h62c240 0 428 -3 428 -142c0 -129 -172 -137 -515 -138v-41zM671 466c0 47 -8 62 -37 62h-14v-132c33 2 51 20 51 70zM634 171
c29 0 37 15 37 62c0 50 -18 68 -51 70v-132h14z" />
    <glyph glyph-name="cent" unicode="&#xa2;" 
d="M685 372c-50 0 -83 -1 -83 -20s33 -20 83 -20h495l-20 -262s-245 -33 -510 -35v-50h-40v50c-411 2 -600 84 -600 316c0 239 201 318 600 319v45h40v-45c274 -3 530 -40 530 -40v-258h-495z" />
    <glyph glyph-name="currency" unicode="&#xa4;" 
d="M1016 351c0 -85 -27 -162 -86 -220l96 -96l-28 -29l-99 99c-68 -50 -166 -80 -299 -80s-230 30 -298 79l-98 -98l-29 28l96 97c-59 58 -86 135 -86 220c0 84 27 161 86 219l-96 96l28 28l98 -98c68 50 166 80 299 80c134 0 232 -30 299 -81l99 99l28 -28l-96 -96
c59 -58 86 -135 86 -219zM600 322c88 0 111 10 111 29c0 18 -23 28 -111 28c-87 0 -110 -10 -110 -28c0 -19 23 -29 110 -29z" />
    <glyph glyph-name="dollar" unicode="$" 
d="M1190 222c0 -142 -130 -185 -570 -187v-50h-40v50c-182 1 -391 20 -560 45v258c76 -39 235 -68 377 -68c84 0 188 14 245 33l-6 26c-69 -14 -168 -24 -239 -24c-244 0 -387 56 -387 178c0 133 142 182 570 187v45h40v-45h37c164 0 344 -15 523 -44v-248
c-77 34 -235 59 -377 59c-87 0 -195 -14 -255 -34l6 -26c70 14 175 25 249 25c254 0 387 -62 387 -180z" />
    <glyph glyph-name="Euro" unicode="&#x20ac;" 
d="M587 330c5 -32 30 -40 95 -40h497l-9 -226c-61 -34 -237 -79 -498 -79c-359 0 -561 68 -583 305h-79v40h77v6c0 12 0 23 1 34h-78v40h83c35 219 234 305 579 305c204 0 404 -23 498 -41l10 -264h-498c-61 0 -86 -10 -93 -40h357v-40h-359z" />
    <glyph glyph-name="florin" unicode="&#x192;" 
d="M787 715c180 0 330 -33 393 -58v-258c-69 10 -192 23 -280 23c-92 0 -135 -12 -155 -52h154v-40h-165c-3 -20 -4 -43 -4 -71c0 -196 -101 -274 -317 -274c-187 0 -334 33 -393 58v258c73 -9 202 -22 290 -22c91 0 134 12 154 51h-154v40h166c3 20 4 43 4 71
c0 186 111 274 307 274z" />
    <glyph glyph-name="uni20B4" unicode="&#x20b4;" 
d="M1190 523c0 -56 -49 -94 -116 -113h106v-40h-1160v40h631c-14 39 -124 40 -305 40h-316v237c43 4 322 28 593 28c382 0 567 -66 567 -192zM20 290v40h1160v-40h-631c14 -39 124 -40 305 -40h316v-237c-43 -4 -322 -28 -593 -28c-382 0 -567 66 -567 192
c0 56 49 94 116 113h-106z" />
    <glyph glyph-name="uni20AD" unicode="&#x20ad;" 
d="M1180 370v-40h-88l78 -330h-520l-40 315h-10v-315h-560v330h-20v40h20v330h560v-315h10l40 315h520l-78 -330h88z" />
    <glyph glyph-name="uni20B1" unicode="&#x20b1;" 
d="M1180 406h-45c-2 -14 -6 -27 -11 -40h56v-40h-76c-57 -84 -190 -130 -454 -130h-40v-196h-570v326h-20v40h20v40h-20v40h20v254h647c374 0 453 -58 453 -235v-19h40v-40zM610 510v-64h48c-6 51 -18 64 -35 64h-13zM660 386v20h-50v-40h50v20zM613 266c16 0 34 14 43 60
h-46v-60h3z" />
    <glyph glyph-name="uni20BD" unicode="&#x20bd;" 
d="M660 226h-40v-40h306v-40h-306v-146h-580v146h-30v40h30v514h647c374 0 503 -58 503 -225c0 -182 -145 -249 -530 -249zM633 460h-13v-164h3c22 0 47 25 47 90c0 51 -15 74 -37 74z" />
    <glyph glyph-name="uni20B9" unicode="&#x20b9;" 
d="M1180 406h-73c-2 -14 -6 -27 -10 -40h83v-40h-100c-20 -34 -50 -61 -91 -83l140 -243h-459l-110 186v100h23c34 0 57 11 68 40h-631v40h639c1 6 1 13 1 20v20h-640v40h634c-9 30 -30 40 -71 40h-543v214h647c324 0 423 -58 423 -245v-9h70v-40z" />
    <glyph glyph-name="uni20AA" unicode="&#x20aa;" 
d="M20 0v700h760v-400h-160v140h-240v-440h-360zM420 0v400h160v-140h240v440h360v-700h-760z" />
    <glyph glyph-name="sterling" unicode="&#xa3;" 
d="M679 280l499 9v-289h-1158c0 195 58 270 113 354h-113v40h138c40 67 72 151 72 306h600c0 -155 -34 -239 -75 -306h154v-40h-180c-17 -24 -34 -48 -50 -74z" />
    <glyph glyph-name="uni20B8" unicode="&#x20b8;" 
d="M20 700h1160v-40h-1160v40zM1180 620v-390h-280v-230h-600v230h-280v390h1160z" />
    <glyph glyph-name="uni20AE" unicode="&#x20ae;" 
d="M1180 310h-280v-40h280v-40h-280v-40h280v-40h-280v-150h-600v150h-280v40h280v40h-280v40h280v40h-280v390h1160v-390z" />
    <glyph glyph-name="uni20A9" unicode="&#x20a9;" 
d="M1190 700l-44 -510h44v-40h-47l-4 -40h51v-40h-54l-6 -70h-499l-27 459h-9l-37 -459h-488l-6 70h-54v40h51l-4 40h-47v40h44l-44 510h508l25 -434h10l24 324h45l18 -324h10l31 434h509z" />
    <glyph glyph-name="yen" unicode="&#xa5;" 
d="M1190 700l-237 -461h135v-40h-155l-21 -40h176v-40h-187v-119h-600v119h-189v40h177l-21 40h-156v40h136l-238 461h558l26 -300h14l24 300h558z" />
    <glyph glyph-name="plus" unicode="+" 
d="M930 420v-220h-220v-200h-220v200h-220v220h220v200h220v-200h220z" />
    <glyph glyph-name="minus" unicode="&#x2212;" 
d="M270 200v220h660v-220h-660z" />
    <glyph glyph-name="multiply" unicode="&#xd7;" 
d="M885 441l-131 -131l131 -131l-154 -154l-131 131l-131 -131l-154 154l131 131l-131 131l154 154l131 -131l131 131z" />
    <glyph glyph-name="divide" unicode="&#xf7;" 
d="M490 460v160h220v-160h-220zM270 200v220h660v-220h-660zM490 0v160h220v-160h-220z" />
    <glyph glyph-name="equal" unicode="=" 
d="M270 320v220h660v-220h-660zM270 60v220h660v-220h-660z" />
    <glyph glyph-name="notequal" unicode="&#x2260;" 
d="M930 320h-292l-23 -40h315v-220h-443l-43 -75l-35 20l32 55h-171v220h298l23 40h-321v220h448l46 79l35 -20l-34 -59h165v-220z" />
    <glyph glyph-name="greater" unicode="&#x3e;" 
d="M488 644l366 -316l-366 -317l-158 181l168 136l-168 135z" />
    <glyph glyph-name="less" unicode="&#x3c;" 
d="M870 463l-168 -135l168 -136l-158 -181l-366 317l366 316z" />
    <glyph glyph-name="greaterequal" unicode="&#x2265;" 
d="M735 192h195v-192h-660v192h98l168 136l-168 135l158 181l366 -316z" />
    <glyph glyph-name="lessequal" unicode="&#x2264;" 
d="M832 192h98v-192h-660v192h195l-157 136l366 316l158 -181l-168 -135z" />
    <glyph glyph-name="plusminus" unicode="&#xb1;" 
d="M930 232h-220v-40h220v-192h-660v192h220v40h-220v192h220v196h220v-196h220v-192z" />
    <glyph glyph-name="approxequal" unicode="&#x2248;" 
d="M765 303c-135 0 -193 34 -330 34c-55 0 -110 -7 -165 -17v220c55 10 110 17 165 17c135 0 193 -34 330 -34c55 0 110 7 165 17v-220c-55 -10 -110 -17 -165 -17zM765 43c-135 0 -193 34 -330 34c-55 0 -110 -7 -165 -17v220c55 10 110 17 165 17c135 0 193 -34 330 -34
c55 0 110 7 165 17v-220c-55 -10 -110 -17 -165 -17z" />
    <glyph glyph-name="logicalnot" unicode="&#xac;" 
d="M970 540v-440h-220v220h-540v220h760z" />
    <glyph glyph-name="asciitilde" unicode="~" 
d="M297 648l-10 38c31 9 103 29 191 29c90 0 140 -17 240 -17c88 0 155 10 181 17l10 -38c-31 -9 -103 -29 -191 -29c-111 0 -150 17 -240 17c-88 0 -155 -11 -181 -17z" />
    <glyph glyph-name="asciicircum" unicode="^" 
d="M270 645v40l330 30l330 -30v-40l-330 15z" />
    <glyph glyph-name="emptyset" unicode="&#x2205;" 
d="M886 605c89 -60 130 -151 130 -254c0 -181 -124 -326 -416 -326c-103 0 -185 18 -248 49l-79 -78l-30 26l73 73c-90 59 -131 152 -131 256c0 180 123 325 415 325c104 0 187 -19 251 -51l80 80l28 -28zM470 351c0 -17 14 -27 74 -31l62 62h-6c-107 0 -130 -10 -130 -31z
M600 319c108 0 131 10 131 32c0 16 -14 26 -71 29l-62 -61h2z" />
    <glyph glyph-name="infinity" unicode="&#x221e;" 
d="M893 580c189 0 276 -131 276 -276c0 -163 -90 -276 -276 -276c-133 0 -232 72 -293 154c-60 -82 -157 -154 -283 -154c-199 0 -286 131 -286 276c0 163 90 276 286 276c128 0 224 -72 284 -154c61 82 160 154 292 154zM261 304c0 -25 54 -26 86 -26c67 0 124 12 161 26
c-39 13 -96 26 -161 26c-40 0 -86 -1 -86 -26zM853 278c40 0 86 1 86 26s-54 26 -86 26c-76 0 -129 -14 -161 -26c38 -13 95 -26 161 -26z" />
    <glyph glyph-name="integral" unicode="&#x222b;" 
d="M413 -15c-187 0 -334 33 -393 58v258c65 -9 174 -22 240 -22c129 0 150 32 150 162c0 186 181 274 377 274c180 0 330 -33 393 -58v-258c-60 10 -164 23 -230 23c-129 0 -150 -32 -150 -163c0 -196 -171 -274 -387 -274z" />
    <glyph glyph-name="product" unicode="&#x220f;" 
d="M1180 700v-280h-80v-420h-480v420h-40v-420h-480v420h-80v280h1160z" />
    <glyph glyph-name="summation" unicode="&#x2211;" 
d="M1180 700v-259h-560l170 -91l-170 -90h560v-260h-1160l290 350l-290 350h1160z" />
    <glyph glyph-name="radical" unicode="&#x221a;" 
d="M1180 700v-279h-157l-63 -421h-830l-120 700h530l25 -480h10l23 480h582z" />
    <glyph glyph-name="partialdiff" unicode="&#x2202;" 
d="M574 -15c-397 0 -564 60 -564 232c0 156 163 158 597 158c0 26 -9 40 -81 40l-476 3v267c161 17 387 30 540 30c423 0 600 -102 600 -346c0 -299 -192 -384 -616 -384zM580 165c26 0 27 28 27 93v79c-36 0 -55 -19 -55 -79c0 -65 3 -93 28 -93z" />
    <glyph glyph-name="percent" unicode="%" 
d="M300 388c-194 0 -280 45 -280 161c0 121 86 166 280 166s281 -45 281 -166c0 -116 -87 -161 -281 -161zM118 -15l-23 32l987 698l23 -32zM300 528c70 0 74 6 74 21c0 16 -4 22 -74 22c-69 0 -75 -6 -75 -22c0 -15 6 -21 75 -21zM899 -15c-194 0 -280 45 -280 161
c0 121 86 166 280 166s281 -45 281 -166c0 -116 -87 -161 -281 -161zM900 125c70 0 74 6 74 21c0 16 -4 22 -74 22c-69 0 -75 -6 -75 -22c0 -15 6 -21 75 -21z" />
    <glyph glyph-name="perthousand" unicode="&#x2030;" 
d="M581 549c0 -116 -87 -161 -281 -161s-280 45 -280 161c0 121 86 166 280 166s281 -45 281 -166zM1082 715l23 -32l-987 -698l-23 32zM225 549c0 -15 6 -21 75 -21c70 0 74 6 74 21c0 16 -4 22 -74 22c-69 0 -75 -6 -75 -22zM1005 312c89 0 175 -45 175 -166
c0 -116 -86 -161 -175 -161c-51 0 -86 11 -108 35c-22 -24 -57 -35 -108 -35c-84 0 -170 45 -170 161c0 121 86 166 170 166c51 0 86 -11 108 -36c22 25 57 36 108 36zM830 125c28 0 34 6 34 21c0 16 -6 22 -34 22c-27 0 -35 -6 -35 -22c0 -15 8 -21 35 -21zM964 125
c27 0 35 6 35 21c0 16 -8 22 -35 22c-28 0 -34 -6 -34 -22c0 -15 6 -21 34 -21z" />
    <glyph glyph-name="arrowup" unicode="&#x2191;" 
d="M921 410v-40h-240v-370h-220v370h-240v40l350 305z" />
    <glyph glyph-name="uni2197" unicode="&#x2197;" 
d="M935 220l-28 -28l-170 170l-377 -377l-155 155l377 377l-170 170l28 28l463 -32z" />
    <glyph glyph-name="arrowright" unicode="&#x2192;" 
d="M885 700l305 -350l-305 -350h-40v240h-825v220h825v240h40z" />
    <glyph glyph-name="uni2198" unicode="&#x2198;" 
d="M917 508l28 -28l-32 -463l-463 -32l-28 28l170 170l-377 377l155 155l377 -377z" />
    <glyph glyph-name="arrowdown" unicode="&#x2193;" 
d="M681 330h240v-40l-350 -305l-350 305v40h240v370h220v-370z" />
    <glyph glyph-name="uni2199" unicode="&#x2199;" 
d="M985 560l-377 -377l170 -170l-28 -28l-463 32l-32 463l28 28l170 -170l377 377z" />
    <glyph glyph-name="arrowleft" unicode="&#x2190;" 
d="M1190 460v-220h-825v-240h-40l-305 350l305 350h40v-240h825z" />
    <glyph glyph-name="uni2196" unicode="&#x2196;" 
d="M985 140l-155 -155l-377 377l-170 -170l-28 28l32 463l463 32l28 -28l-170 -170z" />
    <glyph glyph-name="arrowboth" unicode="&#x2194;" 
d="M885 700l305 -350l-305 -350h-40v240h-490v-240h-40l-305 350l305 350h40v-240h490v240h40z" />
    <glyph glyph-name="arrowupdn" unicode="&#x2195;" 
d="M921 370h-240v-40h240v-40l-350 -305l-350 305v40h240v40h-240v40l350 305l350 -305v-40z" />
    <glyph glyph-name="uni25CF" unicode="&#x25cf;" 
d="M600 9c-237 0 -360 152 -360 340s123 340 360 340c238 0 360 -152 360 -340s-122 -340 -360 -340z" />
    <glyph glyph-name="circle" unicode="&#x25cb;" 
d="M600 9c-237 0 -360 152 -360 340s123 340 360 340c238 0 360 -152 360 -340s-122 -340 -360 -340zM600 46c197 0 320 116 320 303s-123 303 -320 303s-320 -117 -320 -303s123 -303 320 -303z" />
    <glyph glyph-name="lozenge" unicode="&#x25ca;" 
d="M600 -15l-543 365l543 365l543 -365zM600 33l471 317l-471 317l-471 -317z" />
    <glyph glyph-name="triagup" unicode="&#x25b2;" 
d="M600 700l395 -700h-790z" />
    <glyph glyph-name="uni25B6" unicode="&#x25b6;" 
d="M1010 351l-700 -351v700z" />
    <glyph glyph-name="triagdn" unicode="&#x25bc;" 
d="M600 0l-395 700h790z" />
    <glyph glyph-name="uni25C0" unicode="&#x25c0;" 
d="M890 0l-700 351l700 349v-700z" />
    <glyph glyph-name="uni25B3" unicode="&#x25b3;" 
d="M600 700l395 -700h-790zM600 619l-328 -581h657z" />
    <glyph glyph-name="uni25B7" unicode="&#x25b7;" 
d="M310 700l700 -349l-700 -351v700zM920 351l-570 284v-572z" />
    <glyph glyph-name="uni25BD" unicode="&#x25bd;" 
d="M205 700h790l-395 -700zM929 662h-657l328 -581z" />
    <glyph glyph-name="uni25C1" unicode="&#x25c1;" 
d="M190 351l700 349v-700zM850 63v572l-570 -284z" />
    <glyph glyph-name="uni261C" unicode="&#x261c;" 
d="M439 600c19 72 65 110 112 110c86 0 240 -99 319 -150v-520h-254c-22 -8 -51 -12 -89 -12h-29c-127 0 -171 39 -171 120c0 7 0 14 1 21c-22 20 -31 48 -31 85c0 11 1 21 3 31c-14 17 -21 38 -23 65h-91c-127 0 -171 44 -171 125s44 125 171 125h253zM800 525
c-123 77 -189 115 -232 115c-50 0 -67 -69 -67 -126c0 -66 14 -81 45 -81s45 15 45 81h12c45 -84 75 -207 75 -316c0 -38 -2 -69 -8 -93h130v420zM910 560l270 40v-600l-270 40v520zM286 415c18 42 62 64 147 66c-1 10 -2 21 -2 33v21h-245c-86 0 -101 -19 -101 -60
s15 -60 101 -60h100zM1110 81v438l-40 -6v-426zM980 500v-400l40 -6v412zM347 361c0 -41 15 -55 101 -55h39c86 0 101 14 101 55c0 5 0 10 -1 14c-13 -8 -31 -12 -51 -12c-37 0 -68 16 -86 53h-2c-86 0 -101 -14 -101 -55zM367 258c2 -46 19 -59 101 -59h39
c86 0 101 14 101 55v19c-27 -25 -66 -32 -121 -32h-39c-32 0 -59 2 -81 17zM498 93h29c86 0 101 14 101 55v18c-27 -25 -66 -32 -121 -32h-39c-27 0 -51 2 -71 15c3 -44 21 -56 101 -56z" />
    <glyph glyph-name="uni261E" unicode="&#x261e;" 
d="M1014 600c127 0 171 -44 171 -125s-44 -125 -171 -125h-91c-2 -27 -9 -48 -23 -65c2 -10 3 -20 3 -31c0 -37 -9 -65 -31 -85c1 -7 1 -14 1 -21c0 -81 -44 -120 -171 -120h-29c-38 0 -67 4 -89 12h-254v520c79 51 233 150 319 150c47 0 93 -38 112 -110h253zM400 525v-420
h130c-6 24 -8 55 -8 93c0 109 30 232 75 316h12c0 -66 14 -81 45 -81s45 15 45 81c0 57 -17 126 -67 126c-43 0 -109 -38 -232 -115zM20 0v600l270 -40v-520zM1014 415c86 0 101 19 101 60s-15 60 -101 60h-245v-21c0 -12 -1 -23 -2 -33c85 -2 129 -24 147 -66h100zM90 519
v-438l40 6v426zM220 100v400l-40 6v-412zM752 306c86 0 101 14 101 55s-15 55 -101 55h-2c-18 -37 -49 -53 -86 -53c-20 0 -38 4 -51 12c-1 -4 -1 -9 -1 -14c0 -41 15 -55 101 -55h39zM732 199c82 0 99 13 101 59c-22 -15 -49 -17 -81 -17h-39c-55 0 -94 7 -121 32v-19
c0 -41 15 -55 101 -55h39zM702 93c80 0 98 12 101 56c-20 -13 -44 -15 -71 -15h-39c-55 0 -94 7 -121 32v-18c0 -41 15 -55 101 -55h29z" />
    <glyph glyph-name="uni2728" unicode="&#x2728;" 
d="M840 0c-21 168 -164 343 -358 354v32c193 11 338 179 358 322h32c20 -143 165 -312 318 -322v-32c-154 -10 -297 -186 -318 -354h-32zM307 275c-12 108 -107 186 -297 197v30c189 31 286 110 297 198h32c11 -88 97 -174 277 -196v-30c-180 -22 -265 -91 -277 -199h-32z
M417 -3c-11 91 -77 130 -245 150v32c167 20 234 58 245 139h32c11 -81 76 -119 277 -139v-32c-201 -20 -266 -59 -277 -150h-32z" />
    <glyph glyph-name="uni2764" unicode="&#x2764;" 
d="M600 -15c-272 64 -580 217 -580 485c0 175 132 245 281 245c137 0 283 -60 293 -323h12c10 263 135 323 284 323c159 0 290 -69 290 -244c0 -269 -308 -422 -580 -486zM122 441h12c7 93 58 161 155 185v12c-125 11 -184 -59 -167 -197z" />
    <glyph glyph-name="u1F4A2" unicode="&#x1f4a2;" 
d="M600 386c-195 0 -278 179 -296 309l11 5c81 -77 172 -114 285 -114s204 37 285 114l11 -5c-18 -130 -101 -309 -296 -309zM32 54l-5 11c77 81 114 172 114 285s-37 204 -114 285l5 11c130 -18 309 -101 309 -296s-179 -278 -309 -296zM1168 54c-130 18 -309 101 -309 296
s179 278 309 296l5 -11c-77 -81 -114 -172 -114 -285s37 -204 114 -285zM315 0l-11 5c18 130 101 309 296 309s278 -179 296 -309l-11 -5c-81 77 -172 114 -285 114s-204 -37 -285 -114z" />
    <glyph glyph-name="at" unicode="@" 
d="M600 715c370 0 570 -127 570 -364c0 -126 -80 -203 -210 -203h-703l72 404h581l71 -343c86 6 129 53 129 142c0 200 -175 304 -510 304s-510 -104 -510 -304c0 -202 174 -306 510 -306v-60c-371 0 -570 127 -570 366c0 237 199 364 570 364zM599 208h41l-12 206h-20z" />
    <glyph glyph-name="ampersand" unicode="&#x26;" 
d="M622 -15c-331 0 -612 39 -612 209c0 136 114 141 381 141v40c-267 0 -381 11 -381 131c0 180 281 209 588 209c220 0 437 -17 540 -30v-254h-539v-110c0 -46 24 -64 61 -64c38 0 55 16 55 64h-71v70h546v-75h-80l23 -277c-91 -20 -310 -54 -511 -54z" />
    <glyph glyph-name="paragraph" unicode="&#xb6;" 
d="M580 700h600v-700h-280v500h-40v-500h-280v210c-426 1 -570 48 -570 254c0 220 142 236 570 236z" />
    <glyph glyph-name="section" unicode="&#xa7;" 
d="M553 -15c-238 0 -450 39 -543 68v238c61 -39 225 -90 452 -90c155 0 257 18 257 68c-47 -15 -116 -34 -257 -34c-208 0 -452 52 -452 222c0 220 351 258 617 258c238 0 450 -39 543 -68v-238c-61 39 -221 90 -437 90c-150 0 -257 -14 -257 -64c47 15 127 30 257 30
c258 0 457 -52 457 -222c0 -220 -361 -258 -637 -258zM621 325c42 0 76 8 90 14c-14 17 -58 40 -130 40c-46 0 -82 -9 -96 -15c12 -17 57 -39 136 -39z" />
    <glyph glyph-name="copyright" unicode="&#xa9;" 
d="M601 -15c-401 0 -567 106 -567 359c0 265 166 371 567 371c399 0 565 -106 565 -371c0 -253 -166 -359 -565 -359zM601 45c373 0 505 86 505 299c0 225 -132 311 -505 311c-375 0 -507 -86 -507 -311c0 -213 132 -299 507 -299zM617 134c-278 0 -393 55 -393 212
c0 153 105 221 393 221c119 0 263 -17 323 -26l6 -169h-329c-21 1 -34 -6 -34 -19c0 -12 13 -19 34 -18l328 1l1 -159c-36 -11 -170 -43 -329 -43z" />
    <glyph glyph-name="registered" unicode="&#xae;" 
d="M601 715c399 0 565 -106 565 -371c0 -253 -166 -359 -565 -359c-401 0 -567 106 -567 359c0 265 166 371 567 371zM601 45c373 0 505 86 505 299c0 225 -132 311 -505 311c-375 0 -507 -86 -507 -311c0 -213 132 -299 507 -299zM969 428c0 -46 -16 -79 -52 -102l45 -179
h-301l-16 134h-19v-134h-349v414h394c221 0 298 -34 298 -133zM628 322c13 0 27 15 27 53c0 30 -9 44 -22 44h-7v-97h2z" />
    <glyph glyph-name="trademark" unicode="&#x2122;" 
d="M359 370v151h-180v179h842v-179h-180v-151h-482zM1023 0h-341l-21 211l-1 -1h-10l-25 -210h-21l-28 210h-11l-18 -210h-370l18 331h381l33 -197h10l30 197h356z" />
    <glyph glyph-name="degree" unicode="&#xb0;" 
d="M601 359c-155 0 -221 76 -221 171c0 94 66 170 221 170c154 0 220 -76 220 -170c0 -95 -66 -171 -220 -171zM601 466c74 0 95 29 95 64c0 34 -21 63 -95 63c-75 0 -96 -29 -96 -63c0 -35 21 -64 96 -64z" />
    <glyph glyph-name="bar" unicode="|" 
d="M300 -15v730h600v-730h-600z" />
    <glyph glyph-name="brokenbar" unicode="&#xa6;" 
d="M300 370v345h600v-345h-600zM300 -15v345h600v-345h-600z" />
    <glyph glyph-name="dagger" unicode="&#x2020;" 
d="M1090 538v-220h-188v-318h-600v318h-202v220h202v162h600v-162h188z" />
    <glyph glyph-name="daggerdbl" unicode="&#x2021;" 
d="M1090 370h-188v-40h188v-220h-188v-110h-600v110h-202v220h202v40h-202v220h202v110h600v-110h188v-220z" />
    <glyph glyph-name="uni2116" unicode="&#x2116;" 
d="M910 495c-161 0 -280 26 -280 115s119 105 280 105c160 0 280 -16 280 -105s-120 -115 -280 -115zM640 266v114h540v-380h-540l-70 434h-10v-434h-540v700h540l70 -434h10zM910 667c-13 0 -25 -9 -25 -62s12 -62 25 -62c12 0 25 9 25 62s-12 62 -25 62zM642 420v40h538
v-40h-538z" />
    <glyph glyph-name="u1F4A5" unicode="&#x1f4a5;" 
d="M1173 343l-163 -62l169 -267l-7 -10l-403 134l-210 -130l-12 4l-49 139l-437 -121l-6 10l258 284l-293 168l3 12l402 -5l-13 198l11 7l232 -151l102 126l13 -3l9 -126l393 150l8 -10l-162 -277l155 -58v-12zM1050 100l-135 196l126 50l-125 41l131 202l-311 -138l-15 106
l-71 -97l-163 118l13 -150l-255 10l178 -97l-196 -208l316 103l46 -135l171 114z" />
    <glyph glyph-name="u1F300" unicode="&#x1f300;" 
d="M20 0v700h1160v-67h-1090v-566h1020v461h-910v-356h800v251h-690v-145h580v39h-540v67h610v-173h-720v279h830v-385h-940v490h1050v-595h-1160z" />
    <glyph glyph-name="u1F441" unicode="&#x1f441;" 
d="M601 715c310 0 518 -209 589 -366c-71 -157 -279 -364 -589 -364c-312 0 -520 207 -591 364c71 157 279 366 591 366zM601 51c258 0 437 162 511 298c-74 137 -253 300 -511 300c-260 0 -439 -163 -513 -300c74 -136 253 -298 513 -298zM603 609c156 0 214 -135 214 -257
c0 -125 -58 -260 -214 -260c-159 0 -217 131 -217 260c0 126 58 257 217 257zM581 524v12c-84 -1 -118 -54 -106 -178h12c6 90 41 148 94 166z" />
    <glyph glyph-name="u1F440" unicode="&#x1f440;" 
d="M303 -15c-191 0 -293 127 -293 364c0 241 100 366 293 366c189 0 287 -125 287 -366c0 -238 -99 -364 -287 -364zM899 -15c-190 0 -289 125 -289 364c0 243 97 366 289 366c191 0 291 -126 291 -366c0 -237 -102 -364 -291 -364zM303 50c147 0 217 100 217 299
c0 207 -69 301 -217 301c-152 0 -223 -95 -223 -301c0 -203 73 -299 223 -299zM899 50c149 0 221 96 221 299c0 205 -71 301 -221 301s-219 -93 -219 -301c0 -204 70 -299 219 -299zM241 119c-83 0 -126 70 -126 227c0 130 43 189 126 189s126 -59 126 -189
c0 -157 -43 -227 -126 -227zM841 119c-83 0 -126 70 -126 227c0 130 43 189 126 189s126 -59 126 -189c0 -157 -43 -227 -126 -227zM162 336h12c6 70 31 118 74 136v12c-54 9 -98 -44 -86 -148zM760 336h12c6 70 31 118 74 136v12c-54 9 -98 -44 -86 -148z" />
    <glyph glyph-name="u1F525" unicode="&#x1f525;" 
d="M592 -15c-370 0 -582 106 -582 274c0 77 45 121 121 141c0 -44 7 -107 85 -107c121 0 -6 154 198 289c12 -47 44 -76 93 -76c53 0 79 34 79 84c0 43 -20 88 -43 116c140 3 433 -41 433 -236c0 -45 -16 -90 -59 -156l11 -5c67 67 90 152 80 221c105 -39 182 -106 182 -229
c0 -223 -251 -316 -598 -316zM165 427c-16 26 -25 47 -25 66c0 44 51 100 156 168c17 -20 29 -35 29 -66c0 -43 -33 -104 -160 -168zM421 283l9 8c-50 59 -45 137 -15 196l-8 9c-81 -65 -77 -144 14 -213zM852 84c184 37 251 101 251 251h-12c-36 -111 -80 -177 -240 -239z
" />
    <glyph glyph-name="u1F310" unicode="&#x1f310;" 
d="M601 715c425 0 589 -105 589 -366c0 -255 -164 -364 -589 -364c-427 0 -591 109 -591 364c0 261 164 366 591 366zM635 383h232c-8 185 -88 252 -232 261v-261zM565 644c-143 -9 -215 -77 -222 -261h222v261zM1119 383c-11 150 -98 232 -311 260
c74 -42 114 -123 119 -260h192zM392 643c-213 -28 -300 -110 -311 -260h192c5 137 45 217 119 260zM81 318c10 -149 99 -232 313 -261c-76 43 -116 124 -121 261h-192zM565 318h-222c7 -184 80 -253 222 -262v262zM635 56c143 9 224 78 232 262h-232v-262zM806 57
c214 29 303 112 313 261h-192c-5 -137 -45 -218 -121 -261z" />
    <glyph glyph-name="uni231B" unicode="&#x231b;" 
d="M1078 633c-11 -126 -68 -255 -313 -277v-12c245 -22 301 -152 312 -277h103v-67h-1160v67h103c11 126 67 255 312 277v12c-245 22 -301 151 -312 277h-103v67h1160v-67h-102zM600 383c276 0 392 78 398 250h-796c6 -172 122 -250 398 -250zM599 540
c170 -39 211 -58 211 -83c0 -24 -68 -37 -210 -37c-143 0 -211 13 -211 37c0 25 41 44 210 83zM998 67c-6 172 -122 250 -398 250s-392 -78 -398 -250h796zM246 104c20 113 130 176 354 176s334 -63 354 -176h-708z" />
    <glyph glyph-name="u1F3B5" unicode="&#x1f3b5;" 
d="M272 -10c-174 0 -262 54 -262 173c0 112 77 178 243 178c173 0 224 -71 234 -191h12v550h681v-530c0 -96 -79 -180 -299 -180c-176 0 -272 54 -272 173c0 112 84 178 253 178c176 0 226 -71 236 -191h12v231h-541v-211c0 -96 -80 -180 -297 -180z" />
    <glyph glyph-name="u1F496" unicode="&#x1f496;" 
d="M600 -15c-73 17 -149 41 -220 81c-6 -25 -9 -44 -10 -66h-150c-7 100 -50 132 -198 149v150c15 2 29 2 52 5c-38 49 -54 105 -54 166c0 175 132 245 281 245c137 0 283 -60 293 -323h12c10 263 135 323 284 323c159 0 290 -69 290 -244c0 -269 -308 -422 -580 -486z
M122 441h12c7 93 58 161 155 185v12c-125 11 -184 -59 -167 -197zM915 337h12c11 81 66 130 177 150v12c-111 20 -166 68 -177 139h-12c-11 -71 -78 -119 -165 -139v-12c88 -20 154 -69 165 -150zM289 59h12c11 91 76 140 217 160v12c-141 20 -206 68 -217 149h-12
c-11 -81 -88 -129 -205 -149v-12c118 -20 194 -69 205 -160z" />
    <glyph glyph-name="u1F4A6" unicode="&#x1f4a6;" 
d="M987 226c-28 135 -184 215 -341 277c-33 56 -64 115 -95 173l6 9c94 12 176 18 249 18c205 0 379 -71 379 -242c0 -113 -87 -222 -198 -235zM276 69c-231 0 -257 306 -261 598l10 6c238 -89 485 -188 485 -380c0 -122 -119 -224 -234 -224zM1107 382
c40 58 38 144 -39 211l-9 -8c38 -67 46 -136 37 -197zM759 -5c-192 0 -213 255 -216 494l11 6c196 -72 398 -154 398 -314c0 -102 -99 -186 -193 -186zM348 161c80 33 108 81 95 196h-13c-7 -77 -34 -130 -86 -185zM871 124l12 1c20 72 6 135 -89 198l-8 -9
c53 -54 76 -119 85 -190z" />
    <glyph glyph-name="u1F3C6" unicode="&#x1f3c6;" 
d="M1110 218v-151h70v-67h-1160v67h70v151h350v26c-89 16 -154 46 -201 87c-141 6 -229 34 -229 135c0 74 42 109 115 124c-4 35 -5 71 -5 110h960c0 -38 -1 -75 -5 -110c73 -16 115 -51 115 -124c0 -101 -88 -129 -229 -135c-47 -41 -112 -71 -201 -87v-26h350zM202 633
c6 -242 112 -346 398 -346s392 104 398 346h-796zM325 593c0 -133 53 -185 217 -235v-12c-192 10 -287 71 -287 247h70zM80 466c0 -53 46 -74 132 -77c-50 43 -69 89 -69 157c-44 -15 -63 -44 -63 -80zM1057 546c-1 -68 -19 -114 -69 -157c86 3 132 24 132 77
c0 36 -19 65 -63 80zM160 67h880v85h-880v-85z" />
    <glyph glyph-name="u1F3F4" unicode="&#x1f3f4;" 
d="M423 99c-129 0 -233 19 -276 33l-32 555c63 -17 130 -35 253 -35c203 0 302 51 506 51c128 0 235 -22 279 -38l38 -560c-63 20 -139 43 -262 43c-202 0 -304 -49 -506 -49zM49 0l-40 700h68l40 -700h-68z" />
    <glyph glyph-name="u1F3F3" unicode="&#x1f3f3;" 
d="M423 99c-129 0 -233 19 -276 33l-32 555c63 -17 130 -35 253 -35c193 0 318 51 506 51c128 0 235 -22 279 -38l38 -560c-63 20 -139 43 -262 43c-200 0 -313 -49 -506 -49zM49 0l-40 700h68l40 -700h-68zM423 164c213 0 297 49 506 49c75 0 136 -8 195 -29l-38 432
c-42 10 -114 22 -212 22c-217 0 -290 -51 -506 -51c-75 0 -131 6 -188 25l34 -430c42 -8 112 -18 209 -18z" />
    <glyph glyph-name="u1F448" unicode="&#x1f448;" 
d="M875 40h-272c-160 0 -260 55 -260 205v105h-152c-127 0 -171 44 -171 125s44 125 171 125h253c49 72 75 110 132 110c66 0 220 -99 299 -150v-520zM805 105v420c-123 77 -189 115 -222 115c-23 0 -35 -7 -68 -55c36 -8 77 -20 123 -38v-12h-447c-86 0 -101 -19 -101 -60
s15 -60 101 -60h222v-170c0 -96 51 -140 190 -140h202zM1185 0l-270 40v520l270 40v-600zM1115 81v438l-40 -6v-426zM1025 94v412l-40 -6v-400z" />
    <glyph glyph-name="u1F449" unicode="&#x1f449;" 
d="M330 40v520c79 51 233 150 299 150c57 0 83 -38 132 -110h253c127 0 171 -44 171 -125s-44 -125 -171 -125h-152v-105c0 -150 -100 -205 -260 -205h-272zM400 105h202c139 0 190 44 190 140v170h222c86 0 101 19 101 60s-15 60 -101 60h-447v12c46 18 87 30 123 38
c-33 48 -45 55 -68 55c-33 0 -99 -38 -222 -115v-420zM20 0v600l270 -40v-520zM90 81l40 6v426l-40 6v-438zM180 94l40 6v400l-40 6v-412z" />
    <glyph glyph-name="at.ss03" 
d="M600 715c370 0 570 -127 570 -364c0 -126 -80 -203 -210 -203h-703l72 404h581l75 -363c102 9 145 73 145 162c0 220 -175 324 -530 324s-530 -104 -530 -324c0 -222 174 -327 530 -327v-39c-371 0 -570 127 -570 366c0 237 199 364 570 364zM599 188h42l-13 226h-20z
" />
    <glyph glyph-name="copyright.ss03" 
d="M601 -15c-401 0 -567 106 -567 359c0 265 166 371 567 371c399 0 565 -106 565 -371c0 -253 -166 -359 -565 -359zM601 24c368 0 525 89 525 320c0 243 -146 332 -525 332c-380 0 -527 -89 -527 -332c0 -231 157 -320 527 -320zM617 134c-278 0 -393 55 -393 212
c0 153 105 221 393 221c119 0 263 -17 323 -26l6 -169h-329c-21 1 -34 -6 -34 -19c0 -12 13 -19 34 -18l328 1l1 -159c-36 -11 -170 -43 -329 -43z" />
    <glyph glyph-name="registered.ss03" 
d="M601 715c399 0 565 -106 565 -371c0 -253 -166 -359 -565 -359c-401 0 -567 106 -567 359c0 265 166 371 567 371zM601 24c368 0 525 89 525 320c0 243 -146 332 -525 332c-380 0 -527 -89 -527 -332c0 -231 157 -320 527 -320zM969 428c0 -46 -16 -79 -52 -102l45 -179
h-301l-16 134h-19v-134h-349v414h394c221 0 298 -34 298 -133zM628 322c13 0 27 15 27 53c0 30 -9 44 -22 44h-7v-97h2z" />
    <glyph glyph-name="degree.ss03" 
d="M601 359c-145 0 -211 76 -211 171c0 94 66 170 211 170c144 0 210 -76 210 -170c0 -95 -66 -171 -210 -171zM601 398c135 0 170 64 170 132c0 67 -34 131 -170 131s-171 -64 -171 -131c0 -68 35 -132 171 -132z" />
    <glyph glyph-name="bar.ss03" 
d="M580 -15v730h40v-730h-40z" />
    <glyph glyph-name="brokenbar.ss03" 
d="M580 370v345h40v-345h-40zM580 -15v345h40v-345h-40z" />
    <glyph glyph-name="dagger.ss03" 
d="M1000 497v-38h-380v-459h-40v459h-380v38h380v203h40v-203h380z" />
    <glyph glyph-name="daggerdbl.ss03" 
d="M1000 461h-378v-222h378v-38h-378v-201h-40v201h-382v38h382v222h-382v38h382v201h40v-201h378v-38z" />
    <glyph glyph-name="acutecomb" unicode="&#x301;" horiz-adv-x="0" 
d="M-933 645v40l665 30v-60z" />
    <glyph glyph-name="acute" unicode="&#xb4;" 
d="M268 645v40l665 30v-60z" />
    <glyph glyph-name="breve" unicode="&#x2d8;" 
d="M600 650c-303 0 -332 11 -344 65h40c10 -14 21 -15 304 -15s294 1 304 15h40c-12 -54 -41 -65 -344 -65z" />
    <glyph glyph-name="caron" unicode="&#x2c7;" 
d="M600 645l-330 30v40l330 -15l330 15v-40z" />
    <glyph glyph-name="cedilla" unicode="&#xb8;" 
d="M575 -15l10 59h30l10 -59h-50z" />
    <glyph glyph-name="circumflex" unicode="&#x2c6;" 
d="M270 645v40l330 30l330 -30v-40l-330 15z" />
    <glyph glyph-name="dieresis" unicode="&#xa8;" 
d="M302 650c-23 0 -37 14 -37 33c0 18 14 32 37 32s38 -14 38 -32c0 -19 -15 -33 -38 -33zM897 650c-23 0 -37 14 -37 33c0 18 14 32 37 32s38 -14 38 -32c0 -19 -15 -33 -38 -33z" />
    <glyph glyph-name="dotaccent" unicode="&#x2d9;" 
d="M600 650c-53 0 -67 11 -67 33c0 21 14 32 67 32s68 -11 68 -32c0 -22 -15 -33 -68 -33z" />
    <glyph glyph-name="grave" unicode="`" 
d="M933 645l-665 10v60l665 -30v-40z" />
    <glyph glyph-name="hungarumlaut" unicode="&#x2dd;" 
d="M177 645v40l403 30v-60zM620 645v40l403 30v-60z" />
    <glyph glyph-name="macron" unicode="&#xaf;" 
d="M268 645v55h665v-55h-665z" />
    <glyph glyph-name="ogonek" unicode="&#x2db;" 
d="M624 -12c-82 0 -121 28 -121 67c0 44 45 67 172 67l10 -22c-81 -5 -114 -15 -114 -39c0 -18 20 -30 69 -30c15 0 35 1 57 4l-6 -35c-15 -6 -37 -12 -67 -12z" />
    <glyph glyph-name="ring" unicode="&#x2da;" 
d="M601 602c-59 0 -87 15 -87 57c0 35 33 56 87 56c56 0 86 -19 86 -56c0 -42 -27 -57 -86 -57zM601 640c32 0 46 6 46 19s-14 18 -46 18c-33 0 -47 -5 -47 -18s15 -19 47 -19z" />
    <glyph glyph-name="tilde" unicode="&#x2dc;" 
d="M297 648l-10 38c31 9 103 29 191 29c90 0 140 -17 240 -17c88 0 155 10 181 17l10 -38c-31 -9 -103 -29 -191 -29c-111 0 -150 17 -240 17c-88 0 -155 -11 -181 -17z" />
    <glyph glyph-name="caron.alt" 
d="M527 630v40c85 0 95 1 95 45h50c0 -83 -11 -85 -145 -85z" />
    <glyph glyph-name="brevecombcy" horiz-adv-x="0" 
d="M-600 650c-293 0 -322 11 -344 65h130c10 -14 21 -25 214 -25s204 11 214 25h130c-22 -54 -51 -65 -344 -65z" />
    <glyph glyph-name="newGlyph" horiz-adv-x="600" 
 />
  </font>
</defs>
</svg>
