<svg xmlns="http://www.w3.org/2000/svg" xmlns:xlink="http://www.w3.org/1999/xlink" version="1.1">
<metadata>
Created by FontForge 20170924 at Mon Apr 15 00:00:57 2019
 By edi0th,,,
Copyright \(c\) 2019 by Lucas Descroix. All rights reserved.
</metadata>
<defs>
<font id="Nostrav1.0-Sett" horiz-adv-x="1200">
  <font-face font-family="NostraSett-7" font-weight="900" font-stretch="extra-expanded" units-per-em="1000" panose-1="0 0 10 7 0 0 0 0 0 0" ascent="800" descent="-200" x-height="600" cap-height="700" bbox="-944 -20 1237 725" underline-thickness="40" underline-position="-60" stemh="390" stemv="600" unicode-range="U+0020-1F525"/>
<missing-glyph d="M20 0v700h1160v-700h-1160zM600 371l332 139h-664zM220 211l329 138l-329 138v-276zM980 211v276l-329 -138zM272 190h656l-328 138z"/>
    <glyph glyph-name=".notdef" d="M 85.71428571428571,-97.14285714285714 L 85.71428571428571,108.57142857142856 L 85.71428571428571,314.28571428571433 L 85.71428571428571,520.0 L 85.71428571428571,725.7142857142858 L 257.1428571428571,725.7142857142858 L 428.57142857142856,725.7142857142858 L 599.9999999999999,725.7142857142858 L 771.4285714285713,725.7142857142858 L 942.8571428571428,725.7142857142858 L 1114.2857142857142,725.7142857142858 L 1114.2857142857142,520.0 L 1114.2857142857142,314.28571428571433 L 1114.2857142857142,108.57142857142856 L 1114.2857142857142,-97.14285714285714 L 942.8571428571428,-97.14285714285714 L 771.4285714285713,-97.14285714285714 L 599.9999999999999,-97.14285714285714 L 428.57142857142856,-97.14285714285714 L 257.1428571428571,-97.14285714285714 L 85.71428571428571,-97.14285714285714zM 599.9999999999999,314.28571428571433 L 771.4285714285713,314.28571428571433 L 771.4285714285713,520.0 L 942.8571428571428,520.0 L 599.9999999999999,520.0 L 428.57142857142856,520.0 L 257.1428571428571,520.0 L 428.57142857142856,314.28571428571433 L 599.9999999999999,314.28571428571433zM 257.1428571428571,108.57142857142856 L 257.1428571428571,314.28571428571433 L 428.57142857142856,314.28571428571433 L 599.9999999999999,314.28571428571433 L 428.57142857142856,520.0 L 257.1428571428571,520.0 L 257.1428571428571,108.57142857142856zM 942.8571428571428,108.57142857142856 L 942.8571428571428,314.28571428571433 L 942.8571428571428,520.0 L 771.4285714285713,520.0 L 771.4285714285713,314.28571428571433 L 599.9999999999999,314.28571428571433 L 942.8571428571428,108.57142857142856zM 257.1428571428571,108.57142857142856 L 428.57142857142856,108.57142857142856 L 599.9999999999999,108.57142857142856 L 771.4285714285713,108.57142857142856 L 942.8571428571428,108.57142857142856 L 942.8571428571428,314.28571428571433 L 771.4285714285713,314.28571428571433 L 599.9999999999999,314.28571428571433 L 428.57142857142856,314.28571428571433 L 257.1428571428571,314.28571428571433 L 257.1428571428571,108.57142857142856zz"/>
    <glyph glyph-name="space" unicode=" "/>
    <glyph glyph-name="A" unicode="A" d="M 599.9999999999999,-97.14285714285714 L 599.9999999999999,108.57142857142856 L 428.57142857142856,-97.14285714285714 L 257.1428571428571,-97.14285714285714 L 85.71428571428571,-97.14285714285714 L 85.71428571428571,108.57142857142856 L 85.71428571428571,314.28571428571433 L 85.71428571428571,520.0 L 85.71428571428571,725.7142857142858 L 257.1428571428571,725.7142857142858 L 428.57142857142856,725.7142857142858 L 599.9999999999999,725.7142857142858 L 771.4285714285713,725.7142857142858 L 942.8571428571428,725.7142857142858 L 1114.2857142857142,725.7142857142858 L 1114.2857142857142,520.0 L 1114.2857142857142,314.28571428571433 L 1114.2857142857142,108.57142857142856 L 1114.2857142857142,-97.14285714285714 L 942.8571428571428,-97.14285714285714 L 771.4285714285713,-97.14285714285714 L 599.9999999999999,-97.14285714285714zM 599.9999999999999,314.28571428571433 L 599.9999999999999,520.0 L 599.9999999999999,314.28571428571433zz"/>
    <glyph glyph-name="Aacute" unicode="&#193;" d="M 942.8571428571428,725.7142857142858 L 771.4285714285713,725.7142857142858 L 599.9999999999999,725.7142857142858 L 428.57142857142856,725.7142857142858 L 257.1428571428571,725.7142857142858 L 942.8571428571428,725.7142857142858zM 599.9999999999999,-97.14285714285714 L 599.9999999999999,108.57142857142856 L 428.57142857142856,-97.14285714285714 L 257.1428571428571,-97.14285714285714 L 85.71428571428571,-97.14285714285714 L 85.71428571428571,108.57142857142856 L 85.71428571428571,314.28571428571433 L 85.71428571428571,520.0 L 257.1428571428571,520.0 L 428.57142857142856,520.0 L 599.9999999999999,520.0 L 771.4285714285713,520.0 L 942.8571428571428,520.0 L 1114.2857142857142,520.0 L 1114.2857142857142,314.28571428571433 L 1114.2857142857142,108.57142857142856 L 1114.2857142857142,-97.14285714285714 L 942.8571428571428,-97.14285714285714 L 771.4285714285713,-97.14285714285714 L 599.9999999999999,-97.14285714285714zM 599.9999999999999,108.57142857142856 L 599.9999999999999,314.28571428571433 L 599.9999999999999,108.57142857142856zz"/>
    <glyph glyph-name="Abreve" unicode="&#258;" d="M 599.9999999999999,725.7142857142858 L 428.57142857142856,725.7142857142858 L 257.1428571428571,725.7142857142858 L 771.4285714285713,725.7142857142858 L 942.8571428571428,725.7142857142858 L 599.9999999999999,725.7142857142858zM 599.9999999999999,-97.14285714285714 L 599.9999999999999,108.57142857142856 L 428.57142857142856,-97.14285714285714 L 257.1428571428571,-97.14285714285714 L 85.71428571428571,-97.14285714285714 L 85.71428571428571,108.57142857142856 L 85.71428571428571,314.28571428571433 L 85.71428571428571,520.0 L 257.1428571428571,520.0 L 428.57142857142856,520.0 L 599.9999999999999,520.0 L 771.4285714285713,520.0 L 942.8571428571428,520.0 L 1114.2857142857142,520.0 L 1114.2857142857142,314.28571428571433 L 1114.2857142857142,108.57142857142856 L 1114.2857142857142,-97.14285714285714 L 942.8571428571428,-97.14285714285714 L 771.4285714285713,-97.14285714285714 L 599.9999999999999,-97.14285714285714zM 599.9999999999999,108.57142857142856 L 599.9999999999999,314.28571428571433 L 599.9999999999999,108.57142857142856zz"/>
    <glyph glyph-name="Acircumflex" unicode="&#194;" d="M 942.8571428571428,725.7142857142858 L 771.4285714285713,725.7142857142858 L 599.9999999999999,725.7142857142858 L 428.57142857142856,725.7142857142858 L 257.1428571428571,725.7142857142858 L 942.8571428571428,725.7142857142858zM 599.9999999999999,-97.14285714285714 L 599.9999999999999,108.57142857142856 L 428.57142857142856,-97.14285714285714 L 257.1428571428571,-97.14285714285714 L 85.71428571428571,-97.14285714285714 L 85.71428571428571,108.57142857142856 L 85.71428571428571,314.28571428571433 L 85.71428571428571,520.0 L 257.1428571428571,520.0 L 428.57142857142856,520.0 L 599.9999999999999,520.0 L 771.4285714285713,520.0 L 942.8571428571428,520.0 L 1114.2857142857142,520.0 L 1114.2857142857142,314.28571428571433 L 1114.2857142857142,108.57142857142856 L 1114.2857142857142,-97.14285714285714 L 942.8571428571428,-97.14285714285714 L 771.4285714285713,-97.14285714285714 L 599.9999999999999,-97.14285714285714zM 599.9999999999999,108.57142857142856 L 599.9999999999999,314.28571428571433 L 599.9999999999999,108.57142857142856zz"/>
    <glyph glyph-name="Adieresis" unicode="&#196;" d="M 257.1428571428571,725.7142857142858 L 428.57142857142856,725.7142857142858 L 257.1428571428571,725.7142857142858zM 942.8571428571428,725.7142857142858 L 771.4285714285713,725.7142857142858 L 942.8571428571428,725.7142857142858zM 599.9999999999999,-97.14285714285714 L 599.9999999999999,108.57142857142856 L 428.57142857142856,-97.14285714285714 L 257.1428571428571,-97.14285714285714 L 85.71428571428571,-97.14285714285714 L 85.71428571428571,108.57142857142856 L 85.71428571428571,314.28571428571433 L 85.71428571428571,520.0 L 257.1428571428571,520.0 L 428.57142857142856,520.0 L 599.9999999999999,520.0 L 771.4285714285713,520.0 L 942.8571428571428,520.0 L 1114.2857142857142,520.0 L 1114.2857142857142,314.28571428571433 L 1114.2857142857142,108.57142857142856 L 1114.2857142857142,-97.14285714285714 L 942.8571428571428,-97.14285714285714 L 771.4285714285713,-97.14285714285714 L 599.9999999999999,-97.14285714285714zM 599.9999999999999,108.57142857142856 L 599.9999999999999,314.28571428571433 L 599.9999999999999,108.57142857142856zz"/>
    <glyph glyph-name="Agrave" unicode="&#192;" d="M 942.8571428571428,725.7142857142858 L 771.4285714285713,725.7142857142858 L 599.9999999999999,725.7142857142858 L 428.57142857142856,725.7142857142858 L 257.1428571428571,725.7142857142858 L 942.8571428571428,725.7142857142858zM 599.9999999999999,-97.14285714285714 L 599.9999999999999,108.57142857142856 L 428.57142857142856,-97.14285714285714 L 257.1428571428571,-97.14285714285714 L 85.71428571428571,-97.14285714285714 L 85.71428571428571,108.57142857142856 L 85.71428571428571,314.28571428571433 L 85.71428571428571,520.0 L 257.1428571428571,520.0 L 428.57142857142856,520.0 L 599.9999999999999,520.0 L 771.4285714285713,520.0 L 942.8571428571428,520.0 L 1114.2857142857142,520.0 L 1114.2857142857142,314.28571428571433 L 1114.2857142857142,108.57142857142856 L 1114.2857142857142,-97.14285714285714 L 942.8571428571428,-97.14285714285714 L 771.4285714285713,-97.14285714285714 L 599.9999999999999,-97.14285714285714zM 599.9999999999999,108.57142857142856 L 599.9999999999999,314.28571428571433 L 599.9999999999999,108.57142857142856zz"/>
    <glyph glyph-name="Amacron" unicode="&#256;" d="M 942.8571428571428,725.7142857142858 L 771.4285714285713,725.7142857142858 L 599.9999999999999,725.7142857142858 L 428.57142857142856,725.7142857142858 L 257.1428571428571,725.7142857142858 L 942.8571428571428,725.7142857142858zM 599.9999999999999,-97.14285714285714 L 599.9999999999999,108.57142857142856 L 428.57142857142856,-97.14285714285714 L 257.1428571428571,-97.14285714285714 L 85.71428571428571,-97.14285714285714 L 85.71428571428571,108.57142857142856 L 85.71428571428571,314.28571428571433 L 85.71428571428571,520.0 L 257.1428571428571,520.0 L 428.57142857142856,520.0 L 599.9999999999999,520.0 L 771.4285714285713,520.0 L 942.8571428571428,520.0 L 1114.2857142857142,520.0 L 1114.2857142857142,314.28571428571433 L 1114.2857142857142,108.57142857142856 L 1114.2857142857142,-97.14285714285714 L 942.8571428571428,-97.14285714285714 L 771.4285714285713,-97.14285714285714 L 599.9999999999999,-97.14285714285714zM 599.9999999999999,108.57142857142856 L 599.9999999999999,314.28571428571433 L 599.9999999999999,108.57142857142856zz"/>
    <glyph glyph-name="Aogonek" unicode="&#260;" d="M 1114.2857142857142,108.57142857142856 L 1114.2857142857142,-97.14285714285714 L 942.8571428571428,108.57142857142856 L 771.4285714285713,108.57142857142856 L 599.9999999999999,108.57142857142856 L 599.9999999999999,314.28571428571433 L 428.57142857142856,108.57142857142856 L 257.1428571428571,108.57142857142856 L 85.71428571428571,108.57142857142856 L 85.71428571428571,314.28571428571433 L 85.71428571428571,520.0 L 85.71428571428571,725.7142857142858 L 257.1428571428571,725.7142857142858 L 428.57142857142856,725.7142857142858 L 599.9999999999999,725.7142857142858 L 771.4285714285713,725.7142857142858 L 942.8571428571428,725.7142857142858 L 1114.2857142857142,725.7142857142858 L 1114.2857142857142,520.0 L 1114.2857142857142,314.28571428571433 L 1114.2857142857142,108.57142857142856zM 599.9999999999999,314.28571428571433 L 599.9999999999999,520.0 L 599.9999999999999,314.28571428571433zz"/>
    <glyph glyph-name="Aring" unicode="&#197;" d="M 599.9999999999999,520.0 L 599.9999999999999,725.7142857142858 L 771.4285714285713,725.7142857142858 L 599.9999999999999,520.0zM 599.9999999999999,725.7142857142858 L 599.9999999999999,725.7142857142858zM 599.9999999999999,-97.14285714285714 L 599.9999999999999,108.57142857142856 L 428.57142857142856,-97.14285714285714 L 257.1428571428571,-97.14285714285714 L 85.71428571428571,-97.14285714285714 L 85.71428571428571,108.57142857142856 L 85.71428571428571,314.28571428571433 L 85.71428571428571,520.0 L 257.1428571428571,520.0 L 428.57142857142856,520.0 L 599.9999999999999,520.0 L 771.4285714285713,520.0 L 942.8571428571428,520.0 L 1114.2857142857142,520.0 L 1114.2857142857142,314.28571428571433 L 1114.2857142857142,108.57142857142856 L 1114.2857142857142,-97.14285714285714 L 942.8571428571428,-97.14285714285714 L 771.4285714285713,-97.14285714285714 L 599.9999999999999,-97.14285714285714zM 599.9999999999999,108.57142857142856 L 599.9999999999999,314.28571428571433 L 599.9999999999999,108.57142857142856zz"/>
    <glyph glyph-name="Atilde" unicode="&#195;" d="M 428.57142857142856,725.7142857142858 L 257.1428571428571,725.7142857142858 L 599.9999999999999,725.7142857142858 L 771.4285714285713,725.7142857142858 L 942.8571428571428,725.7142857142858 L 428.57142857142856,725.7142857142858zM 599.9999999999999,-97.14285714285714 L 599.9999999999999,108.57142857142856 L 428.57142857142856,-97.14285714285714 L 257.1428571428571,-97.14285714285714 L 85.71428571428571,-97.14285714285714 L 85.71428571428571,108.57142857142856 L 85.71428571428571,314.28571428571433 L 85.71428571428571,520.0 L 257.1428571428571,520.0 L 428.57142857142856,520.0 L 599.9999999999999,520.0 L 771.4285714285713,520.0 L 942.8571428571428,520.0 L 1114.2857142857142,520.0 L 1114.2857142857142,314.28571428571433 L 1114.2857142857142,108.57142857142856 L 1114.2857142857142,-97.14285714285714 L 942.8571428571428,-97.14285714285714 L 771.4285714285713,-97.14285714285714 L 599.9999999999999,-97.14285714285714zM 599.9999999999999,108.57142857142856 L 599.9999999999999,314.28571428571433 L 599.9999999999999,108.57142857142856zz"/>
    <glyph glyph-name="AE" unicode="&#198;" d="M 1114.2857142857142,520.0 L 942.8571428571428,520.0 L 942.8571428571428,314.28571428571433 L 1114.2857142857142,314.28571428571433 L 1114.2857142857142,108.57142857142856 L 1114.2857142857142,-97.14285714285714 L 942.8571428571428,-97.14285714285714 L 771.4285714285713,-97.14285714285714 L 599.9999999999999,-97.14285714285714 L 599.9999999999999,108.57142857142856 L 428.57142857142856,108.57142857142856 L 428.57142857142856,-97.14285714285714 L 257.1428571428571,-97.14285714285714 L 85.71428571428571,-97.14285714285714 L 85.71428571428571,108.57142857142856 L 85.71428571428571,314.28571428571433 L 85.71428571428571,520.0 L 85.71428571428571,725.7142857142858 L 257.1428571428571,725.7142857142858 L 428.57142857142856,725.7142857142858 L 599.9999999999999,725.7142857142858 L 771.4285714285713,725.7142857142858 L 942.8571428571428,725.7142857142858 L 1114.2857142857142,725.7142857142858 L 1114.2857142857142,520.0zM 428.57142857142856,314.28571428571433 L 599.9999999999999,314.28571428571433 L 599.9999999999999,520.0 L 428.57142857142856,314.28571428571433zz"/>
    <glyph glyph-name="B" unicode="B" d="M 599.9999999999999,314.28571428571433 L 771.4285714285713,314.28571428571433 L 942.8571428571428,314.28571428571433 L 1114.2857142857142,314.28571428571433 L 1114.2857142857142,108.57142857142856 L 942.8571428571428,108.57142857142856 L 942.8571428571428,-97.14285714285714 L 771.4285714285713,-97.14285714285714 L 599.9999999999999,-97.14285714285714 L 428.57142857142856,-97.14285714285714 L 257.1428571428571,-97.14285714285714 L 85.71428571428571,-97.14285714285714 L 85.71428571428571,108.57142857142856 L 85.71428571428571,314.28571428571433 L 85.71428571428571,520.0 L 85.71428571428571,725.7142857142858 L 257.1428571428571,725.7142857142858 L 428.57142857142856,725.7142857142858 L 599.9999999999999,725.7142857142858 L 771.4285714285713,725.7142857142858 L 942.8571428571428,725.7142857142858 L 1114.2857142857142,725.7142857142858 L 1114.2857142857142,520.0 L 599.9999999999999,314.28571428571433zM 599.9999999999999,520.0 L 599.9999999999999,314.28571428571433 L 599.9999999999999,520.0zM 599.9999999999999,108.57142857142856 L 599.9999999999999,314.28571428571433 L 599.9999999999999,108.57142857142856zz"/>
    <glyph glyph-name="C" unicode="C" d="M 599.9999999999999,-97.14285714285714 L 428.57142857142856,-97.14285714285714 L 257.1428571428571,-97.14285714285714 L 257.1428571428571,108.57142857142856 L 85.71428571428571,108.57142857142856 L 85.71428571428571,314.28571428571433 L 85.71428571428571,520.0 L 85.71428571428571,725.7142857142858 L 257.1428571428571,725.7142857142858 L 428.57142857142856,725.7142857142858 L 599.9999999999999,725.7142857142858 L 771.4285714285713,725.7142857142858 L 942.8571428571428,725.7142857142858 L 1114.2857142857142,725.7142857142858 L 1114.2857142857142,520.0 L 1114.2857142857142,314.28571428571433 L 942.8571428571428,314.28571428571433 L 771.4285714285713,314.28571428571433 L 599.9999999999999,314.28571428571433 L 599.9999999999999,520.0 L 1114.2857142857142,108.57142857142856 L 942.8571428571428,108.57142857142856 L 771.4285714285713,-97.14285714285714 L 599.9999999999999,-97.14285714285714zz"/>
    <glyph glyph-name="Cacute" unicode="&#262;" d="M 257.1428571428571,725.7142857142858 L 428.57142857142856,725.7142857142858 L 599.9999999999999,725.7142857142858 L 771.4285714285713,725.7142857142858 L 942.8571428571428,725.7142857142858 L 257.1428571428571,725.7142857142858zM 599.9999999999999,-97.14285714285714 L 428.57142857142856,-97.14285714285714 L 257.1428571428571,-97.14285714285714 L 257.1428571428571,108.57142857142856 L 85.71428571428571,108.57142857142856 L 85.71428571428571,314.28571428571433 L 85.71428571428571,520.0 L 257.1428571428571,520.0 L 428.57142857142856,520.0 L 599.9999999999999,520.0 L 771.4285714285713,520.0 L 942.8571428571428,520.0 L 1114.2857142857142,520.0 L 1114.2857142857142,314.28571428571433 L 942.8571428571428,314.28571428571433 L 771.4285714285713,314.28571428571433 L 599.9999999999999,314.28571428571433 L 1114.2857142857142,108.57142857142856 L 942.8571428571428,108.57142857142856 L 942.8571428571428,-97.14285714285714 L 771.4285714285713,-97.14285714285714 L 599.9999999999999,-97.14285714285714zz"/>
    <glyph glyph-name="Ccaron" unicode="&#268;" d="M 599.9999999999999,725.7142857142858 L 428.57142857142856,725.7142857142858 L 257.1428571428571,725.7142857142858 L 771.4285714285713,725.7142857142858 L 942.8571428571428,725.7142857142858 L 599.9999999999999,725.7142857142858zM 599.9999999999999,-97.14285714285714 L 428.57142857142856,-97.14285714285714 L 257.1428571428571,-97.14285714285714 L 257.1428571428571,108.57142857142856 L 85.71428571428571,108.57142857142856 L 85.71428571428571,314.28571428571433 L 85.71428571428571,520.0 L 257.1428571428571,520.0 L 428.57142857142856,520.0 L 599.9999999999999,520.0 L 771.4285714285713,520.0 L 942.8571428571428,520.0 L 1114.2857142857142,520.0 L 1114.2857142857142,314.28571428571433 L 942.8571428571428,314.28571428571433 L 771.4285714285713,314.28571428571433 L 599.9999999999999,314.28571428571433 L 1114.2857142857142,108.57142857142856 L 942.8571428571428,108.57142857142856 L 942.8571428571428,-97.14285714285714 L 771.4285714285713,-97.14285714285714 L 599.9999999999999,-97.14285714285714zz"/>
    <glyph glyph-name="Ccedilla" unicode="&#199;" d="M 599.9999999999999,314.28571428571433 L 771.4285714285713,314.28571428571433 L 942.8571428571428,314.28571428571433 L 1114.2857142857142,314.28571428571433 L 1114.2857142857142,108.57142857142856 L 942.8571428571428,108.57142857142856 L 771.4285714285713,108.57142857142856 L 599.9999999999999,108.57142857142856 L 599.9999999999999,-97.14285714285714 L 428.57142857142856,108.57142857142856 L 257.1428571428571,108.57142857142856 L 85.71428571428571,108.57142857142856 L 85.71428571428571,314.28571428571433 L 85.71428571428571,520.0 L 85.71428571428571,725.7142857142858 L 257.1428571428571,725.7142857142858 L 428.57142857142856,725.7142857142858 L 599.9999999999999,725.7142857142858 L 771.4285714285713,725.7142857142858 L 942.8571428571428,725.7142857142858 L 1114.2857142857142,725.7142857142858 L 1114.2857142857142,520.0 L 599.9999999999999,520.0 L 599.9999999999999,314.28571428571433zz"/>
    <glyph glyph-name="Cdotaccent" unicode="&#266;" d="M 599.9999999999999,725.7142857142858 L 771.4285714285713,725.7142857142858 L 599.9999999999999,725.7142857142858zM 599.9999999999999,-97.14285714285714 L 428.57142857142856,-97.14285714285714 L 257.1428571428571,-97.14285714285714 L 257.1428571428571,108.57142857142856 L 85.71428571428571,108.57142857142856 L 85.71428571428571,314.28571428571433 L 85.71428571428571,520.0 L 257.1428571428571,520.0 L 428.57142857142856,520.0 L 599.9999999999999,520.0 L 771.4285714285713,520.0 L 942.8571428571428,520.0 L 1114.2857142857142,520.0 L 1114.2857142857142,314.28571428571433 L 942.8571428571428,314.28571428571433 L 771.4285714285713,314.28571428571433 L 599.9999999999999,314.28571428571433 L 1114.2857142857142,108.57142857142856 L 942.8571428571428,108.57142857142856 L 942.8571428571428,-97.14285714285714 L 771.4285714285713,-97.14285714285714 L 599.9999999999999,-97.14285714285714zz"/>
    <glyph glyph-name="D" unicode="D" d="M 1114.2857142857142,314.28571428571433 L 1114.2857142857142,108.57142857142856 L 942.8571428571428,108.57142857142856 L 771.4285714285713,108.57142857142856 L 771.4285714285713,-97.14285714285714 L 599.9999999999999,-97.14285714285714 L 428.57142857142856,-97.14285714285714 L 257.1428571428571,-97.14285714285714 L 85.71428571428571,-97.14285714285714 L 85.71428571428571,108.57142857142856 L 85.71428571428571,314.28571428571433 L 85.71428571428571,520.0 L 85.71428571428571,725.7142857142858 L 257.1428571428571,725.7142857142858 L 428.57142857142856,725.7142857142858 L 599.9999999999999,725.7142857142858 L 771.4285714285713,725.7142857142858 L 942.8571428571428,725.7142857142858 L 1114.2857142857142,725.7142857142858 L 1114.2857142857142,520.0 L 1114.2857142857142,314.28571428571433zM 599.9999999999999,314.28571428571433 L 599.9999999999999,520.0 L 599.9999999999999,314.28571428571433zz"/>
    <glyph glyph-name="Eth" unicode="&#208;" d="M 1114.2857142857142,314.28571428571433 L 1114.2857142857142,108.57142857142856 L 942.8571428571428,108.57142857142856 L 771.4285714285713,108.57142857142856 L 771.4285714285713,-97.14285714285714 L 599.9999999999999,-97.14285714285714 L 428.57142857142856,-97.14285714285714 L 257.1428571428571,-97.14285714285714 L 85.71428571428571,-97.14285714285714 L 85.71428571428571,108.57142857142856 L 85.71428571428571,314.28571428571433 L 85.71428571428571,520.0 L 85.71428571428571,725.7142857142858 L 257.1428571428571,725.7142857142858 L 428.57142857142856,725.7142857142858 L 599.9999999999999,725.7142857142858 L 771.4285714285713,725.7142857142858 L 942.8571428571428,725.7142857142858 L 1114.2857142857142,725.7142857142858 L 1114.2857142857142,520.0 L 1114.2857142857142,314.28571428571433zM 599.9999999999999,314.28571428571433 L 599.9999999999999,520.0 L 599.9999999999999,314.28571428571433zz"/>
    <glyph glyph-name="Dcaron" unicode="&#270;" d="M 942.8571428571428,725.7142857142858 L 771.4285714285713,725.7142857142858 L 599.9999999999999,725.7142857142858 L 428.57142857142856,725.7142857142858 L 257.1428571428571,725.7142857142858 L 942.8571428571428,725.7142857142858zM 1114.2857142857142,314.28571428571433 L 1114.2857142857142,108.57142857142856 L 942.8571428571428,108.57142857142856 L 771.4285714285713,108.57142857142856 L 771.4285714285713,-97.14285714285714 L 599.9999999999999,-97.14285714285714 L 428.57142857142856,-97.14285714285714 L 257.1428571428571,-97.14285714285714 L 85.71428571428571,-97.14285714285714 L 85.71428571428571,108.57142857142856 L 85.71428571428571,314.28571428571433 L 85.71428571428571,520.0 L 257.1428571428571,520.0 L 428.57142857142856,520.0 L 599.9999999999999,520.0 L 771.4285714285713,520.0 L 942.8571428571428,520.0 L 1114.2857142857142,520.0 L 1114.2857142857142,314.28571428571433zM 599.9999999999999,314.28571428571433 L 599.9999999999999,314.28571428571433zz"/>
    <glyph glyph-name="Dcroat" unicode="&#272;" d="M 1114.2857142857142,314.28571428571433 L 1114.2857142857142,108.57142857142856 L 942.8571428571428,108.57142857142856 L 771.4285714285713,108.57142857142856 L 771.4285714285713,-97.14285714285714 L 599.9999999999999,-97.14285714285714 L 428.57142857142856,-97.14285714285714 L 257.1428571428571,-97.14285714285714 L 85.71428571428571,-97.14285714285714 L 85.71428571428571,108.57142857142856 L 85.71428571428571,314.28571428571433 L 85.71428571428571,520.0 L 85.71428571428571,725.7142857142858 L 257.1428571428571,725.7142857142858 L 428.57142857142856,725.7142857142858 L 599.9999999999999,725.7142857142858 L 771.4285714285713,725.7142857142858 L 942.8571428571428,725.7142857142858 L 1114.2857142857142,725.7142857142858 L 1114.2857142857142,520.0 L 1114.2857142857142,314.28571428571433zM 599.9999999999999,314.28571428571433 L 599.9999999999999,520.0 L 599.9999999999999,314.28571428571433zz"/>
    <glyph glyph-name="E" unicode="E" d="M 1114.2857142857142,314.28571428571433 L 942.8571428571428,314.28571428571433 L 771.4285714285713,314.28571428571433 L 771.4285714285713,520.0 L 599.9999999999999,520.0 L 599.9999999999999,314.28571428571433 L 1114.2857142857142,108.57142857142856 L 1114.2857142857142,-97.14285714285714 L 942.8571428571428,-97.14285714285714 L 771.4285714285713,-97.14285714285714 L 599.9999999999999,-97.14285714285714 L 428.57142857142856,-97.14285714285714 L 257.1428571428571,-97.14285714285714 L 85.71428571428571,-97.14285714285714 L 85.71428571428571,108.57142857142856 L 85.71428571428571,314.28571428571433 L 85.71428571428571,520.0 L 85.71428571428571,725.7142857142858 L 257.1428571428571,725.7142857142858 L 428.57142857142856,725.7142857142858 L 599.9999999999999,725.7142857142858 L 771.4285714285713,725.7142857142858 L 942.8571428571428,725.7142857142858 L 1114.2857142857142,725.7142857142858 L 1114.2857142857142,520.0 L 1114.2857142857142,314.28571428571433zz"/>
    <glyph glyph-name="Eacute" unicode="&#201;" d="M 942.8571428571428,725.7142857142858 L 771.4285714285713,725.7142857142858 L 599.9999999999999,725.7142857142858 L 428.57142857142856,725.7142857142858 L 257.1428571428571,725.7142857142858 L 942.8571428571428,725.7142857142858zM 1114.2857142857142,314.28571428571433 L 942.8571428571428,314.28571428571433 L 771.4285714285713,314.28571428571433 L 599.9999999999999,314.28571428571433 L 1114.2857142857142,108.57142857142856 L 1114.2857142857142,-97.14285714285714 L 942.8571428571428,-97.14285714285714 L 771.4285714285713,-97.14285714285714 L 599.9999999999999,-97.14285714285714 L 428.57142857142856,-97.14285714285714 L 257.1428571428571,-97.14285714285714 L 85.71428571428571,-97.14285714285714 L 85.71428571428571,108.57142857142856 L 85.71428571428571,314.28571428571433 L 85.71428571428571,520.0 L 257.1428571428571,520.0 L 428.57142857142856,520.0 L 599.9999999999999,520.0 L 771.4285714285713,520.0 L 942.8571428571428,520.0 L 1114.2857142857142,520.0 L 1114.2857142857142,314.28571428571433zz"/>
    <glyph glyph-name="Ecaron" unicode="&#282;" d="M 942.8571428571428,725.7142857142858 L 771.4285714285713,725.7142857142858 L 599.9999999999999,725.7142857142858 L 428.57142857142856,725.7142857142858 L 257.1428571428571,725.7142857142858 L 942.8571428571428,725.7142857142858zM 1114.2857142857142,314.28571428571433 L 942.8571428571428,314.28571428571433 L 771.4285714285713,314.28571428571433 L 599.9999999999999,314.28571428571433 L 1114.2857142857142,108.57142857142856 L 1114.2857142857142,-97.14285714285714 L 942.8571428571428,-97.14285714285714 L 771.4285714285713,-97.14285714285714 L 599.9999999999999,-97.14285714285714 L 428.57142857142856,-97.14285714285714 L 257.1428571428571,-97.14285714285714 L 85.71428571428571,-97.14285714285714 L 85.71428571428571,108.57142857142856 L 85.71428571428571,314.28571428571433 L 85.71428571428571,520.0 L 257.1428571428571,520.0 L 428.57142857142856,520.0 L 599.9999999999999,520.0 L 771.4285714285713,520.0 L 942.8571428571428,520.0 L 1114.2857142857142,520.0 L 1114.2857142857142,314.28571428571433zz"/>
    <glyph glyph-name="Ecircumflex" unicode="&#202;" d="M 942.8571428571428,725.7142857142858 L 771.4285714285713,725.7142857142858 L 599.9999999999999,725.7142857142858 L 428.57142857142856,725.7142857142858 L 257.1428571428571,725.7142857142858 L 942.8571428571428,725.7142857142858zM 1114.2857142857142,314.28571428571433 L 942.8571428571428,314.28571428571433 L 771.4285714285713,314.28571428571433 L 599.9999999999999,314.28571428571433 L 1114.2857142857142,108.57142857142856 L 1114.2857142857142,-97.14285714285714 L 942.8571428571428,-97.14285714285714 L 771.4285714285713,-97.14285714285714 L 599.9999999999999,-97.14285714285714 L 428.57142857142856,-97.14285714285714 L 257.1428571428571,-97.14285714285714 L 85.71428571428571,-97.14285714285714 L 85.71428571428571,108.57142857142856 L 85.71428571428571,314.28571428571433 L 85.71428571428571,520.0 L 257.1428571428571,520.0 L 428.57142857142856,520.0 L 599.9999999999999,520.0 L 771.4285714285713,520.0 L 942.8571428571428,520.0 L 1114.2857142857142,520.0 L 1114.2857142857142,314.28571428571433zz"/>
    <glyph glyph-name="Edieresis" unicode="&#203;" d="M 257.1428571428571,725.7142857142858 L 428.57142857142856,725.7142857142858 L 257.1428571428571,725.7142857142858zM 942.8571428571428,725.7142857142858 L 771.4285714285713,725.7142857142858 L 942.8571428571428,725.7142857142858zM 1114.2857142857142,314.28571428571433 L 942.8571428571428,314.28571428571433 L 771.4285714285713,314.28571428571433 L 599.9999999999999,314.28571428571433 L 1114.2857142857142,108.57142857142856 L 1114.2857142857142,-97.14285714285714 L 942.8571428571428,-97.14285714285714 L 771.4285714285713,-97.14285714285714 L 599.9999999999999,-97.14285714285714 L 428.57142857142856,-97.14285714285714 L 257.1428571428571,-97.14285714285714 L 85.71428571428571,-97.14285714285714 L 85.71428571428571,108.57142857142856 L 85.71428571428571,314.28571428571433 L 85.71428571428571,520.0 L 257.1428571428571,520.0 L 428.57142857142856,520.0 L 599.9999999999999,520.0 L 771.4285714285713,520.0 L 942.8571428571428,520.0 L 1114.2857142857142,520.0 L 1114.2857142857142,314.28571428571433zz"/>
    <glyph glyph-name="Edotaccent" unicode="&#278;" d="M 599.9999999999999,725.7142857142858 L 599.9999999999999,725.7142857142858zM 1114.2857142857142,314.28571428571433 L 942.8571428571428,314.28571428571433 L 771.4285714285713,314.28571428571433 L 599.9999999999999,314.28571428571433 L 1114.2857142857142,108.57142857142856 L 1114.2857142857142,-97.14285714285714 L 942.8571428571428,-97.14285714285714 L 771.4285714285713,-97.14285714285714 L 599.9999999999999,-97.14285714285714 L 428.57142857142856,-97.14285714285714 L 257.1428571428571,-97.14285714285714 L 85.71428571428571,-97.14285714285714 L 85.71428571428571,108.57142857142856 L 85.71428571428571,314.28571428571433 L 85.71428571428571,520.0 L 257.1428571428571,520.0 L 428.57142857142856,520.0 L 599.9999999999999,520.0 L 771.4285714285713,520.0 L 942.8571428571428,520.0 L 1114.2857142857142,520.0 L 1114.2857142857142,314.28571428571433zz"/>
    <glyph glyph-name="Egrave" unicode="&#200;" d="M 942.8571428571428,725.7142857142858 L 771.4285714285713,725.7142857142858 L 599.9999999999999,725.7142857142858 L 428.57142857142856,725.7142857142858 L 257.1428571428571,725.7142857142858 L 942.8571428571428,725.7142857142858zM 1114.2857142857142,314.28571428571433 L 942.8571428571428,314.28571428571433 L 771.4285714285713,314.28571428571433 L 599.9999999999999,314.28571428571433 L 1114.2857142857142,108.57142857142856 L 1114.2857142857142,-97.14285714285714 L 942.8571428571428,-97.14285714285714 L 771.4285714285713,-97.14285714285714 L 599.9999999999999,-97.14285714285714 L 428.57142857142856,-97.14285714285714 L 257.1428571428571,-97.14285714285714 L 85.71428571428571,-97.14285714285714 L 85.71428571428571,108.57142857142856 L 85.71428571428571,314.28571428571433 L 85.71428571428571,520.0 L 257.1428571428571,520.0 L 428.57142857142856,520.0 L 599.9999999999999,520.0 L 771.4285714285713,520.0 L 942.8571428571428,520.0 L 1114.2857142857142,520.0 L 1114.2857142857142,314.28571428571433zz"/>
    <glyph glyph-name="Emacron" unicode="&#274;" d="M 942.8571428571428,725.7142857142858 L 771.4285714285713,725.7142857142858 L 599.9999999999999,725.7142857142858 L 428.57142857142856,725.7142857142858 L 257.1428571428571,725.7142857142858 L 942.8571428571428,725.7142857142858zM 1114.2857142857142,314.28571428571433 L 942.8571428571428,314.28571428571433 L 771.4285714285713,314.28571428571433 L 599.9999999999999,314.28571428571433 L 1114.2857142857142,108.57142857142856 L 1114.2857142857142,-97.14285714285714 L 942.8571428571428,-97.14285714285714 L 771.4285714285713,-97.14285714285714 L 599.9999999999999,-97.14285714285714 L 428.57142857142856,-97.14285714285714 L 257.1428571428571,-97.14285714285714 L 85.71428571428571,-97.14285714285714 L 85.71428571428571,108.57142857142856 L 85.71428571428571,314.28571428571433 L 85.71428571428571,520.0 L 257.1428571428571,520.0 L 428.57142857142856,520.0 L 599.9999999999999,520.0 L 771.4285714285713,520.0 L 942.8571428571428,520.0 L 1114.2857142857142,520.0 L 1114.2857142857142,314.28571428571433zz"/>
    <glyph glyph-name="Eogonek" unicode="&#280;" d="M 1114.2857142857142,108.57142857142856 L 1114.2857142857142,-97.14285714285714 L 942.8571428571428,108.57142857142856 L 771.4285714285713,108.57142857142856 L 599.9999999999999,108.57142857142856 L 428.57142857142856,108.57142857142856 L 257.1428571428571,108.57142857142856 L 85.71428571428571,108.57142857142856 L 85.71428571428571,314.28571428571433 L 85.71428571428571,520.0 L 85.71428571428571,725.7142857142858 L 257.1428571428571,725.7142857142858 L 428.57142857142856,725.7142857142858 L 599.9999999999999,725.7142857142858 L 771.4285714285713,725.7142857142858 L 942.8571428571428,725.7142857142858 L 1114.2857142857142,725.7142857142858 L 1114.2857142857142,520.0 L 942.8571428571428,520.0 L 771.4285714285713,520.0 L 599.9999999999999,520.0 L 1114.2857142857142,314.28571428571433 L 942.8571428571428,314.28571428571433 L 771.4285714285713,314.28571428571433 L 599.9999999999999,314.28571428571433 L 1114.2857142857142,108.57142857142856zz"/>
    <glyph glyph-name="F" unicode="F" d="M 1114.2857142857142,314.28571428571433 L 942.8571428571428,314.28571428571433 L 771.4285714285713,314.28571428571433 L 771.4285714285713,520.0 L 599.9999999999999,520.0 L 599.9999999999999,314.28571428571433 L 1114.2857142857142,108.57142857142856 L 942.8571428571428,108.57142857142856 L 771.4285714285713,108.57142857142856 L 599.9999999999999,108.57142857142856 L 599.9999999999999,-97.14285714285714 L 428.57142857142856,-97.14285714285714 L 257.1428571428571,-97.14285714285714 L 85.71428571428571,-97.14285714285714 L 85.71428571428571,108.57142857142856 L 85.71428571428571,314.28571428571433 L 85.71428571428571,520.0 L 85.71428571428571,725.7142857142858 L 257.1428571428571,725.7142857142858 L 428.57142857142856,725.7142857142858 L 599.9999999999999,725.7142857142858 L 771.4285714285713,725.7142857142858 L 942.8571428571428,725.7142857142858 L 1114.2857142857142,725.7142857142858 L 1114.2857142857142,520.0 L 1114.2857142857142,314.28571428571433zz"/>
    <glyph glyph-name="G" unicode="G" d="M 599.9999999999999,314.28571428571433 L 771.4285714285713,314.28571428571433 L 942.8571428571428,314.28571428571433 L 1114.2857142857142,314.28571428571433 L 1114.2857142857142,108.57142857142856 L 942.8571428571428,108.57142857142856 L 942.8571428571428,-97.14285714285714 L 771.4285714285713,-97.14285714285714 L 599.9999999999999,-97.14285714285714 L 428.57142857142856,-97.14285714285714 L 257.1428571428571,108.57142857142856 L 85.71428571428571,108.57142857142856 L 85.71428571428571,314.28571428571433 L 85.71428571428571,520.0 L 85.71428571428571,725.7142857142858 L 257.1428571428571,725.7142857142858 L 428.57142857142856,725.7142857142858 L 599.9999999999999,725.7142857142858 L 771.4285714285713,725.7142857142858 L 942.8571428571428,725.7142857142858 L 1114.2857142857142,725.7142857142858 L 1114.2857142857142,520.0 L 599.9999999999999,520.0 L 599.9999999999999,314.28571428571433zz"/>
    <glyph glyph-name="Gbreve" unicode="&#286;" d="M 599.9999999999999,725.7142857142858 L 428.57142857142856,725.7142857142858 L 257.1428571428571,725.7142857142858 L 771.4285714285713,725.7142857142858 L 942.8571428571428,725.7142857142858 L 599.9999999999999,725.7142857142858zM 599.9999999999999,108.57142857142856 L 599.9999999999999,314.28571428571433 L 771.4285714285713,314.28571428571433 L 942.8571428571428,314.28571428571433 L 1114.2857142857142,314.28571428571433 L 1114.2857142857142,108.57142857142856 L 942.8571428571428,108.57142857142856 L 942.8571428571428,-97.14285714285714 L 771.4285714285713,-97.14285714285714 L 599.9999999999999,-97.14285714285714 L 428.57142857142856,-97.14285714285714 L 257.1428571428571,-97.14285714285714 L 257.1428571428571,108.57142857142856 L 85.71428571428571,108.57142857142856 L 85.71428571428571,314.28571428571433 L 85.71428571428571,520.0 L 257.1428571428571,520.0 L 428.57142857142856,520.0 L 599.9999999999999,520.0 L 771.4285714285713,520.0 L 942.8571428571428,520.0 L 1114.2857142857142,520.0 L 771.4285714285713,108.57142857142856 L 599.9999999999999,108.57142857142856zz"/>
    <glyph glyph-name="uni0122" unicode="&#290;" d="M 599.9999999999999,314.28571428571433 L 771.4285714285713,314.28571428571433 L 942.8571428571428,314.28571428571433 L 1114.2857142857142,314.28571428571433 L 1114.2857142857142,108.57142857142856 L 942.8571428571428,108.57142857142856 L 771.4285714285713,108.57142857142856 L 599.9999999999999,108.57142857142856 L 428.57142857142856,108.57142857142856 L 257.1428571428571,108.57142857142856 L 85.71428571428571,108.57142857142856 L 85.71428571428571,314.28571428571433 L 85.71428571428571,520.0 L 85.71428571428571,725.7142857142858 L 257.1428571428571,725.7142857142858 L 428.57142857142856,725.7142857142858 L 599.9999999999999,725.7142857142858 L 771.4285714285713,725.7142857142858 L 942.8571428571428,725.7142857142858 L 1114.2857142857142,725.7142857142858 L 1114.2857142857142,520.0 L 599.9999999999999,520.0 L 599.9999999999999,314.28571428571433zM 428.57142857142856,108.57142857142856 L 599.9999999999999,108.57142857142856 L 599.9999999999999,-97.14285714285714 L 428.57142857142856,-97.14285714285714 L 428.57142857142856,108.57142857142856zz"/>
    <glyph glyph-name="Gdotaccent" unicode="&#288;" d="M 599.9999999999999,725.7142857142858 L 771.4285714285713,725.7142857142858 L 599.9999999999999,725.7142857142858zM 599.9999999999999,108.57142857142856 L 599.9999999999999,314.28571428571433 L 771.4285714285713,314.28571428571433 L 942.8571428571428,314.28571428571433 L 1114.2857142857142,314.28571428571433 L 1114.2857142857142,108.57142857142856 L 942.8571428571428,108.57142857142856 L 942.8571428571428,-97.14285714285714 L 771.4285714285713,-97.14285714285714 L 599.9999999999999,-97.14285714285714 L 428.57142857142856,-97.14285714285714 L 257.1428571428571,-97.14285714285714 L 257.1428571428571,108.57142857142856 L 85.71428571428571,108.57142857142856 L 85.71428571428571,314.28571428571433 L 85.71428571428571,520.0 L 257.1428571428571,520.0 L 428.57142857142856,520.0 L 599.9999999999999,520.0 L 771.4285714285713,520.0 L 942.8571428571428,520.0 L 1114.2857142857142,520.0 L 771.4285714285713,108.57142857142856 L 599.9999999999999,108.57142857142856zz"/>
    <glyph glyph-name="H" unicode="H" d="M 599.9999999999999,725.7142857142858 L 771.4285714285713,725.7142857142858 L 942.8571428571428,725.7142857142858 L 1114.2857142857142,725.7142857142858 L 1114.2857142857142,520.0 L 1114.2857142857142,314.28571428571433 L 1114.2857142857142,108.57142857142856 L 1114.2857142857142,-97.14285714285714 L 942.8571428571428,-97.14285714285714 L 771.4285714285713,-97.14285714285714 L 599.9999999999999,-97.14285714285714 L 599.9999999999999,108.57142857142856 L 599.9999999999999,314.28571428571433 L 428.57142857142856,-97.14285714285714 L 257.1428571428571,-97.14285714285714 L 85.71428571428571,-97.14285714285714 L 85.71428571428571,108.57142857142856 L 85.71428571428571,314.28571428571433 L 85.71428571428571,520.0 L 85.71428571428571,725.7142857142858 L 257.1428571428571,725.7142857142858 L 428.57142857142856,725.7142857142858 L 599.9999999999999,520.0 L 599.9999999999999,725.7142857142858zz"/>
    <glyph glyph-name="Hbar" unicode="&#294;" d="M 1114.2857142857142,520.0 L 1114.2857142857142,314.28571428571433 L 1114.2857142857142,108.57142857142856 L 1114.2857142857142,-97.14285714285714 L 942.8571428571428,-97.14285714285714 L 771.4285714285713,-97.14285714285714 L 599.9999999999999,-97.14285714285714 L 599.9999999999999,108.57142857142856 L 599.9999999999999,314.28571428571433 L 428.57142857142856,-97.14285714285714 L 257.1428571428571,-97.14285714285714 L 85.71428571428571,-97.14285714285714 L 85.71428571428571,108.57142857142856 L 85.71428571428571,314.28571428571433 L 85.71428571428571,520.0 L 85.71428571428571,725.7142857142858 L 257.1428571428571,725.7142857142858 L 428.57142857142856,725.7142857142858 L 599.9999999999999,725.7142857142858 L 599.9999999999999,520.0 L 771.4285714285713,725.7142857142858 L 942.8571428571428,725.7142857142858 L 1114.2857142857142,725.7142857142858 L 1114.2857142857142,520.0zM 599.9999999999999,314.28571428571433 L 599.9999999999999,520.0 L 599.9999999999999,314.28571428571433zz"/>
    <glyph glyph-name="I" unicode="I" d="M 1114.2857142857142,520.0 L 942.8571428571428,520.0 L 942.8571428571428,314.28571428571433 L 1114.2857142857142,314.28571428571433 L 1114.2857142857142,108.57142857142856 L 1114.2857142857142,-97.14285714285714 L 942.8571428571428,-97.14285714285714 L 771.4285714285713,-97.14285714285714 L 599.9999999999999,-97.14285714285714 L 428.57142857142856,-97.14285714285714 L 257.1428571428571,-97.14285714285714 L 85.71428571428571,-97.14285714285714 L 85.71428571428571,108.57142857142856 L 85.71428571428571,314.28571428571433 L 257.1428571428571,314.28571428571433 L 257.1428571428571,520.0 L 85.71428571428571,520.0 L 85.71428571428571,725.7142857142858 L 257.1428571428571,725.7142857142858 L 428.57142857142856,725.7142857142858 L 599.9999999999999,725.7142857142858 L 771.4285714285713,725.7142857142858 L 942.8571428571428,725.7142857142858 L 1114.2857142857142,725.7142857142858 L 1114.2857142857142,520.0zz"/>
    <glyph glyph-name="Iacute" unicode="&#205;" d="M 942.8571428571428,725.7142857142858 L 771.4285714285713,725.7142857142858 L 599.9999999999999,725.7142857142858 L 428.57142857142856,725.7142857142858 L 257.1428571428571,725.7142857142858 L 942.8571428571428,725.7142857142858zM 1114.2857142857142,314.28571428571433 L 942.8571428571428,314.28571428571433 L 1114.2857142857142,108.57142857142856 L 1114.2857142857142,-97.14285714285714 L 942.8571428571428,-97.14285714285714 L 771.4285714285713,-97.14285714285714 L 599.9999999999999,-97.14285714285714 L 428.57142857142856,-97.14285714285714 L 257.1428571428571,-97.14285714285714 L 85.71428571428571,-97.14285714285714 L 85.71428571428571,108.57142857142856 L 85.71428571428571,314.28571428571433 L 257.1428571428571,314.28571428571433 L 85.71428571428571,520.0 L 257.1428571428571,520.0 L 428.57142857142856,520.0 L 599.9999999999999,520.0 L 771.4285714285713,520.0 L 942.8571428571428,520.0 L 1114.2857142857142,520.0 L 1114.2857142857142,314.28571428571433zz"/>
    <glyph glyph-name="Icircumflex" unicode="&#206;" d="M 942.8571428571428,725.7142857142858 L 771.4285714285713,725.7142857142858 L 599.9999999999999,725.7142857142858 L 428.57142857142856,725.7142857142858 L 257.1428571428571,725.7142857142858 L 942.8571428571428,725.7142857142858zM 1114.2857142857142,314.28571428571433 L 942.8571428571428,314.28571428571433 L 1114.2857142857142,108.57142857142856 L 1114.2857142857142,-97.14285714285714 L 942.8571428571428,-97.14285714285714 L 771.4285714285713,-97.14285714285714 L 599.9999999999999,-97.14285714285714 L 428.57142857142856,-97.14285714285714 L 257.1428571428571,-97.14285714285714 L 85.71428571428571,-97.14285714285714 L 85.71428571428571,108.57142857142856 L 85.71428571428571,314.28571428571433 L 257.1428571428571,314.28571428571433 L 85.71428571428571,520.0 L 257.1428571428571,520.0 L 428.57142857142856,520.0 L 599.9999999999999,520.0 L 771.4285714285713,520.0 L 942.8571428571428,520.0 L 1114.2857142857142,520.0 L 1114.2857142857142,314.28571428571433zz"/>
    <glyph glyph-name="Idieresis" unicode="&#207;" d="M 257.1428571428571,725.7142857142858 L 428.57142857142856,725.7142857142858 L 257.1428571428571,725.7142857142858zM 942.8571428571428,725.7142857142858 L 771.4285714285713,725.7142857142858 L 942.8571428571428,725.7142857142858zM 1114.2857142857142,314.28571428571433 L 942.8571428571428,314.28571428571433 L 1114.2857142857142,108.57142857142856 L 1114.2857142857142,-97.14285714285714 L 942.8571428571428,-97.14285714285714 L 771.4285714285713,-97.14285714285714 L 599.9999999999999,-97.14285714285714 L 428.57142857142856,-97.14285714285714 L 257.1428571428571,-97.14285714285714 L 85.71428571428571,-97.14285714285714 L 85.71428571428571,108.57142857142856 L 85.71428571428571,314.28571428571433 L 257.1428571428571,314.28571428571433 L 85.71428571428571,520.0 L 257.1428571428571,520.0 L 428.57142857142856,520.0 L 599.9999999999999,520.0 L 771.4285714285713,520.0 L 942.8571428571428,520.0 L 1114.2857142857142,520.0 L 1114.2857142857142,314.28571428571433zz"/>
    <glyph glyph-name="Idotaccent" unicode="&#304;" d="M 599.9999999999999,725.7142857142858 L 599.9999999999999,725.7142857142858zM 1114.2857142857142,314.28571428571433 L 942.8571428571428,314.28571428571433 L 1114.2857142857142,108.57142857142856 L 1114.2857142857142,-97.14285714285714 L 942.8571428571428,-97.14285714285714 L 771.4285714285713,-97.14285714285714 L 599.9999999999999,-97.14285714285714 L 428.57142857142856,-97.14285714285714 L 257.1428571428571,-97.14285714285714 L 85.71428571428571,-97.14285714285714 L 85.71428571428571,108.57142857142856 L 85.71428571428571,314.28571428571433 L 257.1428571428571,314.28571428571433 L 85.71428571428571,520.0 L 257.1428571428571,520.0 L 428.57142857142856,520.0 L 599.9999999999999,520.0 L 771.4285714285713,520.0 L 942.8571428571428,520.0 L 1114.2857142857142,520.0 L 1114.2857142857142,314.28571428571433zz"/>
    <glyph glyph-name="Igrave" unicode="&#204;" d="M 942.8571428571428,725.7142857142858 L 771.4285714285713,725.7142857142858 L 599.9999999999999,725.7142857142858 L 428.57142857142856,725.7142857142858 L 257.1428571428571,725.7142857142858 L 942.8571428571428,725.7142857142858zM 1114.2857142857142,314.28571428571433 L 942.8571428571428,314.28571428571433 L 1114.2857142857142,108.57142857142856 L 1114.2857142857142,-97.14285714285714 L 942.8571428571428,-97.14285714285714 L 771.4285714285713,-97.14285714285714 L 599.9999999999999,-97.14285714285714 L 428.57142857142856,-97.14285714285714 L 257.1428571428571,-97.14285714285714 L 85.71428571428571,-97.14285714285714 L 85.71428571428571,108.57142857142856 L 85.71428571428571,314.28571428571433 L 257.1428571428571,314.28571428571433 L 85.71428571428571,520.0 L 257.1428571428571,520.0 L 428.57142857142856,520.0 L 599.9999999999999,520.0 L 771.4285714285713,520.0 L 942.8571428571428,520.0 L 1114.2857142857142,520.0 L 1114.2857142857142,314.28571428571433zz"/>
    <glyph glyph-name="Imacron" unicode="&#298;" d="M 942.8571428571428,725.7142857142858 L 771.4285714285713,725.7142857142858 L 599.9999999999999,725.7142857142858 L 428.57142857142856,725.7142857142858 L 257.1428571428571,725.7142857142858 L 942.8571428571428,725.7142857142858zM 1114.2857142857142,314.28571428571433 L 942.8571428571428,314.28571428571433 L 1114.2857142857142,108.57142857142856 L 1114.2857142857142,-97.14285714285714 L 942.8571428571428,-97.14285714285714 L 771.4285714285713,-97.14285714285714 L 599.9999999999999,-97.14285714285714 L 428.57142857142856,-97.14285714285714 L 257.1428571428571,-97.14285714285714 L 85.71428571428571,-97.14285714285714 L 85.71428571428571,108.57142857142856 L 85.71428571428571,314.28571428571433 L 257.1428571428571,314.28571428571433 L 85.71428571428571,520.0 L 257.1428571428571,520.0 L 428.57142857142856,520.0 L 599.9999999999999,520.0 L 771.4285714285713,520.0 L 942.8571428571428,520.0 L 1114.2857142857142,520.0 L 1114.2857142857142,314.28571428571433zz"/>
    <glyph glyph-name="Iogonek" unicode="&#302;" d="M 1114.2857142857142,108.57142857142856 L 1114.2857142857142,-97.14285714285714 L 942.8571428571428,108.57142857142856 L 771.4285714285713,108.57142857142856 L 599.9999999999999,108.57142857142856 L 428.57142857142856,108.57142857142856 L 257.1428571428571,108.57142857142856 L 85.71428571428571,108.57142857142856 L 85.71428571428571,314.28571428571433 L 257.1428571428571,314.28571428571433 L 257.1428571428571,520.0 L 85.71428571428571,520.0 L 85.71428571428571,725.7142857142858 L 257.1428571428571,725.7142857142858 L 428.57142857142856,725.7142857142858 L 599.9999999999999,725.7142857142858 L 771.4285714285713,725.7142857142858 L 942.8571428571428,725.7142857142858 L 1114.2857142857142,725.7142857142858 L 1114.2857142857142,520.0 L 942.8571428571428,520.0 L 942.8571428571428,314.28571428571433 L 1114.2857142857142,314.28571428571433 L 1114.2857142857142,108.57142857142856zz"/>
    <glyph glyph-name="J" unicode="J" d="M 1114.2857142857142,725.7142857142858 L 1114.2857142857142,520.0 L 1114.2857142857142,314.28571428571433 L 1114.2857142857142,108.57142857142856 L 942.8571428571428,108.57142857142856 L 771.4285714285713,108.57142857142856 L 771.4285714285713,-97.14285714285714 L 599.9999999999999,-97.14285714285714 L 428.57142857142856,-97.14285714285714 L 257.1428571428571,-97.14285714285714 L 85.71428571428571,-97.14285714285714 L 85.71428571428571,108.57142857142856 L 85.71428571428571,314.28571428571433 L 257.1428571428571,314.28571428571433 L 428.57142857142856,314.28571428571433 L 599.9999999999999,314.28571428571433 L 599.9999999999999,520.0 L 428.57142857142856,520.0 L 257.1428571428571,520.0 L 85.71428571428571,520.0 L 85.71428571428571,725.7142857142858 L 257.1428571428571,725.7142857142858 L 428.57142857142856,725.7142857142858 L 599.9999999999999,725.7142857142858 L 771.4285714285713,725.7142857142858 L 942.8571428571428,725.7142857142858 L 1114.2857142857142,725.7142857142858zz"/>
    <glyph glyph-name="K" unicode="K" d="M 1114.2857142857142,725.7142857142858 L 1114.2857142857142,520.0 L 1114.2857142857142,314.28571428571433 L 1114.2857142857142,108.57142857142856 L 1114.2857142857142,-97.14285714285714 L 942.8571428571428,-97.14285714285714 L 771.4285714285713,-97.14285714285714 L 599.9999999999999,-97.14285714285714 L 599.9999999999999,108.57142857142856 L 599.9999999999999,314.28571428571433 L 428.57142857142856,-97.14285714285714 L 257.1428571428571,-97.14285714285714 L 85.71428571428571,-97.14285714285714 L 85.71428571428571,108.57142857142856 L 85.71428571428571,314.28571428571433 L 85.71428571428571,520.0 L 85.71428571428571,725.7142857142858 L 257.1428571428571,725.7142857142858 L 428.57142857142856,725.7142857142858 L 599.9999999999999,725.7142857142858 L 599.9999999999999,520.0 L 771.4285714285713,725.7142857142858 L 942.8571428571428,725.7142857142858 L 1114.2857142857142,725.7142857142858zz"/>
    <glyph glyph-name="uni0136" unicode="&#310;" d="M 1114.2857142857142,725.7142857142858 L 1114.2857142857142,520.0 L 1114.2857142857142,314.28571428571433 L 1114.2857142857142,108.57142857142856 L 942.8571428571428,108.57142857142856 L 771.4285714285713,108.57142857142856 L 599.9999999999999,108.57142857142856 L 599.9999999999999,314.28571428571433 L 428.57142857142856,108.57142857142856 L 257.1428571428571,108.57142857142856 L 85.71428571428571,108.57142857142856 L 85.71428571428571,314.28571428571433 L 85.71428571428571,520.0 L 85.71428571428571,725.7142857142858 L 257.1428571428571,725.7142857142858 L 428.57142857142856,725.7142857142858 L 599.9999999999999,725.7142857142858 L 599.9999999999999,520.0 L 771.4285714285713,725.7142857142858 L 942.8571428571428,725.7142857142858 L 1114.2857142857142,725.7142857142858zM 428.57142857142856,108.57142857142856 L 599.9999999999999,108.57142857142856 L 599.9999999999999,-97.14285714285714 L 428.57142857142856,-97.14285714285714 L 428.57142857142856,108.57142857142856zz"/>
    <glyph glyph-name="L" unicode="L" d="M 599.9999999999999,314.28571428571433 L 771.4285714285713,314.28571428571433 L 942.8571428571428,314.28571428571433 L 1114.2857142857142,314.28571428571433 L 1114.2857142857142,108.57142857142856 L 1114.2857142857142,-97.14285714285714 L 942.8571428571428,-97.14285714285714 L 771.4285714285713,-97.14285714285714 L 599.9999999999999,-97.14285714285714 L 428.57142857142856,-97.14285714285714 L 257.1428571428571,-97.14285714285714 L 85.71428571428571,-97.14285714285714 L 85.71428571428571,108.57142857142856 L 85.71428571428571,314.28571428571433 L 85.71428571428571,520.0 L 85.71428571428571,725.7142857142858 L 257.1428571428571,725.7142857142858 L 428.57142857142856,725.7142857142858 L 599.9999999999999,725.7142857142858 L 599.9999999999999,520.0 L 599.9999999999999,314.28571428571433zz"/>
    <glyph glyph-name="Lacute" unicode="&#313;" d="M 599.9999999999999,725.7142857142858 L 428.57142857142856,725.7142857142858 L 257.1428571428571,725.7142857142858 L 85.71428571428571,725.7142857142858 L 599.9999999999999,725.7142857142858zM 599.9999999999999,314.28571428571433 L 771.4285714285713,314.28571428571433 L 942.8571428571428,314.28571428571433 L 1114.2857142857142,314.28571428571433 L 1114.2857142857142,108.57142857142856 L 1114.2857142857142,-97.14285714285714 L 942.8571428571428,-97.14285714285714 L 771.4285714285713,-97.14285714285714 L 599.9999999999999,-97.14285714285714 L 428.57142857142856,-97.14285714285714 L 257.1428571428571,-97.14285714285714 L 85.71428571428571,-97.14285714285714 L 85.71428571428571,108.57142857142856 L 85.71428571428571,314.28571428571433 L 85.71428571428571,520.0 L 257.1428571428571,520.0 L 428.57142857142856,520.0 L 599.9999999999999,520.0 L 599.9999999999999,314.28571428571433zz"/>
    <glyph glyph-name="Lcaron" unicode="&#317;" d="M 599.9999999999999,314.28571428571433 L 771.4285714285713,314.28571428571433 L 942.8571428571428,314.28571428571433 L 1114.2857142857142,314.28571428571433 L 1114.2857142857142,108.57142857142856 L 1114.2857142857142,-97.14285714285714 L 942.8571428571428,-97.14285714285714 L 771.4285714285713,-97.14285714285714 L 599.9999999999999,-97.14285714285714 L 428.57142857142856,-97.14285714285714 L 257.1428571428571,-97.14285714285714 L 85.71428571428571,-97.14285714285714 L 85.71428571428571,108.57142857142856 L 85.71428571428571,314.28571428571433 L 85.71428571428571,520.0 L 85.71428571428571,725.7142857142858 L 257.1428571428571,725.7142857142858 L 428.57142857142856,725.7142857142858 L 599.9999999999999,725.7142857142858 L 599.9999999999999,520.0 L 599.9999999999999,314.28571428571433zM 942.8571428571428,314.28571428571433 L 942.8571428571428,520.0 L 942.8571428571428,725.7142857142858 L 942.8571428571428,314.28571428571433zz"/>
    <glyph glyph-name="uni013B" unicode="&#315;" d="M 599.9999999999999,520.0 L 771.4285714285713,520.0 L 942.8571428571428,520.0 L 1114.2857142857142,520.0 L 1114.2857142857142,314.28571428571433 L 1114.2857142857142,108.57142857142856 L 942.8571428571428,108.57142857142856 L 771.4285714285713,108.57142857142856 L 599.9999999999999,108.57142857142856 L 428.57142857142856,108.57142857142856 L 257.1428571428571,108.57142857142856 L 85.71428571428571,108.57142857142856 L 85.71428571428571,314.28571428571433 L 85.71428571428571,520.0 L 85.71428571428571,725.7142857142858 L 257.1428571428571,725.7142857142858 L 428.57142857142856,725.7142857142858 L 599.9999999999999,725.7142857142858 L 599.9999999999999,520.0zM 428.57142857142856,108.57142857142856 L 599.9999999999999,108.57142857142856 L 599.9999999999999,-97.14285714285714 L 428.57142857142856,-97.14285714285714 L 428.57142857142856,108.57142857142856zz"/>
    <glyph glyph-name="Ldot" unicode="&#319;" d="M 599.9999999999999,314.28571428571433 L 771.4285714285713,314.28571428571433 L 942.8571428571428,314.28571428571433 L 1114.2857142857142,314.28571428571433 L 1114.2857142857142,108.57142857142856 L 1114.2857142857142,-97.14285714285714 L 942.8571428571428,-97.14285714285714 L 771.4285714285713,-97.14285714285714 L 599.9999999999999,-97.14285714285714 L 428.57142857142856,-97.14285714285714 L 257.1428571428571,-97.14285714285714 L 85.71428571428571,-97.14285714285714 L 85.71428571428571,108.57142857142856 L 85.71428571428571,314.28571428571433 L 85.71428571428571,520.0 L 85.71428571428571,725.7142857142858 L 257.1428571428571,725.7142857142858 L 428.57142857142856,725.7142857142858 L 599.9999999999999,725.7142857142858 L 599.9999999999999,520.0 L 599.9999999999999,314.28571428571433zM 942.8571428571428,520.0 L 771.4285714285713,520.0 L 771.4285714285713,725.7142857142858 L 942.8571428571428,725.7142857142858 L 942.8571428571428,520.0zz"/>
    <glyph glyph-name="Lslash" unicode="&#321;" d="M 599.9999999999999,314.28571428571433 L 771.4285714285713,314.28571428571433 L 942.8571428571428,314.28571428571433 L 1114.2857142857142,314.28571428571433 L 1114.2857142857142,108.57142857142856 L 1114.2857142857142,-97.14285714285714 L 942.8571428571428,-97.14285714285714 L 771.4285714285713,-97.14285714285714 L 599.9999999999999,-97.14285714285714 L 428.57142857142856,-97.14285714285714 L 257.1428571428571,-97.14285714285714 L 85.71428571428571,-97.14285714285714 L 85.71428571428571,108.57142857142856 L 85.71428571428571,314.28571428571433 L 85.71428571428571,520.0 L 85.71428571428571,725.7142857142858 L 257.1428571428571,725.7142857142858 L 428.57142857142856,725.7142857142858 L 599.9999999999999,725.7142857142858 L 599.9999999999999,520.0 L 771.4285714285713,520.0 L 599.9999999999999,314.28571428571433zz"/>
    <glyph glyph-name="M" unicode="M" d="M 1114.2857142857142,-97.14285714285714 L 942.8571428571428,-97.14285714285714 L 771.4285714285713,-97.14285714285714 L 599.9999999999999,-97.14285714285714 L 599.9999999999999,108.57142857142856 L 599.9999999999999,314.28571428571433 L 599.9999999999999,520.0 L 428.57142857142856,-97.14285714285714 L 257.1428571428571,-97.14285714285714 L 85.71428571428571,-97.14285714285714 L 85.71428571428571,108.57142857142856 L 85.71428571428571,314.28571428571433 L 85.71428571428571,520.0 L 85.71428571428571,725.7142857142858 L 257.1428571428571,725.7142857142858 L 428.57142857142856,725.7142857142858 L 599.9999999999999,725.7142857142858 L 771.4285714285713,725.7142857142858 L 942.8571428571428,725.7142857142858 L 1114.2857142857142,725.7142857142858 L 1114.2857142857142,520.0 L 1114.2857142857142,314.28571428571433 L 1114.2857142857142,108.57142857142856 L 1114.2857142857142,-97.14285714285714zz"/>
    <glyph glyph-name="N" unicode="N" d="M 599.9999999999999,725.7142857142858 L 771.4285714285713,725.7142857142858 L 942.8571428571428,725.7142857142858 L 1114.2857142857142,725.7142857142858 L 1114.2857142857142,520.0 L 1114.2857142857142,314.28571428571433 L 1114.2857142857142,108.57142857142856 L 1114.2857142857142,-97.14285714285714 L 942.8571428571428,-97.14285714285714 L 771.4285714285713,-97.14285714285714 L 599.9999999999999,-97.14285714285714 L 599.9999999999999,108.57142857142856 L 599.9999999999999,314.28571428571433 L 599.9999999999999,520.0 L 428.57142857142856,-97.14285714285714 L 257.1428571428571,-97.14285714285714 L 85.71428571428571,-97.14285714285714 L 85.71428571428571,108.57142857142856 L 85.71428571428571,314.28571428571433 L 85.71428571428571,520.0 L 85.71428571428571,725.7142857142858 L 257.1428571428571,725.7142857142858 L 428.57142857142856,725.7142857142858 L 599.9999999999999,725.7142857142858zz"/>
    <glyph glyph-name="Nacute" unicode="&#323;" d="M 942.8571428571428,725.7142857142858 L 771.4285714285713,725.7142857142858 L 599.9999999999999,725.7142857142858 L 428.57142857142856,725.7142857142858 L 257.1428571428571,725.7142857142858 L 942.8571428571428,725.7142857142858zM 599.9999999999999,520.0 L 771.4285714285713,520.0 L 942.8571428571428,520.0 L 1114.2857142857142,520.0 L 1114.2857142857142,314.28571428571433 L 1114.2857142857142,108.57142857142856 L 1114.2857142857142,-97.14285714285714 L 942.8571428571428,-97.14285714285714 L 771.4285714285713,-97.14285714285714 L 599.9999999999999,-97.14285714285714 L 599.9999999999999,108.57142857142856 L 599.9999999999999,314.28571428571433 L 428.57142857142856,-97.14285714285714 L 257.1428571428571,-97.14285714285714 L 85.71428571428571,-97.14285714285714 L 85.71428571428571,108.57142857142856 L 85.71428571428571,314.28571428571433 L 85.71428571428571,520.0 L 257.1428571428571,520.0 L 428.57142857142856,520.0 L 599.9999999999999,520.0zz"/>
    <glyph glyph-name="Ncaron" unicode="&#327;" d="M 942.8571428571428,725.7142857142858 L 771.4285714285713,725.7142857142858 L 599.9999999999999,725.7142857142858 L 428.57142857142856,725.7142857142858 L 257.1428571428571,725.7142857142858 L 942.8571428571428,725.7142857142858zM 599.9999999999999,520.0 L 771.4285714285713,520.0 L 942.8571428571428,520.0 L 1114.2857142857142,520.0 L 1114.2857142857142,314.28571428571433 L 1114.2857142857142,108.57142857142856 L 1114.2857142857142,-97.14285714285714 L 942.8571428571428,-97.14285714285714 L 771.4285714285713,-97.14285714285714 L 599.9999999999999,-97.14285714285714 L 599.9999999999999,108.57142857142856 L 599.9999999999999,314.28571428571433 L 428.57142857142856,-97.14285714285714 L 257.1428571428571,-97.14285714285714 L 85.71428571428571,-97.14285714285714 L 85.71428571428571,108.57142857142856 L 85.71428571428571,314.28571428571433 L 85.71428571428571,520.0 L 257.1428571428571,520.0 L 428.57142857142856,520.0 L 599.9999999999999,520.0zz"/>
    <glyph glyph-name="uni0145" unicode="&#325;" d="M 599.9999999999999,725.7142857142858 L 771.4285714285713,725.7142857142858 L 942.8571428571428,725.7142857142858 L 1114.2857142857142,725.7142857142858 L 1114.2857142857142,520.0 L 1114.2857142857142,314.28571428571433 L 1114.2857142857142,108.57142857142856 L 942.8571428571428,108.57142857142856 L 771.4285714285713,108.57142857142856 L 599.9999999999999,108.57142857142856 L 599.9999999999999,314.28571428571433 L 599.9999999999999,520.0 L 428.57142857142856,108.57142857142856 L 257.1428571428571,108.57142857142856 L 85.71428571428571,108.57142857142856 L 85.71428571428571,314.28571428571433 L 85.71428571428571,520.0 L 85.71428571428571,725.7142857142858 L 257.1428571428571,725.7142857142858 L 428.57142857142856,725.7142857142858 L 599.9999999999999,725.7142857142858zM 428.57142857142856,108.57142857142856 L 599.9999999999999,108.57142857142856 L 599.9999999999999,-97.14285714285714 L 428.57142857142856,-97.14285714285714 L 428.57142857142856,108.57142857142856zz"/>
    <glyph glyph-name="Eng" unicode="&#330;" d="M 599.9999999999999,725.7142857142858 L 771.4285714285713,725.7142857142858 L 942.8571428571428,725.7142857142858 L 1114.2857142857142,725.7142857142858 L 1114.2857142857142,520.0 L 1114.2857142857142,314.28571428571433 L 1114.2857142857142,108.57142857142856 L 1114.2857142857142,-97.14285714285714 L 942.8571428571428,-97.14285714285714 L 771.4285714285713,-97.14285714285714 L 599.9999999999999,-97.14285714285714 L 599.9999999999999,108.57142857142856 L 599.9999999999999,314.28571428571433 L 599.9999999999999,520.0 L 428.57142857142856,-97.14285714285714 L 257.1428571428571,-97.14285714285714 L 85.71428571428571,-97.14285714285714 L 85.71428571428571,108.57142857142856 L 85.71428571428571,314.28571428571433 L 85.71428571428571,520.0 L 85.71428571428571,725.7142857142858 L 257.1428571428571,725.7142857142858 L 428.57142857142856,725.7142857142858 L 599.9999999999999,725.7142857142858zz"/>
    <glyph glyph-name="Ntilde" unicode="&#209;" d="M 428.57142857142856,725.7142857142858 L 257.1428571428571,725.7142857142858 L 599.9999999999999,725.7142857142858 L 771.4285714285713,725.7142857142858 L 942.8571428571428,725.7142857142858 L 428.57142857142856,725.7142857142858zM 599.9999999999999,520.0 L 771.4285714285713,520.0 L 942.8571428571428,520.0 L 1114.2857142857142,520.0 L 1114.2857142857142,314.28571428571433 L 1114.2857142857142,108.57142857142856 L 1114.2857142857142,-97.14285714285714 L 942.8571428571428,-97.14285714285714 L 771.4285714285713,-97.14285714285714 L 599.9999999999999,-97.14285714285714 L 599.9999999999999,108.57142857142856 L 599.9999999999999,314.28571428571433 L 428.57142857142856,-97.14285714285714 L 257.1428571428571,-97.14285714285714 L 85.71428571428571,-97.14285714285714 L 85.71428571428571,108.57142857142856 L 85.71428571428571,314.28571428571433 L 85.71428571428571,520.0 L 257.1428571428571,520.0 L 428.57142857142856,520.0 L 599.9999999999999,520.0zz"/>
    <glyph glyph-name="O" unicode="O" d="M 599.9999999999999,-97.14285714285714 L 428.57142857142856,-97.14285714285714 L 257.1428571428571,-97.14285714285714 L 257.1428571428571,108.57142857142856 L 85.71428571428571,108.57142857142856 L 85.71428571428571,314.28571428571433 L 85.71428571428571,520.0 L 85.71428571428571,725.7142857142858 L 257.1428571428571,725.7142857142858 L 428.57142857142856,725.7142857142858 L 599.9999999999999,725.7142857142858 L 771.4285714285713,725.7142857142858 L 942.8571428571428,725.7142857142858 L 1114.2857142857142,725.7142857142858 L 1114.2857142857142,520.0 L 1114.2857142857142,314.28571428571433 L 1114.2857142857142,108.57142857142856 L 942.8571428571428,108.57142857142856 L 942.8571428571428,-97.14285714285714 L 771.4285714285713,-97.14285714285714 L 599.9999999999999,-97.14285714285714zM 599.9999999999999,314.28571428571433 L 599.9999999999999,520.0 L 599.9999999999999,314.28571428571433zz"/>
    <glyph glyph-name="Oacute" unicode="&#211;" d="M 257.1428571428571,725.7142857142858 L 428.57142857142856,725.7142857142858 L 599.9999999999999,725.7142857142858 L 771.4285714285713,725.7142857142858 L 942.8571428571428,725.7142857142858 L 257.1428571428571,725.7142857142858zM 599.9999999999999,-97.14285714285714 L 428.57142857142856,-97.14285714285714 L 257.1428571428571,-97.14285714285714 L 257.1428571428571,108.57142857142856 L 85.71428571428571,108.57142857142856 L 85.71428571428571,314.28571428571433 L 85.71428571428571,520.0 L 257.1428571428571,520.0 L 428.57142857142856,520.0 L 599.9999999999999,520.0 L 771.4285714285713,520.0 L 942.8571428571428,520.0 L 1114.2857142857142,520.0 L 1114.2857142857142,314.28571428571433 L 1114.2857142857142,108.57142857142856 L 942.8571428571428,108.57142857142856 L 942.8571428571428,-97.14285714285714 L 771.4285714285713,-97.14285714285714 L 599.9999999999999,-97.14285714285714zM 599.9999999999999,314.28571428571433 L 599.9999999999999,314.28571428571433zz"/>
    <glyph glyph-name="Ocircumflex" unicode="&#212;" d="M 257.1428571428571,725.7142857142858 L 428.57142857142856,725.7142857142858 L 599.9999999999999,725.7142857142858 L 771.4285714285713,725.7142857142858 L 942.8571428571428,725.7142857142858 L 257.1428571428571,725.7142857142858zM 599.9999999999999,-97.14285714285714 L 428.57142857142856,-97.14285714285714 L 257.1428571428571,-97.14285714285714 L 257.1428571428571,108.57142857142856 L 85.71428571428571,108.57142857142856 L 85.71428571428571,314.28571428571433 L 85.71428571428571,520.0 L 257.1428571428571,520.0 L 428.57142857142856,520.0 L 599.9999999999999,520.0 L 771.4285714285713,520.0 L 942.8571428571428,520.0 L 1114.2857142857142,520.0 L 1114.2857142857142,314.28571428571433 L 1114.2857142857142,108.57142857142856 L 942.8571428571428,108.57142857142856 L 942.8571428571428,-97.14285714285714 L 771.4285714285713,-97.14285714285714 L 599.9999999999999,-97.14285714285714zM 599.9999999999999,314.28571428571433 L 599.9999999999999,314.28571428571433zz"/>
    <glyph glyph-name="Odieresis" unicode="&#214;" d="M 257.1428571428571,725.7142857142858 L 428.57142857142856,725.7142857142858 L 257.1428571428571,725.7142857142858zM 942.8571428571428,725.7142857142858 L 771.4285714285713,725.7142857142858 L 942.8571428571428,725.7142857142858zM 599.9999999999999,-97.14285714285714 L 428.57142857142856,-97.14285714285714 L 257.1428571428571,-97.14285714285714 L 257.1428571428571,108.57142857142856 L 85.71428571428571,108.57142857142856 L 85.71428571428571,314.28571428571433 L 85.71428571428571,520.0 L 257.1428571428571,520.0 L 428.57142857142856,520.0 L 599.9999999999999,520.0 L 771.4285714285713,520.0 L 942.8571428571428,520.0 L 1114.2857142857142,520.0 L 1114.2857142857142,314.28571428571433 L 1114.2857142857142,108.57142857142856 L 942.8571428571428,108.57142857142856 L 942.8571428571428,-97.14285714285714 L 771.4285714285713,-97.14285714285714 L 599.9999999999999,-97.14285714285714zM 599.9999999999999,314.28571428571433 L 599.9999999999999,314.28571428571433zz"/>
    <glyph glyph-name="Ograve" unicode="&#210;" d="M 942.8571428571428,725.7142857142858 L 771.4285714285713,725.7142857142858 L 599.9999999999999,725.7142857142858 L 428.57142857142856,725.7142857142858 L 257.1428571428571,725.7142857142858 L 942.8571428571428,725.7142857142858zM 599.9999999999999,-97.14285714285714 L 428.57142857142856,-97.14285714285714 L 257.1428571428571,-97.14285714285714 L 257.1428571428571,108.57142857142856 L 85.71428571428571,108.57142857142856 L 85.71428571428571,314.28571428571433 L 85.71428571428571,520.0 L 257.1428571428571,520.0 L 428.57142857142856,520.0 L 599.9999999999999,520.0 L 771.4285714285713,520.0 L 942.8571428571428,520.0 L 1114.2857142857142,520.0 L 1114.2857142857142,314.28571428571433 L 1114.2857142857142,108.57142857142856 L 942.8571428571428,108.57142857142856 L 942.8571428571428,-97.14285714285714 L 771.4285714285713,-97.14285714285714 L 599.9999999999999,-97.14285714285714zM 599.9999999999999,314.28571428571433 L 599.9999999999999,314.28571428571433zz"/>
    <glyph glyph-name="Ohungarumlaut" unicode="&#336;" d="M 257.1428571428571,725.7142857142858 L 428.57142857142856,725.7142857142858 L 599.9999999999999,725.7142857142858 L 257.1428571428571,725.7142857142858zM 599.9999999999999,725.7142857142858 L 771.4285714285713,725.7142857142858 L 942.8571428571428,725.7142857142858 L 599.9999999999999,725.7142857142858zM 599.9999999999999,-97.14285714285714 L 428.57142857142856,-97.14285714285714 L 257.1428571428571,-97.14285714285714 L 257.1428571428571,108.57142857142856 L 85.71428571428571,108.57142857142856 L 85.71428571428571,314.28571428571433 L 85.71428571428571,520.0 L 257.1428571428571,520.0 L 428.57142857142856,520.0 L 599.9999999999999,520.0 L 771.4285714285713,520.0 L 942.8571428571428,520.0 L 1114.2857142857142,520.0 L 1114.2857142857142,314.28571428571433 L 1114.2857142857142,108.57142857142856 L 942.8571428571428,108.57142857142856 L 942.8571428571428,-97.14285714285714 L 771.4285714285713,-97.14285714285714 L 599.9999999999999,-97.14285714285714zM 599.9999999999999,314.28571428571433 L 599.9999999999999,314.28571428571433zz"/>
    <glyph glyph-name="Omacron" unicode="&#332;" d="M 257.1428571428571,725.7142857142858 L 428.57142857142856,725.7142857142858 L 599.9999999999999,725.7142857142858 L 771.4285714285713,725.7142857142858 L 942.8571428571428,725.7142857142858 L 257.1428571428571,725.7142857142858zM 599.9999999999999,-97.14285714285714 L 428.57142857142856,-97.14285714285714 L 257.1428571428571,-97.14285714285714 L 257.1428571428571,108.57142857142856 L 85.71428571428571,108.57142857142856 L 85.71428571428571,314.28571428571433 L 85.71428571428571,520.0 L 257.1428571428571,520.0 L 428.57142857142856,520.0 L 599.9999999999999,520.0 L 771.4285714285713,520.0 L 942.8571428571428,520.0 L 1114.2857142857142,520.0 L 1114.2857142857142,314.28571428571433 L 1114.2857142857142,108.57142857142856 L 942.8571428571428,108.57142857142856 L 942.8571428571428,-97.14285714285714 L 771.4285714285713,-97.14285714285714 L 599.9999999999999,-97.14285714285714zM 599.9999999999999,314.28571428571433 L 599.9999999999999,314.28571428571433zz"/>
    <glyph glyph-name="Oslash" unicode="&#216;" d="M 942.8571428571428,520.0 L 1114.2857142857142,520.0 L 1114.2857142857142,314.28571428571433 L 1114.2857142857142,108.57142857142856 L 942.8571428571428,108.57142857142856 L 771.4285714285713,108.57142857142856 L 599.9999999999999,108.57142857142856 L 428.57142857142856,108.57142857142856 L 257.1428571428571,108.57142857142856 L 85.71428571428571,108.57142857142856 L 85.71428571428571,-97.14285714285714 L 85.71428571428571,314.28571428571433 L 85.71428571428571,520.0 L 257.1428571428571,520.0 L 257.1428571428571,725.7142857142858 L 428.57142857142856,725.7142857142858 L 599.9999999999999,725.7142857142858 L 771.4285714285713,725.7142857142858 L 942.8571428571428,725.7142857142858 L 1114.2857142857142,725.7142857142858 L 942.8571428571428,520.0zM 599.9999999999999,314.28571428571433 L 599.9999999999999,520.0 L 599.9999999999999,314.28571428571433zz"/>
    <glyph glyph-name="Otilde" unicode="&#213;" d="M 257.1428571428571,725.7142857142858 L 428.57142857142856,725.7142857142858 L 599.9999999999999,725.7142857142858 L 771.4285714285713,725.7142857142858 L 942.8571428571428,725.7142857142858 L 257.1428571428571,725.7142857142858zM 599.9999999999999,-97.14285714285714 L 428.57142857142856,-97.14285714285714 L 257.1428571428571,-97.14285714285714 L 257.1428571428571,108.57142857142856 L 85.71428571428571,108.57142857142856 L 85.71428571428571,314.28571428571433 L 85.71428571428571,520.0 L 257.1428571428571,520.0 L 428.57142857142856,520.0 L 599.9999999999999,520.0 L 771.4285714285713,520.0 L 942.8571428571428,520.0 L 1114.2857142857142,520.0 L 1114.2857142857142,314.28571428571433 L 1114.2857142857142,108.57142857142856 L 942.8571428571428,108.57142857142856 L 942.8571428571428,-97.14285714285714 L 771.4285714285713,-97.14285714285714 L 599.9999999999999,-97.14285714285714zM 599.9999999999999,314.28571428571433 L 599.9999999999999,314.28571428571433zz"/>
    <glyph glyph-name="OE" unicode="&#338;" d="M 1114.2857142857142,314.28571428571433 L 942.8571428571428,314.28571428571433 L 1114.2857142857142,108.57142857142856 L 1114.2857142857142,-97.14285714285714 L 942.8571428571428,-97.14285714285714 L 771.4285714285713,-97.14285714285714 L 599.9999999999999,-97.14285714285714 L 428.57142857142856,-97.14285714285714 L 257.1428571428571,-97.14285714285714 L 257.1428571428571,108.57142857142856 L 85.71428571428571,108.57142857142856 L 85.71428571428571,314.28571428571433 L 85.71428571428571,520.0 L 85.71428571428571,725.7142857142858 L 257.1428571428571,725.7142857142858 L 428.57142857142856,725.7142857142858 L 599.9999999999999,725.7142857142858 L 771.4285714285713,725.7142857142858 L 942.8571428571428,725.7142857142858 L 1114.2857142857142,725.7142857142858 L 1114.2857142857142,520.0 L 1114.2857142857142,314.28571428571433zM 428.57142857142856,314.28571428571433 L 599.9999999999999,314.28571428571433 L 599.9999999999999,520.0 L 428.57142857142856,520.0 L 428.57142857142856,314.28571428571433zz"/>
    <glyph glyph-name="P" unicode="P" d="M 771.4285714285713,725.7142857142858 L 942.8571428571428,725.7142857142858 L 1114.2857142857142,725.7142857142858 L 1114.2857142857142,520.0 L 1114.2857142857142,314.28571428571433 L 942.8571428571428,314.28571428571433 L 771.4285714285713,314.28571428571433 L 599.9999999999999,314.28571428571433 L 599.9999999999999,108.57142857142856 L 599.9999999999999,-97.14285714285714 L 428.57142857142856,-97.14285714285714 L 257.1428571428571,-97.14285714285714 L 85.71428571428571,-97.14285714285714 L 85.71428571428571,108.57142857142856 L 85.71428571428571,314.28571428571433 L 85.71428571428571,520.0 L 85.71428571428571,725.7142857142858 L 257.1428571428571,725.7142857142858 L 428.57142857142856,725.7142857142858 L 599.9999999999999,725.7142857142858 L 771.4285714285713,725.7142857142858zM 599.9999999999999,314.28571428571433 L 599.9999999999999,520.0 L 599.9999999999999,314.28571428571433zz"/>
    <glyph glyph-name="Thorn" unicode="&#222;" d="M 1114.2857142857142,314.28571428571433 L 1114.2857142857142,108.57142857142856 L 942.8571428571428,108.57142857142856 L 771.4285714285713,108.57142857142856 L 599.9999999999999,108.57142857142856 L 599.9999999999999,-97.14285714285714 L 428.57142857142856,-97.14285714285714 L 257.1428571428571,-97.14285714285714 L 85.71428571428571,-97.14285714285714 L 85.71428571428571,108.57142857142856 L 85.71428571428571,314.28571428571433 L 85.71428571428571,520.0 L 85.71428571428571,725.7142857142858 L 257.1428571428571,725.7142857142858 L 428.57142857142856,725.7142857142858 L 599.9999999999999,725.7142857142858 L 599.9999999999999,520.0 L 771.4285714285713,520.0 L 942.8571428571428,520.0 L 1114.2857142857142,520.0 L 1114.2857142857142,314.28571428571433zM 599.9999999999999,314.28571428571433 L 599.9999999999999,520.0 L 599.9999999999999,314.28571428571433zz"/>
    <glyph glyph-name="Q" unicode="Q" d="M 599.9999999999999,108.57142857142856 L 428.57142857142856,108.57142857142856 L 257.1428571428571,108.57142857142856 L 85.71428571428571,108.57142857142856 L 85.71428571428571,314.28571428571433 L 85.71428571428571,520.0 L 85.71428571428571,725.7142857142858 L 257.1428571428571,725.7142857142858 L 428.57142857142856,725.7142857142858 L 599.9999999999999,725.7142857142858 L 771.4285714285713,725.7142857142858 L 942.8571428571428,725.7142857142858 L 1114.2857142857142,725.7142857142858 L 1114.2857142857142,520.0 L 1114.2857142857142,314.28571428571433 L 1114.2857142857142,108.57142857142856 L 942.8571428571428,108.57142857142856 L 771.4285714285713,108.57142857142856 L 599.9999999999999,108.57142857142856zM 599.9999999999999,314.28571428571433 L 599.9999999999999,520.0 L 599.9999999999999,314.28571428571433zM 599.9999999999999,-97.14285714285714 L 599.9999999999999,108.57142857142856 L 771.4285714285713,108.57142857142856 L 942.8571428571428,108.57142857142856 L 1114.2857142857142,108.57142857142856 L 1114.2857142857142,-97.14285714285714 L 942.8571428571428,-97.14285714285714 L 771.4285714285713,-97.14285714285714 L 599.9999999999999,-97.14285714285714zz"/>
    <glyph glyph-name="R" unicode="R" d="M 1114.2857142857142,520.0 L 1114.2857142857142,314.28571428571433 L 1114.2857142857142,108.57142857142856 L 1114.2857142857142,-97.14285714285714 L 942.8571428571428,-97.14285714285714 L 771.4285714285713,-97.14285714285714 L 599.9999999999999,-97.14285714285714 L 599.9999999999999,108.57142857142856 L 599.9999999999999,314.28571428571433 L 428.57142857142856,-97.14285714285714 L 257.1428571428571,-97.14285714285714 L 85.71428571428571,-97.14285714285714 L 85.71428571428571,108.57142857142856 L 85.71428571428571,314.28571428571433 L 85.71428571428571,520.0 L 85.71428571428571,725.7142857142858 L 257.1428571428571,725.7142857142858 L 428.57142857142856,725.7142857142858 L 599.9999999999999,725.7142857142858 L 771.4285714285713,725.7142857142858 L 942.8571428571428,725.7142857142858 L 1114.2857142857142,725.7142857142858 L 1114.2857142857142,520.0zM 599.9999999999999,314.28571428571433 L 599.9999999999999,520.0 L 599.9999999999999,314.28571428571433zz"/>
    <glyph glyph-name="Racute" unicode="&#340;" d="M 942.8571428571428,725.7142857142858 L 771.4285714285713,725.7142857142858 L 599.9999999999999,725.7142857142858 L 428.57142857142856,725.7142857142858 L 257.1428571428571,725.7142857142858 L 942.8571428571428,725.7142857142858zM 1114.2857142857142,314.28571428571433 L 1114.2857142857142,108.57142857142856 L 1114.2857142857142,-97.14285714285714 L 942.8571428571428,-97.14285714285714 L 771.4285714285713,-97.14285714285714 L 599.9999999999999,-97.14285714285714 L 599.9999999999999,108.57142857142856 L 428.57142857142856,-97.14285714285714 L 257.1428571428571,-97.14285714285714 L 85.71428571428571,-97.14285714285714 L 85.71428571428571,108.57142857142856 L 85.71428571428571,314.28571428571433 L 85.71428571428571,520.0 L 257.1428571428571,520.0 L 428.57142857142856,520.0 L 599.9999999999999,520.0 L 771.4285714285713,520.0 L 942.8571428571428,520.0 L 1114.2857142857142,520.0 L 1114.2857142857142,314.28571428571433zM 599.9999999999999,314.28571428571433 L 599.9999999999999,314.28571428571433zz"/>
    <glyph glyph-name="Rcaron" unicode="&#344;" d="M 942.8571428571428,725.7142857142858 L 771.4285714285713,725.7142857142858 L 599.9999999999999,725.7142857142858 L 428.57142857142856,725.7142857142858 L 257.1428571428571,725.7142857142858 L 942.8571428571428,725.7142857142858zM 1114.2857142857142,314.28571428571433 L 1114.2857142857142,108.57142857142856 L 1114.2857142857142,-97.14285714285714 L 942.8571428571428,-97.14285714285714 L 771.4285714285713,-97.14285714285714 L 599.9999999999999,-97.14285714285714 L 599.9999999999999,108.57142857142856 L 428.57142857142856,-97.14285714285714 L 257.1428571428571,-97.14285714285714 L 85.71428571428571,-97.14285714285714 L 85.71428571428571,108.57142857142856 L 85.71428571428571,314.28571428571433 L 85.71428571428571,520.0 L 257.1428571428571,520.0 L 428.57142857142856,520.0 L 599.9999999999999,520.0 L 771.4285714285713,520.0 L 942.8571428571428,520.0 L 1114.2857142857142,520.0 L 1114.2857142857142,314.28571428571433zM 599.9999999999999,314.28571428571433 L 599.9999999999999,314.28571428571433zz"/>
    <glyph glyph-name="uni0156" unicode="&#342;" d="M 1114.2857142857142,520.0 L 1114.2857142857142,314.28571428571433 L 1114.2857142857142,108.57142857142856 L 942.8571428571428,108.57142857142856 L 771.4285714285713,108.57142857142856 L 599.9999999999999,108.57142857142856 L 599.9999999999999,314.28571428571433 L 428.57142857142856,108.57142857142856 L 257.1428571428571,108.57142857142856 L 85.71428571428571,108.57142857142856 L 85.71428571428571,314.28571428571433 L 85.71428571428571,520.0 L 85.71428571428571,725.7142857142858 L 257.1428571428571,725.7142857142858 L 428.57142857142856,725.7142857142858 L 599.9999999999999,725.7142857142858 L 771.4285714285713,725.7142857142858 L 942.8571428571428,725.7142857142858 L 1114.2857142857142,725.7142857142858 L 1114.2857142857142,520.0zM 599.9999999999999,314.28571428571433 L 599.9999999999999,520.0 L 599.9999999999999,314.28571428571433zM 428.57142857142856,108.57142857142856 L 599.9999999999999,108.57142857142856 L 599.9999999999999,-97.14285714285714 L 428.57142857142856,-97.14285714285714 L 428.57142857142856,108.57142857142856zz"/>
    <glyph glyph-name="S" unicode="S" d="M 599.9999999999999,-97.14285714285714 L 428.57142857142856,-97.14285714285714 L 257.1428571428571,-97.14285714285714 L 257.1428571428571,108.57142857142856 L 85.71428571428571,108.57142857142856 L 85.71428571428571,314.28571428571433 L 257.1428571428571,314.28571428571433 L 428.57142857142856,314.28571428571433 L 599.9999999999999,314.28571428571433 L 85.71428571428571,520.0 L 85.71428571428571,725.7142857142858 L 257.1428571428571,725.7142857142858 L 428.57142857142856,725.7142857142858 L 599.9999999999999,725.7142857142858 L 771.4285714285713,725.7142857142858 L 942.8571428571428,725.7142857142858 L 1114.2857142857142,725.7142857142858 L 1114.2857142857142,520.0 L 1114.2857142857142,314.28571428571433 L 942.8571428571428,314.28571428571433 L 942.8571428571428,520.0 L 771.4285714285713,520.0 L 599.9999999999999,520.0 L 771.4285714285713,314.28571428571433 L 1114.2857142857142,108.57142857142856 L 942.8571428571428,108.57142857142856 L 942.8571428571428,-97.14285714285714 L 771.4285714285713,-97.14285714285714 L 599.9999999999999,-97.14285714285714zz"/>
    <glyph glyph-name="Sacute" unicode="&#346;" d="M 257.1428571428571,725.7142857142858 L 428.57142857142856,725.7142857142858 L 599.9999999999999,725.7142857142858 L 771.4285714285713,725.7142857142858 L 942.8571428571428,725.7142857142858 L 257.1428571428571,725.7142857142858zM 599.9999999999999,-97.14285714285714 L 428.57142857142856,-97.14285714285714 L 257.1428571428571,-97.14285714285714 L 257.1428571428571,108.57142857142856 L 85.71428571428571,108.57142857142856 L 85.71428571428571,314.28571428571433 L 257.1428571428571,314.28571428571433 L 428.57142857142856,314.28571428571433 L 599.9999999999999,314.28571428571433 L 85.71428571428571,520.0 L 257.1428571428571,520.0 L 428.57142857142856,520.0 L 599.9999999999999,520.0 L 771.4285714285713,520.0 L 942.8571428571428,520.0 L 1114.2857142857142,520.0 L 1114.2857142857142,314.28571428571433 L 942.8571428571428,314.28571428571433 L 771.4285714285713,314.28571428571433 L 1114.2857142857142,108.57142857142856 L 942.8571428571428,108.57142857142856 L 942.8571428571428,-97.14285714285714 L 771.4285714285713,-97.14285714285714 L 599.9999999999999,-97.14285714285714zz"/>
    <glyph glyph-name="Scaron" unicode="&#352;" d="M 599.9999999999999,725.7142857142858 L 428.57142857142856,725.7142857142858 L 257.1428571428571,725.7142857142858 L 771.4285714285713,725.7142857142858 L 942.8571428571428,725.7142857142858 L 599.9999999999999,725.7142857142858zM 599.9999999999999,-97.14285714285714 L 428.57142857142856,-97.14285714285714 L 257.1428571428571,-97.14285714285714 L 257.1428571428571,108.57142857142856 L 85.71428571428571,108.57142857142856 L 85.71428571428571,314.28571428571433 L 257.1428571428571,314.28571428571433 L 428.57142857142856,314.28571428571433 L 599.9999999999999,314.28571428571433 L 85.71428571428571,520.0 L 257.1428571428571,520.0 L 428.57142857142856,520.0 L 599.9999999999999,520.0 L 771.4285714285713,520.0 L 942.8571428571428,520.0 L 1114.2857142857142,520.0 L 1114.2857142857142,314.28571428571433 L 942.8571428571428,314.28571428571433 L 771.4285714285713,314.28571428571433 L 1114.2857142857142,108.57142857142856 L 942.8571428571428,108.57142857142856 L 942.8571428571428,-97.14285714285714 L 771.4285714285713,-97.14285714285714 L 599.9999999999999,-97.14285714285714zz"/>
    <glyph glyph-name="Scedilla" unicode="&#350;" d="M 1114.2857142857142,314.28571428571433 L 1114.2857142857142,108.57142857142856 L 942.8571428571428,108.57142857142856 L 771.4285714285713,108.57142857142856 L 599.9999999999999,108.57142857142856 L 599.9999999999999,-97.14285714285714 L 428.57142857142856,108.57142857142856 L 257.1428571428571,108.57142857142856 L 85.71428571428571,108.57142857142856 L 85.71428571428571,314.28571428571433 L 257.1428571428571,314.28571428571433 L 428.57142857142856,314.28571428571433 L 599.9999999999999,314.28571428571433 L 85.71428571428571,520.0 L 85.71428571428571,725.7142857142858 L 257.1428571428571,725.7142857142858 L 428.57142857142856,725.7142857142858 L 599.9999999999999,725.7142857142858 L 771.4285714285713,725.7142857142858 L 942.8571428571428,725.7142857142858 L 1114.2857142857142,725.7142857142858 L 1114.2857142857142,520.0 L 942.8571428571428,520.0 L 771.4285714285713,520.0 L 599.9999999999999,520.0 L 1114.2857142857142,314.28571428571433zz"/>
    <glyph glyph-name="uni0218" unicode="&#536;" d="M 599.9999999999999,108.57142857142856 L 428.57142857142856,108.57142857142856 L 257.1428571428571,108.57142857142856 L 85.71428571428571,108.57142857142856 L 85.71428571428571,314.28571428571433 L 257.1428571428571,314.28571428571433 L 428.57142857142856,314.28571428571433 L 599.9999999999999,314.28571428571433 L 85.71428571428571,520.0 L 85.71428571428571,725.7142857142858 L 257.1428571428571,725.7142857142858 L 428.57142857142856,725.7142857142858 L 599.9999999999999,725.7142857142858 L 771.4285714285713,725.7142857142858 L 942.8571428571428,725.7142857142858 L 1114.2857142857142,725.7142857142858 L 1114.2857142857142,520.0 L 942.8571428571428,520.0 L 771.4285714285713,520.0 L 599.9999999999999,520.0 L 1114.2857142857142,314.28571428571433 L 1114.2857142857142,108.57142857142856 L 942.8571428571428,108.57142857142856 L 771.4285714285713,108.57142857142856 L 599.9999999999999,108.57142857142856zM 428.57142857142856,-97.14285714285714 L 428.57142857142856,108.57142857142856 L 599.9999999999999,108.57142857142856 L 599.9999999999999,-97.14285714285714 L 428.57142857142856,-97.14285714285714zz"/>
    <glyph glyph-name="uni1E9E" unicode="&#7838;" d="M 771.4285714285713,314.28571428571433 L 942.8571428571428,314.28571428571433 L 1114.2857142857142,314.28571428571433 L 1114.2857142857142,108.57142857142856 L 942.8571428571428,108.57142857142856 L 771.4285714285713,108.57142857142856 L 771.4285714285713,-97.14285714285714 L 599.9999999999999,-97.14285714285714 L 599.9999999999999,108.57142857142856 L 599.9999999999999,314.28571428571433 L 599.9999999999999,520.0 L 428.57142857142856,-97.14285714285714 L 257.1428571428571,-97.14285714285714 L 85.71428571428571,-97.14285714285714 L 85.71428571428571,108.57142857142856 L 85.71428571428571,314.28571428571433 L 85.71428571428571,520.0 L 85.71428571428571,725.7142857142858 L 257.1428571428571,725.7142857142858 L 428.57142857142856,725.7142857142858 L 599.9999999999999,725.7142857142858 L 771.4285714285713,725.7142857142858 L 942.8571428571428,725.7142857142858 L 1114.2857142857142,725.7142857142858 L 1114.2857142857142,520.0 L 771.4285714285713,314.28571428571433zz"/>
    <glyph glyph-name="T" unicode="T" d="M 1114.2857142857142,725.7142857142858 L 1114.2857142857142,520.0 L 1114.2857142857142,314.28571428571433 L 942.8571428571428,314.28571428571433 L 942.8571428571428,108.57142857142856 L 942.8571428571428,-97.14285714285714 L 771.4285714285713,-97.14285714285714 L 599.9999999999999,-97.14285714285714 L 428.57142857142856,-97.14285714285714 L 257.1428571428571,-97.14285714285714 L 257.1428571428571,108.57142857142856 L 257.1428571428571,314.28571428571433 L 85.71428571428571,314.28571428571433 L 85.71428571428571,520.0 L 85.71428571428571,725.7142857142858 L 257.1428571428571,725.7142857142858 L 428.57142857142856,725.7142857142858 L 599.9999999999999,725.7142857142858 L 771.4285714285713,725.7142857142858 L 942.8571428571428,725.7142857142858 L 1114.2857142857142,725.7142857142858zz"/>
    <glyph glyph-name="Tbar" unicode="&#358;" d="M 1114.2857142857142,314.28571428571433 L 942.8571428571428,314.28571428571433 L 942.8571428571428,108.57142857142856 L 942.8571428571428,-97.14285714285714 L 771.4285714285713,-97.14285714285714 L 599.9999999999999,-97.14285714285714 L 428.57142857142856,-97.14285714285714 L 257.1428571428571,-97.14285714285714 L 257.1428571428571,108.57142857142856 L 257.1428571428571,314.28571428571433 L 85.71428571428571,314.28571428571433 L 85.71428571428571,520.0 L 85.71428571428571,725.7142857142858 L 257.1428571428571,725.7142857142858 L 428.57142857142856,725.7142857142858 L 599.9999999999999,725.7142857142858 L 771.4285714285713,725.7142857142858 L 942.8571428571428,725.7142857142858 L 1114.2857142857142,725.7142857142858 L 1114.2857142857142,520.0 L 1114.2857142857142,314.28571428571433zz"/>
    <glyph glyph-name="Tcaron" unicode="&#356;" d="M 942.8571428571428,725.7142857142858 L 771.4285714285713,725.7142857142858 L 599.9999999999999,725.7142857142858 L 428.57142857142856,725.7142857142858 L 257.1428571428571,725.7142857142858 L 942.8571428571428,725.7142857142858zM 1114.2857142857142,520.0 L 1114.2857142857142,314.28571428571433 L 1114.2857142857142,108.57142857142856 L 942.8571428571428,108.57142857142856 L 942.8571428571428,-97.14285714285714 L 771.4285714285713,-97.14285714285714 L 599.9999999999999,-97.14285714285714 L 428.57142857142856,-97.14285714285714 L 257.1428571428571,-97.14285714285714 L 257.1428571428571,108.57142857142856 L 85.71428571428571,108.57142857142856 L 85.71428571428571,314.28571428571433 L 85.71428571428571,520.0 L 257.1428571428571,520.0 L 428.57142857142856,520.0 L 599.9999999999999,520.0 L 771.4285714285713,520.0 L 942.8571428571428,520.0 L 1114.2857142857142,520.0zz"/>
    <glyph glyph-name="uni0162" unicode="&#354;" d="M 1114.2857142857142,725.7142857142858 L 1114.2857142857142,520.0 L 1114.2857142857142,314.28571428571433 L 942.8571428571428,314.28571428571433 L 942.8571428571428,108.57142857142856 L 771.4285714285713,108.57142857142856 L 599.9999999999999,108.57142857142856 L 599.9999999999999,-97.14285714285714 L 428.57142857142856,108.57142857142856 L 257.1428571428571,108.57142857142856 L 257.1428571428571,314.28571428571433 L 85.71428571428571,314.28571428571433 L 85.71428571428571,520.0 L 85.71428571428571,725.7142857142858 L 257.1428571428571,725.7142857142858 L 428.57142857142856,725.7142857142858 L 599.9999999999999,725.7142857142858 L 771.4285714285713,725.7142857142858 L 942.8571428571428,725.7142857142858 L 1114.2857142857142,725.7142857142858zz"/>
    <glyph glyph-name="uni021A" unicode="&#538;" d="M 1114.2857142857142,725.7142857142858 L 1114.2857142857142,520.0 L 1114.2857142857142,314.28571428571433 L 942.8571428571428,314.28571428571433 L 942.8571428571428,108.57142857142856 L 771.4285714285713,108.57142857142856 L 599.9999999999999,108.57142857142856 L 428.57142857142856,108.57142857142856 L 257.1428571428571,108.57142857142856 L 257.1428571428571,314.28571428571433 L 85.71428571428571,314.28571428571433 L 85.71428571428571,520.0 L 85.71428571428571,725.7142857142858 L 257.1428571428571,725.7142857142858 L 428.57142857142856,725.7142857142858 L 599.9999999999999,725.7142857142858 L 771.4285714285713,725.7142857142858 L 942.8571428571428,725.7142857142858 L 1114.2857142857142,725.7142857142858zM 428.57142857142856,108.57142857142856 L 599.9999999999999,108.57142857142856 L 599.9999999999999,-97.14285714285714 L 428.57142857142856,-97.14285714285714 L 428.57142857142856,108.57142857142856zz"/>
    <glyph glyph-name="U" unicode="U" d="M 599.9999999999999,-97.14285714285714 L 428.57142857142856,-97.14285714285714 L 257.1428571428571,-97.14285714285714 L 257.1428571428571,108.57142857142856 L 85.71428571428571,108.57142857142856 L 85.71428571428571,314.28571428571433 L 85.71428571428571,520.0 L 85.71428571428571,725.7142857142858 L 257.1428571428571,725.7142857142858 L 428.57142857142856,725.7142857142858 L 599.9999999999999,725.7142857142858 L 599.9999999999999,520.0 L 599.9999999999999,314.28571428571433 L 771.4285714285713,725.7142857142858 L 942.8571428571428,725.7142857142858 L 1114.2857142857142,725.7142857142858 L 1114.2857142857142,520.0 L 1114.2857142857142,314.28571428571433 L 1114.2857142857142,108.57142857142856 L 942.8571428571428,108.57142857142856 L 942.8571428571428,-97.14285714285714 L 771.4285714285713,-97.14285714285714 L 599.9999999999999,-97.14285714285714zz"/>
    <glyph glyph-name="Uacute" unicode="&#218;" d="M 257.1428571428571,725.7142857142858 L 428.57142857142856,725.7142857142858 L 599.9999999999999,725.7142857142858 L 771.4285714285713,725.7142857142858 L 942.8571428571428,725.7142857142858 L 257.1428571428571,725.7142857142858zM 599.9999999999999,-97.14285714285714 L 428.57142857142856,-97.14285714285714 L 257.1428571428571,-97.14285714285714 L 257.1428571428571,108.57142857142856 L 85.71428571428571,108.57142857142856 L 85.71428571428571,314.28571428571433 L 85.71428571428571,520.0 L 257.1428571428571,520.0 L 428.57142857142856,520.0 L 599.9999999999999,520.0 L 599.9999999999999,314.28571428571433 L 771.4285714285713,520.0 L 942.8571428571428,520.0 L 1114.2857142857142,520.0 L 1114.2857142857142,314.28571428571433 L 1114.2857142857142,108.57142857142856 L 942.8571428571428,108.57142857142856 L 942.8571428571428,-97.14285714285714 L 771.4285714285713,-97.14285714285714 L 599.9999999999999,-97.14285714285714zz"/>
    <glyph glyph-name="Ucircumflex" unicode="&#219;" d="M 257.1428571428571,725.7142857142858 L 428.57142857142856,725.7142857142858 L 599.9999999999999,725.7142857142858 L 771.4285714285713,725.7142857142858 L 942.8571428571428,725.7142857142858 L 257.1428571428571,725.7142857142858zM 599.9999999999999,-97.14285714285714 L 428.57142857142856,-97.14285714285714 L 257.1428571428571,-97.14285714285714 L 257.1428571428571,108.57142857142856 L 85.71428571428571,108.57142857142856 L 85.71428571428571,314.28571428571433 L 85.71428571428571,520.0 L 257.1428571428571,520.0 L 428.57142857142856,520.0 L 599.9999999999999,520.0 L 599.9999999999999,314.28571428571433 L 771.4285714285713,520.0 L 942.8571428571428,520.0 L 1114.2857142857142,520.0 L 1114.2857142857142,314.28571428571433 L 1114.2857142857142,108.57142857142856 L 942.8571428571428,108.57142857142856 L 942.8571428571428,-97.14285714285714 L 771.4285714285713,-97.14285714285714 L 599.9999999999999,-97.14285714285714zz"/>
    <glyph glyph-name="Udieresis" unicode="&#220;" d="M 257.1428571428571,725.7142857142858 L 428.57142857142856,725.7142857142858 L 257.1428571428571,725.7142857142858zM 942.8571428571428,725.7142857142858 L 771.4285714285713,725.7142857142858 L 942.8571428571428,725.7142857142858zM 599.9999999999999,-97.14285714285714 L 428.57142857142856,-97.14285714285714 L 257.1428571428571,-97.14285714285714 L 257.1428571428571,108.57142857142856 L 85.71428571428571,108.57142857142856 L 85.71428571428571,314.28571428571433 L 85.71428571428571,520.0 L 257.1428571428571,520.0 L 428.57142857142856,520.0 L 599.9999999999999,520.0 L 599.9999999999999,314.28571428571433 L 771.4285714285713,520.0 L 942.8571428571428,520.0 L 1114.2857142857142,520.0 L 1114.2857142857142,314.28571428571433 L 1114.2857142857142,108.57142857142856 L 942.8571428571428,108.57142857142856 L 942.8571428571428,-97.14285714285714 L 771.4285714285713,-97.14285714285714 L 599.9999999999999,-97.14285714285714zz"/>
    <glyph glyph-name="Ugrave" unicode="&#217;" d="M 942.8571428571428,725.7142857142858 L 771.4285714285713,725.7142857142858 L 599.9999999999999,725.7142857142858 L 428.57142857142856,725.7142857142858 L 257.1428571428571,725.7142857142858 L 942.8571428571428,725.7142857142858zM 599.9999999999999,-97.14285714285714 L 428.57142857142856,-97.14285714285714 L 257.1428571428571,-97.14285714285714 L 257.1428571428571,108.57142857142856 L 85.71428571428571,108.57142857142856 L 85.71428571428571,314.28571428571433 L 85.71428571428571,520.0 L 257.1428571428571,520.0 L 428.57142857142856,520.0 L 599.9999999999999,520.0 L 599.9999999999999,314.28571428571433 L 771.4285714285713,520.0 L 942.8571428571428,520.0 L 1114.2857142857142,520.0 L 1114.2857142857142,314.28571428571433 L 1114.2857142857142,108.57142857142856 L 942.8571428571428,108.57142857142856 L 942.8571428571428,-97.14285714285714 L 771.4285714285713,-97.14285714285714 L 599.9999999999999,-97.14285714285714zz"/>
    <glyph glyph-name="Uhungarumlaut" unicode="&#368;" d="M 257.1428571428571,725.7142857142858 L 428.57142857142856,725.7142857142858 L 599.9999999999999,725.7142857142858 L 257.1428571428571,725.7142857142858zM 599.9999999999999,725.7142857142858 L 771.4285714285713,725.7142857142858 L 942.8571428571428,725.7142857142858 L 599.9999999999999,725.7142857142858zM 599.9999999999999,-97.14285714285714 L 428.57142857142856,-97.14285714285714 L 257.1428571428571,-97.14285714285714 L 257.1428571428571,108.57142857142856 L 85.71428571428571,108.57142857142856 L 85.71428571428571,314.28571428571433 L 85.71428571428571,520.0 L 257.1428571428571,520.0 L 428.57142857142856,520.0 L 599.9999999999999,520.0 L 599.9999999999999,314.28571428571433 L 771.4285714285713,520.0 L 942.8571428571428,520.0 L 1114.2857142857142,520.0 L 1114.2857142857142,314.28571428571433 L 1114.2857142857142,108.57142857142856 L 942.8571428571428,108.57142857142856 L 942.8571428571428,-97.14285714285714 L 771.4285714285713,-97.14285714285714 L 599.9999999999999,-97.14285714285714zz"/>
    <glyph glyph-name="Umacron" unicode="&#362;" d="M 257.1428571428571,725.7142857142858 L 428.57142857142856,725.7142857142858 L 599.9999999999999,725.7142857142858 L 771.4285714285713,725.7142857142858 L 942.8571428571428,725.7142857142858 L 257.1428571428571,725.7142857142858zM 599.9999999999999,-97.14285714285714 L 428.57142857142856,-97.14285714285714 L 257.1428571428571,-97.14285714285714 L 257.1428571428571,108.57142857142856 L 85.71428571428571,108.57142857142856 L 85.71428571428571,314.28571428571433 L 85.71428571428571,520.0 L 257.1428571428571,520.0 L 428.57142857142856,520.0 L 599.9999999999999,520.0 L 599.9999999999999,314.28571428571433 L 771.4285714285713,520.0 L 942.8571428571428,520.0 L 1114.2857142857142,520.0 L 1114.2857142857142,314.28571428571433 L 1114.2857142857142,108.57142857142856 L 942.8571428571428,108.57142857142856 L 942.8571428571428,-97.14285714285714 L 771.4285714285713,-97.14285714285714 L 599.9999999999999,-97.14285714285714zz"/>
    <glyph glyph-name="Uogonek" unicode="&#370;" d="M 599.9999999999999,725.7142857142858 L 771.4285714285713,725.7142857142858 L 942.8571428571428,725.7142857142858 L 1114.2857142857142,725.7142857142858 L 1114.2857142857142,520.0 L 1114.2857142857142,314.28571428571433 L 1114.2857142857142,108.57142857142856 L 942.8571428571428,108.57142857142856 L 1114.2857142857142,-97.14285714285714 L 942.8571428571428,-97.14285714285714 L 771.4285714285713,108.57142857142856 L 599.9999999999999,108.57142857142856 L 428.57142857142856,108.57142857142856 L 257.1428571428571,108.57142857142856 L 85.71428571428571,108.57142857142856 L 85.71428571428571,314.28571428571433 L 85.71428571428571,520.0 L 85.71428571428571,725.7142857142858 L 257.1428571428571,725.7142857142858 L 428.57142857142856,725.7142857142858 L 599.9999999999999,520.0 L 599.9999999999999,314.28571428571433 L 599.9999999999999,725.7142857142858zz"/>
    <glyph glyph-name="Uring" unicode="&#366;" d="M 599.9999999999999,520.0 L 599.9999999999999,725.7142857142858 L 771.4285714285713,725.7142857142858 L 599.9999999999999,520.0zM 599.9999999999999,725.7142857142858 L 599.9999999999999,725.7142857142858zM 599.9999999999999,-97.14285714285714 L 428.57142857142856,-97.14285714285714 L 257.1428571428571,-97.14285714285714 L 257.1428571428571,108.57142857142856 L 85.71428571428571,108.57142857142856 L 85.71428571428571,314.28571428571433 L 85.71428571428571,520.0 L 257.1428571428571,520.0 L 428.57142857142856,520.0 L 599.9999999999999,520.0 L 599.9999999999999,314.28571428571433 L 771.4285714285713,520.0 L 942.8571428571428,520.0 L 1114.2857142857142,520.0 L 1114.2857142857142,314.28571428571433 L 1114.2857142857142,108.57142857142856 L 942.8571428571428,108.57142857142856 L 942.8571428571428,-97.14285714285714 L 771.4285714285713,-97.14285714285714 L 599.9999999999999,-97.14285714285714zz"/>
    <glyph glyph-name="V" unicode="V" d="M 599.9999999999999,725.7142857142858 L 771.4285714285713,725.7142857142858 L 942.8571428571428,725.7142857142858 L 1114.2857142857142,725.7142857142858 L 1114.2857142857142,520.0 L 1114.2857142857142,314.28571428571433 L 1114.2857142857142,108.57142857142856 L 1114.2857142857142,-97.14285714285714 L 942.8571428571428,-97.14285714285714 L 771.4285714285713,-97.14285714285714 L 599.9999999999999,-97.14285714285714 L 428.57142857142856,-97.14285714285714 L 257.1428571428571,-97.14285714285714 L 85.71428571428571,-97.14285714285714 L 85.71428571428571,108.57142857142856 L 85.71428571428571,314.28571428571433 L 85.71428571428571,520.0 L 85.71428571428571,725.7142857142858 L 257.1428571428571,725.7142857142858 L 428.57142857142856,725.7142857142858 L 599.9999999999999,520.0 L 599.9999999999999,314.28571428571433 L 599.9999999999999,725.7142857142858zz"/>
    <glyph glyph-name="W" unicode="W" d="M 599.9999999999999,725.7142857142858 L 771.4285714285713,725.7142857142858 L 942.8571428571428,725.7142857142858 L 1114.2857142857142,725.7142857142858 L 1114.2857142857142,520.0 L 1114.2857142857142,314.28571428571433 L 1114.2857142857142,108.57142857142856 L 1114.2857142857142,-97.14285714285714 L 942.8571428571428,-97.14285714285714 L 771.4285714285713,-97.14285714285714 L 599.9999999999999,-97.14285714285714 L 599.9999999999999,108.57142857142856 L 599.9999999999999,314.28571428571433 L 599.9999999999999,520.0 L 428.57142857142856,-97.14285714285714 L 257.1428571428571,-97.14285714285714 L 85.71428571428571,-97.14285714285714 L 85.71428571428571,108.57142857142856 L 85.71428571428571,314.28571428571433 L 85.71428571428571,520.0 L 85.71428571428571,725.7142857142858 L 257.1428571428571,725.7142857142858 L 428.57142857142856,725.7142857142858 L 599.9999999999999,725.7142857142858zz"/>
    <glyph glyph-name="Wacute" unicode="&#7810;" d="M 942.8571428571428,725.7142857142858 L 771.4285714285713,725.7142857142858 L 599.9999999999999,725.7142857142858 L 428.57142857142856,725.7142857142858 L 257.1428571428571,725.7142857142858 L 942.8571428571428,725.7142857142858zM 599.9999999999999,520.0 L 771.4285714285713,520.0 L 942.8571428571428,520.0 L 1114.2857142857142,520.0 L 1114.2857142857142,314.28571428571433 L 1114.2857142857142,108.57142857142856 L 1114.2857142857142,-97.14285714285714 L 942.8571428571428,-97.14285714285714 L 771.4285714285713,-97.14285714285714 L 599.9999999999999,-97.14285714285714 L 599.9999999999999,108.57142857142856 L 599.9999999999999,314.28571428571433 L 428.57142857142856,-97.14285714285714 L 257.1428571428571,-97.14285714285714 L 85.71428571428571,-97.14285714285714 L 85.71428571428571,108.57142857142856 L 85.71428571428571,314.28571428571433 L 85.71428571428571,520.0 L 257.1428571428571,520.0 L 428.57142857142856,520.0 L 599.9999999999999,520.0zz"/>
    <glyph glyph-name="Wcircumflex" unicode="&#372;" d="M 942.8571428571428,725.7142857142858 L 771.4285714285713,725.7142857142858 L 599.9999999999999,725.7142857142858 L 428.57142857142856,725.7142857142858 L 257.1428571428571,725.7142857142858 L 942.8571428571428,725.7142857142858zM 599.9999999999999,520.0 L 771.4285714285713,520.0 L 942.8571428571428,520.0 L 1114.2857142857142,520.0 L 1114.2857142857142,314.28571428571433 L 1114.2857142857142,108.57142857142856 L 1114.2857142857142,-97.14285714285714 L 942.8571428571428,-97.14285714285714 L 771.4285714285713,-97.14285714285714 L 599.9999999999999,-97.14285714285714 L 599.9999999999999,108.57142857142856 L 599.9999999999999,314.28571428571433 L 428.57142857142856,-97.14285714285714 L 257.1428571428571,-97.14285714285714 L 85.71428571428571,-97.14285714285714 L 85.71428571428571,108.57142857142856 L 85.71428571428571,314.28571428571433 L 85.71428571428571,520.0 L 257.1428571428571,520.0 L 428.57142857142856,520.0 L 599.9999999999999,520.0zz"/>
    <glyph glyph-name="Wdieresis" unicode="&#7812;" d="M 257.1428571428571,725.7142857142858 L 428.57142857142856,725.7142857142858 L 257.1428571428571,725.7142857142858zM 942.8571428571428,725.7142857142858 L 771.4285714285713,725.7142857142858 L 942.8571428571428,725.7142857142858zM 599.9999999999999,520.0 L 771.4285714285713,520.0 L 942.8571428571428,520.0 L 1114.2857142857142,520.0 L 1114.2857142857142,314.28571428571433 L 1114.2857142857142,108.57142857142856 L 1114.2857142857142,-97.14285714285714 L 942.8571428571428,-97.14285714285714 L 771.4285714285713,-97.14285714285714 L 599.9999999999999,-97.14285714285714 L 599.9999999999999,108.57142857142856 L 599.9999999999999,314.28571428571433 L 428.57142857142856,-97.14285714285714 L 257.1428571428571,-97.14285714285714 L 85.71428571428571,-97.14285714285714 L 85.71428571428571,108.57142857142856 L 85.71428571428571,314.28571428571433 L 85.71428571428571,520.0 L 257.1428571428571,520.0 L 428.57142857142856,520.0 L 599.9999999999999,520.0zz"/>
    <glyph glyph-name="Wgrave" unicode="&#7808;" d="M 942.8571428571428,725.7142857142858 L 771.4285714285713,725.7142857142858 L 599.9999999999999,725.7142857142858 L 428.57142857142856,725.7142857142858 L 257.1428571428571,725.7142857142858 L 942.8571428571428,725.7142857142858zM 599.9999999999999,520.0 L 771.4285714285713,520.0 L 942.8571428571428,520.0 L 1114.2857142857142,520.0 L 1114.2857142857142,314.28571428571433 L 1114.2857142857142,108.57142857142856 L 1114.2857142857142,-97.14285714285714 L 942.8571428571428,-97.14285714285714 L 771.4285714285713,-97.14285714285714 L 599.9999999999999,-97.14285714285714 L 599.9999999999999,108.57142857142856 L 599.9999999999999,314.28571428571433 L 428.57142857142856,-97.14285714285714 L 257.1428571428571,-97.14285714285714 L 85.71428571428571,-97.14285714285714 L 85.71428571428571,108.57142857142856 L 85.71428571428571,314.28571428571433 L 85.71428571428571,520.0 L 257.1428571428571,520.0 L 428.57142857142856,520.0 L 599.9999999999999,520.0zz"/>
    <glyph glyph-name="X" unicode="X" d="M 1114.2857142857142,725.7142857142858 L 1114.2857142857142,520.0 L 1114.2857142857142,314.28571428571433 L 1114.2857142857142,108.57142857142856 L 1114.2857142857142,-97.14285714285714 L 942.8571428571428,-97.14285714285714 L 771.4285714285713,-97.14285714285714 L 599.9999999999999,-97.14285714285714 L 599.9999999999999,108.57142857142856 L 599.9999999999999,314.28571428571433 L 428.57142857142856,-97.14285714285714 L 257.1428571428571,-97.14285714285714 L 85.71428571428571,-97.14285714285714 L 85.71428571428571,108.57142857142856 L 85.71428571428571,314.28571428571433 L 85.71428571428571,520.0 L 85.71428571428571,725.7142857142858 L 257.1428571428571,725.7142857142858 L 428.57142857142856,725.7142857142858 L 599.9999999999999,725.7142857142858 L 599.9999999999999,520.0 L 771.4285714285713,725.7142857142858 L 942.8571428571428,725.7142857142858 L 1114.2857142857142,725.7142857142858zz"/>
    <glyph glyph-name="Y" unicode="Y" d="M 1114.2857142857142,725.7142857142858 L 1114.2857142857142,520.0 L 1114.2857142857142,314.28571428571433 L 942.8571428571428,314.28571428571433 L 942.8571428571428,108.57142857142856 L 942.8571428571428,-97.14285714285714 L 771.4285714285713,-97.14285714285714 L 599.9999999999999,-97.14285714285714 L 428.57142857142856,-97.14285714285714 L 257.1428571428571,-97.14285714285714 L 257.1428571428571,108.57142857142856 L 257.1428571428571,314.28571428571433 L 85.71428571428571,314.28571428571433 L 85.71428571428571,520.0 L 85.71428571428571,725.7142857142858 L 257.1428571428571,725.7142857142858 L 428.57142857142856,725.7142857142858 L 599.9999999999999,725.7142857142858 L 599.9999999999999,520.0 L 599.9999999999999,314.28571428571433 L 771.4285714285713,725.7142857142858 L 942.8571428571428,725.7142857142858 L 1114.2857142857142,725.7142857142858zz"/>
    <glyph glyph-name="Yacute" unicode="&#221;" d="M 942.8571428571428,725.7142857142858 L 771.4285714285713,725.7142857142858 L 599.9999999999999,725.7142857142858 L 428.57142857142856,725.7142857142858 L 257.1428571428571,725.7142857142858 L 942.8571428571428,725.7142857142858zM 1114.2857142857142,520.0 L 1114.2857142857142,314.28571428571433 L 942.8571428571428,314.28571428571433 L 942.8571428571428,108.57142857142856 L 942.8571428571428,-97.14285714285714 L 771.4285714285713,-97.14285714285714 L 599.9999999999999,-97.14285714285714 L 428.57142857142856,-97.14285714285714 L 257.1428571428571,-97.14285714285714 L 257.1428571428571,108.57142857142856 L 257.1428571428571,314.28571428571433 L 85.71428571428571,314.28571428571433 L 85.71428571428571,520.0 L 257.1428571428571,520.0 L 428.57142857142856,520.0 L 599.9999999999999,520.0 L 599.9999999999999,314.28571428571433 L 771.4285714285713,520.0 L 942.8571428571428,520.0 L 1114.2857142857142,520.0zz"/>
    <glyph glyph-name="Ycircumflex" unicode="&#374;" d="M 942.8571428571428,725.7142857142858 L 771.4285714285713,725.7142857142858 L 599.9999999999999,725.7142857142858 L 428.57142857142856,725.7142857142858 L 257.1428571428571,725.7142857142858 L 942.8571428571428,725.7142857142858zM 1114.2857142857142,520.0 L 1114.2857142857142,314.28571428571433 L 942.8571428571428,314.28571428571433 L 942.8571428571428,108.57142857142856 L 942.8571428571428,-97.14285714285714 L 771.4285714285713,-97.14285714285714 L 599.9999999999999,-97.14285714285714 L 428.57142857142856,-97.14285714285714 L 257.1428571428571,-97.14285714285714 L 257.1428571428571,108.57142857142856 L 257.1428571428571,314.28571428571433 L 85.71428571428571,314.28571428571433 L 85.71428571428571,520.0 L 257.1428571428571,520.0 L 428.57142857142856,520.0 L 599.9999999999999,520.0 L 599.9999999999999,314.28571428571433 L 771.4285714285713,520.0 L 942.8571428571428,520.0 L 1114.2857142857142,520.0zz"/>
    <glyph glyph-name="Ydieresis" unicode="&#376;" d="M 257.1428571428571,725.7142857142858 L 428.57142857142856,725.7142857142858 L 257.1428571428571,725.7142857142858zM 942.8571428571428,725.7142857142858 L 771.4285714285713,725.7142857142858 L 942.8571428571428,725.7142857142858zM 1114.2857142857142,520.0 L 1114.2857142857142,314.28571428571433 L 942.8571428571428,314.28571428571433 L 942.8571428571428,108.57142857142856 L 942.8571428571428,-97.14285714285714 L 771.4285714285713,-97.14285714285714 L 599.9999999999999,-97.14285714285714 L 428.57142857142856,-97.14285714285714 L 257.1428571428571,-97.14285714285714 L 257.1428571428571,108.57142857142856 L 257.1428571428571,314.28571428571433 L 85.71428571428571,314.28571428571433 L 85.71428571428571,520.0 L 257.1428571428571,520.0 L 428.57142857142856,520.0 L 599.9999999999999,520.0 L 599.9999999999999,314.28571428571433 L 771.4285714285713,520.0 L 942.8571428571428,520.0 L 1114.2857142857142,520.0zz"/>
    <glyph glyph-name="Ygrave" unicode="&#7922;" d="M 942.8571428571428,725.7142857142858 L 771.4285714285713,725.7142857142858 L 599.9999999999999,725.7142857142858 L 428.57142857142856,725.7142857142858 L 257.1428571428571,725.7142857142858 L 942.8571428571428,725.7142857142858zM 1114.2857142857142,520.0 L 1114.2857142857142,314.28571428571433 L 942.8571428571428,314.28571428571433 L 942.8571428571428,108.57142857142856 L 942.8571428571428,-97.14285714285714 L 771.4285714285713,-97.14285714285714 L 599.9999999999999,-97.14285714285714 L 428.57142857142856,-97.14285714285714 L 257.1428571428571,-97.14285714285714 L 257.1428571428571,108.57142857142856 L 257.1428571428571,314.28571428571433 L 85.71428571428571,314.28571428571433 L 85.71428571428571,520.0 L 257.1428571428571,520.0 L 428.57142857142856,520.0 L 599.9999999999999,520.0 L 599.9999999999999,314.28571428571433 L 771.4285714285713,520.0 L 942.8571428571428,520.0 L 1114.2857142857142,520.0zz"/>
    <glyph glyph-name="Z" unicode="Z" d="M 85.71428571428571,-97.14285714285714 L 85.71428571428571,108.57142857142856 L 85.71428571428571,314.28571428571433 L 257.1428571428571,314.28571428571433 L 428.57142857142856,314.28571428571433 L 599.9999999999999,314.28571428571433 L 599.9999999999999,520.0 L 428.57142857142856,520.0 L 85.71428571428571,520.0 L 85.71428571428571,725.7142857142858 L 257.1428571428571,725.7142857142858 L 428.57142857142856,725.7142857142858 L 599.9999999999999,725.7142857142858 L 771.4285714285713,725.7142857142858 L 942.8571428571428,725.7142857142858 L 1114.2857142857142,725.7142857142858 L 1114.2857142857142,520.0 L 1114.2857142857142,314.28571428571433 L 942.8571428571428,314.28571428571433 L 771.4285714285713,314.28571428571433 L 1114.2857142857142,108.57142857142856 L 1114.2857142857142,-97.14285714285714 L 942.8571428571428,-97.14285714285714 L 771.4285714285713,-97.14285714285714 L 599.9999999999999,-97.14285714285714 L 428.57142857142856,-97.14285714285714 L 257.1428571428571,-97.14285714285714 L 85.71428571428571,-97.14285714285714zz"/>
    <glyph glyph-name="Zacute" unicode="&#377;" d="M 257.1428571428571,725.7142857142858 L 428.57142857142856,725.7142857142858 L 599.9999999999999,725.7142857142858 L 771.4285714285713,725.7142857142858 L 942.8571428571428,725.7142857142858 L 257.1428571428571,725.7142857142858zM 85.71428571428571,-97.14285714285714 L 85.71428571428571,108.57142857142856 L 85.71428571428571,314.28571428571433 L 257.1428571428571,314.28571428571433 L 428.57142857142856,314.28571428571433 L 599.9999999999999,314.28571428571433 L 771.4285714285713,314.28571428571433 L 85.71428571428571,520.0 L 257.1428571428571,520.0 L 428.57142857142856,520.0 L 599.9999999999999,520.0 L 771.4285714285713,520.0 L 942.8571428571428,520.0 L 1114.2857142857142,520.0 L 1114.2857142857142,314.28571428571433 L 942.8571428571428,314.28571428571433 L 1114.2857142857142,108.57142857142856 L 1114.2857142857142,-97.14285714285714 L 942.8571428571428,-97.14285714285714 L 771.4285714285713,-97.14285714285714 L 599.9999999999999,-97.14285714285714 L 428.57142857142856,-97.14285714285714 L 257.1428571428571,-97.14285714285714 L 85.71428571428571,-97.14285714285714zz"/>
    <glyph glyph-name="Zcaron" unicode="&#381;" d="M 599.9999999999999,725.7142857142858 L 428.57142857142856,725.7142857142858 L 257.1428571428571,725.7142857142858 L 771.4285714285713,725.7142857142858 L 942.8571428571428,725.7142857142858 L 599.9999999999999,725.7142857142858zM 85.71428571428571,-97.14285714285714 L 85.71428571428571,108.57142857142856 L 85.71428571428571,314.28571428571433 L 257.1428571428571,314.28571428571433 L 428.57142857142856,314.28571428571433 L 599.9999999999999,314.28571428571433 L 771.4285714285713,314.28571428571433 L 85.71428571428571,520.0 L 257.1428571428571,520.0 L 428.57142857142856,520.0 L 599.9999999999999,520.0 L 771.4285714285713,520.0 L 942.8571428571428,520.0 L 1114.2857142857142,520.0 L 1114.2857142857142,314.28571428571433 L 942.8571428571428,314.28571428571433 L 1114.2857142857142,108.57142857142856 L 1114.2857142857142,-97.14285714285714 L 942.8571428571428,-97.14285714285714 L 771.4285714285713,-97.14285714285714 L 599.9999999999999,-97.14285714285714 L 428.57142857142856,-97.14285714285714 L 257.1428571428571,-97.14285714285714 L 85.71428571428571,-97.14285714285714zz"/>
    <glyph glyph-name="Zdotaccent" unicode="&#379;" d="M 599.9999999999999,725.7142857142858 L 599.9999999999999,725.7142857142858zM 85.71428571428571,-97.14285714285714 L 85.71428571428571,108.57142857142856 L 85.71428571428571,314.28571428571433 L 257.1428571428571,314.28571428571433 L 428.57142857142856,314.28571428571433 L 599.9999999999999,314.28571428571433 L 771.4285714285713,314.28571428571433 L 85.71428571428571,520.0 L 257.1428571428571,520.0 L 428.57142857142856,520.0 L 599.9999999999999,520.0 L 771.4285714285713,520.0 L 942.8571428571428,520.0 L 1114.2857142857142,520.0 L 1114.2857142857142,314.28571428571433 L 942.8571428571428,314.28571428571433 L 1114.2857142857142,108.57142857142856 L 1114.2857142857142,-97.14285714285714 L 942.8571428571428,-97.14285714285714 L 771.4285714285713,-97.14285714285714 L 599.9999999999999,-97.14285714285714 L 428.57142857142856,-97.14285714285714 L 257.1428571428571,-97.14285714285714 L 85.71428571428571,-97.14285714285714zz"/>
    <glyph glyph-name="A.ext-l" d="M 599.9999999999999,-97.14285714285714 L 599.9999999999999,108.57142857142856 L 428.57142857142856,-97.14285714285714 L 257.1428571428571,-97.14285714285714 L 85.71428571428571,-97.14285714285714 L 85.71428571428571,108.57142857142856 L 85.71428571428571,314.28571428571433 L 85.71428571428571,520.0 L 85.71428571428571,725.7142857142858 L 257.1428571428571,725.7142857142858 L 428.57142857142856,725.7142857142858 L 599.9999999999999,725.7142857142858 L 771.4285714285713,725.7142857142858 L 942.8571428571428,725.7142857142858 L 1114.2857142857142,725.7142857142858 L 1114.2857142857142,520.0 L 1114.2857142857142,314.28571428571433 L 1114.2857142857142,108.57142857142856 L 1114.2857142857142,-97.14285714285714 L 942.8571428571428,-97.14285714285714 L 771.4285714285713,-97.14285714285714 L 599.9999999999999,-97.14285714285714zM 599.9999999999999,314.28571428571433 L 599.9999999999999,520.0 L 599.9999999999999,314.28571428571433zz"/>
    <glyph glyph-name="Aacute.ext-l" d="M 942.8571428571428,725.7142857142858 L 771.4285714285713,725.7142857142858 L 599.9999999999999,725.7142857142858 L 428.57142857142856,725.7142857142858 L 257.1428571428571,725.7142857142858 L 942.8571428571428,725.7142857142858zM 599.9999999999999,-97.14285714285714 L 599.9999999999999,108.57142857142856 L 428.57142857142856,-97.14285714285714 L 257.1428571428571,-97.14285714285714 L 85.71428571428571,-97.14285714285714 L 85.71428571428571,108.57142857142856 L 85.71428571428571,314.28571428571433 L 85.71428571428571,520.0 L 257.1428571428571,520.0 L 428.57142857142856,520.0 L 599.9999999999999,520.0 L 771.4285714285713,520.0 L 942.8571428571428,520.0 L 1114.2857142857142,520.0 L 1114.2857142857142,314.28571428571433 L 1114.2857142857142,108.57142857142856 L 1114.2857142857142,-97.14285714285714 L 942.8571428571428,-97.14285714285714 L 771.4285714285713,-97.14285714285714 L 599.9999999999999,-97.14285714285714zM 599.9999999999999,108.57142857142856 L 599.9999999999999,314.28571428571433 L 599.9999999999999,108.57142857142856zz"/>
    <glyph glyph-name="Abreve.ext-l" d="M 599.9999999999999,725.7142857142858 L 428.57142857142856,725.7142857142858 L 257.1428571428571,725.7142857142858 L 771.4285714285713,725.7142857142858 L 942.8571428571428,725.7142857142858 L 599.9999999999999,725.7142857142858zM 599.9999999999999,-97.14285714285714 L 599.9999999999999,108.57142857142856 L 428.57142857142856,-97.14285714285714 L 257.1428571428571,-97.14285714285714 L 85.71428571428571,-97.14285714285714 L 85.71428571428571,108.57142857142856 L 85.71428571428571,314.28571428571433 L 85.71428571428571,520.0 L 257.1428571428571,520.0 L 428.57142857142856,520.0 L 599.9999999999999,520.0 L 771.4285714285713,520.0 L 942.8571428571428,520.0 L 1114.2857142857142,520.0 L 1114.2857142857142,314.28571428571433 L 1114.2857142857142,108.57142857142856 L 1114.2857142857142,-97.14285714285714 L 942.8571428571428,-97.14285714285714 L 771.4285714285713,-97.14285714285714 L 599.9999999999999,-97.14285714285714zM 599.9999999999999,108.57142857142856 L 599.9999999999999,314.28571428571433 L 599.9999999999999,108.57142857142856zz"/>
    <glyph glyph-name="Acircumflex.ext-l" d="M 942.8571428571428,725.7142857142858 L 771.4285714285713,725.7142857142858 L 599.9999999999999,725.7142857142858 L 428.57142857142856,725.7142857142858 L 257.1428571428571,725.7142857142858 L 942.8571428571428,725.7142857142858zM 599.9999999999999,-97.14285714285714 L 599.9999999999999,108.57142857142856 L 428.57142857142856,-97.14285714285714 L 257.1428571428571,-97.14285714285714 L 85.71428571428571,-97.14285714285714 L 85.71428571428571,108.57142857142856 L 85.71428571428571,314.28571428571433 L 85.71428571428571,520.0 L 257.1428571428571,520.0 L 428.57142857142856,520.0 L 599.9999999999999,520.0 L 771.4285714285713,520.0 L 942.8571428571428,520.0 L 1114.2857142857142,520.0 L 1114.2857142857142,314.28571428571433 L 1114.2857142857142,108.57142857142856 L 1114.2857142857142,-97.14285714285714 L 942.8571428571428,-97.14285714285714 L 771.4285714285713,-97.14285714285714 L 599.9999999999999,-97.14285714285714zM 599.9999999999999,108.57142857142856 L 599.9999999999999,314.28571428571433 L 599.9999999999999,108.57142857142856zz"/>
    <glyph glyph-name="Adieresis.ext-l" d="M 257.1428571428571,725.7142857142858 L 257.1428571428571,725.7142857142858zM 942.8571428571428,725.7142857142858 L 771.4285714285713,725.7142857142858 L 942.8571428571428,725.7142857142858zM 599.9999999999999,-97.14285714285714 L 599.9999999999999,108.57142857142856 L 428.57142857142856,-97.14285714285714 L 257.1428571428571,-97.14285714285714 L 85.71428571428571,-97.14285714285714 L 85.71428571428571,108.57142857142856 L 85.71428571428571,314.28571428571433 L 85.71428571428571,520.0 L 257.1428571428571,520.0 L 428.57142857142856,520.0 L 599.9999999999999,520.0 L 771.4285714285713,520.0 L 942.8571428571428,520.0 L 1114.2857142857142,520.0 L 1114.2857142857142,314.28571428571433 L 1114.2857142857142,108.57142857142856 L 1114.2857142857142,-97.14285714285714 L 942.8571428571428,-97.14285714285714 L 771.4285714285713,-97.14285714285714 L 599.9999999999999,-97.14285714285714zM 599.9999999999999,108.57142857142856 L 599.9999999999999,314.28571428571433 L 599.9999999999999,108.57142857142856zz"/>
    <glyph glyph-name="Agrave.ext-l" d="M 942.8571428571428,725.7142857142858 L 771.4285714285713,725.7142857142858 L 599.9999999999999,725.7142857142858 L 428.57142857142856,725.7142857142858 L 257.1428571428571,725.7142857142858 L 942.8571428571428,725.7142857142858zM 599.9999999999999,-97.14285714285714 L 599.9999999999999,108.57142857142856 L 428.57142857142856,-97.14285714285714 L 257.1428571428571,-97.14285714285714 L 85.71428571428571,-97.14285714285714 L 85.71428571428571,108.57142857142856 L 85.71428571428571,314.28571428571433 L 85.71428571428571,520.0 L 257.1428571428571,520.0 L 428.57142857142856,520.0 L 599.9999999999999,520.0 L 771.4285714285713,520.0 L 942.8571428571428,520.0 L 1114.2857142857142,520.0 L 1114.2857142857142,314.28571428571433 L 1114.2857142857142,108.57142857142856 L 1114.2857142857142,-97.14285714285714 L 942.8571428571428,-97.14285714285714 L 771.4285714285713,-97.14285714285714 L 599.9999999999999,-97.14285714285714zM 599.9999999999999,108.57142857142856 L 599.9999999999999,314.28571428571433 L 599.9999999999999,108.57142857142856zz"/>
    <glyph glyph-name="Amacron.ext-l" d="M 942.8571428571428,725.7142857142858 L 771.4285714285713,725.7142857142858 L 599.9999999999999,725.7142857142858 L 428.57142857142856,725.7142857142858 L 257.1428571428571,725.7142857142858 L 942.8571428571428,725.7142857142858zM 599.9999999999999,-97.14285714285714 L 599.9999999999999,108.57142857142856 L 428.57142857142856,-97.14285714285714 L 257.1428571428571,-97.14285714285714 L 85.71428571428571,-97.14285714285714 L 85.71428571428571,108.57142857142856 L 85.71428571428571,314.28571428571433 L 85.71428571428571,520.0 L 257.1428571428571,520.0 L 428.57142857142856,520.0 L 599.9999999999999,520.0 L 771.4285714285713,520.0 L 942.8571428571428,520.0 L 1114.2857142857142,520.0 L 1114.2857142857142,314.28571428571433 L 1114.2857142857142,108.57142857142856 L 1114.2857142857142,-97.14285714285714 L 942.8571428571428,-97.14285714285714 L 771.4285714285713,-97.14285714285714 L 599.9999999999999,-97.14285714285714zM 599.9999999999999,108.57142857142856 L 599.9999999999999,314.28571428571433 L 599.9999999999999,108.57142857142856zz"/>
    <glyph glyph-name="Aogonek.ext-l" d="M 1114.2857142857142,108.57142857142856 L 1114.2857142857142,-97.14285714285714 L 942.8571428571428,108.57142857142856 L 771.4285714285713,108.57142857142856 L 599.9999999999999,108.57142857142856 L 599.9999999999999,314.28571428571433 L 428.57142857142856,108.57142857142856 L 257.1428571428571,108.57142857142856 L 85.71428571428571,108.57142857142856 L 85.71428571428571,314.28571428571433 L 85.71428571428571,520.0 L 85.71428571428571,725.7142857142858 L 257.1428571428571,725.7142857142858 L 428.57142857142856,725.7142857142858 L 599.9999999999999,725.7142857142858 L 771.4285714285713,725.7142857142858 L 942.8571428571428,725.7142857142858 L 1114.2857142857142,725.7142857142858 L 1114.2857142857142,520.0 L 1114.2857142857142,314.28571428571433 L 1114.2857142857142,108.57142857142856zM 599.9999999999999,314.28571428571433 L 599.9999999999999,520.0 L 599.9999999999999,314.28571428571433zz"/>
    <glyph glyph-name="Aring.ext-l" d="M 599.9999999999999,520.0 L 428.57142857142856,520.0 L 428.57142857142856,725.7142857142858 L 599.9999999999999,725.7142857142858 L 599.9999999999999,520.0zM 599.9999999999999,725.7142857142858 L 599.9999999999999,725.7142857142858zM 599.9999999999999,-97.14285714285714 L 599.9999999999999,108.57142857142856 L 428.57142857142856,-97.14285714285714 L 257.1428571428571,-97.14285714285714 L 85.71428571428571,-97.14285714285714 L 85.71428571428571,108.57142857142856 L 85.71428571428571,314.28571428571433 L 85.71428571428571,520.0 L 257.1428571428571,520.0 L 428.57142857142856,520.0 L 599.9999999999999,520.0 L 771.4285714285713,520.0 L 942.8571428571428,520.0 L 1114.2857142857142,520.0 L 1114.2857142857142,314.28571428571433 L 1114.2857142857142,108.57142857142856 L 1114.2857142857142,-97.14285714285714 L 942.8571428571428,-97.14285714285714 L 771.4285714285713,-97.14285714285714 L 599.9999999999999,-97.14285714285714zM 599.9999999999999,108.57142857142856 L 599.9999999999999,314.28571428571433 L 599.9999999999999,108.57142857142856zz"/>
    <glyph glyph-name="Atilde.ext-l" d="M 428.57142857142856,725.7142857142858 L 257.1428571428571,725.7142857142858 L 599.9999999999999,725.7142857142858 L 771.4285714285713,725.7142857142858 L 942.8571428571428,725.7142857142858 L 428.57142857142856,725.7142857142858zM 599.9999999999999,-97.14285714285714 L 599.9999999999999,108.57142857142856 L 428.57142857142856,-97.14285714285714 L 257.1428571428571,-97.14285714285714 L 85.71428571428571,-97.14285714285714 L 85.71428571428571,108.57142857142856 L 85.71428571428571,314.28571428571433 L 85.71428571428571,520.0 L 257.1428571428571,520.0 L 428.57142857142856,520.0 L 599.9999999999999,520.0 L 771.4285714285713,520.0 L 942.8571428571428,520.0 L 1114.2857142857142,520.0 L 1114.2857142857142,314.28571428571433 L 1114.2857142857142,108.57142857142856 L 1114.2857142857142,-97.14285714285714 L 942.8571428571428,-97.14285714285714 L 771.4285714285713,-97.14285714285714 L 599.9999999999999,-97.14285714285714zM 599.9999999999999,108.57142857142856 L 599.9999999999999,314.28571428571433 L 599.9999999999999,108.57142857142856zz"/>
    <glyph glyph-name="AE.ext-l" d="M 1114.2857142857142,520.0 L 942.8571428571428,520.0 L 942.8571428571428,314.28571428571433 L 1114.2857142857142,314.28571428571433 L 1114.2857142857142,108.57142857142856 L 1114.2857142857142,-97.14285714285714 L 942.8571428571428,-97.14285714285714 L 771.4285714285713,-97.14285714285714 L 599.9999999999999,-97.14285714285714 L 599.9999999999999,108.57142857142856 L 428.57142857142856,108.57142857142856 L 428.57142857142856,-97.14285714285714 L 257.1428571428571,-97.14285714285714 L 85.71428571428571,-97.14285714285714 L 85.71428571428571,108.57142857142856 L 85.71428571428571,314.28571428571433 L 85.71428571428571,520.0 L 85.71428571428571,725.7142857142858 L 257.1428571428571,725.7142857142858 L 428.57142857142856,725.7142857142858 L 599.9999999999999,725.7142857142858 L 771.4285714285713,725.7142857142858 L 942.8571428571428,725.7142857142858 L 1114.2857142857142,725.7142857142858 L 1114.2857142857142,520.0zM 428.57142857142856,314.28571428571433 L 599.9999999999999,314.28571428571433 L 599.9999999999999,520.0 L 428.57142857142856,314.28571428571433zz"/>
    <glyph glyph-name="M.ext-l" d="M 1114.2857142857142,-97.14285714285714 L 942.8571428571428,-97.14285714285714 L 771.4285714285713,-97.14285714285714 L 599.9999999999999,-97.14285714285714 L 599.9999999999999,108.57142857142856 L 599.9999999999999,314.28571428571433 L 599.9999999999999,520.0 L 428.57142857142856,-97.14285714285714 L 257.1428571428571,-97.14285714285714 L 85.71428571428571,-97.14285714285714 L 85.71428571428571,108.57142857142856 L 85.71428571428571,314.28571428571433 L 85.71428571428571,520.0 L 85.71428571428571,725.7142857142858 L 257.1428571428571,725.7142857142858 L 428.57142857142856,725.7142857142858 L 599.9999999999999,725.7142857142858 L 771.4285714285713,725.7142857142858 L 942.8571428571428,725.7142857142858 L 1114.2857142857142,725.7142857142858 L 1114.2857142857142,520.0 L 1114.2857142857142,314.28571428571433 L 1114.2857142857142,108.57142857142856 L 1114.2857142857142,-97.14285714285714zz"/>
    <glyph glyph-name="V.ext-l" d="M 599.9999999999999,725.7142857142858 L 771.4285714285713,725.7142857142858 L 942.8571428571428,725.7142857142858 L 1114.2857142857142,725.7142857142858 L 1114.2857142857142,520.0 L 1114.2857142857142,314.28571428571433 L 1114.2857142857142,108.57142857142856 L 1114.2857142857142,-97.14285714285714 L 942.8571428571428,-97.14285714285714 L 771.4285714285713,-97.14285714285714 L 599.9999999999999,-97.14285714285714 L 428.57142857142856,-97.14285714285714 L 257.1428571428571,-97.14285714285714 L 85.71428571428571,-97.14285714285714 L 85.71428571428571,108.57142857142856 L 85.71428571428571,314.28571428571433 L 85.71428571428571,520.0 L 85.71428571428571,725.7142857142858 L 257.1428571428571,725.7142857142858 L 428.57142857142856,725.7142857142858 L 599.9999999999999,520.0 L 599.9999999999999,314.28571428571433 L 599.9999999999999,725.7142857142858zz"/>
    <glyph glyph-name="W.ext-l" d="M 599.9999999999999,725.7142857142858 L 771.4285714285713,725.7142857142858 L 942.8571428571428,725.7142857142858 L 1114.2857142857142,725.7142857142858 L 1114.2857142857142,520.0 L 1114.2857142857142,314.28571428571433 L 1114.2857142857142,108.57142857142856 L 1114.2857142857142,-97.14285714285714 L 942.8571428571428,-97.14285714285714 L 771.4285714285713,-97.14285714285714 L 599.9999999999999,-97.14285714285714 L 599.9999999999999,108.57142857142856 L 599.9999999999999,314.28571428571433 L 599.9999999999999,520.0 L 428.57142857142856,-97.14285714285714 L 257.1428571428571,-97.14285714285714 L 85.71428571428571,-97.14285714285714 L 85.71428571428571,108.57142857142856 L 85.71428571428571,314.28571428571433 L 85.71428571428571,520.0 L 85.71428571428571,725.7142857142858 L 257.1428571428571,725.7142857142858 L 428.57142857142856,725.7142857142858 L 599.9999999999999,725.7142857142858zz"/>
    <glyph glyph-name="X.ext-l" d="M 1114.2857142857142,725.7142857142858 L 1114.2857142857142,520.0 L 1114.2857142857142,314.28571428571433 L 1114.2857142857142,108.57142857142856 L 1114.2857142857142,-97.14285714285714 L 942.8571428571428,-97.14285714285714 L 771.4285714285713,-97.14285714285714 L 599.9999999999999,-97.14285714285714 L 599.9999999999999,108.57142857142856 L 599.9999999999999,314.28571428571433 L 428.57142857142856,-97.14285714285714 L 257.1428571428571,-97.14285714285714 L 85.71428571428571,-97.14285714285714 L 85.71428571428571,108.57142857142856 L 85.71428571428571,314.28571428571433 L 85.71428571428571,520.0 L 85.71428571428571,725.7142857142858 L 257.1428571428571,725.7142857142858 L 428.57142857142856,725.7142857142858 L 599.9999999999999,725.7142857142858 L 599.9999999999999,520.0 L 771.4285714285713,725.7142857142858 L 942.8571428571428,725.7142857142858 L 1114.2857142857142,725.7142857142858zz"/>
    <glyph glyph-name="Y.ext-l" d="M 1114.2857142857142,725.7142857142858 L 1114.2857142857142,520.0 L 1114.2857142857142,314.28571428571433 L 942.8571428571428,314.28571428571433 L 942.8571428571428,108.57142857142856 L 942.8571428571428,-97.14285714285714 L 771.4285714285713,-97.14285714285714 L 599.9999999999999,-97.14285714285714 L 428.57142857142856,-97.14285714285714 L 257.1428571428571,-97.14285714285714 L 257.1428571428571,108.57142857142856 L 257.1428571428571,314.28571428571433 L 85.71428571428571,314.28571428571433 L 85.71428571428571,520.0 L 85.71428571428571,725.7142857142858 L 257.1428571428571,725.7142857142858 L 428.57142857142856,725.7142857142858 L 599.9999999999999,725.7142857142858 L 599.9999999999999,520.0 L 599.9999999999999,314.28571428571433 L 771.4285714285713,725.7142857142858 L 942.8571428571428,725.7142857142858 L 1114.2857142857142,725.7142857142858zz"/>
    <glyph glyph-name="Yacute.ext-l" d="M 942.8571428571428,725.7142857142858 L 771.4285714285713,725.7142857142858 L 599.9999999999999,725.7142857142858 L 428.57142857142856,725.7142857142858 L 257.1428571428571,725.7142857142858 L 942.8571428571428,725.7142857142858zM 1114.2857142857142,520.0 L 1114.2857142857142,314.28571428571433 L 942.8571428571428,314.28571428571433 L 942.8571428571428,108.57142857142856 L 942.8571428571428,-97.14285714285714 L 771.4285714285713,-97.14285714285714 L 599.9999999999999,-97.14285714285714 L 428.57142857142856,-97.14285714285714 L 257.1428571428571,-97.14285714285714 L 257.1428571428571,108.57142857142856 L 257.1428571428571,314.28571428571433 L 85.71428571428571,314.28571428571433 L 85.71428571428571,520.0 L 257.1428571428571,520.0 L 428.57142857142856,520.0 L 599.9999999999999,520.0 L 599.9999999999999,314.28571428571433 L 771.4285714285713,520.0 L 942.8571428571428,520.0 L 1114.2857142857142,520.0zz"/>
    <glyph glyph-name="Ycircumflex.ext-l" d="M 942.8571428571428,725.7142857142858 L 771.4285714285713,725.7142857142858 L 599.9999999999999,725.7142857142858 L 428.57142857142856,725.7142857142858 L 257.1428571428571,725.7142857142858 L 942.8571428571428,725.7142857142858zM 1114.2857142857142,520.0 L 1114.2857142857142,314.28571428571433 L 942.8571428571428,314.28571428571433 L 942.8571428571428,108.57142857142856 L 942.8571428571428,-97.14285714285714 L 771.4285714285713,-97.14285714285714 L 599.9999999999999,-97.14285714285714 L 428.57142857142856,-97.14285714285714 L 257.1428571428571,-97.14285714285714 L 257.1428571428571,108.57142857142856 L 257.1428571428571,314.28571428571433 L 85.71428571428571,314.28571428571433 L 85.71428571428571,520.0 L 257.1428571428571,520.0 L 428.57142857142856,520.0 L 599.9999999999999,520.0 L 599.9999999999999,314.28571428571433 L 771.4285714285713,520.0 L 942.8571428571428,520.0 L 1114.2857142857142,520.0zz"/>
    <glyph glyph-name="Ydieresis.ext-l" d="M 257.1428571428571,725.7142857142858 L 257.1428571428571,725.7142857142858zM 942.8571428571428,725.7142857142858 L 771.4285714285713,725.7142857142858 L 942.8571428571428,725.7142857142858zM 1114.2857142857142,520.0 L 1114.2857142857142,314.28571428571433 L 942.8571428571428,314.28571428571433 L 942.8571428571428,108.57142857142856 L 942.8571428571428,-97.14285714285714 L 771.4285714285713,-97.14285714285714 L 599.9999999999999,-97.14285714285714 L 428.57142857142856,-97.14285714285714 L 257.1428571428571,-97.14285714285714 L 257.1428571428571,108.57142857142856 L 257.1428571428571,314.28571428571433 L 85.71428571428571,314.28571428571433 L 85.71428571428571,520.0 L 257.1428571428571,520.0 L 428.57142857142856,520.0 L 599.9999999999999,520.0 L 599.9999999999999,314.28571428571433 L 771.4285714285713,520.0 L 942.8571428571428,520.0 L 1114.2857142857142,520.0zz"/>
    <glyph glyph-name="Ygrave.ext-l" d="M 942.8571428571428,725.7142857142858 L 771.4285714285713,725.7142857142858 L 599.9999999999999,725.7142857142858 L 428.57142857142856,725.7142857142858 L 257.1428571428571,725.7142857142858 L 942.8571428571428,725.7142857142858zM 1114.2857142857142,520.0 L 1114.2857142857142,314.28571428571433 L 942.8571428571428,314.28571428571433 L 942.8571428571428,108.57142857142856 L 942.8571428571428,-97.14285714285714 L 771.4285714285713,-97.14285714285714 L 599.9999999999999,-97.14285714285714 L 428.57142857142856,-97.14285714285714 L 257.1428571428571,-97.14285714285714 L 257.1428571428571,108.57142857142856 L 257.1428571428571,314.28571428571433 L 85.71428571428571,314.28571428571433 L 85.71428571428571,520.0 L 257.1428571428571,520.0 L 428.57142857142856,520.0 L 599.9999999999999,520.0 L 599.9999999999999,314.28571428571433 L 771.4285714285713,520.0 L 942.8571428571428,520.0 L 1114.2857142857142,520.0zz"/>
    <glyph glyph-name="A.ext-lr" d="M 599.9999999999999,-97.14285714285714 L 599.9999999999999,108.57142857142856 L 428.57142857142856,-97.14285714285714 L 257.1428571428571,-97.14285714285714 L 85.71428571428571,-97.14285714285714 L 85.71428571428571,108.57142857142856 L 85.71428571428571,314.28571428571433 L 85.71428571428571,520.0 L 85.71428571428571,725.7142857142858 L 257.1428571428571,725.7142857142858 L 428.57142857142856,725.7142857142858 L 599.9999999999999,725.7142857142858 L 771.4285714285713,725.7142857142858 L 942.8571428571428,725.7142857142858 L 1114.2857142857142,725.7142857142858 L 1114.2857142857142,520.0 L 1114.2857142857142,314.28571428571433 L 1114.2857142857142,108.57142857142856 L 1114.2857142857142,-97.14285714285714 L 942.8571428571428,-97.14285714285714 L 771.4285714285713,-97.14285714285714 L 599.9999999999999,-97.14285714285714zM 599.9999999999999,314.28571428571433 L 599.9999999999999,520.0 L 599.9999999999999,314.28571428571433zz"/>
    <glyph glyph-name="Aacute.ext-lr" d="M 942.8571428571428,725.7142857142858 L 771.4285714285713,725.7142857142858 L 599.9999999999999,725.7142857142858 L 428.57142857142856,725.7142857142858 L 257.1428571428571,725.7142857142858 L 942.8571428571428,725.7142857142858zM 599.9999999999999,-97.14285714285714 L 599.9999999999999,108.57142857142856 L 428.57142857142856,-97.14285714285714 L 257.1428571428571,-97.14285714285714 L 85.71428571428571,-97.14285714285714 L 85.71428571428571,108.57142857142856 L 85.71428571428571,314.28571428571433 L 85.71428571428571,520.0 L 257.1428571428571,520.0 L 428.57142857142856,520.0 L 599.9999999999999,520.0 L 771.4285714285713,520.0 L 942.8571428571428,520.0 L 1114.2857142857142,520.0 L 1114.2857142857142,314.28571428571433 L 1114.2857142857142,108.57142857142856 L 1114.2857142857142,-97.14285714285714 L 942.8571428571428,-97.14285714285714 L 771.4285714285713,-97.14285714285714 L 599.9999999999999,-97.14285714285714zM 599.9999999999999,108.57142857142856 L 599.9999999999999,314.28571428571433 L 599.9999999999999,108.57142857142856zz"/>
    <glyph glyph-name="Abreve.ext-lr" d="M 599.9999999999999,725.7142857142858 L 428.57142857142856,725.7142857142858 L 257.1428571428571,725.7142857142858 L 771.4285714285713,725.7142857142858 L 942.8571428571428,725.7142857142858 L 599.9999999999999,725.7142857142858zM 599.9999999999999,-97.14285714285714 L 599.9999999999999,108.57142857142856 L 428.57142857142856,-97.14285714285714 L 257.1428571428571,-97.14285714285714 L 85.71428571428571,-97.14285714285714 L 85.71428571428571,108.57142857142856 L 85.71428571428571,314.28571428571433 L 85.71428571428571,520.0 L 257.1428571428571,520.0 L 428.57142857142856,520.0 L 599.9999999999999,520.0 L 771.4285714285713,520.0 L 942.8571428571428,520.0 L 1114.2857142857142,520.0 L 1114.2857142857142,314.28571428571433 L 1114.2857142857142,108.57142857142856 L 1114.2857142857142,-97.14285714285714 L 942.8571428571428,-97.14285714285714 L 771.4285714285713,-97.14285714285714 L 599.9999999999999,-97.14285714285714zM 599.9999999999999,108.57142857142856 L 599.9999999999999,314.28571428571433 L 599.9999999999999,108.57142857142856zz"/>
    <glyph glyph-name="Acircumflex.ext-lr" d="M 942.8571428571428,725.7142857142858 L 771.4285714285713,725.7142857142858 L 599.9999999999999,725.7142857142858 L 428.57142857142856,725.7142857142858 L 257.1428571428571,725.7142857142858 L 942.8571428571428,725.7142857142858zM 599.9999999999999,-97.14285714285714 L 599.9999999999999,108.57142857142856 L 428.57142857142856,-97.14285714285714 L 257.1428571428571,-97.14285714285714 L 85.71428571428571,-97.14285714285714 L 85.71428571428571,108.57142857142856 L 85.71428571428571,314.28571428571433 L 85.71428571428571,520.0 L 257.1428571428571,520.0 L 428.57142857142856,520.0 L 599.9999999999999,520.0 L 771.4285714285713,520.0 L 942.8571428571428,520.0 L 1114.2857142857142,520.0 L 1114.2857142857142,314.28571428571433 L 1114.2857142857142,108.57142857142856 L 1114.2857142857142,-97.14285714285714 L 942.8571428571428,-97.14285714285714 L 771.4285714285713,-97.14285714285714 L 599.9999999999999,-97.14285714285714zM 599.9999999999999,108.57142857142856 L 599.9999999999999,314.28571428571433 L 599.9999999999999,108.57142857142856zz"/>
    <glyph glyph-name="Adieresis.ext-lr" d="M 257.1428571428571,725.7142857142858 L 428.57142857142856,725.7142857142858 L 257.1428571428571,725.7142857142858zM 942.8571428571428,725.7142857142858 L 771.4285714285713,725.7142857142858 L 942.8571428571428,725.7142857142858zM 599.9999999999999,-97.14285714285714 L 599.9999999999999,108.57142857142856 L 428.57142857142856,-97.14285714285714 L 257.1428571428571,-97.14285714285714 L 85.71428571428571,-97.14285714285714 L 85.71428571428571,108.57142857142856 L 85.71428571428571,314.28571428571433 L 85.71428571428571,520.0 L 257.1428571428571,520.0 L 428.57142857142856,520.0 L 599.9999999999999,520.0 L 771.4285714285713,520.0 L 942.8571428571428,520.0 L 1114.2857142857142,520.0 L 1114.2857142857142,314.28571428571433 L 1114.2857142857142,108.57142857142856 L 1114.2857142857142,-97.14285714285714 L 942.8571428571428,-97.14285714285714 L 771.4285714285713,-97.14285714285714 L 599.9999999999999,-97.14285714285714zM 599.9999999999999,108.57142857142856 L 599.9999999999999,314.28571428571433 L 599.9999999999999,108.57142857142856zz"/>
    <glyph glyph-name="Agrave.ext-lr" d="M 942.8571428571428,725.7142857142858 L 771.4285714285713,725.7142857142858 L 599.9999999999999,725.7142857142858 L 428.57142857142856,725.7142857142858 L 257.1428571428571,725.7142857142858 L 942.8571428571428,725.7142857142858zM 599.9999999999999,-97.14285714285714 L 599.9999999999999,108.57142857142856 L 428.57142857142856,-97.14285714285714 L 257.1428571428571,-97.14285714285714 L 85.71428571428571,-97.14285714285714 L 85.71428571428571,108.57142857142856 L 85.71428571428571,314.28571428571433 L 85.71428571428571,520.0 L 257.1428571428571,520.0 L 428.57142857142856,520.0 L 599.9999999999999,520.0 L 771.4285714285713,520.0 L 942.8571428571428,520.0 L 1114.2857142857142,520.0 L 1114.2857142857142,314.28571428571433 L 1114.2857142857142,108.57142857142856 L 1114.2857142857142,-97.14285714285714 L 942.8571428571428,-97.14285714285714 L 771.4285714285713,-97.14285714285714 L 599.9999999999999,-97.14285714285714zM 599.9999999999999,108.57142857142856 L 599.9999999999999,314.28571428571433 L 599.9999999999999,108.57142857142856zz"/>
    <glyph glyph-name="Amacron.ext-lr" d="M 942.8571428571428,725.7142857142858 L 771.4285714285713,725.7142857142858 L 599.9999999999999,725.7142857142858 L 428.57142857142856,725.7142857142858 L 257.1428571428571,725.7142857142858 L 942.8571428571428,725.7142857142858zM 599.9999999999999,-97.14285714285714 L 599.9999999999999,108.57142857142856 L 428.57142857142856,-97.14285714285714 L 257.1428571428571,-97.14285714285714 L 85.71428571428571,-97.14285714285714 L 85.71428571428571,108.57142857142856 L 85.71428571428571,314.28571428571433 L 85.71428571428571,520.0 L 257.1428571428571,520.0 L 428.57142857142856,520.0 L 599.9999999999999,520.0 L 771.4285714285713,520.0 L 942.8571428571428,520.0 L 1114.2857142857142,520.0 L 1114.2857142857142,314.28571428571433 L 1114.2857142857142,108.57142857142856 L 1114.2857142857142,-97.14285714285714 L 942.8571428571428,-97.14285714285714 L 771.4285714285713,-97.14285714285714 L 599.9999999999999,-97.14285714285714zM 599.9999999999999,108.57142857142856 L 599.9999999999999,314.28571428571433 L 599.9999999999999,108.57142857142856zz"/>
    <glyph glyph-name="Aogonek.ext-lr" d="M 1114.2857142857142,108.57142857142856 L 1114.2857142857142,-97.14285714285714 L 942.8571428571428,108.57142857142856 L 771.4285714285713,108.57142857142856 L 599.9999999999999,108.57142857142856 L 599.9999999999999,314.28571428571433 L 428.57142857142856,108.57142857142856 L 257.1428571428571,108.57142857142856 L 85.71428571428571,108.57142857142856 L 85.71428571428571,314.28571428571433 L 85.71428571428571,520.0 L 85.71428571428571,725.7142857142858 L 257.1428571428571,725.7142857142858 L 428.57142857142856,725.7142857142858 L 599.9999999999999,725.7142857142858 L 771.4285714285713,725.7142857142858 L 942.8571428571428,725.7142857142858 L 1114.2857142857142,725.7142857142858 L 1114.2857142857142,520.0 L 1114.2857142857142,314.28571428571433 L 1114.2857142857142,108.57142857142856zM 599.9999999999999,314.28571428571433 L 599.9999999999999,520.0 L 599.9999999999999,314.28571428571433zz"/>
    <glyph glyph-name="Aring.ext-lr" d="M 599.9999999999999,520.0 L 599.9999999999999,725.7142857142858 L 771.4285714285713,725.7142857142858 L 599.9999999999999,520.0zM 599.9999999999999,725.7142857142858 L 599.9999999999999,725.7142857142858zM 599.9999999999999,-97.14285714285714 L 599.9999999999999,108.57142857142856 L 428.57142857142856,-97.14285714285714 L 257.1428571428571,-97.14285714285714 L 85.71428571428571,-97.14285714285714 L 85.71428571428571,108.57142857142856 L 85.71428571428571,314.28571428571433 L 85.71428571428571,520.0 L 257.1428571428571,520.0 L 428.57142857142856,520.0 L 599.9999999999999,520.0 L 771.4285714285713,520.0 L 942.8571428571428,520.0 L 1114.2857142857142,520.0 L 1114.2857142857142,314.28571428571433 L 1114.2857142857142,108.57142857142856 L 1114.2857142857142,-97.14285714285714 L 942.8571428571428,-97.14285714285714 L 771.4285714285713,-97.14285714285714 L 599.9999999999999,-97.14285714285714zM 599.9999999999999,108.57142857142856 L 599.9999999999999,314.28571428571433 L 599.9999999999999,108.57142857142856zz"/>
    <glyph glyph-name="Atilde.ext-lr" d="M 428.57142857142856,725.7142857142858 L 257.1428571428571,725.7142857142858 L 599.9999999999999,725.7142857142858 L 771.4285714285713,725.7142857142858 L 942.8571428571428,725.7142857142858 L 428.57142857142856,725.7142857142858zM 599.9999999999999,-97.14285714285714 L 599.9999999999999,108.57142857142856 L 428.57142857142856,-97.14285714285714 L 257.1428571428571,-97.14285714285714 L 85.71428571428571,-97.14285714285714 L 85.71428571428571,108.57142857142856 L 85.71428571428571,314.28571428571433 L 85.71428571428571,520.0 L 257.1428571428571,520.0 L 428.57142857142856,520.0 L 599.9999999999999,520.0 L 771.4285714285713,520.0 L 942.8571428571428,520.0 L 1114.2857142857142,520.0 L 1114.2857142857142,314.28571428571433 L 1114.2857142857142,108.57142857142856 L 1114.2857142857142,-97.14285714285714 L 942.8571428571428,-97.14285714285714 L 771.4285714285713,-97.14285714285714 L 599.9999999999999,-97.14285714285714zM 599.9999999999999,108.57142857142856 L 599.9999999999999,314.28571428571433 L 599.9999999999999,108.57142857142856zz"/>
    <glyph glyph-name="M.ext-lr" d="M 1114.2857142857142,-97.14285714285714 L 942.8571428571428,-97.14285714285714 L 771.4285714285713,-97.14285714285714 L 599.9999999999999,-97.14285714285714 L 599.9999999999999,108.57142857142856 L 599.9999999999999,314.28571428571433 L 599.9999999999999,520.0 L 428.57142857142856,-97.14285714285714 L 257.1428571428571,-97.14285714285714 L 85.71428571428571,-97.14285714285714 L 85.71428571428571,108.57142857142856 L 85.71428571428571,314.28571428571433 L 85.71428571428571,520.0 L 85.71428571428571,725.7142857142858 L 257.1428571428571,725.7142857142858 L 428.57142857142856,725.7142857142858 L 599.9999999999999,725.7142857142858 L 771.4285714285713,725.7142857142858 L 942.8571428571428,725.7142857142858 L 1114.2857142857142,725.7142857142858 L 1114.2857142857142,520.0 L 1114.2857142857142,314.28571428571433 L 1114.2857142857142,108.57142857142856 L 1114.2857142857142,-97.14285714285714zz"/>
    <glyph glyph-name="V.ext-lr" d="M 599.9999999999999,725.7142857142858 L 771.4285714285713,725.7142857142858 L 942.8571428571428,725.7142857142858 L 1114.2857142857142,725.7142857142858 L 1114.2857142857142,520.0 L 1114.2857142857142,314.28571428571433 L 1114.2857142857142,108.57142857142856 L 1114.2857142857142,-97.14285714285714 L 942.8571428571428,-97.14285714285714 L 771.4285714285713,-97.14285714285714 L 599.9999999999999,-97.14285714285714 L 428.57142857142856,-97.14285714285714 L 257.1428571428571,-97.14285714285714 L 85.71428571428571,-97.14285714285714 L 85.71428571428571,108.57142857142856 L 85.71428571428571,314.28571428571433 L 85.71428571428571,520.0 L 85.71428571428571,725.7142857142858 L 257.1428571428571,725.7142857142858 L 428.57142857142856,725.7142857142858 L 599.9999999999999,520.0 L 599.9999999999999,314.28571428571433 L 599.9999999999999,725.7142857142858zz"/>
    <glyph glyph-name="W.ext-lr" d="M 599.9999999999999,725.7142857142858 L 771.4285714285713,725.7142857142858 L 942.8571428571428,725.7142857142858 L 1114.2857142857142,725.7142857142858 L 1114.2857142857142,520.0 L 1114.2857142857142,314.28571428571433 L 1114.2857142857142,108.57142857142856 L 1114.2857142857142,-97.14285714285714 L 942.8571428571428,-97.14285714285714 L 771.4285714285713,-97.14285714285714 L 599.9999999999999,-97.14285714285714 L 599.9999999999999,108.57142857142856 L 599.9999999999999,314.28571428571433 L 599.9999999999999,520.0 L 428.57142857142856,-97.14285714285714 L 257.1428571428571,-97.14285714285714 L 85.71428571428571,-97.14285714285714 L 85.71428571428571,108.57142857142856 L 85.71428571428571,314.28571428571433 L 85.71428571428571,520.0 L 85.71428571428571,725.7142857142858 L 257.1428571428571,725.7142857142858 L 428.57142857142856,725.7142857142858 L 599.9999999999999,725.7142857142858zz"/>
    <glyph glyph-name="X.ext-lr" d="M 1114.2857142857142,725.7142857142858 L 1114.2857142857142,520.0 L 1114.2857142857142,314.28571428571433 L 1114.2857142857142,108.57142857142856 L 1114.2857142857142,-97.14285714285714 L 942.8571428571428,-97.14285714285714 L 771.4285714285713,-97.14285714285714 L 599.9999999999999,-97.14285714285714 L 599.9999999999999,108.57142857142856 L 599.9999999999999,314.28571428571433 L 428.57142857142856,-97.14285714285714 L 257.1428571428571,-97.14285714285714 L 85.71428571428571,-97.14285714285714 L 85.71428571428571,108.57142857142856 L 85.71428571428571,314.28571428571433 L 85.71428571428571,520.0 L 85.71428571428571,725.7142857142858 L 257.1428571428571,725.7142857142858 L 428.57142857142856,725.7142857142858 L 599.9999999999999,725.7142857142858 L 599.9999999999999,520.0 L 771.4285714285713,725.7142857142858 L 942.8571428571428,725.7142857142858 L 1114.2857142857142,725.7142857142858zz"/>
    <glyph glyph-name="Y.ext-lr" d="M 1114.2857142857142,725.7142857142858 L 1114.2857142857142,520.0 L 1114.2857142857142,314.28571428571433 L 942.8571428571428,314.28571428571433 L 942.8571428571428,108.57142857142856 L 942.8571428571428,-97.14285714285714 L 771.4285714285713,-97.14285714285714 L 599.9999999999999,-97.14285714285714 L 428.57142857142856,-97.14285714285714 L 257.1428571428571,-97.14285714285714 L 257.1428571428571,108.57142857142856 L 257.1428571428571,314.28571428571433 L 85.71428571428571,314.28571428571433 L 85.71428571428571,520.0 L 85.71428571428571,725.7142857142858 L 257.1428571428571,725.7142857142858 L 428.57142857142856,725.7142857142858 L 599.9999999999999,725.7142857142858 L 599.9999999999999,520.0 L 599.9999999999999,314.28571428571433 L 771.4285714285713,725.7142857142858 L 942.8571428571428,725.7142857142858 L 1114.2857142857142,725.7142857142858zz"/>
    <glyph glyph-name="Yacute.ext-lr" d="M 942.8571428571428,725.7142857142858 L 771.4285714285713,725.7142857142858 L 599.9999999999999,725.7142857142858 L 428.57142857142856,725.7142857142858 L 257.1428571428571,725.7142857142858 L 942.8571428571428,725.7142857142858zM 1114.2857142857142,520.0 L 1114.2857142857142,314.28571428571433 L 942.8571428571428,314.28571428571433 L 942.8571428571428,108.57142857142856 L 942.8571428571428,-97.14285714285714 L 771.4285714285713,-97.14285714285714 L 599.9999999999999,-97.14285714285714 L 428.57142857142856,-97.14285714285714 L 257.1428571428571,-97.14285714285714 L 257.1428571428571,108.57142857142856 L 257.1428571428571,314.28571428571433 L 85.71428571428571,314.28571428571433 L 85.71428571428571,520.0 L 257.1428571428571,520.0 L 428.57142857142856,520.0 L 599.9999999999999,520.0 L 599.9999999999999,314.28571428571433 L 771.4285714285713,520.0 L 942.8571428571428,520.0 L 1114.2857142857142,520.0zz"/>
    <glyph glyph-name="Ycircumflex.ext-lr" d="M 942.8571428571428,725.7142857142858 L 771.4285714285713,725.7142857142858 L 599.9999999999999,725.7142857142858 L 428.57142857142856,725.7142857142858 L 257.1428571428571,725.7142857142858 L 942.8571428571428,725.7142857142858zM 1114.2857142857142,520.0 L 1114.2857142857142,314.28571428571433 L 942.8571428571428,314.28571428571433 L 942.8571428571428,108.57142857142856 L 942.8571428571428,-97.14285714285714 L 771.4285714285713,-97.14285714285714 L 599.9999999999999,-97.14285714285714 L 428.57142857142856,-97.14285714285714 L 257.1428571428571,-97.14285714285714 L 257.1428571428571,108.57142857142856 L 257.1428571428571,314.28571428571433 L 85.71428571428571,314.28571428571433 L 85.71428571428571,520.0 L 257.1428571428571,520.0 L 428.57142857142856,520.0 L 599.9999999999999,520.0 L 599.9999999999999,314.28571428571433 L 771.4285714285713,520.0 L 942.8571428571428,520.0 L 1114.2857142857142,520.0zz"/>
    <glyph glyph-name="Ydieresis.ext-lr" d="M 257.1428571428571,725.7142857142858 L 428.57142857142856,725.7142857142858 L 257.1428571428571,725.7142857142858zM 942.8571428571428,725.7142857142858 L 771.4285714285713,725.7142857142858 L 942.8571428571428,725.7142857142858zM 1114.2857142857142,520.0 L 1114.2857142857142,314.28571428571433 L 942.8571428571428,314.28571428571433 L 942.8571428571428,108.57142857142856 L 942.8571428571428,-97.14285714285714 L 771.4285714285713,-97.14285714285714 L 599.9999999999999,-97.14285714285714 L 428.57142857142856,-97.14285714285714 L 257.1428571428571,-97.14285714285714 L 257.1428571428571,108.57142857142856 L 257.1428571428571,314.28571428571433 L 85.71428571428571,314.28571428571433 L 85.71428571428571,520.0 L 257.1428571428571,520.0 L 428.57142857142856,520.0 L 599.9999999999999,520.0 L 599.9999999999999,314.28571428571433 L 771.4285714285713,520.0 L 942.8571428571428,520.0 L 1114.2857142857142,520.0zz"/>
    <glyph glyph-name="Ygrave.ext-lr" d="M 942.8571428571428,725.7142857142858 L 771.4285714285713,725.7142857142858 L 599.9999999999999,725.7142857142858 L 428.57142857142856,725.7142857142858 L 257.1428571428571,725.7142857142858 L 942.8571428571428,725.7142857142858zM 1114.2857142857142,520.0 L 1114.2857142857142,314.28571428571433 L 942.8571428571428,314.28571428571433 L 942.8571428571428,108.57142857142856 L 942.8571428571428,-97.14285714285714 L 771.4285714285713,-97.14285714285714 L 599.9999999999999,-97.14285714285714 L 428.57142857142856,-97.14285714285714 L 257.1428571428571,-97.14285714285714 L 257.1428571428571,108.57142857142856 L 257.1428571428571,314.28571428571433 L 85.71428571428571,314.28571428571433 L 85.71428571428571,520.0 L 257.1428571428571,520.0 L 428.57142857142856,520.0 L 599.9999999999999,520.0 L 599.9999999999999,314.28571428571433 L 771.4285714285713,520.0 L 942.8571428571428,520.0 L 1114.2857142857142,520.0zz"/>
    <glyph glyph-name="A.ext-r" d="M 599.9999999999999,-97.14285714285714 L 599.9999999999999,108.57142857142856 L 428.57142857142856,-97.14285714285714 L 257.1428571428571,-97.14285714285714 L 85.71428571428571,-97.14285714285714 L 85.71428571428571,108.57142857142856 L 85.71428571428571,314.28571428571433 L 85.71428571428571,520.0 L 85.71428571428571,725.7142857142858 L 257.1428571428571,725.7142857142858 L 428.57142857142856,725.7142857142858 L 599.9999999999999,725.7142857142858 L 771.4285714285713,725.7142857142858 L 942.8571428571428,725.7142857142858 L 1114.2857142857142,725.7142857142858 L 1114.2857142857142,520.0 L 1114.2857142857142,314.28571428571433 L 1114.2857142857142,108.57142857142856 L 1114.2857142857142,-97.14285714285714 L 942.8571428571428,-97.14285714285714 L 771.4285714285713,-97.14285714285714 L 599.9999999999999,-97.14285714285714zM 599.9999999999999,314.28571428571433 L 599.9999999999999,520.0 L 599.9999999999999,314.28571428571433zz"/>
    <glyph glyph-name="Aacute.ext-r" d="M 942.8571428571428,725.7142857142858 L 771.4285714285713,725.7142857142858 L 599.9999999999999,725.7142857142858 L 428.57142857142856,725.7142857142858 L 257.1428571428571,725.7142857142858 L 942.8571428571428,725.7142857142858zM 599.9999999999999,-97.14285714285714 L 599.9999999999999,108.57142857142856 L 428.57142857142856,-97.14285714285714 L 257.1428571428571,-97.14285714285714 L 85.71428571428571,-97.14285714285714 L 85.71428571428571,108.57142857142856 L 85.71428571428571,314.28571428571433 L 85.71428571428571,520.0 L 257.1428571428571,520.0 L 428.57142857142856,520.0 L 599.9999999999999,520.0 L 771.4285714285713,520.0 L 942.8571428571428,520.0 L 1114.2857142857142,520.0 L 1114.2857142857142,314.28571428571433 L 1114.2857142857142,108.57142857142856 L 1114.2857142857142,-97.14285714285714 L 942.8571428571428,-97.14285714285714 L 771.4285714285713,-97.14285714285714 L 599.9999999999999,-97.14285714285714zM 599.9999999999999,108.57142857142856 L 599.9999999999999,314.28571428571433 L 599.9999999999999,108.57142857142856zz"/>
    <glyph glyph-name="Abreve.ext-r" d="M 599.9999999999999,725.7142857142858 L 428.57142857142856,725.7142857142858 L 257.1428571428571,725.7142857142858 L 771.4285714285713,725.7142857142858 L 942.8571428571428,725.7142857142858 L 599.9999999999999,725.7142857142858zM 599.9999999999999,-97.14285714285714 L 599.9999999999999,108.57142857142856 L 428.57142857142856,-97.14285714285714 L 257.1428571428571,-97.14285714285714 L 85.71428571428571,-97.14285714285714 L 85.71428571428571,108.57142857142856 L 85.71428571428571,314.28571428571433 L 85.71428571428571,520.0 L 257.1428571428571,520.0 L 428.57142857142856,520.0 L 599.9999999999999,520.0 L 771.4285714285713,520.0 L 942.8571428571428,520.0 L 1114.2857142857142,520.0 L 1114.2857142857142,314.28571428571433 L 1114.2857142857142,108.57142857142856 L 1114.2857142857142,-97.14285714285714 L 942.8571428571428,-97.14285714285714 L 771.4285714285713,-97.14285714285714 L 599.9999999999999,-97.14285714285714zM 599.9999999999999,108.57142857142856 L 599.9999999999999,314.28571428571433 L 599.9999999999999,108.57142857142856zz"/>
    <glyph glyph-name="Acircumflex.ext-r" d="M 942.8571428571428,725.7142857142858 L 771.4285714285713,725.7142857142858 L 599.9999999999999,725.7142857142858 L 428.57142857142856,725.7142857142858 L 257.1428571428571,725.7142857142858 L 942.8571428571428,725.7142857142858zM 599.9999999999999,-97.14285714285714 L 599.9999999999999,108.57142857142856 L 428.57142857142856,-97.14285714285714 L 257.1428571428571,-97.14285714285714 L 85.71428571428571,-97.14285714285714 L 85.71428571428571,108.57142857142856 L 85.71428571428571,314.28571428571433 L 85.71428571428571,520.0 L 257.1428571428571,520.0 L 428.57142857142856,520.0 L 599.9999999999999,520.0 L 771.4285714285713,520.0 L 942.8571428571428,520.0 L 1114.2857142857142,520.0 L 1114.2857142857142,314.28571428571433 L 1114.2857142857142,108.57142857142856 L 1114.2857142857142,-97.14285714285714 L 942.8571428571428,-97.14285714285714 L 771.4285714285713,-97.14285714285714 L 599.9999999999999,-97.14285714285714zM 599.9999999999999,108.57142857142856 L 599.9999999999999,314.28571428571433 L 599.9999999999999,108.57142857142856zz"/>
    <glyph glyph-name="Adieresis.ext-r" d="M 257.1428571428571,725.7142857142858 L 428.57142857142856,725.7142857142858 L 257.1428571428571,725.7142857142858zM 942.8571428571428,725.7142857142858 L 942.8571428571428,725.7142857142858zM 599.9999999999999,-97.14285714285714 L 599.9999999999999,108.57142857142856 L 428.57142857142856,-97.14285714285714 L 257.1428571428571,-97.14285714285714 L 85.71428571428571,-97.14285714285714 L 85.71428571428571,108.57142857142856 L 85.71428571428571,314.28571428571433 L 85.71428571428571,520.0 L 257.1428571428571,520.0 L 428.57142857142856,520.0 L 599.9999999999999,520.0 L 771.4285714285713,520.0 L 942.8571428571428,520.0 L 1114.2857142857142,520.0 L 1114.2857142857142,314.28571428571433 L 1114.2857142857142,108.57142857142856 L 1114.2857142857142,-97.14285714285714 L 942.8571428571428,-97.14285714285714 L 771.4285714285713,-97.14285714285714 L 599.9999999999999,-97.14285714285714zM 599.9999999999999,108.57142857142856 L 599.9999999999999,314.28571428571433 L 599.9999999999999,108.57142857142856zz"/>
    <glyph glyph-name="Agrave.ext-r" d="M 942.8571428571428,725.7142857142858 L 771.4285714285713,725.7142857142858 L 599.9999999999999,725.7142857142858 L 428.57142857142856,725.7142857142858 L 257.1428571428571,725.7142857142858 L 942.8571428571428,725.7142857142858zM 599.9999999999999,-97.14285714285714 L 599.9999999999999,108.57142857142856 L 428.57142857142856,-97.14285714285714 L 257.1428571428571,-97.14285714285714 L 85.71428571428571,-97.14285714285714 L 85.71428571428571,108.57142857142856 L 85.71428571428571,314.28571428571433 L 85.71428571428571,520.0 L 257.1428571428571,520.0 L 428.57142857142856,520.0 L 599.9999999999999,520.0 L 771.4285714285713,520.0 L 942.8571428571428,520.0 L 1114.2857142857142,520.0 L 1114.2857142857142,314.28571428571433 L 1114.2857142857142,108.57142857142856 L 1114.2857142857142,-97.14285714285714 L 942.8571428571428,-97.14285714285714 L 771.4285714285713,-97.14285714285714 L 599.9999999999999,-97.14285714285714zM 599.9999999999999,108.57142857142856 L 599.9999999999999,314.28571428571433 L 599.9999999999999,108.57142857142856zz"/>
    <glyph glyph-name="Amacron.ext-r" d="M 942.8571428571428,725.7142857142858 L 771.4285714285713,725.7142857142858 L 599.9999999999999,725.7142857142858 L 428.57142857142856,725.7142857142858 L 257.1428571428571,725.7142857142858 L 942.8571428571428,725.7142857142858zM 599.9999999999999,-97.14285714285714 L 599.9999999999999,108.57142857142856 L 428.57142857142856,-97.14285714285714 L 257.1428571428571,-97.14285714285714 L 85.71428571428571,-97.14285714285714 L 85.71428571428571,108.57142857142856 L 85.71428571428571,314.28571428571433 L 85.71428571428571,520.0 L 257.1428571428571,520.0 L 428.57142857142856,520.0 L 599.9999999999999,520.0 L 771.4285714285713,520.0 L 942.8571428571428,520.0 L 1114.2857142857142,520.0 L 1114.2857142857142,314.28571428571433 L 1114.2857142857142,108.57142857142856 L 1114.2857142857142,-97.14285714285714 L 942.8571428571428,-97.14285714285714 L 771.4285714285713,-97.14285714285714 L 599.9999999999999,-97.14285714285714zM 599.9999999999999,108.57142857142856 L 599.9999999999999,314.28571428571433 L 599.9999999999999,108.57142857142856zz"/>
    <glyph glyph-name="Aogonek.ext-r" d="M 1114.2857142857142,108.57142857142856 L 1114.2857142857142,-97.14285714285714 L 942.8571428571428,108.57142857142856 L 771.4285714285713,108.57142857142856 L 599.9999999999999,108.57142857142856 L 599.9999999999999,314.28571428571433 L 428.57142857142856,108.57142857142856 L 257.1428571428571,108.57142857142856 L 85.71428571428571,108.57142857142856 L 85.71428571428571,314.28571428571433 L 85.71428571428571,520.0 L 85.71428571428571,725.7142857142858 L 257.1428571428571,725.7142857142858 L 428.57142857142856,725.7142857142858 L 599.9999999999999,725.7142857142858 L 771.4285714285713,725.7142857142858 L 942.8571428571428,725.7142857142858 L 1114.2857142857142,725.7142857142858 L 1114.2857142857142,520.0 L 1114.2857142857142,314.28571428571433 L 1114.2857142857142,108.57142857142856zM 599.9999999999999,314.28571428571433 L 599.9999999999999,520.0 L 599.9999999999999,314.28571428571433zz"/>
    <glyph glyph-name="Aring.ext-r" d="M 599.9999999999999,520.0 L 599.9999999999999,725.7142857142858 L 771.4285714285713,725.7142857142858 L 771.4285714285713,520.0 L 599.9999999999999,520.0zM 599.9999999999999,725.7142857142858 L 599.9999999999999,725.7142857142858zM 599.9999999999999,-97.14285714285714 L 599.9999999999999,108.57142857142856 L 428.57142857142856,-97.14285714285714 L 257.1428571428571,-97.14285714285714 L 85.71428571428571,-97.14285714285714 L 85.71428571428571,108.57142857142856 L 85.71428571428571,314.28571428571433 L 85.71428571428571,520.0 L 257.1428571428571,520.0 L 428.57142857142856,520.0 L 599.9999999999999,520.0 L 771.4285714285713,520.0 L 942.8571428571428,520.0 L 1114.2857142857142,520.0 L 1114.2857142857142,314.28571428571433 L 1114.2857142857142,108.57142857142856 L 1114.2857142857142,-97.14285714285714 L 942.8571428571428,-97.14285714285714 L 771.4285714285713,-97.14285714285714 L 599.9999999999999,-97.14285714285714zM 599.9999999999999,108.57142857142856 L 599.9999999999999,314.28571428571433 L 599.9999999999999,108.57142857142856zz"/>
    <glyph glyph-name="Atilde.ext-r" d="M 428.57142857142856,725.7142857142858 L 257.1428571428571,725.7142857142858 L 599.9999999999999,725.7142857142858 L 771.4285714285713,725.7142857142858 L 942.8571428571428,725.7142857142858 L 428.57142857142856,725.7142857142858zM 599.9999999999999,-97.14285714285714 L 599.9999999999999,108.57142857142856 L 428.57142857142856,-97.14285714285714 L 257.1428571428571,-97.14285714285714 L 85.71428571428571,-97.14285714285714 L 85.71428571428571,108.57142857142856 L 85.71428571428571,314.28571428571433 L 85.71428571428571,520.0 L 257.1428571428571,520.0 L 428.57142857142856,520.0 L 599.9999999999999,520.0 L 771.4285714285713,520.0 L 942.8571428571428,520.0 L 1114.2857142857142,520.0 L 1114.2857142857142,314.28571428571433 L 1114.2857142857142,108.57142857142856 L 1114.2857142857142,-97.14285714285714 L 942.8571428571428,-97.14285714285714 L 771.4285714285713,-97.14285714285714 L 599.9999999999999,-97.14285714285714zM 599.9999999999999,108.57142857142856 L 599.9999999999999,314.28571428571433 L 599.9999999999999,108.57142857142856zz"/>
    <glyph glyph-name="K.ext-r" d="M 1114.2857142857142,725.7142857142858 L 1114.2857142857142,520.0 L 1114.2857142857142,314.28571428571433 L 1114.2857142857142,108.57142857142856 L 1114.2857142857142,-97.14285714285714 L 942.8571428571428,-97.14285714285714 L 771.4285714285713,-97.14285714285714 L 599.9999999999999,-97.14285714285714 L 599.9999999999999,108.57142857142856 L 599.9999999999999,314.28571428571433 L 428.57142857142856,-97.14285714285714 L 257.1428571428571,-97.14285714285714 L 85.71428571428571,-97.14285714285714 L 85.71428571428571,108.57142857142856 L 85.71428571428571,314.28571428571433 L 85.71428571428571,520.0 L 85.71428571428571,725.7142857142858 L 257.1428571428571,725.7142857142858 L 428.57142857142856,725.7142857142858 L 599.9999999999999,725.7142857142858 L 599.9999999999999,520.0 L 771.4285714285713,725.7142857142858 L 942.8571428571428,725.7142857142858 L 1114.2857142857142,725.7142857142858zz"/>
    <glyph glyph-name="uni0136.ext-r" d="M 1114.2857142857142,725.7142857142858 L 1114.2857142857142,520.0 L 1114.2857142857142,314.28571428571433 L 1114.2857142857142,108.57142857142856 L 942.8571428571428,108.57142857142856 L 771.4285714285713,108.57142857142856 L 599.9999999999999,108.57142857142856 L 599.9999999999999,314.28571428571433 L 428.57142857142856,108.57142857142856 L 257.1428571428571,108.57142857142856 L 85.71428571428571,108.57142857142856 L 85.71428571428571,314.28571428571433 L 85.71428571428571,520.0 L 85.71428571428571,725.7142857142858 L 257.1428571428571,725.7142857142858 L 428.57142857142856,725.7142857142858 L 599.9999999999999,725.7142857142858 L 599.9999999999999,520.0 L 771.4285714285713,725.7142857142858 L 942.8571428571428,725.7142857142858 L 1114.2857142857142,725.7142857142858zM 428.57142857142856,108.57142857142856 L 599.9999999999999,108.57142857142856 L 599.9999999999999,-97.14285714285714 L 428.57142857142856,-97.14285714285714 L 428.57142857142856,108.57142857142856zz"/>
    <glyph glyph-name="M.ext-r" d="M 1114.2857142857142,-97.14285714285714 L 942.8571428571428,-97.14285714285714 L 771.4285714285713,-97.14285714285714 L 599.9999999999999,-97.14285714285714 L 599.9999999999999,108.57142857142856 L 599.9999999999999,314.28571428571433 L 599.9999999999999,520.0 L 428.57142857142856,-97.14285714285714 L 257.1428571428571,-97.14285714285714 L 85.71428571428571,-97.14285714285714 L 85.71428571428571,108.57142857142856 L 85.71428571428571,314.28571428571433 L 85.71428571428571,520.0 L 85.71428571428571,725.7142857142858 L 257.1428571428571,725.7142857142858 L 428.57142857142856,725.7142857142858 L 599.9999999999999,725.7142857142858 L 771.4285714285713,725.7142857142858 L 942.8571428571428,725.7142857142858 L 1114.2857142857142,725.7142857142858 L 1114.2857142857142,520.0 L 1114.2857142857142,314.28571428571433 L 1114.2857142857142,108.57142857142856 L 1114.2857142857142,-97.14285714285714zz"/>
    <glyph glyph-name="V.ext-r" d="M 599.9999999999999,725.7142857142858 L 771.4285714285713,725.7142857142858 L 942.8571428571428,725.7142857142858 L 1114.2857142857142,725.7142857142858 L 1114.2857142857142,520.0 L 1114.2857142857142,314.28571428571433 L 1114.2857142857142,108.57142857142856 L 1114.2857142857142,-97.14285714285714 L 942.8571428571428,-97.14285714285714 L 771.4285714285713,-97.14285714285714 L 599.9999999999999,-97.14285714285714 L 428.57142857142856,-97.14285714285714 L 257.1428571428571,-97.14285714285714 L 85.71428571428571,-97.14285714285714 L 85.71428571428571,108.57142857142856 L 85.71428571428571,314.28571428571433 L 85.71428571428571,520.0 L 85.71428571428571,725.7142857142858 L 257.1428571428571,725.7142857142858 L 428.57142857142856,725.7142857142858 L 599.9999999999999,520.0 L 599.9999999999999,314.28571428571433 L 599.9999999999999,725.7142857142858zz"/>
    <glyph glyph-name="W.ext-r" d="M 599.9999999999999,725.7142857142858 L 771.4285714285713,725.7142857142858 L 942.8571428571428,725.7142857142858 L 1114.2857142857142,725.7142857142858 L 1114.2857142857142,520.0 L 1114.2857142857142,314.28571428571433 L 1114.2857142857142,108.57142857142856 L 1114.2857142857142,-97.14285714285714 L 942.8571428571428,-97.14285714285714 L 771.4285714285713,-97.14285714285714 L 599.9999999999999,-97.14285714285714 L 599.9999999999999,108.57142857142856 L 599.9999999999999,314.28571428571433 L 599.9999999999999,520.0 L 428.57142857142856,-97.14285714285714 L 257.1428571428571,-97.14285714285714 L 85.71428571428571,-97.14285714285714 L 85.71428571428571,108.57142857142856 L 85.71428571428571,314.28571428571433 L 85.71428571428571,520.0 L 85.71428571428571,725.7142857142858 L 257.1428571428571,725.7142857142858 L 428.57142857142856,725.7142857142858 L 599.9999999999999,725.7142857142858zz"/>
    <glyph glyph-name="X.ext-r" d="M 1114.2857142857142,725.7142857142858 L 1114.2857142857142,520.0 L 1114.2857142857142,314.28571428571433 L 1114.2857142857142,108.57142857142856 L 1114.2857142857142,-97.14285714285714 L 942.8571428571428,-97.14285714285714 L 771.4285714285713,-97.14285714285714 L 599.9999999999999,-97.14285714285714 L 599.9999999999999,108.57142857142856 L 599.9999999999999,314.28571428571433 L 428.57142857142856,-97.14285714285714 L 257.1428571428571,-97.14285714285714 L 85.71428571428571,-97.14285714285714 L 85.71428571428571,108.57142857142856 L 85.71428571428571,314.28571428571433 L 85.71428571428571,520.0 L 85.71428571428571,725.7142857142858 L 257.1428571428571,725.7142857142858 L 428.57142857142856,725.7142857142858 L 599.9999999999999,725.7142857142858 L 599.9999999999999,520.0 L 771.4285714285713,725.7142857142858 L 942.8571428571428,725.7142857142858 L 1114.2857142857142,725.7142857142858zz"/>
    <glyph glyph-name="Y.ext-r" d="M 1114.2857142857142,725.7142857142858 L 1114.2857142857142,520.0 L 1114.2857142857142,314.28571428571433 L 942.8571428571428,314.28571428571433 L 942.8571428571428,108.57142857142856 L 942.8571428571428,-97.14285714285714 L 771.4285714285713,-97.14285714285714 L 599.9999999999999,-97.14285714285714 L 428.57142857142856,-97.14285714285714 L 257.1428571428571,-97.14285714285714 L 257.1428571428571,108.57142857142856 L 257.1428571428571,314.28571428571433 L 85.71428571428571,314.28571428571433 L 85.71428571428571,520.0 L 85.71428571428571,725.7142857142858 L 257.1428571428571,725.7142857142858 L 428.57142857142856,725.7142857142858 L 599.9999999999999,725.7142857142858 L 599.9999999999999,520.0 L 599.9999999999999,314.28571428571433 L 771.4285714285713,725.7142857142858 L 942.8571428571428,725.7142857142858 L 1114.2857142857142,725.7142857142858zz"/>
    <glyph glyph-name="Yacute.ext-r" d="M 942.8571428571428,725.7142857142858 L 771.4285714285713,725.7142857142858 L 599.9999999999999,725.7142857142858 L 428.57142857142856,725.7142857142858 L 257.1428571428571,725.7142857142858 L 942.8571428571428,725.7142857142858zM 1114.2857142857142,520.0 L 1114.2857142857142,314.28571428571433 L 942.8571428571428,314.28571428571433 L 942.8571428571428,108.57142857142856 L 942.8571428571428,-97.14285714285714 L 771.4285714285713,-97.14285714285714 L 599.9999999999999,-97.14285714285714 L 428.57142857142856,-97.14285714285714 L 257.1428571428571,-97.14285714285714 L 257.1428571428571,108.57142857142856 L 257.1428571428571,314.28571428571433 L 85.71428571428571,314.28571428571433 L 85.71428571428571,520.0 L 257.1428571428571,520.0 L 428.57142857142856,520.0 L 599.9999999999999,520.0 L 599.9999999999999,314.28571428571433 L 771.4285714285713,520.0 L 942.8571428571428,520.0 L 1114.2857142857142,520.0zz"/>
    <glyph glyph-name="Ycircumflex.ext-r" d="M 942.8571428571428,725.7142857142858 L 771.4285714285713,725.7142857142858 L 599.9999999999999,725.7142857142858 L 428.57142857142856,725.7142857142858 L 257.1428571428571,725.7142857142858 L 942.8571428571428,725.7142857142858zM 1114.2857142857142,520.0 L 1114.2857142857142,314.28571428571433 L 942.8571428571428,314.28571428571433 L 942.8571428571428,108.57142857142856 L 942.8571428571428,-97.14285714285714 L 771.4285714285713,-97.14285714285714 L 599.9999999999999,-97.14285714285714 L 428.57142857142856,-97.14285714285714 L 257.1428571428571,-97.14285714285714 L 257.1428571428571,108.57142857142856 L 257.1428571428571,314.28571428571433 L 85.71428571428571,314.28571428571433 L 85.71428571428571,520.0 L 257.1428571428571,520.0 L 428.57142857142856,520.0 L 599.9999999999999,520.0 L 599.9999999999999,314.28571428571433 L 771.4285714285713,520.0 L 942.8571428571428,520.0 L 1114.2857142857142,520.0zz"/>
    <glyph glyph-name="Ydieresis.ext-r" d="M 257.1428571428571,725.7142857142858 L 428.57142857142856,725.7142857142858 L 257.1428571428571,725.7142857142858zM 942.8571428571428,725.7142857142858 L 942.8571428571428,725.7142857142858zM 1114.2857142857142,520.0 L 1114.2857142857142,314.28571428571433 L 942.8571428571428,314.28571428571433 L 942.8571428571428,108.57142857142856 L 942.8571428571428,-97.14285714285714 L 771.4285714285713,-97.14285714285714 L 599.9999999999999,-97.14285714285714 L 428.57142857142856,-97.14285714285714 L 257.1428571428571,-97.14285714285714 L 257.1428571428571,108.57142857142856 L 257.1428571428571,314.28571428571433 L 85.71428571428571,314.28571428571433 L 85.71428571428571,520.0 L 257.1428571428571,520.0 L 428.57142857142856,520.0 L 599.9999999999999,520.0 L 599.9999999999999,314.28571428571433 L 771.4285714285713,520.0 L 942.8571428571428,520.0 L 1114.2857142857142,520.0zz"/>
    <glyph glyph-name="Ygrave.ext-r" d="M 942.8571428571428,725.7142857142858 L 771.4285714285713,725.7142857142858 L 599.9999999999999,725.7142857142858 L 428.57142857142856,725.7142857142858 L 257.1428571428571,725.7142857142858 L 942.8571428571428,725.7142857142858zM 1114.2857142857142,520.0 L 1114.2857142857142,314.28571428571433 L 942.8571428571428,314.28571428571433 L 942.8571428571428,108.57142857142856 L 942.8571428571428,-97.14285714285714 L 771.4285714285713,-97.14285714285714 L 599.9999999999999,-97.14285714285714 L 428.57142857142856,-97.14285714285714 L 257.1428571428571,-97.14285714285714 L 257.1428571428571,108.57142857142856 L 257.1428571428571,314.28571428571433 L 85.71428571428571,314.28571428571433 L 85.71428571428571,520.0 L 257.1428571428571,520.0 L 428.57142857142856,520.0 L 599.9999999999999,520.0 L 599.9999999999999,314.28571428571433 L 771.4285714285713,520.0 L 942.8571428571428,520.0 L 1114.2857142857142,520.0zz"/>
    <glyph glyph-name="A.ss02" d="M 599.9999999999999,314.28571428571433 L 599.9999999999999,108.57142857142856 L 599.9999999999999,-97.14285714285714 L 428.57142857142856,-97.14285714285714 L 428.57142857142856,108.57142857142856 L 428.57142857142856,314.28571428571433 L 428.57142857142856,520.0 L 428.57142857142856,725.7142857142858 L 257.1428571428571,-97.14285714285714 L 257.1428571428571,108.57142857142856 L 257.1428571428571,314.28571428571433 L 85.71428571428571,314.28571428571433 L 85.71428571428571,520.0 L 85.71428571428571,725.7142857142858 L 257.1428571428571,725.7142857142858 L 257.1428571428571,520.0 L 599.9999999999999,725.7142857142858 L 599.9999999999999,520.0 L 599.9999999999999,314.28571428571433zM 942.8571428571428,314.28571428571433 L 1114.2857142857142,314.28571428571433 L 1114.2857142857142,108.57142857142856 L 1114.2857142857142,-97.14285714285714 L 942.8571428571428,-97.14285714285714 L 942.8571428571428,108.57142857142856 L 942.8571428571428,520.0 L 942.8571428571428,725.7142857142858 L 771.4285714285713,725.7142857142858 L 771.4285714285713,520.0 L 771.4285714285713,314.28571428571433 L 771.4285714285713,108.57142857142856 L 771.4285714285713,-97.14285714285714 L 599.9999999999999,108.57142857142856 L 599.9999999999999,314.28571428571433 L 599.9999999999999,520.0 L 599.9999999999999,725.7142857142858 L 942.8571428571428,314.28571428571433zM 1114.2857142857142,725.7142857142858 L 1114.2857142857142,520.0 L 1114.2857142857142,314.28571428571433 L 1114.2857142857142,108.57142857142856 L 1114.2857142857142,-97.14285714285714 L 942.8571428571428,314.28571428571433 L 942.8571428571428,520.0 L 942.8571428571428,725.7142857142858 L 1114.2857142857142,725.7142857142858zM 85.71428571428571,314.28571428571433 L 257.1428571428571,314.28571428571433 L 257.1428571428571,108.57142857142856 L 85.71428571428571,108.57142857142856 L 85.71428571428571,-97.14285714285714 L 85.71428571428571,520.0 L 85.71428571428571,725.7142857142858 L 85.71428571428571,314.28571428571433zz"/>
    <glyph glyph-name="B.ss02" d="M 85.71428571428571,520.0 L 85.71428571428571,725.7142857142858 L 257.1428571428571,725.7142857142858 L 428.57142857142856,725.7142857142858 L 599.9999999999999,725.7142857142858 L 257.1428571428571,520.0 L 428.57142857142856,520.0 L 599.9999999999999,520.0 L 771.4285714285713,725.7142857142858 L 942.8571428571428,725.7142857142858 L 1114.2857142857142,725.7142857142858 L 771.4285714285713,520.0 L 85.71428571428571,520.0zM 85.71428571428571,314.28571428571433 L 85.71428571428571,520.0 L 257.1428571428571,520.0 L 428.57142857142856,520.0 L 257.1428571428571,314.28571428571433 L 428.57142857142856,314.28571428571433 L 599.9999999999999,520.0 L 771.4285714285713,520.0 L 942.8571428571428,520.0 L 1114.2857142857142,520.0 L 599.9999999999999,314.28571428571433 L 85.71428571428571,314.28571428571433zM 1114.2857142857142,314.28571428571433 L 1114.2857142857142,108.57142857142856 L 942.8571428571428,108.57142857142856 L 771.4285714285713,108.57142857142856 L 771.4285714285713,314.28571428571433 L 942.8571428571428,314.28571428571433 L 599.9999999999999,108.57142857142856 L 428.57142857142856,108.57142857142856 L 257.1428571428571,108.57142857142856 L 85.71428571428571,108.57142857142856 L 85.71428571428571,314.28571428571433 L 257.1428571428571,314.28571428571433 L 428.57142857142856,314.28571428571433 L 599.9999999999999,314.28571428571433 L 1114.2857142857142,314.28571428571433zM 1114.2857142857142,108.57142857142856 L 1114.2857142857142,-97.14285714285714 L 942.8571428571428,-97.14285714285714 L 771.4285714285713,-97.14285714285714 L 599.9999999999999,-97.14285714285714 L 599.9999999999999,108.57142857142856 L 771.4285714285713,108.57142857142856 L 942.8571428571428,108.57142857142856 L 428.57142857142856,-97.14285714285714 L 257.1428571428571,-97.14285714285714 L 85.71428571428571,-97.14285714285714 L 85.71428571428571,108.57142857142856 L 257.1428571428571,108.57142857142856 L 428.57142857142856,108.57142857142856 L 1114.2857142857142,108.57142857142856zz"/>
    <glyph glyph-name="C.ss02" d="M 942.8571428571428,314.28571428571433 L 1114.2857142857142,314.28571428571433 L 1114.2857142857142,108.57142857142856 L 1114.2857142857142,-97.14285714285714 L 942.8571428571428,-97.14285714285714 L 942.8571428571428,108.57142857142856 L 942.8571428571428,520.0 L 942.8571428571428,725.7142857142858 L 771.4285714285713,725.7142857142858 L 771.4285714285713,520.0 L 771.4285714285713,314.28571428571433 L 771.4285714285713,108.57142857142856 L 599.9999999999999,314.28571428571433 L 599.9999999999999,520.0 L 599.9999999999999,725.7142857142858 L 428.57142857142856,520.0 L 428.57142857142856,725.7142857142858 L 257.1428571428571,725.7142857142858 L 85.71428571428571,725.7142857142858 L 85.71428571428571,520.0 L 257.1428571428571,520.0 L 85.71428571428571,314.28571428571433 L 257.1428571428571,314.28571428571433 L 428.57142857142856,314.28571428571433 L 599.9999999999999,108.57142857142856 L 428.57142857142856,108.57142857142856 L 257.1428571428571,108.57142857142856 L 85.71428571428571,108.57142857142856 L 942.8571428571428,314.28571428571433zM 1114.2857142857142,725.7142857142858 L 1114.2857142857142,520.0 L 1114.2857142857142,314.28571428571433 L 1114.2857142857142,108.57142857142856 L 1114.2857142857142,-97.14285714285714 L 942.8571428571428,314.28571428571433 L 942.8571428571428,520.0 L 942.8571428571428,725.7142857142858 L 1114.2857142857142,725.7142857142858zM 771.4285714285713,108.57142857142856 L 942.8571428571428,108.57142857142856 L 771.4285714285713,-97.14285714285714 L 599.9999999999999,-97.14285714285714 L 599.9999999999999,108.57142857142856 L 428.57142857142856,-97.14285714285714 L 257.1428571428571,-97.14285714285714 L 85.71428571428571,-97.14285714285714 L 85.71428571428571,108.57142857142856 L 257.1428571428571,108.57142857142856 L 428.57142857142856,108.57142857142856 L 771.4285714285713,108.57142857142856zz"/>
    <glyph glyph-name="D.ss02" d="M 257.1428571428571,314.28571428571433 L 85.71428571428571,314.28571428571433 L 85.71428571428571,520.0 L 85.71428571428571,725.7142857142858 L 257.1428571428571,725.7142857142858 L 257.1428571428571,520.0 L 257.1428571428571,108.57142857142856 L 428.57142857142856,108.57142857142856 L 428.57142857142856,314.28571428571433 L 428.57142857142856,520.0 L 428.57142857142856,725.7142857142858 L 599.9999999999999,725.7142857142858 L 599.9999999999999,520.0 L 599.9999999999999,314.28571428571433 L 771.4285714285713,725.7142857142858 L 771.4285714285713,520.0 L 257.1428571428571,314.28571428571433zM 85.71428571428571,314.28571428571433 L 257.1428571428571,314.28571428571433 L 257.1428571428571,108.57142857142856 L 85.71428571428571,108.57142857142856 L 85.71428571428571,-97.14285714285714 L 85.71428571428571,520.0 L 85.71428571428571,725.7142857142858 L 85.71428571428571,314.28571428571433zM 1114.2857142857142,314.28571428571433 L 1114.2857142857142,108.57142857142856 L 942.8571428571428,108.57142857142856 L 771.4285714285713,108.57142857142856 L 599.9999999999999,108.57142857142856 L 428.57142857142856,108.57142857142856 L 428.57142857142856,314.28571428571433 L 599.9999999999999,314.28571428571433 L 771.4285714285713,314.28571428571433 L 942.8571428571428,314.28571428571433 L 599.9999999999999,520.0 L 771.4285714285713,520.0 L 942.8571428571428,520.0 L 1114.2857142857142,520.0 L 771.4285714285713,725.7142857142858 L 942.8571428571428,725.7142857142858 L 1114.2857142857142,725.7142857142858 L 1114.2857142857142,314.28571428571433zM 1114.2857142857142,108.57142857142856 L 1114.2857142857142,-97.14285714285714 L 942.8571428571428,-97.14285714285714 L 942.8571428571428,108.57142857142856 L 771.4285714285713,-97.14285714285714 L 599.9999999999999,-97.14285714285714 L 428.57142857142856,-97.14285714285714 L 257.1428571428571,-97.14285714285714 L 257.1428571428571,108.57142857142856 L 428.57142857142856,108.57142857142856 L 599.9999999999999,108.57142857142856 L 771.4285714285713,108.57142857142856 L 1114.2857142857142,108.57142857142856zz"/>
    <glyph glyph-name="E.ss02" d="M 1114.2857142857142,725.7142857142858 L 1114.2857142857142,520.0 L 1114.2857142857142,314.28571428571433 L 1114.2857142857142,108.57142857142856 L 1114.2857142857142,-97.14285714285714 L 942.8571428571428,314.28571428571433 L 942.8571428571428,520.0 L 942.8571428571428,725.7142857142858 L 1114.2857142857142,725.7142857142858zM 85.71428571428571,520.0 L 85.71428571428571,725.7142857142858 L 257.1428571428571,725.7142857142858 L 257.1428571428571,520.0 L 428.57142857142856,725.7142857142858 L 599.9999999999999,725.7142857142858 L 771.4285714285713,725.7142857142858 L 942.8571428571428,725.7142857142858 L 428.57142857142856,520.0 L 85.71428571428571,520.0zM 942.8571428571428,314.28571428571433 L 1114.2857142857142,314.28571428571433 L 1114.2857142857142,108.57142857142856 L 1114.2857142857142,-97.14285714285714 L 942.8571428571428,-97.14285714285714 L 942.8571428571428,108.57142857142856 L 942.8571428571428,520.0 L 771.4285714285713,520.0 L 771.4285714285713,314.28571428571433 L 771.4285714285713,108.57142857142856 L 771.4285714285713,-97.14285714285714 L 599.9999999999999,108.57142857142856 L 599.9999999999999,314.28571428571433 L 599.9999999999999,-97.14285714285714 L 428.57142857142856,-97.14285714285714 L 428.57142857142856,108.57142857142856 L 942.8571428571428,314.28571428571433zM 257.1428571428571,108.57142857142856 L 428.57142857142856,108.57142857142856 L 428.57142857142856,-97.14285714285714 L 257.1428571428571,-97.14285714285714 L 85.71428571428571,-97.14285714285714 L 85.71428571428571,108.57142857142856 L 85.71428571428571,314.28571428571433 L 257.1428571428571,314.28571428571433 L 428.57142857142856,314.28571428571433 L 85.71428571428571,520.0 L 257.1428571428571,520.0 L 428.57142857142856,520.0 L 599.9999999999999,520.0 L 771.4285714285713,520.0 L 599.9999999999999,314.28571428571433 L 257.1428571428571,108.57142857142856zz"/>
    <glyph glyph-name="F.ss02" d="M 942.8571428571428,108.57142857142856 L 771.4285714285713,108.57142857142856 L 1114.2857142857142,108.57142857142856 L 1114.2857142857142,-97.14285714285714 L 942.8571428571428,-97.14285714285714 L 771.4285714285713,-97.14285714285714 L 599.9999999999999,-97.14285714285714 L 599.9999999999999,108.57142857142856 L 599.9999999999999,314.28571428571433 L 428.57142857142856,-97.14285714285714 L 428.57142857142856,108.57142857142856 L 428.57142857142856,314.28571428571433 L 428.57142857142856,520.0 L 257.1428571428571,-97.14285714285714 L 257.1428571428571,108.57142857142856 L 257.1428571428571,314.28571428571433 L 85.71428571428571,314.28571428571433 L 85.71428571428571,520.0 L 85.71428571428571,725.7142857142858 L 257.1428571428571,725.7142857142858 L 257.1428571428571,520.0 L 599.9999999999999,520.0 L 771.4285714285713,314.28571428571433 L 942.8571428571428,314.28571428571433 L 1114.2857142857142,314.28571428571433 L 771.4285714285713,520.0 L 942.8571428571428,520.0 L 1114.2857142857142,520.0 L 942.8571428571428,108.57142857142856zM 85.71428571428571,314.28571428571433 L 257.1428571428571,314.28571428571433 L 257.1428571428571,108.57142857142856 L 85.71428571428571,108.57142857142856 L 85.71428571428571,-97.14285714285714 L 85.71428571428571,520.0 L 85.71428571428571,725.7142857142858 L 85.71428571428571,314.28571428571433zM 428.57142857142856,520.0 L 257.1428571428571,520.0 L 257.1428571428571,725.7142857142858 L 428.57142857142856,725.7142857142858 L 599.9999999999999,725.7142857142858 L 599.9999999999999,520.0 L 771.4285714285713,725.7142857142858 L 942.8571428571428,725.7142857142858 L 1114.2857142857142,725.7142857142858 L 771.4285714285713,520.0 L 428.57142857142856,520.0zz"/>
    <glyph glyph-name="a" unicode="a" d="M 771.4285714285713,520.0 L 942.8571428571428,520.0 L 1114.2857142857142,520.0 L 1114.2857142857142,314.28571428571433 L 1114.2857142857142,108.57142857142856 L 1114.2857142857142,-97.14285714285714 L 942.8571428571428,-97.14285714285714 L 771.4285714285713,-97.14285714285714 L 599.9999999999999,-97.14285714285714 L 599.9999999999999,108.57142857142856 L 428.57142857142856,108.57142857142856 L 428.57142857142856,-97.14285714285714 L 257.1428571428571,-97.14285714285714 L 85.71428571428571,-97.14285714285714 L 85.71428571428571,108.57142857142856 L 85.71428571428571,314.28571428571433 L 257.1428571428571,314.28571428571433 L 428.57142857142856,314.28571428571433 L 599.9999999999999,314.28571428571433 L 85.71428571428571,520.0 L 257.1428571428571,520.0 L 428.57142857142856,520.0 L 599.9999999999999,520.0 L 771.4285714285713,520.0zM 599.9999999999999,108.57142857142856 L 599.9999999999999,314.28571428571433 L 599.9999999999999,108.57142857142856zz"/>
    <glyph glyph-name="aacute" unicode="&#225;" d="M 942.8571428571428,725.7142857142858 L 771.4285714285713,725.7142857142858 L 599.9999999999999,725.7142857142858 L 428.57142857142856,725.7142857142858 L 257.1428571428571,725.7142857142858 L 942.8571428571428,725.7142857142858zM 771.4285714285713,520.0 L 942.8571428571428,520.0 L 1114.2857142857142,520.0 L 1114.2857142857142,314.28571428571433 L 1114.2857142857142,108.57142857142856 L 1114.2857142857142,-97.14285714285714 L 942.8571428571428,-97.14285714285714 L 771.4285714285713,-97.14285714285714 L 599.9999999999999,-97.14285714285714 L 599.9999999999999,108.57142857142856 L 428.57142857142856,108.57142857142856 L 428.57142857142856,-97.14285714285714 L 257.1428571428571,-97.14285714285714 L 85.71428571428571,-97.14285714285714 L 85.71428571428571,108.57142857142856 L 85.71428571428571,314.28571428571433 L 257.1428571428571,314.28571428571433 L 428.57142857142856,314.28571428571433 L 599.9999999999999,314.28571428571433 L 85.71428571428571,520.0 L 257.1428571428571,520.0 L 428.57142857142856,520.0 L 599.9999999999999,520.0 L 771.4285714285713,520.0zM 599.9999999999999,108.57142857142856 L 599.9999999999999,314.28571428571433 L 599.9999999999999,108.57142857142856zz"/>
    <glyph glyph-name="abreve" unicode="&#259;" d="M 599.9999999999999,725.7142857142858 L 428.57142857142856,725.7142857142858 L 257.1428571428571,725.7142857142858 L 771.4285714285713,725.7142857142858 L 942.8571428571428,725.7142857142858 L 599.9999999999999,725.7142857142858zM 771.4285714285713,520.0 L 942.8571428571428,520.0 L 1114.2857142857142,520.0 L 1114.2857142857142,314.28571428571433 L 1114.2857142857142,108.57142857142856 L 1114.2857142857142,-97.14285714285714 L 942.8571428571428,-97.14285714285714 L 771.4285714285713,-97.14285714285714 L 599.9999999999999,-97.14285714285714 L 599.9999999999999,108.57142857142856 L 428.57142857142856,108.57142857142856 L 428.57142857142856,-97.14285714285714 L 257.1428571428571,-97.14285714285714 L 85.71428571428571,-97.14285714285714 L 85.71428571428571,108.57142857142856 L 85.71428571428571,314.28571428571433 L 257.1428571428571,314.28571428571433 L 428.57142857142856,314.28571428571433 L 599.9999999999999,314.28571428571433 L 85.71428571428571,520.0 L 257.1428571428571,520.0 L 428.57142857142856,520.0 L 599.9999999999999,520.0 L 771.4285714285713,520.0zM 599.9999999999999,108.57142857142856 L 599.9999999999999,314.28571428571433 L 599.9999999999999,108.57142857142856zz"/>
    <glyph glyph-name="acircumflex" unicode="&#226;" d="M 942.8571428571428,725.7142857142858 L 771.4285714285713,725.7142857142858 L 599.9999999999999,725.7142857142858 L 428.57142857142856,725.7142857142858 L 257.1428571428571,725.7142857142858 L 942.8571428571428,725.7142857142858zM 771.4285714285713,520.0 L 942.8571428571428,520.0 L 1114.2857142857142,520.0 L 1114.2857142857142,314.28571428571433 L 1114.2857142857142,108.57142857142856 L 1114.2857142857142,-97.14285714285714 L 942.8571428571428,-97.14285714285714 L 771.4285714285713,-97.14285714285714 L 599.9999999999999,-97.14285714285714 L 599.9999999999999,108.57142857142856 L 428.57142857142856,108.57142857142856 L 428.57142857142856,-97.14285714285714 L 257.1428571428571,-97.14285714285714 L 85.71428571428571,-97.14285714285714 L 85.71428571428571,108.57142857142856 L 85.71428571428571,314.28571428571433 L 257.1428571428571,314.28571428571433 L 428.57142857142856,314.28571428571433 L 599.9999999999999,314.28571428571433 L 85.71428571428571,520.0 L 257.1428571428571,520.0 L 428.57142857142856,520.0 L 599.9999999999999,520.0 L 771.4285714285713,520.0zM 599.9999999999999,108.57142857142856 L 599.9999999999999,314.28571428571433 L 599.9999999999999,108.57142857142856zz"/>
    <glyph glyph-name="adieresis" unicode="&#228;" d="M 428.57142857142856,725.7142857142858 L 257.1428571428571,725.7142857142858 L 428.57142857142856,725.7142857142858zM 942.8571428571428,725.7142857142858 L 942.8571428571428,725.7142857142858zM 771.4285714285713,520.0 L 942.8571428571428,520.0 L 1114.2857142857142,520.0 L 1114.2857142857142,314.28571428571433 L 1114.2857142857142,108.57142857142856 L 1114.2857142857142,-97.14285714285714 L 942.8571428571428,-97.14285714285714 L 771.4285714285713,-97.14285714285714 L 599.9999999999999,-97.14285714285714 L 599.9999999999999,108.57142857142856 L 428.57142857142856,108.57142857142856 L 428.57142857142856,-97.14285714285714 L 257.1428571428571,-97.14285714285714 L 85.71428571428571,-97.14285714285714 L 85.71428571428571,108.57142857142856 L 85.71428571428571,314.28571428571433 L 257.1428571428571,314.28571428571433 L 428.57142857142856,314.28571428571433 L 599.9999999999999,314.28571428571433 L 85.71428571428571,520.0 L 257.1428571428571,520.0 L 428.57142857142856,520.0 L 599.9999999999999,520.0 L 771.4285714285713,520.0zM 599.9999999999999,108.57142857142856 L 599.9999999999999,314.28571428571433 L 599.9999999999999,108.57142857142856zz"/>
    <glyph glyph-name="agrave" unicode="&#224;" d="M 942.8571428571428,725.7142857142858 L 771.4285714285713,725.7142857142858 L 599.9999999999999,725.7142857142858 L 428.57142857142856,725.7142857142858 L 257.1428571428571,725.7142857142858 L 942.8571428571428,725.7142857142858zM 771.4285714285713,520.0 L 942.8571428571428,520.0 L 1114.2857142857142,520.0 L 1114.2857142857142,314.28571428571433 L 1114.2857142857142,108.57142857142856 L 1114.2857142857142,-97.14285714285714 L 942.8571428571428,-97.14285714285714 L 771.4285714285713,-97.14285714285714 L 599.9999999999999,-97.14285714285714 L 599.9999999999999,108.57142857142856 L 428.57142857142856,108.57142857142856 L 428.57142857142856,-97.14285714285714 L 257.1428571428571,-97.14285714285714 L 85.71428571428571,-97.14285714285714 L 85.71428571428571,108.57142857142856 L 85.71428571428571,314.28571428571433 L 257.1428571428571,314.28571428571433 L 428.57142857142856,314.28571428571433 L 599.9999999999999,314.28571428571433 L 85.71428571428571,520.0 L 257.1428571428571,520.0 L 428.57142857142856,520.0 L 599.9999999999999,520.0 L 771.4285714285713,520.0zM 599.9999999999999,108.57142857142856 L 599.9999999999999,314.28571428571433 L 599.9999999999999,108.57142857142856zz"/>
    <glyph glyph-name="amacron" unicode="&#257;" d="M 942.8571428571428,725.7142857142858 L 771.4285714285713,725.7142857142858 L 599.9999999999999,725.7142857142858 L 428.57142857142856,725.7142857142858 L 257.1428571428571,725.7142857142858 L 942.8571428571428,725.7142857142858zM 771.4285714285713,520.0 L 942.8571428571428,520.0 L 1114.2857142857142,520.0 L 1114.2857142857142,314.28571428571433 L 1114.2857142857142,108.57142857142856 L 1114.2857142857142,-97.14285714285714 L 942.8571428571428,-97.14285714285714 L 771.4285714285713,-97.14285714285714 L 599.9999999999999,-97.14285714285714 L 599.9999999999999,108.57142857142856 L 428.57142857142856,108.57142857142856 L 428.57142857142856,-97.14285714285714 L 257.1428571428571,-97.14285714285714 L 85.71428571428571,-97.14285714285714 L 85.71428571428571,108.57142857142856 L 85.71428571428571,314.28571428571433 L 257.1428571428571,314.28571428571433 L 428.57142857142856,314.28571428571433 L 599.9999999999999,314.28571428571433 L 85.71428571428571,520.0 L 257.1428571428571,520.0 L 428.57142857142856,520.0 L 599.9999999999999,520.0 L 771.4285714285713,520.0zM 599.9999999999999,108.57142857142856 L 599.9999999999999,314.28571428571433 L 599.9999999999999,108.57142857142856zz"/>
    <glyph glyph-name="aogonek" unicode="&#261;" d="M 1114.2857142857142,108.57142857142856 L 1114.2857142857142,-97.14285714285714 L 942.8571428571428,108.57142857142856 L 771.4285714285713,108.57142857142856 L 599.9999999999999,108.57142857142856 L 428.57142857142856,108.57142857142856 L 428.57142857142856,-97.14285714285714 L 257.1428571428571,-97.14285714285714 L 85.71428571428571,-97.14285714285714 L 85.71428571428571,108.57142857142856 L 85.71428571428571,314.28571428571433 L 257.1428571428571,314.28571428571433 L 428.57142857142856,314.28571428571433 L 599.9999999999999,314.28571428571433 L 85.71428571428571,520.0 L 257.1428571428571,520.0 L 428.57142857142856,520.0 L 599.9999999999999,520.0 L 771.4285714285713,520.0 L 942.8571428571428,520.0 L 1114.2857142857142,520.0 L 1114.2857142857142,314.28571428571433 L 1114.2857142857142,108.57142857142856zM 599.9999999999999,108.57142857142856 L 599.9999999999999,314.28571428571433 L 599.9999999999999,108.57142857142856zz"/>
    </font>
</defs>
</svg>
