<svg xmlns="http://www.w3.org/2000/svg" xmlns:xlink="http://www.w3.org/1999/xlink" version="1.1">
<metadata>
Created by FontForge 20170924 at Mon Apr 15 00:00:57 2019
 By edi0th,,,
Copyright \(c\) 2019 by Lucas Descroix. All rights reserved.
</metadata>
<defs>
<font id="Nostrav1.0-Sett" horiz-adv-x="1200">
  <font-face font-family="NostraSett-12" font-weight="900" font-stretch="extra-expanded" units-per-em="1000" panose-1="0 0 10 7 0 0 0 0 0 0" ascent="800" descent="-200" x-height="600" cap-height="700" bbox="-944 -20 1237 725" underline-thickness="40" underline-position="-60" stemh="390" stemv="600" unicode-range="U+0020-1F525"/>
<missing-glyph d="M20 0v700h1160v-700h-1160zM600 371l332 139h-664zM220 211l329 138l-329 138v-276zM980 211v276l-329 -138zM272 190h656l-328 138z"/>
    <glyph glyph-name=".notdef" d="M 50.0,-20.0 L 50.0,100.0 L 50.0,220.0 L 50.0,340.0 L 50.0,460.0 L 50.0,580.0 L 50.0,700.0 L 150.0,700.0 L 250.0,700.0 L 350.0,700.0 L 450.0,700.0 L 550.0,700.0 L 650.0,700.0 L 750.0,700.0 L 850.0,700.0 L 950.0,700.0 L 1050.0,700.0 L 1150.0,700.0 L 1150.0,580.0 L 1150.0,460.0 L 1150.0,340.0 L 1150.0,220.0 L 1150.0,100.0 L 1150.0,-20.0 L 1050.0,-20.0 L 950.0,-20.0 L 850.0,-20.0 L 750.0,-20.0 L 650.0,-20.0 L 550.0,-20.0 L 450.0,-20.0 L 350.0,-20.0 L 250.0,-20.0 L 150.0,-20.0 L 50.0,-20.0zM 550.0,340.0 L 650.0,340.0 L 650.0,460.0 L 750.0,460.0 L 850.0,460.0 L 950.0,460.0 L 550.0,460.0 L 450.0,460.0 L 350.0,460.0 L 250.0,460.0 L 550.0,340.0zM 250.0,220.0 L 350.0,220.0 L 350.0,340.0 L 450.0,340.0 L 550.0,340.0 L 450.0,460.0 L 350.0,460.0 L 250.0,460.0 L 250.0,340.0 L 250.0,220.0zM 950.0,220.0 L 950.0,340.0 L 950.0,460.0 L 850.0,460.0 L 750.0,460.0 L 750.0,340.0 L 650.0,340.0 L 850.0,340.0 L 850.0,220.0 L 950.0,220.0zM 250.0,220.0 L 350.0,220.0 L 450.0,220.0 L 550.0,220.0 L 650.0,220.0 L 750.0,220.0 L 850.0,220.0 L 950.0,220.0 L 750.0,340.0 L 650.0,340.0 L 550.0,340.0 L 450.0,340.0 L 250.0,220.0zz"/>
    <glyph glyph-name="space" unicode=" "/>
    <glyph glyph-name="A" unicode="A" d="M 650.0,-20.0 L 650.0,100.0 L 550.0,100.0 L 550.0,-20.0 L 450.0,-20.0 L 350.0,-20.0 L 250.0,-20.0 L 150.0,-20.0 L 50.0,-20.0 L 50.0,100.0 L 50.0,220.0 L 50.0,340.0 L 50.0,460.0 L 50.0,580.0 L 50.0,700.0 L 150.0,700.0 L 250.0,700.0 L 350.0,700.0 L 450.0,700.0 L 550.0,700.0 L 650.0,700.0 L 750.0,700.0 L 850.0,700.0 L 950.0,700.0 L 1050.0,700.0 L 1150.0,700.0 L 1150.0,580.0 L 1150.0,460.0 L 1150.0,340.0 L 1150.0,220.0 L 1150.0,100.0 L 1150.0,-20.0 L 1050.0,-20.0 L 950.0,-20.0 L 850.0,-20.0 L 750.0,-20.0 L 650.0,-20.0zM 550.0,220.0 L 650.0,220.0 L 650.0,340.0 L 650.0,460.0 L 550.0,460.0 L 550.0,340.0 L 550.0,220.0zz"/>
    <glyph glyph-name="Aacute" unicode="&#193;" d="M 950.0,700.0 L 850.0,700.0 L 750.0,700.0 L 650.0,700.0 L 550.0,700.0 L 450.0,700.0 L 350.0,700.0 L 250.0,700.0 L 950.0,700.0zM 650.0,-20.0 L 650.0,100.0 L 550.0,100.0 L 550.0,-20.0 L 450.0,-20.0 L 350.0,-20.0 L 250.0,-20.0 L 150.0,-20.0 L 50.0,-20.0 L 50.0,100.0 L 50.0,220.0 L 50.0,340.0 L 50.0,460.0 L 50.0,580.0 L 150.0,580.0 L 250.0,580.0 L 350.0,580.0 L 450.0,580.0 L 550.0,580.0 L 650.0,580.0 L 750.0,580.0 L 850.0,580.0 L 950.0,580.0 L 1050.0,580.0 L 1150.0,580.0 L 1150.0,460.0 L 1150.0,340.0 L 1150.0,220.0 L 1150.0,100.0 L 1150.0,-20.0 L 1050.0,-20.0 L 950.0,-20.0 L 850.0,-20.0 L 750.0,-20.0 L 650.0,-20.0zM 550.0,220.0 L 650.0,220.0 L 650.0,340.0 L 550.0,340.0 L 550.0,220.0zz"/>
    <glyph glyph-name="Abreve" unicode="&#258;" d="M 650.0,700.0 L 550.0,700.0 L 450.0,700.0 L 350.0,700.0 L 250.0,700.0 L 750.0,700.0 L 850.0,700.0 L 950.0,700.0 L 650.0,700.0zM 650.0,-20.0 L 650.0,100.0 L 550.0,100.0 L 550.0,-20.0 L 450.0,-20.0 L 350.0,-20.0 L 250.0,-20.0 L 150.0,-20.0 L 50.0,-20.0 L 50.0,100.0 L 50.0,220.0 L 50.0,340.0 L 50.0,460.0 L 50.0,580.0 L 150.0,580.0 L 250.0,580.0 L 350.0,580.0 L 450.0,580.0 L 550.0,580.0 L 650.0,580.0 L 750.0,580.0 L 850.0,580.0 L 950.0,580.0 L 1050.0,580.0 L 1150.0,580.0 L 1150.0,460.0 L 1150.0,340.0 L 1150.0,220.0 L 1150.0,100.0 L 1150.0,-20.0 L 1050.0,-20.0 L 950.0,-20.0 L 850.0,-20.0 L 750.0,-20.0 L 650.0,-20.0zM 550.0,220.0 L 650.0,220.0 L 650.0,340.0 L 550.0,340.0 L 550.0,220.0zz"/>
    <glyph glyph-name="Acircumflex" unicode="&#194;" d="M 950.0,700.0 L 850.0,700.0 L 750.0,700.0 L 650.0,700.0 L 550.0,700.0 L 450.0,700.0 L 350.0,700.0 L 250.0,700.0 L 950.0,700.0zM 650.0,-20.0 L 650.0,100.0 L 550.0,100.0 L 550.0,-20.0 L 450.0,-20.0 L 350.0,-20.0 L 250.0,-20.0 L 150.0,-20.0 L 50.0,-20.0 L 50.0,100.0 L 50.0,220.0 L 50.0,340.0 L 50.0,460.0 L 50.0,580.0 L 150.0,580.0 L 250.0,580.0 L 350.0,580.0 L 450.0,580.0 L 550.0,580.0 L 650.0,580.0 L 750.0,580.0 L 850.0,580.0 L 950.0,580.0 L 1050.0,580.0 L 1150.0,580.0 L 1150.0,460.0 L 1150.0,340.0 L 1150.0,220.0 L 1150.0,100.0 L 1150.0,-20.0 L 1050.0,-20.0 L 950.0,-20.0 L 850.0,-20.0 L 750.0,-20.0 L 650.0,-20.0zM 550.0,220.0 L 650.0,220.0 L 650.0,340.0 L 550.0,340.0 L 550.0,220.0zz"/>
    <glyph glyph-name="Adieresis" unicode="&#196;" d="M 350.0,700.0 L 250.0,700.0 L 350.0,700.0zM 850.0,700.0 L 950.0,700.0 L 850.0,700.0zM 650.0,-20.0 L 650.0,100.0 L 550.0,100.0 L 550.0,-20.0 L 450.0,-20.0 L 350.0,-20.0 L 250.0,-20.0 L 150.0,-20.0 L 50.0,-20.0 L 50.0,100.0 L 50.0,220.0 L 50.0,340.0 L 50.0,460.0 L 50.0,580.0 L 150.0,580.0 L 250.0,580.0 L 350.0,580.0 L 450.0,580.0 L 550.0,580.0 L 650.0,580.0 L 750.0,580.0 L 850.0,580.0 L 950.0,580.0 L 1050.0,580.0 L 1150.0,580.0 L 1150.0,460.0 L 1150.0,340.0 L 1150.0,220.0 L 1150.0,100.0 L 1150.0,-20.0 L 1050.0,-20.0 L 950.0,-20.0 L 850.0,-20.0 L 750.0,-20.0 L 650.0,-20.0zM 550.0,220.0 L 650.0,220.0 L 650.0,340.0 L 550.0,340.0 L 550.0,220.0zz"/>
    <glyph glyph-name="Agrave" unicode="&#192;" d="M 950.0,700.0 L 850.0,700.0 L 750.0,700.0 L 650.0,700.0 L 550.0,700.0 L 450.0,700.0 L 350.0,700.0 L 250.0,700.0 L 950.0,700.0zM 650.0,-20.0 L 650.0,100.0 L 550.0,100.0 L 550.0,-20.0 L 450.0,-20.0 L 350.0,-20.0 L 250.0,-20.0 L 150.0,-20.0 L 50.0,-20.0 L 50.0,100.0 L 50.0,220.0 L 50.0,340.0 L 50.0,460.0 L 50.0,580.0 L 150.0,580.0 L 250.0,580.0 L 350.0,580.0 L 450.0,580.0 L 550.0,580.0 L 650.0,580.0 L 750.0,580.0 L 850.0,580.0 L 950.0,580.0 L 1050.0,580.0 L 1150.0,580.0 L 1150.0,460.0 L 1150.0,340.0 L 1150.0,220.0 L 1150.0,100.0 L 1150.0,-20.0 L 1050.0,-20.0 L 950.0,-20.0 L 850.0,-20.0 L 750.0,-20.0 L 650.0,-20.0zM 550.0,220.0 L 650.0,220.0 L 650.0,340.0 L 550.0,340.0 L 550.0,220.0zz"/>
    <glyph glyph-name="Amacron" unicode="&#256;" d="M 950.0,700.0 L 850.0,700.0 L 750.0,700.0 L 650.0,700.0 L 550.0,700.0 L 450.0,700.0 L 350.0,700.0 L 250.0,700.0 L 950.0,700.0zM 650.0,-20.0 L 650.0,100.0 L 550.0,100.0 L 550.0,-20.0 L 450.0,-20.0 L 350.0,-20.0 L 250.0,-20.0 L 150.0,-20.0 L 50.0,-20.0 L 50.0,100.0 L 50.0,220.0 L 50.0,340.0 L 50.0,460.0 L 50.0,580.0 L 150.0,580.0 L 250.0,580.0 L 350.0,580.0 L 450.0,580.0 L 550.0,580.0 L 650.0,580.0 L 750.0,580.0 L 850.0,580.0 L 950.0,580.0 L 1050.0,580.0 L 1150.0,580.0 L 1150.0,460.0 L 1150.0,340.0 L 1150.0,220.0 L 1150.0,100.0 L 1150.0,-20.0 L 1050.0,-20.0 L 950.0,-20.0 L 850.0,-20.0 L 750.0,-20.0 L 650.0,-20.0zM 550.0,220.0 L 650.0,220.0 L 650.0,340.0 L 550.0,340.0 L 550.0,220.0zz"/>
    <glyph glyph-name="Aogonek" unicode="&#260;" d="M 1150.0,-20.0 L 1050.0,-20.0 L 1050.0,100.0 L 950.0,100.0 L 850.0,100.0 L 750.0,100.0 L 650.0,100.0 L 650.0,220.0 L 550.0,220.0 L 550.0,100.0 L 450.0,100.0 L 350.0,100.0 L 250.0,100.0 L 150.0,100.0 L 50.0,100.0 L 50.0,220.0 L 50.0,340.0 L 50.0,460.0 L 50.0,580.0 L 50.0,700.0 L 150.0,700.0 L 250.0,700.0 L 350.0,700.0 L 450.0,700.0 L 550.0,700.0 L 650.0,700.0 L 750.0,700.0 L 850.0,700.0 L 950.0,700.0 L 1050.0,700.0 L 1150.0,700.0 L 1150.0,580.0 L 1150.0,460.0 L 1150.0,340.0 L 1150.0,220.0 L 1150.0,100.0 L 1150.0,-20.0zM 550.0,340.0 L 650.0,340.0 L 650.0,460.0 L 550.0,460.0 L 550.0,340.0zz"/>
    <glyph glyph-name="Aring" unicode="&#197;" d="M 650.0,580.0 L 550.0,580.0 L 550.0,700.0 L 650.0,700.0 L 650.0,580.0zM 650.0,700.0 L 550.0,700.0 L 650.0,580.0 L 650.0,700.0zM 650.0,-20.0 L 650.0,100.0 L 550.0,100.0 L 550.0,-20.0 L 450.0,-20.0 L 350.0,-20.0 L 250.0,-20.0 L 150.0,-20.0 L 50.0,-20.0 L 50.0,100.0 L 50.0,220.0 L 50.0,340.0 L 50.0,460.0 L 50.0,580.0 L 150.0,580.0 L 250.0,580.0 L 350.0,580.0 L 450.0,580.0 L 550.0,580.0 L 650.0,580.0 L 750.0,580.0 L 850.0,580.0 L 950.0,580.0 L 1050.0,580.0 L 1150.0,580.0 L 1150.0,460.0 L 1150.0,340.0 L 1150.0,220.0 L 1150.0,100.0 L 1150.0,-20.0 L 1050.0,-20.0 L 950.0,-20.0 L 850.0,-20.0 L 750.0,-20.0 L 650.0,-20.0zM 550.0,220.0 L 650.0,220.0 L 650.0,340.0 L 550.0,340.0 L 550.0,220.0zz"/>
    <glyph glyph-name="Atilde" unicode="&#195;" d="M 450.0,700.0 L 350.0,700.0 L 250.0,700.0 L 550.0,700.0 L 650.0,700.0 L 750.0,700.0 L 850.0,700.0 L 950.0,700.0 L 450.0,700.0zM 650.0,-20.0 L 650.0,100.0 L 550.0,100.0 L 550.0,-20.0 L 450.0,-20.0 L 350.0,-20.0 L 250.0,-20.0 L 150.0,-20.0 L 50.0,-20.0 L 50.0,100.0 L 50.0,220.0 L 50.0,340.0 L 50.0,460.0 L 50.0,580.0 L 150.0,580.0 L 250.0,580.0 L 350.0,580.0 L 450.0,580.0 L 550.0,580.0 L 650.0,580.0 L 750.0,580.0 L 850.0,580.0 L 950.0,580.0 L 1050.0,580.0 L 1150.0,580.0 L 1150.0,460.0 L 1150.0,340.0 L 1150.0,220.0 L 1150.0,100.0 L 1150.0,-20.0 L 1050.0,-20.0 L 950.0,-20.0 L 850.0,-20.0 L 750.0,-20.0 L 650.0,-20.0zM 550.0,220.0 L 650.0,220.0 L 650.0,340.0 L 550.0,340.0 L 550.0,220.0zz"/>
    <glyph glyph-name="AE" unicode="&#198;" d="M 1150.0,460.0 L 1050.0,460.0 L 950.0,460.0 L 850.0,460.0 L 850.0,340.0 L 950.0,340.0 L 1050.0,340.0 L 1150.0,340.0 L 950.0,220.0 L 1050.0,220.0 L 1150.0,220.0 L 1150.0,100.0 L 1150.0,-20.0 L 1050.0,-20.0 L 950.0,-20.0 L 850.0,-20.0 L 750.0,-20.0 L 650.0,-20.0 L 550.0,-20.0 L 550.0,100.0 L 550.0,220.0 L 450.0,-20.0 L 350.0,-20.0 L 250.0,-20.0 L 150.0,-20.0 L 50.0,-20.0 L 50.0,100.0 L 50.0,220.0 L 50.0,340.0 L 50.0,460.0 L 50.0,580.0 L 50.0,700.0 L 150.0,700.0 L 250.0,700.0 L 350.0,700.0 L 450.0,700.0 L 550.0,700.0 L 650.0,700.0 L 750.0,700.0 L 850.0,700.0 L 950.0,700.0 L 1050.0,700.0 L 1150.0,700.0 L 1150.0,580.0 L 1150.0,460.0zM 550.0,220.0 L 550.0,340.0 L 550.0,460.0 L 550.0,220.0zz"/>
    <glyph glyph-name="B" unicode="B" d="M 650.0,340.0 L 750.0,340.0 L 850.0,340.0 L 950.0,340.0 L 1050.0,340.0 L 1150.0,340.0 L 1150.0,220.0 L 1150.0,100.0 L 1050.0,100.0 L 1050.0,-20.0 L 950.0,-20.0 L 850.0,-20.0 L 750.0,-20.0 L 650.0,-20.0 L 550.0,-20.0 L 450.0,-20.0 L 350.0,-20.0 L 250.0,-20.0 L 150.0,-20.0 L 50.0,-20.0 L 50.0,100.0 L 50.0,220.0 L 50.0,340.0 L 50.0,460.0 L 50.0,580.0 L 50.0,700.0 L 150.0,700.0 L 250.0,700.0 L 350.0,700.0 L 450.0,700.0 L 550.0,700.0 L 650.0,700.0 L 750.0,700.0 L 850.0,700.0 L 950.0,700.0 L 1050.0,700.0 L 1150.0,700.0 L 1150.0,580.0 L 1150.0,460.0 L 1050.0,460.0 L 650.0,340.0zM 650.0,580.0 L 650.0,460.0 L 650.0,340.0 L 650.0,580.0zM 650.0,100.0 L 650.0,220.0 L 650.0,340.0 L 650.0,100.0zz"/>
    <glyph glyph-name="C" unicode="C" d="M 550.0,-20.0 L 450.0,-20.0 L 350.0,-20.0 L 250.0,-20.0 L 250.0,100.0 L 150.0,100.0 L 50.0,100.0 L 50.0,220.0 L 50.0,340.0 L 50.0,460.0 L 50.0,580.0 L 150.0,580.0 L 150.0,700.0 L 250.0,700.0 L 350.0,700.0 L 450.0,700.0 L 550.0,700.0 L 650.0,700.0 L 750.0,700.0 L 850.0,700.0 L 950.0,700.0 L 1050.0,700.0 L 1150.0,700.0 L 1150.0,580.0 L 1150.0,460.0 L 1150.0,340.0 L 1050.0,340.0 L 950.0,340.0 L 850.0,340.0 L 750.0,340.0 L 650.0,340.0 L 650.0,460.0 L 550.0,460.0 L 550.0,340.0 L 550.0,220.0 L 650.0,220.0 L 1150.0,220.0 L 1150.0,100.0 L 1050.0,100.0 L 950.0,100.0 L 950.0,-20.0 L 850.0,-20.0 L 750.0,-20.0 L 650.0,-20.0 L 550.0,-20.0zz"/>
    <glyph glyph-name="Cacute" unicode="&#262;" d="M 250.0,700.0 L 350.0,700.0 L 450.0,700.0 L 550.0,700.0 L 650.0,700.0 L 750.0,700.0 L 850.0,700.0 L 950.0,700.0 L 250.0,700.0zM 550.0,-20.0 L 450.0,-20.0 L 350.0,-20.0 L 250.0,-20.0 L 150.0,100.0 L 50.0,100.0 L 50.0,220.0 L 50.0,340.0 L 50.0,460.0 L 150.0,460.0 L 150.0,580.0 L 250.0,580.0 L 350.0,580.0 L 450.0,580.0 L 550.0,580.0 L 650.0,580.0 L 750.0,580.0 L 850.0,580.0 L 950.0,580.0 L 1050.0,580.0 L 1150.0,580.0 L 1150.0,460.0 L 1150.0,340.0 L 1050.0,340.0 L 950.0,340.0 L 850.0,340.0 L 750.0,340.0 L 650.0,340.0 L 550.0,340.0 L 550.0,220.0 L 650.0,220.0 L 1150.0,220.0 L 1150.0,100.0 L 1050.0,100.0 L 950.0,-20.0 L 850.0,-20.0 L 750.0,-20.0 L 650.0,-20.0 L 550.0,-20.0zz"/>
    <glyph glyph-name="Ccaron" unicode="&#268;" d="M 650.0,700.0 L 550.0,700.0 L 450.0,700.0 L 350.0,700.0 L 250.0,700.0 L 750.0,700.0 L 850.0,700.0 L 950.0,700.0 L 650.0,700.0zM 550.0,-20.0 L 450.0,-20.0 L 350.0,-20.0 L 250.0,-20.0 L 150.0,100.0 L 50.0,100.0 L 50.0,220.0 L 50.0,340.0 L 50.0,460.0 L 150.0,460.0 L 150.0,580.0 L 250.0,580.0 L 350.0,580.0 L 450.0,580.0 L 550.0,580.0 L 650.0,580.0 L 750.0,580.0 L 850.0,580.0 L 950.0,580.0 L 1050.0,580.0 L 1150.0,580.0 L 1150.0,460.0 L 1150.0,340.0 L 1050.0,340.0 L 950.0,340.0 L 850.0,340.0 L 750.0,340.0 L 650.0,340.0 L 550.0,340.0 L 550.0,220.0 L 650.0,220.0 L 1150.0,220.0 L 1150.0,100.0 L 1050.0,100.0 L 950.0,-20.0 L 850.0,-20.0 L 750.0,-20.0 L 650.0,-20.0 L 550.0,-20.0zz"/>
    <glyph glyph-name="Ccedilla" unicode="&#199;" d="M 650.0,340.0 L 750.0,340.0 L 850.0,340.0 L 950.0,340.0 L 1050.0,340.0 L 1150.0,340.0 L 1150.0,220.0 L 1050.0,220.0 L 1050.0,100.0 L 950.0,100.0 L 850.0,100.0 L 750.0,100.0 L 650.0,100.0 L 650.0,-20.0 L 550.0,-20.0 L 550.0,100.0 L 450.0,100.0 L 350.0,100.0 L 250.0,100.0 L 150.0,100.0 L 150.0,220.0 L 50.0,220.0 L 50.0,340.0 L 50.0,460.0 L 50.0,580.0 L 150.0,580.0 L 150.0,700.0 L 250.0,700.0 L 350.0,700.0 L 450.0,700.0 L 550.0,700.0 L 650.0,700.0 L 750.0,700.0 L 850.0,700.0 L 950.0,700.0 L 1050.0,700.0 L 1150.0,700.0 L 1150.0,580.0 L 1150.0,460.0 L 1050.0,460.0 L 950.0,460.0 L 850.0,460.0 L 750.0,460.0 L 650.0,460.0 L 550.0,460.0 L 550.0,340.0 L 650.0,340.0zz"/>
    <glyph glyph-name="Cdotaccent" unicode="&#266;" d="M 650.0,700.0 L 550.0,700.0 L 650.0,700.0zM 550.0,-20.0 L 450.0,-20.0 L 350.0,-20.0 L 250.0,-20.0 L 150.0,100.0 L 50.0,100.0 L 50.0,220.0 L 50.0,340.0 L 50.0,460.0 L 150.0,460.0 L 150.0,580.0 L 250.0,580.0 L 350.0,580.0 L 450.0,580.0 L 550.0,580.0 L 650.0,580.0 L 750.0,580.0 L 850.0,580.0 L 950.0,580.0 L 1050.0,580.0 L 1150.0,580.0 L 1150.0,460.0 L 1150.0,340.0 L 1050.0,340.0 L 950.0,340.0 L 850.0,340.0 L 750.0,340.0 L 650.0,340.0 L 550.0,340.0 L 550.0,220.0 L 650.0,220.0 L 1150.0,220.0 L 1150.0,100.0 L 1050.0,100.0 L 950.0,-20.0 L 850.0,-20.0 L 750.0,-20.0 L 650.0,-20.0 L 550.0,-20.0zz"/>
    <glyph glyph-name="D" unicode="D" d="M 1150.0,340.0 L 1150.0,220.0 L 1150.0,100.0 L 1050.0,100.0 L 950.0,100.0 L 950.0,-20.0 L 850.0,-20.0 L 750.0,-20.0 L 650.0,-20.0 L 550.0,-20.0 L 450.0,-20.0 L 350.0,-20.0 L 250.0,-20.0 L 150.0,-20.0 L 50.0,-20.0 L 50.0,100.0 L 50.0,220.0 L 50.0,340.0 L 50.0,460.0 L 50.0,580.0 L 50.0,700.0 L 150.0,700.0 L 250.0,700.0 L 350.0,700.0 L 450.0,700.0 L 550.0,700.0 L 650.0,700.0 L 750.0,700.0 L 850.0,700.0 L 950.0,700.0 L 1050.0,700.0 L 1050.0,580.0 L 1150.0,580.0 L 1150.0,460.0 L 1150.0,340.0zM 650.0,220.0 L 650.0,340.0 L 650.0,460.0 L 550.0,460.0 L 550.0,340.0 L 550.0,220.0 L 650.0,220.0zz"/>
    <glyph glyph-name="Eth" unicode="&#208;" d="M 1150.0,340.0 L 1150.0,220.0 L 1150.0,100.0 L 1050.0,100.0 L 950.0,100.0 L 950.0,-20.0 L 850.0,-20.0 L 750.0,-20.0 L 650.0,-20.0 L 550.0,-20.0 L 450.0,-20.0 L 350.0,-20.0 L 250.0,-20.0 L 150.0,-20.0 L 50.0,-20.0 L 50.0,100.0 L 50.0,220.0 L 50.0,340.0 L 50.0,460.0 L 50.0,580.0 L 50.0,700.0 L 150.0,700.0 L 250.0,700.0 L 350.0,700.0 L 450.0,700.0 L 550.0,700.0 L 650.0,700.0 L 750.0,700.0 L 850.0,700.0 L 950.0,700.0 L 1050.0,700.0 L 1050.0,580.0 L 1150.0,580.0 L 1150.0,460.0 L 1150.0,340.0zM 650.0,220.0 L 650.0,340.0 L 650.0,460.0 L 550.0,460.0 L 550.0,340.0 L 550.0,220.0 L 650.0,220.0zz"/>
    <glyph glyph-name="Dcaron" unicode="&#270;" d="M 850.0,700.0 L 750.0,700.0 L 650.0,700.0 L 550.0,700.0 L 450.0,700.0 L 350.0,700.0 L 250.0,700.0 L 850.0,700.0zM 1150.0,340.0 L 1150.0,220.0 L 1150.0,100.0 L 1050.0,100.0 L 1050.0,-20.0 L 950.0,-20.0 L 850.0,-20.0 L 750.0,-20.0 L 650.0,-20.0 L 550.0,-20.0 L 450.0,-20.0 L 350.0,-20.0 L 250.0,-20.0 L 150.0,-20.0 L 50.0,-20.0 L 50.0,100.0 L 50.0,220.0 L 50.0,340.0 L 50.0,460.0 L 50.0,580.0 L 150.0,580.0 L 250.0,580.0 L 350.0,580.0 L 450.0,580.0 L 550.0,580.0 L 650.0,580.0 L 750.0,580.0 L 850.0,580.0 L 950.0,580.0 L 1050.0,580.0 L 1050.0,460.0 L 1150.0,460.0 L 1150.0,340.0zM 650.0,220.0 L 650.0,340.0 L 550.0,340.0 L 550.0,220.0 L 650.0,220.0zz"/>
    <glyph glyph-name="Dcroat" unicode="&#272;" d="M 1150.0,340.0 L 1150.0,220.0 L 1150.0,100.0 L 1050.0,100.0 L 950.0,100.0 L 950.0,-20.0 L 850.0,-20.0 L 750.0,-20.0 L 650.0,-20.0 L 550.0,-20.0 L 450.0,-20.0 L 350.0,-20.0 L 250.0,-20.0 L 150.0,-20.0 L 50.0,-20.0 L 50.0,100.0 L 50.0,220.0 L 50.0,340.0 L 50.0,460.0 L 50.0,580.0 L 50.0,700.0 L 150.0,700.0 L 250.0,700.0 L 350.0,700.0 L 450.0,700.0 L 550.0,700.0 L 650.0,700.0 L 750.0,700.0 L 850.0,700.0 L 950.0,700.0 L 1050.0,700.0 L 1050.0,580.0 L 1150.0,580.0 L 1150.0,460.0 L 1150.0,340.0zM 650.0,220.0 L 650.0,340.0 L 650.0,460.0 L 550.0,460.0 L 550.0,340.0 L 550.0,220.0 L 650.0,220.0zz"/>
    <glyph glyph-name="E" unicode="E" d="M 1150.0,460.0 L 1050.0,460.0 L 950.0,460.0 L 850.0,460.0 L 750.0,460.0 L 650.0,460.0 L 650.0,340.0 L 750.0,340.0 L 850.0,340.0 L 950.0,340.0 L 1050.0,340.0 L 650.0,220.0 L 1150.0,340.0 L 1150.0,220.0 L 1150.0,100.0 L 1150.0,-20.0 L 1050.0,-20.0 L 950.0,-20.0 L 850.0,-20.0 L 750.0,-20.0 L 650.0,-20.0 L 550.0,-20.0 L 450.0,-20.0 L 350.0,-20.0 L 250.0,-20.0 L 150.0,-20.0 L 50.0,-20.0 L 50.0,100.0 L 50.0,220.0 L 50.0,340.0 L 50.0,460.0 L 50.0,580.0 L 50.0,700.0 L 150.0,700.0 L 250.0,700.0 L 350.0,700.0 L 450.0,700.0 L 550.0,700.0 L 650.0,700.0 L 750.0,700.0 L 850.0,700.0 L 950.0,700.0 L 1050.0,700.0 L 1150.0,700.0 L 1150.0,580.0 L 1150.0,460.0zz"/>
    <glyph glyph-name="Eacute" unicode="&#201;" d="M 950.0,700.0 L 850.0,700.0 L 750.0,700.0 L 650.0,700.0 L 550.0,700.0 L 450.0,700.0 L 350.0,700.0 L 250.0,700.0 L 950.0,700.0zM 1150.0,340.0 L 1050.0,340.0 L 950.0,340.0 L 850.0,340.0 L 750.0,340.0 L 650.0,340.0 L 1050.0,220.0 L 950.0,220.0 L 850.0,220.0 L 750.0,220.0 L 650.0,220.0 L 1150.0,220.0 L 1150.0,100.0 L 1150.0,-20.0 L 1050.0,-20.0 L 950.0,-20.0 L 850.0,-20.0 L 750.0,-20.0 L 650.0,-20.0 L 550.0,-20.0 L 450.0,-20.0 L 350.0,-20.0 L 250.0,-20.0 L 150.0,-20.0 L 50.0,-20.0 L 50.0,100.0 L 50.0,220.0 L 50.0,340.0 L 50.0,460.0 L 50.0,580.0 L 150.0,580.0 L 250.0,580.0 L 350.0,580.0 L 450.0,580.0 L 550.0,580.0 L 650.0,580.0 L 750.0,580.0 L 850.0,580.0 L 950.0,580.0 L 1050.0,580.0 L 1150.0,580.0 L 1150.0,460.0 L 1150.0,340.0zz"/>
    <glyph glyph-name="Ecaron" unicode="&#282;" d="M 950.0,700.0 L 850.0,700.0 L 750.0,700.0 L 650.0,700.0 L 550.0,700.0 L 450.0,700.0 L 350.0,700.0 L 250.0,700.0 L 950.0,700.0zM 1150.0,340.0 L 1050.0,340.0 L 950.0,340.0 L 850.0,340.0 L 750.0,340.0 L 650.0,340.0 L 1050.0,220.0 L 950.0,220.0 L 850.0,220.0 L 750.0,220.0 L 650.0,220.0 L 1150.0,220.0 L 1150.0,100.0 L 1150.0,-20.0 L 1050.0,-20.0 L 950.0,-20.0 L 850.0,-20.0 L 750.0,-20.0 L 650.0,-20.0 L 550.0,-20.0 L 450.0,-20.0 L 350.0,-20.0 L 250.0,-20.0 L 150.0,-20.0 L 50.0,-20.0 L 50.0,100.0 L 50.0,220.0 L 50.0,340.0 L 50.0,460.0 L 50.0,580.0 L 150.0,580.0 L 250.0,580.0 L 350.0,580.0 L 450.0,580.0 L 550.0,580.0 L 650.0,580.0 L 750.0,580.0 L 850.0,580.0 L 950.0,580.0 L 1050.0,580.0 L 1150.0,580.0 L 1150.0,460.0 L 1150.0,340.0zz"/>
    <glyph glyph-name="Ecircumflex" unicode="&#202;" d="M 950.0,700.0 L 850.0,700.0 L 750.0,700.0 L 650.0,700.0 L 550.0,700.0 L 450.0,700.0 L 350.0,700.0 L 250.0,700.0 L 950.0,700.0zM 1150.0,340.0 L 1050.0,340.0 L 950.0,340.0 L 850.0,340.0 L 750.0,340.0 L 650.0,340.0 L 1050.0,220.0 L 950.0,220.0 L 850.0,220.0 L 750.0,220.0 L 650.0,220.0 L 1150.0,220.0 L 1150.0,100.0 L 1150.0,-20.0 L 1050.0,-20.0 L 950.0,-20.0 L 850.0,-20.0 L 750.0,-20.0 L 650.0,-20.0 L 550.0,-20.0 L 450.0,-20.0 L 350.0,-20.0 L 250.0,-20.0 L 150.0,-20.0 L 50.0,-20.0 L 50.0,100.0 L 50.0,220.0 L 50.0,340.0 L 50.0,460.0 L 50.0,580.0 L 150.0,580.0 L 250.0,580.0 L 350.0,580.0 L 450.0,580.0 L 550.0,580.0 L 650.0,580.0 L 750.0,580.0 L 850.0,580.0 L 950.0,580.0 L 1050.0,580.0 L 1150.0,580.0 L 1150.0,460.0 L 1150.0,340.0zz"/>
    <glyph glyph-name="Edieresis" unicode="&#203;" d="M 350.0,700.0 L 250.0,700.0 L 350.0,700.0zM 850.0,700.0 L 950.0,700.0 L 850.0,700.0zM 1150.0,340.0 L 1050.0,340.0 L 950.0,340.0 L 850.0,340.0 L 750.0,340.0 L 650.0,340.0 L 1050.0,220.0 L 950.0,220.0 L 850.0,220.0 L 750.0,220.0 L 650.0,220.0 L 1150.0,220.0 L 1150.0,100.0 L 1150.0,-20.0 L 1050.0,-20.0 L 950.0,-20.0 L 850.0,-20.0 L 750.0,-20.0 L 650.0,-20.0 L 550.0,-20.0 L 450.0,-20.0 L 350.0,-20.0 L 250.0,-20.0 L 150.0,-20.0 L 50.0,-20.0 L 50.0,100.0 L 50.0,220.0 L 50.0,340.0 L 50.0,460.0 L 50.0,580.0 L 150.0,580.0 L 250.0,580.0 L 350.0,580.0 L 450.0,580.0 L 550.0,580.0 L 650.0,580.0 L 750.0,580.0 L 850.0,580.0 L 950.0,580.0 L 1050.0,580.0 L 1150.0,580.0 L 1150.0,460.0 L 1150.0,340.0zz"/>
    <glyph glyph-name="Edotaccent" unicode="&#278;" d="M 550.0,700.0 L 650.0,700.0 L 550.0,700.0zM 1150.0,340.0 L 1050.0,340.0 L 950.0,340.0 L 850.0,340.0 L 750.0,340.0 L 650.0,340.0 L 1050.0,220.0 L 950.0,220.0 L 850.0,220.0 L 750.0,220.0 L 650.0,220.0 L 1150.0,220.0 L 1150.0,100.0 L 1150.0,-20.0 L 1050.0,-20.0 L 950.0,-20.0 L 850.0,-20.0 L 750.0,-20.0 L 650.0,-20.0 L 550.0,-20.0 L 450.0,-20.0 L 350.0,-20.0 L 250.0,-20.0 L 150.0,-20.0 L 50.0,-20.0 L 50.0,100.0 L 50.0,220.0 L 50.0,340.0 L 50.0,460.0 L 50.0,580.0 L 150.0,580.0 L 250.0,580.0 L 350.0,580.0 L 450.0,580.0 L 550.0,580.0 L 650.0,580.0 L 750.0,580.0 L 850.0,580.0 L 950.0,580.0 L 1050.0,580.0 L 1150.0,580.0 L 1150.0,460.0 L 1150.0,340.0zz"/>
    <glyph glyph-name="Egrave" unicode="&#200;" d="M 950.0,700.0 L 850.0,700.0 L 750.0,700.0 L 650.0,700.0 L 550.0,700.0 L 450.0,700.0 L 350.0,700.0 L 250.0,700.0 L 950.0,700.0zM 1150.0,340.0 L 1050.0,340.0 L 950.0,340.0 L 850.0,340.0 L 750.0,340.0 L 650.0,340.0 L 1050.0,220.0 L 950.0,220.0 L 850.0,220.0 L 750.0,220.0 L 650.0,220.0 L 1150.0,220.0 L 1150.0,100.0 L 1150.0,-20.0 L 1050.0,-20.0 L 950.0,-20.0 L 850.0,-20.0 L 750.0,-20.0 L 650.0,-20.0 L 550.0,-20.0 L 450.0,-20.0 L 350.0,-20.0 L 250.0,-20.0 L 150.0,-20.0 L 50.0,-20.0 L 50.0,100.0 L 50.0,220.0 L 50.0,340.0 L 50.0,460.0 L 50.0,580.0 L 150.0,580.0 L 250.0,580.0 L 350.0,580.0 L 450.0,580.0 L 550.0,580.0 L 650.0,580.0 L 750.0,580.0 L 850.0,580.0 L 950.0,580.0 L 1050.0,580.0 L 1150.0,580.0 L 1150.0,460.0 L 1150.0,340.0zz"/>
    <glyph glyph-name="Emacron" unicode="&#274;" d="M 950.0,700.0 L 850.0,700.0 L 750.0,700.0 L 650.0,700.0 L 550.0,700.0 L 450.0,700.0 L 350.0,700.0 L 250.0,700.0 L 950.0,700.0zM 1150.0,340.0 L 1050.0,340.0 L 950.0,340.0 L 850.0,340.0 L 750.0,340.0 L 650.0,340.0 L 1050.0,220.0 L 950.0,220.0 L 850.0,220.0 L 750.0,220.0 L 650.0,220.0 L 1150.0,220.0 L 1150.0,100.0 L 1150.0,-20.0 L 1050.0,-20.0 L 950.0,-20.0 L 850.0,-20.0 L 750.0,-20.0 L 650.0,-20.0 L 550.0,-20.0 L 450.0,-20.0 L 350.0,-20.0 L 250.0,-20.0 L 150.0,-20.0 L 50.0,-20.0 L 50.0,100.0 L 50.0,220.0 L 50.0,340.0 L 50.0,460.0 L 50.0,580.0 L 150.0,580.0 L 250.0,580.0 L 350.0,580.0 L 450.0,580.0 L 550.0,580.0 L 650.0,580.0 L 750.0,580.0 L 850.0,580.0 L 950.0,580.0 L 1050.0,580.0 L 1150.0,580.0 L 1150.0,460.0 L 1150.0,340.0zz"/>
    <glyph glyph-name="Eogonek" unicode="&#280;" d="M 1150.0,-20.0 L 1050.0,-20.0 L 950.0,100.0 L 1050.0,100.0 L 850.0,100.0 L 750.0,100.0 L 650.0,100.0 L 550.0,100.0 L 450.0,100.0 L 350.0,100.0 L 250.0,100.0 L 150.0,100.0 L 50.0,100.0 L 50.0,220.0 L 50.0,340.0 L 50.0,460.0 L 50.0,580.0 L 50.0,700.0 L 150.0,700.0 L 250.0,700.0 L 350.0,700.0 L 450.0,700.0 L 550.0,700.0 L 650.0,700.0 L 750.0,700.0 L 850.0,700.0 L 950.0,700.0 L 1050.0,700.0 L 1150.0,700.0 L 1150.0,580.0 L 1150.0,460.0 L 1050.0,460.0 L 950.0,460.0 L 850.0,460.0 L 750.0,460.0 L 650.0,460.0 L 1050.0,340.0 L 950.0,340.0 L 850.0,340.0 L 750.0,340.0 L 650.0,340.0 L 1150.0,340.0 L 1150.0,220.0 L 1150.0,100.0 L 1150.0,-20.0zz"/>
    <glyph glyph-name="F" unicode="F" d="M 1150.0,460.0 L 1050.0,460.0 L 950.0,460.0 L 850.0,460.0 L 750.0,460.0 L 650.0,460.0 L 650.0,340.0 L 750.0,340.0 L 850.0,340.0 L 950.0,340.0 L 1050.0,340.0 L 1050.0,220.0 L 950.0,220.0 L 850.0,220.0 L 750.0,220.0 L 650.0,220.0 L 650.0,100.0 L 650.0,-20.0 L 550.0,-20.0 L 450.0,-20.0 L 350.0,-20.0 L 250.0,-20.0 L 150.0,-20.0 L 50.0,-20.0 L 50.0,100.0 L 50.0,220.0 L 50.0,340.0 L 50.0,460.0 L 50.0,580.0 L 50.0,700.0 L 150.0,700.0 L 250.0,700.0 L 350.0,700.0 L 450.0,700.0 L 550.0,700.0 L 650.0,700.0 L 750.0,700.0 L 850.0,700.0 L 950.0,700.0 L 1050.0,700.0 L 1150.0,700.0 L 1150.0,580.0 L 1150.0,460.0zz"/>
    <glyph glyph-name="G" unicode="G" d="M 650.0,220.0 L 650.0,340.0 L 750.0,340.0 L 850.0,340.0 L 950.0,340.0 L 1050.0,340.0 L 1150.0,340.0 L 1150.0,220.0 L 1150.0,100.0 L 1150.0,-20.0 L 1050.0,-20.0 L 950.0,-20.0 L 850.0,-20.0 L 750.0,-20.0 L 650.0,-20.0 L 550.0,-20.0 L 450.0,-20.0 L 350.0,-20.0 L 250.0,-20.0 L 250.0,100.0 L 150.0,100.0 L 50.0,100.0 L 50.0,220.0 L 50.0,340.0 L 50.0,460.0 L 50.0,580.0 L 150.0,580.0 L 150.0,700.0 L 250.0,700.0 L 350.0,700.0 L 450.0,700.0 L 550.0,700.0 L 650.0,700.0 L 750.0,700.0 L 850.0,700.0 L 950.0,700.0 L 1050.0,700.0 L 1150.0,700.0 L 1150.0,580.0 L 1150.0,460.0 L 650.0,460.0 L 550.0,460.0 L 550.0,340.0 L 550.0,220.0 L 750.0,220.0 L 650.0,220.0zz"/>
    <glyph glyph-name="Gbreve" unicode="&#286;" d="M 650.0,700.0 L 550.0,700.0 L 450.0,700.0 L 350.0,700.0 L 250.0,700.0 L 750.0,700.0 L 850.0,700.0 L 950.0,700.0 L 650.0,700.0zM 650.0,220.0 L 750.0,220.0 L 850.0,220.0 L 950.0,220.0 L 1050.0,220.0 L 1150.0,220.0 L 1150.0,100.0 L 1150.0,-20.0 L 1050.0,-20.0 L 950.0,-20.0 L 850.0,-20.0 L 750.0,-20.0 L 650.0,-20.0 L 550.0,-20.0 L 450.0,-20.0 L 350.0,-20.0 L 250.0,-20.0 L 150.0,-20.0 L 150.0,100.0 L 50.0,100.0 L 50.0,220.0 L 50.0,340.0 L 50.0,460.0 L 150.0,460.0 L 150.0,580.0 L 250.0,580.0 L 350.0,580.0 L 450.0,580.0 L 550.0,580.0 L 650.0,580.0 L 750.0,580.0 L 850.0,580.0 L 950.0,580.0 L 1050.0,580.0 L 1150.0,580.0 L 1150.0,460.0 L 1150.0,340.0 L 1050.0,340.0 L 950.0,340.0 L 850.0,340.0 L 750.0,340.0 L 650.0,340.0 L 550.0,340.0 L 550.0,220.0 L 650.0,220.0zz"/>
    <glyph glyph-name="uni0122" unicode="&#290;" d="M 650.0,340.0 L 750.0,340.0 L 850.0,340.0 L 950.0,340.0 L 1050.0,340.0 L 1150.0,340.0 L 1150.0,220.0 L 1150.0,100.0 L 1050.0,100.0 L 950.0,100.0 L 850.0,100.0 L 750.0,100.0 L 650.0,100.0 L 550.0,100.0 L 450.0,100.0 L 350.0,100.0 L 250.0,100.0 L 150.0,100.0 L 150.0,220.0 L 50.0,220.0 L 50.0,340.0 L 50.0,460.0 L 50.0,580.0 L 150.0,580.0 L 150.0,700.0 L 250.0,700.0 L 350.0,700.0 L 450.0,700.0 L 550.0,700.0 L 650.0,700.0 L 750.0,700.0 L 850.0,700.0 L 950.0,700.0 L 1050.0,700.0 L 1150.0,700.0 L 1150.0,580.0 L 1150.0,460.0 L 1050.0,460.0 L 950.0,460.0 L 850.0,460.0 L 750.0,460.0 L 650.0,460.0 L 550.0,460.0 L 550.0,340.0 L 650.0,220.0 L 750.0,220.0 L 650.0,340.0zM 450.0,-20.0 L 550.0,-20.0 L 550.0,100.0 L 650.0,100.0 L 650.0,-20.0 L 450.0,-20.0zz"/>
    <glyph glyph-name="Gdotaccent" unicode="&#288;" d="M 650.0,700.0 L 550.0,700.0 L 650.0,700.0zM 650.0,220.0 L 750.0,220.0 L 850.0,220.0 L 950.0,220.0 L 1050.0,220.0 L 1150.0,220.0 L 1150.0,100.0 L 1150.0,-20.0 L 1050.0,-20.0 L 950.0,-20.0 L 850.0,-20.0 L 750.0,-20.0 L 650.0,-20.0 L 550.0,-20.0 L 450.0,-20.0 L 350.0,-20.0 L 250.0,-20.0 L 150.0,-20.0 L 150.0,100.0 L 50.0,100.0 L 50.0,220.0 L 50.0,340.0 L 50.0,460.0 L 150.0,460.0 L 150.0,580.0 L 250.0,580.0 L 350.0,580.0 L 450.0,580.0 L 550.0,580.0 L 650.0,580.0 L 750.0,580.0 L 850.0,580.0 L 950.0,580.0 L 1050.0,580.0 L 1150.0,580.0 L 1150.0,460.0 L 1150.0,340.0 L 1050.0,340.0 L 950.0,340.0 L 850.0,340.0 L 750.0,340.0 L 650.0,340.0 L 550.0,340.0 L 550.0,220.0 L 650.0,220.0zz"/>
    <glyph glyph-name="H" unicode="H" d="M 650.0,700.0 L 750.0,700.0 L 850.0,700.0 L 950.0,700.0 L 1050.0,700.0 L 1150.0,700.0 L 1150.0,580.0 L 1150.0,460.0 L 1150.0,340.0 L 1150.0,220.0 L 1150.0,100.0 L 1150.0,-20.0 L 1050.0,-20.0 L 950.0,-20.0 L 850.0,-20.0 L 750.0,-20.0 L 650.0,-20.0 L 650.0,100.0 L 650.0,220.0 L 650.0,340.0 L 550.0,340.0 L 550.0,220.0 L 550.0,100.0 L 550.0,-20.0 L 450.0,-20.0 L 350.0,-20.0 L 250.0,-20.0 L 150.0,-20.0 L 50.0,-20.0 L 50.0,100.0 L 50.0,220.0 L 50.0,340.0 L 50.0,460.0 L 50.0,580.0 L 50.0,700.0 L 150.0,700.0 L 250.0,700.0 L 350.0,700.0 L 450.0,700.0 L 550.0,700.0 L 550.0,580.0 L 550.0,460.0 L 650.0,460.0 L 650.0,580.0 L 650.0,700.0zz"/>
    <glyph glyph-name="Hbar" unicode="&#294;" d="M 1150.0,460.0 L 1150.0,340.0 L 1150.0,220.0 L 1150.0,100.0 L 1150.0,-20.0 L 1050.0,-20.0 L 950.0,-20.0 L 850.0,-20.0 L 750.0,-20.0 L 650.0,-20.0 L 650.0,100.0 L 650.0,220.0 L 650.0,340.0 L 550.0,340.0 L 550.0,220.0 L 550.0,100.0 L 550.0,-20.0 L 450.0,-20.0 L 350.0,-20.0 L 250.0,-20.0 L 150.0,-20.0 L 50.0,-20.0 L 50.0,100.0 L 50.0,220.0 L 50.0,340.0 L 50.0,460.0 L 50.0,580.0 L 50.0,700.0 L 150.0,700.0 L 250.0,700.0 L 350.0,700.0 L 450.0,700.0 L 550.0,700.0 L 550.0,580.0 L 550.0,460.0 L 650.0,460.0 L 650.0,580.0 L 650.0,700.0 L 750.0,700.0 L 850.0,700.0 L 950.0,700.0 L 1050.0,700.0 L 1150.0,700.0 L 1150.0,580.0 L 1150.0,460.0zM 650.0,340.0 L 650.0,460.0 L 550.0,460.0 L 550.0,340.0 L 650.0,340.0zz"/>
    <glyph glyph-name="I" unicode="I" d="M 1150.0,460.0 L 1050.0,460.0 L 950.0,460.0 L 850.0,460.0 L 850.0,340.0 L 950.0,220.0 L 1050.0,220.0 L 1150.0,220.0 L 1150.0,100.0 L 1150.0,-20.0 L 1050.0,-20.0 L 950.0,-20.0 L 850.0,-20.0 L 750.0,-20.0 L 650.0,-20.0 L 550.0,-20.0 L 450.0,-20.0 L 350.0,-20.0 L 250.0,-20.0 L 150.0,-20.0 L 50.0,-20.0 L 50.0,100.0 L 50.0,220.0 L 150.0,220.0 L 250.0,220.0 L 250.0,340.0 L 250.0,460.0 L 150.0,460.0 L 50.0,460.0 L 50.0,580.0 L 50.0,700.0 L 150.0,700.0 L 250.0,700.0 L 350.0,700.0 L 450.0,700.0 L 550.0,700.0 L 650.0,700.0 L 750.0,700.0 L 850.0,700.0 L 950.0,700.0 L 1050.0,700.0 L 1150.0,700.0 L 1150.0,580.0 L 1150.0,460.0zz"/>
    <glyph glyph-name="Iacute" unicode="&#205;" d="M 950.0,700.0 L 850.0,700.0 L 750.0,700.0 L 650.0,700.0 L 550.0,700.0 L 450.0,700.0 L 350.0,700.0 L 250.0,700.0 L 950.0,700.0zM 1150.0,340.0 L 1050.0,340.0 L 950.0,340.0 L 850.0,340.0 L 950.0,220.0 L 1050.0,220.0 L 1150.0,220.0 L 1150.0,100.0 L 1150.0,-20.0 L 1050.0,-20.0 L 950.0,-20.0 L 850.0,-20.0 L 750.0,-20.0 L 650.0,-20.0 L 550.0,-20.0 L 450.0,-20.0 L 350.0,-20.0 L 250.0,-20.0 L 150.0,-20.0 L 50.0,-20.0 L 50.0,100.0 L 50.0,220.0 L 150.0,220.0 L 250.0,220.0 L 250.0,340.0 L 150.0,340.0 L 50.0,340.0 L 50.0,460.0 L 50.0,580.0 L 150.0,580.0 L 250.0,580.0 L 350.0,580.0 L 450.0,580.0 L 550.0,580.0 L 650.0,580.0 L 750.0,580.0 L 850.0,580.0 L 950.0,580.0 L 1050.0,580.0 L 1150.0,580.0 L 1150.0,460.0 L 1150.0,340.0zz"/>
    <glyph glyph-name="Icircumflex" unicode="&#206;" d="M 950.0,700.0 L 850.0,700.0 L 750.0,700.0 L 650.0,700.0 L 550.0,700.0 L 450.0,700.0 L 350.0,700.0 L 250.0,700.0 L 950.0,700.0zM 1150.0,340.0 L 1050.0,340.0 L 950.0,340.0 L 850.0,340.0 L 950.0,220.0 L 1050.0,220.0 L 1150.0,220.0 L 1150.0,100.0 L 1150.0,-20.0 L 1050.0,-20.0 L 950.0,-20.0 L 850.0,-20.0 L 750.0,-20.0 L 650.0,-20.0 L 550.0,-20.0 L 450.0,-20.0 L 350.0,-20.0 L 250.0,-20.0 L 150.0,-20.0 L 50.0,-20.0 L 50.0,100.0 L 50.0,220.0 L 150.0,220.0 L 250.0,220.0 L 250.0,340.0 L 150.0,340.0 L 50.0,340.0 L 50.0,460.0 L 50.0,580.0 L 150.0,580.0 L 250.0,580.0 L 350.0,580.0 L 450.0,580.0 L 550.0,580.0 L 650.0,580.0 L 750.0,580.0 L 850.0,580.0 L 950.0,580.0 L 1050.0,580.0 L 1150.0,580.0 L 1150.0,460.0 L 1150.0,340.0zz"/>
    <glyph glyph-name="Idieresis" unicode="&#207;" d="M 350.0,700.0 L 250.0,700.0 L 350.0,700.0zM 850.0,700.0 L 950.0,700.0 L 850.0,700.0zM 1150.0,340.0 L 1050.0,340.0 L 950.0,340.0 L 850.0,340.0 L 950.0,220.0 L 1050.0,220.0 L 1150.0,220.0 L 1150.0,100.0 L 1150.0,-20.0 L 1050.0,-20.0 L 950.0,-20.0 L 850.0,-20.0 L 750.0,-20.0 L 650.0,-20.0 L 550.0,-20.0 L 450.0,-20.0 L 350.0,-20.0 L 250.0,-20.0 L 150.0,-20.0 L 50.0,-20.0 L 50.0,100.0 L 50.0,220.0 L 150.0,220.0 L 250.0,220.0 L 250.0,340.0 L 150.0,340.0 L 50.0,340.0 L 50.0,460.0 L 50.0,580.0 L 150.0,580.0 L 250.0,580.0 L 350.0,580.0 L 450.0,580.0 L 550.0,580.0 L 650.0,580.0 L 750.0,580.0 L 850.0,580.0 L 950.0,580.0 L 1050.0,580.0 L 1150.0,580.0 L 1150.0,460.0 L 1150.0,340.0zz"/>
    <glyph glyph-name="Idotaccent" unicode="&#304;" d="M 550.0,700.0 L 650.0,700.0 L 550.0,700.0zM 1150.0,340.0 L 1050.0,340.0 L 950.0,340.0 L 850.0,340.0 L 950.0,220.0 L 1050.0,220.0 L 1150.0,220.0 L 1150.0,100.0 L 1150.0,-20.0 L 1050.0,-20.0 L 950.0,-20.0 L 850.0,-20.0 L 750.0,-20.0 L 650.0,-20.0 L 550.0,-20.0 L 450.0,-20.0 L 350.0,-20.0 L 250.0,-20.0 L 150.0,-20.0 L 50.0,-20.0 L 50.0,100.0 L 50.0,220.0 L 150.0,220.0 L 250.0,220.0 L 250.0,340.0 L 150.0,340.0 L 50.0,340.0 L 50.0,460.0 L 50.0,580.0 L 150.0,580.0 L 250.0,580.0 L 350.0,580.0 L 450.0,580.0 L 550.0,580.0 L 650.0,580.0 L 750.0,580.0 L 850.0,580.0 L 950.0,580.0 L 1050.0,580.0 L 1150.0,580.0 L 1150.0,460.0 L 1150.0,340.0zz"/>
    <glyph glyph-name="Igrave" unicode="&#204;" d="M 950.0,700.0 L 850.0,700.0 L 750.0,700.0 L 650.0,700.0 L 550.0,700.0 L 450.0,700.0 L 350.0,700.0 L 250.0,700.0 L 950.0,700.0zM 1150.0,340.0 L 1050.0,340.0 L 950.0,340.0 L 850.0,340.0 L 950.0,220.0 L 1050.0,220.0 L 1150.0,220.0 L 1150.0,100.0 L 1150.0,-20.0 L 1050.0,-20.0 L 950.0,-20.0 L 850.0,-20.0 L 750.0,-20.0 L 650.0,-20.0 L 550.0,-20.0 L 450.0,-20.0 L 350.0,-20.0 L 250.0,-20.0 L 150.0,-20.0 L 50.0,-20.0 L 50.0,100.0 L 50.0,220.0 L 150.0,220.0 L 250.0,220.0 L 250.0,340.0 L 150.0,340.0 L 50.0,340.0 L 50.0,460.0 L 50.0,580.0 L 150.0,580.0 L 250.0,580.0 L 350.0,580.0 L 450.0,580.0 L 550.0,580.0 L 650.0,580.0 L 750.0,580.0 L 850.0,580.0 L 950.0,580.0 L 1050.0,580.0 L 1150.0,580.0 L 1150.0,460.0 L 1150.0,340.0zz"/>
    <glyph glyph-name="Imacron" unicode="&#298;" d="M 950.0,700.0 L 850.0,700.0 L 750.0,700.0 L 650.0,700.0 L 550.0,700.0 L 450.0,700.0 L 350.0,700.0 L 250.0,700.0 L 950.0,700.0zM 1150.0,340.0 L 1050.0,340.0 L 950.0,340.0 L 850.0,340.0 L 950.0,220.0 L 1050.0,220.0 L 1150.0,220.0 L 1150.0,100.0 L 1150.0,-20.0 L 1050.0,-20.0 L 950.0,-20.0 L 850.0,-20.0 L 750.0,-20.0 L 650.0,-20.0 L 550.0,-20.0 L 450.0,-20.0 L 350.0,-20.0 L 250.0,-20.0 L 150.0,-20.0 L 50.0,-20.0 L 50.0,100.0 L 50.0,220.0 L 150.0,220.0 L 250.0,220.0 L 250.0,340.0 L 150.0,340.0 L 50.0,340.0 L 50.0,460.0 L 50.0,580.0 L 150.0,580.0 L 250.0,580.0 L 350.0,580.0 L 450.0,580.0 L 550.0,580.0 L 650.0,580.0 L 750.0,580.0 L 850.0,580.0 L 950.0,580.0 L 1050.0,580.0 L 1150.0,580.0 L 1150.0,460.0 L 1150.0,340.0zz"/>
    <glyph glyph-name="Iogonek" unicode="&#302;" d="M 1150.0,-20.0 L 1050.0,-20.0 L 950.0,100.0 L 1050.0,100.0 L 850.0,100.0 L 750.0,100.0 L 650.0,100.0 L 550.0,100.0 L 450.0,100.0 L 350.0,100.0 L 250.0,100.0 L 150.0,100.0 L 50.0,100.0 L 50.0,220.0 L 50.0,340.0 L 150.0,340.0 L 250.0,340.0 L 250.0,460.0 L 150.0,460.0 L 50.0,460.0 L 50.0,580.0 L 50.0,700.0 L 150.0,700.0 L 250.0,700.0 L 350.0,700.0 L 450.0,700.0 L 550.0,700.0 L 650.0,700.0 L 750.0,700.0 L 850.0,700.0 L 950.0,700.0 L 1050.0,700.0 L 1150.0,700.0 L 1150.0,580.0 L 1150.0,460.0 L 1050.0,460.0 L 950.0,460.0 L 850.0,460.0 L 850.0,340.0 L 950.0,340.0 L 1050.0,340.0 L 1150.0,340.0 L 1150.0,220.0 L 1150.0,100.0 L 1150.0,-20.0zz"/>
    <glyph glyph-name="J" unicode="J" d="M 1150.0,700.0 L 1150.0,580.0 L 1150.0,460.0 L 1150.0,340.0 L 1150.0,220.0 L 1150.0,100.0 L 1050.0,100.0 L 950.0,100.0 L 950.0,-20.0 L 850.0,-20.0 L 750.0,-20.0 L 650.0,-20.0 L 550.0,-20.0 L 450.0,-20.0 L 350.0,-20.0 L 250.0,-20.0 L 150.0,-20.0 L 50.0,-20.0 L 50.0,100.0 L 50.0,220.0 L 150.0,220.0 L 250.0,220.0 L 350.0,220.0 L 350.0,340.0 L 450.0,340.0 L 550.0,340.0 L 550.0,460.0 L 450.0,460.0 L 350.0,460.0 L 250.0,460.0 L 150.0,460.0 L 50.0,460.0 L 50.0,580.0 L 50.0,700.0 L 150.0,700.0 L 250.0,700.0 L 350.0,700.0 L 450.0,700.0 L 550.0,700.0 L 650.0,700.0 L 750.0,700.0 L 850.0,700.0 L 950.0,700.0 L 1050.0,700.0 L 1150.0,700.0zz"/>
    <glyph glyph-name="K" unicode="K" d="M 1150.0,700.0 L 1150.0,580.0 L 1150.0,460.0 L 1150.0,340.0 L 1150.0,220.0 L 1150.0,100.0 L 1150.0,-20.0 L 1050.0,-20.0 L 950.0,-20.0 L 850.0,-20.0 L 750.0,-20.0 L 650.0,-20.0 L 650.0,100.0 L 650.0,220.0 L 650.0,340.0 L 550.0,340.0 L 550.0,220.0 L 550.0,100.0 L 550.0,-20.0 L 450.0,-20.0 L 350.0,-20.0 L 250.0,-20.0 L 150.0,-20.0 L 50.0,-20.0 L 50.0,100.0 L 50.0,220.0 L 50.0,340.0 L 50.0,460.0 L 50.0,580.0 L 50.0,700.0 L 150.0,700.0 L 250.0,700.0 L 350.0,700.0 L 450.0,700.0 L 550.0,700.0 L 550.0,580.0 L 550.0,460.0 L 650.0,460.0 L 650.0,580.0 L 650.0,700.0 L 750.0,700.0 L 850.0,700.0 L 950.0,700.0 L 1050.0,700.0 L 1150.0,700.0zz"/>
    <glyph glyph-name="uni0136" unicode="&#310;" d="M 1150.0,700.0 L 1150.0,580.0 L 1150.0,460.0 L 1150.0,340.0 L 1150.0,220.0 L 1150.0,100.0 L 1050.0,100.0 L 950.0,100.0 L 850.0,100.0 L 750.0,100.0 L 650.0,100.0 L 650.0,220.0 L 650.0,340.0 L 550.0,340.0 L 550.0,220.0 L 550.0,100.0 L 450.0,100.0 L 350.0,100.0 L 250.0,100.0 L 150.0,100.0 L 50.0,100.0 L 50.0,220.0 L 50.0,340.0 L 50.0,460.0 L 50.0,580.0 L 50.0,700.0 L 150.0,700.0 L 250.0,700.0 L 350.0,700.0 L 450.0,700.0 L 550.0,700.0 L 550.0,580.0 L 550.0,460.0 L 650.0,460.0 L 650.0,580.0 L 650.0,700.0 L 750.0,700.0 L 850.0,700.0 L 950.0,700.0 L 1050.0,700.0 L 1150.0,700.0zM 450.0,-20.0 L 550.0,-20.0 L 550.0,100.0 L 650.0,100.0 L 650.0,-20.0 L 450.0,-20.0zz"/>
    <glyph glyph-name="L" unicode="L" d="M 650.0,340.0 L 750.0,340.0 L 850.0,340.0 L 950.0,340.0 L 1050.0,340.0 L 1150.0,340.0 L 1150.0,220.0 L 1150.0,100.0 L 1150.0,-20.0 L 1050.0,-20.0 L 950.0,-20.0 L 850.0,-20.0 L 750.0,-20.0 L 650.0,-20.0 L 550.0,-20.0 L 450.0,-20.0 L 350.0,-20.0 L 250.0,-20.0 L 150.0,-20.0 L 50.0,-20.0 L 50.0,100.0 L 50.0,220.0 L 50.0,340.0 L 50.0,460.0 L 50.0,580.0 L 50.0,700.0 L 150.0,700.0 L 250.0,700.0 L 350.0,700.0 L 450.0,700.0 L 550.0,700.0 L 650.0,700.0 L 650.0,580.0 L 650.0,460.0 L 650.0,340.0zz"/>
    <glyph glyph-name="Lacute" unicode="&#313;" d="M 650.0,700.0 L 550.0,700.0 L 450.0,700.0 L 350.0,700.0 L 250.0,700.0 L 150.0,700.0 L 50.0,700.0 L 650.0,700.0zM 650.0,340.0 L 750.0,340.0 L 850.0,340.0 L 950.0,340.0 L 1050.0,340.0 L 1150.0,340.0 L 1150.0,220.0 L 1150.0,100.0 L 1150.0,-20.0 L 1050.0,-20.0 L 950.0,-20.0 L 850.0,-20.0 L 750.0,-20.0 L 650.0,-20.0 L 550.0,-20.0 L 450.0,-20.0 L 350.0,-20.0 L 250.0,-20.0 L 150.0,-20.0 L 50.0,-20.0 L 50.0,100.0 L 50.0,220.0 L 50.0,340.0 L 50.0,460.0 L 50.0,580.0 L 150.0,580.0 L 250.0,580.0 L 350.0,580.0 L 450.0,580.0 L 550.0,580.0 L 650.0,580.0 L 650.0,460.0 L 650.0,340.0zz"/>
    <glyph glyph-name="Lcaron" unicode="&#317;" d="M 650.0,340.0 L 750.0,340.0 L 850.0,340.0 L 950.0,340.0 L 1050.0,340.0 L 1150.0,340.0 L 1150.0,220.0 L 1150.0,100.0 L 1150.0,-20.0 L 1050.0,-20.0 L 950.0,-20.0 L 850.0,-20.0 L 750.0,-20.0 L 650.0,-20.0 L 550.0,-20.0 L 450.0,-20.0 L 350.0,-20.0 L 250.0,-20.0 L 150.0,-20.0 L 50.0,-20.0 L 50.0,100.0 L 50.0,220.0 L 50.0,340.0 L 50.0,460.0 L 50.0,580.0 L 50.0,700.0 L 150.0,700.0 L 250.0,700.0 L 350.0,700.0 L 450.0,700.0 L 550.0,700.0 L 650.0,700.0 L 650.0,580.0 L 650.0,460.0 L 650.0,340.0zM 950.0,340.0 L 850.0,340.0 L 850.0,460.0 L 850.0,580.0 L 850.0,700.0 L 950.0,700.0 L 950.0,580.0 L 950.0,460.0 L 950.0,340.0zz"/>
    <glyph glyph-name="uni013B" unicode="&#315;" d="M 650.0,460.0 L 750.0,460.0 L 850.0,460.0 L 950.0,460.0 L 1050.0,460.0 L 1150.0,460.0 L 1150.0,340.0 L 1150.0,220.0 L 1150.0,100.0 L 1050.0,100.0 L 950.0,100.0 L 850.0,100.0 L 750.0,100.0 L 650.0,100.0 L 550.0,100.0 L 450.0,100.0 L 350.0,100.0 L 250.0,100.0 L 150.0,100.0 L 50.0,100.0 L 50.0,220.0 L 50.0,340.0 L 50.0,460.0 L 50.0,580.0 L 50.0,700.0 L 150.0,700.0 L 250.0,700.0 L 350.0,700.0 L 450.0,700.0 L 550.0,700.0 L 650.0,700.0 L 650.0,580.0 L 650.0,460.0zM 450.0,-20.0 L 550.0,-20.0 L 550.0,100.0 L 650.0,100.0 L 650.0,-20.0 L 450.0,-20.0zz"/>
    <glyph glyph-name="Ldot" unicode="&#319;" d="M 650.0,340.0 L 750.0,340.0 L 850.0,340.0 L 950.0,340.0 L 1050.0,340.0 L 1150.0,340.0 L 1150.0,220.0 L 1150.0,100.0 L 1150.0,-20.0 L 1050.0,-20.0 L 950.0,-20.0 L 850.0,-20.0 L 750.0,-20.0 L 650.0,-20.0 L 550.0,-20.0 L 450.0,-20.0 L 350.0,-20.0 L 250.0,-20.0 L 150.0,-20.0 L 50.0,-20.0 L 50.0,100.0 L 50.0,220.0 L 50.0,340.0 L 50.0,460.0 L 50.0,580.0 L 50.0,700.0 L 150.0,700.0 L 250.0,700.0 L 350.0,700.0 L 450.0,700.0 L 550.0,700.0 L 650.0,700.0 L 650.0,580.0 L 650.0,460.0 L 650.0,340.0zM 950.0,460.0 L 850.0,460.0 L 850.0,580.0 L 750.0,580.0 L 850.0,700.0 L 950.0,700.0 L 950.0,580.0 L 1050.0,580.0 L 1050.0,460.0 L 950.0,460.0zz"/>
    <glyph glyph-name="Lslash" unicode="&#321;" d="M 650.0,340.0 L 750.0,340.0 L 850.0,340.0 L 950.0,340.0 L 1050.0,340.0 L 1150.0,340.0 L 1150.0,220.0 L 1150.0,100.0 L 1150.0,-20.0 L 1050.0,-20.0 L 950.0,-20.0 L 850.0,-20.0 L 750.0,-20.0 L 650.0,-20.0 L 550.0,-20.0 L 450.0,-20.0 L 350.0,-20.0 L 250.0,-20.0 L 150.0,-20.0 L 50.0,-20.0 L 50.0,100.0 L 50.0,220.0 L 50.0,340.0 L 50.0,460.0 L 50.0,580.0 L 50.0,700.0 L 150.0,700.0 L 250.0,700.0 L 350.0,700.0 L 450.0,700.0 L 550.0,700.0 L 650.0,700.0 L 650.0,580.0 L 650.0,460.0 L 750.0,460.0 L 850.0,460.0 L 650.0,340.0zz"/>
    <glyph glyph-name="M" unicode="M" d="M 1150.0,-20.0 L 1050.0,-20.0 L 950.0,-20.0 L 850.0,-20.0 L 750.0,-20.0 L 650.0,-20.0 L 650.0,100.0 L 650.0,220.0 L 650.0,340.0 L 650.0,460.0 L 550.0,-20.0 L 550.0,100.0 L 550.0,220.0 L 550.0,340.0 L 550.0,460.0 L 450.0,-20.0 L 350.0,-20.0 L 250.0,-20.0 L 150.0,-20.0 L 50.0,-20.0 L 50.0,100.0 L 50.0,220.0 L 50.0,340.0 L 50.0,460.0 L 50.0,580.0 L 50.0,700.0 L 150.0,700.0 L 250.0,700.0 L 350.0,700.0 L 450.0,700.0 L 550.0,700.0 L 550.0,580.0 L 650.0,580.0 L 650.0,700.0 L 750.0,700.0 L 850.0,700.0 L 950.0,700.0 L 1050.0,700.0 L 1150.0,700.0 L 1150.0,580.0 L 1150.0,460.0 L 1150.0,340.0 L 1150.0,220.0 L 1150.0,100.0 L 1150.0,-20.0zz"/>
    <glyph glyph-name="N" unicode="N" d="M 650.0,700.0 L 750.0,700.0 L 850.0,700.0 L 950.0,700.0 L 1050.0,700.0 L 1150.0,700.0 L 1150.0,580.0 L 1150.0,460.0 L 1150.0,340.0 L 1150.0,220.0 L 1150.0,100.0 L 1150.0,-20.0 L 1050.0,-20.0 L 950.0,-20.0 L 850.0,-20.0 L 750.0,-20.0 L 650.0,-20.0 L 650.0,100.0 L 650.0,220.0 L 550.0,220.0 L 550.0,340.0 L 550.0,460.0 L 550.0,100.0 L 550.0,-20.0 L 450.0,-20.0 L 350.0,-20.0 L 250.0,-20.0 L 150.0,-20.0 L 50.0,-20.0 L 50.0,100.0 L 50.0,220.0 L 50.0,340.0 L 50.0,460.0 L 50.0,580.0 L 50.0,700.0 L 150.0,700.0 L 250.0,700.0 L 350.0,700.0 L 450.0,700.0 L 550.0,700.0 L 550.0,580.0 L 650.0,460.0 L 650.0,340.0 L 650.0,580.0 L 650.0,700.0zz"/>
    <glyph glyph-name="Nacute" unicode="&#323;" d="M 950.0,700.0 L 850.0,700.0 L 750.0,700.0 L 650.0,700.0 L 550.0,700.0 L 450.0,700.0 L 350.0,700.0 L 250.0,700.0 L 950.0,700.0zM 650.0,580.0 L 750.0,580.0 L 850.0,580.0 L 950.0,580.0 L 1050.0,580.0 L 1150.0,580.0 L 1150.0,460.0 L 1150.0,340.0 L 1150.0,220.0 L 1150.0,100.0 L 1150.0,-20.0 L 1050.0,-20.0 L 950.0,-20.0 L 850.0,-20.0 L 750.0,-20.0 L 650.0,-20.0 L 650.0,100.0 L 650.0,220.0 L 550.0,220.0 L 550.0,340.0 L 550.0,100.0 L 550.0,-20.0 L 450.0,-20.0 L 350.0,-20.0 L 250.0,-20.0 L 150.0,-20.0 L 50.0,-20.0 L 50.0,100.0 L 50.0,220.0 L 50.0,340.0 L 50.0,460.0 L 50.0,580.0 L 150.0,580.0 L 250.0,580.0 L 350.0,580.0 L 450.0,580.0 L 550.0,580.0 L 550.0,460.0 L 650.0,340.0 L 650.0,460.0 L 650.0,580.0zz"/>
    <glyph glyph-name="Ncaron" unicode="&#327;" d="M 950.0,700.0 L 850.0,700.0 L 750.0,700.0 L 650.0,700.0 L 550.0,700.0 L 450.0,700.0 L 350.0,700.0 L 250.0,700.0 L 950.0,700.0zM 650.0,580.0 L 750.0,580.0 L 850.0,580.0 L 950.0,580.0 L 1050.0,580.0 L 1150.0,580.0 L 1150.0,460.0 L 1150.0,340.0 L 1150.0,220.0 L 1150.0,100.0 L 1150.0,-20.0 L 1050.0,-20.0 L 950.0,-20.0 L 850.0,-20.0 L 750.0,-20.0 L 650.0,-20.0 L 650.0,100.0 L 650.0,220.0 L 550.0,220.0 L 550.0,340.0 L 550.0,100.0 L 550.0,-20.0 L 450.0,-20.0 L 350.0,-20.0 L 250.0,-20.0 L 150.0,-20.0 L 50.0,-20.0 L 50.0,100.0 L 50.0,220.0 L 50.0,340.0 L 50.0,460.0 L 50.0,580.0 L 150.0,580.0 L 250.0,580.0 L 350.0,580.0 L 450.0,580.0 L 550.0,580.0 L 550.0,460.0 L 650.0,340.0 L 650.0,460.0 L 650.0,580.0zz"/>
    <glyph glyph-name="uni0145" unicode="&#325;" d="M 650.0,700.0 L 750.0,700.0 L 850.0,700.0 L 950.0,700.0 L 1050.0,700.0 L 1150.0,700.0 L 1150.0,580.0 L 1150.0,460.0 L 1150.0,340.0 L 1150.0,220.0 L 1150.0,100.0 L 1050.0,100.0 L 950.0,100.0 L 850.0,100.0 L 750.0,100.0 L 650.0,100.0 L 650.0,220.0 L 650.0,340.0 L 550.0,340.0 L 550.0,460.0 L 550.0,220.0 L 550.0,100.0 L 450.0,100.0 L 350.0,100.0 L 250.0,100.0 L 150.0,100.0 L 50.0,100.0 L 50.0,220.0 L 50.0,340.0 L 50.0,460.0 L 50.0,580.0 L 50.0,700.0 L 150.0,700.0 L 250.0,700.0 L 350.0,700.0 L 450.0,700.0 L 550.0,700.0 L 550.0,580.0 L 650.0,460.0 L 650.0,580.0 L 650.0,700.0zM 450.0,-20.0 L 550.0,-20.0 L 550.0,100.0 L 650.0,100.0 L 650.0,-20.0 L 450.0,-20.0zz"/>
    <glyph glyph-name="Eng" unicode="&#330;" d="M 650.0,700.0 L 750.0,700.0 L 850.0,700.0 L 950.0,700.0 L 1050.0,700.0 L 1150.0,700.0 L 1150.0,580.0 L 1150.0,460.0 L 1150.0,340.0 L 1150.0,220.0 L 1150.0,100.0 L 1150.0,-20.0 L 1050.0,-20.0 L 950.0,-20.0 L 850.0,-20.0 L 750.0,-20.0 L 650.0,-20.0 L 550.0,-20.0 L 550.0,100.0 L 650.0,100.0 L 650.0,220.0 L 650.0,340.0 L 550.0,340.0 L 550.0,460.0 L 550.0,220.0 L 450.0,-20.0 L 350.0,-20.0 L 250.0,-20.0 L 150.0,-20.0 L 50.0,-20.0 L 50.0,100.0 L 50.0,220.0 L 50.0,340.0 L 50.0,460.0 L 50.0,580.0 L 50.0,700.0 L 150.0,700.0 L 250.0,700.0 L 350.0,700.0 L 450.0,700.0 L 550.0,700.0 L 550.0,580.0 L 650.0,460.0 L 650.0,580.0 L 650.0,700.0zz"/>
    <glyph glyph-name="Ntilde" unicode="&#209;" d="M 450.0,700.0 L 350.0,700.0 L 250.0,700.0 L 550.0,700.0 L 650.0,700.0 L 750.0,700.0 L 850.0,700.0 L 950.0,700.0 L 450.0,700.0zM 650.0,580.0 L 750.0,580.0 L 850.0,580.0 L 950.0,580.0 L 1050.0,580.0 L 1150.0,580.0 L 1150.0,460.0 L 1150.0,340.0 L 1150.0,220.0 L 1150.0,100.0 L 1150.0,-20.0 L 1050.0,-20.0 L 950.0,-20.0 L 850.0,-20.0 L 750.0,-20.0 L 650.0,-20.0 L 650.0,100.0 L 650.0,220.0 L 550.0,220.0 L 550.0,340.0 L 550.0,100.0 L 550.0,-20.0 L 450.0,-20.0 L 350.0,-20.0 L 250.0,-20.0 L 150.0,-20.0 L 50.0,-20.0 L 50.0,100.0 L 50.0,220.0 L 50.0,340.0 L 50.0,460.0 L 50.0,580.0 L 150.0,580.0 L 250.0,580.0 L 350.0,580.0 L 450.0,580.0 L 550.0,580.0 L 550.0,460.0 L 650.0,340.0 L 650.0,460.0 L 650.0,580.0zz"/>
    <glyph glyph-name="O" unicode="O" d="M 650.0,-20.0 L 550.0,-20.0 L 450.0,-20.0 L 350.0,-20.0 L 250.0,-20.0 L 250.0,100.0 L 150.0,100.0 L 50.0,100.0 L 50.0,220.0 L 50.0,340.0 L 50.0,460.0 L 50.0,580.0 L 150.0,580.0 L 150.0,700.0 L 250.0,700.0 L 350.0,700.0 L 450.0,700.0 L 550.0,700.0 L 650.0,700.0 L 750.0,700.0 L 850.0,700.0 L 950.0,700.0 L 1050.0,700.0 L 1050.0,580.0 L 1150.0,580.0 L 1150.0,460.0 L 1150.0,340.0 L 1150.0,220.0 L 1150.0,100.0 L 1050.0,100.0 L 950.0,100.0 L 950.0,-20.0 L 850.0,-20.0 L 750.0,-20.0 L 650.0,-20.0zM 650.0,220.0 L 650.0,340.0 L 650.0,460.0 L 550.0,460.0 L 550.0,340.0 L 550.0,220.0 L 650.0,220.0zz"/>
    <glyph glyph-name="Oacute" unicode="&#211;" d="M 250.0,700.0 L 350.0,700.0 L 450.0,700.0 L 550.0,700.0 L 650.0,700.0 L 750.0,700.0 L 850.0,700.0 L 950.0,700.0 L 250.0,700.0zM 550.0,-20.0 L 450.0,-20.0 L 350.0,-20.0 L 250.0,-20.0 L 150.0,100.0 L 50.0,100.0 L 50.0,220.0 L 50.0,340.0 L 50.0,460.0 L 150.0,460.0 L 150.0,580.0 L 250.0,580.0 L 350.0,580.0 L 450.0,580.0 L 550.0,580.0 L 650.0,580.0 L 750.0,580.0 L 850.0,580.0 L 950.0,580.0 L 1050.0,580.0 L 1050.0,460.0 L 1150.0,460.0 L 1150.0,340.0 L 1150.0,220.0 L 1150.0,100.0 L 1050.0,100.0 L 950.0,-20.0 L 850.0,-20.0 L 750.0,-20.0 L 650.0,-20.0 L 550.0,-20.0zM 650.0,220.0 L 650.0,340.0 L 550.0,340.0 L 550.0,220.0 L 650.0,220.0zz"/>
    <glyph glyph-name="Ocircumflex" unicode="&#212;" d="M 250.0,700.0 L 350.0,700.0 L 450.0,700.0 L 550.0,700.0 L 650.0,700.0 L 750.0,700.0 L 850.0,700.0 L 950.0,700.0 L 250.0,700.0zM 550.0,-20.0 L 450.0,-20.0 L 350.0,-20.0 L 250.0,-20.0 L 150.0,100.0 L 50.0,100.0 L 50.0,220.0 L 50.0,340.0 L 50.0,460.0 L 150.0,460.0 L 150.0,580.0 L 250.0,580.0 L 350.0,580.0 L 450.0,580.0 L 550.0,580.0 L 650.0,580.0 L 750.0,580.0 L 850.0,580.0 L 950.0,580.0 L 1050.0,580.0 L 1050.0,460.0 L 1150.0,460.0 L 1150.0,340.0 L 1150.0,220.0 L 1150.0,100.0 L 1050.0,100.0 L 950.0,-20.0 L 850.0,-20.0 L 750.0,-20.0 L 650.0,-20.0 L 550.0,-20.0zM 650.0,220.0 L 650.0,340.0 L 550.0,340.0 L 550.0,220.0 L 650.0,220.0zz"/>
    <glyph glyph-name="Odieresis" unicode="&#214;" d="M 350.0,700.0 L 250.0,700.0 L 350.0,700.0zM 850.0,700.0 L 950.0,700.0 L 850.0,700.0zM 550.0,-20.0 L 450.0,-20.0 L 350.0,-20.0 L 250.0,-20.0 L 150.0,100.0 L 50.0,100.0 L 50.0,220.0 L 50.0,340.0 L 50.0,460.0 L 150.0,460.0 L 150.0,580.0 L 250.0,580.0 L 350.0,580.0 L 450.0,580.0 L 550.0,580.0 L 650.0,580.0 L 750.0,580.0 L 850.0,580.0 L 950.0,580.0 L 1050.0,580.0 L 1050.0,460.0 L 1150.0,460.0 L 1150.0,340.0 L 1150.0,220.0 L 1150.0,100.0 L 1050.0,100.0 L 950.0,-20.0 L 850.0,-20.0 L 750.0,-20.0 L 650.0,-20.0 L 550.0,-20.0zM 650.0,220.0 L 650.0,340.0 L 550.0,340.0 L 550.0,220.0 L 650.0,220.0zz"/>
    <glyph glyph-name="Ograve" unicode="&#210;" d="M 950.0,700.0 L 850.0,700.0 L 750.0,700.0 L 650.0,700.0 L 550.0,700.0 L 450.0,700.0 L 350.0,700.0 L 250.0,700.0 L 950.0,700.0zM 550.0,-20.0 L 450.0,-20.0 L 350.0,-20.0 L 250.0,-20.0 L 150.0,100.0 L 50.0,100.0 L 50.0,220.0 L 50.0,340.0 L 50.0,460.0 L 150.0,460.0 L 150.0,580.0 L 250.0,580.0 L 350.0,580.0 L 450.0,580.0 L 550.0,580.0 L 650.0,580.0 L 750.0,580.0 L 850.0,580.0 L 950.0,580.0 L 1050.0,580.0 L 1050.0,460.0 L 1150.0,460.0 L 1150.0,340.0 L 1150.0,220.0 L 1150.0,100.0 L 1050.0,100.0 L 950.0,-20.0 L 850.0,-20.0 L 750.0,-20.0 L 650.0,-20.0 L 550.0,-20.0zM 650.0,220.0 L 650.0,340.0 L 550.0,340.0 L 550.0,220.0 L 650.0,220.0zz"/>
    <glyph glyph-name="Ohungarumlaut" unicode="&#336;" d="M 150.0,700.0 L 250.0,700.0 L 350.0,700.0 L 450.0,700.0 L 550.0,700.0 L 150.0,700.0zM 650.0,700.0 L 750.0,700.0 L 850.0,700.0 L 950.0,700.0 L 1050.0,700.0 L 650.0,700.0zM 550.0,-20.0 L 450.0,-20.0 L 350.0,-20.0 L 250.0,-20.0 L 150.0,100.0 L 50.0,100.0 L 50.0,220.0 L 50.0,340.0 L 50.0,460.0 L 150.0,460.0 L 150.0,580.0 L 250.0,580.0 L 350.0,580.0 L 450.0,580.0 L 550.0,580.0 L 650.0,580.0 L 750.0,580.0 L 850.0,580.0 L 950.0,580.0 L 1050.0,580.0 L 1050.0,460.0 L 1150.0,460.0 L 1150.0,340.0 L 1150.0,220.0 L 1150.0,100.0 L 1050.0,100.0 L 950.0,-20.0 L 850.0,-20.0 L 750.0,-20.0 L 650.0,-20.0 L 550.0,-20.0zM 650.0,220.0 L 650.0,340.0 L 550.0,340.0 L 550.0,220.0 L 650.0,220.0zz"/>
    <glyph glyph-name="Omacron" unicode="&#332;" d="M 250.0,700.0 L 350.0,700.0 L 450.0,700.0 L 550.0,700.0 L 650.0,700.0 L 750.0,700.0 L 850.0,700.0 L 950.0,700.0 L 250.0,700.0zM 550.0,-20.0 L 450.0,-20.0 L 350.0,-20.0 L 250.0,-20.0 L 150.0,100.0 L 50.0,100.0 L 50.0,220.0 L 50.0,340.0 L 50.0,460.0 L 150.0,460.0 L 150.0,580.0 L 250.0,580.0 L 350.0,580.0 L 450.0,580.0 L 550.0,580.0 L 650.0,580.0 L 750.0,580.0 L 850.0,580.0 L 950.0,580.0 L 1050.0,580.0 L 1050.0,460.0 L 1150.0,460.0 L 1150.0,340.0 L 1150.0,220.0 L 1150.0,100.0 L 1050.0,100.0 L 950.0,-20.0 L 850.0,-20.0 L 750.0,-20.0 L 650.0,-20.0 L 550.0,-20.0zM 650.0,220.0 L 650.0,340.0 L 550.0,340.0 L 550.0,220.0 L 650.0,220.0zz"/>
    <glyph glyph-name="Oslash" unicode="&#216;" d="M 1050.0,580.0 L 1150.0,580.0 L 1150.0,460.0 L 1150.0,340.0 L 1150.0,220.0 L 1150.0,100.0 L 1050.0,100.0 L 950.0,100.0 L 850.0,100.0 L 850.0,-20.0 L 750.0,-20.0 L 650.0,-20.0 L 550.0,-20.0 L 450.0,-20.0 L 350.0,-20.0 L 350.0,100.0 L 250.0,100.0 L 150.0,100.0 L 150.0,-20.0 L 50.0,-20.0 L 50.0,100.0 L 50.0,220.0 L 50.0,340.0 L 50.0,460.0 L 50.0,580.0 L 150.0,580.0 L 250.0,580.0 L 350.0,580.0 L 350.0,700.0 L 450.0,700.0 L 550.0,700.0 L 650.0,700.0 L 750.0,700.0 L 850.0,700.0 L 850.0,580.0 L 950.0,580.0 L 950.0,700.0 L 1050.0,700.0 L 1150.0,700.0 L 1050.0,580.0zM 650.0,220.0 L 650.0,340.0 L 650.0,460.0 L 550.0,460.0 L 550.0,340.0 L 550.0,220.0 L 650.0,220.0zz"/>
    <glyph glyph-name="Otilde" unicode="&#213;" d="M 250.0,700.0 L 350.0,700.0 L 450.0,700.0 L 550.0,700.0 L 650.0,700.0 L 750.0,700.0 L 850.0,700.0 L 950.0,700.0 L 250.0,700.0zM 550.0,-20.0 L 450.0,-20.0 L 350.0,-20.0 L 250.0,-20.0 L 150.0,100.0 L 50.0,100.0 L 50.0,220.0 L 50.0,340.0 L 50.0,460.0 L 150.0,460.0 L 150.0,580.0 L 250.0,580.0 L 350.0,580.0 L 450.0,580.0 L 550.0,580.0 L 650.0,580.0 L 750.0,580.0 L 850.0,580.0 L 950.0,580.0 L 1050.0,580.0 L 1050.0,460.0 L 1150.0,460.0 L 1150.0,340.0 L 1150.0,220.0 L 1150.0,100.0 L 1050.0,100.0 L 950.0,-20.0 L 850.0,-20.0 L 750.0,-20.0 L 650.0,-20.0 L 550.0,-20.0zM 650.0,220.0 L 650.0,340.0 L 550.0,340.0 L 550.0,220.0 L 650.0,220.0zz"/>
    <glyph glyph-name="OE" unicode="&#338;" d="M 1150.0,460.0 L 1050.0,460.0 L 950.0,460.0 L 850.0,460.0 L 850.0,340.0 L 950.0,340.0 L 1050.0,340.0 L 1150.0,340.0 L 1150.0,220.0 L 1150.0,100.0 L 1150.0,-20.0 L 1050.0,-20.0 L 950.0,-20.0 L 850.0,-20.0 L 750.0,-20.0 L 650.0,-20.0 L 550.0,-20.0 L 450.0,-20.0 L 350.0,-20.0 L 250.0,-20.0 L 150.0,-20.0 L 150.0,100.0 L 50.0,100.0 L 50.0,220.0 L 50.0,340.0 L 50.0,460.0 L 50.0,580.0 L 150.0,580.0 L 150.0,700.0 L 250.0,700.0 L 350.0,700.0 L 450.0,700.0 L 550.0,700.0 L 650.0,700.0 L 750.0,700.0 L 850.0,700.0 L 950.0,700.0 L 1050.0,700.0 L 1150.0,700.0 L 1150.0,580.0 L 1150.0,460.0zM 450.0,220.0 L 550.0,220.0 L 550.0,340.0 L 550.0,460.0 L 450.0,460.0 L 450.0,340.0 L 450.0,220.0zz"/>
    <glyph glyph-name="P" unicode="P" d="M 650.0,700.0 L 750.0,700.0 L 850.0,700.0 L 950.0,700.0 L 1050.0,700.0 L 1150.0,580.0 L 1150.0,460.0 L 1150.0,340.0 L 1050.0,340.0 L 1050.0,220.0 L 950.0,220.0 L 850.0,220.0 L 750.0,220.0 L 650.0,220.0 L 650.0,100.0 L 650.0,-20.0 L 550.0,-20.0 L 450.0,-20.0 L 350.0,-20.0 L 250.0,-20.0 L 150.0,-20.0 L 50.0,-20.0 L 50.0,100.0 L 50.0,220.0 L 50.0,340.0 L 50.0,460.0 L 50.0,580.0 L 50.0,700.0 L 150.0,700.0 L 250.0,700.0 L 350.0,700.0 L 450.0,700.0 L 550.0,700.0 L 650.0,700.0zM 650.0,340.0 L 650.0,460.0 L 650.0,340.0zz"/>
    <glyph glyph-name="Thorn" unicode="&#222;" d="M 1150.0,340.0 L 1150.0,220.0 L 1050.0,220.0 L 1050.0,100.0 L 950.0,100.0 L 850.0,100.0 L 750.0,100.0 L 650.0,100.0 L 650.0,-20.0 L 550.0,-20.0 L 450.0,-20.0 L 350.0,-20.0 L 250.0,-20.0 L 150.0,-20.0 L 50.0,-20.0 L 50.0,100.0 L 50.0,220.0 L 50.0,340.0 L 50.0,460.0 L 50.0,580.0 L 50.0,700.0 L 150.0,700.0 L 250.0,700.0 L 350.0,700.0 L 450.0,700.0 L 550.0,700.0 L 650.0,700.0 L 650.0,580.0 L 750.0,580.0 L 850.0,580.0 L 950.0,580.0 L 1050.0,580.0 L 1150.0,580.0 L 1150.0,460.0 L 1150.0,340.0zM 650.0,220.0 L 650.0,340.0 L 650.0,460.0 L 650.0,220.0zz"/>
    <glyph glyph-name="Q" unicode="Q" d="M 650.0,100.0 L 550.0,100.0 L 450.0,100.0 L 350.0,100.0 L 250.0,100.0 L 150.0,100.0 L 150.0,220.0 L 50.0,220.0 L 50.0,340.0 L 50.0,460.0 L 50.0,580.0 L 150.0,580.0 L 150.0,700.0 L 250.0,700.0 L 350.0,700.0 L 450.0,700.0 L 550.0,700.0 L 650.0,700.0 L 750.0,700.0 L 850.0,700.0 L 950.0,700.0 L 1050.0,700.0 L 1050.0,580.0 L 1150.0,580.0 L 1150.0,460.0 L 1150.0,340.0 L 1150.0,220.0 L 1050.0,220.0 L 1050.0,100.0 L 950.0,100.0 L 850.0,100.0 L 750.0,100.0 L 650.0,100.0zM 550.0,340.0 L 650.0,340.0 L 650.0,460.0 L 550.0,460.0 L 550.0,340.0zM 550.0,-20.0 L 650.0,-20.0 L 750.0,-20.0 L 850.0,-20.0 L 950.0,-20.0 L 1050.0,-20.0 L 550.0,-20.0zz"/>
    <glyph glyph-name="R" unicode="R" d="M 1150.0,460.0 L 1150.0,340.0 L 1150.0,220.0 L 1150.0,100.0 L 1150.0,-20.0 L 1050.0,-20.0 L 950.0,-20.0 L 850.0,-20.0 L 750.0,-20.0 L 650.0,-20.0 L 650.0,100.0 L 650.0,220.0 L 550.0,-20.0 L 450.0,-20.0 L 350.0,-20.0 L 250.0,-20.0 L 150.0,-20.0 L 50.0,-20.0 L 50.0,100.0 L 50.0,220.0 L 50.0,340.0 L 50.0,460.0 L 50.0,580.0 L 50.0,700.0 L 150.0,700.0 L 250.0,700.0 L 350.0,700.0 L 450.0,700.0 L 550.0,700.0 L 650.0,700.0 L 750.0,700.0 L 850.0,700.0 L 950.0,700.0 L 1050.0,700.0 L 1150.0,580.0 L 1150.0,460.0zM 650.0,340.0 L 650.0,460.0 L 650.0,340.0zz"/>
    <glyph glyph-name="Racute" unicode="&#340;" d="M 950.0,700.0 L 850.0,700.0 L 750.0,700.0 L 650.0,700.0 L 550.0,700.0 L 450.0,700.0 L 350.0,700.0 L 250.0,700.0 L 950.0,700.0zM 1150.0,460.0 L 1150.0,340.0 L 1150.0,220.0 L 1150.0,100.0 L 1150.0,-20.0 L 1050.0,-20.0 L 950.0,-20.0 L 850.0,-20.0 L 750.0,-20.0 L 650.0,-20.0 L 650.0,100.0 L 650.0,220.0 L 550.0,-20.0 L 450.0,-20.0 L 350.0,-20.0 L 250.0,-20.0 L 150.0,-20.0 L 50.0,-20.0 L 50.0,100.0 L 50.0,220.0 L 50.0,340.0 L 50.0,460.0 L 50.0,580.0 L 150.0,580.0 L 250.0,580.0 L 350.0,580.0 L 450.0,580.0 L 550.0,580.0 L 650.0,580.0 L 750.0,580.0 L 850.0,580.0 L 950.0,580.0 L 1050.0,580.0 L 1150.0,580.0 L 1150.0,460.0zM 650.0,220.0 L 650.0,340.0 L 650.0,220.0zz"/>
    <glyph glyph-name="Rcaron" unicode="&#344;" d="M 950.0,700.0 L 850.0,700.0 L 750.0,700.0 L 650.0,700.0 L 550.0,700.0 L 450.0,700.0 L 350.0,700.0 L 250.0,700.0 L 950.0,700.0zM 1150.0,460.0 L 1150.0,340.0 L 1150.0,220.0 L 1150.0,100.0 L 1150.0,-20.0 L 1050.0,-20.0 L 950.0,-20.0 L 850.0,-20.0 L 750.0,-20.0 L 650.0,-20.0 L 650.0,100.0 L 650.0,220.0 L 550.0,-20.0 L 450.0,-20.0 L 350.0,-20.0 L 250.0,-20.0 L 150.0,-20.0 L 50.0,-20.0 L 50.0,100.0 L 50.0,220.0 L 50.0,340.0 L 50.0,460.0 L 50.0,580.0 L 150.0,580.0 L 250.0,580.0 L 350.0,580.0 L 450.0,580.0 L 550.0,580.0 L 650.0,580.0 L 750.0,580.0 L 850.0,580.0 L 950.0,580.0 L 1050.0,580.0 L 1150.0,580.0 L 1150.0,460.0zM 650.0,220.0 L 650.0,340.0 L 650.0,220.0zz"/>
    <glyph glyph-name="uni0156" unicode="&#342;" d="M 1150.0,460.0 L 1150.0,340.0 L 1150.0,220.0 L 1150.0,100.0 L 1050.0,100.0 L 950.0,100.0 L 850.0,100.0 L 750.0,100.0 L 650.0,100.0 L 650.0,220.0 L 650.0,340.0 L 550.0,100.0 L 450.0,100.0 L 350.0,100.0 L 250.0,100.0 L 150.0,100.0 L 50.0,100.0 L 50.0,220.0 L 50.0,340.0 L 50.0,460.0 L 50.0,580.0 L 50.0,700.0 L 150.0,700.0 L 250.0,700.0 L 350.0,700.0 L 450.0,700.0 L 550.0,700.0 L 650.0,700.0 L 750.0,700.0 L 850.0,700.0 L 950.0,700.0 L 1050.0,700.0 L 1150.0,700.0 L 1150.0,580.0 L 1150.0,460.0zM 650.0,340.0 L 650.0,460.0 L 650.0,340.0zM 450.0,-20.0 L 550.0,-20.0 L 550.0,100.0 L 650.0,100.0 L 650.0,-20.0 L 450.0,-20.0zz"/>
    <glyph glyph-name="S" unicode="S" d="M 550.0,-20.0 L 450.0,-20.0 L 350.0,-20.0 L 250.0,-20.0 L 150.0,-20.0 L 50.0,-20.0 L 50.0,100.0 L 50.0,220.0 L 50.0,340.0 L 150.0,340.0 L 250.0,340.0 L 250.0,220.0 L 350.0,220.0 L 450.0,220.0 L 550.0,220.0 L 550.0,340.0 L 650.0,340.0 L 450.0,340.0 L 350.0,340.0 L 50.0,460.0 L 50.0,580.0 L 150.0,580.0 L 150.0,700.0 L 250.0,700.0 L 350.0,700.0 L 450.0,700.0 L 550.0,700.0 L 650.0,700.0 L 750.0,700.0 L 850.0,700.0 L 950.0,700.0 L 1050.0,700.0 L 1150.0,700.0 L 1150.0,580.0 L 1150.0,460.0 L 1150.0,340.0 L 1050.0,340.0 L 1050.0,460.0 L 950.0,460.0 L 850.0,460.0 L 750.0,460.0 L 650.0,460.0 L 550.0,460.0 L 750.0,340.0 L 850.0,340.0 L 950.0,340.0 L 1150.0,220.0 L 1150.0,100.0 L 1050.0,100.0 L 1050.0,-20.0 L 950.0,-20.0 L 850.0,-20.0 L 750.0,-20.0 L 650.0,-20.0 L 550.0,-20.0zz"/>
    <glyph glyph-name="Sacute" unicode="&#346;" d="M 250.0,700.0 L 350.0,700.0 L 450.0,700.0 L 550.0,700.0 L 650.0,700.0 L 750.0,700.0 L 850.0,700.0 L 950.0,700.0 L 250.0,700.0zM 550.0,-20.0 L 450.0,-20.0 L 350.0,-20.0 L 250.0,-20.0 L 150.0,-20.0 L 50.0,-20.0 L 50.0,100.0 L 50.0,220.0 L 50.0,340.0 L 150.0,220.0 L 250.0,220.0 L 350.0,220.0 L 450.0,220.0 L 550.0,220.0 L 650.0,220.0 L 150.0,340.0 L 50.0,460.0 L 50.0,580.0 L 150.0,580.0 L 250.0,580.0 L 350.0,580.0 L 450.0,580.0 L 550.0,580.0 L 650.0,580.0 L 750.0,580.0 L 850.0,580.0 L 950.0,580.0 L 1050.0,580.0 L 1150.0,580.0 L 1150.0,460.0 L 1150.0,340.0 L 1050.0,340.0 L 950.0,340.0 L 850.0,340.0 L 750.0,340.0 L 650.0,340.0 L 550.0,340.0 L 1150.0,220.0 L 1150.0,100.0 L 1150.0,-20.0 L 1050.0,-20.0 L 950.0,-20.0 L 850.0,-20.0 L 750.0,-20.0 L 650.0,-20.0 L 550.0,-20.0zz"/>
    <glyph glyph-name="Scaron" unicode="&#352;" d="M 650.0,700.0 L 550.0,700.0 L 450.0,700.0 L 350.0,700.0 L 250.0,700.0 L 750.0,700.0 L 850.0,700.0 L 950.0,700.0 L 650.0,700.0zM 550.0,-20.0 L 450.0,-20.0 L 350.0,-20.0 L 250.0,-20.0 L 150.0,-20.0 L 50.0,-20.0 L 50.0,100.0 L 50.0,220.0 L 50.0,340.0 L 150.0,220.0 L 250.0,220.0 L 350.0,220.0 L 450.0,220.0 L 550.0,220.0 L 650.0,220.0 L 150.0,340.0 L 50.0,460.0 L 50.0,580.0 L 150.0,580.0 L 250.0,580.0 L 350.0,580.0 L 450.0,580.0 L 550.0,580.0 L 650.0,580.0 L 750.0,580.0 L 850.0,580.0 L 950.0,580.0 L 1050.0,580.0 L 1150.0,580.0 L 1150.0,460.0 L 1150.0,340.0 L 1050.0,340.0 L 950.0,340.0 L 850.0,340.0 L 750.0,340.0 L 650.0,340.0 L 550.0,340.0 L 1150.0,220.0 L 1150.0,100.0 L 1150.0,-20.0 L 1050.0,-20.0 L 950.0,-20.0 L 850.0,-20.0 L 750.0,-20.0 L 650.0,-20.0 L 550.0,-20.0zz"/>
    <glyph glyph-name="Scedilla" unicode="&#350;" d="M 1150.0,220.0 L 1150.0,100.0 L 1050.0,100.0 L 950.0,100.0 L 850.0,100.0 L 750.0,100.0 L 650.0,100.0 L 650.0,-20.0 L 550.0,-20.0 L 550.0,100.0 L 450.0,100.0 L 350.0,100.0 L 250.0,100.0 L 150.0,100.0 L 50.0,100.0 L 50.0,220.0 L 50.0,340.0 L 150.0,340.0 L 250.0,340.0 L 350.0,340.0 L 450.0,340.0 L 550.0,340.0 L 650.0,340.0 L 50.0,460.0 L 50.0,580.0 L 50.0,700.0 L 150.0,700.0 L 250.0,700.0 L 350.0,700.0 L 450.0,700.0 L 550.0,700.0 L 650.0,700.0 L 750.0,700.0 L 850.0,700.0 L 950.0,700.0 L 1050.0,700.0 L 1150.0,700.0 L 1150.0,580.0 L 1150.0,460.0 L 1050.0,460.0 L 950.0,460.0 L 850.0,460.0 L 750.0,460.0 L 650.0,460.0 L 550.0,460.0 L 1050.0,340.0 L 1150.0,340.0 L 1150.0,220.0zz"/>
    <glyph glyph-name="uni0218" unicode="&#536;" d="M 550.0,100.0 L 450.0,100.0 L 350.0,100.0 L 250.0,100.0 L 150.0,100.0 L 50.0,100.0 L 50.0,220.0 L 50.0,340.0 L 150.0,340.0 L 250.0,340.0 L 350.0,340.0 L 450.0,340.0 L 550.0,340.0 L 650.0,340.0 L 50.0,460.0 L 50.0,580.0 L 50.0,700.0 L 150.0,700.0 L 250.0,700.0 L 350.0,700.0 L 450.0,700.0 L 550.0,700.0 L 650.0,700.0 L 750.0,700.0 L 850.0,700.0 L 950.0,700.0 L 1050.0,700.0 L 1150.0,700.0 L 1150.0,580.0 L 1150.0,460.0 L 1050.0,460.0 L 950.0,460.0 L 850.0,460.0 L 750.0,460.0 L 650.0,460.0 L 550.0,460.0 L 1050.0,340.0 L 1150.0,340.0 L 1150.0,220.0 L 1150.0,100.0 L 1050.0,100.0 L 950.0,100.0 L 850.0,100.0 L 750.0,100.0 L 650.0,100.0 L 550.0,100.0zM 450.0,-20.0 L 550.0,-20.0 L 550.0,100.0 L 650.0,100.0 L 650.0,-20.0 L 450.0,-20.0zz"/>
    <glyph glyph-name="uni1E9E" unicode="&#7838;" d="M 650.0,340.0 L 750.0,340.0 L 850.0,340.0 L 950.0,340.0 L 1050.0,340.0 L 1150.0,340.0 L 1150.0,220.0 L 1150.0,100.0 L 1050.0,100.0 L 1050.0,-20.0 L 950.0,-20.0 L 850.0,-20.0 L 750.0,-20.0 L 650.0,-20.0 L 650.0,100.0 L 650.0,220.0 L 650.0,460.0 L 650.0,580.0 L 550.0,580.0 L 550.0,460.0 L 550.0,340.0 L 550.0,220.0 L 550.0,100.0 L 550.0,-20.0 L 450.0,-20.0 L 350.0,-20.0 L 250.0,-20.0 L 150.0,-20.0 L 50.0,-20.0 L 50.0,100.0 L 50.0,220.0 L 50.0,340.0 L 50.0,460.0 L 50.0,580.0 L 50.0,700.0 L 150.0,700.0 L 250.0,700.0 L 350.0,700.0 L 450.0,700.0 L 550.0,700.0 L 650.0,700.0 L 750.0,700.0 L 850.0,700.0 L 950.0,700.0 L 1050.0,700.0 L 1150.0,700.0 L 1150.0,580.0 L 1150.0,460.0 L 1050.0,460.0 L 650.0,340.0zz"/>
    <glyph glyph-name="T" unicode="T" d="M 1150.0,700.0 L 1150.0,580.0 L 1150.0,460.0 L 1150.0,340.0 L 1050.0,340.0 L 950.0,340.0 L 850.0,340.0 L 850.0,220.0 L 850.0,100.0 L 850.0,-20.0 L 750.0,-20.0 L 650.0,-20.0 L 550.0,-20.0 L 450.0,-20.0 L 350.0,-20.0 L 250.0,-20.0 L 250.0,100.0 L 250.0,220.0 L 250.0,340.0 L 150.0,340.0 L 50.0,340.0 L 50.0,460.0 L 50.0,580.0 L 50.0,700.0 L 150.0,700.0 L 250.0,700.0 L 350.0,700.0 L 450.0,700.0 L 550.0,700.0 L 650.0,700.0 L 750.0,700.0 L 850.0,700.0 L 950.0,700.0 L 1050.0,700.0 L 1150.0,700.0zz"/>
    <glyph glyph-name="Tbar" unicode="&#358;" d="M 1150.0,340.0 L 1050.0,340.0 L 950.0,340.0 L 850.0,340.0 L 850.0,220.0 L 950.0,220.0 L 1050.0,220.0 L 1150.0,220.0 L 850.0,100.0 L 850.0,-20.0 L 750.0,-20.0 L 650.0,-20.0 L 550.0,-20.0 L 450.0,-20.0 L 350.0,-20.0 L 250.0,-20.0 L 250.0,100.0 L 250.0,220.0 L 150.0,220.0 L 50.0,220.0 L 250.0,340.0 L 150.0,340.0 L 50.0,340.0 L 50.0,460.0 L 50.0,580.0 L 50.0,700.0 L 150.0,700.0 L 250.0,700.0 L 350.0,700.0 L 450.0,700.0 L 550.0,700.0 L 650.0,700.0 L 750.0,700.0 L 850.0,700.0 L 950.0,700.0 L 1050.0,700.0 L 1150.0,700.0 L 1150.0,580.0 L 1150.0,460.0 L 1150.0,340.0zz"/>
    <glyph glyph-name="Tcaron" unicode="&#356;" d="M 950.0,700.0 L 850.0,700.0 L 750.0,700.0 L 650.0,700.0 L 550.0,700.0 L 450.0,700.0 L 350.0,700.0 L 250.0,700.0 L 950.0,700.0zM 1150.0,580.0 L 1150.0,460.0 L 1150.0,340.0 L 1150.0,220.0 L 1050.0,220.0 L 950.0,220.0 L 850.0,220.0 L 850.0,100.0 L 850.0,-20.0 L 750.0,-20.0 L 650.0,-20.0 L 550.0,-20.0 L 450.0,-20.0 L 350.0,-20.0 L 250.0,-20.0 L 250.0,100.0 L 250.0,220.0 L 150.0,220.0 L 50.0,220.0 L 50.0,340.0 L 50.0,460.0 L 50.0,580.0 L 150.0,580.0 L 250.0,580.0 L 350.0,580.0 L 450.0,580.0 L 550.0,580.0 L 650.0,580.0 L 750.0,580.0 L 850.0,580.0 L 950.0,580.0 L 1050.0,580.0 L 1150.0,580.0zz"/>
    <glyph glyph-name="uni0162" unicode="&#354;" d="M 1150.0,700.0 L 1150.0,580.0 L 1150.0,460.0 L 1150.0,340.0 L 1050.0,340.0 L 950.0,340.0 L 850.0,340.0 L 850.0,220.0 L 850.0,100.0 L 750.0,100.0 L 650.0,100.0 L 650.0,-20.0 L 550.0,-20.0 L 550.0,100.0 L 450.0,100.0 L 350.0,100.0 L 250.0,100.0 L 250.0,220.0 L 250.0,340.0 L 150.0,340.0 L 50.0,340.0 L 50.0,460.0 L 50.0,580.0 L 50.0,700.0 L 150.0,700.0 L 250.0,700.0 L 350.0,700.0 L 450.0,700.0 L 550.0,700.0 L 650.0,700.0 L 750.0,700.0 L 850.0,700.0 L 950.0,700.0 L 1050.0,700.0 L 1150.0,700.0zz"/>
    <glyph glyph-name="uni021A" unicode="&#538;" d="M 1150.0,700.0 L 1150.0,580.0 L 1150.0,460.0 L 1150.0,340.0 L 1050.0,340.0 L 950.0,340.0 L 850.0,340.0 L 850.0,220.0 L 850.0,100.0 L 750.0,100.0 L 650.0,100.0 L 550.0,100.0 L 450.0,100.0 L 350.0,100.0 L 250.0,100.0 L 250.0,220.0 L 250.0,340.0 L 150.0,340.0 L 50.0,340.0 L 50.0,460.0 L 50.0,580.0 L 50.0,700.0 L 150.0,700.0 L 250.0,700.0 L 350.0,700.0 L 450.0,700.0 L 550.0,700.0 L 650.0,700.0 L 750.0,700.0 L 850.0,700.0 L 950.0,700.0 L 1050.0,700.0 L 1150.0,700.0zM 450.0,-20.0 L 550.0,-20.0 L 550.0,100.0 L 650.0,100.0 L 650.0,-20.0 L 450.0,-20.0zz"/>
    <glyph glyph-name="U" unicode="U" d="M 550.0,-20.0 L 450.0,-20.0 L 350.0,-20.0 L 250.0,-20.0 L 150.0,100.0 L 50.0,100.0 L 50.0,220.0 L 50.0,340.0 L 50.0,460.0 L 50.0,580.0 L 50.0,700.0 L 150.0,700.0 L 250.0,700.0 L 350.0,700.0 L 450.0,700.0 L 550.0,700.0 L 550.0,580.0 L 550.0,460.0 L 550.0,340.0 L 550.0,220.0 L 650.0,220.0 L 650.0,340.0 L 650.0,460.0 L 650.0,580.0 L 650.0,700.0 L 750.0,700.0 L 850.0,700.0 L 950.0,700.0 L 1050.0,700.0 L 1150.0,700.0 L 1150.0,580.0 L 1150.0,460.0 L 1150.0,340.0 L 1150.0,220.0 L 1150.0,100.0 L 1050.0,100.0 L 950.0,-20.0 L 850.0,-20.0 L 750.0,-20.0 L 650.0,-20.0 L 550.0,-20.0zz"/>
    <glyph glyph-name="Uacute" unicode="&#218;" d="M 250.0,700.0 L 350.0,700.0 L 450.0,700.0 L 550.0,700.0 L 650.0,700.0 L 750.0,700.0 L 850.0,700.0 L 950.0,700.0 L 250.0,700.0zM 550.0,-20.0 L 450.0,-20.0 L 350.0,-20.0 L 250.0,-20.0 L 250.0,100.0 L 150.0,100.0 L 50.0,100.0 L 50.0,220.0 L 50.0,340.0 L 50.0,460.0 L 50.0,580.0 L 150.0,580.0 L 250.0,580.0 L 350.0,580.0 L 450.0,580.0 L 550.0,580.0 L 550.0,460.0 L 550.0,340.0 L 550.0,220.0 L 650.0,220.0 L 650.0,340.0 L 650.0,460.0 L 650.0,580.0 L 750.0,580.0 L 850.0,580.0 L 950.0,580.0 L 1050.0,580.0 L 1150.0,580.0 L 1150.0,460.0 L 1150.0,340.0 L 1150.0,220.0 L 1150.0,100.0 L 1050.0,100.0 L 950.0,100.0 L 950.0,-20.0 L 850.0,-20.0 L 750.0,-20.0 L 650.0,-20.0 L 550.0,-20.0zz"/>
    <glyph glyph-name="Ucircumflex" unicode="&#219;" d="M 250.0,700.0 L 350.0,700.0 L 450.0,700.0 L 550.0,700.0 L 650.0,700.0 L 750.0,700.0 L 850.0,700.0 L 950.0,700.0 L 250.0,700.0zM 550.0,-20.0 L 450.0,-20.0 L 350.0,-20.0 L 250.0,-20.0 L 250.0,100.0 L 150.0,100.0 L 50.0,100.0 L 50.0,220.0 L 50.0,340.0 L 50.0,460.0 L 50.0,580.0 L 150.0,580.0 L 250.0,580.0 L 350.0,580.0 L 450.0,580.0 L 550.0,580.0 L 550.0,460.0 L 550.0,340.0 L 550.0,220.0 L 650.0,220.0 L 650.0,340.0 L 650.0,460.0 L 650.0,580.0 L 750.0,580.0 L 850.0,580.0 L 950.0,580.0 L 1050.0,580.0 L 1150.0,580.0 L 1150.0,460.0 L 1150.0,340.0 L 1150.0,220.0 L 1150.0,100.0 L 1050.0,100.0 L 950.0,100.0 L 950.0,-20.0 L 850.0,-20.0 L 750.0,-20.0 L 650.0,-20.0 L 550.0,-20.0zz"/>
    <glyph glyph-name="Udieresis" unicode="&#220;" d="M 350.0,700.0 L 250.0,700.0 L 350.0,700.0zM 850.0,700.0 L 950.0,700.0 L 850.0,700.0zM 550.0,-20.0 L 450.0,-20.0 L 350.0,-20.0 L 250.0,-20.0 L 250.0,100.0 L 150.0,100.0 L 50.0,100.0 L 50.0,220.0 L 50.0,340.0 L 50.0,460.0 L 50.0,580.0 L 150.0,580.0 L 250.0,580.0 L 350.0,580.0 L 450.0,580.0 L 550.0,580.0 L 550.0,460.0 L 550.0,340.0 L 550.0,220.0 L 650.0,220.0 L 650.0,340.0 L 650.0,460.0 L 650.0,580.0 L 750.0,580.0 L 850.0,580.0 L 950.0,580.0 L 1050.0,580.0 L 1150.0,580.0 L 1150.0,460.0 L 1150.0,340.0 L 1150.0,220.0 L 1150.0,100.0 L 1050.0,100.0 L 950.0,100.0 L 950.0,-20.0 L 850.0,-20.0 L 750.0,-20.0 L 650.0,-20.0 L 550.0,-20.0zz"/>
    <glyph glyph-name="Ugrave" unicode="&#217;" d="M 950.0,700.0 L 850.0,700.0 L 750.0,700.0 L 650.0,700.0 L 550.0,700.0 L 450.0,700.0 L 350.0,700.0 L 250.0,700.0 L 950.0,700.0zM 550.0,-20.0 L 450.0,-20.0 L 350.0,-20.0 L 250.0,-20.0 L 250.0,100.0 L 150.0,100.0 L 50.0,100.0 L 50.0,220.0 L 50.0,340.0 L 50.0,460.0 L 50.0,580.0 L 150.0,580.0 L 250.0,580.0 L 350.0,580.0 L 450.0,580.0 L 550.0,580.0 L 550.0,460.0 L 550.0,340.0 L 550.0,220.0 L 650.0,220.0 L 650.0,340.0 L 650.0,460.0 L 650.0,580.0 L 750.0,580.0 L 850.0,580.0 L 950.0,580.0 L 1050.0,580.0 L 1150.0,580.0 L 1150.0,460.0 L 1150.0,340.0 L 1150.0,220.0 L 1150.0,100.0 L 1050.0,100.0 L 950.0,100.0 L 950.0,-20.0 L 850.0,-20.0 L 750.0,-20.0 L 650.0,-20.0 L 550.0,-20.0zz"/>
    <glyph glyph-name="Uhungarumlaut" unicode="&#368;" d="M 150.0,700.0 L 250.0,700.0 L 350.0,700.0 L 450.0,700.0 L 550.0,700.0 L 150.0,700.0zM 650.0,700.0 L 750.0,700.0 L 850.0,700.0 L 950.0,700.0 L 1050.0,700.0 L 650.0,700.0zM 550.0,-20.0 L 450.0,-20.0 L 350.0,-20.0 L 250.0,-20.0 L 250.0,100.0 L 150.0,100.0 L 50.0,100.0 L 50.0,220.0 L 50.0,340.0 L 50.0,460.0 L 50.0,580.0 L 150.0,580.0 L 250.0,580.0 L 350.0,580.0 L 450.0,580.0 L 550.0,580.0 L 550.0,460.0 L 550.0,340.0 L 550.0,220.0 L 650.0,220.0 L 650.0,340.0 L 650.0,460.0 L 650.0,580.0 L 750.0,580.0 L 850.0,580.0 L 950.0,580.0 L 1050.0,580.0 L 1150.0,580.0 L 1150.0,460.0 L 1150.0,340.0 L 1150.0,220.0 L 1150.0,100.0 L 1050.0,100.0 L 950.0,100.0 L 950.0,-20.0 L 850.0,-20.0 L 750.0,-20.0 L 650.0,-20.0 L 550.0,-20.0zz"/>
    <glyph glyph-name="Umacron" unicode="&#362;" d="M 250.0,700.0 L 350.0,700.0 L 450.0,700.0 L 550.0,700.0 L 650.0,700.0 L 750.0,700.0 L 850.0,700.0 L 950.0,700.0 L 250.0,700.0zM 550.0,-20.0 L 450.0,-20.0 L 350.0,-20.0 L 250.0,-20.0 L 250.0,100.0 L 150.0,100.0 L 50.0,100.0 L 50.0,220.0 L 50.0,340.0 L 50.0,460.0 L 50.0,580.0 L 150.0,580.0 L 250.0,580.0 L 350.0,580.0 L 450.0,580.0 L 550.0,580.0 L 550.0,460.0 L 550.0,340.0 L 550.0,220.0 L 650.0,220.0 L 650.0,340.0 L 650.0,460.0 L 650.0,580.0 L 750.0,580.0 L 850.0,580.0 L 950.0,580.0 L 1050.0,580.0 L 1150.0,580.0 L 1150.0,460.0 L 1150.0,340.0 L 1150.0,220.0 L 1150.0,100.0 L 1050.0,100.0 L 950.0,100.0 L 950.0,-20.0 L 850.0,-20.0 L 750.0,-20.0 L 650.0,-20.0 L 550.0,-20.0zz"/>
    <glyph glyph-name="Uogonek" unicode="&#370;" d="M 650.0,700.0 L 750.0,700.0 L 850.0,700.0 L 950.0,700.0 L 1050.0,700.0 L 1150.0,700.0 L 1150.0,580.0 L 1150.0,460.0 L 1150.0,340.0 L 1150.0,220.0 L 1050.0,220.0 L 1050.0,100.0 L 950.0,100.0 L 950.0,-20.0 L 1050.0,-20.0 L 850.0,-20.0 L 850.0,100.0 L 750.0,100.0 L 650.0,100.0 L 550.0,100.0 L 450.0,100.0 L 350.0,100.0 L 250.0,100.0 L 150.0,100.0 L 150.0,220.0 L 50.0,220.0 L 50.0,340.0 L 50.0,460.0 L 50.0,580.0 L 50.0,700.0 L 150.0,700.0 L 250.0,700.0 L 350.0,700.0 L 450.0,700.0 L 550.0,700.0 L 550.0,580.0 L 550.0,460.0 L 550.0,340.0 L 650.0,340.0 L 650.0,460.0 L 650.0,580.0 L 650.0,700.0zz"/>
    <glyph glyph-name="Uring" unicode="&#366;" d="M 650.0,580.0 L 550.0,580.0 L 550.0,700.0 L 650.0,700.0 L 650.0,580.0zM 650.0,580.0 L 650.0,700.0 L 550.0,700.0 L 650.0,580.0zM 550.0,-20.0 L 450.0,-20.0 L 350.0,-20.0 L 250.0,-20.0 L 250.0,100.0 L 150.0,100.0 L 50.0,100.0 L 50.0,220.0 L 50.0,340.0 L 50.0,460.0 L 50.0,580.0 L 150.0,580.0 L 250.0,580.0 L 350.0,580.0 L 450.0,580.0 L 550.0,580.0 L 550.0,460.0 L 550.0,340.0 L 550.0,220.0 L 650.0,220.0 L 650.0,340.0 L 650.0,460.0 L 650.0,580.0 L 750.0,580.0 L 850.0,580.0 L 950.0,580.0 L 1050.0,580.0 L 1150.0,580.0 L 1150.0,460.0 L 1150.0,340.0 L 1150.0,220.0 L 1150.0,100.0 L 1050.0,100.0 L 950.0,100.0 L 950.0,-20.0 L 850.0,-20.0 L 750.0,-20.0 L 650.0,-20.0 L 550.0,-20.0zz"/>
    <glyph glyph-name="V" unicode="V" d="M 650.0,700.0 L 750.0,700.0 L 850.0,700.0 L 950.0,700.0 L 1050.0,700.0 L 1150.0,700.0 L 1150.0,580.0 L 1150.0,460.0 L 1150.0,340.0 L 1150.0,220.0 L 1050.0,220.0 L 1050.0,100.0 L 1050.0,-20.0 L 950.0,-20.0 L 850.0,-20.0 L 750.0,-20.0 L 650.0,-20.0 L 550.0,-20.0 L 450.0,-20.0 L 350.0,-20.0 L 250.0,-20.0 L 150.0,-20.0 L 150.0,100.0 L 150.0,220.0 L 50.0,220.0 L 50.0,340.0 L 50.0,460.0 L 50.0,580.0 L 50.0,700.0 L 150.0,700.0 L 250.0,700.0 L 350.0,700.0 L 450.0,700.0 L 550.0,700.0 L 550.0,580.0 L 550.0,460.0 L 550.0,340.0 L 550.0,220.0 L 650.0,220.0 L 650.0,340.0 L 650.0,460.0 L 650.0,580.0 L 650.0,700.0zz"/>
    <glyph glyph-name="W" unicode="W" d="M 650.0,700.0 L 750.0,700.0 L 850.0,700.0 L 950.0,700.0 L 1050.0,700.0 L 1150.0,700.0 L 1150.0,580.0 L 1150.0,460.0 L 1150.0,340.0 L 1150.0,220.0 L 1150.0,100.0 L 1150.0,-20.0 L 1050.0,-20.0 L 950.0,-20.0 L 850.0,-20.0 L 750.0,-20.0 L 650.0,-20.0 L 650.0,100.0 L 650.0,220.0 L 650.0,340.0 L 650.0,460.0 L 550.0,460.0 L 550.0,340.0 L 550.0,220.0 L 550.0,100.0 L 550.0,-20.0 L 450.0,-20.0 L 350.0,-20.0 L 250.0,-20.0 L 150.0,-20.0 L 50.0,-20.0 L 50.0,100.0 L 50.0,220.0 L 50.0,340.0 L 50.0,460.0 L 50.0,580.0 L 50.0,700.0 L 150.0,700.0 L 250.0,700.0 L 350.0,700.0 L 450.0,700.0 L 550.0,700.0 L 550.0,580.0 L 650.0,580.0 L 650.0,700.0zz"/>
    <glyph glyph-name="Wacute" unicode="&#7810;" d="M 950.0,700.0 L 850.0,700.0 L 750.0,700.0 L 650.0,700.0 L 550.0,700.0 L 450.0,700.0 L 350.0,700.0 L 250.0,700.0 L 950.0,700.0zM 650.0,580.0 L 750.0,580.0 L 850.0,580.0 L 950.0,580.0 L 1050.0,580.0 L 1150.0,580.0 L 1150.0,460.0 L 1150.0,340.0 L 1150.0,220.0 L 1150.0,100.0 L 1150.0,-20.0 L 1050.0,-20.0 L 950.0,-20.0 L 850.0,-20.0 L 750.0,-20.0 L 650.0,-20.0 L 650.0,100.0 L 650.0,220.0 L 650.0,340.0 L 550.0,340.0 L 550.0,220.0 L 550.0,100.0 L 550.0,-20.0 L 450.0,-20.0 L 350.0,-20.0 L 250.0,-20.0 L 150.0,-20.0 L 50.0,-20.0 L 50.0,100.0 L 50.0,220.0 L 50.0,340.0 L 50.0,460.0 L 50.0,580.0 L 150.0,580.0 L 250.0,580.0 L 350.0,580.0 L 450.0,580.0 L 550.0,580.0 L 550.0,460.0 L 650.0,460.0 L 650.0,580.0zz"/>
    <glyph glyph-name="Wcircumflex" unicode="&#372;" d="M 950.0,700.0 L 850.0,700.0 L 750.0,700.0 L 650.0,700.0 L 550.0,700.0 L 450.0,700.0 L 350.0,700.0 L 250.0,700.0 L 950.0,700.0zM 650.0,580.0 L 750.0,580.0 L 850.0,580.0 L 950.0,580.0 L 1050.0,580.0 L 1150.0,580.0 L 1150.0,460.0 L 1150.0,340.0 L 1150.0,220.0 L 1150.0,100.0 L 1150.0,-20.0 L 1050.0,-20.0 L 950.0,-20.0 L 850.0,-20.0 L 750.0,-20.0 L 650.0,-20.0 L 650.0,100.0 L 650.0,220.0 L 650.0,340.0 L 550.0,340.0 L 550.0,220.0 L 550.0,100.0 L 550.0,-20.0 L 450.0,-20.0 L 350.0,-20.0 L 250.0,-20.0 L 150.0,-20.0 L 50.0,-20.0 L 50.0,100.0 L 50.0,220.0 L 50.0,340.0 L 50.0,460.0 L 50.0,580.0 L 150.0,580.0 L 250.0,580.0 L 350.0,580.0 L 450.0,580.0 L 550.0,580.0 L 550.0,460.0 L 650.0,460.0 L 650.0,580.0zz"/>
    <glyph glyph-name="Wdieresis" unicode="&#7812;" d="M 350.0,700.0 L 250.0,700.0 L 350.0,700.0zM 850.0,700.0 L 950.0,700.0 L 850.0,700.0zM 650.0,580.0 L 750.0,580.0 L 850.0,580.0 L 950.0,580.0 L 1050.0,580.0 L 1150.0,580.0 L 1150.0,460.0 L 1150.0,340.0 L 1150.0,220.0 L 1150.0,100.0 L 1150.0,-20.0 L 1050.0,-20.0 L 950.0,-20.0 L 850.0,-20.0 L 750.0,-20.0 L 650.0,-20.0 L 650.0,100.0 L 650.0,220.0 L 650.0,340.0 L 550.0,340.0 L 550.0,220.0 L 550.0,100.0 L 550.0,-20.0 L 450.0,-20.0 L 350.0,-20.0 L 250.0,-20.0 L 150.0,-20.0 L 50.0,-20.0 L 50.0,100.0 L 50.0,220.0 L 50.0,340.0 L 50.0,460.0 L 50.0,580.0 L 150.0,580.0 L 250.0,580.0 L 350.0,580.0 L 450.0,580.0 L 550.0,580.0 L 550.0,460.0 L 650.0,460.0 L 650.0,580.0zz"/>
    <glyph glyph-name="Wgrave" unicode="&#7808;" d="M 950.0,700.0 L 850.0,700.0 L 750.0,700.0 L 650.0,700.0 L 550.0,700.0 L 450.0,700.0 L 350.0,700.0 L 250.0,700.0 L 950.0,700.0zM 650.0,580.0 L 750.0,580.0 L 850.0,580.0 L 950.0,580.0 L 1050.0,580.0 L 1150.0,580.0 L 1150.0,460.0 L 1150.0,340.0 L 1150.0,220.0 L 1150.0,100.0 L 1150.0,-20.0 L 1050.0,-20.0 L 950.0,-20.0 L 850.0,-20.0 L 750.0,-20.0 L 650.0,-20.0 L 650.0,100.0 L 650.0,220.0 L 650.0,340.0 L 550.0,340.0 L 550.0,220.0 L 550.0,100.0 L 550.0,-20.0 L 450.0,-20.0 L 350.0,-20.0 L 250.0,-20.0 L 150.0,-20.0 L 50.0,-20.0 L 50.0,100.0 L 50.0,220.0 L 50.0,340.0 L 50.0,460.0 L 50.0,580.0 L 150.0,580.0 L 250.0,580.0 L 350.0,580.0 L 450.0,580.0 L 550.0,580.0 L 550.0,460.0 L 650.0,460.0 L 650.0,580.0zz"/>
    <glyph glyph-name="X" unicode="X" d="M 1150.0,700.0 L 1150.0,580.0 L 1150.0,460.0 L 1150.0,340.0 L 1150.0,220.0 L 1150.0,100.0 L 1150.0,-20.0 L 1050.0,-20.0 L 950.0,-20.0 L 850.0,-20.0 L 750.0,-20.0 L 650.0,-20.0 L 650.0,100.0 L 650.0,220.0 L 650.0,340.0 L 550.0,340.0 L 550.0,220.0 L 550.0,100.0 L 550.0,-20.0 L 450.0,-20.0 L 350.0,-20.0 L 250.0,-20.0 L 150.0,-20.0 L 50.0,-20.0 L 50.0,100.0 L 50.0,220.0 L 50.0,340.0 L 50.0,460.0 L 50.0,580.0 L 50.0,700.0 L 150.0,700.0 L 250.0,700.0 L 350.0,700.0 L 450.0,700.0 L 550.0,700.0 L 550.0,580.0 L 550.0,460.0 L 650.0,460.0 L 650.0,580.0 L 650.0,700.0 L 750.0,700.0 L 850.0,700.0 L 950.0,700.0 L 1050.0,700.0 L 1150.0,700.0zz"/>
    <glyph glyph-name="Y" unicode="Y" d="M 1150.0,700.0 L 1150.0,580.0 L 1050.0,580.0 L 1050.0,460.0 L 1050.0,340.0 L 950.0,340.0 L 950.0,220.0 L 950.0,100.0 L 950.0,-20.0 L 850.0,-20.0 L 750.0,-20.0 L 650.0,-20.0 L 550.0,-20.0 L 450.0,-20.0 L 350.0,-20.0 L 350.0,100.0 L 250.0,100.0 L 250.0,220.0 L 250.0,340.0 L 150.0,340.0 L 150.0,460.0 L 150.0,580.0 L 50.0,580.0 L 50.0,700.0 L 150.0,700.0 L 250.0,700.0 L 350.0,700.0 L 450.0,700.0 L 550.0,700.0 L 550.0,580.0 L 550.0,460.0 L 550.0,340.0 L 650.0,340.0 L 650.0,460.0 L 650.0,580.0 L 650.0,700.0 L 750.0,700.0 L 850.0,700.0 L 950.0,700.0 L 1050.0,700.0 L 1150.0,700.0zz"/>
    <glyph glyph-name="Yacute" unicode="&#221;" d="M 950.0,700.0 L 850.0,700.0 L 750.0,700.0 L 650.0,700.0 L 550.0,700.0 L 450.0,700.0 L 350.0,700.0 L 250.0,700.0 L 950.0,700.0zM 1150.0,580.0 L 1150.0,460.0 L 1050.0,460.0 L 1050.0,340.0 L 950.0,220.0 L 950.0,100.0 L 850.0,100.0 L 850.0,-20.0 L 750.0,-20.0 L 650.0,-20.0 L 550.0,-20.0 L 450.0,-20.0 L 350.0,-20.0 L 350.0,100.0 L 250.0,100.0 L 250.0,220.0 L 150.0,340.0 L 150.0,460.0 L 50.0,460.0 L 50.0,580.0 L 150.0,580.0 L 250.0,580.0 L 350.0,580.0 L 450.0,580.0 L 550.0,580.0 L 550.0,460.0 L 550.0,340.0 L 650.0,340.0 L 650.0,460.0 L 650.0,580.0 L 750.0,580.0 L 850.0,580.0 L 950.0,580.0 L 1050.0,580.0 L 1150.0,580.0zz"/>
    <glyph glyph-name="Ycircumflex" unicode="&#374;" d="M 950.0,700.0 L 850.0,700.0 L 750.0,700.0 L 650.0,700.0 L 550.0,700.0 L 450.0,700.0 L 350.0,700.0 L 250.0,700.0 L 950.0,700.0zM 1150.0,580.0 L 1150.0,460.0 L 1050.0,460.0 L 1050.0,340.0 L 950.0,220.0 L 950.0,100.0 L 850.0,100.0 L 850.0,-20.0 L 750.0,-20.0 L 650.0,-20.0 L 550.0,-20.0 L 450.0,-20.0 L 350.0,-20.0 L 350.0,100.0 L 250.0,100.0 L 250.0,220.0 L 150.0,340.0 L 150.0,460.0 L 50.0,460.0 L 50.0,580.0 L 150.0,580.0 L 250.0,580.0 L 350.0,580.0 L 450.0,580.0 L 550.0,580.0 L 550.0,460.0 L 550.0,340.0 L 650.0,340.0 L 650.0,460.0 L 650.0,580.0 L 750.0,580.0 L 850.0,580.0 L 950.0,580.0 L 1050.0,580.0 L 1150.0,580.0zz"/>
    <glyph glyph-name="Ydieresis" unicode="&#376;" d="M 350.0,700.0 L 250.0,700.0 L 350.0,700.0zM 850.0,700.0 L 950.0,700.0 L 850.0,700.0zM 1150.0,580.0 L 1150.0,460.0 L 1050.0,460.0 L 1050.0,340.0 L 950.0,220.0 L 950.0,100.0 L 850.0,100.0 L 850.0,-20.0 L 750.0,-20.0 L 650.0,-20.0 L 550.0,-20.0 L 450.0,-20.0 L 350.0,-20.0 L 350.0,100.0 L 250.0,100.0 L 250.0,220.0 L 150.0,340.0 L 150.0,460.0 L 50.0,460.0 L 50.0,580.0 L 150.0,580.0 L 250.0,580.0 L 350.0,580.0 L 450.0,580.0 L 550.0,580.0 L 550.0,460.0 L 550.0,340.0 L 650.0,340.0 L 650.0,460.0 L 650.0,580.0 L 750.0,580.0 L 850.0,580.0 L 950.0,580.0 L 1050.0,580.0 L 1150.0,580.0zz"/>
    <glyph glyph-name="Ygrave" unicode="&#7922;" d="M 950.0,700.0 L 850.0,700.0 L 750.0,700.0 L 650.0,700.0 L 550.0,700.0 L 450.0,700.0 L 350.0,700.0 L 250.0,700.0 L 950.0,700.0zM 1150.0,580.0 L 1150.0,460.0 L 1050.0,460.0 L 1050.0,340.0 L 950.0,220.0 L 950.0,100.0 L 850.0,100.0 L 850.0,-20.0 L 750.0,-20.0 L 650.0,-20.0 L 550.0,-20.0 L 450.0,-20.0 L 350.0,-20.0 L 350.0,100.0 L 250.0,100.0 L 250.0,220.0 L 150.0,340.0 L 150.0,460.0 L 50.0,460.0 L 50.0,580.0 L 150.0,580.0 L 250.0,580.0 L 350.0,580.0 L 450.0,580.0 L 550.0,580.0 L 550.0,460.0 L 550.0,340.0 L 650.0,340.0 L 650.0,460.0 L 650.0,580.0 L 750.0,580.0 L 850.0,580.0 L 950.0,580.0 L 1050.0,580.0 L 1150.0,580.0zz"/>
    <glyph glyph-name="Z" unicode="Z" d="M 50.0,-20.0 L 50.0,100.0 L 50.0,220.0 L 50.0,340.0 L 150.0,340.0 L 250.0,340.0 L 350.0,340.0 L 450.0,340.0 L 550.0,340.0 L 550.0,460.0 L 650.0,460.0 L 450.0,460.0 L 350.0,460.0 L 250.0,460.0 L 150.0,460.0 L 50.0,460.0 L 50.0,580.0 L 50.0,700.0 L 150.0,700.0 L 250.0,700.0 L 350.0,700.0 L 450.0,700.0 L 550.0,700.0 L 650.0,700.0 L 750.0,700.0 L 850.0,700.0 L 950.0,700.0 L 1050.0,700.0 L 1150.0,700.0 L 1150.0,580.0 L 1150.0,460.0 L 1150.0,340.0 L 1050.0,340.0 L 950.0,340.0 L 850.0,340.0 L 750.0,340.0 L 650.0,340.0 L 550.0,220.0 L 1150.0,220.0 L 1150.0,100.0 L 1150.0,-20.0 L 1050.0,-20.0 L 950.0,-20.0 L 850.0,-20.0 L 750.0,-20.0 L 650.0,-20.0 L 550.0,-20.0 L 450.0,-20.0 L 350.0,-20.0 L 250.0,-20.0 L 150.0,-20.0 L 50.0,-20.0zz"/>
    <glyph glyph-name="Zacute" unicode="&#377;" d="M 250.0,700.0 L 350.0,700.0 L 450.0,700.0 L 550.0,700.0 L 650.0,700.0 L 750.0,700.0 L 850.0,700.0 L 950.0,700.0 L 250.0,700.0zM 50.0,-20.0 L 50.0,100.0 L 50.0,220.0 L 150.0,220.0 L 150.0,340.0 L 250.0,340.0 L 350.0,340.0 L 450.0,340.0 L 550.0,340.0 L 650.0,340.0 L 750.0,340.0 L 50.0,340.0 L 50.0,460.0 L 50.0,580.0 L 150.0,580.0 L 250.0,580.0 L 350.0,580.0 L 450.0,580.0 L 550.0,580.0 L 650.0,580.0 L 750.0,580.0 L 850.0,580.0 L 950.0,580.0 L 1050.0,580.0 L 1150.0,580.0 L 1150.0,460.0 L 1150.0,340.0 L 1050.0,340.0 L 950.0,340.0 L 850.0,340.0 L 850.0,220.0 L 750.0,220.0 L 650.0,220.0 L 550.0,220.0 L 450.0,220.0 L 950.0,220.0 L 1050.0,220.0 L 1150.0,220.0 L 1150.0,100.0 L 1150.0,-20.0 L 1050.0,-20.0 L 950.0,-20.0 L 850.0,-20.0 L 750.0,-20.0 L 650.0,-20.0 L 550.0,-20.0 L 450.0,-20.0 L 350.0,-20.0 L 250.0,-20.0 L 150.0,-20.0 L 50.0,-20.0zz"/>
    <glyph glyph-name="Zcaron" unicode="&#381;" d="M 550.0,700.0 L 450.0,700.0 L 350.0,700.0 L 250.0,700.0 L 650.0,700.0 L 750.0,700.0 L 850.0,700.0 L 950.0,700.0 L 550.0,700.0zM 50.0,-20.0 L 50.0,100.0 L 50.0,220.0 L 150.0,220.0 L 150.0,340.0 L 250.0,340.0 L 350.0,340.0 L 450.0,340.0 L 550.0,340.0 L 650.0,340.0 L 750.0,340.0 L 50.0,340.0 L 50.0,460.0 L 50.0,580.0 L 150.0,580.0 L 250.0,580.0 L 350.0,580.0 L 450.0,580.0 L 550.0,580.0 L 650.0,580.0 L 750.0,580.0 L 850.0,580.0 L 950.0,580.0 L 1050.0,580.0 L 1150.0,580.0 L 1150.0,460.0 L 1150.0,340.0 L 1050.0,340.0 L 950.0,340.0 L 850.0,340.0 L 850.0,220.0 L 750.0,220.0 L 650.0,220.0 L 550.0,220.0 L 450.0,220.0 L 950.0,220.0 L 1050.0,220.0 L 1150.0,220.0 L 1150.0,100.0 L 1150.0,-20.0 L 1050.0,-20.0 L 950.0,-20.0 L 850.0,-20.0 L 750.0,-20.0 L 650.0,-20.0 L 550.0,-20.0 L 450.0,-20.0 L 350.0,-20.0 L 250.0,-20.0 L 150.0,-20.0 L 50.0,-20.0zz"/>
    <glyph glyph-name="Zdotaccent" unicode="&#379;" d="M 550.0,700.0 L 650.0,700.0 L 550.0,700.0zM 50.0,-20.0 L 50.0,100.0 L 50.0,220.0 L 150.0,220.0 L 150.0,340.0 L 250.0,340.0 L 350.0,340.0 L 450.0,340.0 L 550.0,340.0 L 650.0,340.0 L 750.0,340.0 L 50.0,340.0 L 50.0,460.0 L 50.0,580.0 L 150.0,580.0 L 250.0,580.0 L 350.0,580.0 L 450.0,580.0 L 550.0,580.0 L 650.0,580.0 L 750.0,580.0 L 850.0,580.0 L 950.0,580.0 L 1050.0,580.0 L 1150.0,580.0 L 1150.0,460.0 L 1150.0,340.0 L 1050.0,340.0 L 950.0,340.0 L 850.0,340.0 L 850.0,220.0 L 750.0,220.0 L 650.0,220.0 L 550.0,220.0 L 450.0,220.0 L 950.0,220.0 L 1050.0,220.0 L 1150.0,220.0 L 1150.0,100.0 L 1150.0,-20.0 L 1050.0,-20.0 L 950.0,-20.0 L 850.0,-20.0 L 750.0,-20.0 L 650.0,-20.0 L 550.0,-20.0 L 450.0,-20.0 L 350.0,-20.0 L 250.0,-20.0 L 150.0,-20.0 L 50.0,-20.0zz"/>
    <glyph glyph-name="A.ext-l" d="M 650.0,-20.0 L 650.0,100.0 L 550.0,100.0 L 550.0,-20.0 L 450.0,-20.0 L 350.0,-20.0 L 250.0,-20.0 L 150.0,-20.0 L 50.0,-20.0 L 50.0,100.0 L 50.0,220.0 L 50.0,340.0 L 50.0,460.0 L 50.0,580.0 L 50.0,700.0 L 150.0,700.0 L 250.0,700.0 L 350.0,700.0 L 450.0,700.0 L 550.0,700.0 L 650.0,700.0 L 750.0,700.0 L 850.0,700.0 L 950.0,700.0 L 1050.0,700.0 L 1150.0,700.0 L 1150.0,580.0 L 1150.0,460.0 L 1150.0,340.0 L 1150.0,220.0 L 1150.0,100.0 L 1150.0,-20.0 L 1050.0,-20.0 L 950.0,-20.0 L 850.0,-20.0 L 750.0,-20.0 L 650.0,-20.0zM 550.0,220.0 L 650.0,220.0 L 650.0,340.0 L 650.0,460.0 L 550.0,460.0 L 550.0,340.0 L 550.0,220.0zz"/>
    <glyph glyph-name="Aacute.ext-l" d="M 950.0,700.0 L 850.0,700.0 L 750.0,700.0 L 650.0,700.0 L 550.0,700.0 L 450.0,700.0 L 350.0,700.0 L 250.0,700.0 L 950.0,700.0zM 650.0,-20.0 L 650.0,100.0 L 550.0,100.0 L 550.0,-20.0 L 450.0,-20.0 L 350.0,-20.0 L 250.0,-20.0 L 150.0,-20.0 L 50.0,-20.0 L 50.0,100.0 L 50.0,220.0 L 50.0,340.0 L 50.0,460.0 L 50.0,580.0 L 150.0,580.0 L 250.0,580.0 L 350.0,580.0 L 450.0,580.0 L 550.0,580.0 L 650.0,580.0 L 750.0,580.0 L 850.0,580.0 L 950.0,580.0 L 1050.0,580.0 L 1150.0,580.0 L 1150.0,460.0 L 1150.0,340.0 L 1150.0,220.0 L 1150.0,100.0 L 1150.0,-20.0 L 1050.0,-20.0 L 950.0,-20.0 L 850.0,-20.0 L 750.0,-20.0 L 650.0,-20.0zM 550.0,220.0 L 550.0,340.0 L 550.0,220.0zz"/>
    <glyph glyph-name="Abreve.ext-l" d="M 550.0,700.0 L 450.0,700.0 L 350.0,700.0 L 250.0,700.0 L 650.0,700.0 L 750.0,700.0 L 850.0,700.0 L 950.0,700.0 L 550.0,700.0zM 650.0,-20.0 L 650.0,100.0 L 550.0,100.0 L 550.0,-20.0 L 450.0,-20.0 L 350.0,-20.0 L 250.0,-20.0 L 150.0,-20.0 L 50.0,-20.0 L 50.0,100.0 L 50.0,220.0 L 50.0,340.0 L 50.0,460.0 L 50.0,580.0 L 150.0,580.0 L 250.0,580.0 L 350.0,580.0 L 450.0,580.0 L 550.0,580.0 L 650.0,580.0 L 750.0,580.0 L 850.0,580.0 L 950.0,580.0 L 1050.0,580.0 L 1150.0,580.0 L 1150.0,460.0 L 1150.0,340.0 L 1150.0,220.0 L 1150.0,100.0 L 1150.0,-20.0 L 1050.0,-20.0 L 950.0,-20.0 L 850.0,-20.0 L 750.0,-20.0 L 650.0,-20.0zM 550.0,220.0 L 550.0,340.0 L 550.0,220.0zz"/>
    <glyph glyph-name="Acircumflex.ext-l" d="M 950.0,700.0 L 850.0,700.0 L 750.0,700.0 L 650.0,700.0 L 550.0,700.0 L 450.0,700.0 L 350.0,700.0 L 250.0,700.0 L 950.0,700.0zM 650.0,-20.0 L 650.0,100.0 L 550.0,100.0 L 550.0,-20.0 L 450.0,-20.0 L 350.0,-20.0 L 250.0,-20.0 L 150.0,-20.0 L 50.0,-20.0 L 50.0,100.0 L 50.0,220.0 L 50.0,340.0 L 50.0,460.0 L 50.0,580.0 L 150.0,580.0 L 250.0,580.0 L 350.0,580.0 L 450.0,580.0 L 550.0,580.0 L 650.0,580.0 L 750.0,580.0 L 850.0,580.0 L 950.0,580.0 L 1050.0,580.0 L 1150.0,580.0 L 1150.0,460.0 L 1150.0,340.0 L 1150.0,220.0 L 1150.0,100.0 L 1150.0,-20.0 L 1050.0,-20.0 L 950.0,-20.0 L 850.0,-20.0 L 750.0,-20.0 L 650.0,-20.0zM 550.0,220.0 L 550.0,340.0 L 550.0,220.0zz"/>
    <glyph glyph-name="Adieresis.ext-l" d="M 250.0,700.0 L 350.0,700.0 L 250.0,700.0zM 850.0,700.0 L 950.0,700.0 L 850.0,700.0zM 650.0,-20.0 L 650.0,100.0 L 550.0,100.0 L 550.0,-20.0 L 450.0,-20.0 L 350.0,-20.0 L 250.0,-20.0 L 150.0,-20.0 L 50.0,-20.0 L 50.0,100.0 L 50.0,220.0 L 50.0,340.0 L 50.0,460.0 L 50.0,580.0 L 150.0,580.0 L 250.0,580.0 L 350.0,580.0 L 450.0,580.0 L 550.0,580.0 L 650.0,580.0 L 750.0,580.0 L 850.0,580.0 L 950.0,580.0 L 1050.0,580.0 L 1150.0,580.0 L 1150.0,460.0 L 1150.0,340.0 L 1150.0,220.0 L 1150.0,100.0 L 1150.0,-20.0 L 1050.0,-20.0 L 950.0,-20.0 L 850.0,-20.0 L 750.0,-20.0 L 650.0,-20.0zM 550.0,220.0 L 550.0,340.0 L 550.0,220.0zz"/>
    <glyph glyph-name="Agrave.ext-l" d="M 950.0,700.0 L 850.0,700.0 L 750.0,700.0 L 650.0,700.0 L 550.0,700.0 L 450.0,700.0 L 350.0,700.0 L 250.0,700.0 L 950.0,700.0zM 650.0,-20.0 L 650.0,100.0 L 550.0,100.0 L 550.0,-20.0 L 450.0,-20.0 L 350.0,-20.0 L 250.0,-20.0 L 150.0,-20.0 L 50.0,-20.0 L 50.0,100.0 L 50.0,220.0 L 50.0,340.0 L 50.0,460.0 L 50.0,580.0 L 150.0,580.0 L 250.0,580.0 L 350.0,580.0 L 450.0,580.0 L 550.0,580.0 L 650.0,580.0 L 750.0,580.0 L 850.0,580.0 L 950.0,580.0 L 1050.0,580.0 L 1150.0,580.0 L 1150.0,460.0 L 1150.0,340.0 L 1150.0,220.0 L 1150.0,100.0 L 1150.0,-20.0 L 1050.0,-20.0 L 950.0,-20.0 L 850.0,-20.0 L 750.0,-20.0 L 650.0,-20.0zM 550.0,220.0 L 550.0,340.0 L 550.0,220.0zz"/>
    <glyph glyph-name="Amacron.ext-l" d="M 950.0,700.0 L 850.0,700.0 L 750.0,700.0 L 650.0,700.0 L 550.0,700.0 L 450.0,700.0 L 350.0,700.0 L 250.0,700.0 L 950.0,700.0zM 650.0,-20.0 L 650.0,100.0 L 550.0,100.0 L 550.0,-20.0 L 450.0,-20.0 L 350.0,-20.0 L 250.0,-20.0 L 150.0,-20.0 L 50.0,-20.0 L 50.0,100.0 L 50.0,220.0 L 50.0,340.0 L 50.0,460.0 L 50.0,580.0 L 150.0,580.0 L 250.0,580.0 L 350.0,580.0 L 450.0,580.0 L 550.0,580.0 L 650.0,580.0 L 750.0,580.0 L 850.0,580.0 L 950.0,580.0 L 1050.0,580.0 L 1150.0,580.0 L 1150.0,460.0 L 1150.0,340.0 L 1150.0,220.0 L 1150.0,100.0 L 1150.0,-20.0 L 1050.0,-20.0 L 950.0,-20.0 L 850.0,-20.0 L 750.0,-20.0 L 650.0,-20.0zM 550.0,220.0 L 550.0,340.0 L 550.0,220.0zz"/>
    <glyph glyph-name="Aogonek.ext-l" d="M 1150.0,-20.0 L 1050.0,-20.0 L 1050.0,100.0 L 950.0,100.0 L 850.0,100.0 L 750.0,100.0 L 650.0,100.0 L 650.0,220.0 L 550.0,220.0 L 550.0,100.0 L 450.0,100.0 L 350.0,100.0 L 250.0,100.0 L 150.0,100.0 L 50.0,100.0 L 50.0,220.0 L 50.0,340.0 L 50.0,460.0 L 50.0,580.0 L 50.0,700.0 L 150.0,700.0 L 250.0,700.0 L 350.0,700.0 L 450.0,700.0 L 550.0,700.0 L 650.0,700.0 L 750.0,700.0 L 850.0,700.0 L 950.0,700.0 L 1050.0,700.0 L 1150.0,700.0 L 1150.0,580.0 L 1150.0,460.0 L 1150.0,340.0 L 1150.0,220.0 L 1150.0,100.0 L 1150.0,-20.0zM 550.0,340.0 L 550.0,460.0 L 550.0,340.0zz"/>
    <glyph glyph-name="Aring.ext-l" d="M 550.0,580.0 L 550.0,700.0 L 450.0,700.0 L 650.0,700.0 L 650.0,580.0 L 550.0,580.0zM 550.0,700.0 L 550.0,580.0 L 650.0,700.0 L 550.0,700.0zM 650.0,-20.0 L 650.0,100.0 L 550.0,100.0 L 550.0,-20.0 L 450.0,-20.0 L 350.0,-20.0 L 250.0,-20.0 L 150.0,-20.0 L 50.0,-20.0 L 50.0,100.0 L 50.0,220.0 L 50.0,340.0 L 50.0,460.0 L 50.0,580.0 L 150.0,580.0 L 250.0,580.0 L 350.0,580.0 L 450.0,580.0 L 550.0,580.0 L 650.0,580.0 L 750.0,580.0 L 850.0,580.0 L 950.0,580.0 L 1050.0,580.0 L 1150.0,580.0 L 1150.0,460.0 L 1150.0,340.0 L 1150.0,220.0 L 1150.0,100.0 L 1150.0,-20.0 L 1050.0,-20.0 L 950.0,-20.0 L 850.0,-20.0 L 750.0,-20.0 L 650.0,-20.0zM 550.0,220.0 L 550.0,340.0 L 550.0,220.0zz"/>
    <glyph glyph-name="Atilde.ext-l" d="M 450.0,700.0 L 350.0,700.0 L 250.0,700.0 L 550.0,700.0 L 650.0,700.0 L 750.0,700.0 L 850.0,700.0 L 450.0,700.0zM 650.0,-20.0 L 650.0,100.0 L 550.0,100.0 L 550.0,-20.0 L 450.0,-20.0 L 350.0,-20.0 L 250.0,-20.0 L 150.0,-20.0 L 50.0,-20.0 L 50.0,100.0 L 50.0,220.0 L 50.0,340.0 L 50.0,460.0 L 50.0,580.0 L 150.0,580.0 L 250.0,580.0 L 350.0,580.0 L 450.0,580.0 L 550.0,580.0 L 650.0,580.0 L 750.0,580.0 L 850.0,580.0 L 950.0,580.0 L 1050.0,580.0 L 1150.0,580.0 L 1150.0,460.0 L 1150.0,340.0 L 1150.0,220.0 L 1150.0,100.0 L 1150.0,-20.0 L 1050.0,-20.0 L 950.0,-20.0 L 850.0,-20.0 L 750.0,-20.0 L 650.0,-20.0zM 550.0,220.0 L 550.0,340.0 L 550.0,220.0zz"/>
    <glyph glyph-name="AE.ext-l" d="M 1150.0,460.0 L 1050.0,460.0 L 950.0,460.0 L 850.0,460.0 L 850.0,340.0 L 950.0,340.0 L 1050.0,340.0 L 1150.0,340.0 L 950.0,220.0 L 1050.0,220.0 L 1150.0,220.0 L 1150.0,100.0 L 1150.0,-20.0 L 1050.0,-20.0 L 950.0,-20.0 L 850.0,-20.0 L 750.0,-20.0 L 650.0,-20.0 L 550.0,-20.0 L 550.0,100.0 L 550.0,220.0 L 450.0,-20.0 L 350.0,-20.0 L 250.0,-20.0 L 150.0,-20.0 L 50.0,-20.0 L 50.0,100.0 L 50.0,220.0 L 50.0,340.0 L 50.0,460.0 L 50.0,580.0 L 50.0,700.0 L 150.0,700.0 L 250.0,700.0 L 350.0,700.0 L 450.0,700.0 L 550.0,700.0 L 650.0,700.0 L 750.0,700.0 L 850.0,700.0 L 950.0,700.0 L 1050.0,700.0 L 1150.0,700.0 L 1150.0,580.0 L 1150.0,460.0zM 550.0,220.0 L 550.0,340.0 L 550.0,460.0 L 550.0,220.0zz"/>
    <glyph glyph-name="M.ext-l" d="M 1150.0,-20.0 L 1050.0,-20.0 L 950.0,-20.0 L 850.0,-20.0 L 750.0,-20.0 L 650.0,-20.0 L 650.0,100.0 L 650.0,220.0 L 650.0,340.0 L 650.0,460.0 L 550.0,-20.0 L 550.0,100.0 L 550.0,220.0 L 550.0,340.0 L 550.0,460.0 L 450.0,-20.0 L 350.0,-20.0 L 250.0,-20.0 L 150.0,-20.0 L 50.0,-20.0 L 50.0,100.0 L 50.0,220.0 L 50.0,340.0 L 50.0,460.0 L 50.0,580.0 L 50.0,700.0 L 150.0,700.0 L 250.0,700.0 L 350.0,700.0 L 450.0,700.0 L 550.0,700.0 L 550.0,580.0 L 650.0,580.0 L 650.0,700.0 L 750.0,700.0 L 850.0,700.0 L 950.0,700.0 L 1050.0,700.0 L 1150.0,700.0 L 1150.0,580.0 L 1150.0,460.0 L 1150.0,340.0 L 1150.0,220.0 L 1150.0,100.0 L 1150.0,-20.0zz"/>
    <glyph glyph-name="V.ext-l" d="M 650.0,700.0 L 750.0,700.0 L 850.0,700.0 L 950.0,700.0 L 1050.0,700.0 L 1150.0,700.0 L 1150.0,580.0 L 1150.0,460.0 L 1150.0,340.0 L 1150.0,220.0 L 1050.0,220.0 L 1050.0,100.0 L 1050.0,-20.0 L 950.0,-20.0 L 850.0,-20.0 L 750.0,-20.0 L 650.0,-20.0 L 550.0,-20.0 L 450.0,-20.0 L 350.0,-20.0 L 250.0,-20.0 L 150.0,-20.0 L 50.0,-20.0 L 50.0,100.0 L 50.0,220.0 L 50.0,340.0 L 50.0,460.0 L 50.0,580.0 L 50.0,700.0 L 150.0,700.0 L 250.0,700.0 L 350.0,700.0 L 450.0,700.0 L 550.0,700.0 L 550.0,580.0 L 550.0,460.0 L 550.0,340.0 L 550.0,220.0 L 650.0,220.0 L 650.0,340.0 L 650.0,460.0 L 650.0,580.0 L 650.0,700.0zz"/>
    <glyph glyph-name="W.ext-l" d="M 650.0,700.0 L 750.0,700.0 L 850.0,700.0 L 950.0,700.0 L 1050.0,700.0 L 1150.0,700.0 L 1150.0,580.0 L 1150.0,460.0 L 1150.0,340.0 L 1150.0,220.0 L 1150.0,100.0 L 1150.0,-20.0 L 1050.0,-20.0 L 950.0,-20.0 L 850.0,-20.0 L 750.0,-20.0 L 650.0,-20.0 L 650.0,100.0 L 650.0,220.0 L 650.0,340.0 L 650.0,460.0 L 550.0,460.0 L 550.0,340.0 L 550.0,220.0 L 550.0,100.0 L 550.0,-20.0 L 450.0,-20.0 L 350.0,-20.0 L 250.0,-20.0 L 150.0,-20.0 L 50.0,-20.0 L 50.0,100.0 L 50.0,220.0 L 50.0,340.0 L 50.0,460.0 L 50.0,580.0 L 50.0,700.0 L 150.0,700.0 L 250.0,700.0 L 350.0,700.0 L 450.0,700.0 L 550.0,700.0 L 550.0,580.0 L 650.0,580.0 L 650.0,700.0zz"/>
    <glyph glyph-name="X.ext-l" d="M 1150.0,700.0 L 1150.0,580.0 L 1150.0,460.0 L 1150.0,340.0 L 1150.0,220.0 L 1150.0,100.0 L 1150.0,-20.0 L 1050.0,-20.0 L 950.0,-20.0 L 850.0,-20.0 L 750.0,-20.0 L 650.0,-20.0 L 550.0,-20.0 L 550.0,100.0 L 550.0,220.0 L 550.0,340.0 L 450.0,-20.0 L 350.0,-20.0 L 250.0,-20.0 L 150.0,-20.0 L 50.0,-20.0 L 50.0,100.0 L 50.0,220.0 L 50.0,340.0 L 50.0,460.0 L 50.0,580.0 L 50.0,700.0 L 150.0,700.0 L 250.0,700.0 L 350.0,700.0 L 450.0,700.0 L 550.0,700.0 L 550.0,580.0 L 550.0,460.0 L 650.0,700.0 L 750.0,700.0 L 850.0,700.0 L 950.0,700.0 L 1050.0,700.0 L 1150.0,700.0zz"/>
    <glyph glyph-name="Y.ext-l" d="M 1150.0,700.0 L 1150.0,580.0 L 1050.0,580.0 L 1050.0,460.0 L 1050.0,340.0 L 950.0,340.0 L 950.0,220.0 L 950.0,100.0 L 950.0,-20.0 L 850.0,-20.0 L 750.0,-20.0 L 650.0,-20.0 L 550.0,-20.0 L 450.0,-20.0 L 350.0,-20.0 L 250.0,-20.0 L 250.0,100.0 L 250.0,220.0 L 150.0,220.0 L 150.0,340.0 L 150.0,460.0 L 50.0,460.0 L 50.0,580.0 L 50.0,700.0 L 150.0,700.0 L 250.0,700.0 L 350.0,700.0 L 450.0,700.0 L 550.0,700.0 L 550.0,580.0 L 550.0,460.0 L 550.0,340.0 L 650.0,700.0 L 750.0,700.0 L 850.0,700.0 L 950.0,700.0 L 1050.0,700.0 L 1150.0,700.0zz"/>
    <glyph glyph-name="Yacute.ext-l" d="M 950.0,700.0 L 850.0,700.0 L 750.0,700.0 L 650.0,700.0 L 550.0,700.0 L 450.0,700.0 L 350.0,700.0 L 250.0,700.0 L 950.0,700.0zM 1150.0,580.0 L 1150.0,460.0 L 1050.0,460.0 L 1050.0,340.0 L 950.0,220.0 L 950.0,100.0 L 850.0,100.0 L 850.0,-20.0 L 750.0,-20.0 L 650.0,-20.0 L 550.0,-20.0 L 450.0,-20.0 L 350.0,-20.0 L 350.0,100.0 L 250.0,100.0 L 250.0,220.0 L 150.0,220.0 L 150.0,340.0 L 150.0,460.0 L 50.0,460.0 L 50.0,580.0 L 150.0,580.0 L 250.0,580.0 L 350.0,580.0 L 450.0,580.0 L 550.0,580.0 L 550.0,460.0 L 550.0,340.0 L 650.0,340.0 L 650.0,460.0 L 650.0,580.0 L 750.0,580.0 L 850.0,580.0 L 950.0,580.0 L 1050.0,580.0 L 1150.0,580.0zz"/>
    <glyph glyph-name="Ycircumflex.ext-l" d="M 950.0,700.0 L 850.0,700.0 L 750.0,700.0 L 650.0,700.0 L 550.0,700.0 L 450.0,700.0 L 350.0,700.0 L 250.0,700.0 L 950.0,700.0zM 1150.0,580.0 L 1150.0,460.0 L 1050.0,460.0 L 1050.0,340.0 L 950.0,220.0 L 950.0,100.0 L 850.0,100.0 L 850.0,-20.0 L 750.0,-20.0 L 650.0,-20.0 L 550.0,-20.0 L 450.0,-20.0 L 350.0,-20.0 L 350.0,100.0 L 250.0,100.0 L 250.0,220.0 L 150.0,220.0 L 150.0,340.0 L 150.0,460.0 L 50.0,460.0 L 50.0,580.0 L 150.0,580.0 L 250.0,580.0 L 350.0,580.0 L 450.0,580.0 L 550.0,580.0 L 550.0,460.0 L 550.0,340.0 L 650.0,340.0 L 650.0,460.0 L 650.0,580.0 L 750.0,580.0 L 850.0,580.0 L 950.0,580.0 L 1050.0,580.0 L 1150.0,580.0zz"/>
    <glyph glyph-name="Ydieresis.ext-l" d="M 250.0,700.0 L 350.0,700.0 L 250.0,700.0zM 850.0,700.0 L 950.0,700.0 L 850.0,700.0zM 1150.0,580.0 L 1150.0,460.0 L 1050.0,460.0 L 1050.0,340.0 L 950.0,220.0 L 950.0,100.0 L 850.0,100.0 L 850.0,-20.0 L 750.0,-20.0 L 650.0,-20.0 L 550.0,-20.0 L 450.0,-20.0 L 350.0,-20.0 L 350.0,100.0 L 250.0,100.0 L 250.0,220.0 L 150.0,220.0 L 150.0,340.0 L 150.0,460.0 L 50.0,460.0 L 50.0,580.0 L 150.0,580.0 L 250.0,580.0 L 350.0,580.0 L 450.0,580.0 L 550.0,580.0 L 550.0,460.0 L 550.0,340.0 L 650.0,340.0 L 650.0,460.0 L 650.0,580.0 L 750.0,580.0 L 850.0,580.0 L 950.0,580.0 L 1050.0,580.0 L 1150.0,580.0zz"/>
    <glyph glyph-name="Ygrave.ext-l" d="M 950.0,700.0 L 850.0,700.0 L 750.0,700.0 L 650.0,700.0 L 550.0,700.0 L 450.0,700.0 L 350.0,700.0 L 250.0,700.0 L 950.0,700.0zM 1150.0,580.0 L 1150.0,460.0 L 1050.0,460.0 L 1050.0,340.0 L 950.0,220.0 L 950.0,100.0 L 850.0,100.0 L 850.0,-20.0 L 750.0,-20.0 L 650.0,-20.0 L 550.0,-20.0 L 450.0,-20.0 L 350.0,-20.0 L 350.0,100.0 L 250.0,100.0 L 250.0,220.0 L 150.0,220.0 L 150.0,340.0 L 150.0,460.0 L 50.0,460.0 L 50.0,580.0 L 150.0,580.0 L 250.0,580.0 L 350.0,580.0 L 450.0,580.0 L 550.0,580.0 L 550.0,460.0 L 550.0,340.0 L 650.0,340.0 L 650.0,460.0 L 650.0,580.0 L 750.0,580.0 L 850.0,580.0 L 950.0,580.0 L 1050.0,580.0 L 1150.0,580.0zz"/>
    <glyph glyph-name="A.ext-lr" d="M 650.0,-20.0 L 650.0,100.0 L 550.0,100.0 L 550.0,-20.0 L 450.0,-20.0 L 350.0,-20.0 L 250.0,-20.0 L 150.0,-20.0 L 50.0,-20.0 L 50.0,100.0 L 50.0,220.0 L 50.0,340.0 L 50.0,460.0 L 50.0,580.0 L 50.0,700.0 L 150.0,700.0 L 250.0,700.0 L 350.0,700.0 L 450.0,700.0 L 550.0,700.0 L 650.0,700.0 L 750.0,700.0 L 850.0,700.0 L 950.0,700.0 L 1050.0,700.0 L 1150.0,700.0 L 1150.0,580.0 L 1150.0,460.0 L 1150.0,340.0 L 1150.0,220.0 L 1150.0,100.0 L 1150.0,-20.0 L 1050.0,-20.0 L 950.0,-20.0 L 850.0,-20.0 L 750.0,-20.0 L 650.0,-20.0zM 550.0,220.0 L 650.0,220.0 L 650.0,340.0 L 650.0,460.0 L 550.0,460.0 L 550.0,340.0 L 550.0,220.0zz"/>
    <glyph glyph-name="Aacute.ext-lr" d="M 950.0,700.0 L 850.0,700.0 L 750.0,700.0 L 650.0,700.0 L 550.0,700.0 L 450.0,700.0 L 350.0,700.0 L 250.0,700.0 L 950.0,700.0zM 650.0,-20.0 L 650.0,100.0 L 550.0,100.0 L 550.0,-20.0 L 450.0,-20.0 L 350.0,-20.0 L 250.0,-20.0 L 150.0,-20.0 L 50.0,-20.0 L 50.0,100.0 L 50.0,220.0 L 50.0,340.0 L 50.0,460.0 L 50.0,580.0 L 150.0,580.0 L 250.0,580.0 L 350.0,580.0 L 450.0,580.0 L 550.0,580.0 L 650.0,580.0 L 750.0,580.0 L 850.0,580.0 L 950.0,580.0 L 1050.0,580.0 L 1150.0,580.0 L 1150.0,460.0 L 1150.0,340.0 L 1150.0,220.0 L 1150.0,100.0 L 1150.0,-20.0 L 1050.0,-20.0 L 950.0,-20.0 L 850.0,-20.0 L 750.0,-20.0 L 650.0,-20.0zM 550.0,220.0 L 650.0,220.0 L 650.0,340.0 L 550.0,340.0 L 550.0,220.0zz"/>
    <glyph glyph-name="Abreve.ext-lr" d="M 650.0,700.0 L 550.0,700.0 L 450.0,700.0 L 350.0,700.0 L 250.0,700.0 L 750.0,700.0 L 850.0,700.0 L 950.0,700.0 L 650.0,700.0zM 650.0,-20.0 L 650.0,100.0 L 550.0,100.0 L 550.0,-20.0 L 450.0,-20.0 L 350.0,-20.0 L 250.0,-20.0 L 150.0,-20.0 L 50.0,-20.0 L 50.0,100.0 L 50.0,220.0 L 50.0,340.0 L 50.0,460.0 L 50.0,580.0 L 150.0,580.0 L 250.0,580.0 L 350.0,580.0 L 450.0,580.0 L 550.0,580.0 L 650.0,580.0 L 750.0,580.0 L 850.0,580.0 L 950.0,580.0 L 1050.0,580.0 L 1150.0,580.0 L 1150.0,460.0 L 1150.0,340.0 L 1150.0,220.0 L 1150.0,100.0 L 1150.0,-20.0 L 1050.0,-20.0 L 950.0,-20.0 L 850.0,-20.0 L 750.0,-20.0 L 650.0,-20.0zM 550.0,220.0 L 650.0,220.0 L 650.0,340.0 L 550.0,340.0 L 550.0,220.0zz"/>
    <glyph glyph-name="Acircumflex.ext-lr" d="M 950.0,700.0 L 850.0,700.0 L 750.0,700.0 L 650.0,700.0 L 550.0,700.0 L 450.0,700.0 L 350.0,700.0 L 250.0,700.0 L 950.0,700.0zM 650.0,-20.0 L 650.0,100.0 L 550.0,100.0 L 550.0,-20.0 L 450.0,-20.0 L 350.0,-20.0 L 250.0,-20.0 L 150.0,-20.0 L 50.0,-20.0 L 50.0,100.0 L 50.0,220.0 L 50.0,340.0 L 50.0,460.0 L 50.0,580.0 L 150.0,580.0 L 250.0,580.0 L 350.0,580.0 L 450.0,580.0 L 550.0,580.0 L 650.0,580.0 L 750.0,580.0 L 850.0,580.0 L 950.0,580.0 L 1050.0,580.0 L 1150.0,580.0 L 1150.0,460.0 L 1150.0,340.0 L 1150.0,220.0 L 1150.0,100.0 L 1150.0,-20.0 L 1050.0,-20.0 L 950.0,-20.0 L 850.0,-20.0 L 750.0,-20.0 L 650.0,-20.0zM 550.0,220.0 L 650.0,220.0 L 650.0,340.0 L 550.0,340.0 L 550.0,220.0zz"/>
    <glyph glyph-name="Adieresis.ext-lr" d="M 350.0,700.0 L 250.0,700.0 L 350.0,700.0zM 850.0,700.0 L 950.0,700.0 L 850.0,700.0zM 650.0,-20.0 L 650.0,100.0 L 550.0,100.0 L 550.0,-20.0 L 450.0,-20.0 L 350.0,-20.0 L 250.0,-20.0 L 150.0,-20.0 L 50.0,-20.0 L 50.0,100.0 L 50.0,220.0 L 50.0,340.0 L 50.0,460.0 L 50.0,580.0 L 150.0,580.0 L 250.0,580.0 L 350.0,580.0 L 450.0,580.0 L 550.0,580.0 L 650.0,580.0 L 750.0,580.0 L 850.0,580.0 L 950.0,580.0 L 1050.0,580.0 L 1150.0,580.0 L 1150.0,460.0 L 1150.0,340.0 L 1150.0,220.0 L 1150.0,100.0 L 1150.0,-20.0 L 1050.0,-20.0 L 950.0,-20.0 L 850.0,-20.0 L 750.0,-20.0 L 650.0,-20.0zM 550.0,220.0 L 650.0,220.0 L 650.0,340.0 L 550.0,340.0 L 550.0,220.0zz"/>
    <glyph glyph-name="Agrave.ext-lr" d="M 950.0,700.0 L 850.0,700.0 L 750.0,700.0 L 650.0,700.0 L 550.0,700.0 L 450.0,700.0 L 350.0,700.0 L 250.0,700.0 L 950.0,700.0zM 650.0,-20.0 L 650.0,100.0 L 550.0,100.0 L 550.0,-20.0 L 450.0,-20.0 L 350.0,-20.0 L 250.0,-20.0 L 150.0,-20.0 L 50.0,-20.0 L 50.0,100.0 L 50.0,220.0 L 50.0,340.0 L 50.0,460.0 L 50.0,580.0 L 150.0,580.0 L 250.0,580.0 L 350.0,580.0 L 450.0,580.0 L 550.0,580.0 L 650.0,580.0 L 750.0,580.0 L 850.0,580.0 L 950.0,580.0 L 1050.0,580.0 L 1150.0,580.0 L 1150.0,460.0 L 1150.0,340.0 L 1150.0,220.0 L 1150.0,100.0 L 1150.0,-20.0 L 1050.0,-20.0 L 950.0,-20.0 L 850.0,-20.0 L 750.0,-20.0 L 650.0,-20.0zM 550.0,220.0 L 650.0,220.0 L 650.0,340.0 L 550.0,340.0 L 550.0,220.0zz"/>
    <glyph glyph-name="Amacron.ext-lr" d="M 950.0,700.0 L 850.0,700.0 L 750.0,700.0 L 650.0,700.0 L 550.0,700.0 L 450.0,700.0 L 350.0,700.0 L 250.0,700.0 L 950.0,700.0zM 650.0,-20.0 L 650.0,100.0 L 550.0,100.0 L 550.0,-20.0 L 450.0,-20.0 L 350.0,-20.0 L 250.0,-20.0 L 150.0,-20.0 L 50.0,-20.0 L 50.0,100.0 L 50.0,220.0 L 50.0,340.0 L 50.0,460.0 L 50.0,580.0 L 150.0,580.0 L 250.0,580.0 L 350.0,580.0 L 450.0,580.0 L 550.0,580.0 L 650.0,580.0 L 750.0,580.0 L 850.0,580.0 L 950.0,580.0 L 1050.0,580.0 L 1150.0,580.0 L 1150.0,460.0 L 1150.0,340.0 L 1150.0,220.0 L 1150.0,100.0 L 1150.0,-20.0 L 1050.0,-20.0 L 950.0,-20.0 L 850.0,-20.0 L 750.0,-20.0 L 650.0,-20.0zM 550.0,220.0 L 650.0,220.0 L 650.0,340.0 L 550.0,340.0 L 550.0,220.0zz"/>
    <glyph glyph-name="Aogonek.ext-lr" d="M 1150.0,-20.0 L 1050.0,-20.0 L 1050.0,100.0 L 950.0,100.0 L 850.0,100.0 L 750.0,100.0 L 650.0,100.0 L 650.0,220.0 L 550.0,220.0 L 550.0,100.0 L 450.0,100.0 L 350.0,100.0 L 250.0,100.0 L 150.0,100.0 L 50.0,100.0 L 50.0,220.0 L 50.0,340.0 L 50.0,460.0 L 50.0,580.0 L 50.0,700.0 L 150.0,700.0 L 250.0,700.0 L 350.0,700.0 L 450.0,700.0 L 550.0,700.0 L 650.0,700.0 L 750.0,700.0 L 850.0,700.0 L 950.0,700.0 L 1050.0,700.0 L 1150.0,700.0 L 1150.0,580.0 L 1150.0,460.0 L 1150.0,340.0 L 1150.0,220.0 L 1150.0,100.0 L 1150.0,-20.0zM 550.0,340.0 L 650.0,340.0 L 650.0,460.0 L 550.0,460.0 L 550.0,340.0zz"/>
    <glyph glyph-name="Aring.ext-lr" d="M 650.0,580.0 L 550.0,580.0 L 550.0,700.0 L 650.0,700.0 L 650.0,580.0zM 650.0,700.0 L 550.0,700.0 L 650.0,580.0 L 650.0,700.0zM 650.0,-20.0 L 650.0,100.0 L 550.0,100.0 L 550.0,-20.0 L 450.0,-20.0 L 350.0,-20.0 L 250.0,-20.0 L 150.0,-20.0 L 50.0,-20.0 L 50.0,100.0 L 50.0,220.0 L 50.0,340.0 L 50.0,460.0 L 50.0,580.0 L 150.0,580.0 L 250.0,580.0 L 350.0,580.0 L 450.0,580.0 L 550.0,580.0 L 650.0,580.0 L 750.0,580.0 L 850.0,580.0 L 950.0,580.0 L 1050.0,580.0 L 1150.0,580.0 L 1150.0,460.0 L 1150.0,340.0 L 1150.0,220.0 L 1150.0,100.0 L 1150.0,-20.0 L 1050.0,-20.0 L 950.0,-20.0 L 850.0,-20.0 L 750.0,-20.0 L 650.0,-20.0zM 550.0,220.0 L 650.0,220.0 L 650.0,340.0 L 550.0,340.0 L 550.0,220.0zz"/>
    <glyph glyph-name="Atilde.ext-lr" d="M 450.0,700.0 L 350.0,700.0 L 250.0,700.0 L 550.0,700.0 L 650.0,700.0 L 750.0,700.0 L 850.0,700.0 L 950.0,700.0 L 450.0,700.0zM 650.0,-20.0 L 650.0,100.0 L 550.0,100.0 L 550.0,-20.0 L 450.0,-20.0 L 350.0,-20.0 L 250.0,-20.0 L 150.0,-20.0 L 50.0,-20.0 L 50.0,100.0 L 50.0,220.0 L 50.0,340.0 L 50.0,460.0 L 50.0,580.0 L 150.0,580.0 L 250.0,580.0 L 350.0,580.0 L 450.0,580.0 L 550.0,580.0 L 650.0,580.0 L 750.0,580.0 L 850.0,580.0 L 950.0,580.0 L 1050.0,580.0 L 1150.0,580.0 L 1150.0,460.0 L 1150.0,340.0 L 1150.0,220.0 L 1150.0,100.0 L 1150.0,-20.0 L 1050.0,-20.0 L 950.0,-20.0 L 850.0,-20.0 L 750.0,-20.0 L 650.0,-20.0zM 550.0,220.0 L 650.0,220.0 L 650.0,340.0 L 550.0,340.0 L 550.0,220.0zz"/>
    <glyph glyph-name="M.ext-lr" d="M 1150.0,-20.0 L 1050.0,-20.0 L 950.0,-20.0 L 850.0,-20.0 L 750.0,-20.0 L 650.0,-20.0 L 650.0,100.0 L 650.0,220.0 L 650.0,340.0 L 650.0,460.0 L 550.0,-20.0 L 550.0,100.0 L 550.0,220.0 L 550.0,340.0 L 550.0,460.0 L 450.0,-20.0 L 350.0,-20.0 L 250.0,-20.0 L 150.0,-20.0 L 50.0,-20.0 L 50.0,100.0 L 50.0,220.0 L 50.0,340.0 L 50.0,460.0 L 50.0,580.0 L 50.0,700.0 L 150.0,700.0 L 250.0,700.0 L 350.0,700.0 L 450.0,700.0 L 550.0,700.0 L 550.0,580.0 L 650.0,580.0 L 650.0,700.0 L 750.0,700.0 L 850.0,700.0 L 950.0,700.0 L 1050.0,700.0 L 1150.0,700.0 L 1150.0,580.0 L 1150.0,460.0 L 1150.0,340.0 L 1150.0,220.0 L 1150.0,100.0 L 1150.0,-20.0zz"/>
    <glyph glyph-name="V.ext-lr" d="M 650.0,700.0 L 750.0,700.0 L 850.0,700.0 L 950.0,700.0 L 1050.0,700.0 L 1150.0,700.0 L 1150.0,580.0 L 1150.0,460.0 L 1150.0,340.0 L 1150.0,220.0 L 1150.0,100.0 L 1150.0,-20.0 L 1050.0,-20.0 L 950.0,-20.0 L 850.0,-20.0 L 750.0,-20.0 L 650.0,-20.0 L 550.0,-20.0 L 450.0,-20.0 L 350.0,-20.0 L 250.0,-20.0 L 150.0,-20.0 L 50.0,-20.0 L 50.0,100.0 L 50.0,220.0 L 50.0,340.0 L 50.0,460.0 L 50.0,580.0 L 50.0,700.0 L 150.0,700.0 L 250.0,700.0 L 350.0,700.0 L 450.0,700.0 L 550.0,700.0 L 550.0,580.0 L 550.0,460.0 L 550.0,340.0 L 550.0,220.0 L 650.0,220.0 L 650.0,340.0 L 650.0,460.0 L 650.0,580.0 L 650.0,700.0zz"/>
    <glyph glyph-name="W.ext-lr" d="M 650.0,700.0 L 750.0,700.0 L 850.0,700.0 L 950.0,700.0 L 1050.0,700.0 L 1150.0,700.0 L 1150.0,580.0 L 1150.0,460.0 L 1150.0,340.0 L 1150.0,220.0 L 1150.0,100.0 L 1150.0,-20.0 L 1050.0,-20.0 L 950.0,-20.0 L 850.0,-20.0 L 750.0,-20.0 L 650.0,-20.0 L 650.0,100.0 L 650.0,220.0 L 650.0,340.0 L 650.0,460.0 L 550.0,460.0 L 550.0,340.0 L 550.0,220.0 L 550.0,100.0 L 550.0,-20.0 L 450.0,-20.0 L 350.0,-20.0 L 250.0,-20.0 L 150.0,-20.0 L 50.0,-20.0 L 50.0,100.0 L 50.0,220.0 L 50.0,340.0 L 50.0,460.0 L 50.0,580.0 L 50.0,700.0 L 150.0,700.0 L 250.0,700.0 L 350.0,700.0 L 450.0,700.0 L 550.0,700.0 L 550.0,580.0 L 650.0,580.0 L 650.0,700.0zz"/>
    <glyph glyph-name="X.ext-lr" d="M 1150.0,580.0 L 1150.0,460.0 L 1150.0,340.0 L 1150.0,220.0 L 1150.0,100.0 L 1150.0,-20.0 L 1050.0,-20.0 L 950.0,-20.0 L 850.0,-20.0 L 750.0,-20.0 L 650.0,-20.0 L 650.0,100.0 L 650.0,220.0 L 550.0,220.0 L 550.0,340.0 L 550.0,100.0 L 550.0,-20.0 L 450.0,-20.0 L 350.0,-20.0 L 250.0,-20.0 L 150.0,-20.0 L 50.0,-20.0 L 50.0,100.0 L 50.0,220.0 L 50.0,340.0 L 50.0,460.0 L 50.0,580.0 L 50.0,700.0 L 150.0,700.0 L 250.0,700.0 L 350.0,700.0 L 450.0,700.0 L 550.0,700.0 L 550.0,580.0 L 550.0,460.0 L 650.0,460.0 L 650.0,580.0 L 650.0,700.0 L 750.0,700.0 L 850.0,700.0 L 950.0,700.0 L 1050.0,700.0 L 1150.0,700.0 L 1150.0,580.0zz"/>
    <glyph glyph-name="Y.ext-lr" d="M 1150.0,700.0 L 1150.0,580.0 L 1150.0,460.0 L 1050.0,460.0 L 1050.0,340.0 L 1050.0,220.0 L 950.0,220.0 L 950.0,100.0 L 950.0,-20.0 L 850.0,-20.0 L 750.0,-20.0 L 650.0,-20.0 L 550.0,-20.0 L 450.0,-20.0 L 350.0,-20.0 L 250.0,-20.0 L 250.0,100.0 L 250.0,220.0 L 150.0,220.0 L 150.0,340.0 L 150.0,460.0 L 50.0,460.0 L 50.0,580.0 L 50.0,700.0 L 150.0,700.0 L 250.0,700.0 L 350.0,700.0 L 450.0,700.0 L 550.0,700.0 L 550.0,580.0 L 550.0,460.0 L 550.0,340.0 L 650.0,340.0 L 650.0,460.0 L 650.0,580.0 L 650.0,700.0 L 750.0,700.0 L 850.0,700.0 L 950.0,700.0 L 1050.0,700.0 L 1150.0,700.0zz"/>
    <glyph glyph-name="Yacute.ext-lr" d="M 950.0,700.0 L 850.0,700.0 L 750.0,700.0 L 650.0,700.0 L 550.0,700.0 L 450.0,700.0 L 350.0,700.0 L 250.0,700.0 L 950.0,700.0zM 1150.0,580.0 L 1150.0,460.0 L 1050.0,460.0 L 1050.0,340.0 L 1050.0,220.0 L 950.0,220.0 L 950.0,100.0 L 850.0,100.0 L 850.0,-20.0 L 750.0,-20.0 L 650.0,-20.0 L 550.0,-20.0 L 450.0,-20.0 L 350.0,-20.0 L 350.0,100.0 L 250.0,100.0 L 250.0,220.0 L 150.0,220.0 L 150.0,340.0 L 150.0,460.0 L 50.0,460.0 L 50.0,580.0 L 150.0,580.0 L 250.0,580.0 L 350.0,580.0 L 450.0,580.0 L 550.0,580.0 L 550.0,460.0 L 550.0,340.0 L 650.0,340.0 L 650.0,460.0 L 650.0,580.0 L 750.0,580.0 L 850.0,580.0 L 950.0,580.0 L 1050.0,580.0 L 1150.0,580.0zz"/>
    <glyph glyph-name="Ycircumflex.ext-lr" d="M 950.0,700.0 L 850.0,700.0 L 750.0,700.0 L 650.0,700.0 L 550.0,700.0 L 450.0,700.0 L 350.0,700.0 L 250.0,700.0 L 950.0,700.0zM 1150.0,580.0 L 1150.0,460.0 L 1050.0,460.0 L 1050.0,340.0 L 1050.0,220.0 L 950.0,220.0 L 950.0,100.0 L 850.0,100.0 L 850.0,-20.0 L 750.0,-20.0 L 650.0,-20.0 L 550.0,-20.0 L 450.0,-20.0 L 350.0,-20.0 L 350.0,100.0 L 250.0,100.0 L 250.0,220.0 L 150.0,220.0 L 150.0,340.0 L 150.0,460.0 L 50.0,460.0 L 50.0,580.0 L 150.0,580.0 L 250.0,580.0 L 350.0,580.0 L 450.0,580.0 L 550.0,580.0 L 550.0,460.0 L 550.0,340.0 L 650.0,340.0 L 650.0,460.0 L 650.0,580.0 L 750.0,580.0 L 850.0,580.0 L 950.0,580.0 L 1050.0,580.0 L 1150.0,580.0zz"/>
    <glyph glyph-name="Ydieresis.ext-lr" d="M 350.0,700.0 L 250.0,700.0 L 350.0,700.0zM 850.0,700.0 L 950.0,700.0 L 850.0,700.0zM 1150.0,580.0 L 1150.0,460.0 L 1050.0,460.0 L 1050.0,340.0 L 1050.0,220.0 L 950.0,220.0 L 950.0,100.0 L 850.0,100.0 L 850.0,-20.0 L 750.0,-20.0 L 650.0,-20.0 L 550.0,-20.0 L 450.0,-20.0 L 350.0,-20.0 L 350.0,100.0 L 250.0,100.0 L 250.0,220.0 L 150.0,220.0 L 150.0,340.0 L 150.0,460.0 L 50.0,460.0 L 50.0,580.0 L 150.0,580.0 L 250.0,580.0 L 350.0,580.0 L 450.0,580.0 L 550.0,580.0 L 550.0,460.0 L 550.0,340.0 L 650.0,340.0 L 650.0,460.0 L 650.0,580.0 L 750.0,580.0 L 850.0,580.0 L 950.0,580.0 L 1050.0,580.0 L 1150.0,580.0zz"/>
    <glyph glyph-name="Ygrave.ext-lr" d="M 950.0,700.0 L 850.0,700.0 L 750.0,700.0 L 650.0,700.0 L 550.0,700.0 L 450.0,700.0 L 350.0,700.0 L 250.0,700.0 L 950.0,700.0zM 1150.0,580.0 L 1150.0,460.0 L 1050.0,460.0 L 1050.0,340.0 L 1050.0,220.0 L 950.0,220.0 L 950.0,100.0 L 850.0,100.0 L 850.0,-20.0 L 750.0,-20.0 L 650.0,-20.0 L 550.0,-20.0 L 450.0,-20.0 L 350.0,-20.0 L 350.0,100.0 L 250.0,100.0 L 250.0,220.0 L 150.0,220.0 L 150.0,340.0 L 150.0,460.0 L 50.0,460.0 L 50.0,580.0 L 150.0,580.0 L 250.0,580.0 L 350.0,580.0 L 450.0,580.0 L 550.0,580.0 L 550.0,460.0 L 550.0,340.0 L 650.0,340.0 L 650.0,460.0 L 650.0,580.0 L 750.0,580.0 L 850.0,580.0 L 950.0,580.0 L 1050.0,580.0 L 1150.0,580.0zz"/>
    <glyph glyph-name="A.ext-r" d="M 650.0,-20.0 L 650.0,100.0 L 550.0,100.0 L 550.0,-20.0 L 450.0,-20.0 L 350.0,-20.0 L 250.0,-20.0 L 150.0,-20.0 L 50.0,-20.0 L 50.0,100.0 L 50.0,220.0 L 50.0,340.0 L 50.0,460.0 L 50.0,580.0 L 50.0,700.0 L 150.0,700.0 L 250.0,700.0 L 350.0,700.0 L 450.0,700.0 L 550.0,700.0 L 650.0,700.0 L 750.0,700.0 L 850.0,700.0 L 950.0,700.0 L 1050.0,700.0 L 1150.0,700.0 L 1150.0,580.0 L 1150.0,460.0 L 1150.0,340.0 L 1150.0,220.0 L 1150.0,100.0 L 1150.0,-20.0 L 1050.0,-20.0 L 950.0,-20.0 L 850.0,-20.0 L 750.0,-20.0 L 650.0,-20.0zM 550.0,220.0 L 650.0,220.0 L 650.0,340.0 L 650.0,460.0 L 550.0,220.0zz"/>
    <glyph glyph-name="Aacute.ext-r" d="M 950.0,700.0 L 850.0,700.0 L 750.0,700.0 L 650.0,700.0 L 550.0,700.0 L 450.0,700.0 L 350.0,700.0 L 250.0,700.0 L 950.0,700.0zM 650.0,-20.0 L 650.0,100.0 L 550.0,100.0 L 550.0,-20.0 L 450.0,-20.0 L 350.0,-20.0 L 250.0,-20.0 L 150.0,-20.0 L 50.0,-20.0 L 50.0,100.0 L 50.0,220.0 L 50.0,340.0 L 50.0,460.0 L 50.0,580.0 L 150.0,580.0 L 250.0,580.0 L 350.0,580.0 L 450.0,580.0 L 550.0,580.0 L 650.0,580.0 L 750.0,580.0 L 850.0,580.0 L 950.0,580.0 L 1050.0,580.0 L 1150.0,580.0 L 1150.0,460.0 L 1150.0,340.0 L 1150.0,220.0 L 1150.0,100.0 L 1150.0,-20.0 L 1050.0,-20.0 L 950.0,-20.0 L 850.0,-20.0 L 750.0,-20.0 L 650.0,-20.0zM 650.0,220.0 L 650.0,340.0 L 650.0,220.0zz"/>
    <glyph glyph-name="Abreve.ext-r" d="M 650.0,700.0 L 550.0,700.0 L 450.0,700.0 L 350.0,700.0 L 250.0,700.0 L 750.0,700.0 L 850.0,700.0 L 950.0,700.0 L 650.0,700.0zM 650.0,-20.0 L 650.0,100.0 L 550.0,100.0 L 550.0,-20.0 L 450.0,-20.0 L 350.0,-20.0 L 250.0,-20.0 L 150.0,-20.0 L 50.0,-20.0 L 50.0,100.0 L 50.0,220.0 L 50.0,340.0 L 50.0,460.0 L 50.0,580.0 L 150.0,580.0 L 250.0,580.0 L 350.0,580.0 L 450.0,580.0 L 550.0,580.0 L 650.0,580.0 L 750.0,580.0 L 850.0,580.0 L 950.0,580.0 L 1050.0,580.0 L 1150.0,580.0 L 1150.0,460.0 L 1150.0,340.0 L 1150.0,220.0 L 1150.0,100.0 L 1150.0,-20.0 L 1050.0,-20.0 L 950.0,-20.0 L 850.0,-20.0 L 750.0,-20.0 L 650.0,-20.0zM 650.0,220.0 L 650.0,340.0 L 650.0,220.0zz"/>
    <glyph glyph-name="Acircumflex.ext-r" d="M 950.0,700.0 L 850.0,700.0 L 750.0,700.0 L 650.0,700.0 L 550.0,700.0 L 450.0,700.0 L 350.0,700.0 L 250.0,700.0 L 950.0,700.0zM 650.0,-20.0 L 650.0,100.0 L 550.0,100.0 L 550.0,-20.0 L 450.0,-20.0 L 350.0,-20.0 L 250.0,-20.0 L 150.0,-20.0 L 50.0,-20.0 L 50.0,100.0 L 50.0,220.0 L 50.0,340.0 L 50.0,460.0 L 50.0,580.0 L 150.0,580.0 L 250.0,580.0 L 350.0,580.0 L 450.0,580.0 L 550.0,580.0 L 650.0,580.0 L 750.0,580.0 L 850.0,580.0 L 950.0,580.0 L 1050.0,580.0 L 1150.0,580.0 L 1150.0,460.0 L 1150.0,340.0 L 1150.0,220.0 L 1150.0,100.0 L 1150.0,-20.0 L 1050.0,-20.0 L 950.0,-20.0 L 850.0,-20.0 L 750.0,-20.0 L 650.0,-20.0zM 650.0,220.0 L 650.0,340.0 L 650.0,220.0zz"/>
    <glyph glyph-name="Adieresis.ext-r" d="M 350.0,700.0 L 250.0,700.0 L 350.0,700.0zM 950.0,700.0 L 850.0,700.0 L 950.0,700.0zM 650.0,-20.0 L 650.0,100.0 L 550.0,100.0 L 550.0,-20.0 L 450.0,-20.0 L 350.0,-20.0 L 250.0,-20.0 L 150.0,-20.0 L 50.0,-20.0 L 50.0,100.0 L 50.0,220.0 L 50.0,340.0 L 50.0,460.0 L 50.0,580.0 L 150.0,580.0 L 250.0,580.0 L 350.0,580.0 L 450.0,580.0 L 550.0,580.0 L 650.0,580.0 L 750.0,580.0 L 850.0,580.0 L 950.0,580.0 L 1050.0,580.0 L 1150.0,580.0 L 1150.0,460.0 L 1150.0,340.0 L 1150.0,220.0 L 1150.0,100.0 L 1150.0,-20.0 L 1050.0,-20.0 L 950.0,-20.0 L 850.0,-20.0 L 750.0,-20.0 L 650.0,-20.0zM 650.0,220.0 L 650.0,340.0 L 650.0,220.0zz"/>
    <glyph glyph-name="Agrave.ext-r" d="M 950.0,700.0 L 850.0,700.0 L 750.0,700.0 L 650.0,700.0 L 550.0,700.0 L 450.0,700.0 L 350.0,700.0 L 250.0,700.0 L 950.0,700.0zM 650.0,-20.0 L 650.0,100.0 L 550.0,100.0 L 550.0,-20.0 L 450.0,-20.0 L 350.0,-20.0 L 250.0,-20.0 L 150.0,-20.0 L 50.0,-20.0 L 50.0,100.0 L 50.0,220.0 L 50.0,340.0 L 50.0,460.0 L 50.0,580.0 L 150.0,580.0 L 250.0,580.0 L 350.0,580.0 L 450.0,580.0 L 550.0,580.0 L 650.0,580.0 L 750.0,580.0 L 850.0,580.0 L 950.0,580.0 L 1050.0,580.0 L 1150.0,580.0 L 1150.0,460.0 L 1150.0,340.0 L 1150.0,220.0 L 1150.0,100.0 L 1150.0,-20.0 L 1050.0,-20.0 L 950.0,-20.0 L 850.0,-20.0 L 750.0,-20.0 L 650.0,-20.0zM 650.0,220.0 L 650.0,340.0 L 650.0,220.0zz"/>
    <glyph glyph-name="Amacron.ext-r" d="M 950.0,700.0 L 850.0,700.0 L 750.0,700.0 L 650.0,700.0 L 550.0,700.0 L 450.0,700.0 L 350.0,700.0 L 250.0,700.0 L 950.0,700.0zM 650.0,-20.0 L 650.0,100.0 L 550.0,100.0 L 550.0,-20.0 L 450.0,-20.0 L 350.0,-20.0 L 250.0,-20.0 L 150.0,-20.0 L 50.0,-20.0 L 50.0,100.0 L 50.0,220.0 L 50.0,340.0 L 50.0,460.0 L 50.0,580.0 L 150.0,580.0 L 250.0,580.0 L 350.0,580.0 L 450.0,580.0 L 550.0,580.0 L 650.0,580.0 L 750.0,580.0 L 850.0,580.0 L 950.0,580.0 L 1050.0,580.0 L 1150.0,580.0 L 1150.0,460.0 L 1150.0,340.0 L 1150.0,220.0 L 1150.0,100.0 L 1150.0,-20.0 L 1050.0,-20.0 L 950.0,-20.0 L 850.0,-20.0 L 750.0,-20.0 L 650.0,-20.0zM 650.0,220.0 L 650.0,340.0 L 650.0,220.0zz"/>
    <glyph glyph-name="Aogonek.ext-r" d="M 1150.0,-20.0 L 1050.0,-20.0 L 1050.0,100.0 L 950.0,100.0 L 850.0,100.0 L 750.0,100.0 L 650.0,100.0 L 650.0,220.0 L 550.0,220.0 L 550.0,100.0 L 450.0,100.0 L 350.0,100.0 L 250.0,100.0 L 150.0,100.0 L 50.0,100.0 L 50.0,220.0 L 50.0,340.0 L 50.0,460.0 L 50.0,580.0 L 50.0,700.0 L 150.0,700.0 L 250.0,700.0 L 350.0,700.0 L 450.0,700.0 L 550.0,700.0 L 650.0,700.0 L 750.0,700.0 L 850.0,700.0 L 950.0,700.0 L 1050.0,700.0 L 1150.0,700.0 L 1150.0,580.0 L 1150.0,460.0 L 1150.0,340.0 L 1150.0,220.0 L 1150.0,100.0 L 1150.0,-20.0zM 650.0,340.0 L 650.0,460.0 L 650.0,340.0zz"/>
    <glyph glyph-name="Aring.ext-r" d="M 650.0,580.0 L 550.0,580.0 L 550.0,700.0 L 650.0,700.0 L 750.0,700.0 L 750.0,580.0 L 650.0,580.0zM 650.0,700.0 L 550.0,700.0 L 650.0,580.0 L 650.0,700.0zM 650.0,-20.0 L 650.0,100.0 L 550.0,100.0 L 550.0,-20.0 L 450.0,-20.0 L 350.0,-20.0 L 250.0,-20.0 L 150.0,-20.0 L 50.0,-20.0 L 50.0,100.0 L 50.0,220.0 L 50.0,340.0 L 50.0,460.0 L 50.0,580.0 L 150.0,580.0 L 250.0,580.0 L 350.0,580.0 L 450.0,580.0 L 550.0,580.0 L 650.0,580.0 L 750.0,580.0 L 850.0,580.0 L 950.0,580.0 L 1050.0,580.0 L 1150.0,580.0 L 1150.0,460.0 L 1150.0,340.0 L 1150.0,220.0 L 1150.0,100.0 L 1150.0,-20.0 L 1050.0,-20.0 L 950.0,-20.0 L 850.0,-20.0 L 750.0,-20.0 L 650.0,-20.0zM 650.0,220.0 L 650.0,340.0 L 650.0,220.0zz"/>
    <glyph glyph-name="Atilde.ext-r" d="M 450.0,700.0 L 350.0,700.0 L 550.0,700.0 L 650.0,700.0 L 750.0,700.0 L 850.0,700.0 L 950.0,700.0 L 450.0,700.0zM 650.0,-20.0 L 650.0,100.0 L 550.0,100.0 L 550.0,-20.0 L 450.0,-20.0 L 350.0,-20.0 L 250.0,-20.0 L 150.0,-20.0 L 50.0,-20.0 L 50.0,100.0 L 50.0,220.0 L 50.0,340.0 L 50.0,460.0 L 50.0,580.0 L 150.0,580.0 L 250.0,580.0 L 350.0,580.0 L 450.0,580.0 L 550.0,580.0 L 650.0,580.0 L 750.0,580.0 L 850.0,580.0 L 950.0,580.0 L 1050.0,580.0 L 1150.0,580.0 L 1150.0,460.0 L 1150.0,340.0 L 1150.0,220.0 L 1150.0,100.0 L 1150.0,-20.0 L 1050.0,-20.0 L 950.0,-20.0 L 850.0,-20.0 L 750.0,-20.0 L 650.0,-20.0zM 650.0,220.0 L 650.0,340.0 L 650.0,220.0zz"/>
    <glyph glyph-name="K.ext-r" d="M 1150.0,700.0 L 1150.0,580.0 L 1150.0,460.0 L 1150.0,340.0 L 1150.0,220.0 L 1150.0,100.0 L 1150.0,-20.0 L 1050.0,-20.0 L 950.0,-20.0 L 850.0,-20.0 L 750.0,-20.0 L 650.0,-20.0 L 650.0,100.0 L 650.0,220.0 L 650.0,340.0 L 550.0,340.0 L 550.0,220.0 L 550.0,100.0 L 550.0,-20.0 L 450.0,-20.0 L 350.0,-20.0 L 250.0,-20.0 L 150.0,-20.0 L 50.0,-20.0 L 50.0,100.0 L 50.0,220.0 L 50.0,340.0 L 50.0,460.0 L 50.0,580.0 L 50.0,700.0 L 150.0,700.0 L 250.0,700.0 L 350.0,700.0 L 450.0,700.0 L 550.0,700.0 L 550.0,580.0 L 550.0,460.0 L 650.0,460.0 L 650.0,580.0 L 650.0,700.0 L 750.0,700.0 L 850.0,700.0 L 950.0,700.0 L 1050.0,700.0 L 1150.0,700.0zz"/>
    <glyph glyph-name="uni0136.ext-r" d="M 1150.0,700.0 L 1150.0,580.0 L 1150.0,460.0 L 1150.0,340.0 L 1150.0,220.0 L 1150.0,100.0 L 1050.0,100.0 L 950.0,100.0 L 850.0,100.0 L 750.0,100.0 L 650.0,100.0 L 650.0,220.0 L 650.0,340.0 L 550.0,340.0 L 550.0,220.0 L 550.0,100.0 L 450.0,100.0 L 350.0,100.0 L 250.0,100.0 L 150.0,100.0 L 50.0,100.0 L 50.0,220.0 L 50.0,340.0 L 50.0,460.0 L 50.0,580.0 L 50.0,700.0 L 150.0,700.0 L 250.0,700.0 L 350.0,700.0 L 450.0,700.0 L 550.0,700.0 L 550.0,580.0 L 550.0,460.0 L 650.0,460.0 L 650.0,580.0 L 650.0,700.0 L 750.0,700.0 L 850.0,700.0 L 950.0,700.0 L 1050.0,700.0 L 1150.0,700.0zM 450.0,-20.0 L 550.0,-20.0 L 550.0,100.0 L 650.0,100.0 L 650.0,-20.0 L 450.0,-20.0zz"/>
    <glyph glyph-name="M.ext-r" d="M 1150.0,-20.0 L 1050.0,-20.0 L 950.0,-20.0 L 850.0,-20.0 L 750.0,-20.0 L 650.0,-20.0 L 650.0,100.0 L 650.0,220.0 L 650.0,340.0 L 650.0,460.0 L 550.0,-20.0 L 550.0,100.0 L 550.0,220.0 L 550.0,340.0 L 550.0,460.0 L 450.0,-20.0 L 350.0,-20.0 L 250.0,-20.0 L 150.0,-20.0 L 50.0,-20.0 L 50.0,100.0 L 50.0,220.0 L 50.0,340.0 L 50.0,460.0 L 50.0,580.0 L 50.0,700.0 L 150.0,700.0 L 250.0,700.0 L 350.0,700.0 L 450.0,700.0 L 550.0,700.0 L 550.0,580.0 L 650.0,580.0 L 650.0,700.0 L 750.0,700.0 L 850.0,700.0 L 950.0,700.0 L 1050.0,700.0 L 1150.0,700.0 L 1150.0,580.0 L 1150.0,460.0 L 1150.0,340.0 L 1150.0,220.0 L 1150.0,100.0 L 1150.0,-20.0zz"/>
    <glyph glyph-name="V.ext-r" d="M 650.0,700.0 L 750.0,700.0 L 850.0,700.0 L 950.0,700.0 L 1050.0,700.0 L 1150.0,700.0 L 1150.0,580.0 L 1150.0,460.0 L 1150.0,340.0 L 1150.0,220.0 L 1150.0,100.0 L 1150.0,-20.0 L 1050.0,-20.0 L 950.0,-20.0 L 850.0,-20.0 L 750.0,-20.0 L 650.0,-20.0 L 550.0,-20.0 L 450.0,-20.0 L 350.0,-20.0 L 250.0,-20.0 L 150.0,-20.0 L 150.0,100.0 L 150.0,220.0 L 50.0,220.0 L 50.0,340.0 L 50.0,460.0 L 50.0,580.0 L 50.0,700.0 L 150.0,700.0 L 250.0,700.0 L 350.0,700.0 L 450.0,700.0 L 550.0,700.0 L 550.0,580.0 L 550.0,460.0 L 550.0,340.0 L 550.0,220.0 L 650.0,220.0 L 650.0,340.0 L 650.0,460.0 L 650.0,580.0 L 650.0,700.0zz"/>
    <glyph glyph-name="W.ext-r" d="M 650.0,700.0 L 750.0,700.0 L 850.0,700.0 L 950.0,700.0 L 1050.0,700.0 L 1150.0,700.0 L 1150.0,580.0 L 1150.0,460.0 L 1150.0,340.0 L 1150.0,220.0 L 1150.0,100.0 L 1150.0,-20.0 L 1050.0,-20.0 L 950.0,-20.0 L 850.0,-20.0 L 750.0,-20.0 L 650.0,-20.0 L 650.0,100.0 L 650.0,220.0 L 650.0,340.0 L 650.0,460.0 L 550.0,460.0 L 550.0,340.0 L 550.0,220.0 L 550.0,100.0 L 550.0,-20.0 L 450.0,-20.0 L 350.0,-20.0 L 250.0,-20.0 L 150.0,-20.0 L 50.0,-20.0 L 50.0,100.0 L 50.0,220.0 L 50.0,340.0 L 50.0,460.0 L 50.0,580.0 L 50.0,700.0 L 150.0,700.0 L 250.0,700.0 L 350.0,700.0 L 450.0,700.0 L 550.0,700.0 L 550.0,580.0 L 650.0,580.0 L 650.0,700.0zz"/>
    <glyph glyph-name="X.ext-r" d="M 1150.0,700.0 L 1150.0,580.0 L 1150.0,460.0 L 1150.0,340.0 L 1150.0,220.0 L 1150.0,100.0 L 1150.0,-20.0 L 1050.0,-20.0 L 950.0,-20.0 L 850.0,-20.0 L 750.0,-20.0 L 650.0,-20.0 L 650.0,100.0 L 650.0,220.0 L 650.0,340.0 L 550.0,-20.0 L 450.0,-20.0 L 350.0,-20.0 L 250.0,-20.0 L 150.0,-20.0 L 50.0,-20.0 L 50.0,100.0 L 50.0,220.0 L 50.0,340.0 L 50.0,460.0 L 50.0,580.0 L 50.0,700.0 L 150.0,700.0 L 250.0,700.0 L 350.0,700.0 L 450.0,700.0 L 550.0,700.0 L 650.0,700.0 L 650.0,580.0 L 650.0,460.0 L 750.0,700.0 L 850.0,700.0 L 950.0,700.0 L 1050.0,700.0 L 1150.0,700.0zz"/>
    <glyph glyph-name="Y.ext-r" d="M 1150.0,700.0 L 1150.0,580.0 L 1150.0,460.0 L 1150.0,340.0 L 1050.0,340.0 L 1050.0,220.0 L 1050.0,100.0 L 1050.0,-20.0 L 950.0,-20.0 L 850.0,-20.0 L 750.0,-20.0 L 650.0,-20.0 L 550.0,-20.0 L 450.0,-20.0 L 350.0,-20.0 L 350.0,100.0 L 250.0,220.0 L 250.0,340.0 L 150.0,340.0 L 150.0,460.0 L 150.0,580.0 L 50.0,580.0 L 50.0,700.0 L 150.0,700.0 L 250.0,700.0 L 350.0,700.0 L 450.0,700.0 L 550.0,700.0 L 650.0,700.0 L 650.0,580.0 L 650.0,460.0 L 650.0,340.0 L 750.0,700.0 L 850.0,700.0 L 950.0,700.0 L 1050.0,700.0 L 1150.0,700.0zz"/>
    <glyph glyph-name="Yacute.ext-r" d="M 950.0,700.0 L 850.0,700.0 L 750.0,700.0 L 650.0,700.0 L 550.0,700.0 L 450.0,700.0 L 350.0,700.0 L 250.0,700.0 L 950.0,700.0zM 1150.0,580.0 L 1150.0,460.0 L 1050.0,460.0 L 1050.0,340.0 L 1050.0,220.0 L 950.0,220.0 L 950.0,100.0 L 850.0,100.0 L 850.0,-20.0 L 750.0,-20.0 L 650.0,-20.0 L 550.0,-20.0 L 450.0,-20.0 L 350.0,-20.0 L 350.0,100.0 L 250.0,100.0 L 250.0,220.0 L 150.0,340.0 L 150.0,460.0 L 50.0,460.0 L 50.0,580.0 L 150.0,580.0 L 250.0,580.0 L 350.0,580.0 L 450.0,580.0 L 550.0,580.0 L 550.0,460.0 L 550.0,340.0 L 650.0,340.0 L 650.0,460.0 L 650.0,580.0 L 750.0,580.0 L 850.0,580.0 L 950.0,580.0 L 1050.0,580.0 L 1150.0,580.0zz"/>
    <glyph glyph-name="Ycircumflex.ext-r" d="M 950.0,700.0 L 850.0,700.0 L 750.0,700.0 L 650.0,700.0 L 550.0,700.0 L 450.0,700.0 L 350.0,700.0 L 250.0,700.0 L 950.0,700.0zM 1150.0,580.0 L 1150.0,460.0 L 1050.0,460.0 L 1050.0,340.0 L 1050.0,220.0 L 950.0,220.0 L 950.0,100.0 L 850.0,100.0 L 850.0,-20.0 L 750.0,-20.0 L 650.0,-20.0 L 550.0,-20.0 L 450.0,-20.0 L 350.0,-20.0 L 350.0,100.0 L 250.0,100.0 L 250.0,220.0 L 150.0,340.0 L 150.0,460.0 L 50.0,460.0 L 50.0,580.0 L 150.0,580.0 L 250.0,580.0 L 350.0,580.0 L 450.0,580.0 L 550.0,580.0 L 550.0,460.0 L 550.0,340.0 L 650.0,340.0 L 650.0,460.0 L 650.0,580.0 L 750.0,580.0 L 850.0,580.0 L 950.0,580.0 L 1050.0,580.0 L 1150.0,580.0zz"/>
    <glyph glyph-name="Ydieresis.ext-r" d="M 350.0,700.0 L 250.0,700.0 L 350.0,700.0zM 950.0,700.0 L 850.0,700.0 L 950.0,700.0zM 1150.0,580.0 L 1150.0,460.0 L 1050.0,460.0 L 1050.0,340.0 L 1050.0,220.0 L 950.0,220.0 L 950.0,100.0 L 850.0,100.0 L 850.0,-20.0 L 750.0,-20.0 L 650.0,-20.0 L 550.0,-20.0 L 450.0,-20.0 L 350.0,-20.0 L 350.0,100.0 L 250.0,100.0 L 250.0,220.0 L 150.0,340.0 L 150.0,460.0 L 50.0,460.0 L 50.0,580.0 L 150.0,580.0 L 250.0,580.0 L 350.0,580.0 L 450.0,580.0 L 550.0,580.0 L 550.0,460.0 L 550.0,340.0 L 650.0,340.0 L 650.0,460.0 L 650.0,580.0 L 750.0,580.0 L 850.0,580.0 L 950.0,580.0 L 1050.0,580.0 L 1150.0,580.0zz"/>
    <glyph glyph-name="Ygrave.ext-r" d="M 950.0,700.0 L 850.0,700.0 L 750.0,700.0 L 650.0,700.0 L 550.0,700.0 L 450.0,700.0 L 350.0,700.0 L 250.0,700.0 L 950.0,700.0zM 1150.0,580.0 L 1150.0,460.0 L 1050.0,460.0 L 1050.0,340.0 L 1050.0,220.0 L 950.0,220.0 L 950.0,100.0 L 850.0,100.0 L 850.0,-20.0 L 750.0,-20.0 L 650.0,-20.0 L 550.0,-20.0 L 450.0,-20.0 L 350.0,-20.0 L 350.0,100.0 L 250.0,100.0 L 250.0,220.0 L 150.0,340.0 L 150.0,460.0 L 50.0,460.0 L 50.0,580.0 L 150.0,580.0 L 250.0,580.0 L 350.0,580.0 L 450.0,580.0 L 550.0,580.0 L 550.0,460.0 L 550.0,340.0 L 650.0,340.0 L 650.0,460.0 L 650.0,580.0 L 750.0,580.0 L 850.0,580.0 L 950.0,580.0 L 1050.0,580.0 L 1150.0,580.0zz"/>
    <glyph glyph-name="A.ss02" d="M 550.0,340.0 L 650.0,340.0 L 650.0,220.0 L 650.0,100.0 L 650.0,-20.0 L 550.0,-20.0 L 450.0,-20.0 L 450.0,100.0 L 450.0,220.0 L 550.0,220.0 L 550.0,100.0 L 450.0,340.0 L 450.0,460.0 L 450.0,580.0 L 450.0,700.0 L 350.0,-20.0 L 250.0,-20.0 L 250.0,100.0 L 250.0,220.0 L 150.0,220.0 L 150.0,340.0 L 150.0,460.0 L 150.0,580.0 L 150.0,700.0 L 250.0,700.0 L 350.0,700.0 L 350.0,580.0 L 350.0,460.0 L 350.0,340.0 L 250.0,340.0 L 250.0,460.0 L 250.0,580.0 L 350.0,220.0 L 350.0,100.0 L 550.0,700.0 L 550.0,580.0 L 550.0,460.0 L 550.0,340.0zM 950.0,340.0 L 1050.0,340.0 L 1050.0,220.0 L 1050.0,100.0 L 1050.0,-20.0 L 950.0,-20.0 L 950.0,100.0 L 850.0,100.0 L 850.0,220.0 L 950.0,220.0 L 850.0,340.0 L 850.0,460.0 L 850.0,580.0 L 850.0,700.0 L 850.0,-20.0 L 750.0,-20.0 L 650.0,-20.0 L 650.0,100.0 L 650.0,220.0 L 650.0,340.0 L 550.0,340.0 L 550.0,460.0 L 550.0,580.0 L 550.0,700.0 L 650.0,700.0 L 750.0,700.0 L 750.0,580.0 L 750.0,460.0 L 650.0,460.0 L 650.0,580.0 L 750.0,340.0 L 750.0,220.0 L 750.0,100.0 L 950.0,700.0 L 950.0,580.0 L 950.0,460.0 L 950.0,340.0zM 1050.0,700.0 L 1150.0,700.0 L 1150.0,580.0 L 1150.0,460.0 L 1050.0,580.0 L 1050.0,460.0 L 1150.0,340.0 L 1150.0,220.0 L 1150.0,100.0 L 1150.0,-20.0 L 1050.0,340.0 L 1050.0,700.0zM 150.0,220.0 L 150.0,100.0 L 150.0,-20.0 L 50.0,-20.0 L 50.0,100.0 L 50.0,220.0 L 50.0,340.0 L 50.0,460.0 L 50.0,580.0 L 50.0,700.0 L 150.0,220.0zz"/>
    <glyph glyph-name="B.ss02" d="M 150.0,580.0 L 50.0,580.0 L 50.0,700.0 L 150.0,700.0 L 250.0,700.0 L 350.0,700.0 L 450.0,700.0 L 550.0,700.0 L 550.0,580.0 L 450.0,580.0 L 350.0,580.0 L 250.0,580.0 L 650.0,580.0 L 650.0,700.0 L 750.0,700.0 L 850.0,700.0 L 950.0,700.0 L 1050.0,700.0 L 1150.0,700.0 L 1150.0,580.0 L 1050.0,580.0 L 950.0,580.0 L 850.0,580.0 L 750.0,580.0 L 150.0,580.0zM 150.0,340.0 L 50.0,340.0 L 50.0,460.0 L 150.0,460.0 L 250.0,460.0 L 350.0,460.0 L 450.0,460.0 L 250.0,340.0 L 350.0,340.0 L 450.0,340.0 L 550.0,340.0 L 550.0,460.0 L 650.0,460.0 L 750.0,460.0 L 850.0,460.0 L 950.0,460.0 L 1050.0,460.0 L 1150.0,460.0 L 1150.0,580.0 L 1050.0,580.0 L 950.0,580.0 L 850.0,580.0 L 750.0,580.0 L 150.0,340.0zM 1050.0,340.0 L 1150.0,340.0 L 1150.0,220.0 L 1050.0,220.0 L 950.0,220.0 L 850.0,220.0 L 750.0,220.0 L 950.0,340.0 L 850.0,340.0 L 750.0,340.0 L 650.0,340.0 L 650.0,220.0 L 550.0,220.0 L 450.0,220.0 L 350.0,220.0 L 250.0,220.0 L 150.0,220.0 L 50.0,220.0 L 450.0,100.0 L 350.0,100.0 L 250.0,100.0 L 150.0,100.0 L 50.0,100.0 L 1050.0,340.0zM 1050.0,220.0 L 1150.0,220.0 L 1150.0,100.0 L 1150.0,-20.0 L 1050.0,-20.0 L 950.0,-20.0 L 850.0,-20.0 L 750.0,-20.0 L 650.0,-20.0 L 650.0,100.0 L 750.0,100.0 L 850.0,100.0 L 950.0,100.0 L 1050.0,100.0 L 550.0,100.0 L 550.0,-20.0 L 450.0,-20.0 L 350.0,-20.0 L 250.0,-20.0 L 150.0,-20.0 L 50.0,-20.0 L 50.0,100.0 L 150.0,100.0 L 250.0,100.0 L 350.0,100.0 L 450.0,100.0 L 550.0,220.0 L 650.0,220.0 L 750.0,220.0 L 850.0,220.0 L 950.0,220.0 L 1050.0,220.0zz"/>
    <glyph glyph-name="C.ss02" d="M 950.0,340.0 L 1050.0,340.0 L 1050.0,220.0 L 1050.0,100.0 L 1050.0,-20.0 L 950.0,-20.0 L 950.0,100.0 L 850.0,100.0 L 850.0,220.0 L 950.0,220.0 L 850.0,340.0 L 850.0,460.0 L 850.0,580.0 L 850.0,700.0 L 750.0,220.0 L 650.0,220.0 L 650.0,340.0 L 650.0,460.0 L 650.0,580.0 L 650.0,700.0 L 550.0,460.0 L 450.0,460.0 L 450.0,580.0 L 350.0,580.0 L 250.0,580.0 L 150.0,580.0 L 50.0,580.0 L 350.0,460.0 L 250.0,460.0 L 150.0,460.0 L 50.0,460.0 L 50.0,340.0 L 150.0,340.0 L 250.0,340.0 L 350.0,340.0 L 450.0,340.0 L 550.0,340.0 L 550.0,220.0 L 450.0,220.0 L 350.0,220.0 L 250.0,220.0 L 150.0,220.0 L 50.0,220.0 L 450.0,100.0 L 350.0,100.0 L 250.0,100.0 L 150.0,100.0 L 50.0,100.0 L 50.0,700.0 L 150.0,700.0 L 250.0,700.0 L 350.0,700.0 L 450.0,700.0 L 550.0,700.0 L 550.0,580.0 L 750.0,700.0 L 750.0,580.0 L 750.0,460.0 L 750.0,340.0 L 950.0,700.0 L 950.0,580.0 L 950.0,460.0 L 950.0,340.0zM 1050.0,700.0 L 1150.0,700.0 L 1150.0,580.0 L 1150.0,460.0 L 1050.0,580.0 L 1050.0,460.0 L 1150.0,340.0 L 1150.0,220.0 L 1150.0,100.0 L 1150.0,-20.0 L 1050.0,340.0 L 1050.0,700.0zM 750.0,220.0 L 850.0,220.0 L 850.0,100.0 L 850.0,-20.0 L 750.0,-20.0 L 650.0,-20.0 L 650.0,100.0 L 750.0,100.0 L 550.0,100.0 L 550.0,-20.0 L 450.0,-20.0 L 350.0,-20.0 L 250.0,-20.0 L 150.0,-20.0 L 50.0,-20.0 L 50.0,100.0 L 150.0,100.0 L 250.0,100.0 L 350.0,100.0 L 450.0,100.0 L 550.0,220.0 L 650.0,220.0 L 750.0,220.0zz"/>
    <glyph glyph-name="D.ss02" d="M 250.0,340.0 L 150.0,340.0 L 150.0,460.0 L 150.0,580.0 L 150.0,700.0 L 250.0,700.0 L 350.0,700.0 L 350.0,580.0 L 350.0,460.0 L 250.0,460.0 L 250.0,580.0 L 350.0,340.0 L 350.0,220.0 L 450.0,700.0 L 550.0,700.0 L 550.0,580.0 L 550.0,460.0 L 550.0,340.0 L 650.0,700.0 L 750.0,700.0 L 750.0,580.0 L 650.0,580.0 L 650.0,460.0 L 650.0,340.0 L 450.0,340.0 L 450.0,460.0 L 450.0,580.0 L 450.0,220.0 L 450.0,100.0 L 350.0,100.0 L 250.0,100.0 L 250.0,220.0 L 250.0,340.0zM 50.0,340.0 L 150.0,340.0 L 150.0,220.0 L 150.0,100.0 L 150.0,-20.0 L 50.0,-20.0 L 50.0,100.0 L 50.0,220.0 L 50.0,460.0 L 50.0,580.0 L 50.0,700.0 L 50.0,340.0zM 1050.0,340.0 L 1150.0,340.0 L 1150.0,220.0 L 1050.0,220.0 L 950.0,220.0 L 850.0,220.0 L 750.0,220.0 L 650.0,220.0 L 550.0,220.0 L 850.0,100.0 L 750.0,100.0 L 650.0,100.0 L 550.0,100.0 L 450.0,100.0 L 450.0,220.0 L 950.0,340.0 L 850.0,340.0 L 750.0,340.0 L 650.0,340.0 L 650.0,460.0 L 750.0,460.0 L 850.0,460.0 L 950.0,460.0 L 1050.0,460.0 L 1150.0,460.0 L 1150.0,580.0 L 1050.0,580.0 L 950.0,580.0 L 850.0,580.0 L 750.0,580.0 L 750.0,700.0 L 850.0,700.0 L 950.0,700.0 L 1050.0,700.0 L 1150.0,700.0 L 1050.0,340.0zM 1050.0,220.0 L 1150.0,220.0 L 1150.0,100.0 L 1150.0,-20.0 L 1050.0,-20.0 L 950.0,-20.0 L 950.0,100.0 L 1050.0,100.0 L 850.0,-20.0 L 750.0,-20.0 L 650.0,-20.0 L 550.0,-20.0 L 450.0,-20.0 L 350.0,-20.0 L 250.0,-20.0 L 250.0,100.0 L 350.0,100.0 L 450.0,100.0 L 550.0,100.0 L 650.0,100.0 L 750.0,100.0 L 850.0,100.0 L 850.0,220.0 L 950.0,220.0 L 1050.0,220.0zz"/>
    <glyph glyph-name="E.ss02" d="M 1050.0,700.0 L 1150.0,700.0 L 1150.0,580.0 L 1150.0,460.0 L 1050.0,580.0 L 1050.0,460.0 L 1150.0,340.0 L 1150.0,220.0 L 1150.0,100.0 L 1150.0,-20.0 L 1050.0,340.0 L 1050.0,700.0zM 150.0,580.0 L 50.0,580.0 L 50.0,700.0 L 150.0,700.0 L 250.0,700.0 L 250.0,580.0 L 350.0,700.0 L 450.0,700.0 L 550.0,700.0 L 650.0,700.0 L 750.0,700.0 L 850.0,700.0 L 950.0,700.0 L 950.0,580.0 L 850.0,580.0 L 750.0,580.0 L 650.0,580.0 L 550.0,580.0 L 450.0,580.0 L 350.0,580.0 L 150.0,580.0zM 950.0,340.0 L 1050.0,340.0 L 1050.0,220.0 L 1050.0,100.0 L 1050.0,-20.0 L 950.0,-20.0 L 950.0,100.0 L 850.0,100.0 L 850.0,220.0 L 950.0,220.0 L 850.0,340.0 L 850.0,460.0 L 850.0,580.0 L 850.0,-20.0 L 750.0,-20.0 L 650.0,-20.0 L 650.0,100.0 L 650.0,220.0 L 650.0,340.0 L 550.0,-20.0 L 450.0,-20.0 L 450.0,100.0 L 450.0,220.0 L 550.0,220.0 L 550.0,100.0 L 550.0,340.0 L 750.0,340.0 L 750.0,220.0 L 750.0,100.0 L 750.0,460.0 L 750.0,580.0 L 950.0,580.0 L 950.0,460.0 L 950.0,340.0zM 250.0,220.0 L 350.0,220.0 L 350.0,100.0 L 450.0,100.0 L 450.0,-20.0 L 350.0,-20.0 L 250.0,-20.0 L 150.0,-20.0 L 50.0,-20.0 L 50.0,100.0 L 150.0,100.0 L 250.0,100.0 L 50.0,220.0 L 150.0,220.0 L 450.0,220.0 L 450.0,340.0 L 350.0,340.0 L 250.0,340.0 L 150.0,340.0 L 50.0,340.0 L 50.0,460.0 L 150.0,460.0 L 250.0,460.0 L 350.0,460.0 L 450.0,460.0 L 550.0,460.0 L 650.0,460.0 L 650.0,580.0 L 550.0,580.0 L 450.0,580.0 L 350.0,580.0 L 750.0,580.0 L 750.0,460.0 L 550.0,340.0 L 550.0,220.0 L 250.0,220.0zz"/>
    <glyph glyph-name="F.ss02" d="M 850.0,220.0 L 950.0,220.0 L 1050.0,220.0 L 1150.0,220.0 L 1150.0,100.0 L 1150.0,-20.0 L 1050.0,-20.0 L 950.0,-20.0 L 850.0,-20.0 L 750.0,-20.0 L 650.0,-20.0 L 650.0,100.0 L 650.0,220.0 L 550.0,-20.0 L 450.0,-20.0 L 450.0,100.0 L 450.0,220.0 L 450.0,340.0 L 450.0,460.0 L 350.0,-20.0 L 250.0,-20.0 L 250.0,100.0 L 250.0,220.0 L 250.0,340.0 L 150.0,340.0 L 150.0,460.0 L 150.0,580.0 L 150.0,700.0 L 250.0,700.0 L 350.0,700.0 L 350.0,580.0 L 350.0,460.0 L 250.0,460.0 L 250.0,580.0 L 350.0,340.0 L 350.0,220.0 L 350.0,100.0 L 550.0,460.0 L 550.0,340.0 L 550.0,220.0 L 550.0,100.0 L 650.0,340.0 L 750.0,220.0 L 750.0,100.0 L 850.0,100.0 L 950.0,100.0 L 1050.0,100.0 L 1150.0,340.0 L 1050.0,340.0 L 950.0,340.0 L 850.0,340.0 L 750.0,340.0 L 650.0,460.0 L 750.0,460.0 L 850.0,460.0 L 950.0,460.0 L 1050.0,460.0 L 1150.0,460.0 L 1150.0,580.0 L 1050.0,580.0 L 950.0,580.0 L 850.0,580.0 L 750.0,580.0 L 850.0,220.0zM 50.0,340.0 L 150.0,340.0 L 150.0,220.0 L 150.0,100.0 L 150.0,-20.0 L 50.0,-20.0 L 50.0,100.0 L 50.0,220.0 L 50.0,460.0 L 50.0,580.0 L 50.0,700.0 L 50.0,340.0zM 450.0,580.0 L 350.0,580.0 L 350.0,700.0 L 450.0,700.0 L 550.0,700.0 L 550.0,580.0 L 650.0,580.0 L 650.0,700.0 L 750.0,700.0 L 850.0,700.0 L 950.0,700.0 L 1050.0,700.0 L 1150.0,700.0 L 1150.0,580.0 L 1050.0,580.0 L 950.0,580.0 L 850.0,580.0 L 750.0,580.0 L 450.0,580.0zz"/>
    <glyph glyph-name="a" unicode="a" d="M 650.0,580.0 L 750.0,580.0 L 850.0,580.0 L 950.0,580.0 L 1050.0,580.0 L 1150.0,580.0 L 1150.0,460.0 L 1150.0,340.0 L 1150.0,220.0 L 1150.0,100.0 L 1150.0,-20.0 L 1050.0,-20.0 L 950.0,-20.0 L 850.0,-20.0 L 750.0,-20.0 L 650.0,-20.0 L 550.0,-20.0 L 550.0,100.0 L 450.0,-20.0 L 350.0,-20.0 L 250.0,-20.0 L 150.0,-20.0 L 50.0,-20.0 L 50.0,100.0 L 50.0,220.0 L 150.0,220.0 L 150.0,340.0 L 250.0,340.0 L 350.0,340.0 L 450.0,340.0 L 550.0,340.0 L 50.0,340.0 L 50.0,460.0 L 50.0,580.0 L 150.0,580.0 L 250.0,580.0 L 350.0,580.0 L 450.0,580.0 L 550.0,580.0 L 650.0,580.0zM 550.0,100.0 L 550.0,220.0 L 550.0,100.0zz"/>
    <glyph glyph-name="aacute" unicode="&#225;" d="M 950.0,700.0 L 850.0,700.0 L 750.0,700.0 L 650.0,700.0 L 550.0,700.0 L 450.0,700.0 L 350.0,700.0 L 950.0,700.0zM 650.0,580.0 L 750.0,580.0 L 850.0,580.0 L 950.0,580.0 L 1050.0,580.0 L 1150.0,580.0 L 1150.0,460.0 L 1150.0,340.0 L 1150.0,220.0 L 1150.0,100.0 L 1150.0,-20.0 L 1050.0,-20.0 L 950.0,-20.0 L 850.0,-20.0 L 750.0,-20.0 L 650.0,-20.0 L 550.0,-20.0 L 550.0,100.0 L 450.0,-20.0 L 350.0,-20.0 L 250.0,-20.0 L 150.0,-20.0 L 50.0,-20.0 L 50.0,100.0 L 50.0,220.0 L 150.0,220.0 L 150.0,340.0 L 250.0,340.0 L 350.0,340.0 L 450.0,340.0 L 550.0,340.0 L 50.0,340.0 L 50.0,460.0 L 50.0,580.0 L 150.0,580.0 L 250.0,580.0 L 350.0,580.0 L 450.0,580.0 L 550.0,580.0 L 650.0,580.0zM 550.0,100.0 L 550.0,220.0 L 550.0,100.0zz"/>
    <glyph glyph-name="abreve" unicode="&#259;" d="M 650.0,700.0 L 550.0,700.0 L 450.0,700.0 L 350.0,700.0 L 750.0,700.0 L 850.0,700.0 L 950.0,700.0 L 1050.0,700.0 L 650.0,700.0zM 650.0,580.0 L 750.0,580.0 L 850.0,580.0 L 950.0,580.0 L 1050.0,580.0 L 1150.0,580.0 L 1150.0,460.0 L 1150.0,340.0 L 1150.0,220.0 L 1150.0,100.0 L 1150.0,-20.0 L 1050.0,-20.0 L 950.0,-20.0 L 850.0,-20.0 L 750.0,-20.0 L 650.0,-20.0 L 550.0,-20.0 L 550.0,100.0 L 450.0,-20.0 L 350.0,-20.0 L 250.0,-20.0 L 150.0,-20.0 L 50.0,-20.0 L 50.0,100.0 L 50.0,220.0 L 150.0,220.0 L 150.0,340.0 L 250.0,340.0 L 350.0,340.0 L 450.0,340.0 L 550.0,340.0 L 50.0,340.0 L 50.0,460.0 L 50.0,580.0 L 150.0,580.0 L 250.0,580.0 L 350.0,580.0 L 450.0,580.0 L 550.0,580.0 L 650.0,580.0zM 550.0,100.0 L 550.0,220.0 L 550.0,100.0zz"/>
    <glyph glyph-name="acircumflex" unicode="&#226;" d="M 950.0,700.0 L 850.0,700.0 L 750.0,700.0 L 650.0,700.0 L 550.0,700.0 L 450.0,700.0 L 350.0,700.0 L 950.0,700.0zM 650.0,580.0 L 750.0,580.0 L 850.0,580.0 L 950.0,580.0 L 1050.0,580.0 L 1150.0,580.0 L 1150.0,460.0 L 1150.0,340.0 L 1150.0,220.0 L 1150.0,100.0 L 1150.0,-20.0 L 1050.0,-20.0 L 950.0,-20.0 L 850.0,-20.0 L 750.0,-20.0 L 650.0,-20.0 L 550.0,-20.0 L 550.0,100.0 L 450.0,-20.0 L 350.0,-20.0 L 250.0,-20.0 L 150.0,-20.0 L 50.0,-20.0 L 50.0,100.0 L 50.0,220.0 L 150.0,220.0 L 150.0,340.0 L 250.0,340.0 L 350.0,340.0 L 450.0,340.0 L 550.0,340.0 L 50.0,340.0 L 50.0,460.0 L 50.0,580.0 L 150.0,580.0 L 250.0,580.0 L 350.0,580.0 L 450.0,580.0 L 550.0,580.0 L 650.0,580.0zM 550.0,100.0 L 550.0,220.0 L 550.0,100.0zz"/>
    <glyph glyph-name="adieresis" unicode="&#228;" d="M 350.0,700.0 L 450.0,700.0 L 350.0,700.0zM 950.0,700.0 L 950.0,700.0zM 650.0,580.0 L 750.0,580.0 L 850.0,580.0 L 950.0,580.0 L 1050.0,580.0 L 1150.0,580.0 L 1150.0,460.0 L 1150.0,340.0 L 1150.0,220.0 L 1150.0,100.0 L 1150.0,-20.0 L 1050.0,-20.0 L 950.0,-20.0 L 850.0,-20.0 L 750.0,-20.0 L 650.0,-20.0 L 550.0,-20.0 L 550.0,100.0 L 450.0,-20.0 L 350.0,-20.0 L 250.0,-20.0 L 150.0,-20.0 L 50.0,-20.0 L 50.0,100.0 L 50.0,220.0 L 150.0,220.0 L 150.0,340.0 L 250.0,340.0 L 350.0,340.0 L 450.0,340.0 L 550.0,340.0 L 50.0,340.0 L 50.0,460.0 L 50.0,580.0 L 150.0,580.0 L 250.0,580.0 L 350.0,580.0 L 450.0,580.0 L 550.0,580.0 L 650.0,580.0zM 550.0,100.0 L 550.0,220.0 L 550.0,100.0zz"/>
    <glyph glyph-name="agrave" unicode="&#224;" d="M 950.0,700.0 L 850.0,700.0 L 750.0,700.0 L 650.0,700.0 L 550.0,700.0 L 450.0,700.0 L 350.0,700.0 L 950.0,700.0zM 650.0,580.0 L 750.0,580.0 L 850.0,580.0 L 950.0,580.0 L 1050.0,580.0 L 1150.0,580.0 L 1150.0,460.0 L 1150.0,340.0 L 1150.0,220.0 L 1150.0,100.0 L 1150.0,-20.0 L 1050.0,-20.0 L 950.0,-20.0 L 850.0,-20.0 L 750.0,-20.0 L 650.0,-20.0 L 550.0,-20.0 L 550.0,100.0 L 450.0,-20.0 L 350.0,-20.0 L 250.0,-20.0 L 150.0,-20.0 L 50.0,-20.0 L 50.0,100.0 L 50.0,220.0 L 150.0,220.0 L 150.0,340.0 L 250.0,340.0 L 350.0,340.0 L 450.0,340.0 L 550.0,340.0 L 50.0,340.0 L 50.0,460.0 L 50.0,580.0 L 150.0,580.0 L 250.0,580.0 L 350.0,580.0 L 450.0,580.0 L 550.0,580.0 L 650.0,580.0zM 550.0,100.0 L 550.0,220.0 L 550.0,100.0zz"/>
    <glyph glyph-name="amacron" unicode="&#257;" d="M 950.0,700.0 L 850.0,700.0 L 750.0,700.0 L 650.0,700.0 L 550.0,700.0 L 450.0,700.0 L 350.0,700.0 L 950.0,700.0zM 650.0,580.0 L 750.0,580.0 L 850.0,580.0 L 950.0,580.0 L 1050.0,580.0 L 1150.0,580.0 L 1150.0,460.0 L 1150.0,340.0 L 1150.0,220.0 L 1150.0,100.0 L 1150.0,-20.0 L 1050.0,-20.0 L 950.0,-20.0 L 850.0,-20.0 L 750.0,-20.0 L 650.0,-20.0 L 550.0,-20.0 L 550.0,100.0 L 450.0,-20.0 L 350.0,-20.0 L 250.0,-20.0 L 150.0,-20.0 L 50.0,-20.0 L 50.0,100.0 L 50.0,220.0 L 150.0,220.0 L 150.0,340.0 L 250.0,340.0 L 350.0,340.0 L 450.0,340.0 L 550.0,340.0 L 50.0,340.0 L 50.0,460.0 L 50.0,580.0 L 150.0,580.0 L 250.0,580.0 L 350.0,580.0 L 450.0,580.0 L 550.0,580.0 L 650.0,580.0zM 550.0,100.0 L 550.0,220.0 L 550.0,100.0zz"/>
    <glyph glyph-name="aogonek" unicode="&#261;" d="M 1150.0,-20.0 L 1050.0,-20.0 L 950.0,100.0 L 1050.0,100.0 L 850.0,100.0 L 750.0,100.0 L 650.0,100.0 L 550.0,100.0 L 550.0,-20.0 L 450.0,-20.0 L 350.0,-20.0 L 250.0,-20.0 L 150.0,-20.0 L 50.0,-20.0 L 50.0,100.0 L 50.0,220.0 L 150.0,220.0 L 150.0,340.0 L 250.0,340.0 L 350.0,340.0 L 450.0,340.0 L 550.0,340.0 L 50.0,340.0 L 50.0,460.0 L 50.0,580.0 L 150.0,580.0 L 250.0,580.0 L 350.0,580.0 L 450.0,580.0 L 550.0,580.0 L 650.0,580.0 L 750.0,580.0 L 850.0,580.0 L 950.0,580.0 L 1050.0,580.0 L 1150.0,580.0 L 1150.0,460.0 L 1150.0,340.0 L 1150.0,220.0 L 1150.0,100.0 L 1150.0,-20.0zM 550.0,100.0 L 550.0,220.0 L 550.0,100.0zz"/>
    <glyph glyph-name="aring" unicode="&#229;" d="M 650.0,580.0 L 550.0,580.0 L 550.0,700.0 L 650.0,700.0 L 750.0,700.0 L 750.0,580.0 L 650.0,580.0zM 650.0,580.0 L 650.0,700.0 L 650.0,580.0zM 250.0,-20.0 L 150.0,-20.0 L 50.0,-20.0 L 50.0,100.0 L 50.0,220.0 L 150.0,220.0 L 150.0,340.0 L 250.0,340.0 L 350.0,340.0 L 450.0,340.0 L 550.0,340.0 L 50.0,340.0 L 50.0,460.0 L 50.0,580.0 L 150.0,580.0 L 250.0,580.0 L 350.0,580.0 L 450.0,580.0 L 550.0,580.0 L 650.0,580.0 L 750.0,580.0 L 850.0,580.0 L 950.0,580.0 L 1050.0,580.0 L 1150.0,580.0 L 1150.0,460.0 L 1150.0,340.0 L 1150.0,220.0 L 1150.0,100.0 L 1150.0,-20.0 L 1050.0,-20.0 L 950.0,-20.0 L 850.0,-20.0 L 750.0,-20.0 L 650.0,-20.0 L 550.0,-20.0 L 550.0,100.0 L 450.0,-20.0 L 350.0,-20.0 L 250.0,-20.0zM 550.0,100.0 L 550.0,220.0 L 550.0,100.0zz"/>
    <glyph glyph-name="atilde" unicode="&#227;" d="M 550.0,700.0 L 450.0,700.0 L 350.0,700.0 L 650.0,700.0 L 750.0,700.0 L 850.0,700.0 L 950.0,700.0 L 550.0,700.0zM 650.0,580.0 L 750.0,580.0 L 850.0,580.0 L 950.0,580.0 L 1050.0,580.0 L 1150.0,580.0 L 1150.0,460.0 L 1150.0,340.0 L 1150.0,220.0 L 1150.0,100.0 L 1150.0,-20.0 L 1050.0,-20.0 L 950.0,-20.0 L 850.0,-20.0 L 750.0,-20.0 L 650.0,-20.0 L 550.0,-20.0 L 550.0,100.0 L 450.0,-20.0 L 350.0,-20.0 L 250.0,-20.0 L 150.0,-20.0 L 50.0,-20.0 L 50.0,100.0 L 50.0,220.0 L 150.0,220.0 L 150.0,340.0 L 250.0,340.0 L 350.0,340.0 L 450.0,340.0 L 550.0,340.0 L 50.0,340.0 L 50.0,460.0 L 50.0,580.0 L 150.0,580.0 L 250.0,580.0 L 350.0,580.0 L 450.0,580.0 L 550.0,580.0 L 650.0,580.0zM 550.0,100.0 L 550.0,220.0 L 550.0,100.0zz"/>
    <glyph glyph-name="ae" unicode="&#230;" d="M 150.0,-20.0 L 50.0,-20.0 L 50.0,100.0 L 50.0,220.0 L 150.0,220.0 L 150.0,340.0 L 250.0,340.0 L 350.0,340.0 L 450.0,340.0 L 50.0,340.0 L 50.0,460.0 L 50.0,580.0 L 150.0,580.0 L 250.0,580.0 L 350.0,580.0 L 450.0,580.0 L 550.0,580.0 L 650.0,580.0 L 750.0,580.0 L 850.0,580.0 L 950.0,580.0 L 1050.0,580.0 L 1150.0,580.0 L 1150.0,460.0 L 1150.0,340.0 L 1050.0,340.0 L 950.0,340.0 L 850.0,340.0 L 750.0,340.0 L 750.0,220.0 L 850.0,220.0 L 950.0,220.0 L 1050.0,220.0 L 1150.0,220.0 L 1150.0,100.0 L 1150.0,-20.0 L 1050.0,-20.0 L 950.0,-20.0 L 850.0,-20.0 L 750.0,-20.0 L 650.0,-20.0 L 550.0,-20.0 L 450.0,-20.0 L 450.0,100.0 L 350.0,100.0 L 350.0,-20.0 L 250.0,-20.0 L 150.0,-20.0zM 750.0,340.0 L 750.0,460.0 L 750.0,340.0zM 450.0,100.0 L 450.0,220.0 L 350.0,220.0 L 350.0,100.0 L 450.0,100.0zz"/>
    <glyph glyph-name="b" unicode="b" d="M 950.0,580.0 L 1050.0,580.0 L 1150.0,580.0 L 1150.0,460.0 L 1150.0,340.0 L 1150.0,220.0 L 1150.0,100.0 L 1050.0,100.0 L 1050.0,-20.0 L 950.0,-20.0 L 850.0,-20.0 L 750.0,-20.0 L 750.0,100.0 L 650.0,100.0 L 550.0,100.0 L 550.0,-20.0 L 450.0,-20.0 L 350.0,-20.0 L 250.0,-20.0 L 150.0,-20.0 L 50.0,-20.0 L 50.0,100.0 L 50.0,220.0 L 50.0,340.0 L 50.0,460.0 L 50.0,580.0 L 50.0,700.0 L 150.0,700.0 L 250.0,700.0 L 350.0,700.0 L 450.0,700.0 L 550.0,700.0 L 550.0,580.0 L 550.0,460.0 L 650.0,460.0 L 650.0,580.0 L 750.0,580.0 L 850.0,580.0 L 950.0,580.0zM 650.0,220.0 L 650.0,340.0 L 550.0,340.0 L 550.0,220.0 L 650.0,220.0zz"/>
    <glyph glyph-name="c" unicode="c" d="M 650.0,-20.0 L 550.0,-20.0 L 450.0,-20.0 L 350.0,-20.0 L 250.0,-20.0 L 150.0,-20.0 L 150.0,100.0 L 50.0,100.0 L 50.0,220.0 L 50.0,340.0 L 50.0,460.0 L 150.0,460.0 L 150.0,580.0 L 250.0,580.0 L 350.0,580.0 L 450.0,580.0 L 550.0,580.0 L 650.0,580.0 L 750.0,580.0 L 850.0,580.0 L 950.0,580.0 L 1050.0,580.0 L 1150.0,580.0 L 1150.0,460.0 L 1150.0,340.0 L 1050.0,340.0 L 950.0,340.0 L 850.0,340.0 L 750.0,340.0 L 650.0,340.0 L 1150.0,220.0 L 1150.0,100.0 L 1150.0,-20.0 L 1050.0,-20.0 L 950.0,-20.0 L 850.0,-20.0 L 750.0,-20.0 L 650.0,-20.0zz"/>
    <glyph glyph-name="cacute" unicode="&#263;" d="M 250.0,700.0 L 350.0,700.0 L 450.0,700.0 L 550.0,700.0 L 650.0,700.0 L 750.0,700.0 L 850.0,700.0 L 950.0,700.0 L 250.0,700.0zM 650.0,-20.0 L 550.0,-20.0 L 450.0,-20.0 L 350.0,-20.0 L 250.0,-20.0 L 150.0,-20.0 L 150.0,100.0 L 50.0,100.0 L 50.0,220.0 L 50.0,340.0 L 50.0,460.0 L 150.0,460.0 L 150.0,580.0 L 250.0,580.0 L 350.0,580.0 L 450.0,580.0 L 550.0,580.0 L 650.0,580.0 L 750.0,580.0 L 850.0,580.0 L 950.0,580.0 L 1050.0,580.0 L 1150.0,580.0 L 1150.0,460.0 L 1150.0,340.0 L 1050.0,340.0 L 950.0,340.0 L 850.0,340.0 L 750.0,340.0 L 650.0,340.0 L 1150.0,220.0 L 1150.0,100.0 L 1150.0,-20.0 L 1050.0,-20.0 L 950.0,-20.0 L 850.0,-20.0 L 750.0,-20.0 L 650.0,-20.0zz"/>
    <glyph glyph-name="ccaron" unicode="&#269;" d="M 650.0,700.0 L 550.0,700.0 L 450.0,700.0 L 350.0,700.0 L 250.0,700.0 L 750.0,700.0 L 850.0,700.0 L 950.0,700.0 L 650.0,700.0zM 650.0,-20.0 L 550.0,-20.0 L 450.0,-20.0 L 350.0,-20.0 L 250.0,-20.0 L 150.0,-20.0 L 150.0,100.0 L 50.0,100.0 L 50.0,220.0 L 50.0,340.0 L 50.0,460.0 L 150.0,460.0 L 150.0,580.0 L 250.0,580.0 L 350.0,580.0 L 450.0,580.0 L 550.0,580.0 L 650.0,580.0 L 750.0,580.0 L 850.0,580.0 L 950.0,580.0 L 1050.0,580.0 L 1150.0,580.0 L 1150.0,460.0 L 1150.0,340.0 L 1050.0,340.0 L 950.0,340.0 L 850.0,340.0 L 750.0,340.0 L 650.0,340.0 L 1150.0,220.0 L 1150.0,100.0 L 1150.0,-20.0 L 1050.0,-20.0 L 950.0,-20.0 L 850.0,-20.0 L 750.0,-20.0 L 650.0,-20.0zz"/>
    <glyph glyph-name="ccedilla" unicode="&#231;" d="M 650.0,340.0 L 750.0,340.0 L 850.0,340.0 L 950.0,340.0 L 1050.0,340.0 L 1150.0,340.0 L 1150.0,220.0 L 1150.0,100.0 L 1050.0,100.0 L 950.0,100.0 L 850.0,100.0 L 750.0,100.0 L 650.0,100.0 L 650.0,-20.0 L 550.0,-20.0 L 550.0,100.0 L 450.0,100.0 L 350.0,100.0 L 250.0,100.0 L 150.0,100.0 L 150.0,220.0 L 50.0,220.0 L 50.0,340.0 L 50.0,460.0 L 150.0,580.0 L 250.0,580.0 L 350.0,580.0 L 450.0,580.0 L 550.0,580.0 L 650.0,580.0 L 750.0,580.0 L 850.0,580.0 L 950.0,580.0 L 1050.0,580.0 L 1150.0,580.0 L 1150.0,460.0 L 650.0,340.0zz"/>
    <glyph glyph-name="cdotaccent" unicode="&#267;" d="M 650.0,700.0 L 550.0,700.0 L 650.0,700.0zM 650.0,-20.0 L 550.0,-20.0 L 450.0,-20.0 L 350.0,-20.0 L 250.0,-20.0 L 150.0,-20.0 L 150.0,100.0 L 50.0,100.0 L 50.0,220.0 L 50.0,340.0 L 50.0,460.0 L 150.0,460.0 L 150.0,580.0 L 250.0,580.0 L 350.0,580.0 L 450.0,580.0 L 550.0,580.0 L 650.0,580.0 L 750.0,580.0 L 850.0,580.0 L 950.0,580.0 L 1050.0,580.0 L 1150.0,580.0 L 1150.0,460.0 L 1150.0,340.0 L 1050.0,340.0 L 950.0,340.0 L 850.0,340.0 L 750.0,340.0 L 650.0,340.0 L 1150.0,220.0 L 1150.0,100.0 L 1150.0,-20.0 L 1050.0,-20.0 L 950.0,-20.0 L 850.0,-20.0 L 750.0,-20.0 L 650.0,-20.0zz"/>
    <glyph glyph-name="d" unicode="d" d="M 650.0,700.0 L 750.0,700.0 L 850.0,700.0 L 950.0,700.0 L 1050.0,700.0 L 1150.0,700.0 L 1150.0,580.0 L 1150.0,460.0 L 1150.0,340.0 L 1150.0,220.0 L 1150.0,100.0 L 1150.0,-20.0 L 1050.0,-20.0 L 950.0,-20.0 L 850.0,-20.0 L 750.0,-20.0 L 650.0,-20.0 L 650.0,100.0 L 550.0,100.0 L 450.0,100.0 L 450.0,-20.0 L 350.0,-20.0 L 250.0,-20.0 L 150.0,-20.0 L 150.0,100.0 L 50.0,100.0 L 50.0,220.0 L 50.0,340.0 L 50.0,460.0 L 150.0,460.0 L 150.0,580.0 L 250.0,580.0 L 350.0,580.0 L 450.0,580.0 L 550.0,580.0 L 650.0,580.0 L 650.0,700.0zM 550.0,220.0 L 650.0,220.0 L 650.0,340.0 L 650.0,460.0 L 550.0,460.0 L 550.0,340.0 L 550.0,220.0zz"/>
    <glyph glyph-name="eth" unicode="&#240;" d="M 1150.0,700.0 L 1150.0,580.0 L 1150.0,460.0 L 1150.0,340.0 L 1150.0,220.0 L 1150.0,100.0 L 1150.0,-20.0 L 1050.0,-20.0 L 950.0,-20.0 L 850.0,-20.0 L 750.0,-20.0 L 650.0,-20.0 L 650.0,100.0 L 550.0,100.0 L 450.0,100.0 L 450.0,-20.0 L 350.0,-20.0 L 250.0,-20.0 L 150.0,-20.0 L 150.0,100.0 L 50.0,100.0 L 50.0,220.0 L 50.0,340.0 L 50.0,460.0 L 150.0,460.0 L 150.0,580.0 L 250.0,580.0 L 350.0,580.0 L 450.0,580.0 L 550.0,580.0 L 650.0,580.0 L 450.0,700.0 L 550.0,700.0 L 650.0,700.0 L 750.0,700.0 L 850.0,700.0 L 950.0,700.0 L 1050.0,700.0 L 1150.0,700.0zM 650.0,220.0 L 650.0,340.0 L 650.0,460.0 L 550.0,460.0 L 550.0,340.0 L 550.0,220.0 L 650.0,220.0zz"/>
    <glyph glyph-name="dcaron" unicode="&#271;" d="M 550.0,580.0 L 550.0,700.0 L 650.0,700.0 L 750.0,700.0 L 850.0,700.0 L 950.0,700.0 L 1050.0,700.0 L 1050.0,580.0 L 1050.0,460.0 L 1050.0,340.0 L 1050.0,220.0 L 1050.0,100.0 L 1050.0,-20.0 L 950.0,-20.0 L 850.0,-20.0 L 750.0,-20.0 L 650.0,-20.0 L 550.0,-20.0 L 550.0,100.0 L 450.0,100.0 L 450.0,-20.0 L 350.0,-20.0 L 250.0,-20.0 L 150.0,-20.0 L 150.0,100.0 L 50.0,100.0 L 50.0,220.0 L 50.0,340.0 L 50.0,460.0 L 150.0,460.0 L 150.0,580.0 L 250.0,580.0 L 350.0,580.0 L 450.0,580.0 L 550.0,580.0zM 1150.0,700.0 L 1150.0,580.0 L 1150.0,460.0 L 1150.0,700.0zM 550.0,220.0 L 550.0,340.0 L 550.0,460.0 L 550.0,220.0zz"/>
    <glyph glyph-name="dcroat" unicode="&#273;" d="M 1150.0,700.0 L 1150.0,580.0 L 1150.0,460.0 L 1150.0,340.0 L 1150.0,220.0 L 1150.0,100.0 L 1150.0,-20.0 L 1050.0,-20.0 L 950.0,-20.0 L 850.0,-20.0 L 750.0,-20.0 L 650.0,-20.0 L 650.0,100.0 L 550.0,100.0 L 450.0,100.0 L 450.0,-20.0 L 350.0,-20.0 L 250.0,-20.0 L 150.0,-20.0 L 150.0,100.0 L 50.0,100.0 L 50.0,220.0 L 50.0,340.0 L 50.0,460.0 L 150.0,460.0 L 150.0,580.0 L 250.0,580.0 L 350.0,580.0 L 450.0,580.0 L 550.0,580.0 L 650.0,580.0 L 450.0,700.0 L 550.0,700.0 L 650.0,700.0 L 750.0,700.0 L 850.0,700.0 L 950.0,700.0 L 1050.0,700.0 L 1150.0,700.0zM 550.0,220.0 L 650.0,220.0 L 650.0,340.0 L 650.0,460.0 L 550.0,460.0 L 550.0,340.0 L 550.0,220.0zz"/>
    <glyph glyph-name="e" unicode="e" d="M 1150.0,340.0 L 1050.0,340.0 L 950.0,340.0 L 850.0,340.0 L 750.0,340.0 L 650.0,340.0 L 550.0,340.0 L 650.0,220.0 L 750.0,220.0 L 850.0,220.0 L 950.0,220.0 L 1050.0,220.0 L 1150.0,220.0 L 1150.0,100.0 L 1150.0,-20.0 L 1050.0,-20.0 L 950.0,-20.0 L 850.0,-20.0 L 750.0,-20.0 L 650.0,-20.0 L 550.0,-20.0 L 450.0,-20.0 L 350.0,-20.0 L 250.0,-20.0 L 150.0,-20.0 L 150.0,100.0 L 50.0,100.0 L 50.0,220.0 L 50.0,340.0 L 50.0,460.0 L 150.0,460.0 L 150.0,580.0 L 250.0,580.0 L 350.0,580.0 L 450.0,580.0 L 550.0,580.0 L 650.0,580.0 L 750.0,580.0 L 850.0,580.0 L 950.0,580.0 L 1050.0,580.0 L 1150.0,460.0 L 1150.0,340.0zM 650.0,460.0 L 550.0,340.0 L 650.0,340.0 L 650.0,460.0zz"/>
    <glyph glyph-name="eacute" unicode="&#233;" d="M 950.0,700.0 L 850.0,700.0 L 750.0,700.0 L 650.0,700.0 L 550.0,700.0 L 450.0,700.0 L 350.0,700.0 L 250.0,700.0 L 950.0,700.0zM 1150.0,340.0 L 1050.0,340.0 L 950.0,340.0 L 850.0,340.0 L 750.0,340.0 L 650.0,340.0 L 550.0,340.0 L 650.0,220.0 L 750.0,220.0 L 850.0,220.0 L 950.0,220.0 L 1050.0,220.0 L 1150.0,220.0 L 1150.0,100.0 L 1150.0,-20.0 L 1050.0,-20.0 L 950.0,-20.0 L 850.0,-20.0 L 750.0,-20.0 L 650.0,-20.0 L 550.0,-20.0 L 450.0,-20.0 L 350.0,-20.0 L 250.0,-20.0 L 150.0,-20.0 L 150.0,100.0 L 50.0,100.0 L 50.0,220.0 L 50.0,340.0 L 50.0,460.0 L 150.0,460.0 L 150.0,580.0 L 250.0,580.0 L 350.0,580.0 L 450.0,580.0 L 550.0,580.0 L 650.0,580.0 L 750.0,580.0 L 850.0,580.0 L 950.0,580.0 L 1050.0,580.0 L 1150.0,460.0 L 1150.0,340.0zM 650.0,460.0 L 550.0,340.0 L 650.0,340.0 L 650.0,460.0zz"/>
    <glyph glyph-name="ecaron" unicode="&#283;" d="M 950.0,700.0 L 850.0,700.0 L 750.0,700.0 L 650.0,700.0 L 550.0,700.0 L 450.0,700.0 L 350.0,700.0 L 250.0,700.0 L 950.0,700.0zM 1150.0,340.0 L 1050.0,340.0 L 950.0,340.0 L 850.0,340.0 L 750.0,340.0 L 650.0,340.0 L 550.0,340.0 L 650.0,220.0 L 750.0,220.0 L 850.0,220.0 L 950.0,220.0 L 1050.0,220.0 L 1150.0,220.0 L 1150.0,100.0 L 1150.0,-20.0 L 1050.0,-20.0 L 950.0,-20.0 L 850.0,-20.0 L 750.0,-20.0 L 650.0,-20.0 L 550.0,-20.0 L 450.0,-20.0 L 350.0,-20.0 L 250.0,-20.0 L 150.0,-20.0 L 150.0,100.0 L 50.0,100.0 L 50.0,220.0 L 50.0,340.0 L 50.0,460.0 L 150.0,460.0 L 150.0,580.0 L 250.0,580.0 L 350.0,580.0 L 450.0,580.0 L 550.0,580.0 L 650.0,580.0 L 750.0,580.0 L 850.0,580.0 L 950.0,580.0 L 1050.0,580.0 L 1150.0,460.0 L 1150.0,340.0zM 650.0,460.0 L 550.0,340.0 L 650.0,340.0 L 650.0,460.0zz"/>
    <glyph glyph-name="ecircumflex" unicode="&#234;" d="M 950.0,700.0 L 850.0,700.0 L 750.0,700.0 L 650.0,700.0 L 550.0,700.0 L 450.0,700.0 L 350.0,700.0 L 250.0,700.0 L 950.0,700.0zM 1150.0,340.0 L 1050.0,340.0 L 950.0,340.0 L 850.0,340.0 L 750.0,340.0 L 650.0,340.0 L 550.0,340.0 L 650.0,220.0 L 750.0,220.0 L 850.0,220.0 L 950.0,220.0 L 1050.0,220.0 L 1150.0,220.0 L 1150.0,100.0 L 1150.0,-20.0 L 1050.0,-20.0 L 950.0,-20.0 L 850.0,-20.0 L 750.0,-20.0 L 650.0,-20.0 L 550.0,-20.0 L 450.0,-20.0 L 350.0,-20.0 L 250.0,-20.0 L 150.0,-20.0 L 150.0,100.0 L 50.0,100.0 L 50.0,220.0 L 50.0,340.0 L 50.0,460.0 L 150.0,460.0 L 150.0,580.0 L 250.0,580.0 L 350.0,580.0 L 450.0,580.0 L 550.0,580.0 L 650.0,580.0 L 750.0,580.0 L 850.0,580.0 L 950.0,580.0 L 1050.0,580.0 L 1150.0,460.0 L 1150.0,340.0zM 650.0,460.0 L 550.0,340.0 L 650.0,340.0 L 650.0,460.0zz"/>
    <glyph glyph-name="edieresis" unicode="&#235;" d="M 350.0,700.0 L 250.0,700.0 L 350.0,700.0zM 850.0,700.0 L 950.0,700.0 L 850.0,700.0zM 1150.0,340.0 L 1050.0,340.0 L 950.0,340.0 L 850.0,340.0 L 750.0,340.0 L 650.0,340.0 L 550.0,340.0 L 650.0,220.0 L 750.0,220.0 L 850.0,220.0 L 950.0,220.0 L 1050.0,220.0 L 1150.0,220.0 L 1150.0,100.0 L 1150.0,-20.0 L 1050.0,-20.0 L 950.0,-20.0 L 850.0,-20.0 L 750.0,-20.0 L 650.0,-20.0 L 550.0,-20.0 L 450.0,-20.0 L 350.0,-20.0 L 250.0,-20.0 L 150.0,-20.0 L 150.0,100.0 L 50.0,100.0 L 50.0,220.0 L 50.0,340.0 L 50.0,460.0 L 150.0,460.0 L 150.0,580.0 L 250.0,580.0 L 350.0,580.0 L 450.0,580.0 L 550.0,580.0 L 650.0,580.0 L 750.0,580.0 L 850.0,580.0 L 950.0,580.0 L 1050.0,580.0 L 1150.0,460.0 L 1150.0,340.0zM 650.0,460.0 L 550.0,340.0 L 650.0,340.0 L 650.0,460.0zz"/>
    <glyph glyph-name="edotaccent" unicode="&#279;" d="M 550.0,700.0 L 650.0,700.0 L 550.0,700.0zM 1150.0,340.0 L 1050.0,340.0 L 950.0,340.0 L 850.0,340.0 L 750.0,340.0 L 650.0,340.0 L 550.0,340.0 L 650.0,220.0 L 750.0,220.0 L 850.0,220.0 L 950.0,220.0 L 1050.0,220.0 L 1150.0,220.0 L 1150.0,100.0 L 1150.0,-20.0 L 1050.0,-20.0 L 950.0,-20.0 L 850.0,-20.0 L 750.0,-20.0 L 650.0,-20.0 L 550.0,-20.0 L 450.0,-20.0 L 350.0,-20.0 L 250.0,-20.0 L 150.0,-20.0 L 150.0,100.0 L 50.0,100.0 L 50.0,220.0 L 50.0,340.0 L 50.0,460.0 L 150.0,460.0 L 150.0,580.0 L 250.0,580.0 L 350.0,580.0 L 450.0,580.0 L 550.0,580.0 L 650.0,580.0 L 750.0,580.0 L 850.0,580.0 L 950.0,580.0 L 1050.0,580.0 L 1150.0,460.0 L 1150.0,340.0zM 650.0,460.0 L 550.0,340.0 L 650.0,340.0 L 650.0,460.0zz"/>
    <glyph glyph-name="egrave" unicode="&#232;" d="M 950.0,700.0 L 850.0,700.0 L 750.0,700.0 L 650.0,700.0 L 550.0,700.0 L 450.0,700.0 L 350.0,700.0 L 250.0,700.0 L 950.0,700.0zM 1150.0,340.0 L 1050.0,340.0 L 950.0,340.0 L 850.0,340.0 L 750.0,340.0 L 650.0,340.0 L 550.0,340.0 L 650.0,220.0 L 750.0,220.0 L 850.0,220.0 L 950.0,220.0 L 1050.0,220.0 L 1150.0,220.0 L 1150.0,100.0 L 1150.0,-20.0 L 1050.0,-20.0 L 950.0,-20.0 L 850.0,-20.0 L 750.0,-20.0 L 650.0,-20.0 L 550.0,-20.0 L 450.0,-20.0 L 350.0,-20.0 L 250.0,-20.0 L 150.0,-20.0 L 150.0,100.0 L 50.0,100.0 L 50.0,220.0 L 50.0,340.0 L 50.0,460.0 L 150.0,460.0 L 150.0,580.0 L 250.0,580.0 L 350.0,580.0 L 450.0,580.0 L 550.0,580.0 L 650.0,580.0 L 750.0,580.0 L 850.0,580.0 L 950.0,580.0 L 1050.0,580.0 L 1150.0,460.0 L 1150.0,340.0zM 650.0,460.0 L 550.0,340.0 L 650.0,340.0 L 650.0,460.0zz"/>
    <glyph glyph-name="emacron" unicode="&#275;" d="M 950.0,700.0 L 850.0,700.0 L 750.0,700.0 L 650.0,700.0 L 550.0,700.0 L 450.0,700.0 L 350.0,700.0 L 250.0,700.0 L 950.0,700.0zM 1150.0,340.0 L 1050.0,340.0 L 950.0,340.0 L 850.0,340.0 L 750.0,340.0 L 650.0,340.0 L 550.0,340.0 L 650.0,220.0 L 750.0,220.0 L 850.0,220.0 L 950.0,220.0 L 1050.0,220.0 L 1150.0,220.0 L 1150.0,100.0 L 1150.0,-20.0 L 1050.0,-20.0 L 950.0,-20.0 L 850.0,-20.0 L 750.0,-20.0 L 650.0,-20.0 L 550.0,-20.0 L 450.0,-20.0 L 350.0,-20.0 L 250.0,-20.0 L 150.0,-20.0 L 150.0,100.0 L 50.0,100.0 L 50.0,220.0 L 50.0,340.0 L 50.0,460.0 L 150.0,460.0 L 150.0,580.0 L 250.0,580.0 L 350.0,580.0 L 450.0,580.0 L 550.0,580.0 L 650.0,580.0 L 750.0,580.0 L 850.0,580.0 L 950.0,580.0 L 1050.0,580.0 L 1150.0,460.0 L 1150.0,340.0zM 650.0,460.0 L 550.0,340.0 L 650.0,340.0 L 650.0,460.0zz"/>
    <glyph glyph-name="eogonek" unicode="&#281;" d="M 1050.0,100.0 L 1050.0,-20.0 L 1150.0,-20.0 L 950.0,-20.0 L 950.0,100.0 L 850.0,-20.0 L 750.0,-20.0 L 650.0,-20.0 L 550.0,-20.0 L 450.0,-20.0 L 350.0,-20.0 L 250.0,-20.0 L 150.0,-20.0 L 150.0,100.0 L 50.0,100.0 L 50.0,220.0 L 50.0,340.0 L 50.0,460.0 L 150.0,460.0 L 150.0,580.0 L 250.0,580.0 L 350.0,580.0 L 450.0,580.0 L 550.0,580.0 L 650.0,580.0 L 750.0,580.0 L 850.0,580.0 L 950.0,580.0 L 1050.0,580.0 L 1150.0,460.0 L 1150.0,340.0 L 1050.0,340.0 L 950.0,340.0 L 850.0,340.0 L 750.0,340.0 L 650.0,340.0 L 550.0,340.0 L 650.0,220.0 L 750.0,220.0 L 850.0,220.0 L 950.0,220.0 L 1050.0,220.0 L 1150.0,220.0 L 1150.0,100.0 L 1050.0,100.0zM 650.0,460.0 L 550.0,340.0 L 650.0,340.0 L 650.0,460.0zz"/>
    <glyph glyph-name="f" unicode="f" d="M 950.0,460.0 L 850.0,460.0 L 850.0,340.0 L 950.0,340.0 L 1050.0,340.0 L 1150.0,340.0 L 1150.0,220.0 L 1150.0,100.0 L 1050.0,100.0 L 950.0,100.0 L 850.0,100.0 L 850.0,-20.0 L 750.0,-20.0 L 650.0,-20.0 L 550.0,-20.0 L 450.0,-20.0 L 350.0,-20.0 L 250.0,-20.0 L 250.0,100.0 L 150.0,100.0 L 50.0,100.0 L 50.0,220.0 L 50.0,340.0 L 150.0,340.0 L 250.0,340.0 L 250.0,460.0 L 250.0,580.0 L 350.0,580.0 L 350.0,700.0 L 450.0,700.0 L 550.0,700.0 L 650.0,700.0 L 750.0,700.0 L 850.0,700.0 L 950.0,700.0 L 1050.0,700.0 L 1150.0,700.0 L 1150.0,580.0 L 1150.0,460.0 L 1050.0,460.0 L 950.0,460.0zz"/>
    <glyph glyph-name="g" unicode="g" d="M 250.0,220.0 L 350.0,220.0 L 450.0,220.0 L 550.0,220.0 L 650.0,220.0 L 750.0,220.0 L 850.0,220.0 L 950.0,220.0 L 1050.0,220.0 L 1150.0,220.0 L 1150.0,100.0 L 1150.0,-20.0 L 1050.0,-20.0 L 950.0,-20.0 L 850.0,-20.0 L 750.0,-20.0 L 650.0,-20.0 L 550.0,-20.0 L 450.0,-20.0 L 350.0,-20.0 L 250.0,-20.0 L 150.0,-20.0 L 50.0,-20.0 L 50.0,100.0 L 50.0,220.0 L 150.0,340.0 L 50.0,340.0 L 50.0,460.0 L 50.0,580.0 L 150.0,580.0 L 250.0,580.0 L 350.0,580.0 L 450.0,580.0 L 550.0,580.0 L 650.0,580.0 L 750.0,580.0 L 850.0,580.0 L 950.0,580.0 L 950.0,700.0 L 1050.0,700.0 L 1150.0,700.0 L 1150.0,580.0 L 1050.0,580.0 L 1150.0,460.0 L 1150.0,340.0 L 1050.0,340.0 L 950.0,340.0 L 850.0,340.0 L 750.0,340.0 L 650.0,340.0 L 550.0,340.0 L 450.0,340.0 L 350.0,340.0 L 250.0,340.0 L 250.0,220.0zM 650.0,460.0 L 550.0,460.0 L 550.0,340.0 L 650.0,340.0 L 650.0,460.0zz"/>
    <glyph glyph-name="gbreve" unicode="&#287;" d="M 650.0,700.0 L 550.0,700.0 L 450.0,700.0 L 350.0,700.0 L 250.0,700.0 L 750.0,700.0 L 850.0,700.0 L 950.0,700.0 L 650.0,700.0zM 250.0,220.0 L 350.0,220.0 L 450.0,220.0 L 550.0,220.0 L 650.0,220.0 L 750.0,220.0 L 850.0,220.0 L 950.0,220.0 L 1050.0,220.0 L 1150.0,220.0 L 1150.0,100.0 L 1150.0,-20.0 L 1050.0,-20.0 L 950.0,-20.0 L 850.0,-20.0 L 750.0,-20.0 L 650.0,-20.0 L 550.0,-20.0 L 450.0,-20.0 L 350.0,-20.0 L 250.0,-20.0 L 150.0,-20.0 L 50.0,-20.0 L 50.0,100.0 L 50.0,220.0 L 150.0,340.0 L 50.0,340.0 L 50.0,460.0 L 50.0,580.0 L 150.0,580.0 L 250.0,580.0 L 350.0,580.0 L 450.0,580.0 L 550.0,580.0 L 650.0,580.0 L 750.0,580.0 L 850.0,580.0 L 950.0,580.0 L 950.0,700.0 L 1050.0,700.0 L 1150.0,700.0 L 1150.0,580.0 L 1050.0,580.0 L 1150.0,460.0 L 1150.0,340.0 L 1050.0,340.0 L 950.0,340.0 L 850.0,340.0 L 750.0,340.0 L 650.0,340.0 L 550.0,340.0 L 450.0,340.0 L 350.0,340.0 L 250.0,340.0 L 250.0,220.0zM 650.0,460.0 L 550.0,460.0 L 550.0,340.0 L 650.0,340.0 L 650.0,460.0zz"/>
    <glyph glyph-name="uni0123" unicode="&#291;" d="M 750.0,700.0 L 650.0,700.0 L 650.0,580.0 L 550.0,580.0 L 550.0,700.0 L 750.0,700.0zM 250.0,220.0 L 350.0,220.0 L 450.0,220.0 L 550.0,220.0 L 650.0,220.0 L 750.0,220.0 L 850.0,220.0 L 950.0,220.0 L 1050.0,220.0 L 1150.0,220.0 L 1150.0,340.0 L 1150.0,100.0 L 1150.0,-20.0 L 1050.0,-20.0 L 950.0,-20.0 L 850.0,-20.0 L 750.0,-20.0 L 650.0,-20.0 L 550.0,-20.0 L 450.0,-20.0 L 350.0,-20.0 L 250.0,-20.0 L 150.0,-20.0 L 50.0,-20.0 L 50.0,100.0 L 50.0,220.0 L 150.0,340.0 L 50.0,340.0 L 50.0,460.0 L 50.0,580.0 L 150.0,580.0 L 250.0,580.0 L 350.0,580.0 L 450.0,580.0 L 550.0,580.0 L 650.0,580.0 L 750.0,580.0 L 850.0,580.0 L 950.0,580.0 L 950.0,700.0 L 1050.0,700.0 L 1150.0,700.0 L 1150.0,580.0 L 1050.0,580.0 L 1150.0,460.0 L 1050.0,340.0 L 950.0,340.0 L 850.0,340.0 L 750.0,340.0 L 650.0,340.0 L 550.0,340.0 L 450.0,340.0 L 350.0,340.0 L 250.0,340.0 L 250.0,220.0zM 650.0,460.0 L 550.0,460.0 L 550.0,340.0 L 650.0,340.0 L 650.0,460.0zz"/>
    <glyph glyph-name="gdotaccent" unicode="&#289;" d="M 550.0,700.0 L 650.0,700.0 L 550.0,700.0zM 250.0,220.0 L 350.0,220.0 L 450.0,220.0 L 550.0,220.0 L 650.0,220.0 L 750.0,220.0 L 850.0,220.0 L 950.0,220.0 L 1050.0,220.0 L 1150.0,220.0 L 1150.0,100.0 L 1150.0,-20.0 L 1050.0,-20.0 L 950.0,-20.0 L 850.0,-20.0 L 750.0,-20.0 L 650.0,-20.0 L 550.0,-20.0 L 450.0,-20.0 L 350.0,-20.0 L 250.0,-20.0 L 150.0,-20.0 L 50.0,-20.0 L 50.0,100.0 L 50.0,220.0 L 150.0,340.0 L 50.0,340.0 L 50.0,460.0 L 50.0,580.0 L 150.0,580.0 L 250.0,580.0 L 350.0,580.0 L 450.0,580.0 L 550.0,580.0 L 650.0,580.0 L 750.0,580.0 L 850.0,580.0 L 950.0,580.0 L 950.0,700.0 L 1050.0,700.0 L 1150.0,700.0 L 1150.0,580.0 L 1050.0,580.0 L 1150.0,460.0 L 1150.0,340.0 L 1050.0,340.0 L 950.0,340.0 L 850.0,340.0 L 750.0,340.0 L 650.0,340.0 L 550.0,340.0 L 450.0,340.0 L 350.0,340.0 L 250.0,340.0 L 250.0,220.0zM 650.0,460.0 L 550.0,460.0 L 550.0,340.0 L 650.0,340.0 L 650.0,460.0zz"/>
    <glyph glyph-name="h" unicode="h" d="M 950.0,580.0 L 1050.0,580.0 L 1150.0,580.0 L 1150.0,460.0 L 1150.0,340.0 L 1150.0,220.0 L 1150.0,100.0 L 1150.0,-20.0 L 1050.0,-20.0 L 950.0,-20.0 L 850.0,-20.0 L 750.0,-20.0 L 650.0,-20.0 L 650.0,100.0 L 650.0,220.0 L 650.0,340.0 L 550.0,340.0 L 550.0,220.0 L 550.0,100.0 L 550.0,-20.0 L 450.0,-20.0 L 350.0,-20.0 L 250.0,-20.0 L 150.0,-20.0 L 50.0,-20.0 L 50.0,100.0 L 50.0,220.0 L 50.0,340.0 L 50.0,460.0 L 50.0,580.0 L 50.0,700.0 L 150.0,700.0 L 250.0,700.0 L 350.0,700.0 L 450.0,700.0 L 550.0,700.0 L 550.0,580.0 L 550.0,460.0 L 650.0,460.0 L 650.0,580.0 L 750.0,580.0 L 850.0,580.0 L 950.0,580.0zz"/>
    <glyph glyph-name="hbar" unicode="&#295;" d="M 950.0,580.0 L 1050.0,580.0 L 1150.0,580.0 L 1150.0,460.0 L 1150.0,340.0 L 1150.0,220.0 L 1150.0,100.0 L 1150.0,-20.0 L 1050.0,-20.0 L 950.0,-20.0 L 850.0,-20.0 L 750.0,-20.0 L 650.0,-20.0 L 650.0,100.0 L 650.0,220.0 L 650.0,340.0 L 550.0,340.0 L 550.0,220.0 L 550.0,100.0 L 550.0,-20.0 L 450.0,-20.0 L 350.0,-20.0 L 250.0,-20.0 L 150.0,-20.0 L 50.0,-20.0 L 50.0,100.0 L 50.0,220.0 L 50.0,340.0 L 50.0,460.0 L 50.0,580.0 L 50.0,700.0 L 150.0,700.0 L 250.0,700.0 L 350.0,700.0 L 450.0,700.0 L 550.0,700.0 L 650.0,700.0 L 750.0,700.0 L 750.0,580.0 L 650.0,580.0 L 550.0,580.0 L 550.0,460.0 L 650.0,460.0 L 850.0,580.0 L 950.0,580.0zz"/>
    <glyph glyph-name="i" unicode="i" d="M 950.0,700.0 L 950.0,580.0 L 850.0,580.0 L 750.0,580.0 L 650.0,580.0 L 550.0,580.0 L 450.0,580.0 L 350.0,580.0 L 350.0,700.0 L 450.0,700.0 L 550.0,700.0 L 650.0,700.0 L 750.0,700.0 L 850.0,700.0 L 950.0,700.0zM 950.0,220.0 L 1050.0,220.0 L 1150.0,220.0 L 1150.0,100.0 L 1150.0,-20.0 L 1050.0,-20.0 L 950.0,-20.0 L 850.0,-20.0 L 750.0,-20.0 L 650.0,-20.0 L 550.0,-20.0 L 450.0,-20.0 L 350.0,-20.0 L 250.0,-20.0 L 150.0,-20.0 L 50.0,-20.0 L 50.0,100.0 L 50.0,220.0 L 150.0,220.0 L 250.0,220.0 L 350.0,220.0 L 350.0,340.0 L 250.0,340.0 L 150.0,340.0 L 50.0,340.0 L 50.0,460.0 L 50.0,580.0 L 150.0,580.0 L 250.0,580.0 L 350.0,580.0 L 450.0,580.0 L 550.0,580.0 L 650.0,580.0 L 750.0,580.0 L 850.0,580.0 L 950.0,580.0 L 950.0,460.0 L 950.0,340.0 L 950.0,220.0zz"/>
    <glyph glyph-name="dotlessi" unicode="&#305;" d="M 950.0,220.0 L 1050.0,220.0 L 1150.0,220.0 L 1150.0,100.0 L 1150.0,-20.0 L 1050.0,-20.0 L 950.0,-20.0 L 850.0,-20.0 L 750.0,-20.0 L 650.0,-20.0 L 550.0,-20.0 L 450.0,-20.0 L 350.0,-20.0 L 250.0,-20.0 L 150.0,-20.0 L 50.0,-20.0 L 50.0,100.0 L 50.0,220.0 L 150.0,220.0 L 250.0,220.0 L 350.0,220.0 L 350.0,340.0 L 250.0,340.0 L 150.0,340.0 L 50.0,340.0 L 50.0,460.0 L 50.0,580.0 L 150.0,580.0 L 250.0,580.0 L 350.0,580.0 L 450.0,580.0 L 550.0,580.0 L 650.0,580.0 L 750.0,580.0 L 850.0,580.0 L 950.0,580.0 L 950.0,460.0 L 950.0,340.0 L 950.0,220.0zz"/>
    <glyph glyph-name="iacute" unicode="&#237;" d="M 950.0,700.0 L 850.0,700.0 L 750.0,700.0 L 650.0,700.0 L 550.0,700.0 L 450.0,700.0 L 350.0,700.0 L 950.0,700.0zM 950.0,220.0 L 1050.0,220.0 L 1150.0,220.0 L 1150.0,100.0 L 1150.0,-20.0 L 1050.0,-20.0 L 950.0,-20.0 L 850.0,-20.0 L 750.0,-20.0 L 650.0,-20.0 L 550.0,-20.0 L 450.0,-20.0 L 350.0,-20.0 L 250.0,-20.0 L 150.0,-20.0 L 50.0,-20.0 L 50.0,100.0 L 50.0,220.0 L 150.0,220.0 L 250.0,220.0 L 350.0,220.0 L 350.0,340.0 L 250.0,340.0 L 150.0,340.0 L 50.0,340.0 L 50.0,460.0 L 50.0,580.0 L 150.0,580.0 L 250.0,580.0 L 350.0,580.0 L 450.0,580.0 L 550.0,580.0 L 650.0,580.0 L 750.0,580.0 L 850.0,580.0 L 950.0,580.0 L 950.0,460.0 L 950.0,340.0 L 950.0,220.0zz"/>
    <glyph glyph-name="icircumflex" unicode="&#238;" d="M 950.0,700.0 L 850.0,700.0 L 750.0,700.0 L 650.0,700.0 L 550.0,700.0 L 450.0,700.0 L 350.0,700.0 L 950.0,700.0zM 950.0,220.0 L 1050.0,220.0 L 1150.0,220.0 L 1150.0,100.0 L 1150.0,-20.0 L 1050.0,-20.0 L 950.0,-20.0 L 850.0,-20.0 L 750.0,-20.0 L 650.0,-20.0 L 550.0,-20.0 L 450.0,-20.0 L 350.0,-20.0 L 250.0,-20.0 L 150.0,-20.0 L 50.0,-20.0 L 50.0,100.0 L 50.0,220.0 L 150.0,220.0 L 250.0,220.0 L 350.0,220.0 L 350.0,340.0 L 250.0,340.0 L 150.0,340.0 L 50.0,340.0 L 50.0,460.0 L 50.0,580.0 L 150.0,580.0 L 250.0,580.0 L 350.0,580.0 L 450.0,580.0 L 550.0,580.0 L 650.0,580.0 L 750.0,580.0 L 850.0,580.0 L 950.0,580.0 L 950.0,460.0 L 950.0,340.0 L 950.0,220.0zz"/>
    <glyph glyph-name="idieresis" unicode="&#239;" d="M 350.0,700.0 L 350.0,700.0zM 950.0,700.0 L 850.0,700.0 L 950.0,700.0zM 950.0,220.0 L 1050.0,220.0 L 1150.0,220.0 L 1150.0,100.0 L 1150.0,-20.0 L 1050.0,-20.0 L 950.0,-20.0 L 850.0,-20.0 L 750.0,-20.0 L 650.0,-20.0 L 550.0,-20.0 L 450.0,-20.0 L 350.0,-20.0 L 250.0,-20.0 L 150.0,-20.0 L 50.0,-20.0 L 50.0,100.0 L 50.0,220.0 L 150.0,220.0 L 250.0,220.0 L 350.0,220.0 L 350.0,340.0 L 250.0,340.0 L 150.0,340.0 L 50.0,340.0 L 50.0,460.0 L 50.0,580.0 L 150.0,580.0 L 250.0,580.0 L 350.0,580.0 L 450.0,580.0 L 550.0,580.0 L 650.0,580.0 L 750.0,580.0 L 850.0,580.0 L 950.0,580.0 L 950.0,460.0 L 950.0,340.0 L 950.0,220.0zz"/>
    <glyph glyph-name="i.loclTRK" d="M 650.0,700.0 L 550.0,700.0 L 750.0,700.0 L 650.0,700.0zM 950.0,220.0 L 1050.0,220.0 L 1150.0,220.0 L 1150.0,100.0 L 1150.0,-20.0 L 1050.0,-20.0 L 950.0,-20.0 L 850.0,-20.0 L 750.0,-20.0 L 650.0,-20.0 L 550.0,-20.0 L 450.0,-20.0 L 350.0,-20.0 L 250.0,-20.0 L 150.0,-20.0 L 50.0,-20.0 L 50.0,100.0 L 50.0,220.0 L 150.0,220.0 L 250.0,220.0 L 350.0,220.0 L 350.0,340.0 L 250.0,340.0 L 150.0,340.0 L 50.0,340.0 L 50.0,460.0 L 50.0,580.0 L 150.0,580.0 L 250.0,580.0 L 350.0,580.0 L 450.0,580.0 L 550.0,580.0 L 650.0,580.0 L 750.0,580.0 L 850.0,580.0 L 950.0,580.0 L 950.0,460.0 L 950.0,340.0 L 950.0,220.0zz"/>
    <glyph glyph-name="igrave" unicode="&#236;" d="M 950.0,700.0 L 850.0,700.0 L 750.0,700.0 L 650.0,700.0 L 550.0,700.0 L 450.0,700.0 L 350.0,700.0 L 950.0,700.0zM 950.0,220.0 L 1050.0,220.0 L 1150.0,220.0 L 1150.0,100.0 L 1150.0,-20.0 L 1050.0,-20.0 L 950.0,-20.0 L 850.0,-20.0 L 750.0,-20.0 L 650.0,-20.0 L 550.0,-20.0 L 450.0,-20.0 L 350.0,-20.0 L 250.0,-20.0 L 150.0,-20.0 L 50.0,-20.0 L 50.0,100.0 L 50.0,220.0 L 150.0,220.0 L 250.0,220.0 L 350.0,220.0 L 350.0,340.0 L 250.0,340.0 L 150.0,340.0 L 50.0,340.0 L 50.0,460.0 L 50.0,580.0 L 150.0,580.0 L 250.0,580.0 L 350.0,580.0 L 450.0,580.0 L 550.0,580.0 L 650.0,580.0 L 750.0,580.0 L 850.0,580.0 L 950.0,580.0 L 950.0,460.0 L 950.0,340.0 L 950.0,220.0zz"/>
    <glyph glyph-name="imacron" unicode="&#299;" d="M 950.0,700.0 L 850.0,700.0 L 750.0,700.0 L 650.0,700.0 L 550.0,700.0 L 450.0,700.0 L 350.0,700.0 L 950.0,700.0zM 950.0,220.0 L 1050.0,220.0 L 1150.0,220.0 L 1150.0,100.0 L 1150.0,-20.0 L 1050.0,-20.0 L 950.0,-20.0 L 850.0,-20.0 L 750.0,-20.0 L 650.0,-20.0 L 550.0,-20.0 L 450.0,-20.0 L 350.0,-20.0 L 250.0,-20.0 L 150.0,-20.0 L 50.0,-20.0 L 50.0,100.0 L 50.0,220.0 L 150.0,220.0 L 250.0,220.0 L 350.0,220.0 L 350.0,340.0 L 250.0,340.0 L 150.0,340.0 L 50.0,340.0 L 50.0,460.0 L 50.0,580.0 L 150.0,580.0 L 250.0,580.0 L 350.0,580.0 L 450.0,580.0 L 550.0,580.0 L 650.0,580.0 L 750.0,580.0 L 850.0,580.0 L 950.0,580.0 L 950.0,460.0 L 950.0,340.0 L 950.0,220.0zz"/>
    <glyph glyph-name="iogonek" unicode="&#303;" d="M 950.0,700.0 L 950.0,580.0 L 850.0,580.0 L 750.0,580.0 L 650.0,580.0 L 550.0,580.0 L 450.0,580.0 L 350.0,580.0 L 350.0,700.0 L 450.0,700.0 L 550.0,700.0 L 650.0,700.0 L 750.0,700.0 L 850.0,700.0 L 950.0,700.0zM 1150.0,-20.0 L 1050.0,-20.0 L 950.0,-20.0 L 950.0,100.0 L 1050.0,100.0 L 850.0,100.0 L 750.0,100.0 L 650.0,100.0 L 550.0,100.0 L 450.0,100.0 L 350.0,100.0 L 250.0,100.0 L 150.0,100.0 L 50.0,100.0 L 50.0,220.0 L 50.0,340.0 L 150.0,340.0 L 250.0,340.0 L 350.0,340.0 L 50.0,460.0 L 50.0,580.0 L 150.0,580.0 L 250.0,580.0 L 350.0,580.0 L 450.0,580.0 L 550.0,580.0 L 650.0,580.0 L 750.0,580.0 L 850.0,580.0 L 950.0,580.0 L 950.0,460.0 L 950.0,340.0 L 1050.0,340.0 L 1150.0,340.0 L 1150.0,220.0 L 1150.0,100.0 L 1150.0,-20.0zz"/>
    <glyph glyph-name="j" unicode="j" d="M 550.0,700.0 L 650.0,700.0 L 750.0,700.0 L 850.0,700.0 L 950.0,700.0 L 1050.0,700.0 L 1150.0,700.0 L 1150.0,580.0 L 1050.0,580.0 L 950.0,580.0 L 850.0,580.0 L 750.0,580.0 L 650.0,580.0 L 550.0,580.0 L 550.0,700.0zM 50.0,580.0 L 150.0,580.0 L 250.0,580.0 L 350.0,580.0 L 450.0,580.0 L 550.0,580.0 L 650.0,580.0 L 750.0,580.0 L 850.0,580.0 L 950.0,580.0 L 1050.0,580.0 L 1150.0,580.0 L 1150.0,460.0 L 1150.0,340.0 L 1150.0,220.0 L 1150.0,100.0 L 1050.0,100.0 L 950.0,100.0 L 950.0,-20.0 L 850.0,-20.0 L 750.0,-20.0 L 650.0,-20.0 L 550.0,-20.0 L 450.0,-20.0 L 350.0,-20.0 L 250.0,-20.0 L 150.0,-20.0 L 50.0,-20.0 L 50.0,100.0 L 50.0,220.0 L 150.0,220.0 L 250.0,220.0 L 250.0,340.0 L 350.0,340.0 L 450.0,340.0 L 550.0,340.0 L 150.0,340.0 L 50.0,340.0 L 50.0,460.0 L 50.0,580.0zz"/>
    <glyph glyph-name="k" unicode="k" d="M 1150.0,580.0 L 1150.0,460.0 L 1150.0,340.0 L 1150.0,220.0 L 1150.0,100.0 L 1150.0,-20.0 L 1050.0,-20.0 L 950.0,-20.0 L 850.0,-20.0 L 750.0,-20.0 L 650.0,-20.0 L 650.0,100.0 L 650.0,220.0 L 550.0,220.0 L 550.0,100.0 L 550.0,-20.0 L 450.0,-20.0 L 350.0,-20.0 L 250.0,-20.0 L 150.0,-20.0 L 50.0,-20.0 L 50.0,100.0 L 50.0,220.0 L 50.0,340.0 L 50.0,460.0 L 50.0,580.0 L 50.0,700.0 L 150.0,700.0 L 250.0,700.0 L 350.0,700.0 L 450.0,700.0 L 550.0,700.0 L 550.0,580.0 L 550.0,460.0 L 550.0,340.0 L 650.0,340.0 L 650.0,460.0 L 650.0,580.0 L 750.0,580.0 L 850.0,580.0 L 950.0,580.0 L 1050.0,580.0 L 1150.0,580.0zz"/>
    <glyph glyph-name="uni0137" unicode="&#311;" d="M 1150.0,580.0 L 1150.0,460.0 L 1150.0,340.0 L 1150.0,220.0 L 1150.0,100.0 L 1050.0,100.0 L 950.0,100.0 L 850.0,100.0 L 750.0,100.0 L 650.0,100.0 L 650.0,220.0 L 650.0,340.0 L 550.0,340.0 L 550.0,220.0 L 550.0,100.0 L 450.0,100.0 L 350.0,100.0 L 250.0,100.0 L 150.0,100.0 L 50.0,100.0 L 50.0,220.0 L 50.0,340.0 L 50.0,460.0 L 50.0,580.0 L 50.0,700.0 L 150.0,700.0 L 250.0,700.0 L 350.0,700.0 L 450.0,700.0 L 550.0,700.0 L 550.0,580.0 L 550.0,460.0 L 650.0,460.0 L 650.0,580.0 L 750.0,580.0 L 850.0,580.0 L 950.0,580.0 L 1050.0,580.0 L 1150.0,580.0zM 450.0,-20.0 L 550.0,-20.0 L 550.0,100.0 L 650.0,100.0 L 650.0,-20.0 L 450.0,-20.0zz"/>
    <glyph glyph-name="l" unicode="l" d="M 950.0,220.0 L 1050.0,220.0 L 1150.0,220.0 L 1150.0,100.0 L 1150.0,-20.0 L 1050.0,-20.0 L 950.0,-20.0 L 850.0,-20.0 L 750.0,-20.0 L 650.0,-20.0 L 550.0,-20.0 L 450.0,-20.0 L 350.0,-20.0 L 250.0,-20.0 L 150.0,-20.0 L 50.0,-20.0 L 50.0,100.0 L 50.0,220.0 L 150.0,220.0 L 250.0,220.0 L 350.0,220.0 L 350.0,340.0 L 350.0,460.0 L 250.0,460.0 L 150.0,460.0 L 50.0,460.0 L 50.0,580.0 L 50.0,700.0 L 150.0,700.0 L 250.0,700.0 L 350.0,700.0 L 450.0,700.0 L 550.0,700.0 L 650.0,700.0 L 750.0,700.0 L 850.0,700.0 L 950.0,700.0 L 950.0,580.0 L 950.0,460.0 L 950.0,340.0 L 950.0,220.0zz"/>
    <glyph glyph-name="lacute" unicode="&#314;" d="M 1050.0,700.0 L 950.0,700.0 L 850.0,700.0 L 750.0,700.0 L 650.0,700.0 L 550.0,700.0 L 450.0,700.0 L 350.0,700.0 L 1050.0,700.0zM 950.0,220.0 L 1050.0,220.0 L 1150.0,220.0 L 1150.0,100.0 L 1150.0,-20.0 L 1050.0,-20.0 L 950.0,-20.0 L 850.0,-20.0 L 750.0,-20.0 L 650.0,-20.0 L 550.0,-20.0 L 450.0,-20.0 L 350.0,-20.0 L 250.0,-20.0 L 150.0,-20.0 L 50.0,-20.0 L 50.0,100.0 L 50.0,220.0 L 150.0,220.0 L 250.0,220.0 L 350.0,220.0 L 350.0,340.0 L 350.0,460.0 L 250.0,460.0 L 150.0,460.0 L 50.0,460.0 L 50.0,580.0 L 50.0,700.0 L 150.0,700.0 L 250.0,700.0 L 250.0,580.0 L 350.0,580.0 L 450.0,580.0 L 550.0,580.0 L 650.0,580.0 L 750.0,580.0 L 850.0,580.0 L 950.0,580.0 L 950.0,460.0 L 950.0,340.0 L 950.0,220.0zz"/>
    <glyph glyph-name="lcaron" unicode="&#318;" d="M 950.0,220.0 L 1050.0,220.0 L 1150.0,220.0 L 1150.0,100.0 L 1150.0,-20.0 L 1050.0,-20.0 L 950.0,-20.0 L 850.0,-20.0 L 750.0,-20.0 L 650.0,-20.0 L 550.0,-20.0 L 450.0,-20.0 L 350.0,-20.0 L 250.0,-20.0 L 150.0,-20.0 L 50.0,-20.0 L 50.0,100.0 L 50.0,220.0 L 150.0,220.0 L 250.0,220.0 L 350.0,220.0 L 350.0,340.0 L 350.0,460.0 L 250.0,460.0 L 150.0,460.0 L 50.0,460.0 L 50.0,580.0 L 50.0,700.0 L 150.0,700.0 L 250.0,700.0 L 350.0,700.0 L 450.0,700.0 L 550.0,700.0 L 650.0,700.0 L 750.0,700.0 L 850.0,700.0 L 950.0,700.0 L 950.0,580.0 L 950.0,460.0 L 950.0,340.0 L 950.0,220.0zM 1150.0,340.0 L 1050.0,340.0 L 1050.0,460.0 L 1050.0,580.0 L 1050.0,700.0 L 1150.0,700.0 L 1150.0,580.0 L 1150.0,460.0 L 1150.0,340.0zz"/>
    <glyph glyph-name="uni013C" unicode="&#316;" d="M 950.0,340.0 L 1050.0,340.0 L 1150.0,340.0 L 1150.0,220.0 L 1150.0,100.0 L 1050.0,100.0 L 950.0,100.0 L 850.0,100.0 L 750.0,100.0 L 650.0,100.0 L 550.0,100.0 L 450.0,100.0 L 350.0,100.0 L 250.0,100.0 L 150.0,100.0 L 50.0,100.0 L 50.0,220.0 L 50.0,340.0 L 150.0,340.0 L 250.0,340.0 L 350.0,340.0 L 350.0,460.0 L 250.0,460.0 L 150.0,460.0 L 50.0,460.0 L 50.0,580.0 L 50.0,700.0 L 150.0,700.0 L 250.0,700.0 L 350.0,700.0 L 450.0,700.0 L 550.0,700.0 L 650.0,700.0 L 750.0,700.0 L 850.0,700.0 L 950.0,700.0 L 950.0,580.0 L 950.0,460.0 L 950.0,340.0zM 450.0,-20.0 L 550.0,-20.0 L 550.0,100.0 L 650.0,100.0 L 650.0,-20.0 L 450.0,-20.0zz"/>
    <glyph glyph-name="ldot" unicode="&#320;" d="M 950.0,700.0 L 950.0,580.0 L 950.0,460.0 L 950.0,340.0 L 950.0,220.0 L 1050.0,220.0 L 1150.0,220.0 L 1150.0,100.0 L 1150.0,-20.0 L 1050.0,-20.0 L 950.0,-20.0 L 850.0,-20.0 L 750.0,-20.0 L 650.0,-20.0 L 550.0,-20.0 L 450.0,-20.0 L 350.0,-20.0 L 250.0,-20.0 L 150.0,-20.0 L 50.0,-20.0 L 50.0,100.0 L 50.0,220.0 L 150.0,220.0 L 250.0,220.0 L 350.0,220.0 L 350.0,340.0 L 350.0,460.0 L 250.0,460.0 L 150.0,460.0 L 50.0,460.0 L 50.0,580.0 L 50.0,700.0 L 150.0,700.0 L 250.0,700.0 L 350.0,700.0 L 450.0,700.0 L 550.0,700.0 L 650.0,700.0 L 750.0,700.0 L 850.0,700.0 L 950.0,700.0zM 1050.0,460.0 L 950.0,460.0 L 950.0,580.0 L 1050.0,580.0 L 1050.0,700.0 L 1150.0,700.0 L 1150.0,580.0 L 1150.0,460.0 L 1050.0,460.0zz"/>
    <glyph glyph-name="lslash" unicode="&#322;" d="M 950.0,220.0 L 1050.0,220.0 L 1150.0,220.0 L 1150.0,100.0 L 1150.0,-20.0 L 1050.0,-20.0 L 950.0,-20.0 L 850.0,-20.0 L 750.0,-20.0 L 650.0,-20.0 L 550.0,-20.0 L 450.0,-20.0 L 350.0,-20.0 L 250.0,-20.0 L 150.0,-20.0 L 50.0,-20.0 L 50.0,100.0 L 50.0,220.0 L 150.0,220.0 L 250.0,220.0 L 350.0,220.0 L 350.0,340.0 L 350.0,460.0 L 250.0,460.0 L 150.0,460.0 L 50.0,460.0 L 50.0,580.0 L 50.0,700.0 L 150.0,700.0 L 250.0,700.0 L 350.0,700.0 L 450.0,700.0 L 550.0,700.0 L 650.0,700.0 L 750.0,700.0 L 850.0,700.0 L 950.0,700.0 L 950.0,580.0 L 950.0,460.0 L 1050.0,460.0 L 1150.0,460.0 L 950.0,340.0 L 950.0,220.0zz"/>
    <glyph glyph-name="m" unicode="m" d="M 1050.0,580.0 L 1150.0,580.0 L 1150.0,460.0 L 1150.0,340.0 L 1150.0,220.0 L 1150.0,100.0 L 1150.0,-20.0 L 1050.0,-20.0 L 950.0,-20.0 L 850.0,-20.0 L 850.0,100.0 L 850.0,220.0 L 850.0,340.0 L 750.0,340.0 L 750.0,220.0 L 750.0,100.0 L 750.0,-20.0 L 650.0,-20.0 L 550.0,-20.0 L 450.0,-20.0 L 450.0,100.0 L 450.0,220.0 L 450.0,340.0 L 350.0,340.0 L 350.0,220.0 L 350.0,100.0 L 350.0,-20.0 L 250.0,-20.0 L 150.0,-20.0 L 50.0,-20.0 L 50.0,100.0 L 50.0,220.0 L 50.0,340.0 L 50.0,460.0 L 50.0,580.0 L 150.0,580.0 L 250.0,580.0 L 350.0,580.0 L 350.0,460.0 L 450.0,460.0 L 450.0,580.0 L 550.0,580.0 L 650.0,580.0 L 750.0,580.0 L 750.0,460.0 L 850.0,460.0 L 850.0,580.0 L 950.0,580.0 L 1050.0,580.0zz"/>
    <glyph glyph-name="n" unicode="n" d="M 950.0,580.0 L 1050.0,580.0 L 1150.0,580.0 L 1150.0,460.0 L 1150.0,340.0 L 1150.0,220.0 L 1150.0,100.0 L 1150.0,-20.0 L 1050.0,-20.0 L 950.0,-20.0 L 850.0,-20.0 L 750.0,-20.0 L 650.0,-20.0 L 650.0,100.0 L 650.0,220.0 L 650.0,340.0 L 550.0,340.0 L 550.0,220.0 L 550.0,100.0 L 550.0,-20.0 L 450.0,-20.0 L 350.0,-20.0 L 250.0,-20.0 L 150.0,-20.0 L 50.0,-20.0 L 50.0,100.0 L 50.0,220.0 L 50.0,340.0 L 50.0,460.0 L 50.0,580.0 L 150.0,580.0 L 250.0,580.0 L 350.0,580.0 L 450.0,580.0 L 550.0,580.0 L 550.0,460.0 L 650.0,460.0 L 650.0,580.0 L 750.0,580.0 L 850.0,580.0 L 950.0,580.0zz"/>
    <glyph glyph-name="nacute" unicode="&#324;" d="M 950.0,700.0 L 850.0,700.0 L 750.0,700.0 L 650.0,700.0 L 550.0,700.0 L 450.0,700.0 L 350.0,700.0 L 250.0,700.0 L 950.0,700.0zM 950.0,580.0 L 1050.0,580.0 L 1150.0,580.0 L 1150.0,460.0 L 1150.0,340.0 L 1150.0,220.0 L 1150.0,100.0 L 1150.0,-20.0 L 1050.0,-20.0 L 950.0,-20.0 L 850.0,-20.0 L 750.0,-20.0 L 650.0,-20.0 L 650.0,100.0 L 650.0,220.0 L 650.0,340.0 L 550.0,340.0 L 550.0,220.0 L 550.0,100.0 L 550.0,-20.0 L 450.0,-20.0 L 350.0,-20.0 L 250.0,-20.0 L 150.0,-20.0 L 50.0,-20.0 L 50.0,100.0 L 50.0,220.0 L 50.0,340.0 L 50.0,460.0 L 50.0,580.0 L 150.0,580.0 L 250.0,580.0 L 350.0,580.0 L 450.0,580.0 L 550.0,580.0 L 550.0,460.0 L 650.0,460.0 L 650.0,580.0 L 750.0,580.0 L 850.0,580.0 L 950.0,580.0zz"/>
    <glyph glyph-name="ncaron" unicode="&#328;" d="M 950.0,700.0 L 850.0,700.0 L 750.0,700.0 L 650.0,700.0 L 550.0,700.0 L 450.0,700.0 L 350.0,700.0 L 250.0,700.0 L 950.0,700.0zM 950.0,580.0 L 1050.0,580.0 L 1150.0,580.0 L 1150.0,460.0 L 1150.0,340.0 L 1150.0,220.0 L 1150.0,100.0 L 1150.0,-20.0 L 1050.0,-20.0 L 950.0,-20.0 L 850.0,-20.0 L 750.0,-20.0 L 650.0,-20.0 L 650.0,100.0 L 650.0,220.0 L 650.0,340.0 L 550.0,340.0 L 550.0,220.0 L 550.0,100.0 L 550.0,-20.0 L 450.0,-20.0 L 350.0,-20.0 L 250.0,-20.0 L 150.0,-20.0 L 50.0,-20.0 L 50.0,100.0 L 50.0,220.0 L 50.0,340.0 L 50.0,460.0 L 50.0,580.0 L 150.0,580.0 L 250.0,580.0 L 350.0,580.0 L 450.0,580.0 L 550.0,580.0 L 550.0,460.0 L 650.0,460.0 L 650.0,580.0 L 750.0,580.0 L 850.0,580.0 L 950.0,580.0zz"/>
    <glyph glyph-name="uni0146" unicode="&#326;" d="M 950.0,580.0 L 1050.0,580.0 L 1150.0,580.0 L 1150.0,460.0 L 1150.0,340.0 L 1150.0,220.0 L 1150.0,100.0 L 1050.0,100.0 L 950.0,100.0 L 850.0,100.0 L 750.0,100.0 L 650.0,100.0 L 650.0,220.0 L 650.0,340.0 L 550.0,340.0 L 550.0,220.0 L 550.0,100.0 L 450.0,100.0 L 350.0,100.0 L 250.0,100.0 L 150.0,100.0 L 50.0,100.0 L 50.0,220.0 L 50.0,340.0 L 50.0,460.0 L 50.0,580.0 L 150.0,580.0 L 250.0,580.0 L 350.0,580.0 L 450.0,580.0 L 550.0,580.0 L 550.0,460.0 L 650.0,460.0 L 650.0,580.0 L 750.0,580.0 L 850.0,580.0 L 950.0,580.0zM 450.0,-20.0 L 550.0,-20.0 L 550.0,100.0 L 650.0,100.0 L 650.0,-20.0 L 450.0,-20.0zz"/>
    <glyph glyph-name="eng" unicode="&#331;" d="M 950.0,580.0 L 1050.0,580.0 L 1150.0,580.0 L 1150.0,460.0 L 1150.0,340.0 L 1150.0,220.0 L 1150.0,100.0 L 1150.0,-20.0 L 1050.0,-20.0 L 950.0,-20.0 L 850.0,-20.0 L 750.0,-20.0 L 650.0,-20.0 L 650.0,100.0 L 650.0,220.0 L 650.0,340.0 L 550.0,340.0 L 550.0,220.0 L 550.0,100.0 L 550.0,-20.0 L 450.0,-20.0 L 350.0,-20.0 L 250.0,-20.0 L 150.0,-20.0 L 50.0,-20.0 L 50.0,100.0 L 50.0,220.0 L 50.0,340.0 L 50.0,460.0 L 50.0,580.0 L 150.0,580.0 L 250.0,580.0 L 350.0,580.0 L 450.0,580.0 L 550.0,580.0 L 550.0,460.0 L 650.0,460.0 L 650.0,580.0 L 750.0,580.0 L 850.0,580.0 L 950.0,580.0zz"/>
    <glyph glyph-name="ntilde" unicode="&#241;" d="M 450.0,700.0 L 350.0,700.0 L 250.0,700.0 L 550.0,700.0 L 650.0,700.0 L 750.0,700.0 L 850.0,700.0 L 950.0,700.0 L 450.0,700.0zM 950.0,580.0 L 1050.0,580.0 L 1150.0,580.0 L 1150.0,460.0 L 1150.0,340.0 L 1150.0,220.0 L 1150.0,100.0 L 1150.0,-20.0 L 1050.0,-20.0 L 950.0,-20.0 L 850.0,-20.0 L 750.0,-20.0 L 650.0,-20.0 L 650.0,100.0 L 650.0,220.0 L 650.0,340.0 L 550.0,340.0 L 550.0,220.0 L 550.0,100.0 L 550.0,-20.0 L 450.0,-20.0 L 350.0,-20.0 L 250.0,-20.0 L 150.0,-20.0 L 50.0,-20.0 L 50.0,100.0 L 50.0,220.0 L 50.0,340.0 L 50.0,460.0 L 50.0,580.0 L 150.0,580.0 L 250.0,580.0 L 350.0,580.0 L 450.0,580.0 L 550.0,580.0 L 550.0,460.0 L 650.0,460.0 L 650.0,580.0 L 750.0,580.0 L 850.0,580.0 L 950.0,580.0zz"/>
    <glyph glyph-name="o" unicode="o" d="M 550.0,-20.0 L 450.0,-20.0 L 350.0,-20.0 L 250.0,-20.0 L 150.0,100.0 L 50.0,100.0 L 50.0,220.0 L 50.0,340.0 L 50.0,460.0 L 150.0,460.0 L 150.0,580.0 L 250.0,580.0 L 350.0,580.0 L 450.0,580.0 L 550.0,580.0 L 650.0,580.0 L 750.0,580.0 L 850.0,580.0 L 950.0,580.0 L 1050.0,580.0 L 1050.0,460.0 L 1150.0,460.0 L 1150.0,340.0 L 1150.0,220.0 L 1150.0,100.0 L 1050.0,100.0 L 950.0,-20.0 L 850.0,-20.0 L 750.0,-20.0 L 650.0,-20.0 L 550.0,-20.0zM 650.0,220.0 L 650.0,340.0 L 550.0,340.0 L 550.0,220.0 L 650.0,220.0zz"/>
    <glyph glyph-name="oacute" unicode="&#243;" d="M 250.0,700.0 L 350.0,700.0 L 450.0,700.0 L 550.0,700.0 L 650.0,700.0 L 750.0,700.0 L 850.0,700.0 L 950.0,700.0 L 250.0,700.0zM 550.0,-20.0 L 450.0,-20.0 L 350.0,-20.0 L 250.0,-20.0 L 150.0,100.0 L 50.0,100.0 L 50.0,220.0 L 50.0,340.0 L 50.0,460.0 L 150.0,460.0 L 150.0,580.0 L 250.0,580.0 L 350.0,580.0 L 450.0,580.0 L 550.0,580.0 L 650.0,580.0 L 750.0,580.0 L 850.0,580.0 L 950.0,580.0 L 1050.0,580.0 L 1050.0,460.0 L 1150.0,460.0 L 1150.0,340.0 L 1150.0,220.0 L 1150.0,100.0 L 1050.0,100.0 L 950.0,-20.0 L 850.0,-20.0 L 750.0,-20.0 L 650.0,-20.0 L 550.0,-20.0zM 650.0,220.0 L 650.0,340.0 L 550.0,340.0 L 550.0,220.0 L 650.0,220.0zz"/>
    <glyph glyph-name="ocircumflex" unicode="&#244;" d="M 250.0,700.0 L 350.0,700.0 L 450.0,700.0 L 550.0,700.0 L 650.0,700.0 L 750.0,700.0 L 850.0,700.0 L 950.0,700.0 L 250.0,700.0zM 550.0,-20.0 L 450.0,-20.0 L 350.0,-20.0 L 250.0,-20.0 L 150.0,100.0 L 50.0,100.0 L 50.0,220.0 L 50.0,340.0 L 50.0,460.0 L 150.0,460.0 L 150.0,580.0 L 250.0,580.0 L 350.0,580.0 L 450.0,580.0 L 550.0,580.0 L 650.0,580.0 L 750.0,580.0 L 850.0,580.0 L 950.0,580.0 L 1050.0,580.0 L 1050.0,460.0 L 1150.0,460.0 L 1150.0,340.0 L 1150.0,220.0 L 1150.0,100.0 L 1050.0,100.0 L 950.0,-20.0 L 850.0,-20.0 L 750.0,-20.0 L 650.0,-20.0 L 550.0,-20.0zM 650.0,220.0 L 650.0,340.0 L 550.0,340.0 L 550.0,220.0 L 650.0,220.0zz"/>
    <glyph glyph-name="odieresis" unicode="&#246;" d="M 350.0,700.0 L 250.0,700.0 L 350.0,700.0zM 850.0,700.0 L 950.0,700.0 L 850.0,700.0zM 550.0,-20.0 L 450.0,-20.0 L 350.0,-20.0 L 250.0,-20.0 L 150.0,100.0 L 50.0,100.0 L 50.0,220.0 L 50.0,340.0 L 50.0,460.0 L 150.0,460.0 L 150.0,580.0 L 250.0,580.0 L 350.0,580.0 L 450.0,580.0 L 550.0,580.0 L 650.0,580.0 L 750.0,580.0 L 850.0,580.0 L 950.0,580.0 L 1050.0,580.0 L 1050.0,460.0 L 1150.0,460.0 L 1150.0,340.0 L 1150.0,220.0 L 1150.0,100.0 L 1050.0,100.0 L 950.0,-20.0 L 850.0,-20.0 L 750.0,-20.0 L 650.0,-20.0 L 550.0,-20.0zM 650.0,220.0 L 650.0,340.0 L 550.0,340.0 L 550.0,220.0 L 650.0,220.0zz"/>
    <glyph glyph-name="ograve" unicode="&#242;" d="M 950.0,700.0 L 850.0,700.0 L 750.0,700.0 L 650.0,700.0 L 550.0,700.0 L 450.0,700.0 L 350.0,700.0 L 250.0,700.0 L 950.0,700.0zM 550.0,-20.0 L 450.0,-20.0 L 350.0,-20.0 L 250.0,-20.0 L 150.0,100.0 L 50.0,100.0 L 50.0,220.0 L 50.0,340.0 L 50.0,460.0 L 150.0,460.0 L 150.0,580.0 L 250.0,580.0 L 350.0,580.0 L 450.0,580.0 L 550.0,580.0 L 650.0,580.0 L 750.0,580.0 L 850.0,580.0 L 950.0,580.0 L 1050.0,580.0 L 1050.0,460.0 L 1150.0,460.0 L 1150.0,340.0 L 1150.0,220.0 L 1150.0,100.0 L 1050.0,100.0 L 950.0,-20.0 L 850.0,-20.0 L 750.0,-20.0 L 650.0,-20.0 L 550.0,-20.0zM 650.0,220.0 L 650.0,340.0 L 550.0,340.0 L 550.0,220.0 L 650.0,220.0zz"/>
    <glyph glyph-name="ohungarumlaut" unicode="&#337;" d="M 150.0,700.0 L 250.0,700.0 L 350.0,700.0 L 450.0,700.0 L 550.0,700.0 L 150.0,700.0zM 650.0,700.0 L 750.0,700.0 L 850.0,700.0 L 950.0,700.0 L 1050.0,700.0 L 650.0,700.0zM 550.0,-20.0 L 450.0,-20.0 L 350.0,-20.0 L 250.0,-20.0 L 150.0,100.0 L 50.0,100.0 L 50.0,220.0 L 50.0,340.0 L 50.0,460.0 L 150.0,460.0 L 150.0,580.0 L 250.0,580.0 L 350.0,580.0 L 450.0,580.0 L 550.0,580.0 L 650.0,580.0 L 750.0,580.0 L 850.0,580.0 L 950.0,580.0 L 1050.0,580.0 L 1050.0,460.0 L 1150.0,460.0 L 1150.0,340.0 L 1150.0,220.0 L 1150.0,100.0 L 1050.0,100.0 L 950.0,-20.0 L 850.0,-20.0 L 750.0,-20.0 L 650.0,-20.0 L 550.0,-20.0zM 650.0,220.0 L 650.0,340.0 L 550.0,340.0 L 550.0,220.0 L 650.0,220.0zz"/>
    <glyph glyph-name="omacron" unicode="&#333;" d="M 250.0,700.0 L 350.0,700.0 L 450.0,700.0 L 550.0,700.0 L 650.0,700.0 L 750.0,700.0 L 850.0,700.0 L 950.0,700.0 L 250.0,700.0zM 550.0,-20.0 L 450.0,-20.0 L 350.0,-20.0 L 250.0,-20.0 L 150.0,100.0 L 50.0,100.0 L 50.0,220.0 L 50.0,340.0 L 50.0,460.0 L 150.0,460.0 L 150.0,580.0 L 250.0,580.0 L 350.0,580.0 L 450.0,580.0 L 550.0,580.0 L 650.0,580.0 L 750.0,580.0 L 850.0,580.0 L 950.0,580.0 L 1050.0,580.0 L 1050.0,460.0 L 1150.0,460.0 L 1150.0,340.0 L 1150.0,220.0 L 1150.0,100.0 L 1050.0,100.0 L 950.0,-20.0 L 850.0,-20.0 L 750.0,-20.0 L 650.0,-20.0 L 550.0,-20.0zM 650.0,220.0 L 650.0,340.0 L 550.0,340.0 L 550.0,220.0 L 650.0,220.0zz"/>
    <glyph glyph-name="oslash" unicode="&#248;" d="M 1050.0,580.0 L 1150.0,580.0 L 1150.0,460.0 L 1150.0,340.0 L 1150.0,220.0 L 1150.0,100.0 L 1050.0,100.0 L 950.0,100.0 L 850.0,100.0 L 850.0,-20.0 L 750.0,-20.0 L 650.0,-20.0 L 550.0,-20.0 L 450.0,-20.0 L 350.0,-20.0 L 350.0,100.0 L 250.0,100.0 L 150.0,100.0 L 150.0,-20.0 L 50.0,-20.0 L 50.0,100.0 L 50.0,220.0 L 50.0,340.0 L 50.0,460.0 L 50.0,580.0 L 150.0,580.0 L 250.0,580.0 L 350.0,580.0 L 350.0,700.0 L 450.0,700.0 L 550.0,700.0 L 650.0,700.0 L 750.0,700.0 L 850.0,700.0 L 850.0,580.0 L 950.0,580.0 L 950.0,700.0 L 1050.0,700.0 L 1150.0,700.0 L 1050.0,580.0zM 650.0,220.0 L 650.0,340.0 L 650.0,460.0 L 550.0,460.0 L 550.0,340.0 L 550.0,220.0 L 650.0,220.0zz"/>
    <glyph glyph-name="otilde" unicode="&#245;" d="M 250.0,700.0 L 350.0,700.0 L 450.0,700.0 L 550.0,700.0 L 650.0,700.0 L 750.0,700.0 L 850.0,700.0 L 950.0,700.0 L 250.0,700.0zM 550.0,-20.0 L 450.0,-20.0 L 350.0,-20.0 L 250.0,-20.0 L 150.0,100.0 L 50.0,100.0 L 50.0,220.0 L 50.0,340.0 L 50.0,460.0 L 150.0,460.0 L 150.0,580.0 L 250.0,580.0 L 350.0,580.0 L 450.0,580.0 L 550.0,580.0 L 650.0,580.0 L 750.0,580.0 L 850.0,580.0 L 950.0,580.0 L 1050.0,580.0 L 1050.0,460.0 L 1150.0,460.0 L 1150.0,340.0 L 1150.0,220.0 L 1150.0,100.0 L 1050.0,100.0 L 950.0,-20.0 L 850.0,-20.0 L 750.0,-20.0 L 650.0,-20.0 L 550.0,-20.0zM 650.0,220.0 L 650.0,340.0 L 550.0,340.0 L 550.0,220.0 L 650.0,220.0zz"/>
    <glyph glyph-name="oe" unicode="&#339;" d="M 1150.0,340.0 L 1050.0,340.0 L 950.0,340.0 L 850.0,340.0 L 750.0,340.0 L 750.0,220.0 L 850.0,220.0 L 950.0,220.0 L 1050.0,220.0 L 1150.0,220.0 L 1150.0,100.0 L 1150.0,-20.0 L 1050.0,-20.0 L 950.0,-20.0 L 850.0,-20.0 L 750.0,-20.0 L 650.0,-20.0 L 550.0,-20.0 L 450.0,-20.0 L 350.0,-20.0 L 250.0,-20.0 L 150.0,-20.0 L 150.0,100.0 L 50.0,100.0 L 50.0,220.0 L 50.0,340.0 L 50.0,460.0 L 150.0,460.0 L 150.0,580.0 L 250.0,580.0 L 350.0,580.0 L 450.0,580.0 L 550.0,580.0 L 650.0,580.0 L 750.0,580.0 L 850.0,580.0 L 950.0,580.0 L 1050.0,580.0 L 1150.0,460.0 L 1150.0,340.0zM 750.0,460.0 L 750.0,340.0 L 850.0,340.0 L 850.0,460.0 L 750.0,460.0zM 450.0,220.0 L 450.0,340.0 L 350.0,340.0 L 350.0,220.0 L 450.0,220.0zz"/>
    <glyph glyph-name="p" unicode="p" d="M 1150.0,340.0 L 1150.0,220.0 L 1050.0,220.0 L 1050.0,100.0 L 950.0,100.0 L 850.0,100.0 L 750.0,100.0 L 650.0,100.0 L 650.0,-20.0 L 550.0,-20.0 L 450.0,-20.0 L 350.0,-20.0 L 250.0,-20.0 L 150.0,-20.0 L 50.0,-20.0 L 50.0,100.0 L 50.0,220.0 L 50.0,340.0 L 50.0,460.0 L 50.0,580.0 L 150.0,580.0 L 250.0,580.0 L 350.0,580.0 L 450.0,580.0 L 550.0,580.0 L 650.0,580.0 L 650.0,460.0 L 750.0,580.0 L 850.0,580.0 L 950.0,580.0 L 1050.0,580.0 L 1150.0,580.0 L 1150.0,460.0 L 1150.0,340.0zM 650.0,220.0 L 650.0,340.0 L 650.0,220.0zz"/>
    <glyph glyph-name="thorn" unicode="&#254;" d="M 950.0,700.0 L 1050.0,700.0 L 1050.0,580.0 L 1150.0,580.0 L 1150.0,460.0 L 1150.0,340.0 L 1150.0,220.0 L 1150.0,100.0 L 1050.0,100.0 L 950.0,-20.0 L 850.0,-20.0 L 850.0,100.0 L 750.0,100.0 L 650.0,100.0 L 650.0,220.0 L 650.0,-20.0 L 550.0,-20.0 L 450.0,-20.0 L 350.0,-20.0 L 250.0,-20.0 L 150.0,-20.0 L 50.0,-20.0 L 50.0,100.0 L 50.0,220.0 L 50.0,340.0 L 50.0,460.0 L 50.0,580.0 L 50.0,700.0 L 150.0,700.0 L 250.0,700.0 L 350.0,700.0 L 450.0,700.0 L 550.0,700.0 L 650.0,700.0 L 650.0,580.0 L 650.0,460.0 L 750.0,580.0 L 750.0,700.0 L 850.0,700.0 L 950.0,700.0zM 650.0,340.0 L 650.0,460.0 L 650.0,340.0zz"/>
    <glyph glyph-name="q" unicode="q" d="M 550.0,580.0 L 650.0,580.0 L 750.0,580.0 L 850.0,580.0 L 950.0,580.0 L 1050.0,580.0 L 1150.0,580.0 L 1150.0,460.0 L 1150.0,340.0 L 1150.0,220.0 L 1150.0,100.0 L 1150.0,-20.0 L 1050.0,-20.0 L 950.0,-20.0 L 850.0,-20.0 L 750.0,-20.0 L 650.0,-20.0 L 550.0,-20.0 L 550.0,100.0 L 550.0,220.0 L 550.0,340.0 L 450.0,220.0 L 450.0,100.0 L 350.0,100.0 L 250.0,100.0 L 150.0,100.0 L 150.0,220.0 L 50.0,220.0 L 50.0,340.0 L 50.0,460.0 L 50.0,580.0 L 150.0,580.0 L 250.0,580.0 L 350.0,580.0 L 450.0,580.0 L 550.0,580.0zM 550.0,340.0 L 550.0,460.0 L 550.0,580.0 L 550.0,340.0zz"/>
    <glyph glyph-name="r" unicode="r" d="M 950.0,580.0 L 1050.0,580.0 L 1150.0,580.0 L 1150.0,460.0 L 1150.0,340.0 L 1150.0,220.0 L 1050.0,220.0 L 1050.0,340.0 L 950.0,340.0 L 850.0,340.0 L 750.0,340.0 L 750.0,220.0 L 650.0,220.0 L 650.0,100.0 L 650.0,-20.0 L 550.0,-20.0 L 450.0,-20.0 L 350.0,-20.0 L 250.0,-20.0 L 150.0,-20.0 L 50.0,-20.0 L 50.0,100.0 L 50.0,220.0 L 50.0,340.0 L 50.0,460.0 L 50.0,580.0 L 150.0,580.0 L 250.0,580.0 L 350.0,580.0 L 450.0,580.0 L 550.0,580.0 L 650.0,580.0 L 650.0,460.0 L 750.0,580.0 L 850.0,580.0 L 950.0,580.0zz"/>
    <glyph glyph-name="racute" unicode="&#341;" d="M 950.0,700.0 L 850.0,700.0 L 750.0,700.0 L 650.0,700.0 L 550.0,700.0 L 450.0,700.0 L 350.0,700.0 L 250.0,700.0 L 950.0,700.0zM 950.0,580.0 L 1050.0,580.0 L 1150.0,580.0 L 1150.0,460.0 L 1150.0,340.0 L 1150.0,220.0 L 1050.0,220.0 L 1050.0,340.0 L 950.0,340.0 L 850.0,340.0 L 750.0,340.0 L 750.0,220.0 L 650.0,220.0 L 650.0,100.0 L 650.0,-20.0 L 550.0,-20.0 L 450.0,-20.0 L 350.0,-20.0 L 250.0,-20.0 L 150.0,-20.0 L 50.0,-20.0 L 50.0,100.0 L 50.0,220.0 L 50.0,340.0 L 50.0,460.0 L 50.0,580.0 L 150.0,580.0 L 250.0,580.0 L 350.0,580.0 L 450.0,580.0 L 550.0,580.0 L 650.0,580.0 L 650.0,460.0 L 750.0,580.0 L 850.0,580.0 L 950.0,580.0zz"/>
    <glyph glyph-name="rcaron" unicode="&#345;" d="M 950.0,700.0 L 850.0,700.0 L 750.0,700.0 L 650.0,700.0 L 550.0,700.0 L 450.0,700.0 L 350.0,700.0 L 250.0,700.0 L 950.0,700.0zM 950.0,580.0 L 1050.0,580.0 L 1150.0,580.0 L 1150.0,460.0 L 1150.0,340.0 L 1150.0,220.0 L 1050.0,220.0 L 1050.0,340.0 L 950.0,340.0 L 850.0,340.0 L 750.0,340.0 L 750.0,220.0 L 650.0,220.0 L 650.0,100.0 L 650.0,-20.0 L 550.0,-20.0 L 450.0,-20.0 L 350.0,-20.0 L 250.0,-20.0 L 150.0,-20.0 L 50.0,-20.0 L 50.0,100.0 L 50.0,220.0 L 50.0,340.0 L 50.0,460.0 L 50.0,580.0 L 150.0,580.0 L 250.0,580.0 L 350.0,580.0 L 450.0,580.0 L 550.0,580.0 L 650.0,580.0 L 650.0,460.0 L 750.0,580.0 L 850.0,580.0 L 950.0,580.0zz"/>
    <glyph glyph-name="uni0157" unicode="&#343;" d="M 950.0,580.0 L 1050.0,580.0 L 1150.0,580.0 L 1150.0,460.0 L 1150.0,340.0 L 1150.0,220.0 L 1050.0,220.0 L 1050.0,340.0 L 950.0,340.0 L 850.0,340.0 L 750.0,340.0 L 750.0,220.0 L 650.0,220.0 L 650.0,100.0 L 550.0,100.0 L 450.0,100.0 L 350.0,100.0 L 250.0,100.0 L 150.0,100.0 L 50.0,100.0 L 50.0,220.0 L 50.0,340.0 L 50.0,460.0 L 50.0,580.0 L 150.0,580.0 L 250.0,580.0 L 350.0,580.0 L 450.0,580.0 L 550.0,580.0 L 650.0,580.0 L 650.0,460.0 L 750.0,580.0 L 850.0,580.0 L 950.0,580.0zM 150.0,-20.0 L 250.0,-20.0 L 250.0,100.0 L 350.0,100.0 L 350.0,-20.0 L 150.0,-20.0zz"/>
    <glyph glyph-name="s" unicode="s" d="M 550.0,-20.0 L 450.0,-20.0 L 350.0,-20.0 L 250.0,-20.0 L 150.0,-20.0 L 50.0,-20.0 L 50.0,100.0 L 50.0,220.0 L 50.0,340.0 L 150.0,220.0 L 250.0,220.0 L 350.0,220.0 L 450.0,220.0 L 550.0,220.0 L 650.0,220.0 L 150.0,340.0 L 50.0,460.0 L 50.0,580.0 L 150.0,580.0 L 250.0,580.0 L 350.0,580.0 L 450.0,580.0 L 550.0,580.0 L 650.0,580.0 L 750.0,580.0 L 850.0,580.0 L 950.0,580.0 L 1050.0,580.0 L 1150.0,580.0 L 1150.0,460.0 L 1150.0,340.0 L 1050.0,340.0 L 950.0,340.0 L 850.0,340.0 L 750.0,340.0 L 650.0,340.0 L 550.0,340.0 L 1150.0,220.0 L 1150.0,100.0 L 1150.0,-20.0 L 1050.0,-20.0 L 950.0,-20.0 L 850.0,-20.0 L 750.0,-20.0 L 650.0,-20.0 L 550.0,-20.0zz"/>
    <glyph glyph-name="sacute" unicode="&#347;" d="M 250.0,700.0 L 350.0,700.0 L 450.0,700.0 L 550.0,700.0 L 650.0,700.0 L 750.0,700.0 L 850.0,700.0 L 950.0,700.0 L 250.0,700.0zM 550.0,-20.0 L 450.0,-20.0 L 350.0,-20.0 L 250.0,-20.0 L 150.0,-20.0 L 50.0,-20.0 L 50.0,100.0 L 50.0,220.0 L 50.0,340.0 L 150.0,220.0 L 250.0,220.0 L 350.0,220.0 L 450.0,220.0 L 550.0,220.0 L 650.0,220.0 L 150.0,340.0 L 50.0,460.0 L 50.0,580.0 L 150.0,580.0 L 250.0,580.0 L 350.0,580.0 L 450.0,580.0 L 550.0,580.0 L 650.0,580.0 L 750.0,580.0 L 850.0,580.0 L 950.0,580.0 L 1050.0,580.0 L 1150.0,580.0 L 1150.0,460.0 L 1150.0,340.0 L 1050.0,340.0 L 950.0,340.0 L 850.0,340.0 L 750.0,340.0 L 650.0,340.0 L 550.0,340.0 L 1150.0,220.0 L 1150.0,100.0 L 1150.0,-20.0 L 1050.0,-20.0 L 950.0,-20.0 L 850.0,-20.0 L 750.0,-20.0 L 650.0,-20.0 L 550.0,-20.0zz"/>
    <glyph glyph-name="scaron" unicode="&#353;" d="M 550.0,700.0 L 450.0,700.0 L 350.0,700.0 L 250.0,700.0 L 650.0,700.0 L 750.0,700.0 L 850.0,700.0 L 950.0,700.0 L 550.0,700.0zM 550.0,-20.0 L 450.0,-20.0 L 350.0,-20.0 L 250.0,-20.0 L 150.0,-20.0 L 50.0,-20.0 L 50.0,100.0 L 50.0,220.0 L 50.0,340.0 L 150.0,220.0 L 250.0,220.0 L 350.0,220.0 L 450.0,220.0 L 550.0,220.0 L 650.0,220.0 L 150.0,340.0 L 50.0,460.0 L 50.0,580.0 L 150.0,580.0 L 250.0,580.0 L 350.0,580.0 L 450.0,580.0 L 550.0,580.0 L 650.0,580.0 L 750.0,580.0 L 850.0,580.0 L 950.0,580.0 L 1050.0,580.0 L 1150.0,580.0 L 1150.0,460.0 L 1150.0,340.0 L 1050.0,340.0 L 950.0,340.0 L 850.0,340.0 L 750.0,340.0 L 650.0,340.0 L 550.0,340.0 L 1150.0,220.0 L 1150.0,100.0 L 1150.0,-20.0 L 1050.0,-20.0 L 950.0,-20.0 L 850.0,-20.0 L 750.0,-20.0 L 650.0,-20.0 L 550.0,-20.0zz"/>
    <glyph glyph-name="scedilla" unicode="&#351;" d="M 1150.0,220.0 L 1150.0,100.0 L 1050.0,100.0 L 950.0,100.0 L 850.0,100.0 L 750.0,100.0 L 650.0,100.0 L 650.0,-20.0 L 550.0,-20.0 L 550.0,100.0 L 450.0,100.0 L 350.0,100.0 L 250.0,100.0 L 150.0,100.0 L 50.0,100.0 L 50.0,220.0 L 50.0,340.0 L 150.0,340.0 L 250.0,340.0 L 250.0,220.0 L 350.0,220.0 L 450.0,220.0 L 550.0,220.0 L 550.0,340.0 L 650.0,340.0 L 450.0,340.0 L 350.0,340.0 L 50.0,460.0 L 50.0,580.0 L 150.0,580.0 L 250.0,580.0 L 350.0,580.0 L 450.0,580.0 L 550.0,580.0 L 650.0,580.0 L 750.0,580.0 L 850.0,580.0 L 950.0,580.0 L 1050.0,580.0 L 1150.0,580.0 L 1150.0,460.0 L 1150.0,340.0 L 1050.0,340.0 L 1050.0,460.0 L 950.0,460.0 L 850.0,460.0 L 750.0,460.0 L 650.0,460.0 L 550.0,460.0 L 750.0,340.0 L 850.0,340.0 L 950.0,340.0 L 1150.0,220.0zz"/>
    <glyph glyph-name="uni0219" unicode="&#537;" d="M 550.0,340.0 L 650.0,340.0 L 750.0,340.0 L 850.0,340.0 L 950.0,340.0 L 1050.0,340.0 L 1150.0,340.0 L 1150.0,220.0 L 1150.0,100.0 L 1050.0,100.0 L 950.0,100.0 L 850.0,100.0 L 750.0,100.0 L 650.0,100.0 L 550.0,100.0 L 450.0,100.0 L 350.0,100.0 L 250.0,100.0 L 150.0,100.0 L 50.0,100.0 L 50.0,220.0 L 50.0,340.0 L 150.0,340.0 L 250.0,340.0 L 250.0,220.0 L 350.0,220.0 L 450.0,220.0 L 550.0,220.0 L 450.0,340.0 L 350.0,340.0 L 50.0,460.0 L 50.0,580.0 L 150.0,580.0 L 250.0,580.0 L 350.0,580.0 L 450.0,580.0 L 550.0,580.0 L 650.0,580.0 L 750.0,580.0 L 850.0,580.0 L 950.0,580.0 L 1050.0,580.0 L 1150.0,580.0 L 1150.0,460.0 L 1050.0,460.0 L 950.0,460.0 L 850.0,460.0 L 750.0,460.0 L 650.0,460.0 L 550.0,460.0 L 550.0,340.0zM 450.0,-20.0 L 550.0,-20.0 L 550.0,100.0 L 650.0,100.0 L 650.0,-20.0 L 450.0,-20.0zz"/>
    <glyph glyph-name="germandbls" unicode="&#223;" d="M 50.0,-20.0 L 50.0,100.0 L 50.0,220.0 L 50.0,340.0 L 50.0,460.0 L 50.0,580.0 L 150.0,580.0 L 150.0,700.0 L 250.0,700.0 L 350.0,700.0 L 450.0,700.0 L 550.0,700.0 L 650.0,700.0 L 750.0,700.0 L 850.0,700.0 L 950.0,700.0 L 1050.0,700.0 L 1150.0,580.0 L 1150.0,460.0 L 1050.0,460.0 L 1050.0,340.0 L 950.0,340.0 L 850.0,340.0 L 750.0,340.0 L 1150.0,340.0 L 1150.0,220.0 L 1150.0,100.0 L 1050.0,100.0 L 1050.0,-20.0 L 950.0,-20.0 L 850.0,-20.0 L 750.0,-20.0 L 650.0,-20.0 L 650.0,100.0 L 650.0,220.0 L 650.0,340.0 L 650.0,460.0 L 650.0,580.0 L 550.0,580.0 L 550.0,460.0 L 550.0,340.0 L 550.0,220.0 L 550.0,100.0 L 550.0,-20.0 L 450.0,-20.0 L 350.0,-20.0 L 250.0,-20.0 L 150.0,-20.0 L 50.0,-20.0zz"/>
    <glyph glyph-name="t" unicode="t" d="M 1150.0,580.0 L 1150.0,460.0 L 1150.0,340.0 L 1050.0,340.0 L 950.0,340.0 L 850.0,340.0 L 850.0,220.0 L 950.0,220.0 L 1050.0,220.0 L 1150.0,220.0 L 1150.0,100.0 L 1150.0,-20.0 L 1050.0,-20.0 L 950.0,-20.0 L 850.0,-20.0 L 750.0,-20.0 L 650.0,-20.0 L 550.0,-20.0 L 450.0,-20.0 L 350.0,-20.0 L 350.0,100.0 L 250.0,100.0 L 250.0,220.0 L 250.0,340.0 L 150.0,340.0 L 50.0,340.0 L 50.0,460.0 L 50.0,580.0 L 150.0,580.0 L 250.0,580.0 L 350.0,580.0 L 450.0,580.0 L 450.0,700.0 L 550.0,700.0 L 650.0,700.0 L 750.0,700.0 L 850.0,700.0 L 850.0,580.0 L 950.0,580.0 L 1050.0,580.0 L 1150.0,580.0zz"/>
    <glyph glyph-name="tbar" unicode="&#359;" d="M 1150.0,340.0 L 1050.0,340.0 L 950.0,340.0 L 850.0,340.0 L 1150.0,220.0 L 1050.0,220.0 L 950.0,220.0 L 850.0,220.0 L 1150.0,100.0 L 1150.0,-20.0 L 1050.0,-20.0 L 950.0,-20.0 L 850.0,-20.0 L 750.0,-20.0 L 650.0,-20.0 L 550.0,-20.0 L 450.0,-20.0 L 350.0,-20.0 L 350.0,100.0 L 250.0,100.0 L 250.0,220.0 L 150.0,220.0 L 50.0,220.0 L 50.0,340.0 L 150.0,340.0 L 250.0,340.0 L 50.0,460.0 L 50.0,580.0 L 150.0,580.0 L 250.0,580.0 L 350.0,580.0 L 450.0,580.0 L 450.0,700.0 L 550.0,700.0 L 650.0,700.0 L 750.0,700.0 L 850.0,700.0 L 850.0,580.0 L 950.0,580.0 L 1050.0,580.0 L 1150.0,580.0 L 1150.0,460.0 L 1150.0,340.0zz"/>
    <glyph glyph-name="tcaron" unicode="&#357;" d="M 850.0,700.0 L 850.0,580.0 L 950.0,580.0 L 1050.0,580.0 L 1150.0,580.0 L 1150.0,460.0 L 1150.0,340.0 L 1050.0,340.0 L 950.0,340.0 L 850.0,340.0 L 850.0,220.0 L 950.0,220.0 L 1050.0,220.0 L 1150.0,220.0 L 1150.0,100.0 L 1150.0,-20.0 L 1050.0,-20.0 L 950.0,-20.0 L 850.0,-20.0 L 750.0,-20.0 L 650.0,-20.0 L 550.0,-20.0 L 450.0,-20.0 L 350.0,-20.0 L 350.0,100.0 L 250.0,100.0 L 250.0,220.0 L 250.0,340.0 L 150.0,340.0 L 50.0,340.0 L 50.0,460.0 L 50.0,580.0 L 150.0,580.0 L 250.0,580.0 L 350.0,580.0 L 450.0,580.0 L 450.0,700.0 L 550.0,700.0 L 650.0,700.0 L 750.0,700.0 L 850.0,700.0zM 1150.0,700.0 L 1150.0,580.0 L 1050.0,700.0 L 950.0,700.0 L 850.0,700.0 L 1150.0,700.0zz"/>
    <glyph glyph-name="uni0163" unicode="&#355;" d="M 1150.0,580.0 L 1150.0,460.0 L 1150.0,340.0 L 1050.0,340.0 L 950.0,340.0 L 850.0,340.0 L 1150.0,220.0 L 1150.0,100.0 L 1050.0,100.0 L 950.0,100.0 L 850.0,100.0 L 750.0,100.0 L 650.0,100.0 L 650.0,-20.0 L 550.0,100.0 L 450.0,100.0 L 350.0,100.0 L 250.0,100.0 L 250.0,220.0 L 250.0,340.0 L 150.0,340.0 L 50.0,340.0 L 50.0,460.0 L 50.0,580.0 L 150.0,580.0 L 250.0,580.0 L 350.0,580.0 L 450.0,580.0 L 450.0,700.0 L 550.0,700.0 L 650.0,700.0 L 750.0,700.0 L 850.0,700.0 L 850.0,580.0 L 950.0,580.0 L 1050.0,580.0 L 1150.0,580.0zz"/>
    <glyph glyph-name="uni021B" unicode="&#539;" d="M 1150.0,580.0 L 1150.0,460.0 L 1150.0,340.0 L 1050.0,340.0 L 950.0,340.0 L 850.0,340.0 L 1150.0,220.0 L 1150.0,100.0 L 1050.0,100.0 L 950.0,100.0 L 850.0,100.0 L 750.0,100.0 L 650.0,100.0 L 550.0,100.0 L 450.0,100.0 L 350.0,100.0 L 250.0,100.0 L 250.0,220.0 L 250.0,340.0 L 150.0,340.0 L 50.0,340.0 L 50.0,460.0 L 50.0,580.0 L 150.0,580.0 L 250.0,580.0 L 350.0,580.0 L 450.0,580.0 L 450.0,700.0 L 550.0,700.0 L 650.0,700.0 L 750.0,700.0 L 850.0,700.0 L 850.0,580.0 L 950.0,580.0 L 1050.0,580.0 L 1150.0,580.0zM 450.0,-20.0 L 550.0,-20.0 L 650.0,-20.0 L 650.0,100.0 L 750.0,100.0 L 750.0,-20.0 L 450.0,-20.0zz"/>
    <glyph glyph-name="u" unicode="u" d="M 650.0,580.0 L 750.0,580.0 L 850.0,580.0 L 950.0,580.0 L 1050.0,580.0 L 1150.0,580.0 L 1150.0,460.0 L 1150.0,340.0 L 1150.0,220.0 L 1150.0,100.0 L 1150.0,-20.0 L 1050.0,-20.0 L 950.0,-20.0 L 850.0,-20.0 L 750.0,-20.0 L 650.0,-20.0 L 650.0,100.0 L 550.0,100.0 L 550.0,-20.0 L 450.0,-20.0 L 350.0,-20.0 L 250.0,-20.0 L 150.0,-20.0 L 50.0,-20.0 L 50.0,100.0 L 50.0,220.0 L 50.0,340.0 L 50.0,460.0 L 50.0,580.0 L 150.0,580.0 L 250.0,580.0 L 350.0,580.0 L 450.0,580.0 L 550.0,580.0 L 550.0,460.0 L 550.0,340.0 L 550.0,220.0 L 650.0,220.0 L 650.0,340.0 L 650.0,460.0 L 650.0,580.0zz"/>
    <glyph glyph-name="uacute" unicode="&#250;" d="M 950.0,700.0 L 850.0,700.0 L 750.0,700.0 L 650.0,700.0 L 550.0,700.0 L 450.0,700.0 L 350.0,700.0 L 250.0,700.0 L 950.0,700.0zM 650.0,580.0 L 750.0,580.0 L 850.0,580.0 L 950.0,580.0 L 1050.0,580.0 L 1150.0,580.0 L 1150.0,460.0 L 1150.0,340.0 L 1150.0,220.0 L 1150.0,100.0 L 1150.0,-20.0 L 1050.0,-20.0 L 950.0,-20.0 L 850.0,-20.0 L 750.0,-20.0 L 650.0,-20.0 L 650.0,100.0 L 550.0,100.0 L 550.0,-20.0 L 450.0,-20.0 L 350.0,-20.0 L 250.0,-20.0 L 150.0,-20.0 L 50.0,-20.0 L 50.0,100.0 L 50.0,220.0 L 50.0,340.0 L 50.0,460.0 L 50.0,580.0 L 150.0,580.0 L 250.0,580.0 L 350.0,580.0 L 450.0,580.0 L 550.0,580.0 L 550.0,460.0 L 550.0,340.0 L 550.0,220.0 L 650.0,220.0 L 650.0,340.0 L 650.0,460.0 L 650.0,580.0zz"/>
    <glyph glyph-name="ucircumflex" unicode="&#251;" d="M 950.0,700.0 L 850.0,700.0 L 750.0,700.0 L 650.0,700.0 L 550.0,700.0 L 450.0,700.0 L 350.0,700.0 L 250.0,700.0 L 950.0,700.0zM 650.0,580.0 L 750.0,580.0 L 850.0,580.0 L 950.0,580.0 L 1050.0,580.0 L 1150.0,580.0 L 1150.0,460.0 L 1150.0,340.0 L 1150.0,220.0 L 1150.0,100.0 L 1150.0,-20.0 L 1050.0,-20.0 L 950.0,-20.0 L 850.0,-20.0 L 750.0,-20.0 L 650.0,-20.0 L 650.0,100.0 L 550.0,100.0 L 550.0,-20.0 L 450.0,-20.0 L 350.0,-20.0 L 250.0,-20.0 L 150.0,-20.0 L 50.0,-20.0 L 50.0,100.0 L 50.0,220.0 L 50.0,340.0 L 50.0,460.0 L 50.0,580.0 L 150.0,580.0 L 250.0,580.0 L 350.0,580.0 L 450.0,580.0 L 550.0,580.0 L 550.0,460.0 L 550.0,340.0 L 550.0,220.0 L 650.0,220.0 L 650.0,340.0 L 650.0,460.0 L 650.0,580.0zz"/>
    </font>
</defs>
</svg>
