<svg xmlns="http://www.w3.org/2000/svg" xmlns:xlink="http://www.w3.org/1999/xlink" version="1.1">
<metadata>
Created by FontForge 20190801 at Mon Sep 16 20:41:22 2019
 By Unknown
Copyright \(c\) 2015 by Lucas Descroix. All rights reserved.
</metadata>
<defs>
<font id="FerroForgeBase-Regular" horiz-adv-x="0">
  <font-face font-family="FerroForje-Regular#20" font-weight="400" font-stretch="normal" units-per-em="1000" panose-1="0 0 5 0 0 0 0 0 0 0" ascent="750" descent="-250" x-height="500" cap-height="650" bbox="-410 -250 1223 998.752" underline-thickness="50" underline-position="-100" unicode-range="U+000D-FB02"/>
<missing-glyph horiz-adv-x="506"/>
    <glyph glyph-name="fi" unicode="fi" horiz-adv-x="610" d="M 503.25,62.75 L 533.75,62.75 L 533.75,-6.75 L 564.25,-6.75 L 503.25,-6.75 L 472.75,-6.75 L 442.25,-6.75 L 411.75,-6.75 L 381.25,-6.75 L 350.75,-6.75 L 350.75,62.75 L 381.25,62.75 L 411.75,62.75 L 411.75,132.25 L 411.75,201.75 L 411.75,271.25 L 411.75,340.75 L 411.75,410.25 L 381.25,410.25 L 350.75,410.25 L 320.25,410.25 L 289.75,410.25 L 259.25,410.25 L 228.75,410.25 L 198.25,410.25 L 167.75,410.25 L 167.75,340.75 L 167.75,271.25 L 167.75,201.75 L 167.75,132.25 L 167.75,62.75 L 198.25,62.75 L 228.75,62.75 L 228.75,-6.75 L 198.25,-6.75 L 167.75,-6.75 L 137.25,-6.75 L 106.75,-6.75 L 76.25,-6.75 L 45.75,-6.75 L 45.75,62.75 L 76.25,62.75 L 106.75,62.75 L 106.75,132.25 L 106.75,201.75 L 106.75,271.25 L 106.75,340.75 L 106.75,410.25 L 76.25,410.25 L 45.75,410.25 L 106.75,479.75 L 106.75,549.25 L 137.25,549.25 L 137.25,618.75 L 167.75,618.75 L 167.75,688.25 L 198.25,688.25 L 228.75,688.25 L 259.25,688.25 L 289.75,688.25 L 320.25,688.25 L 350.75,688.25 L 381.25,688.25 L 411.75,688.25 L 442.25,688.25 L 442.25,618.75 L 442.25,549.25 L 411.75,549.25 L 381.25,549.25 L 381.25,618.75 L 350.75,618.75 L 259.25,618.75 L 228.75,618.75 L 198.25,618.75 L 198.25,549.25 L 167.75,549.25 L 167.75,479.75 L 411.75,479.75 L 442.25,479.75 L 472.75,479.75 L 472.75,410.25 L 503.25,410.25 L 503.25,340.75 L 503.25,271.25 L 503.25,201.75 L 503.25,132.25 L 503.25,62.75zz"/>
    <glyph glyph-name="fl" unicode="fl" horiz-adv-x="583" d="M 480.97499999999997,62.75 L 510.12499999999994,62.75 L 539.275,62.75 L 539.275,-6.75 L 568.4250000000001,-6.75 L 510.12499999999994,-6.75 L 480.97499999999997,-6.75 L 451.825,-6.75 L 422.67499999999995,-6.75 L 393.525,-6.75 L 364.37499999999994,-6.75 L 364.37499999999994,62.75 L 393.525,62.75 L 422.67499999999995,62.75 L 422.67499999999995,132.25 L 422.67499999999995,201.75 L 422.67499999999995,271.25 L 422.67499999999995,340.75 L 422.67499999999995,410.25 L 422.67499999999995,479.75 L 422.67499999999995,549.25 L 393.525,549.25 L 393.525,618.75 L 364.37499999999994,618.75 L 335.22499999999997,618.75 L 335.22499999999997,688.25 L 306.075,688.25 L 276.92499999999995,688.25 L 247.77499999999998,688.25 L 247.77499999999998,618.75 L 218.62499999999997,618.75 L 218.62499999999997,549.25 L 189.47499999999997,549.25 L 189.47499999999997,479.75 L 218.62499999999997,479.75 L 247.77499999999998,479.75 L 276.92499999999995,479.75 L 306.075,479.75 L 335.22499999999997,479.75 L 335.22499999999997,410.25 L 306.075,410.25 L 276.92499999999995,410.25 L 247.77499999999998,410.25 L 218.62499999999997,410.25 L 189.47499999999997,410.25 L 189.47499999999997,340.75 L 189.47499999999997,271.25 L 189.47499999999997,201.75 L 189.47499999999997,132.25 L 189.47499999999997,62.75 L 218.62499999999997,62.75 L 247.77499999999998,62.75 L 247.77499999999998,-6.75 L 218.62499999999997,-6.75 L 189.47499999999997,-6.75 L 160.325,-6.75 L 131.17499999999998,-6.75 L 102.02499999999999,-6.75 L 72.875,-6.75 L 72.875,62.75 L 102.02499999999999,62.75 L 131.17499999999998,62.75 L 131.17499999999998,132.25 L 131.17499999999998,201.75 L 131.17499999999998,271.25 L 131.17499999999998,340.75 L 131.17499999999998,410.25 L 102.02499999999999,410.25 L 72.875,410.25 L 43.724999999999994,410.25 L 43.724999999999994,479.75 L 72.875,479.75 L 102.02499999999999,479.75 L 131.17499999999998,479.75 L 131.17499999999998,549.25 L 160.325,618.75 L 189.47499999999997,618.75 L 189.47499999999997,688.25 L 218.62499999999997,688.25 L 364.37499999999994,688.25 L 393.525,688.25 L 422.67499999999995,688.25 L 451.825,688.25 L 480.97499999999997,688.25 L 480.97499999999997,618.75 L 480.97499999999997,549.25 L 480.97499999999997,479.75 L 480.97499999999997,410.25 L 480.97499999999997,340.75 L 480.97499999999997,271.25 L 480.97499999999997,201.75 L 480.97499999999997,132.25 L 480.97499999999997,62.75zz"/>
    <glyph glyph-name=".notdef" horiz-adv-x="506"/>
    <glyph glyph-name="NULL" horiz-adv-x="6"/>
    <glyph glyph-name="NULL" horiz-adv-x="6"/>
    <glyph glyph-name="CR" unicode="&#13;" horiz-adv-x="506"/>
    <glyph glyph-name="space" unicode=" " horiz-adv-x="250"/>
    <glyph glyph-name="A" unicode="A" horiz-adv-x="726" d="M 635.2499999999999,62.75 L 671.55,62.75 L 707.8499999999999,62.75 L 707.8499999999999,-6.75 L 671.55,-6.75 L 635.2499999999999,-6.75 L 598.9499999999999,-6.75 L 562.65,-6.75 L 526.3499999999999,-6.75 L 490.04999999999995,-6.75 L 453.74999999999994,-6.75 L 453.74999999999994,62.75 L 490.04999999999995,62.75 L 526.3499999999999,62.75 L 562.65,62.75 L 526.3499999999999,132.25 L 490.04999999999995,132.25 L 490.04999999999995,201.75 L 453.74999999999994,201.75 L 417.44999999999993,201.75 L 381.15,201.75 L 344.84999999999997,201.75 L 308.54999999999995,201.75 L 272.24999999999994,201.75 L 235.95,201.75 L 199.65,201.75 L 199.65,132.25 L 163.35,132.25 L 163.35,62.75 L 127.04999999999998,62.75 L 199.65,62.75 L 235.95,62.75 L 235.95,-6.75 L 199.65,-6.75 L 163.35,-6.75 L 127.04999999999998,-6.75 L 90.75,-6.75 L 54.449999999999996,-6.75 L 18.15,-6.75 L 18.15,62.75 L 54.449999999999996,62.75 L 90.75,62.75 L 90.75,132.25 L 127.04999999999998,132.25 L 127.04999999999998,201.75 L 163.35,201.75 L 163.35,271.25 L 199.65,271.25 L 199.65,340.75 L 235.95,410.25 L 235.95,479.75 L 272.24999999999994,479.75 L 272.24999999999994,549.25 L 308.54999999999995,549.25 L 308.54999999999995,618.75 L 344.84999999999997,618.75 L 308.54999999999995,688.25 L 344.84999999999997,688.25 L 381.15,688.25 L 417.44999999999993,688.25 L 417.44999999999993,618.75 L 453.74999999999994,618.75 L 453.74999999999994,549.25 L 453.74999999999994,479.75 L 490.04999999999995,479.75 L 490.04999999999995,410.25 L 526.3499999999999,410.25 L 526.3499999999999,340.75 L 562.65,271.25 L 562.65,201.75 L 598.9499999999999,201.75 L 598.9499999999999,132.25 L 635.2499999999999,132.25 L 635.2499999999999,62.75zM 235.95,271.25 L 272.24999999999994,271.25 L 308.54999999999995,271.25 L 344.84999999999997,271.25 L 381.15,271.25 L 417.44999999999993,271.25 L 453.74999999999994,271.25 L 453.74999999999994,340.75 L 417.44999999999993,340.75 L 417.44999999999993,410.25 L 417.44999999999993,479.75 L 381.15,479.75 L 381.15,549.25 L 344.84999999999997,549.25 L 344.84999999999997,618.75 L 308.54999999999995,549.25 L 308.54999999999995,479.75 L 308.54999999999995,410.25 L 272.24999999999994,410.25 L 272.24999999999994,340.75 L 235.95,340.75 L 235.95,271.25zz"/>
    <glyph glyph-name="B" unicode="B" horiz-adv-x="631" d="M 394.375,340.75 L 425.925,340.75 L 457.47499999999997,340.75 L 489.025,340.75 L 520.575,271.25 L 552.125,271.25 L 552.125,201.75 L 583.675,201.75 L 583.675,132.25 L 552.125,132.25 L 552.125,62.75 L 520.575,62.75 L 489.025,62.75 L 457.47499999999997,62.75 L 457.47499999999997,-6.75 L 425.925,-6.75 L 394.375,-6.75 L 362.825,-6.75 L 331.275,-6.75 L 299.72499999999997,-6.75 L 268.175,-6.75 L 236.625,-6.75 L 205.07500000000002,-6.75 L 173.525,-6.75 L 141.975,-6.75 L 110.42500000000001,-6.75 L 78.875,-6.75 L 47.325,-6.75 L 47.325,62.75 L 78.875,62.75 L 110.42500000000001,62.75 L 141.975,62.75 L 141.975,132.25 L 141.975,201.75 L 141.975,271.25 L 141.975,340.75 L 141.975,410.25 L 141.975,479.75 L 141.975,549.25 L 141.975,618.75 L 110.42500000000001,618.75 L 78.875,618.75 L 47.325,618.75 L 173.525,618.75 L 205.07500000000002,618.75 L 236.625,618.75 L 268.175,618.75 L 299.72499999999997,618.75 L 331.275,618.75 L 362.825,618.75 L 394.375,618.75 L 425.925,618.75 L 457.47499999999997,618.75 L 489.025,618.75 L 489.025,549.25 L 520.575,549.25 L 520.575,479.75 L 520.575,410.25 L 489.025,410.25 L 457.47499999999997,410.25 L 394.375,340.75zM 299.72499999999997,618.75 L 268.175,618.75 L 236.625,618.75 L 236.625,549.25 L 236.625,479.75 L 236.625,410.25 L 236.625,340.75 L 268.175,340.75 L 299.72499999999997,340.75 L 331.275,340.75 L 362.825,340.75 L 394.375,340.75 L 394.375,410.25 L 425.925,410.25 L 425.925,479.75 L 425.925,549.25 L 394.375,549.25 L 394.375,618.75 L 362.825,618.75 L 331.275,618.75 L 299.72499999999997,618.75zM 331.275,62.75 L 362.825,62.75 L 394.375,62.75 L 425.925,62.75 L 457.47499999999997,62.75 L 457.47499999999997,132.25 L 489.025,132.25 L 489.025,201.75 L 457.47499999999997,201.75 L 457.47499999999997,271.25 L 425.925,271.25 L 394.375,271.25 L 394.375,340.75 L 362.825,340.75 L 331.275,340.75 L 299.72499999999997,340.75 L 268.175,340.75 L 236.625,340.75 L 236.625,271.25 L 236.625,201.75 L 236.625,132.25 L 236.625,62.75 L 268.175,62.75 L 299.72499999999997,62.75 L 331.275,62.75zz"/>
    <glyph glyph-name="C" unicode="C" horiz-adv-x="741" d="M 426.07499999999993,688.25 L 463.12499999999994,688.25 L 500.17499999999995,688.25 L 500.17499999999995,618.75 L 537.2249999999999,618.75 L 574.275,618.75 L 611.3249999999999,618.75 L 648.3749999999999,618.75 L 648.3749999999999,549.25 L 648.3749999999999,479.75 L 648.3749999999999,410.25 L 611.3249999999999,410.25 L 611.3249999999999,479.75 L 574.275,479.75 L 574.275,549.25 L 537.2249999999999,549.25 L 463.12499999999994,618.75 L 426.07499999999993,618.75 L 389.025,618.75 L 351.97499999999997,618.75 L 314.92499999999995,618.75 L 277.87499999999994,618.75 L 277.87499999999994,549.25 L 240.825,549.25 L 203.775,549.25 L 203.775,479.75 L 166.725,479.75 L 166.725,410.25 L 166.725,340.75 L 166.725,271.25 L 166.725,201.75 L 203.775,201.75 L 203.775,132.25 L 240.825,132.25 L 240.825,62.75 L 277.87499999999994,62.75 L 314.92499999999995,62.75 L 351.97499999999997,62.75 L 389.025,62.75 L 426.07499999999993,62.75 L 463.12499999999994,62.75 L 500.17499999999995,62.75 L 537.2249999999999,62.75 L 574.275,62.75 L 574.275,132.25 L 611.3249999999999,132.25 L 611.3249999999999,201.75 L 648.3749999999999,201.75 L 685.425,201.75 L 648.3749999999999,132.25 L 648.3749999999999,62.75 L 611.3249999999999,62.75 L 611.3249999999999,-6.75 L 574.275,-6.75 L 537.2249999999999,-6.75 L 500.17499999999995,-6.75 L 463.12499999999994,-6.75 L 426.07499999999993,-6.75 L 389.025,-6.75 L 351.97499999999997,-6.75 L 314.92499999999995,-6.75 L 277.87499999999994,-6.75 L 240.825,-6.75 L 203.775,62.75 L 166.725,62.75 L 129.67499999999998,62.75 L 129.67499999999998,132.25 L 92.625,132.25 L 92.625,201.75 L 55.574999999999996,201.75 L 55.574999999999996,271.25 L 55.574999999999996,340.75 L 55.574999999999996,410.25 L 92.625,410.25 L 92.625,479.75 L 129.67499999999998,479.75 L 129.67499999999998,549.25 L 166.725,549.25 L 166.725,618.75 L 203.775,618.75 L 240.825,618.75 L 351.97499999999997,688.25 L 389.025,688.25 L 426.07499999999993,688.25zz"/>
    <glyph glyph-name="D" unicode="D" horiz-adv-x="759" d="M 360.52500000000003,618.75 L 398.475,618.75 L 436.42500000000007,618.75 L 474.37500000000006,618.75 L 512.325,618.75 L 550.2750000000001,618.75 L 588.225,549.25 L 626.1750000000001,549.25 L 626.1750000000001,479.75 L 664.1250000000001,479.75 L 664.1250000000001,410.25 L 702.075,410.25 L 702.075,340.75 L 702.075,271.25 L 702.075,201.75 L 664.1250000000001,201.75 L 664.1250000000001,132.25 L 626.1750000000001,132.25 L 626.1750000000001,62.75 L 588.225,62.75 L 550.2750000000001,62.75 L 512.325,62.75 L 512.325,-6.75 L 474.37500000000006,-6.75 L 436.42500000000007,-6.75 L 398.475,-6.75 L 360.52500000000003,-6.75 L 322.57500000000005,-6.75 L 284.62500000000006,-6.75 L 246.675,-6.75 L 208.725,-6.75 L 170.775,-6.75 L 132.82500000000002,-6.75 L 94.875,-6.75 L 56.925000000000004,-6.75 L 56.925000000000004,62.75 L 94.875,62.75 L 132.82500000000002,62.75 L 132.82500000000002,132.25 L 132.82500000000002,201.75 L 132.82500000000002,271.25 L 132.82500000000002,340.75 L 132.82500000000002,410.25 L 132.82500000000002,479.75 L 132.82500000000002,549.25 L 132.82500000000002,618.75 L 94.875,618.75 L 56.925000000000004,618.75 L 170.775,618.75 L 208.725,618.75 L 246.675,618.75 L 284.62500000000006,618.75 L 322.57500000000005,618.75 L 360.52500000000003,618.75zM 360.52500000000003,62.75 L 398.475,62.75 L 436.42500000000007,62.75 L 474.37500000000006,62.75 L 512.325,62.75 L 512.325,132.25 L 550.2750000000001,132.25 L 550.2750000000001,201.75 L 588.225,201.75 L 588.225,271.25 L 588.225,340.75 L 588.225,410.25 L 588.225,479.75 L 550.2750000000001,479.75 L 550.2750000000001,549.25 L 512.325,549.25 L 474.37500000000006,549.25 L 436.42500000000007,618.75 L 398.475,618.75 L 360.52500000000003,618.75 L 322.57500000000005,618.75 L 284.62500000000006,618.75 L 246.675,618.75 L 208.725,618.75 L 208.725,549.25 L 208.725,479.75 L 208.725,410.25 L 208.725,340.75 L 208.725,271.25 L 208.725,201.75 L 208.725,132.25 L 208.725,62.75 L 246.675,62.75 L 284.62500000000006,62.75 L 322.57500000000005,62.75 L 360.52500000000003,62.75zz"/>
    <glyph glyph-name="E" unicode="E" horiz-adv-x="659" d="M 576.6250000000001,201.75 L 609.575,201.75 L 609.575,132.25 L 609.575,62.75 L 576.6250000000001,62.75 L 576.6250000000001,-6.75 L 543.6750000000001,-6.75 L 510.7250000000001,-6.75 L 477.7750000000001,-6.75 L 444.82500000000005,-6.75 L 411.87500000000006,-6.75 L 378.92500000000007,-6.75 L 345.975,-6.75 L 313.02500000000003,-6.75 L 280.07500000000005,-6.75 L 247.12500000000003,-6.75 L 214.175,-6.75 L 181.225,-6.75 L 148.275,-6.75 L 115.32500000000002,-6.75 L 82.375,-6.75 L 49.425000000000004,-6.75 L 49.425000000000004,62.75 L 82.375,62.75 L 115.32500000000002,62.75 L 148.275,62.75 L 148.275,132.25 L 148.275,201.75 L 148.275,271.25 L 148.275,340.75 L 148.275,410.25 L 148.275,479.75 L 148.275,549.25 L 148.275,618.75 L 115.32500000000002,618.75 L 82.375,618.75 L 49.425000000000004,618.75 L 181.225,618.75 L 214.175,618.75 L 247.12500000000003,618.75 L 280.07500000000005,618.75 L 313.02500000000003,618.75 L 345.975,618.75 L 378.92500000000007,618.75 L 411.87500000000006,618.75 L 444.82500000000005,618.75 L 444.82500000000005,688.25 L 477.7750000000001,688.25 L 510.7250000000001,688.25 L 543.6750000000001,688.25 L 543.6750000000001,618.75 L 543.6750000000001,549.25 L 543.6750000000001,479.75 L 576.6250000000001,479.75 L 510.7250000000001,479.75 L 510.7250000000001,549.25 L 477.7750000000001,549.25 L 477.7750000000001,618.75 L 214.175,549.25 L 214.175,479.75 L 214.175,410.25 L 214.175,340.75 L 247.12500000000003,340.75 L 280.07500000000005,340.75 L 313.02500000000003,340.75 L 345.975,340.75 L 378.92500000000007,340.75 L 411.87500000000006,340.75 L 444.82500000000005,340.75 L 444.82500000000005,410.25 L 477.7750000000001,410.25 L 477.7750000000001,340.75 L 477.7750000000001,271.25 L 444.82500000000005,271.25 L 214.175,271.25 L 214.175,201.75 L 214.175,132.25 L 214.175,62.75 L 247.12500000000003,62.75 L 280.07500000000005,62.75 L 313.02500000000003,62.75 L 345.975,62.75 L 378.92500000000007,62.75 L 411.87500000000006,62.75 L 444.82500000000005,62.75 L 477.7750000000001,62.75 L 510.7250000000001,62.75 L 543.6750000000001,62.75 L 543.6750000000001,132.25 L 576.6250000000001,132.25 L 576.6250000000001,201.75zz"/>
    <glyph glyph-name="F" unicode="F" horiz-adv-x="626" d="M 547.75,688.25 L 547.75,618.75 L 547.75,549.25 L 547.75,479.75 L 516.45,479.75 L 516.45,549.25 L 485.15,549.25 L 485.15,618.75 L 453.84999999999997,618.75 L 422.55,618.75 L 391.25,618.75 L 359.95,618.75 L 328.65,618.75 L 297.34999999999997,618.75 L 266.05,618.75 L 234.75,618.75 L 234.75,549.25 L 234.75,479.75 L 234.75,410.25 L 234.75,340.75 L 266.05,340.75 L 297.34999999999997,340.75 L 328.65,340.75 L 359.95,340.75 L 391.25,340.75 L 422.55,340.75 L 422.55,410.25 L 453.84999999999997,410.25 L 485.15,410.25 L 485.15,340.75 L 485.15,271.25 L 485.15,201.75 L 453.84999999999997,201.75 L 453.84999999999997,271.25 L 422.55,271.25 L 391.25,271.25 L 359.95,271.25 L 328.65,271.25 L 297.34999999999997,271.25 L 266.05,271.25 L 234.75,271.25 L 234.75,201.75 L 234.75,132.25 L 234.75,62.75 L 266.05,62.75 L 297.34999999999997,62.75 L 328.65,62.75 L 328.65,-6.75 L 297.34999999999997,-6.75 L 266.05,-6.75 L 234.75,-6.75 L 203.45000000000002,-6.75 L 172.15,-6.75 L 140.85,-6.75 L 109.55000000000001,-6.75 L 78.25,-6.75 L 46.95,-6.75 L 46.95,62.75 L 78.25,62.75 L 109.55000000000001,62.75 L 140.85,62.75 L 140.85,132.25 L 140.85,201.75 L 140.85,271.25 L 140.85,340.75 L 140.85,410.25 L 140.85,479.75 L 140.85,549.25 L 140.85,618.75 L 109.55000000000001,618.75 L 78.25,618.75 L 46.95,618.75 L 172.15,618.75 L 203.45000000000002,618.75 L 453.84999999999997,688.25 L 485.15,688.25 L 516.45,688.25 L 547.75,688.25zz"/>
    <glyph glyph-name="G" unicode="G" horiz-adv-x="768" d="M 710.4,340.75 L 710.4,271.25 L 672.0,271.25 L 672.0,201.75 L 672.0,132.25 L 672.0,62.75 L 672.0,-6.75 L 633.6,-6.75 L 595.2,-6.75 L 595.2,62.75 L 556.8000000000001,-6.75 L 518.4,-6.75 L 479.99999999999994,-6.75 L 441.59999999999997,-6.75 L 403.2,-6.75 L 364.79999999999995,-6.75 L 326.4,-6.75 L 288.0,-6.75 L 249.59999999999997,-6.75 L 249.59999999999997,62.75 L 211.2,62.75 L 172.79999999999998,62.75 L 134.39999999999998,62.75 L 134.39999999999998,132.25 L 96.0,132.25 L 96.0,201.75 L 57.599999999999994,201.75 L 57.599999999999994,271.25 L 57.599999999999994,340.75 L 57.599999999999994,410.25 L 96.0,479.75 L 134.39999999999998,549.25 L 172.79999999999998,549.25 L 172.79999999999998,618.75 L 211.2,618.75 L 249.59999999999997,618.75 L 288.0,618.75 L 326.4,618.75 L 364.79999999999995,688.25 L 403.2,688.25 L 441.59999999999997,688.25 L 479.99999999999994,688.25 L 479.99999999999994,618.75 L 518.4,618.75 L 556.8000000000001,618.75 L 595.2,618.75 L 633.6,618.75 L 633.6,549.25 L 633.6,479.75 L 633.6,410.25 L 595.2,410.25 L 595.2,479.75 L 595.2,549.25 L 556.8000000000001,549.25 L 441.59999999999997,618.75 L 403.2,618.75 L 364.79999999999995,618.75 L 288.0,549.25 L 249.59999999999997,549.25 L 211.2,549.25 L 211.2,479.75 L 172.79999999999998,479.75 L 172.79999999999998,410.25 L 172.79999999999998,340.75 L 172.79999999999998,271.25 L 172.79999999999998,201.75 L 211.2,132.25 L 249.59999999999997,132.25 L 288.0,62.75 L 326.4,62.75 L 364.79999999999995,62.75 L 403.2,62.75 L 441.59999999999997,62.75 L 479.99999999999994,62.75 L 518.4,62.75 L 556.8000000000001,62.75 L 556.8000000000001,132.25 L 556.8000000000001,201.75 L 556.8000000000001,271.25 L 518.4,271.25 L 479.99999999999994,271.25 L 479.99999999999994,340.75 L 518.4,340.75 L 556.8000000000001,340.75 L 595.2,340.75 L 633.6,340.75 L 672.0,340.75 L 710.4,340.75zz"/>
    <glyph glyph-name="H" unicode="H" horiz-adv-x="840" d="M 777.0,618.75 L 735.0,618.75 L 693.0,618.75 L 693.0,549.25 L 693.0,479.75 L 693.0,410.25 L 693.0,340.75 L 693.0,271.25 L 693.0,201.75 L 693.0,132.25 L 693.0,62.75 L 735.0,62.75 L 777.0,62.75 L 777.0,-6.75 L 735.0,-6.75 L 693.0,-6.75 L 651.0,-6.75 L 609.0,-6.75 L 567.0,-6.75 L 525.0,-6.75 L 525.0,62.75 L 567.0,62.75 L 609.0,62.75 L 609.0,132.25 L 609.0,201.75 L 609.0,271.25 L 609.0,340.75 L 567.0,340.75 L 525.0,340.75 L 483.0,340.75 L 441.0,340.75 L 399.0,340.75 L 357.0,340.75 L 315.0,340.75 L 273.0,340.75 L 231.0,340.75 L 231.0,271.25 L 231.0,201.75 L 231.0,132.25 L 231.0,62.75 L 273.0,62.75 L 315.0,62.75 L 315.0,-6.75 L 273.0,-6.75 L 231.0,-6.75 L 189.0,-6.75 L 147.0,-6.75 L 105.0,-6.75 L 63.0,-6.75 L 63.0,62.75 L 105.0,62.75 L 147.0,62.75 L 147.0,132.25 L 147.0,201.75 L 147.0,271.25 L 147.0,340.75 L 147.0,410.25 L 147.0,479.75 L 147.0,549.25 L 147.0,618.75 L 105.0,618.75 L 63.0,618.75 L 189.0,618.75 L 231.0,618.75 L 273.0,618.75 L 315.0,618.75 L 231.0,549.25 L 231.0,479.75 L 231.0,410.25 L 609.0,410.25 L 609.0,479.75 L 609.0,549.25 L 609.0,618.75 L 567.0,618.75 L 525.0,618.75 L 651.0,618.75 L 777.0,618.75zz"/>
    <glyph glyph-name="I" unicode="I" horiz-adv-x="369" d="M 322.875,618.75 L 304.425,618.75 L 285.975,618.75 L 267.52500000000003,618.75 L 249.075,618.75 L 230.62499999999997,618.75 L 230.62499999999997,549.25 L 230.62499999999997,479.75 L 230.62499999999997,410.25 L 230.62499999999997,340.75 L 230.62499999999997,271.25 L 230.62499999999997,201.75 L 230.62499999999997,132.25 L 230.62499999999997,62.75 L 249.075,62.75 L 267.52500000000003,62.75 L 285.975,62.75 L 304.425,62.75 L 322.875,62.75 L 322.875,-6.75 L 304.425,-6.75 L 285.975,-6.75 L 267.52500000000003,-6.75 L 249.075,-6.75 L 230.62499999999997,-6.75 L 212.17499999999998,-6.75 L 193.725,-6.75 L 175.27499999999998,-6.75 L 156.825,-6.75 L 138.375,-6.75 L 119.92499999999998,-6.75 L 101.475,-6.75 L 83.02499999999999,-6.75 L 64.57499999999999,-6.75 L 46.125,-6.75 L 46.125,62.75 L 64.57499999999999,62.75 L 83.02499999999999,62.75 L 101.475,62.75 L 119.92499999999998,62.75 L 138.375,62.75 L 138.375,132.25 L 138.375,201.75 L 138.375,271.25 L 138.375,340.75 L 138.375,410.25 L 138.375,479.75 L 138.375,549.25 L 138.375,618.75 L 119.92499999999998,618.75 L 101.475,618.75 L 83.02499999999999,618.75 L 64.57499999999999,618.75 L 46.125,618.75 L 156.825,618.75 L 175.27499999999998,618.75 L 193.725,618.75 L 212.17499999999998,618.75 L 322.875,618.75zz"/>
    <glyph glyph-name="J" unicode="J" horiz-adv-x="364" d="M 318.5,618.75 L 300.3,618.75 L 282.1,618.75 L 263.9,618.75 L 245.7,618.75 L 227.49999999999997,618.75 L 227.49999999999997,549.25 L 227.49999999999997,479.75 L 227.49999999999997,410.25 L 227.49999999999997,340.75 L 227.49999999999997,271.25 L 227.49999999999997,201.75 L 227.49999999999997,132.25 L 227.49999999999997,62.75 L 227.49999999999997,-6.75 L 209.29999999999998,-6.75 L 191.1,-6.75 L 191.1,-76.25 L 172.89999999999998,-76.25 L 154.7,-76.25 L 136.5,-76.25 L 136.5,-145.75 L 118.29999999999998,-145.75 L 100.1,-145.75 L 81.89999999999999,-145.75 L 63.699999999999996,-145.75 L 45.5,-145.75 L 45.5,-215.25 L 27.299999999999997,-215.25 L 9.1,-215.25 L 9.1,-145.75 L 27.299999999999997,-145.75 L 81.89999999999999,-76.25 L 100.1,-76.25 L 118.29999999999998,-76.25 L 118.29999999999998,-6.75 L 136.5,-6.75 L 136.5,62.75 L 136.5,132.25 L 136.5,201.75 L 136.5,271.25 L 136.5,340.75 L 136.5,410.25 L 136.5,479.75 L 136.5,549.25 L 136.5,618.75 L 118.29999999999998,618.75 L 100.1,618.75 L 81.89999999999999,618.75 L 63.699999999999996,618.75 L 45.5,618.75 L 154.7,618.75 L 172.89999999999998,618.75 L 191.1,618.75 L 209.29999999999998,618.75 L 318.5,618.75zz"/>
    <glyph glyph-name="K" unicode="K" horiz-adv-x="688" d="M 395.59999999999997,271.25 L 429.99999999999994,271.25 L 429.99999999999994,201.75 L 464.4,201.75 L 498.79999999999995,201.75 L 498.79999999999995,132.25 L 533.2,132.25 L 567.6,132.25 L 567.6,62.75 L 602.0,62.75 L 636.4,62.75 L 670.8000000000001,-6.75 L 636.4,-6.75 L 602.0,-6.75 L 567.6,-6.75 L 533.2,-6.75 L 498.79999999999995,-6.75 L 498.79999999999995,62.75 L 464.4,62.75 L 429.99999999999994,62.75 L 429.99999999999994,132.25 L 395.59999999999997,132.25 L 395.59999999999997,201.75 L 361.2,201.75 L 326.79999999999995,201.75 L 326.79999999999995,271.25 L 292.4,271.25 L 258.0,340.75 L 223.59999999999997,340.75 L 223.59999999999997,271.25 L 223.59999999999997,201.75 L 223.59999999999997,132.25 L 223.59999999999997,62.75 L 258.0,62.75 L 292.4,62.75 L 326.79999999999995,62.75 L 326.79999999999995,-6.75 L 292.4,-6.75 L 258.0,-6.75 L 223.59999999999997,-6.75 L 189.2,-6.75 L 154.79999999999998,-6.75 L 120.39999999999999,-6.75 L 86.0,-6.75 L 51.599999999999994,-6.75 L 51.599999999999994,62.75 L 86.0,62.75 L 120.39999999999999,62.75 L 154.79999999999998,62.75 L 154.79999999999998,132.25 L 154.79999999999998,201.75 L 154.79999999999998,271.25 L 154.79999999999998,340.75 L 154.79999999999998,410.25 L 154.79999999999998,479.75 L 154.79999999999998,549.25 L 154.79999999999998,618.75 L 120.39999999999999,618.75 L 86.0,618.75 L 51.599999999999994,618.75 L 189.2,618.75 L 223.59999999999997,618.75 L 258.0,618.75 L 292.4,618.75 L 326.79999999999995,618.75 L 223.59999999999997,549.25 L 223.59999999999997,479.75 L 223.59999999999997,410.25 L 292.4,340.75 L 292.4,410.25 L 326.79999999999995,410.25 L 361.2,410.25 L 361.2,479.75 L 395.59999999999997,479.75 L 429.99999999999994,479.75 L 429.99999999999994,549.25 L 464.4,549.25 L 498.79999999999995,549.25 L 498.79999999999995,618.75 L 464.4,618.75 L 429.99999999999994,618.75 L 533.2,618.75 L 567.6,618.75 L 602.0,618.75 L 636.4,618.75 L 670.8000000000001,618.75 L 567.6,549.25 L 533.2,549.25 L 498.79999999999995,479.75 L 464.4,479.75 L 429.99999999999994,410.25 L 395.59999999999997,410.25 L 326.79999999999995,340.75 L 361.2,340.75 L 361.2,271.25 L 395.59999999999997,271.25zz"/>
    <glyph glyph-name="L" unicode="L" horiz-adv-x="649" d="M 600.325,201.75 L 632.7750000000001,201.75 L 600.325,132.25 L 600.325,62.75 L 567.8750000000001,62.75 L 567.8750000000001,-6.75 L 535.4250000000001,-6.75 L 502.9750000000001,-6.75 L 470.5250000000001,-6.75 L 438.07500000000005,-6.75 L 405.62500000000006,-6.75 L 373.17500000000007,-6.75 L 340.725,-6.75 L 308.27500000000003,-6.75 L 275.82500000000005,-6.75 L 243.37500000000003,-6.75 L 210.925,-6.75 L 178.475,-6.75 L 146.025,-6.75 L 113.57500000000002,-6.75 L 81.125,-6.75 L 48.675000000000004,-6.75 L 48.675000000000004,62.75 L 81.125,62.75 L 113.57500000000002,62.75 L 146.025,62.75 L 146.025,132.25 L 146.025,201.75 L 146.025,271.25 L 146.025,340.75 L 146.025,410.25 L 146.025,479.75 L 146.025,549.25 L 146.025,618.75 L 113.57500000000002,618.75 L 81.125,618.75 L 48.675000000000004,618.75 L 178.475,618.75 L 210.925,618.75 L 243.37500000000003,618.75 L 275.82500000000005,618.75 L 308.27500000000003,618.75 L 210.925,549.25 L 210.925,479.75 L 210.925,410.25 L 210.925,340.75 L 210.925,271.25 L 210.925,201.75 L 210.925,132.25 L 210.925,62.75 L 243.37500000000003,62.75 L 275.82500000000005,62.75 L 308.27500000000003,62.75 L 340.725,62.75 L 373.17500000000007,62.75 L 405.62500000000006,62.75 L 438.07500000000005,62.75 L 470.5250000000001,62.75 L 502.9750000000001,62.75 L 535.4250000000001,62.75 L 535.4250000000001,132.25 L 567.8750000000001,132.25 L 567.8750000000001,201.75 L 600.325,201.75zz"/>
    <glyph glyph-name="M" unicode="M" horiz-adv-x="997" d="M 872.375,62.75 L 922.225,62.75 L 972.0749999999999,62.75 L 972.0749999999999,-6.75 L 922.225,-6.75 L 872.375,-6.75 L 822.525,-6.75 L 772.675,-6.75 L 722.8249999999999,-6.75 L 672.975,-6.75 L 672.975,62.75 L 722.8249999999999,62.75 L 772.675,62.75 L 772.675,132.25 L 772.675,201.75 L 772.675,271.25 L 772.675,340.75 L 772.675,410.25 L 772.675,479.75 L 722.8249999999999,479.75 L 722.8249999999999,549.25 L 672.975,479.75 L 672.975,410.25 L 672.975,340.75 L 623.125,340.75 L 623.125,271.25 L 573.275,201.75 L 573.275,132.25 L 523.425,132.25 L 523.425,62.75 L 523.425,-6.75 L 473.57500000000005,-6.75 L 473.57500000000005,62.75 L 423.725,62.75 L 423.725,132.25 L 423.725,201.75 L 373.875,201.75 L 373.875,271.25 L 324.02500000000003,271.25 L 324.02500000000003,340.75 L 324.02500000000003,410.25 L 274.175,410.25 L 274.175,479.75 L 224.32500000000002,479.75 L 224.32500000000002,549.25 L 224.32500000000002,410.25 L 224.32500000000002,340.75 L 224.32500000000002,271.25 L 224.32500000000002,201.75 L 224.32500000000002,132.25 L 224.32500000000002,62.75 L 274.175,62.75 L 324.02500000000003,62.75 L 324.02500000000003,-6.75 L 274.175,-6.75 L 224.32500000000002,-6.75 L 174.47500000000002,-6.75 L 124.625,-6.75 L 74.775,-6.75 L 74.775,62.75 L 124.625,62.75 L 174.47500000000002,62.75 L 174.47500000000002,132.25 L 174.47500000000002,201.75 L 174.47500000000002,271.25 L 174.47500000000002,340.75 L 174.47500000000002,410.25 L 174.47500000000002,479.75 L 174.47500000000002,549.25 L 174.47500000000002,618.75 L 124.625,618.75 L 74.775,618.75 L 224.32500000000002,618.75 L 274.175,618.75 L 324.02500000000003,549.25 L 324.02500000000003,479.75 L 373.875,479.75 L 373.875,410.25 L 373.875,340.75 L 423.725,340.75 L 423.725,271.25 L 473.57500000000005,271.25 L 473.57500000000005,201.75 L 473.57500000000005,132.25 L 523.425,201.75 L 573.275,271.25 L 573.275,340.75 L 623.125,410.25 L 623.125,479.75 L 672.975,549.25 L 722.8249999999999,618.75 L 772.675,618.75 L 822.525,618.75 L 872.375,618.75 L 922.225,618.75 L 822.525,549.25 L 822.525,479.75 L 822.525,410.25 L 822.525,340.75 L 872.375,340.75 L 872.375,271.25 L 872.375,201.75 L 872.375,132.25 L 872.375,62.75zz"/>
    <glyph glyph-name="N" unicode="N" horiz-adv-x="834" d="M 813.1500000000001,618.75 L 771.45,618.75 L 729.7500000000001,618.75 L 688.0500000000001,618.75 L 688.0500000000001,549.25 L 688.0500000000001,479.75 L 688.0500000000001,410.25 L 688.0500000000001,340.75 L 688.0500000000001,271.25 L 688.0500000000001,201.75 L 688.0500000000001,132.25 L 688.0500000000001,62.75 L 688.0500000000001,-6.75 L 646.35,-6.75 L 646.35,62.75 L 604.6500000000001,62.75 L 562.95,132.25 L 521.25,132.25 L 521.25,201.75 L 479.55000000000007,201.75 L 479.55000000000007,271.25 L 437.85,271.25 L 396.15000000000003,271.25 L 396.15000000000003,340.75 L 354.45000000000005,340.75 L 354.45000000000005,410.25 L 312.75000000000006,410.25 L 271.05,410.25 L 271.05,479.75 L 229.35,479.75 L 229.35,549.25 L 187.65,549.25 L 187.65,479.75 L 187.65,410.25 L 187.65,340.75 L 187.65,271.25 L 229.35,271.25 L 229.35,201.75 L 229.35,132.25 L 229.35,62.75 L 271.05,62.75 L 312.75000000000006,62.75 L 354.45000000000005,62.75 L 354.45000000000005,-6.75 L 312.75000000000006,-6.75 L 271.05,-6.75 L 229.35,-6.75 L 187.65,-6.75 L 145.95000000000002,-6.75 L 104.25,-6.75 L 62.550000000000004,-6.75 L 62.550000000000004,62.75 L 104.25,62.75 L 145.95000000000002,62.75 L 145.95000000000002,132.25 L 145.95000000000002,201.75 L 145.95000000000002,271.25 L 145.95000000000002,340.75 L 145.95000000000002,410.25 L 145.95000000000002,479.75 L 145.95000000000002,549.25 L 145.95000000000002,618.75 L 104.25,618.75 L 62.550000000000004,618.75 L 187.65,618.75 L 229.35,618.75 L 271.05,618.75 L 271.05,549.25 L 312.75000000000006,549.25 L 354.45000000000005,549.25 L 354.45000000000005,479.75 L 396.15000000000003,479.75 L 396.15000000000003,410.25 L 437.85,410.25 L 437.85,340.75 L 479.55000000000007,340.75 L 521.25,340.75 L 521.25,271.25 L 562.95,271.25 L 562.95,201.75 L 604.6500000000001,201.75 L 646.35,201.75 L 646.35,132.25 L 646.35,271.25 L 646.35,340.75 L 646.35,410.25 L 646.35,479.75 L 646.35,549.25 L 646.35,618.75 L 604.6500000000001,618.75 L 562.95,618.75 L 521.25,618.75 L 813.1500000000001,618.75zz"/>
    <glyph glyph-name="O" unicode="O" horiz-adv-x="786" d="M 412.65,-6.75 L 373.34999999999997,-6.75 L 334.04999999999995,-6.75 L 294.74999999999994,-6.75 L 255.45,-6.75 L 216.15,-6.75 L 216.15,62.75 L 176.85,62.75 L 137.54999999999998,62.75 L 137.54999999999998,132.25 L 98.25,132.25 L 98.25,201.75 L 58.949999999999996,201.75 L 58.949999999999996,271.25 L 58.949999999999996,340.75 L 58.949999999999996,410.25 L 98.25,479.75 L 98.25,549.25 L 137.54999999999998,549.25 L 176.85,549.25 L 176.85,618.75 L 216.15,618.75 L 255.45,618.75 L 294.74999999999994,618.75 L 334.04999999999995,618.75 L 334.04999999999995,688.25 L 373.34999999999997,688.25 L 412.65,688.25 L 451.94999999999993,688.25 L 451.94999999999993,618.75 L 491.24999999999994,618.75 L 530.55,618.75 L 569.8499999999999,618.75 L 609.15,618.75 L 609.15,549.25 L 648.4499999999999,549.25 L 687.7499999999999,549.25 L 687.7499999999999,479.75 L 727.05,410.25 L 727.05,340.75 L 727.05,271.25 L 727.05,201.75 L 687.7499999999999,201.75 L 687.7499999999999,132.25 L 648.4499999999999,132.25 L 648.4499999999999,62.75 L 609.15,62.75 L 569.8499999999999,62.75 L 569.8499999999999,-6.75 L 530.55,-6.75 L 491.24999999999994,-6.75 L 451.94999999999993,-6.75 L 412.65,-6.75zM 412.65,62.75 L 451.94999999999993,62.75 L 491.24999999999994,62.75 L 530.55,62.75 L 569.8499999999999,62.75 L 569.8499999999999,132.25 L 609.15,132.25 L 609.15,201.75 L 609.15,271.25 L 648.4499999999999,271.25 L 648.4499999999999,340.75 L 609.15,340.75 L 609.15,410.25 L 609.15,479.75 L 569.8499999999999,479.75 L 569.8499999999999,549.25 L 530.55,549.25 L 530.55,618.75 L 491.24999999999994,618.75 L 451.94999999999993,618.75 L 412.65,618.75 L 373.34999999999997,618.75 L 334.04999999999995,618.75 L 294.74999999999994,618.75 L 255.45,618.75 L 255.45,549.25 L 216.15,549.25 L 216.15,479.75 L 176.85,479.75 L 176.85,410.25 L 176.85,340.75 L 137.54999999999998,340.75 L 137.54999999999998,271.25 L 176.85,271.25 L 176.85,201.75 L 176.85,132.25 L 216.15,132.25 L 216.15,62.75 L 255.45,62.75 L 294.74999999999994,62.75 L 334.04999999999995,62.75 L 373.34999999999997,62.75 L 412.65,62.75zz"/>
    <glyph glyph-name="P" unicode="P" horiz-adv-x="614" d="M 291.65000000000003,271.25 L 322.35,271.25 L 353.05,271.25 L 383.75,271.25 L 383.75,340.75 L 414.45,340.75 L 445.15000000000003,340.75 L 445.15000000000003,410.25 L 475.85,410.25 L 475.85,479.75 L 475.85,549.25 L 445.15000000000003,549.25 L 414.45,549.25 L 414.45,618.75 L 383.75,618.75 L 353.05,618.75 L 322.35,618.75 L 291.65000000000003,618.75 L 260.95,618.75 L 230.25,618.75 L 230.25,549.25 L 230.25,479.75 L 230.25,410.25 L 230.25,340.75 L 230.25,271.25 L 230.25,201.75 L 230.25,132.25 L 230.25,62.75 L 260.95,62.75 L 291.65000000000003,62.75 L 322.35,62.75 L 353.05,62.75 L 353.05,-6.75 L 322.35,-6.75 L 291.65000000000003,-6.75 L 260.95,-6.75 L 230.25,-6.75 L 199.54999999999998,-6.75 L 168.85,-6.75 L 138.15,-6.75 L 107.44999999999999,-6.75 L 76.75,-6.75 L 46.05,-6.75 L 46.05,62.75 L 76.75,62.75 L 107.44999999999999,62.75 L 138.15,62.75 L 138.15,132.25 L 138.15,201.75 L 138.15,271.25 L 138.15,340.75 L 138.15,410.25 L 138.15,479.75 L 138.15,549.25 L 138.15,618.75 L 107.44999999999999,618.75 L 76.75,618.75 L 46.05,618.75 L 168.85,618.75 L 199.54999999999998,618.75 L 445.15000000000003,618.75 L 475.85,618.75 L 506.55,618.75 L 506.55,549.25 L 537.25,549.25 L 567.95,549.25 L 567.95,479.75 L 567.95,410.25 L 537.25,410.25 L 537.25,340.75 L 506.55,340.75 L 475.85,340.75 L 475.85,271.25 L 445.15000000000003,271.25 L 414.45,271.25 L 291.65000000000003,271.25zz"/>
    <glyph glyph-name="Q" unicode="Q" horiz-adv-x="786" d="M 569.8499999999999,-145.75 L 609.15,-145.75 L 648.4499999999999,-145.75 L 687.7499999999999,-145.75 L 609.15,-215.25 L 569.8499999999999,-215.25 L 530.55,-215.25 L 491.24999999999994,-215.25 L 451.94999999999993,-215.25 L 412.65,-145.75 L 373.34999999999997,-145.75 L 334.04999999999995,-145.75 L 334.04999999999995,-76.25 L 294.74999999999994,-76.25 L 294.74999999999994,-6.75 L 255.45,-6.75 L 216.15,-6.75 L 216.15,62.75 L 176.85,62.75 L 137.54999999999998,62.75 L 137.54999999999998,132.25 L 98.25,132.25 L 98.25,201.75 L 58.949999999999996,201.75 L 58.949999999999996,271.25 L 58.949999999999996,340.75 L 58.949999999999996,410.25 L 98.25,479.75 L 98.25,549.25 L 137.54999999999998,549.25 L 176.85,549.25 L 176.85,618.75 L 216.15,618.75 L 255.45,618.75 L 294.74999999999994,618.75 L 334.04999999999995,618.75 L 334.04999999999995,688.25 L 373.34999999999997,688.25 L 412.65,688.25 L 451.94999999999993,688.25 L 451.94999999999993,618.75 L 491.24999999999994,618.75 L 530.55,618.75 L 569.8499999999999,618.75 L 609.15,618.75 L 609.15,549.25 L 648.4499999999999,549.25 L 687.7499999999999,549.25 L 687.7499999999999,479.75 L 727.05,410.25 L 727.05,340.75 L 727.05,271.25 L 727.05,201.75 L 687.7499999999999,201.75 L 687.7499999999999,132.25 L 648.4499999999999,132.25 L 648.4499999999999,62.75 L 609.15,62.75 L 569.8499999999999,62.75 L 569.8499999999999,-6.75 L 530.55,-6.75 L 491.24999999999994,-6.75 L 451.94999999999993,-6.75 L 412.65,-6.75 L 373.34999999999997,-6.75 L 334.04999999999995,-6.75 L 373.34999999999997,-76.25 L 412.65,-76.25 L 451.94999999999993,-145.75 L 491.24999999999994,-145.75 L 530.55,-145.75 L 569.8499999999999,-145.75zM 137.54999999999998,340.75 L 137.54999999999998,271.25 L 176.85,271.25 L 176.85,201.75 L 176.85,132.25 L 216.15,132.25 L 216.15,62.75 L 255.45,62.75 L 294.74999999999994,62.75 L 334.04999999999995,62.75 L 373.34999999999997,62.75 L 412.65,62.75 L 451.94999999999993,62.75 L 491.24999999999994,62.75 L 530.55,62.75 L 569.8499999999999,62.75 L 569.8499999999999,132.25 L 609.15,132.25 L 609.15,201.75 L 609.15,271.25 L 648.4499999999999,271.25 L 648.4499999999999,340.75 L 609.15,340.75 L 609.15,410.25 L 609.15,479.75 L 569.8499999999999,479.75 L 569.8499999999999,549.25 L 530.55,549.25 L 530.55,618.75 L 491.24999999999994,618.75 L 451.94999999999993,618.75 L 412.65,618.75 L 373.34999999999997,618.75 L 334.04999999999995,618.75 L 294.74999999999994,618.75 L 255.45,618.75 L 255.45,549.25 L 216.15,549.25 L 216.15,479.75 L 176.85,479.75 L 176.85,410.25 L 176.85,340.75 L 137.54999999999998,340.75zz"/>
    <glyph glyph-name="R" unicode="R" horiz-adv-x="700" d="M 472.5,271.25 L 507.5,201.75 L 542.5,201.75 L 542.5,132.25 L 577.5,132.25 L 577.5,62.75 L 612.5,62.75 L 647.5,62.75 L 682.5,62.75 L 682.5,-6.75 L 647.5,-6.75 L 612.5,-6.75 L 577.5,-6.75 L 542.5,-6.75 L 542.5,62.75 L 507.5,62.75 L 472.5,62.75 L 472.5,132.25 L 437.5,132.25 L 437.5,201.75 L 402.5,201.75 L 402.5,271.25 L 367.5,271.25 L 332.5,271.25 L 297.5,271.25 L 262.5,271.25 L 227.5,271.25 L 227.5,201.75 L 227.5,132.25 L 227.5,62.75 L 262.5,62.75 L 297.5,62.75 L 332.5,62.75 L 332.5,-6.75 L 297.5,-6.75 L 262.5,-6.75 L 227.5,-6.75 L 192.5,-6.75 L 157.5,-6.75 L 122.5,-6.75 L 87.5,-6.75 L 52.5,-6.75 L 52.5,62.75 L 87.5,62.75 L 122.5,62.75 L 157.5,62.75 L 157.5,132.25 L 157.5,201.75 L 157.5,271.25 L 157.5,340.75 L 157.5,410.25 L 157.5,479.75 L 157.5,549.25 L 157.5,618.75 L 122.5,618.75 L 87.5,618.75 L 52.5,618.75 L 192.5,618.75 L 227.5,618.75 L 262.5,618.75 L 297.5,618.75 L 332.5,618.75 L 367.5,618.75 L 402.5,618.75 L 437.5,618.75 L 472.5,618.75 L 507.5,618.75 L 542.5,618.75 L 542.5,549.25 L 577.5,549.25 L 577.5,479.75 L 577.5,410.25 L 542.5,410.25 L 542.5,340.75 L 507.5,340.75 L 472.5,340.75 L 437.5,340.75 L 437.5,271.25 L 472.5,271.25zM 332.5,340.75 L 367.5,340.75 L 402.5,340.75 L 437.5,340.75 L 437.5,410.25 L 472.5,410.25 L 472.5,479.75 L 472.5,549.25 L 437.5,549.25 L 437.5,618.75 L 402.5,618.75 L 367.5,618.75 L 332.5,618.75 L 297.5,618.75 L 262.5,618.75 L 227.5,618.75 L 227.5,549.25 L 227.5,479.75 L 227.5,410.25 L 227.5,340.75 L 262.5,340.75 L 297.5,340.75 L 332.5,340.75zz"/>
    <glyph glyph-name="S" unicode="S" horiz-adv-x="554" d="M 263.15,-6.75 L 235.45,-6.75 L 207.75,-6.75 L 180.04999999999998,-6.75 L 152.35,-6.75 L 124.64999999999999,-6.75 L 96.94999999999999,62.75 L 96.94999999999999,132.25 L 69.25,132.25 L 69.25,201.75 L 96.94999999999999,201.75 L 124.64999999999999,132.25 L 152.35,132.25 L 152.35,62.75 L 180.04999999999998,62.75 L 207.75,62.75 L 235.45,62.75 L 263.15,62.75 L 290.85,62.75 L 318.55,62.75 L 346.25,62.75 L 373.95,62.75 L 401.65000000000003,62.75 L 401.65000000000003,132.25 L 401.65000000000003,201.75 L 373.95,201.75 L 346.25,271.25 L 318.55,271.25 L 290.85,271.25 L 263.15,271.25 L 235.45,271.25 L 235.45,340.75 L 207.75,340.75 L 180.04999999999998,340.75 L 152.35,340.75 L 152.35,410.25 L 124.64999999999999,410.25 L 96.94999999999999,410.25 L 96.94999999999999,479.75 L 124.64999999999999,549.25 L 152.35,549.25 L 152.35,618.75 L 180.04999999999998,618.75 L 207.75,618.75 L 235.45,618.75 L 263.15,688.25 L 290.85,688.25 L 318.55,688.25 L 346.25,688.25 L 373.95,688.25 L 373.95,618.75 L 401.65000000000003,618.75 L 429.35,618.75 L 457.05,618.75 L 457.05,549.25 L 457.05,479.75 L 429.35,479.75 L 429.35,549.25 L 401.65000000000003,549.25 L 346.25,618.75 L 318.55,618.75 L 290.85,618.75 L 263.15,618.75 L 207.75,549.25 L 180.04999999999998,549.25 L 180.04999999999998,479.75 L 207.75,479.75 L 207.75,410.25 L 235.45,410.25 L 263.15,410.25 L 290.85,410.25 L 318.55,410.25 L 318.55,340.75 L 346.25,340.75 L 373.95,340.75 L 401.65000000000003,340.75 L 429.35,340.75 L 429.35,271.25 L 457.05,271.25 L 484.75,271.25 L 484.75,201.75 L 484.75,132.25 L 484.75,62.75 L 457.05,62.75 L 429.35,62.75 L 401.65000000000003,-6.75 L 373.95,-6.75 L 346.25,-6.75 L 318.55,-6.75 L 290.85,-6.75 L 263.15,-6.75zz"/>
    <glyph glyph-name="T" unicode="T" horiz-adv-x="693" d="M 641.025,688.25 L 641.025,618.75 L 641.025,549.25 L 675.6750000000001,549.25 L 675.6750000000001,479.75 L 641.025,479.75 L 606.375,479.75 L 606.375,549.25 L 571.725,618.75 L 537.075,618.75 L 502.42499999999995,618.75 L 467.775,618.75 L 433.12499999999994,618.75 L 398.47499999999997,618.75 L 398.47499999999997,549.25 L 398.47499999999997,479.75 L 398.47499999999997,410.25 L 398.47499999999997,340.75 L 398.47499999999997,271.25 L 398.47499999999997,201.75 L 398.47499999999997,132.25 L 398.47499999999997,62.75 L 433.12499999999994,62.75 L 467.775,62.75 L 502.42499999999995,62.75 L 502.42499999999995,-6.75 L 467.775,-6.75 L 433.12499999999994,-6.75 L 398.47499999999997,-6.75 L 363.825,-6.75 L 329.17499999999995,-6.75 L 294.525,-6.75 L 259.875,-6.75 L 225.22499999999997,-6.75 L 190.575,-6.75 L 190.575,62.75 L 225.22499999999997,62.75 L 259.875,62.75 L 294.525,62.75 L 294.525,132.25 L 294.525,201.75 L 294.525,271.25 L 294.525,340.75 L 294.525,410.25 L 294.525,479.75 L 294.525,549.25 L 294.525,618.75 L 259.875,618.75 L 225.22499999999997,618.75 L 190.575,618.75 L 155.92499999999998,618.75 L 121.27499999999999,618.75 L 86.625,549.25 L 86.625,479.75 L 51.974999999999994,479.75 L 17.325,479.75 L 17.325,549.25 L 51.974999999999994,549.25 L 51.974999999999994,618.75 L 51.974999999999994,688.25 L 86.625,688.25 L 121.27499999999999,688.25 L 329.17499999999995,618.75 L 363.825,618.75 L 571.725,688.25 L 606.375,688.25 L 641.025,688.25zz"/>
    <glyph glyph-name="U" unicode="U" horiz-adv-x="824" d="M 515.0,618.75 L 556.2,618.75 L 597.4000000000001,618.75 L 638.6,618.75 L 679.8000000000001,618.75 L 721.0000000000001,618.75 L 762.2,618.75 L 679.8000000000001,549.25 L 679.8000000000001,479.75 L 679.8000000000001,410.25 L 679.8000000000001,340.75 L 679.8000000000001,271.25 L 679.8000000000001,201.75 L 679.8000000000001,132.25 L 638.6,132.25 L 638.6,62.75 L 597.4000000000001,62.75 L 556.2,62.75 L 556.2,-6.75 L 515.0,-6.75 L 473.80000000000007,-6.75 L 432.6,-6.75 L 391.40000000000003,-6.75 L 350.20000000000005,-6.75 L 309.00000000000006,-6.75 L 267.8,-6.75 L 267.8,62.75 L 226.6,62.75 L 185.4,62.75 L 185.4,132.25 L 144.20000000000002,132.25 L 144.20000000000002,201.75 L 144.20000000000002,271.25 L 144.20000000000002,340.75 L 144.20000000000002,410.25 L 144.20000000000002,479.75 L 144.20000000000002,549.25 L 144.20000000000002,618.75 L 103.0,618.75 L 61.800000000000004,618.75 L 185.4,618.75 L 226.6,618.75 L 267.8,618.75 L 309.00000000000006,618.75 L 226.6,549.25 L 226.6,479.75 L 226.6,410.25 L 226.6,340.75 L 226.6,271.25 L 226.6,201.75 L 226.6,132.25 L 267.8,132.25 L 309.00000000000006,132.25 L 309.00000000000006,62.75 L 350.20000000000005,62.75 L 391.40000000000003,62.75 L 432.6,62.75 L 473.80000000000007,62.75 L 515.0,62.75 L 556.2,132.25 L 597.4000000000001,132.25 L 597.4000000000001,201.75 L 638.6,201.75 L 638.6,271.25 L 638.6,340.75 L 638.6,410.25 L 638.6,479.75 L 638.6,549.25 L 515.0,618.75zz"/>
    <glyph glyph-name="V" unicode="V" horiz-adv-x="695" d="M 677.625,618.75 L 642.875,618.75 L 608.125,618.75 L 608.125,549.25 L 573.375,549.25 L 573.375,479.75 L 538.625,410.25 L 538.625,340.75 L 503.875,340.75 L 503.875,271.25 L 469.125,271.25 L 469.125,201.75 L 434.375,201.75 L 434.375,132.25 L 399.625,62.75 L 399.625,-6.75 L 364.875,-6.75 L 330.125,-6.75 L 295.375,-6.75 L 295.375,62.75 L 260.625,132.25 L 260.625,201.75 L 225.875,201.75 L 225.875,271.25 L 191.125,271.25 L 191.125,340.75 L 156.375,340.75 L 156.375,410.25 L 156.375,479.75 L 121.625,479.75 L 121.625,549.25 L 86.875,549.25 L 86.875,618.75 L 52.125,618.75 L 17.375,618.75 L 121.625,618.75 L 156.375,618.75 L 191.125,618.75 L 225.875,618.75 L 260.625,618.75 L 191.125,549.25 L 191.125,479.75 L 225.875,479.75 L 225.875,410.25 L 260.625,410.25 L 260.625,340.75 L 295.375,340.75 L 295.375,271.25 L 330.125,201.75 L 330.125,132.25 L 364.875,132.25 L 364.875,62.75 L 399.625,132.25 L 399.625,201.75 L 434.375,271.25 L 469.125,340.75 L 469.125,410.25 L 503.875,410.25 L 503.875,479.75 L 538.625,479.75 L 538.625,549.25 L 573.375,618.75 L 538.625,618.75 L 503.875,618.75 L 469.125,618.75 L 677.625,618.75zz"/>
    <glyph glyph-name="a" unicode="a" horiz-adv-x="502" d="M 464.35,62.75 L 489.45000000000005,62.75 L 439.25000000000006,62.75 L 439.25000000000006,-6.75 L 414.15000000000003,-6.75 L 389.05,-6.75 L 363.95000000000005,-6.75 L 338.85,-6.75 L 313.75000000000006,62.75 L 288.65000000000003,62.75 L 263.55,62.75 L 238.45000000000002,62.75 L 238.45000000000002,-6.75 L 213.35000000000002,-6.75 L 188.25000000000003,-6.75 L 163.15000000000003,-6.75 L 138.05,-6.75 L 112.95,-6.75 L 87.85000000000001,-6.75 L 87.85000000000001,62.75 L 62.75,62.75 L 62.75,132.25 L 37.650000000000006,132.25 L 62.75,201.75 L 87.85000000000001,201.75 L 112.95,201.75 L 138.05,201.75 L 163.15000000000003,201.75 L 188.25000000000003,201.75 L 188.25000000000003,271.25 L 213.35000000000002,271.25 L 238.45000000000002,271.25 L 263.55,271.25 L 288.65000000000003,271.25 L 313.75000000000006,271.25 L 313.75000000000006,340.75 L 313.75000000000006,410.25 L 288.65000000000003,410.25 L 263.55,410.25 L 263.55,479.75 L 238.45000000000002,479.75 L 213.35000000000002,479.75 L 188.25000000000003,479.75 L 163.15000000000003,479.75 L 163.15000000000003,410.25 L 138.05,410.25 L 138.05,340.75 L 112.95,340.75 L 87.85000000000001,340.75 L 62.75,340.75 L 62.75,410.25 L 87.85000000000001,410.25 L 112.95,410.25 L 112.95,479.75 L 138.05,479.75 L 288.65000000000003,479.75 L 313.75000000000006,479.75 L 338.85,479.75 L 363.95000000000005,479.75 L 363.95000000000005,410.25 L 389.05,410.25 L 389.05,340.75 L 389.05,271.25 L 389.05,201.75 L 389.05,132.25 L 389.05,62.75 L 414.15000000000003,62.75 L 464.35,62.75zM 313.75000000000006,62.75 L 313.75000000000006,132.25 L 313.75000000000006,201.75 L 313.75000000000006,271.25 L 288.65000000000003,271.25 L 288.65000000000003,201.75 L 263.55,201.75 L 238.45000000000002,201.75 L 213.35000000000002,201.75 L 188.25000000000003,201.75 L 163.15000000000003,201.75 L 138.05,201.75 L 138.05,132.25 L 138.05,62.75 L 163.15000000000003,62.75 L 188.25000000000003,62.75 L 213.35000000000002,62.75 L 238.45000000000002,62.75 L 263.55,62.75 L 288.65000000000003,62.75 L 313.75000000000006,62.75zz"/>
    <glyph glyph-name="b" unicode="b" horiz-adv-x="543" d="M 285.075,479.75 L 312.22499999999997,479.75 L 339.37499999999994,479.75 L 366.525,479.75 L 393.67499999999995,479.75 L 420.825,479.75 L 447.97499999999997,479.75 L 447.97499999999997,410.25 L 475.12499999999994,410.25 L 475.12499999999994,340.75 L 502.275,340.75 L 502.275,271.25 L 502.275,201.75 L 475.12499999999994,201.75 L 475.12499999999994,132.25 L 447.97499999999997,132.25 L 447.97499999999997,62.75 L 420.825,62.75 L 393.67499999999995,62.75 L 393.67499999999995,-6.75 L 366.525,-6.75 L 339.37499999999994,-6.75 L 312.22499999999997,-6.75 L 285.075,-6.75 L 257.925,-6.75 L 230.77499999999998,-6.75 L 203.62499999999997,-6.75 L 176.47499999999997,-6.75 L 149.325,-6.75 L 149.325,62.75 L 122.175,62.75 L 95.02499999999999,62.75 L 67.875,62.75 L 67.875,132.25 L 67.875,201.75 L 67.875,271.25 L 67.875,340.75 L 67.875,410.25 L 67.875,479.75 L 67.875,549.25 L 67.875,618.75 L 40.724999999999994,618.75 L 13.575,618.75 L 13.575,688.25 L 40.724999999999994,688.25 L 67.875,688.25 L 95.02499999999999,688.25 L 122.175,688.25 L 149.325,688.25 L 149.325,618.75 L 149.325,549.25 L 149.325,479.75 L 149.325,410.25 L 176.47499999999997,479.75 L 203.62499999999997,479.75 L 230.77499999999998,479.75 L 257.925,479.75 L 285.075,479.75zM 285.075,-6.75 L 312.22499999999997,-6.75 L 312.22499999999997,62.75 L 339.37499999999994,62.75 L 366.525,62.75 L 393.67499999999995,62.75 L 393.67499999999995,132.25 L 420.825,132.25 L 420.825,201.75 L 420.825,271.25 L 420.825,340.75 L 393.67499999999995,340.75 L 393.67499999999995,410.25 L 366.525,410.25 L 339.37499999999994,410.25 L 312.22499999999997,410.25 L 285.075,410.25 L 285.075,479.75 L 257.925,479.75 L 257.925,410.25 L 230.77499999999998,410.25 L 203.62499999999997,410.25 L 176.47499999999997,410.25 L 149.325,410.25 L 149.325,340.75 L 149.325,271.25 L 149.325,201.75 L 149.325,132.25 L 176.47499999999997,132.25 L 176.47499999999997,62.75 L 203.62499999999997,62.75 L 230.77499999999998,62.75 L 257.925,62.75 L 285.075,-6.75zz"/>
    <glyph glyph-name="c" unicode="c" horiz-adv-x="456" d="M 285.0,479.75 L 307.8,479.75 L 330.59999999999997,479.75 L 353.4,479.75 L 376.2,479.75 L 399.0,479.75 L 421.8,479.75 L 421.8,410.25 L 399.0,410.25 L 376.2,410.25 L 353.4,410.25 L 353.4,340.75 L 330.59999999999997,340.75 L 330.59999999999997,410.25 L 262.2,479.75 L 239.4,479.75 L 216.60000000000002,479.75 L 193.8,479.75 L 193.8,410.25 L 171.0,410.25 L 148.20000000000002,410.25 L 148.20000000000002,340.75 L 125.4,340.75 L 125.4,271.25 L 125.4,201.75 L 148.20000000000002,132.25 L 171.0,132.25 L 171.0,62.75 L 193.8,62.75 L 216.60000000000002,62.75 L 239.4,62.75 L 262.2,62.75 L 285.0,62.75 L 307.8,62.75 L 330.59999999999997,62.75 L 353.4,62.75 L 376.2,62.75 L 399.0,62.75 L 421.8,62.75 L 376.2,-6.75 L 353.4,-6.75 L 330.59999999999997,-6.75 L 307.8,-6.75 L 285.0,-6.75 L 262.2,-6.75 L 239.4,-6.75 L 216.60000000000002,-6.75 L 193.8,-6.75 L 171.0,-6.75 L 148.20000000000002,-6.75 L 125.4,62.75 L 102.60000000000001,62.75 L 79.80000000000001,62.75 L 79.80000000000001,132.25 L 57.0,132.25 L 57.0,201.75 L 34.2,201.75 L 34.2,271.25 L 57.0,271.25 L 57.0,340.75 L 79.80000000000001,340.75 L 79.80000000000001,410.25 L 102.60000000000001,410.25 L 125.4,410.25 L 125.4,479.75 L 148.20000000000002,479.75 L 171.0,479.75 L 285.0,479.75zz"/>
    <glyph glyph-name="d" unicode="d" horiz-adv-x="563" d="M 464.47499999999997,62.75 L 492.62499999999994,62.75 L 520.775,62.75 L 548.9250000000001,62.75 L 548.9250000000001,-6.75 L 520.775,-6.75 L 492.62499999999994,-6.75 L 464.47499999999997,-6.75 L 436.325,-6.75 L 408.17499999999995,-6.75 L 380.025,-6.75 L 380.025,62.75 L 351.87499999999994,62.75 L 323.72499999999997,62.75 L 323.72499999999997,-6.75 L 295.575,-6.75 L 267.425,-6.75 L 239.27499999999998,-6.75 L 211.12499999999997,-6.75 L 182.97499999999997,-6.75 L 154.825,-6.75 L 126.675,-6.75 L 126.675,62.75 L 98.52499999999999,62.75 L 70.375,62.75 L 70.375,132.25 L 42.224999999999994,132.25 L 42.224999999999994,201.75 L 42.224999999999994,271.25 L 42.224999999999994,340.75 L 70.375,340.75 L 70.375,410.25 L 98.52499999999999,410.25 L 126.675,410.25 L 126.675,479.75 L 154.825,479.75 L 182.97499999999997,479.75 L 211.12499999999997,479.75 L 239.27499999999998,479.75 L 267.425,479.75 L 295.575,479.75 L 323.72499999999997,479.75 L 351.87499999999994,479.75 L 380.025,479.75 L 380.025,549.25 L 380.025,618.75 L 351.87499999999994,618.75 L 323.72499999999997,618.75 L 323.72499999999997,688.25 L 351.87499999999994,688.25 L 380.025,688.25 L 408.17499999999995,688.25 L 436.325,688.25 L 464.47499999999997,688.25 L 464.47499999999997,618.75 L 464.47499999999997,549.25 L 464.47499999999997,479.75 L 464.47499999999997,410.25 L 464.47499999999997,340.75 L 464.47499999999997,271.25 L 464.47499999999997,201.75 L 464.47499999999997,132.25 L 464.47499999999997,62.75zM 126.675,271.25 L 126.675,201.75 L 126.675,132.25 L 154.825,132.25 L 182.97499999999997,132.25 L 182.97499999999997,62.75 L 211.12499999999997,62.75 L 239.27499999999998,62.75 L 267.425,62.75 L 295.575,62.75 L 323.72499999999997,62.75 L 351.87499999999994,62.75 L 380.025,62.75 L 380.025,132.25 L 380.025,201.75 L 380.025,271.25 L 380.025,340.75 L 380.025,410.25 L 351.87499999999994,410.25 L 323.72499999999997,410.25 L 323.72499999999997,479.75 L 295.575,479.75 L 267.425,479.75 L 239.27499999999998,479.75 L 211.12499999999997,479.75 L 182.97499999999997,479.75 L 182.97499999999997,410.25 L 154.825,410.25 L 126.675,340.75 L 126.675,271.25zz"/>
    <glyph glyph-name="e" unicode="e" horiz-adv-x="458" d="M 286.24999999999994,62.75 L 309.15,62.75 L 332.04999999999995,62.75 L 354.95,62.75 L 377.84999999999997,62.75 L 400.74999999999994,62.75 L 423.65,62.75 L 377.84999999999997,-6.75 L 354.95,-6.75 L 332.04999999999995,-6.75 L 309.15,-6.75 L 286.24999999999994,-6.75 L 263.34999999999997,-6.75 L 240.45,-6.75 L 217.54999999999998,-6.75 L 194.64999999999998,-6.75 L 171.74999999999997,-6.75 L 148.84999999999997,-6.75 L 125.95,-6.75 L 125.95,62.75 L 103.05,62.75 L 80.14999999999999,62.75 L 80.14999999999999,132.25 L 57.25,132.25 L 34.349999999999994,201.75 L 34.349999999999994,271.25 L 57.25,271.25 L 57.25,340.75 L 80.14999999999999,410.25 L 103.05,410.25 L 125.95,479.75 L 148.84999999999997,479.75 L 171.74999999999997,479.75 L 194.64999999999998,479.75 L 217.54999999999998,479.75 L 240.45,479.75 L 263.34999999999997,479.75 L 286.24999999999994,479.75 L 309.15,479.75 L 332.04999999999995,479.75 L 354.95,479.75 L 377.84999999999997,479.75 L 400.74999999999994,410.25 L 423.65,410.25 L 423.65,340.75 L 400.74999999999994,340.75 L 377.84999999999997,340.75 L 354.95,340.75 L 332.04999999999995,340.75 L 309.15,340.75 L 286.24999999999994,340.75 L 263.34999999999997,340.75 L 240.45,340.75 L 217.54999999999998,340.75 L 194.64999999999998,340.75 L 171.74999999999997,340.75 L 148.84999999999997,340.75 L 125.95,340.75 L 125.95,271.25 L 125.95,201.75 L 148.84999999999997,132.25 L 171.74999999999997,132.25 L 171.74999999999997,62.75 L 194.64999999999998,62.75 L 217.54999999999998,62.75 L 240.45,62.75 L 263.34999999999997,62.75 L 286.24999999999994,62.75zM 240.45,479.75 L 217.54999999999998,479.75 L 194.64999999999998,479.75 L 171.74999999999997,479.75 L 171.74999999999997,410.25 L 148.84999999999997,410.25 L 125.95,410.25 L 125.95,340.75 L 148.84999999999997,340.75 L 171.74999999999997,340.75 L 194.64999999999998,340.75 L 217.54999999999998,340.75 L 240.45,340.75 L 263.34999999999997,340.75 L 286.24999999999994,340.75 L 309.15,340.75 L 332.04999999999995,340.75 L 332.04999999999995,410.25 L 309.15,410.25 L 309.15,479.75 L 286.24999999999994,479.75 L 263.34999999999997,479.75 L 240.45,479.75zz"/>
    <glyph glyph-name="f" unicode="f" horiz-adv-x="360" d="M 333.0,688.25 L 351.0,688.25 L 351.0,618.75 L 315.0,688.25 L 297.0,688.25 L 279.0,688.25 L 261.0,688.25 L 261.0,618.75 L 243.0,618.75 L 225.0,618.75 L 207.0,618.75 L 207.0,549.25 L 207.0,479.75 L 189.0,479.75 L 225.0,479.75 L 243.0,479.75 L 261.0,479.75 L 279.0,479.75 L 297.0,479.75 L 315.0,479.75 L 333.0,479.75 L 351.0,479.75 L 351.0,410.25 L 333.0,410.25 L 315.0,410.25 L 297.0,410.25 L 279.0,410.25 L 261.0,410.25 L 243.0,410.25 L 225.0,410.25 L 207.0,410.25 L 189.0,410.25 L 189.0,340.75 L 189.0,271.25 L 189.0,201.75 L 189.0,132.25 L 189.0,62.75 L 207.0,62.75 L 225.0,62.75 L 243.0,62.75 L 243.0,-6.75 L 261.0,-6.75 L 225.0,-6.75 L 207.0,-6.75 L 189.0,-6.75 L 171.0,-6.75 L 153.0,-6.75 L 135.0,-6.75 L 117.0,-6.75 L 99.0,-6.75 L 81.0,-6.75 L 63.0,-6.75 L 63.0,62.75 L 81.0,62.75 L 99.0,62.75 L 117.0,62.75 L 117.0,132.25 L 117.0,201.75 L 117.0,271.25 L 117.0,340.75 L 117.0,410.25 L 99.0,410.25 L 81.0,410.25 L 63.0,410.25 L 45.0,410.25 L 45.0,479.75 L 63.0,479.75 L 81.0,479.75 L 99.0,479.75 L 117.0,479.75 L 117.0,549.25 L 135.0,549.25 L 153.0,549.25 L 153.0,618.75 L 171.0,618.75 L 189.0,618.75 L 189.0,688.25 L 207.0,688.25 L 225.0,688.25 L 243.0,688.25 L 333.0,688.25zz"/>
    <glyph glyph-name="g" unicode="g" horiz-adv-x="482" d="M 445.85,479.75 L 421.75000000000006,479.75 L 397.65000000000003,479.75 L 373.55,479.75 L 349.45000000000005,479.75 L 349.45000000000005,410.25 L 373.55,410.25 L 373.55,340.75 L 373.55,271.25 L 349.45000000000005,271.25 L 325.35,271.25 L 301.25000000000006,201.75 L 277.15000000000003,201.75 L 253.05,201.75 L 228.95000000000002,201.75 L 204.85000000000002,201.75 L 180.75000000000003,201.75 L 156.65000000000003,201.75 L 132.55,201.75 L 132.55,132.25 L 108.45,132.25 L 156.65000000000003,132.25 L 156.65000000000003,62.75 L 180.75000000000003,62.75 L 204.85000000000002,62.75 L 228.95000000000002,62.75 L 253.05,62.75 L 277.15000000000003,62.75 L 301.25000000000006,62.75 L 325.35,62.75 L 349.45000000000005,62.75 L 373.55,62.75 L 397.65000000000003,62.75 L 421.75000000000006,62.75 L 445.85,62.75 L 445.85,-6.75 L 445.85,-76.25 L 421.75000000000006,-76.25 L 397.65000000000003,-145.75 L 373.55,-145.75 L 349.45000000000005,-145.75 L 325.35,-145.75 L 325.35,-215.25 L 301.25000000000006,-215.25 L 277.15000000000003,-215.25 L 253.05,-215.25 L 228.95000000000002,-215.25 L 204.85000000000002,-215.25 L 180.75000000000003,-215.25 L 156.65000000000003,-215.25 L 132.55,-215.25 L 108.45,-215.25 L 84.35000000000001,-215.25 L 60.25,-145.75 L 36.150000000000006,-145.75 L 36.150000000000006,-76.25 L 36.150000000000006,-6.75 L 60.25,-6.75 L 84.35000000000001,-6.75 L 108.45,-6.75 L 132.55,-6.75 L 108.45,62.75 L 84.35000000000001,62.75 L 60.25,62.75 L 36.150000000000006,62.75 L 36.150000000000006,132.25 L 60.25,132.25 L 60.25,201.75 L 84.35000000000001,201.75 L 108.45,201.75 L 108.45,271.25 L 84.35000000000001,271.25 L 60.25,271.25 L 60.25,340.75 L 36.150000000000006,340.75 L 36.150000000000006,410.25 L 60.25,410.25 L 84.35000000000001,410.25 L 84.35000000000001,479.75 L 108.45,479.75 L 132.55,479.75 L 156.65000000000003,479.75 L 180.75000000000003,479.75 L 204.85000000000002,479.75 L 228.95000000000002,479.75 L 253.05,479.75 L 277.15000000000003,479.75 L 301.25000000000006,479.75 L 325.35,479.75 L 469.95000000000005,479.75 L 445.85,479.75zM 204.85000000000002,271.25 L 228.95000000000002,271.25 L 253.05,271.25 L 277.15000000000003,271.25 L 301.25000000000006,271.25 L 301.25000000000006,340.75 L 301.25000000000006,410.25 L 277.15000000000003,410.25 L 277.15000000000003,479.75 L 253.05,479.75 L 228.95000000000002,479.75 L 204.85000000000002,479.75 L 180.75000000000003,479.75 L 156.65000000000003,479.75 L 156.65000000000003,410.25 L 132.55,410.25 L 132.55,340.75 L 132.55,271.25 L 156.65000000000003,271.25 L 180.75000000000003,271.25 L 204.85000000000002,271.25zM 301.25000000000006,-6.75 L 277.15000000000003,-6.75 L 253.05,-6.75 L 228.95000000000002,-6.75 L 204.85000000000002,-6.75 L 180.75000000000003,-6.75 L 156.65000000000003,-6.75 L 132.55,-6.75 L 108.45,-6.75 L 108.45,-76.25 L 108.45,-145.75 L 132.55,-145.75 L 156.65000000000003,-145.75 L 180.75000000000003,-145.75 L 204.85000000000002,-145.75 L 228.95000000000002,-145.75 L 253.05,-145.75 L 277.15000000000003,-145.75 L 301.25000000000006,-145.75 L 325.35,-145.75 L 349.45000000000005,-145.75 L 373.55,-76.25 L 397.65000000000003,-76.25 L 397.65000000000003,-6.75 L 373.55,-6.75 L 349.45000000000005,-6.75 L 325.35,-6.75 L 301.25000000000006,-6.75zz"/>
    <glyph glyph-name="h" unicode="h" horiz-adv-x="555" d="M 457.875,62.75 L 485.625,62.75 L 513.375,62.75 L 513.375,-6.75 L 541.125,-6.75 L 485.625,-6.75 L 457.875,-6.75 L 430.125,-6.75 L 402.375,-6.75 L 374.625,-6.75 L 346.875,-6.75 L 319.125,-6.75 L 319.125,62.75 L 346.875,62.75 L 374.625,62.75 L 402.375,62.75 L 402.375,132.25 L 402.375,201.75 L 402.375,271.25 L 402.375,340.75 L 374.625,340.75 L 374.625,410.25 L 346.875,410.25 L 319.125,410.25 L 319.125,479.75 L 291.375,479.75 L 291.375,410.25 L 263.625,410.25 L 235.875,410.25 L 208.125,410.25 L 180.375,410.25 L 180.375,340.75 L 180.375,271.25 L 180.375,201.75 L 180.375,132.25 L 180.375,62.75 L 208.125,62.75 L 235.875,-6.75 L 208.125,-6.75 L 180.375,-6.75 L 152.625,-6.75 L 124.875,-6.75 L 97.125,-6.75 L 69.375,-6.75 L 41.625,-6.75 L 41.625,62.75 L 69.375,62.75 L 97.125,62.75 L 97.125,132.25 L 97.125,201.75 L 97.125,271.25 L 97.125,340.75 L 97.125,410.25 L 97.125,479.75 L 97.125,549.25 L 97.125,618.75 L 69.375,618.75 L 41.625,618.75 L 41.625,688.25 L 13.875,688.25 L 69.375,688.25 L 97.125,688.25 L 124.875,688.25 L 152.625,688.25 L 180.375,688.25 L 180.375,618.75 L 180.375,549.25 L 180.375,479.75 L 208.125,479.75 L 235.875,479.75 L 263.625,479.75 L 346.875,479.75 L 374.625,479.75 L 402.375,479.75 L 430.125,479.75 L 457.875,479.75 L 457.875,410.25 L 457.875,340.75 L 457.875,271.25 L 457.875,201.75 L 457.875,132.25 L 457.875,62.75zz"/>
    <glyph glyph-name="i" unicode="i" horiz-adv-x="281" d="M 147.525,618.75 L 133.475,618.75 L 119.42500000000001,618.75 L 105.37500000000001,618.75 L 91.32500000000002,618.75 L 91.32500000000002,688.25 L 105.37500000000001,688.25 L 105.37500000000001,757.75 L 119.42500000000001,757.75 L 133.475,757.75 L 147.525,757.75 L 161.57500000000002,757.75 L 175.62500000000003,757.75 L 189.675,757.75 L 189.675,688.25 L 203.72500000000002,688.25 L 203.72500000000002,618.75 L 189.675,618.75 L 175.62500000000003,618.75 L 161.57500000000002,618.75 L 147.525,618.75zM 175.62500000000003,62.75 L 189.675,62.75 L 203.72500000000002,62.75 L 217.775,62.75 L 217.775,-6.75 L 231.82500000000002,-6.75 L 203.72500000000002,-6.75 L 189.675,-6.75 L 175.62500000000003,-6.75 L 161.57500000000002,-6.75 L 147.525,-6.75 L 133.475,-6.75 L 119.42500000000001,-6.75 L 105.37500000000001,-6.75 L 91.32500000000002,-6.75 L 77.275,-6.75 L 63.225,-6.75 L 49.175000000000004,-6.75 L 35.125,-6.75 L 35.125,62.75 L 49.175000000000004,62.75 L 63.225,62.75 L 77.275,62.75 L 91.32500000000002,62.75 L 91.32500000000002,132.25 L 91.32500000000002,201.75 L 91.32500000000002,271.25 L 91.32500000000002,340.75 L 91.32500000000002,410.25 L 77.275,410.25 L 63.225,410.25 L 49.175000000000004,410.25 L 49.175000000000004,479.75 L 35.125,479.75 L 21.075000000000003,479.75 L 63.225,479.75 L 77.275,479.75 L 91.32500000000002,479.75 L 105.37500000000001,479.75 L 119.42500000000001,479.75 L 133.475,479.75 L 147.525,479.75 L 161.57500000000002,479.75 L 175.62500000000003,479.75 L 175.62500000000003,410.25 L 175.62500000000003,340.75 L 175.62500000000003,271.25 L 175.62500000000003,201.75 L 175.62500000000003,132.25 L 175.62500000000003,62.75zz"/>
    <glyph glyph-name="j" unicode="j" horiz-adv-x="287" d="M 150.675,757.75 L 165.025,757.75 L 179.375,757.75 L 193.725,757.75 L 193.725,688.25 L 208.07500000000002,688.25 L 208.07500000000002,618.75 L 193.725,618.75 L 179.375,618.75 L 165.025,618.75 L 150.675,618.75 L 136.32500000000002,618.75 L 121.975,618.75 L 107.625,618.75 L 93.27499999999999,618.75 L 93.27499999999999,688.25 L 107.625,688.25 L 107.625,757.75 L 121.975,757.75 L 136.32500000000002,757.75 L 150.675,757.75zM 35.875,479.75 L 50.224999999999994,479.75 L 64.575,479.75 L 78.925,479.75 L 93.27499999999999,479.75 L 107.625,479.75 L 121.975,479.75 L 136.32500000000002,479.75 L 150.675,479.75 L 165.025,479.75 L 179.375,479.75 L 193.725,479.75 L 193.725,410.25 L 193.725,340.75 L 193.725,271.25 L 193.725,201.75 L 193.725,132.25 L 193.725,62.75 L 193.725,-6.75 L 193.725,-76.25 L 179.375,-76.25 L 179.375,-145.75 L 165.025,-145.75 L 150.675,-145.75 L 136.32500000000002,-145.75 L 121.975,-145.75 L 107.625,-215.25 L 93.27499999999999,-215.25 L 78.925,-215.25 L 64.575,-215.25 L 50.224999999999994,-215.25 L 35.875,-215.25 L 21.525,-215.25 L 35.875,-145.75 L 50.224999999999994,-145.75 L 64.575,-145.75 L 78.925,-145.75 L 93.27499999999999,-145.75 L 107.625,-145.75 L 107.625,-76.25 L 107.625,-6.75 L 107.625,62.75 L 107.625,132.25 L 107.625,201.75 L 107.625,271.25 L 107.625,340.75 L 107.625,410.25 L 93.27499999999999,410.25 L 78.925,410.25 L 35.875,479.75zz"/>
    <glyph glyph-name="l" unicode="l" horiz-adv-x="261" d="M 176.175,62.75 L 189.22500000000002,62.75 L 202.275,62.75 L 215.32500000000002,62.75 L 228.37500000000003,-6.75 L 241.425,-6.75 L 215.32500000000002,-6.75 L 202.275,-6.75 L 189.22500000000002,-6.75 L 176.175,-6.75 L 163.12500000000003,-6.75 L 150.07500000000002,-6.75 L 137.025,-6.75 L 123.97500000000001,-6.75 L 110.92500000000001,-6.75 L 97.87500000000001,-6.75 L 84.82500000000002,-6.75 L 71.775,-6.75 L 58.725,-6.75 L 45.675000000000004,-6.75 L 32.625,-6.75 L 32.625,62.75 L 45.675000000000004,62.75 L 58.725,62.75 L 71.775,62.75 L 84.82500000000002,62.75 L 97.87500000000001,62.75 L 97.87500000000001,132.25 L 97.87500000000001,201.75 L 97.87500000000001,271.25 L 97.87500000000001,340.75 L 97.87500000000001,410.25 L 97.87500000000001,479.75 L 97.87500000000001,549.25 L 97.87500000000001,618.75 L 84.82500000000002,618.75 L 71.775,618.75 L 58.725,618.75 L 45.675000000000004,618.75 L 32.625,618.75 L 32.625,688.25 L 19.575000000000003,688.25 L 45.675000000000004,688.25 L 58.725,688.25 L 71.775,688.25 L 84.82500000000002,688.25 L 97.87500000000001,688.25 L 110.92500000000001,688.25 L 123.97500000000001,688.25 L 137.025,688.25 L 150.07500000000002,688.25 L 163.12500000000003,688.25 L 176.175,688.25 L 176.175,618.75 L 176.175,549.25 L 176.175,479.75 L 176.175,410.25 L 176.175,340.75 L 176.175,271.25 L 176.175,201.75 L 176.175,132.25 L 176.175,62.75zz"/>
    <glyph glyph-name="m" unicode="m" horiz-adv-x="843" d="M 737.625,62.75 L 779.775,62.75 L 821.9250000000001,62.75 L 821.9250000000001,-6.75 L 779.775,-6.75 L 737.625,-6.75 L 695.475,-6.75 L 653.325,-6.75 L 611.1750000000001,-6.75 L 611.1750000000001,62.75 L 653.325,62.75 L 695.475,62.75 L 695.475,132.25 L 695.475,201.75 L 695.475,271.25 L 695.475,340.75 L 695.475,410.25 L 653.325,410.25 L 611.1750000000001,410.25 L 611.1750000000001,479.75 L 569.025,479.75 L 569.025,410.25 L 526.875,410.25 L 484.72499999999997,410.25 L 442.575,410.25 L 484.72499999999997,340.75 L 484.72499999999997,271.25 L 484.72499999999997,201.75 L 484.72499999999997,132.25 L 484.72499999999997,62.75 L 526.875,62.75 L 526.875,-6.75 L 484.72499999999997,-6.75 L 442.575,-6.75 L 400.42499999999995,-6.75 L 358.275,-6.75 L 316.125,-6.75 L 316.125,62.75 L 358.275,62.75 L 400.42499999999995,62.75 L 400.42499999999995,132.25 L 400.42499999999995,201.75 L 400.42499999999995,271.25 L 400.42499999999995,340.75 L 400.42499999999995,410.25 L 358.275,410.25 L 316.125,410.25 L 316.125,479.75 L 273.97499999999997,479.75 L 273.97499999999997,410.25 L 231.825,410.25 L 189.67499999999998,410.25 L 189.67499999999998,340.75 L 189.67499999999998,271.25 L 189.67499999999998,201.75 L 189.67499999999998,132.25 L 189.67499999999998,62.75 L 231.825,62.75 L 231.825,-6.75 L 189.67499999999998,-6.75 L 147.52499999999998,-6.75 L 105.375,-6.75 L 63.224999999999994,-6.75 L 21.075,-6.75 L 21.075,62.75 L 63.224999999999994,62.75 L 105.375,62.75 L 105.375,132.25 L 105.375,201.75 L 105.375,271.25 L 105.375,340.75 L 105.375,410.25 L 63.224999999999994,410.25 L 63.224999999999994,479.75 L 21.075,479.75 L 105.375,479.75 L 147.52499999999998,479.75 L 189.67499999999998,479.75 L 231.825,479.75 L 358.275,479.75 L 400.42499999999995,479.75 L 442.575,479.75 L 484.72499999999997,479.75 L 526.875,479.75 L 653.325,479.75 L 695.475,479.75 L 737.625,479.75 L 737.625,410.25 L 737.625,340.75 L 737.625,271.25 L 737.625,201.75 L 737.625,132.25 L 737.625,62.75zz"/>
    <glyph glyph-name="n" unicode="n" horiz-adv-x="552" d="M 455.40000000000003,62.75 L 483.00000000000006,62.75 L 510.6,62.75 L 510.6,-6.75 L 538.1999999999999,-6.75 L 483.00000000000006,-6.75 L 455.40000000000003,-6.75 L 427.8,-6.75 L 400.20000000000005,-6.75 L 372.6,-6.75 L 345.00000000000006,-6.75 L 317.40000000000003,-6.75 L 317.40000000000003,62.75 L 345.00000000000006,62.75 L 372.6,62.75 L 372.6,132.25 L 372.6,201.75 L 372.6,271.25 L 372.6,340.75 L 372.6,410.25 L 345.00000000000006,410.25 L 317.40000000000003,410.25 L 317.40000000000003,479.75 L 289.8,479.75 L 289.8,410.25 L 262.2,410.25 L 234.60000000000002,410.25 L 207.00000000000003,410.25 L 179.40000000000003,410.25 L 179.40000000000003,340.75 L 179.40000000000003,271.25 L 179.40000000000003,201.75 L 179.40000000000003,132.25 L 179.40000000000003,62.75 L 207.00000000000003,62.75 L 207.00000000000003,-6.75 L 234.60000000000002,-6.75 L 179.40000000000003,-6.75 L 151.8,-6.75 L 124.2,-6.75 L 96.60000000000001,-6.75 L 69.0,-6.75 L 41.400000000000006,-6.75 L 41.400000000000006,62.75 L 69.0,62.75 L 96.60000000000001,62.75 L 96.60000000000001,132.25 L 96.60000000000001,201.75 L 96.60000000000001,271.25 L 96.60000000000001,340.75 L 96.60000000000001,410.25 L 69.0,410.25 L 41.400000000000006,479.75 L 69.0,479.75 L 96.60000000000001,479.75 L 124.2,479.75 L 151.8,479.75 L 179.40000000000003,479.75 L 207.00000000000003,479.75 L 234.60000000000002,479.75 L 262.2,479.75 L 345.00000000000006,479.75 L 372.6,479.75 L 400.20000000000005,479.75 L 427.8,479.75 L 455.40000000000003,479.75 L 455.40000000000003,410.25 L 455.40000000000003,340.75 L 455.40000000000003,271.25 L 455.40000000000003,201.75 L 455.40000000000003,132.25 L 455.40000000000003,62.75zz"/>
    <glyph glyph-name="o" unicode="o" horiz-adv-x="531" d="M 278.775,-6.75 L 252.22500000000002,-6.75 L 225.675,-6.75 L 199.125,-6.75 L 172.57500000000002,-6.75 L 146.025,-6.75 L 146.025,62.75 L 119.47500000000001,62.75 L 92.92500000000001,62.75 L 66.375,62.75 L 66.375,132.25 L 39.825,132.25 L 39.825,201.75 L 39.825,271.25 L 39.825,340.75 L 66.375,340.75 L 66.375,410.25 L 92.92500000000001,410.25 L 119.47500000000001,410.25 L 119.47500000000001,479.75 L 146.025,479.75 L 172.57500000000002,479.75 L 199.125,479.75 L 225.675,479.75 L 252.22500000000002,479.75 L 278.775,479.75 L 305.325,479.75 L 331.875,479.75 L 358.425,479.75 L 384.97499999999997,479.75 L 411.525,479.75 L 411.525,410.25 L 438.075,410.25 L 464.625,410.25 L 464.625,340.75 L 491.175,340.75 L 491.175,271.25 L 491.175,201.75 L 491.175,132.25 L 464.625,132.25 L 464.625,62.75 L 438.075,62.75 L 411.525,62.75 L 384.97499999999997,62.75 L 384.97499999999997,-6.75 L 358.425,-6.75 L 331.875,-6.75 L 305.325,-6.75 L 278.775,-6.75zM 278.775,-6.75 L 305.325,-6.75 L 305.325,62.75 L 331.875,62.75 L 358.425,62.75 L 384.97499999999997,132.25 L 384.97499999999997,201.75 L 411.525,201.75 L 411.525,271.25 L 384.97499999999997,271.25 L 384.97499999999997,340.75 L 384.97499999999997,410.25 L 358.425,410.25 L 331.875,410.25 L 331.875,479.75 L 305.325,479.75 L 278.775,479.75 L 252.22500000000002,479.75 L 225.675,479.75 L 199.125,479.75 L 199.125,410.25 L 172.57500000000002,410.25 L 146.025,410.25 L 146.025,340.75 L 146.025,271.25 L 119.47500000000001,271.25 L 119.47500000000001,201.75 L 146.025,201.75 L 146.025,132.25 L 172.57500000000002,62.75 L 199.125,62.75 L 225.675,62.75 L 225.675,-6.75 L 252.22500000000002,-6.75 L 278.775,-6.75zz"/>
    <glyph glyph-name="p" unicode="p" horiz-adv-x="561" d="M 294.525,-6.75 L 266.475,-6.75 L 238.425,-6.75 L 210.375,-6.75 L 182.32500000000002,-6.75 L 182.32500000000002,62.75 L 182.32500000000002,-76.25 L 182.32500000000002,-145.75 L 210.375,-145.75 L 238.425,-145.75 L 266.475,-145.75 L 294.525,-145.75 L 322.575,-145.75 L 322.575,-215.25 L 294.525,-215.25 L 266.475,-215.25 L 238.425,-215.25 L 210.375,-215.25 L 182.32500000000002,-215.25 L 154.275,-215.25 L 126.22500000000001,-215.25 L 98.17500000000001,-215.25 L 70.125,-215.25 L 42.075,-215.25 L 14.025,-215.25 L 14.025,-145.75 L 42.075,-145.75 L 70.125,-145.75 L 98.17500000000001,-145.75 L 98.17500000000001,-76.25 L 98.17500000000001,-6.75 L 98.17500000000001,62.75 L 98.17500000000001,132.25 L 98.17500000000001,201.75 L 98.17500000000001,271.25 L 98.17500000000001,340.75 L 98.17500000000001,410.25 L 70.125,410.25 L 42.075,410.25 L 42.075,479.75 L 14.025,479.75 L 70.125,479.75 L 98.17500000000001,479.75 L 126.22500000000001,479.75 L 154.275,479.75 L 182.32500000000002,479.75 L 182.32500000000002,410.25 L 210.375,479.75 L 238.425,479.75 L 266.475,479.75 L 294.525,479.75 L 322.575,479.75 L 350.625,479.75 L 378.675,479.75 L 406.72499999999997,479.75 L 434.775,479.75 L 462.825,479.75 L 462.825,410.25 L 490.875,410.25 L 490.875,340.75 L 518.9250000000001,340.75 L 518.9250000000001,271.25 L 518.9250000000001,201.75 L 518.9250000000001,132.25 L 490.875,132.25 L 462.825,132.25 L 462.825,62.75 L 434.775,62.75 L 406.72499999999997,62.75 L 406.72499999999997,-6.75 L 378.675,-6.75 L 350.625,-6.75 L 322.575,-6.75 L 294.525,-6.75zM 294.525,479.75 L 266.475,410.25 L 238.425,410.25 L 210.375,410.25 L 182.32500000000002,410.25 L 182.32500000000002,340.75 L 182.32500000000002,271.25 L 182.32500000000002,201.75 L 182.32500000000002,132.25 L 210.375,62.75 L 238.425,62.75 L 266.475,62.75 L 294.525,62.75 L 294.525,-6.75 L 322.575,-6.75 L 322.575,62.75 L 350.625,62.75 L 378.675,62.75 L 406.72499999999997,62.75 L 406.72499999999997,132.25 L 434.775,132.25 L 434.775,201.75 L 434.775,271.25 L 434.775,340.75 L 406.72499999999997,340.75 L 406.72499999999997,410.25 L 378.675,410.25 L 350.625,410.25 L 322.575,410.25 L 322.575,479.75 L 294.525,479.75zz"/>
    <glyph glyph-name="q" unicode="q" horiz-adv-x="551" d="M 454.575,-145.75 L 482.125,-145.75 L 509.675,-145.75 L 537.225,-145.75 L 537.225,-215.25 L 509.675,-215.25 L 482.125,-215.25 L 454.575,-215.25 L 427.025,-215.25 L 399.47499999999997,-215.25 L 371.925,-215.25 L 344.375,-215.25 L 316.825,-215.25 L 289.275,-215.25 L 261.725,-215.25 L 261.725,-145.75 L 289.275,-145.75 L 316.825,-145.75 L 344.375,-145.75 L 371.925,-145.75 L 399.47499999999997,-145.75 L 399.47499999999997,-76.25 L 399.47499999999997,-6.75 L 399.47499999999997,62.75 L 371.925,62.75 L 344.375,62.75 L 344.375,-6.75 L 316.825,-6.75 L 289.275,-6.75 L 261.725,-6.75 L 234.175,-6.75 L 206.625,-6.75 L 179.07500000000002,-6.75 L 151.525,-6.75 L 123.97500000000001,-6.75 L 123.97500000000001,62.75 L 96.42500000000001,62.75 L 68.875,62.75 L 68.875,132.25 L 41.325,132.25 L 41.325,201.75 L 41.325,271.25 L 41.325,340.75 L 68.875,340.75 L 68.875,410.25 L 96.42500000000001,410.25 L 123.97500000000001,410.25 L 123.97500000000001,479.75 L 151.525,479.75 L 179.07500000000002,479.75 L 206.625,479.75 L 234.175,479.75 L 261.725,479.75 L 289.275,479.75 L 316.825,479.75 L 344.375,479.75 L 371.925,479.75 L 399.47499999999997,479.75 L 427.025,479.75 L 454.575,479.75 L 454.575,410.25 L 454.575,340.75 L 454.575,271.25 L 454.575,201.75 L 454.575,132.25 L 454.575,62.75 L 454.575,-6.75 L 454.575,-76.25 L 454.575,-145.75zM 261.725,62.75 L 289.275,62.75 L 316.825,62.75 L 344.375,62.75 L 371.925,62.75 L 399.47499999999997,62.75 L 399.47499999999997,132.25 L 399.47499999999997,201.75 L 399.47499999999997,271.25 L 399.47499999999997,340.75 L 371.925,340.75 L 371.925,410.25 L 344.375,410.25 L 344.375,479.75 L 316.825,479.75 L 289.275,479.75 L 261.725,479.75 L 234.175,479.75 L 206.625,479.75 L 179.07500000000002,479.75 L 179.07500000000002,410.25 L 151.525,410.25 L 151.525,340.75 L 123.97500000000001,340.75 L 123.97500000000001,271.25 L 123.97500000000001,201.75 L 151.525,201.75 L 151.525,132.25 L 179.07500000000002,132.25 L 179.07500000000002,62.75 L 206.625,62.75 L 234.175,62.75 L 261.725,62.75zz"/>
    <glyph glyph-name="r" unicode="r" horiz-adv-x="394" d="M 305.35,479.75 L 325.05,479.75 L 344.75,479.75 L 364.45,479.75 L 364.45,410.25 L 344.75,410.25 L 325.05,410.25 L 305.35,410.25 L 285.65000000000003,410.25 L 265.95,410.25 L 246.24999999999997,410.25 L 226.54999999999998,410.25 L 206.85,410.25 L 187.14999999999998,410.25 L 167.45,410.25 L 167.45,340.75 L 167.45,271.25 L 167.45,201.75 L 167.45,132.25 L 167.45,62.75 L 187.14999999999998,62.75 L 206.85,62.75 L 226.54999999999998,62.75 L 226.54999999999998,-6.75 L 206.85,-6.75 L 187.14999999999998,-6.75 L 167.45,-6.75 L 147.75,-6.75 L 128.04999999999998,-6.75 L 108.35,-6.75 L 88.64999999999999,-6.75 L 68.94999999999999,-6.75 L 49.25,-6.75 L 29.549999999999997,-6.75 L 29.549999999999997,62.75 L 49.25,62.75 L 68.94999999999999,62.75 L 88.64999999999999,62.75 L 88.64999999999999,132.25 L 88.64999999999999,201.75 L 88.64999999999999,271.25 L 88.64999999999999,340.75 L 88.64999999999999,410.25 L 68.94999999999999,410.25 L 49.25,410.25 L 49.25,479.75 L 29.549999999999997,479.75 L 68.94999999999999,479.75 L 88.64999999999999,479.75 L 108.35,479.75 L 128.04999999999998,479.75 L 147.75,479.75 L 167.45,479.75 L 206.85,479.75 L 226.54999999999998,479.75 L 246.24999999999997,479.75 L 265.95,479.75 L 285.65000000000003,479.75 L 305.35,479.75zz"/>
    <glyph glyph-name="s" unicode="s" horiz-adv-x="411" d="M 215.775,-6.75 L 195.22500000000002,-6.75 L 174.675,-6.75 L 154.125,-6.75 L 133.57500000000002,-6.75 L 113.025,-6.75 L 92.47500000000001,-6.75 L 71.92500000000001,-6.75 L 71.92500000000001,62.75 L 51.375,62.75 L 51.375,132.25 L 71.92500000000001,132.25 L 71.92500000000001,201.75 L 92.47500000000001,132.25 L 113.025,62.75 L 133.57500000000002,62.75 L 154.125,62.75 L 174.675,62.75 L 195.22500000000002,62.75 L 236.32500000000002,-6.75 L 236.32500000000002,62.75 L 256.875,62.75 L 277.425,62.75 L 297.97499999999997,62.75 L 297.97499999999997,132.25 L 277.425,132.25 L 256.875,132.25 L 256.875,201.75 L 236.32500000000002,201.75 L 215.775,201.75 L 195.22500000000002,201.75 L 174.675,201.75 L 154.125,201.75 L 154.125,271.25 L 133.57500000000002,271.25 L 113.025,271.25 L 92.47500000000001,271.25 L 92.47500000000001,340.75 L 71.92500000000001,340.75 L 71.92500000000001,410.25 L 92.47500000000001,410.25 L 92.47500000000001,479.75 L 113.025,479.75 L 133.57500000000002,479.75 L 154.125,479.75 L 174.675,479.75 L 195.22500000000002,479.75 L 215.775,479.75 L 236.32500000000002,479.75 L 256.875,479.75 L 277.425,479.75 L 297.97499999999997,479.75 L 318.525,479.75 L 318.525,410.25 L 318.525,340.75 L 297.97499999999997,340.75 L 297.97499999999997,410.25 L 277.425,410.25 L 154.125,410.25 L 154.125,340.75 L 174.675,340.75 L 195.22500000000002,340.75 L 195.22500000000002,271.25 L 215.775,271.25 L 236.32500000000002,271.25 L 256.875,271.25 L 277.425,271.25 L 297.97499999999997,271.25 L 318.525,201.75 L 339.075,201.75 L 359.625,201.75 L 359.625,132.25 L 359.625,62.75 L 339.075,62.75 L 318.525,62.75 L 318.525,-6.75 L 297.97499999999997,-6.75 L 277.425,-6.75 L 256.875,-6.75 L 215.775,-6.75zz"/>
    <glyph glyph-name="t" unicode="t" horiz-adv-x="365" d="M 246.375,62.75 L 264.625,62.75 L 282.875,62.75 L 301.125,62.75 L 319.375,62.75 L 282.875,-6.75 L 264.625,-6.75 L 246.375,-6.75 L 228.125,-6.75 L 209.875,-6.75 L 191.625,-6.75 L 173.375,-6.75 L 155.125,-6.75 L 136.875,-6.75 L 118.625,-6.75 L 118.625,62.75 L 100.375,62.75 L 100.375,132.25 L 100.375,201.75 L 100.375,271.25 L 100.375,340.75 L 100.375,410.25 L 100.375,479.75 L 82.125,479.75 L 63.875,479.75 L 45.625,479.75 L 27.375,479.75 L 82.125,549.25 L 100.375,549.25 L 118.625,549.25 L 136.875,549.25 L 155.125,549.25 L 155.125,618.75 L 173.375,618.75 L 173.375,549.25 L 173.375,479.75 L 191.625,479.75 L 209.875,479.75 L 228.125,479.75 L 246.375,479.75 L 264.625,479.75 L 282.875,479.75 L 301.125,479.75 L 319.375,479.75 L 337.625,479.75 L 173.375,410.25 L 173.375,340.75 L 173.375,271.25 L 173.375,201.75 L 173.375,132.25 L 173.375,62.75 L 191.625,62.75 L 209.875,62.75 L 228.125,62.75 L 246.375,62.75zz"/>
    <glyph glyph-name="u" unicode="u" horiz-adv-x="544" d="M 448.8,62.75 L 476.0,62.75 L 503.2,62.75 L 530.4,62.75 L 530.4,-6.75 L 503.2,-6.75 L 476.0,-6.75 L 448.8,-6.75 L 421.6,-6.75 L 394.40000000000003,-6.75 L 367.2,-6.75 L 367.2,62.75 L 340.0,62.75 L 312.8,62.75 L 312.8,-6.75 L 285.6,-6.75 L 258.4,-6.75 L 231.2,-6.75 L 204.0,-6.75 L 176.79999999999998,-6.75 L 149.6,-6.75 L 122.39999999999999,-6.75 L 122.39999999999999,62.75 L 95.19999999999999,62.75 L 68.0,62.75 L 68.0,132.25 L 68.0,201.75 L 68.0,271.25 L 68.0,340.75 L 68.0,410.25 L 68.0,479.75 L 95.19999999999999,479.75 L 122.39999999999999,479.75 L 149.6,479.75 L 149.6,410.25 L 149.6,340.75 L 149.6,271.25 L 149.6,201.75 L 149.6,132.25 L 149.6,62.75 L 176.79999999999998,62.75 L 204.0,62.75 L 231.2,62.75 L 258.4,62.75 L 285.6,62.75 L 367.2,132.25 L 367.2,201.75 L 367.2,271.25 L 367.2,340.75 L 367.2,410.25 L 340.0,410.25 L 340.0,479.75 L 312.8,479.75 L 285.6,479.75 L 367.2,479.75 L 394.40000000000003,479.75 L 421.6,479.75 L 448.8,479.75 L 448.8,410.25 L 448.8,340.75 L 448.8,271.25 L 448.8,201.75 L 448.8,132.25 L 448.8,62.75zz"/>
    <glyph glyph-name="v" unicode="v" horiz-adv-x="498" d="M 485.54999999999995,479.75 L 460.65,479.75 L 435.74999999999994,479.75 L 435.74999999999994,410.25 L 410.84999999999997,410.25 L 410.84999999999997,340.75 L 385.95,340.75 L 385.95,271.25 L 361.04999999999995,271.25 L 361.04999999999995,201.75 L 336.15,201.75 L 311.24999999999994,132.25 L 286.34999999999997,132.25 L 286.34999999999997,62.75 L 261.45,62.75 L 261.45,-6.75 L 236.54999999999998,-6.75 L 211.64999999999998,-6.75 L 211.64999999999998,62.75 L 186.74999999999997,62.75 L 186.74999999999997,132.25 L 161.84999999999997,132.25 L 161.84999999999997,201.75 L 136.95,201.75 L 136.95,271.25 L 112.05,271.25 L 112.05,340.75 L 87.14999999999999,340.75 L 87.14999999999999,410.25 L 62.25,410.25 L 62.25,479.75 L 37.349999999999994,479.75 L 12.45,479.75 L 87.14999999999999,479.75 L 112.05,479.75 L 136.95,479.75 L 161.84999999999997,479.75 L 186.74999999999997,479.75 L 211.64999999999998,479.75 L 136.95,410.25 L 161.84999999999997,410.25 L 161.84999999999997,340.75 L 186.74999999999997,340.75 L 186.74999999999997,271.25 L 211.64999999999998,271.25 L 211.64999999999998,201.75 L 236.54999999999998,201.75 L 261.45,132.25 L 286.34999999999997,201.75 L 311.24999999999994,201.75 L 311.24999999999994,271.25 L 336.15,271.25 L 336.15,340.75 L 361.04999999999995,340.75 L 361.04999999999995,410.25 L 385.95,410.25 L 385.95,479.75 L 361.04999999999995,479.75 L 336.15,479.75 L 311.24999999999994,479.75 L 410.84999999999997,479.75 L 485.54999999999995,479.75zz"/>
    <glyph glyph-name="x" unicode="x" horiz-adv-x="479" d="M 395.175,479.75 L 395.175,410.25 L 371.225,410.25 L 347.27500000000003,410.25 L 347.27500000000003,340.75 L 323.325,340.75 L 299.375,340.75 L 299.375,271.25 L 275.425,271.25 L 299.375,201.75 L 323.325,201.75 L 323.325,132.25 L 347.27500000000003,132.25 L 371.225,132.25 L 371.225,62.75 L 395.175,62.75 L 419.125,62.75 L 443.075,62.75 L 443.075,-6.75 L 419.125,-6.75 L 395.175,-6.75 L 371.225,-6.75 L 347.27500000000003,-6.75 L 323.325,-6.75 L 299.375,-6.75 L 275.425,-6.75 L 251.475,-6.75 L 251.475,62.75 L 275.425,62.75 L 299.375,62.75 L 323.325,62.75 L 275.425,132.25 L 251.475,132.25 L 251.475,201.75 L 227.52499999999998,201.75 L 203.575,201.75 L 203.575,132.25 L 179.625,132.25 L 155.67499999999998,132.25 L 155.67499999999998,62.75 L 131.725,62.75 L 179.625,62.75 L 179.625,-6.75 L 155.67499999999998,-6.75 L 131.725,-6.75 L 107.77499999999999,-6.75 L 83.82499999999999,-6.75 L 59.875,-6.75 L 35.925,-6.75 L 35.925,62.75 L 59.875,62.75 L 83.82499999999999,62.75 L 107.77499999999999,62.75 L 107.77499999999999,132.25 L 131.725,132.25 L 155.67499999999998,201.75 L 179.625,201.75 L 203.575,271.25 L 179.625,271.25 L 155.67499999999998,271.25 L 155.67499999999998,340.75 L 131.725,340.75 L 107.77499999999999,340.75 L 107.77499999999999,410.25 L 83.82499999999999,410.25 L 59.875,479.75 L 35.925,479.75 L 83.82499999999999,479.75 L 107.77499999999999,479.75 L 131.725,479.75 L 155.67499999999998,479.75 L 179.625,479.75 L 203.575,479.75 L 227.52499999999998,479.75 L 155.67499999999998,410.25 L 179.625,410.25 L 203.575,410.25 L 203.575,340.75 L 227.52499999999998,340.75 L 251.475,340.75 L 251.475,271.25 L 275.425,340.75 L 299.375,410.25 L 323.325,410.25 L 347.27500000000003,479.75 L 323.325,479.75 L 299.375,479.75 L 371.225,479.75 L 419.125,479.75 L 443.075,479.75 L 395.175,479.75zz"/>
    <glyph glyph-name="y" unicode="y" horiz-adv-x="511" d="M 498.22499999999997,479.75 L 472.675,479.75 L 447.125,479.75 L 447.125,410.25 L 421.575,410.25 L 421.575,340.75 L 396.025,340.75 L 396.025,271.25 L 370.47499999999997,271.25 L 370.47499999999997,201.75 L 344.925,201.75 L 344.925,132.25 L 319.375,132.25 L 319.375,62.75 L 293.825,62.75 L 268.275,-6.75 L 268.275,-76.25 L 242.72500000000002,-76.25 L 242.72500000000002,-145.75 L 217.175,-145.75 L 217.175,-215.25 L 191.625,-215.25 L 166.07500000000002,-215.25 L 140.525,-215.25 L 140.525,-145.75 L 166.07500000000002,-145.75 L 166.07500000000002,-76.25 L 191.625,-76.25 L 191.625,-6.75 L 217.175,-6.75 L 242.72500000000002,-6.75 L 217.175,62.75 L 191.625,62.75 L 191.625,132.25 L 166.07500000000002,132.25 L 166.07500000000002,201.75 L 140.525,201.75 L 140.525,271.25 L 114.97500000000001,271.25 L 114.97500000000001,340.75 L 89.42500000000001,340.75 L 89.42500000000001,410.25 L 63.875,410.25 L 63.875,479.75 L 38.325,479.75 L 12.775,479.75 L 89.42500000000001,479.75 L 114.97500000000001,479.75 L 140.525,479.75 L 166.07500000000002,479.75 L 191.625,479.75 L 217.175,479.75 L 140.525,410.25 L 166.07500000000002,410.25 L 166.07500000000002,340.75 L 191.625,340.75 L 191.625,271.25 L 217.175,271.25 L 242.72500000000002,201.75 L 268.275,201.75 L 268.275,132.25 L 293.825,132.25 L 293.825,201.75 L 319.375,201.75 L 319.375,271.25 L 344.925,271.25 L 344.925,340.75 L 370.47499999999997,340.75 L 370.47499999999997,410.25 L 396.025,410.25 L 396.025,479.75 L 421.575,479.75 L 370.47499999999997,479.75 L 344.925,479.75 L 319.375,479.75 L 498.22499999999997,479.75zz"/>
    <glyph glyph-name="Z" unicode="Z" horiz-adv-x="647" d="M 566.125,201.75 L 598.475,201.75 L 598.475,132.25 L 598.475,62.75 L 566.125,62.75 L 566.125,-6.75 L 533.775,-6.75 L 501.425,-6.75 L 469.07500000000005,-6.75 L 436.725,-6.75 L 404.37500000000006,-6.75 L 372.02500000000003,-6.75 L 339.675,-6.75 L 307.32500000000005,-6.75 L 274.975,-6.75 L 242.62500000000003,-6.75 L 210.27500000000003,-6.75 L 177.925,-6.75 L 145.57500000000002,-6.75 L 113.22500000000001,-6.75 L 80.875,-6.75 L 48.525000000000006,-6.75 L 48.525000000000006,62.75 L 80.875,62.75 L 113.22500000000001,132.25 L 145.57500000000002,132.25 L 145.57500000000002,201.75 L 177.925,201.75 L 177.925,271.25 L 210.27500000000003,271.25 L 242.62500000000003,271.25 L 242.62500000000003,340.75 L 274.975,340.75 L 307.32500000000005,410.25 L 339.675,410.25 L 339.675,479.75 L 372.02500000000003,479.75 L 372.02500000000003,549.25 L 404.37500000000006,549.25 L 436.725,549.25 L 436.725,618.75 L 404.37500000000006,618.75 L 372.02500000000003,618.75 L 339.675,618.75 L 307.32500000000005,618.75 L 274.975,618.75 L 242.62500000000003,618.75 L 210.27500000000003,618.75 L 177.925,618.75 L 145.57500000000002,618.75 L 145.57500000000002,549.25 L 113.22500000000001,549.25 L 113.22500000000001,479.75 L 80.875,479.75 L 48.525000000000006,479.75 L 48.525000000000006,549.25 L 80.875,549.25 L 80.875,618.75 L 80.875,688.25 L 113.22500000000001,688.25 L 145.57500000000002,688.25 L 177.925,688.25 L 469.07500000000005,618.75 L 501.425,618.75 L 533.775,618.75 L 566.125,618.75 L 533.775,549.25 L 501.425,549.25 L 469.07500000000005,549.25 L 469.07500000000005,479.75 L 436.725,479.75 L 436.725,410.25 L 404.37500000000006,410.25 L 372.02500000000003,410.25 L 372.02500000000003,340.75 L 339.675,340.75 L 339.675,271.25 L 307.32500000000005,271.25 L 274.975,271.25 L 274.975,201.75 L 242.62500000000003,201.75 L 242.62500000000003,132.25 L 210.27500000000003,132.25 L 177.925,62.75 L 145.57500000000002,62.75 L 210.27500000000003,62.75 L 242.62500000000003,62.75 L 274.975,62.75 L 307.32500000000005,62.75 L 339.675,62.75 L 372.02500000000003,62.75 L 404.37500000000006,62.75 L 436.725,62.75 L 469.07500000000005,62.75 L 501.425,62.75 L 533.775,62.75 L 533.775,132.25 L 566.125,132.25 L 566.125,201.75zz"/>
    <glyph glyph-name="Aacute" unicode="&#193;" horiz-adv-x="726" d="M 526.3499999999999,827.25 L 490.04999999999995,827.25 L 453.74999999999994,827.25 L 453.74999999999994,757.75 L 417.44999999999993,757.75 L 381.15,757.75 L 344.84999999999997,757.75 L 308.54999999999995,757.75 L 344.84999999999997,827.25 L 381.15,827.25 L 417.44999999999993,827.25 L 453.74999999999994,896.75 L 490.04999999999995,896.75 L 526.3499999999999,896.75 L 526.3499999999999,827.25zM 635.2499999999999,62.75 L 671.55,62.75 L 707.8499999999999,62.75 L 707.8499999999999,-6.75 L 671.55,-6.75 L 635.2499999999999,-6.75 L 598.9499999999999,-6.75 L 562.65,-6.75 L 526.3499999999999,-6.75 L 490.04999999999995,-6.75 L 453.74999999999994,-6.75 L 453.74999999999994,62.75 L 490.04999999999995,62.75 L 526.3499999999999,62.75 L 562.65,62.75 L 526.3499999999999,132.25 L 490.04999999999995,132.25 L 490.04999999999995,201.75 L 453.74999999999994,201.75 L 417.44999999999993,201.75 L 381.15,201.75 L 344.84999999999997,201.75 L 308.54999999999995,201.75 L 272.24999999999994,201.75 L 235.95,201.75 L 199.65,201.75 L 199.65,132.25 L 163.35,132.25 L 163.35,62.75 L 127.04999999999998,62.75 L 199.65,62.75 L 235.95,62.75 L 235.95,-6.75 L 199.65,-6.75 L 163.35,-6.75 L 127.04999999999998,-6.75 L 90.75,-6.75 L 54.449999999999996,-6.75 L 18.15,-6.75 L 18.15,62.75 L 54.449999999999996,62.75 L 90.75,62.75 L 90.75,132.25 L 127.04999999999998,132.25 L 127.04999999999998,201.75 L 163.35,201.75 L 163.35,271.25 L 199.65,271.25 L 199.65,340.75 L 235.95,410.25 L 235.95,479.75 L 272.24999999999994,479.75 L 272.24999999999994,549.25 L 308.54999999999995,549.25 L 308.54999999999995,618.75 L 344.84999999999997,618.75 L 308.54999999999995,688.25 L 344.84999999999997,688.25 L 381.15,688.25 L 417.44999999999993,688.25 L 417.44999999999993,618.75 L 453.74999999999994,618.75 L 453.74999999999994,549.25 L 453.74999999999994,479.75 L 490.04999999999995,479.75 L 490.04999999999995,410.25 L 526.3499999999999,410.25 L 526.3499999999999,340.75 L 562.65,271.25 L 562.65,201.75 L 598.9499999999999,201.75 L 598.9499999999999,132.25 L 635.2499999999999,132.25 L 635.2499999999999,62.75zM 235.95,271.25 L 272.24999999999994,271.25 L 308.54999999999995,271.25 L 344.84999999999997,271.25 L 381.15,271.25 L 417.44999999999993,271.25 L 453.74999999999994,271.25 L 453.74999999999994,340.75 L 417.44999999999993,340.75 L 417.44999999999993,410.25 L 417.44999999999993,479.75 L 381.15,479.75 L 381.15,549.25 L 344.84999999999997,549.25 L 344.84999999999997,618.75 L 308.54999999999995,549.25 L 308.54999999999995,479.75 L 308.54999999999995,410.25 L 272.24999999999994,410.25 L 272.24999999999994,340.75 L 235.95,340.75 L 235.95,271.25zz"/>
    <glyph glyph-name="Abreve" unicode="&#258;" horiz-adv-x="726" d="M 381.15,757.75 L 344.84999999999997,757.75 L 308.54999999999995,757.75 L 272.24999999999994,757.75 L 272.24999999999994,827.25 L 235.95,827.25 L 235.95,896.75 L 272.24999999999994,896.75 L 308.54999999999995,827.25 L 344.84999999999997,827.25 L 381.15,827.25 L 417.44999999999993,827.25 L 453.74999999999994,827.25 L 453.74999999999994,896.75 L 490.04999999999995,896.75 L 490.04999999999995,827.25 L 490.04999999999995,757.75 L 453.74999999999994,757.75 L 417.44999999999993,757.75 L 381.15,757.75zM 635.2499999999999,62.75 L 671.55,62.75 L 707.8499999999999,62.75 L 707.8499999999999,-6.75 L 671.55,-6.75 L 635.2499999999999,-6.75 L 598.9499999999999,-6.75 L 562.65,-6.75 L 526.3499999999999,-6.75 L 490.04999999999995,-6.75 L 453.74999999999994,-6.75 L 453.74999999999994,62.75 L 490.04999999999995,62.75 L 526.3499999999999,62.75 L 562.65,62.75 L 526.3499999999999,132.25 L 490.04999999999995,132.25 L 490.04999999999995,201.75 L 453.74999999999994,201.75 L 417.44999999999993,201.75 L 381.15,201.75 L 344.84999999999997,201.75 L 308.54999999999995,201.75 L 272.24999999999994,201.75 L 235.95,201.75 L 199.65,201.75 L 199.65,132.25 L 163.35,132.25 L 163.35,62.75 L 127.04999999999998,62.75 L 199.65,62.75 L 235.95,62.75 L 235.95,-6.75 L 199.65,-6.75 L 163.35,-6.75 L 127.04999999999998,-6.75 L 90.75,-6.75 L 54.449999999999996,-6.75 L 18.15,-6.75 L 18.15,62.75 L 54.449999999999996,62.75 L 90.75,62.75 L 90.75,132.25 L 127.04999999999998,132.25 L 127.04999999999998,201.75 L 163.35,201.75 L 163.35,271.25 L 199.65,271.25 L 199.65,340.75 L 235.95,410.25 L 235.95,479.75 L 272.24999999999994,479.75 L 272.24999999999994,549.25 L 308.54999999999995,549.25 L 308.54999999999995,618.75 L 344.84999999999997,618.75 L 308.54999999999995,688.25 L 344.84999999999997,688.25 L 381.15,688.25 L 417.44999999999993,688.25 L 417.44999999999993,618.75 L 453.74999999999994,618.75 L 453.74999999999994,549.25 L 453.74999999999994,479.75 L 490.04999999999995,479.75 L 490.04999999999995,410.25 L 526.3499999999999,410.25 L 526.3499999999999,340.75 L 562.65,271.25 L 562.65,201.75 L 598.9499999999999,201.75 L 598.9499999999999,132.25 L 635.2499999999999,132.25 L 635.2499999999999,62.75zM 235.95,271.25 L 272.24999999999994,271.25 L 308.54999999999995,271.25 L 344.84999999999997,271.25 L 381.15,271.25 L 417.44999999999993,271.25 L 453.74999999999994,271.25 L 453.74999999999994,340.75 L 417.44999999999993,340.75 L 417.44999999999993,410.25 L 417.44999999999993,479.75 L 381.15,479.75 L 381.15,549.25 L 344.84999999999997,549.25 L 344.84999999999997,618.75 L 308.54999999999995,549.25 L 308.54999999999995,479.75 L 308.54999999999995,410.25 L 272.24999999999994,410.25 L 272.24999999999994,340.75 L 235.95,340.75 L 235.95,271.25zz"/>
    <glyph glyph-name="Acircumflex" unicode="&#194;" horiz-adv-x="726" d="M 381.15,827.25 L 344.84999999999997,827.25 L 344.84999999999997,757.75 L 308.54999999999995,757.75 L 272.24999999999994,757.75 L 235.95,757.75 L 272.24999999999994,827.25 L 308.54999999999995,827.25 L 344.84999999999997,896.75 L 381.15,896.75 L 417.44999999999993,896.75 L 417.44999999999993,827.25 L 453.74999999999994,827.25 L 453.74999999999994,757.75 L 490.04999999999995,757.75 L 526.3499999999999,757.75 L 417.44999999999993,757.75 L 381.15,827.25zM 635.2499999999999,62.75 L 671.55,62.75 L 707.8499999999999,62.75 L 707.8499999999999,-6.75 L 671.55,-6.75 L 635.2499999999999,-6.75 L 598.9499999999999,-6.75 L 562.65,-6.75 L 526.3499999999999,-6.75 L 490.04999999999995,-6.75 L 453.74999999999994,-6.75 L 453.74999999999994,62.75 L 490.04999999999995,62.75 L 526.3499999999999,62.75 L 562.65,62.75 L 526.3499999999999,132.25 L 490.04999999999995,132.25 L 490.04999999999995,201.75 L 453.74999999999994,201.75 L 417.44999999999993,201.75 L 381.15,201.75 L 344.84999999999997,201.75 L 308.54999999999995,201.75 L 272.24999999999994,201.75 L 235.95,201.75 L 199.65,201.75 L 199.65,132.25 L 163.35,132.25 L 163.35,62.75 L 127.04999999999998,62.75 L 199.65,62.75 L 235.95,62.75 L 235.95,-6.75 L 199.65,-6.75 L 163.35,-6.75 L 127.04999999999998,-6.75 L 90.75,-6.75 L 54.449999999999996,-6.75 L 18.15,-6.75 L 18.15,62.75 L 54.449999999999996,62.75 L 90.75,62.75 L 90.75,132.25 L 127.04999999999998,132.25 L 127.04999999999998,201.75 L 163.35,201.75 L 163.35,271.25 L 199.65,271.25 L 199.65,340.75 L 235.95,410.25 L 235.95,479.75 L 272.24999999999994,479.75 L 272.24999999999994,549.25 L 308.54999999999995,549.25 L 308.54999999999995,618.75 L 344.84999999999997,618.75 L 308.54999999999995,688.25 L 344.84999999999997,688.25 L 381.15,688.25 L 417.44999999999993,688.25 L 417.44999999999993,618.75 L 453.74999999999994,618.75 L 453.74999999999994,549.25 L 453.74999999999994,479.75 L 490.04999999999995,479.75 L 490.04999999999995,410.25 L 526.3499999999999,410.25 L 526.3499999999999,340.75 L 562.65,271.25 L 562.65,201.75 L 598.9499999999999,201.75 L 598.9499999999999,132.25 L 635.2499999999999,132.25 L 635.2499999999999,62.75zM 235.95,271.25 L 272.24999999999994,271.25 L 308.54999999999995,271.25 L 344.84999999999997,271.25 L 381.15,271.25 L 417.44999999999993,271.25 L 453.74999999999994,271.25 L 453.74999999999994,340.75 L 417.44999999999993,340.75 L 417.44999999999993,410.25 L 417.44999999999993,479.75 L 381.15,479.75 L 381.15,549.25 L 344.84999999999997,549.25 L 344.84999999999997,618.75 L 308.54999999999995,549.25 L 308.54999999999995,479.75 L 308.54999999999995,410.25 L 272.24999999999994,410.25 L 272.24999999999994,340.75 L 235.95,340.75 L 235.95,271.25zz"/>
    <glyph glyph-name="Adieresis" unicode="&#196;" horiz-adv-x="726" d="M 272.24999999999994,757.75 L 235.95,757.75 L 235.95,827.25 L 235.95,896.75 L 272.24999999999994,896.75 L 308.54999999999995,896.75 L 308.54999999999995,827.25 L 344.84999999999997,827.25 L 308.54999999999995,757.75 L 272.24999999999994,757.75zM 490.04999999999995,757.75 L 453.74999999999994,757.75 L 417.44999999999993,757.75 L 417.44999999999993,827.25 L 453.74999999999994,827.25 L 453.74999999999994,896.75 L 490.04999999999995,896.75 L 490.04999999999995,827.25 L 526.3499999999999,827.25 L 526.3499999999999,757.75 L 490.04999999999995,757.75zM 635.2499999999999,62.75 L 671.55,62.75 L 707.8499999999999,62.75 L 707.8499999999999,-6.75 L 671.55,-6.75 L 635.2499999999999,-6.75 L 598.9499999999999,-6.75 L 562.65,-6.75 L 526.3499999999999,-6.75 L 490.04999999999995,-6.75 L 453.74999999999994,-6.75 L 453.74999999999994,62.75 L 490.04999999999995,62.75 L 526.3499999999999,62.75 L 562.65,62.75 L 526.3499999999999,132.25 L 490.04999999999995,132.25 L 490.04999999999995,201.75 L 453.74999999999994,201.75 L 417.44999999999993,201.75 L 381.15,201.75 L 344.84999999999997,201.75 L 308.54999999999995,201.75 L 272.24999999999994,201.75 L 235.95,201.75 L 199.65,201.75 L 199.65,132.25 L 163.35,132.25 L 163.35,62.75 L 127.04999999999998,62.75 L 199.65,62.75 L 235.95,62.75 L 235.95,-6.75 L 199.65,-6.75 L 163.35,-6.75 L 127.04999999999998,-6.75 L 90.75,-6.75 L 54.449999999999996,-6.75 L 18.15,-6.75 L 18.15,62.75 L 54.449999999999996,62.75 L 90.75,62.75 L 90.75,132.25 L 127.04999999999998,132.25 L 127.04999999999998,201.75 L 163.35,201.75 L 163.35,271.25 L 199.65,271.25 L 199.65,340.75 L 235.95,410.25 L 235.95,479.75 L 272.24999999999994,479.75 L 272.24999999999994,549.25 L 308.54999999999995,549.25 L 308.54999999999995,618.75 L 344.84999999999997,618.75 L 308.54999999999995,688.25 L 344.84999999999997,688.25 L 381.15,688.25 L 417.44999999999993,688.25 L 417.44999999999993,618.75 L 453.74999999999994,618.75 L 453.74999999999994,549.25 L 453.74999999999994,479.75 L 490.04999999999995,479.75 L 490.04999999999995,410.25 L 526.3499999999999,410.25 L 526.3499999999999,340.75 L 562.65,271.25 L 562.65,201.75 L 598.9499999999999,201.75 L 598.9499999999999,132.25 L 635.2499999999999,132.25 L 635.2499999999999,62.75zM 235.95,271.25 L 272.24999999999994,271.25 L 308.54999999999995,271.25 L 344.84999999999997,271.25 L 381.15,271.25 L 417.44999999999993,271.25 L 453.74999999999994,271.25 L 453.74999999999994,340.75 L 417.44999999999993,340.75 L 417.44999999999993,410.25 L 417.44999999999993,479.75 L 381.15,479.75 L 381.15,549.25 L 344.84999999999997,549.25 L 344.84999999999997,618.75 L 308.54999999999995,549.25 L 308.54999999999995,479.75 L 308.54999999999995,410.25 L 272.24999999999994,410.25 L 272.24999999999994,340.75 L 235.95,340.75 L 235.95,271.25zz"/>
    <glyph glyph-name="Agrave" unicode="&#192;" horiz-adv-x="726" d="M 453.74999999999994,757.75 L 417.44999999999993,757.75 L 381.15,757.75 L 344.84999999999997,757.75 L 308.54999999999995,757.75 L 308.54999999999995,827.25 L 272.24999999999994,827.25 L 235.95,827.25 L 199.65,827.25 L 235.95,896.75 L 272.24999999999994,896.75 L 308.54999999999995,896.75 L 344.84999999999997,827.25 L 381.15,827.25 L 417.44999999999993,827.25 L 453.74999999999994,757.75zM 635.2499999999999,62.75 L 671.55,62.75 L 707.8499999999999,62.75 L 707.8499999999999,-6.75 L 671.55,-6.75 L 635.2499999999999,-6.75 L 598.9499999999999,-6.75 L 562.65,-6.75 L 526.3499999999999,-6.75 L 490.04999999999995,-6.75 L 453.74999999999994,-6.75 L 453.74999999999994,62.75 L 490.04999999999995,62.75 L 526.3499999999999,62.75 L 562.65,62.75 L 526.3499999999999,132.25 L 490.04999999999995,132.25 L 490.04999999999995,201.75 L 453.74999999999994,201.75 L 417.44999999999993,201.75 L 381.15,201.75 L 344.84999999999997,201.75 L 308.54999999999995,201.75 L 272.24999999999994,201.75 L 235.95,201.75 L 199.65,201.75 L 199.65,132.25 L 163.35,132.25 L 163.35,62.75 L 127.04999999999998,62.75 L 199.65,62.75 L 235.95,62.75 L 235.95,-6.75 L 199.65,-6.75 L 163.35,-6.75 L 127.04999999999998,-6.75 L 90.75,-6.75 L 54.449999999999996,-6.75 L 18.15,-6.75 L 18.15,62.75 L 54.449999999999996,62.75 L 90.75,62.75 L 90.75,132.25 L 127.04999999999998,132.25 L 127.04999999999998,201.75 L 163.35,201.75 L 163.35,271.25 L 199.65,271.25 L 199.65,340.75 L 235.95,410.25 L 235.95,479.75 L 272.24999999999994,479.75 L 272.24999999999994,549.25 L 308.54999999999995,549.25 L 308.54999999999995,618.75 L 344.84999999999997,618.75 L 308.54999999999995,688.25 L 344.84999999999997,688.25 L 381.15,688.25 L 417.44999999999993,688.25 L 417.44999999999993,618.75 L 453.74999999999994,618.75 L 453.74999999999994,549.25 L 453.74999999999994,479.75 L 490.04999999999995,479.75 L 490.04999999999995,410.25 L 526.3499999999999,410.25 L 526.3499999999999,340.75 L 562.65,271.25 L 562.65,201.75 L 598.9499999999999,201.75 L 598.9499999999999,132.25 L 635.2499999999999,132.25 L 635.2499999999999,62.75zM 235.95,271.25 L 272.24999999999994,271.25 L 308.54999999999995,271.25 L 344.84999999999997,271.25 L 381.15,271.25 L 417.44999999999993,271.25 L 453.74999999999994,271.25 L 453.74999999999994,340.75 L 417.44999999999993,340.75 L 417.44999999999993,410.25 L 417.44999999999993,479.75 L 381.15,479.75 L 381.15,549.25 L 344.84999999999997,549.25 L 344.84999999999997,618.75 L 308.54999999999995,549.25 L 308.54999999999995,479.75 L 308.54999999999995,410.25 L 272.24999999999994,410.25 L 272.24999999999994,340.75 L 235.95,340.75 L 235.95,271.25zz"/>
    <glyph glyph-name="Amacron" unicode="&#256;" horiz-adv-x="726" d="M 562.65,827.25 L 562.65,757.75 L 526.3499999999999,757.75 L 490.04999999999995,757.75 L 453.74999999999994,757.75 L 417.44999999999993,757.75 L 381.15,757.75 L 344.84999999999997,757.75 L 308.54999999999995,757.75 L 272.24999999999994,757.75 L 235.95,757.75 L 199.65,757.75 L 199.65,827.25 L 235.95,827.25 L 272.24999999999994,827.25 L 308.54999999999995,827.25 L 344.84999999999997,827.25 L 381.15,827.25 L 417.44999999999993,827.25 L 453.74999999999994,827.25 L 490.04999999999995,827.25 L 526.3499999999999,827.25 L 562.65,827.25zM 635.2499999999999,62.75 L 671.55,62.75 L 707.8499999999999,62.75 L 707.8499999999999,-6.75 L 671.55,-6.75 L 635.2499999999999,-6.75 L 598.9499999999999,-6.75 L 562.65,-6.75 L 526.3499999999999,-6.75 L 490.04999999999995,-6.75 L 453.74999999999994,-6.75 L 453.74999999999994,62.75 L 490.04999999999995,62.75 L 526.3499999999999,62.75 L 562.65,62.75 L 526.3499999999999,132.25 L 490.04999999999995,132.25 L 490.04999999999995,201.75 L 453.74999999999994,201.75 L 417.44999999999993,201.75 L 381.15,201.75 L 344.84999999999997,201.75 L 308.54999999999995,201.75 L 272.24999999999994,201.75 L 235.95,201.75 L 199.65,201.75 L 199.65,132.25 L 163.35,132.25 L 163.35,62.75 L 127.04999999999998,62.75 L 199.65,62.75 L 235.95,62.75 L 235.95,-6.75 L 199.65,-6.75 L 163.35,-6.75 L 127.04999999999998,-6.75 L 90.75,-6.75 L 54.449999999999996,-6.75 L 18.15,-6.75 L 18.15,62.75 L 54.449999999999996,62.75 L 90.75,62.75 L 90.75,132.25 L 127.04999999999998,132.25 L 127.04999999999998,201.75 L 163.35,201.75 L 163.35,271.25 L 199.65,271.25 L 199.65,340.75 L 235.95,410.25 L 235.95,479.75 L 272.24999999999994,479.75 L 272.24999999999994,549.25 L 308.54999999999995,549.25 L 308.54999999999995,618.75 L 344.84999999999997,618.75 L 308.54999999999995,688.25 L 344.84999999999997,688.25 L 381.15,688.25 L 417.44999999999993,688.25 L 417.44999999999993,618.75 L 453.74999999999994,618.75 L 453.74999999999994,549.25 L 453.74999999999994,479.75 L 490.04999999999995,479.75 L 490.04999999999995,410.25 L 526.3499999999999,410.25 L 526.3499999999999,340.75 L 562.65,271.25 L 562.65,201.75 L 598.9499999999999,201.75 L 598.9499999999999,132.25 L 635.2499999999999,132.25 L 635.2499999999999,62.75zM 235.95,271.25 L 272.24999999999994,271.25 L 308.54999999999995,271.25 L 344.84999999999997,271.25 L 381.15,271.25 L 417.44999999999993,271.25 L 453.74999999999994,271.25 L 453.74999999999994,340.75 L 417.44999999999993,340.75 L 417.44999999999993,410.25 L 417.44999999999993,479.75 L 381.15,479.75 L 381.15,549.25 L 344.84999999999997,549.25 L 344.84999999999997,618.75 L 308.54999999999995,549.25 L 308.54999999999995,479.75 L 308.54999999999995,410.25 L 272.24999999999994,410.25 L 272.24999999999994,340.75 L 235.95,340.75 L 235.95,271.25zz"/>
    <glyph glyph-name="Aogonek" unicode="&#260;" horiz-adv-x="726" d="M 598.9499999999999,-6.75 L 562.65,-6.75 L 562.65,-76.25 L 526.3499999999999,-76.25 L 526.3499999999999,-145.75 L 562.65,-145.75 L 598.9499999999999,-145.75 L 635.2499999999999,-145.75 L 671.55,-145.75 L 635.2499999999999,-215.25 L 598.9499999999999,-215.25 L 562.65,-215.25 L 526.3499999999999,-215.25 L 490.04999999999995,-215.25 L 490.04999999999995,-145.75 L 490.04999999999995,-76.25 L 526.3499999999999,-6.75 L 490.04999999999995,-6.75 L 453.74999999999994,-6.75 L 453.74999999999994,62.75 L 490.04999999999995,62.75 L 526.3499999999999,62.75 L 562.65,62.75 L 526.3499999999999,132.25 L 490.04999999999995,132.25 L 490.04999999999995,201.75 L 453.74999999999994,201.75 L 417.44999999999993,201.75 L 381.15,201.75 L 344.84999999999997,201.75 L 308.54999999999995,201.75 L 272.24999999999994,201.75 L 235.95,201.75 L 199.65,201.75 L 199.65,132.25 L 163.35,132.25 L 163.35,62.75 L 127.04999999999998,62.75 L 199.65,62.75 L 235.95,62.75 L 235.95,-6.75 L 199.65,-6.75 L 163.35,-6.75 L 127.04999999999998,-6.75 L 90.75,-6.75 L 54.449999999999996,-6.75 L 18.15,-6.75 L 18.15,62.75 L 54.449999999999996,62.75 L 90.75,62.75 L 90.75,132.25 L 127.04999999999998,132.25 L 127.04999999999998,201.75 L 163.35,201.75 L 163.35,271.25 L 199.65,271.25 L 199.65,340.75 L 235.95,410.25 L 235.95,479.75 L 272.24999999999994,479.75 L 272.24999999999994,549.25 L 308.54999999999995,549.25 L 308.54999999999995,618.75 L 344.84999999999997,618.75 L 308.54999999999995,688.25 L 344.84999999999997,688.25 L 381.15,688.25 L 417.44999999999993,688.25 L 417.44999999999993,618.75 L 453.74999999999994,618.75 L 453.74999999999994,549.25 L 453.74999999999994,479.75 L 490.04999999999995,479.75 L 490.04999999999995,410.25 L 526.3499999999999,410.25 L 526.3499999999999,340.75 L 562.65,271.25 L 562.65,201.75 L 598.9499999999999,201.75 L 598.9499999999999,132.25 L 635.2499999999999,132.25 L 635.2499999999999,62.75 L 671.55,62.75 L 707.8499999999999,62.75 L 707.8499999999999,-6.75 L 671.55,-6.75 L 635.2499999999999,-6.75 L 598.9499999999999,-6.75zM 235.95,271.25 L 272.24999999999994,271.25 L 308.54999999999995,271.25 L 344.84999999999997,271.25 L 381.15,271.25 L 417.44999999999993,271.25 L 453.74999999999994,271.25 L 453.74999999999994,340.75 L 417.44999999999993,340.75 L 417.44999999999993,410.25 L 417.44999999999993,479.75 L 381.15,479.75 L 381.15,549.25 L 344.84999999999997,549.25 L 344.84999999999997,618.75 L 308.54999999999995,549.25 L 308.54999999999995,479.75 L 308.54999999999995,410.25 L 272.24999999999994,410.25 L 272.24999999999994,340.75 L 235.95,340.75 L 235.95,271.25zz"/>
    <glyph glyph-name="Aring" unicode="&#197;" horiz-adv-x="726" d="M 381.15,757.75 L 344.84999999999997,757.75 L 308.54999999999995,757.75 L 272.24999999999994,757.75 L 272.24999999999994,827.25 L 272.24999999999994,896.75 L 308.54999999999995,896.75 L 344.84999999999997,896.75 L 381.15,896.75 L 417.44999999999993,896.75 L 453.74999999999994,896.75 L 453.74999999999994,827.25 L 490.04999999999995,827.25 L 453.74999999999994,757.75 L 417.44999999999993,757.75 L 381.15,757.75zM 381.15,896.75 L 344.84999999999997,896.75 L 308.54999999999995,827.25 L 308.54999999999995,757.75 L 344.84999999999997,757.75 L 381.15,757.75 L 417.44999999999993,757.75 L 417.44999999999993,827.25 L 417.44999999999993,896.75 L 381.15,896.75zM 635.2499999999999,62.75 L 671.55,62.75 L 707.8499999999999,62.75 L 707.8499999999999,-6.75 L 671.55,-6.75 L 635.2499999999999,-6.75 L 598.9499999999999,-6.75 L 562.65,-6.75 L 526.3499999999999,-6.75 L 490.04999999999995,-6.75 L 453.74999999999994,-6.75 L 453.74999999999994,62.75 L 490.04999999999995,62.75 L 526.3499999999999,62.75 L 562.65,62.75 L 526.3499999999999,132.25 L 490.04999999999995,132.25 L 490.04999999999995,201.75 L 453.74999999999994,201.75 L 417.44999999999993,201.75 L 381.15,201.75 L 344.84999999999997,201.75 L 308.54999999999995,201.75 L 272.24999999999994,201.75 L 235.95,201.75 L 199.65,201.75 L 199.65,132.25 L 163.35,132.25 L 163.35,62.75 L 127.04999999999998,62.75 L 199.65,62.75 L 235.95,62.75 L 235.95,-6.75 L 199.65,-6.75 L 163.35,-6.75 L 127.04999999999998,-6.75 L 90.75,-6.75 L 54.449999999999996,-6.75 L 18.15,-6.75 L 18.15,62.75 L 54.449999999999996,62.75 L 90.75,62.75 L 90.75,132.25 L 127.04999999999998,132.25 L 127.04999999999998,201.75 L 163.35,201.75 L 163.35,271.25 L 199.65,271.25 L 199.65,340.75 L 235.95,410.25 L 235.95,479.75 L 272.24999999999994,479.75 L 272.24999999999994,549.25 L 308.54999999999995,549.25 L 308.54999999999995,618.75 L 344.84999999999997,618.75 L 308.54999999999995,688.25 L 344.84999999999997,688.25 L 381.15,688.25 L 417.44999999999993,688.25 L 417.44999999999993,618.75 L 453.74999999999994,618.75 L 453.74999999999994,549.25 L 453.74999999999994,479.75 L 490.04999999999995,479.75 L 490.04999999999995,410.25 L 526.3499999999999,410.25 L 526.3499999999999,340.75 L 562.65,271.25 L 562.65,201.75 L 598.9499999999999,201.75 L 598.9499999999999,132.25 L 635.2499999999999,132.25 L 635.2499999999999,62.75zM 235.95,271.25 L 272.24999999999994,271.25 L 308.54999999999995,271.25 L 344.84999999999997,271.25 L 381.15,271.25 L 417.44999999999993,271.25 L 453.74999999999994,271.25 L 453.74999999999994,340.75 L 417.44999999999993,340.75 L 417.44999999999993,410.25 L 417.44999999999993,479.75 L 381.15,479.75 L 381.15,549.25 L 344.84999999999997,549.25 L 344.84999999999997,618.75 L 308.54999999999995,549.25 L 308.54999999999995,479.75 L 308.54999999999995,410.25 L 272.24999999999994,410.25 L 272.24999999999994,340.75 L 235.95,340.75 L 235.95,271.25zz"/>
    <glyph glyph-name="Atilde" unicode="&#195;" horiz-adv-x="726" d="M 272.24999999999994,827.25 L 272.24999999999994,757.75 L 235.95,757.75 L 199.65,757.75 L 199.65,827.25 L 235.95,827.25 L 272.24999999999994,896.75 L 308.54999999999995,896.75 L 308.54999999999995,827.25 L 344.84999999999997,827.25 L 381.15,827.25 L 417.44999999999993,827.25 L 453.74999999999994,827.25 L 490.04999999999995,827.25 L 526.3499999999999,827.25 L 526.3499999999999,896.75 L 526.3499999999999,757.75 L 490.04999999999995,757.75 L 453.74999999999994,757.75 L 417.44999999999993,757.75 L 381.15,757.75 L 344.84999999999997,757.75 L 272.24999999999994,827.25zM 635.2499999999999,62.75 L 671.55,62.75 L 707.8499999999999,62.75 L 707.8499999999999,-6.75 L 671.55,-6.75 L 635.2499999999999,-6.75 L 598.9499999999999,-6.75 L 562.65,-6.75 L 526.3499999999999,-6.75 L 490.04999999999995,-6.75 L 453.74999999999994,-6.75 L 453.74999999999994,62.75 L 490.04999999999995,62.75 L 526.3499999999999,62.75 L 562.65,62.75 L 526.3499999999999,132.25 L 490.04999999999995,132.25 L 490.04999999999995,201.75 L 453.74999999999994,201.75 L 417.44999999999993,201.75 L 381.15,201.75 L 344.84999999999997,201.75 L 308.54999999999995,201.75 L 272.24999999999994,201.75 L 235.95,201.75 L 199.65,201.75 L 199.65,132.25 L 163.35,132.25 L 163.35,62.75 L 127.04999999999998,62.75 L 199.65,62.75 L 235.95,62.75 L 235.95,-6.75 L 199.65,-6.75 L 163.35,-6.75 L 127.04999999999998,-6.75 L 90.75,-6.75 L 54.449999999999996,-6.75 L 18.15,-6.75 L 18.15,62.75 L 54.449999999999996,62.75 L 90.75,62.75 L 90.75,132.25 L 127.04999999999998,132.25 L 127.04999999999998,201.75 L 163.35,201.75 L 163.35,271.25 L 199.65,271.25 L 199.65,340.75 L 235.95,410.25 L 235.95,479.75 L 272.24999999999994,479.75 L 272.24999999999994,549.25 L 308.54999999999995,549.25 L 308.54999999999995,618.75 L 344.84999999999997,618.75 L 308.54999999999995,688.25 L 344.84999999999997,688.25 L 381.15,688.25 L 417.44999999999993,688.25 L 417.44999999999993,618.75 L 453.74999999999994,618.75 L 453.74999999999994,549.25 L 453.74999999999994,479.75 L 490.04999999999995,479.75 L 490.04999999999995,410.25 L 526.3499999999999,410.25 L 526.3499999999999,340.75 L 562.65,271.25 L 562.65,201.75 L 598.9499999999999,201.75 L 598.9499999999999,132.25 L 635.2499999999999,132.25 L 635.2499999999999,62.75zM 235.95,271.25 L 272.24999999999994,271.25 L 308.54999999999995,271.25 L 344.84999999999997,271.25 L 381.15,271.25 L 417.44999999999993,271.25 L 453.74999999999994,271.25 L 453.74999999999994,340.75 L 417.44999999999993,340.75 L 417.44999999999993,410.25 L 417.44999999999993,479.75 L 381.15,479.75 L 381.15,549.25 L 344.84999999999997,549.25 L 344.84999999999997,618.75 L 308.54999999999995,549.25 L 308.54999999999995,479.75 L 308.54999999999995,410.25 L 272.24999999999994,410.25 L 272.24999999999994,340.75 L 235.95,340.75 L 235.95,271.25zz"/>
    <glyph glyph-name="AE" unicode="&#198;" horiz-adv-x="961" d="M 888.925,201.75 L 936.9749999999999,201.75 L 936.9749999999999,132.25 L 888.925,132.25 L 888.925,62.75 L 888.925,-6.75 L 840.8749999999999,-6.75 L 792.8249999999999,-6.75 L 744.775,-6.75 L 696.7249999999999,-6.75 L 648.675,-6.75 L 600.6249999999999,-6.75 L 552.5749999999999,-6.75 L 504.525,-6.75 L 456.47499999999997,-6.75 L 408.42499999999995,-6.75 L 360.37499999999994,-6.75 L 360.37499999999994,62.75 L 408.42499999999995,62.75 L 456.47499999999997,62.75 L 456.47499999999997,132.25 L 456.47499999999997,201.75 L 408.42499999999995,201.75 L 360.37499999999994,201.75 L 312.32499999999993,201.75 L 264.275,201.75 L 216.225,201.75 L 216.225,132.25 L 168.17499999999998,132.25 L 168.17499999999998,62.75 L 120.125,62.75 L 216.225,62.75 L 216.225,-6.75 L 168.17499999999998,-6.75 L 120.125,-6.75 L 72.07499999999999,-6.75 L 24.025,-6.75 L 24.025,62.75 L 72.07499999999999,62.75 L 120.125,132.25 L 168.17499999999998,201.75 L 216.225,271.25 L 216.225,340.75 L 264.275,340.75 L 264.275,410.25 L 312.32499999999993,410.25 L 312.32499999999993,479.75 L 360.37499999999994,479.75 L 360.37499999999994,549.25 L 408.42499999999995,549.25 L 408.42499999999995,618.75 L 360.37499999999994,618.75 L 456.47499999999997,618.75 L 504.525,618.75 L 552.5749999999999,618.75 L 600.6249999999999,618.75 L 648.675,618.75 L 696.7249999999999,618.75 L 744.775,618.75 L 744.775,688.25 L 792.8249999999999,688.25 L 840.8749999999999,688.25 L 840.8749999999999,618.75 L 840.8749999999999,549.25 L 840.8749999999999,479.75 L 792.8249999999999,549.25 L 792.8249999999999,618.75 L 552.5749999999999,549.25 L 552.5749999999999,479.75 L 552.5749999999999,410.25 L 552.5749999999999,340.75 L 600.6249999999999,340.75 L 648.675,340.75 L 696.7249999999999,340.75 L 744.775,340.75 L 744.775,410.25 L 792.8249999999999,410.25 L 792.8249999999999,340.75 L 792.8249999999999,271.25 L 744.775,271.25 L 552.5749999999999,271.25 L 552.5749999999999,201.75 L 552.5749999999999,132.25 L 552.5749999999999,62.75 L 600.6249999999999,62.75 L 648.675,62.75 L 696.7249999999999,62.75 L 744.775,62.75 L 792.8249999999999,62.75 L 840.8749999999999,62.75 L 840.8749999999999,132.25 L 888.925,201.75zM 264.275,271.25 L 312.32499999999993,271.25 L 360.37499999999994,271.25 L 408.42499999999995,271.25 L 456.47499999999997,271.25 L 456.47499999999997,340.75 L 456.47499999999997,410.25 L 456.47499999999997,479.75 L 456.47499999999997,549.25 L 456.47499999999997,618.75 L 408.42499999999995,549.25 L 408.42499999999995,479.75 L 360.37499999999994,479.75 L 360.37499999999994,410.25 L 312.32499999999993,410.25 L 312.32499999999993,340.75 L 264.275,340.75 L 264.275,271.25zz"/>
    <glyph glyph-name="Cacute" unicode="&#262;" horiz-adv-x="741" d="M 351.97499999999997,757.75 L 389.025,757.75 L 389.025,827.25 L 426.07499999999993,827.25 L 463.12499999999994,827.25 L 463.12499999999994,896.75 L 500.17499999999995,896.75 L 537.2249999999999,896.75 L 574.275,896.75 L 574.275,827.25 L 537.2249999999999,827.25 L 500.17499999999995,827.25 L 500.17499999999995,757.75 L 463.12499999999994,757.75 L 426.07499999999993,757.75 L 351.97499999999997,757.75zM 426.07499999999993,688.25 L 463.12499999999994,688.25 L 500.17499999999995,688.25 L 500.17499999999995,618.75 L 537.2249999999999,618.75 L 574.275,618.75 L 611.3249999999999,618.75 L 648.3749999999999,618.75 L 648.3749999999999,549.25 L 648.3749999999999,479.75 L 648.3749999999999,410.25 L 611.3249999999999,410.25 L 611.3249999999999,479.75 L 574.275,479.75 L 574.275,549.25 L 537.2249999999999,549.25 L 463.12499999999994,618.75 L 426.07499999999993,618.75 L 389.025,618.75 L 351.97499999999997,618.75 L 314.92499999999995,618.75 L 277.87499999999994,618.75 L 277.87499999999994,549.25 L 240.825,549.25 L 203.775,549.25 L 203.775,479.75 L 166.725,479.75 L 166.725,410.25 L 166.725,340.75 L 166.725,271.25 L 166.725,201.75 L 203.775,201.75 L 203.775,132.25 L 240.825,132.25 L 240.825,62.75 L 277.87499999999994,62.75 L 314.92499999999995,62.75 L 351.97499999999997,62.75 L 389.025,62.75 L 426.07499999999993,62.75 L 463.12499999999994,62.75 L 500.17499999999995,62.75 L 537.2249999999999,62.75 L 574.275,62.75 L 574.275,132.25 L 611.3249999999999,132.25 L 611.3249999999999,201.75 L 648.3749999999999,201.75 L 685.425,201.75 L 648.3749999999999,132.25 L 648.3749999999999,62.75 L 611.3249999999999,62.75 L 611.3249999999999,-6.75 L 574.275,-6.75 L 537.2249999999999,-6.75 L 500.17499999999995,-6.75 L 463.12499999999994,-6.75 L 426.07499999999993,-6.75 L 389.025,-6.75 L 351.97499999999997,-6.75 L 314.92499999999995,-6.75 L 277.87499999999994,-6.75 L 240.825,-6.75 L 203.775,62.75 L 166.725,62.75 L 129.67499999999998,62.75 L 129.67499999999998,132.25 L 92.625,132.25 L 92.625,201.75 L 55.574999999999996,201.75 L 55.574999999999996,271.25 L 55.574999999999996,340.75 L 55.574999999999996,410.25 L 92.625,410.25 L 92.625,479.75 L 129.67499999999998,479.75 L 129.67499999999998,549.25 L 166.725,549.25 L 166.725,618.75 L 203.775,618.75 L 240.825,618.75 L 351.97499999999997,688.25 L 389.025,688.25 L 426.07499999999993,688.25zz"/>
    <glyph glyph-name="Ccaron" unicode="&#268;" horiz-adv-x="741" d="M 537.2249999999999,896.75 L 537.2249999999999,827.25 L 500.17499999999995,827.25 L 463.12499999999994,827.25 L 463.12499999999994,757.75 L 426.07499999999993,757.75 L 389.025,757.75 L 351.97499999999997,757.75 L 351.97499999999997,827.25 L 314.92499999999995,827.25 L 314.92499999999995,896.75 L 277.87499999999994,896.75 L 351.97499999999997,896.75 L 389.025,827.25 L 426.07499999999993,827.25 L 463.12499999999994,896.75 L 500.17499999999995,896.75 L 537.2249999999999,896.75zM 426.07499999999993,688.25 L 463.12499999999994,688.25 L 500.17499999999995,688.25 L 500.17499999999995,618.75 L 537.2249999999999,618.75 L 574.275,618.75 L 611.3249999999999,618.75 L 648.3749999999999,618.75 L 648.3749999999999,549.25 L 648.3749999999999,479.75 L 648.3749999999999,410.25 L 611.3249999999999,410.25 L 611.3249999999999,479.75 L 574.275,479.75 L 574.275,549.25 L 537.2249999999999,549.25 L 463.12499999999994,618.75 L 426.07499999999993,618.75 L 389.025,618.75 L 351.97499999999997,618.75 L 314.92499999999995,618.75 L 277.87499999999994,618.75 L 277.87499999999994,549.25 L 240.825,549.25 L 203.775,549.25 L 203.775,479.75 L 166.725,479.75 L 166.725,410.25 L 166.725,340.75 L 166.725,271.25 L 166.725,201.75 L 203.775,201.75 L 203.775,132.25 L 240.825,132.25 L 240.825,62.75 L 277.87499999999994,62.75 L 314.92499999999995,62.75 L 351.97499999999997,62.75 L 389.025,62.75 L 426.07499999999993,62.75 L 463.12499999999994,62.75 L 500.17499999999995,62.75 L 537.2249999999999,62.75 L 574.275,62.75 L 574.275,132.25 L 611.3249999999999,132.25 L 611.3249999999999,201.75 L 648.3749999999999,201.75 L 685.425,201.75 L 648.3749999999999,132.25 L 648.3749999999999,62.75 L 611.3249999999999,62.75 L 611.3249999999999,-6.75 L 574.275,-6.75 L 537.2249999999999,-6.75 L 500.17499999999995,-6.75 L 463.12499999999994,-6.75 L 426.07499999999993,-6.75 L 389.025,-6.75 L 351.97499999999997,-6.75 L 314.92499999999995,-6.75 L 277.87499999999994,-6.75 L 240.825,-6.75 L 203.775,62.75 L 166.725,62.75 L 129.67499999999998,62.75 L 129.67499999999998,132.25 L 92.625,132.25 L 92.625,201.75 L 55.574999999999996,201.75 L 55.574999999999996,271.25 L 55.574999999999996,340.75 L 55.574999999999996,410.25 L 92.625,410.25 L 92.625,479.75 L 129.67499999999998,479.75 L 129.67499999999998,549.25 L 166.725,549.25 L 166.725,618.75 L 203.775,618.75 L 240.825,618.75 L 351.97499999999997,688.25 L 389.025,688.25 L 426.07499999999993,688.25zz"/>
    <glyph glyph-name="Ccedilla" unicode="&#199;" horiz-adv-x="741" d="M 426.07499999999993,-6.75 L 389.025,-6.75 L 389.025,-76.25 L 426.07499999999993,-76.25 L 463.12499999999994,-76.25 L 463.12499999999994,-145.75 L 463.12499999999994,-215.25 L 426.07499999999993,-215.25 L 389.025,-215.25 L 351.97499999999997,-215.25 L 314.92499999999995,-215.25 L 426.07499999999993,-145.75 L 389.025,-145.75 L 351.97499999999997,-145.75 L 351.97499999999997,-76.25 L 314.92499999999995,-76.25 L 351.97499999999997,-6.75 L 314.92499999999995,-6.75 L 277.87499999999994,-6.75 L 240.825,-6.75 L 240.825,62.75 L 203.775,62.75 L 166.725,62.75 L 129.67499999999998,62.75 L 129.67499999999998,132.25 L 92.625,132.25 L 92.625,201.75 L 55.574999999999996,201.75 L 55.574999999999996,271.25 L 55.574999999999996,340.75 L 55.574999999999996,410.25 L 92.625,410.25 L 92.625,479.75 L 129.67499999999998,479.75 L 129.67499999999998,549.25 L 166.725,549.25 L 166.725,618.75 L 203.775,618.75 L 240.825,618.75 L 277.87499999999994,618.75 L 314.92499999999995,618.75 L 351.97499999999997,618.75 L 351.97499999999997,688.25 L 389.025,688.25 L 426.07499999999993,688.25 L 463.12499999999994,688.25 L 500.17499999999995,688.25 L 500.17499999999995,618.75 L 537.2249999999999,618.75 L 574.275,618.75 L 611.3249999999999,618.75 L 648.3749999999999,618.75 L 648.3749999999999,549.25 L 648.3749999999999,479.75 L 648.3749999999999,410.25 L 611.3249999999999,410.25 L 611.3249999999999,479.75 L 574.275,479.75 L 574.275,549.25 L 537.2249999999999,549.25 L 463.12499999999994,618.75 L 426.07499999999993,618.75 L 389.025,618.75 L 277.87499999999994,549.25 L 240.825,549.25 L 203.775,549.25 L 203.775,479.75 L 166.725,479.75 L 166.725,410.25 L 166.725,340.75 L 166.725,271.25 L 166.725,201.75 L 203.775,201.75 L 203.775,132.25 L 240.825,132.25 L 277.87499999999994,62.75 L 314.92499999999995,62.75 L 351.97499999999997,62.75 L 389.025,62.75 L 426.07499999999993,62.75 L 463.12499999999994,62.75 L 500.17499999999995,62.75 L 537.2249999999999,62.75 L 574.275,62.75 L 574.275,132.25 L 611.3249999999999,132.25 L 611.3249999999999,201.75 L 648.3749999999999,201.75 L 685.425,201.75 L 648.3749999999999,132.25 L 648.3749999999999,62.75 L 611.3249999999999,62.75 L 611.3249999999999,-6.75 L 574.275,-6.75 L 537.2249999999999,-6.75 L 500.17499999999995,-6.75 L 463.12499999999994,-6.75 L 426.07499999999993,-6.75zz"/>
    <glyph glyph-name="Cdotaccent" unicode="&#266;" horiz-adv-x="741" d="M 426.07499999999993,757.75 L 389.025,757.75 L 351.97499999999997,757.75 L 351.97499999999997,827.25 L 351.97499999999997,896.75 L 389.025,896.75 L 426.07499999999993,896.75 L 463.12499999999994,896.75 L 463.12499999999994,827.25 L 463.12499999999994,757.75 L 426.07499999999993,757.75zM 426.07499999999993,688.25 L 463.12499999999994,688.25 L 500.17499999999995,688.25 L 500.17499999999995,618.75 L 537.2249999999999,618.75 L 574.275,618.75 L 611.3249999999999,618.75 L 648.3749999999999,618.75 L 648.3749999999999,549.25 L 648.3749999999999,479.75 L 648.3749999999999,410.25 L 611.3249999999999,410.25 L 611.3249999999999,479.75 L 574.275,479.75 L 574.275,549.25 L 537.2249999999999,549.25 L 463.12499999999994,618.75 L 426.07499999999993,618.75 L 389.025,618.75 L 351.97499999999997,618.75 L 314.92499999999995,618.75 L 277.87499999999994,618.75 L 277.87499999999994,549.25 L 240.825,549.25 L 203.775,549.25 L 203.775,479.75 L 166.725,479.75 L 166.725,410.25 L 166.725,340.75 L 166.725,271.25 L 166.725,201.75 L 203.775,201.75 L 203.775,132.25 L 240.825,132.25 L 240.825,62.75 L 277.87499999999994,62.75 L 314.92499999999995,62.75 L 351.97499999999997,62.75 L 389.025,62.75 L 426.07499999999993,62.75 L 463.12499999999994,62.75 L 500.17499999999995,62.75 L 537.2249999999999,62.75 L 574.275,62.75 L 574.275,132.25 L 611.3249999999999,132.25 L 611.3249999999999,201.75 L 648.3749999999999,201.75 L 685.425,201.75 L 648.3749999999999,132.25 L 648.3749999999999,62.75 L 611.3249999999999,62.75 L 611.3249999999999,-6.75 L 574.275,-6.75 L 537.2249999999999,-6.75 L 500.17499999999995,-6.75 L 463.12499999999994,-6.75 L 426.07499999999993,-6.75 L 389.025,-6.75 L 351.97499999999997,-6.75 L 314.92499999999995,-6.75 L 277.87499999999994,-6.75 L 240.825,-6.75 L 203.775,62.75 L 166.725,62.75 L 129.67499999999998,62.75 L 129.67499999999998,132.25 L 92.625,132.25 L 92.625,201.75 L 55.574999999999996,201.75 L 55.574999999999996,271.25 L 55.574999999999996,340.75 L 55.574999999999996,410.25 L 92.625,410.25 L 92.625,479.75 L 129.67499999999998,479.75 L 129.67499999999998,549.25 L 166.725,549.25 L 166.725,618.75 L 203.775,618.75 L 240.825,618.75 L 351.97499999999997,688.25 L 389.025,688.25 L 426.07499999999993,688.25zz"/>
    <glyph glyph-name="Eth" unicode="&#208;" horiz-adv-x="759" d="M 360.52500000000003,618.75 L 398.475,618.75 L 436.42500000000007,618.75 L 474.37500000000006,618.75 L 512.325,618.75 L 550.2750000000001,618.75 L 588.225,549.25 L 626.1750000000001,549.25 L 626.1750000000001,479.75 L 664.1250000000001,479.75 L 664.1250000000001,410.25 L 702.075,410.25 L 702.075,340.75 L 702.075,271.25 L 702.075,201.75 L 664.1250000000001,201.75 L 664.1250000000001,132.25 L 626.1750000000001,132.25 L 626.1750000000001,62.75 L 588.225,62.75 L 550.2750000000001,62.75 L 512.325,62.75 L 512.325,-6.75 L 474.37500000000006,-6.75 L 436.42500000000007,-6.75 L 398.475,-6.75 L 360.52500000000003,-6.75 L 322.57500000000005,-6.75 L 284.62500000000006,-6.75 L 246.675,-6.75 L 208.725,-6.75 L 170.775,-6.75 L 132.82500000000002,-6.75 L 94.875,-6.75 L 56.925000000000004,-6.75 L 56.925000000000004,62.75 L 94.875,62.75 L 132.82500000000002,62.75 L 132.82500000000002,132.25 L 132.82500000000002,201.75 L 132.82500000000002,271.25 L 132.82500000000002,340.75 L 94.875,340.75 L 56.925000000000004,340.75 L 132.82500000000002,410.25 L 132.82500000000002,479.75 L 132.82500000000002,549.25 L 132.82500000000002,618.75 L 94.875,618.75 L 56.925000000000004,618.75 L 170.775,618.75 L 208.725,618.75 L 246.675,618.75 L 284.62500000000006,618.75 L 322.57500000000005,618.75 L 360.52500000000003,618.75zM 360.52500000000003,62.75 L 398.475,62.75 L 436.42500000000007,62.75 L 474.37500000000006,62.75 L 512.325,62.75 L 512.325,132.25 L 550.2750000000001,132.25 L 550.2750000000001,201.75 L 588.225,201.75 L 588.225,271.25 L 588.225,340.75 L 588.225,410.25 L 588.225,479.75 L 550.2750000000001,479.75 L 550.2750000000001,549.25 L 512.325,549.25 L 474.37500000000006,549.25 L 436.42500000000007,618.75 L 398.475,618.75 L 360.52500000000003,618.75 L 322.57500000000005,618.75 L 284.62500000000006,618.75 L 246.675,618.75 L 208.725,618.75 L 208.725,549.25 L 208.725,479.75 L 208.725,410.25 L 208.725,340.75 L 246.675,340.75 L 284.62500000000006,340.75 L 322.57500000000005,340.75 L 360.52500000000003,340.75 L 398.475,340.75 L 208.725,271.25 L 208.725,201.75 L 208.725,132.25 L 208.725,62.75 L 246.675,62.75 L 284.62500000000006,62.75 L 322.57500000000005,62.75 L 360.52500000000003,62.75zz"/>
    <glyph glyph-name="Dcaron" unicode="&#270;" horiz-adv-x="759" d="M 360.52500000000003,757.75 L 322.57500000000005,757.75 L 284.62500000000006,757.75 L 284.62500000000006,827.25 L 246.675,827.25 L 246.675,896.75 L 208.725,896.75 L 284.62500000000006,896.75 L 322.57500000000005,827.25 L 360.52500000000003,827.25 L 398.475,827.25 L 436.42500000000007,827.25 L 436.42500000000007,896.75 L 474.37500000000006,896.75 L 512.325,896.75 L 474.37500000000006,827.25 L 398.475,757.75 L 360.52500000000003,757.75zM 360.52500000000003,618.75 L 398.475,618.75 L 436.42500000000007,618.75 L 474.37500000000006,618.75 L 512.325,618.75 L 550.2750000000001,618.75 L 588.225,549.25 L 626.1750000000001,549.25 L 626.1750000000001,479.75 L 664.1250000000001,479.75 L 664.1250000000001,410.25 L 702.075,410.25 L 702.075,340.75 L 702.075,271.25 L 702.075,201.75 L 664.1250000000001,201.75 L 664.1250000000001,132.25 L 626.1750000000001,132.25 L 626.1750000000001,62.75 L 588.225,62.75 L 550.2750000000001,62.75 L 512.325,62.75 L 512.325,-6.75 L 474.37500000000006,-6.75 L 436.42500000000007,-6.75 L 398.475,-6.75 L 360.52500000000003,-6.75 L 322.57500000000005,-6.75 L 284.62500000000006,-6.75 L 246.675,-6.75 L 208.725,-6.75 L 170.775,-6.75 L 132.82500000000002,-6.75 L 94.875,-6.75 L 56.925000000000004,-6.75 L 56.925000000000004,62.75 L 94.875,62.75 L 132.82500000000002,62.75 L 132.82500000000002,132.25 L 132.82500000000002,201.75 L 132.82500000000002,271.25 L 132.82500000000002,340.75 L 132.82500000000002,410.25 L 132.82500000000002,479.75 L 132.82500000000002,549.25 L 132.82500000000002,618.75 L 94.875,618.75 L 56.925000000000004,618.75 L 170.775,618.75 L 208.725,618.75 L 246.675,618.75 L 284.62500000000006,618.75 L 322.57500000000005,618.75 L 360.52500000000003,618.75zM 360.52500000000003,62.75 L 398.475,62.75 L 436.42500000000007,62.75 L 474.37500000000006,62.75 L 512.325,62.75 L 512.325,132.25 L 550.2750000000001,132.25 L 550.2750000000001,201.75 L 588.225,201.75 L 588.225,271.25 L 588.225,340.75 L 588.225,410.25 L 588.225,479.75 L 550.2750000000001,479.75 L 550.2750000000001,549.25 L 512.325,549.25 L 474.37500000000006,549.25 L 436.42500000000007,618.75 L 398.475,618.75 L 360.52500000000003,618.75 L 322.57500000000005,618.75 L 284.62500000000006,618.75 L 246.675,618.75 L 208.725,618.75 L 208.725,549.25 L 208.725,479.75 L 208.725,410.25 L 208.725,340.75 L 208.725,271.25 L 208.725,201.75 L 208.725,132.25 L 208.725,62.75 L 246.675,62.75 L 284.62500000000006,62.75 L 322.57500000000005,62.75 L 360.52500000000003,62.75zz"/>
    <glyph glyph-name="Dcroat" unicode="&#272;" horiz-adv-x="759" d="M 360.52500000000003,618.75 L 398.475,618.75 L 436.42500000000007,618.75 L 474.37500000000006,618.75 L 512.325,618.75 L 550.2750000000001,618.75 L 588.225,549.25 L 626.1750000000001,549.25 L 626.1750000000001,479.75 L 664.1250000000001,479.75 L 664.1250000000001,410.25 L 702.075,410.25 L 702.075,340.75 L 702.075,271.25 L 702.075,201.75 L 664.1250000000001,201.75 L 664.1250000000001,132.25 L 626.1750000000001,132.25 L 626.1750000000001,62.75 L 588.225,62.75 L 550.2750000000001,62.75 L 512.325,62.75 L 512.325,-6.75 L 474.37500000000006,-6.75 L 436.42500000000007,-6.75 L 398.475,-6.75 L 360.52500000000003,-6.75 L 322.57500000000005,-6.75 L 284.62500000000006,-6.75 L 246.675,-6.75 L 208.725,-6.75 L 170.775,-6.75 L 132.82500000000002,-6.75 L 94.875,-6.75 L 56.925000000000004,-6.75 L 56.925000000000004,62.75 L 94.875,62.75 L 132.82500000000002,62.75 L 132.82500000000002,132.25 L 132.82500000000002,201.75 L 132.82500000000002,271.25 L 132.82500000000002,340.75 L 94.875,340.75 L 56.925000000000004,340.75 L 132.82500000000002,410.25 L 132.82500000000002,479.75 L 132.82500000000002,549.25 L 132.82500000000002,618.75 L 94.875,618.75 L 56.925000000000004,618.75 L 170.775,618.75 L 208.725,618.75 L 246.675,618.75 L 284.62500000000006,618.75 L 322.57500000000005,618.75 L 360.52500000000003,618.75zM 360.52500000000003,62.75 L 398.475,62.75 L 436.42500000000007,62.75 L 474.37500000000006,62.75 L 512.325,62.75 L 512.325,132.25 L 550.2750000000001,132.25 L 550.2750000000001,201.75 L 588.225,201.75 L 588.225,271.25 L 588.225,340.75 L 588.225,410.25 L 588.225,479.75 L 550.2750000000001,479.75 L 550.2750000000001,549.25 L 512.325,549.25 L 474.37500000000006,549.25 L 436.42500000000007,618.75 L 398.475,618.75 L 360.52500000000003,618.75 L 322.57500000000005,618.75 L 284.62500000000006,618.75 L 246.675,618.75 L 208.725,618.75 L 208.725,549.25 L 208.725,479.75 L 208.725,410.25 L 208.725,340.75 L 246.675,340.75 L 284.62500000000006,340.75 L 322.57500000000005,340.75 L 360.52500000000003,340.75 L 398.475,340.75 L 208.725,271.25 L 208.725,201.75 L 208.725,132.25 L 208.725,62.75 L 246.675,62.75 L 284.62500000000006,62.75 L 322.57500000000005,62.75 L 360.52500000000003,62.75zz"/>
    <glyph glyph-name="Eacute" unicode="&#201;" horiz-adv-x="659" d="M 510.7250000000001,827.25 L 477.7750000000001,827.25 L 444.82500000000005,827.25 L 411.87500000000006,827.25 L 411.87500000000006,757.75 L 378.92500000000007,757.75 L 345.975,757.75 L 313.02500000000003,757.75 L 280.07500000000005,757.75 L 247.12500000000003,757.75 L 313.02500000000003,827.25 L 345.975,827.25 L 378.92500000000007,827.25 L 411.87500000000006,896.75 L 444.82500000000005,896.75 L 477.7750000000001,896.75 L 510.7250000000001,896.75 L 510.7250000000001,827.25zM 576.6250000000001,201.75 L 609.575,201.75 L 609.575,132.25 L 609.575,62.75 L 576.6250000000001,62.75 L 576.6250000000001,-6.75 L 543.6750000000001,-6.75 L 510.7250000000001,-6.75 L 477.7750000000001,-6.75 L 444.82500000000005,-6.75 L 411.87500000000006,-6.75 L 378.92500000000007,-6.75 L 345.975,-6.75 L 313.02500000000003,-6.75 L 280.07500000000005,-6.75 L 247.12500000000003,-6.75 L 214.175,-6.75 L 181.225,-6.75 L 148.275,-6.75 L 115.32500000000002,-6.75 L 82.375,-6.75 L 49.425000000000004,-6.75 L 49.425000000000004,62.75 L 82.375,62.75 L 115.32500000000002,62.75 L 148.275,62.75 L 148.275,132.25 L 148.275,201.75 L 148.275,271.25 L 148.275,340.75 L 148.275,410.25 L 148.275,479.75 L 148.275,549.25 L 148.275,618.75 L 115.32500000000002,618.75 L 82.375,618.75 L 49.425000000000004,618.75 L 181.225,618.75 L 214.175,618.75 L 247.12500000000003,618.75 L 280.07500000000005,618.75 L 313.02500000000003,618.75 L 345.975,618.75 L 378.92500000000007,618.75 L 411.87500000000006,618.75 L 444.82500000000005,618.75 L 444.82500000000005,688.25 L 477.7750000000001,688.25 L 510.7250000000001,688.25 L 543.6750000000001,688.25 L 543.6750000000001,618.75 L 543.6750000000001,549.25 L 543.6750000000001,479.75 L 576.6250000000001,479.75 L 510.7250000000001,479.75 L 510.7250000000001,549.25 L 477.7750000000001,549.25 L 477.7750000000001,618.75 L 214.175,549.25 L 214.175,479.75 L 214.175,410.25 L 214.175,340.75 L 247.12500000000003,340.75 L 280.07500000000005,340.75 L 313.02500000000003,340.75 L 345.975,340.75 L 378.92500000000007,340.75 L 411.87500000000006,340.75 L 444.82500000000005,340.75 L 444.82500000000005,410.25 L 477.7750000000001,410.25 L 477.7750000000001,340.75 L 477.7750000000001,271.25 L 444.82500000000005,271.25 L 214.175,271.25 L 214.175,201.75 L 214.175,132.25 L 214.175,62.75 L 247.12500000000003,62.75 L 280.07500000000005,62.75 L 313.02500000000003,62.75 L 345.975,62.75 L 378.92500000000007,62.75 L 411.87500000000006,62.75 L 444.82500000000005,62.75 L 477.7750000000001,62.75 L 510.7250000000001,62.75 L 543.6750000000001,62.75 L 543.6750000000001,132.25 L 576.6250000000001,132.25 L 576.6250000000001,201.75zz"/>
    <glyph glyph-name="Ecaron" unicode="&#282;" horiz-adv-x="659" d="M 345.975,757.75 L 313.02500000000003,757.75 L 280.07500000000005,757.75 L 280.07500000000005,827.25 L 247.12500000000003,827.25 L 214.175,827.25 L 214.175,896.75 L 181.225,896.75 L 247.12500000000003,896.75 L 280.07500000000005,896.75 L 313.02500000000003,827.25 L 345.975,827.25 L 378.92500000000007,827.25 L 411.87500000000006,827.25 L 411.87500000000006,896.75 L 444.82500000000005,896.75 L 477.7750000000001,896.75 L 444.82500000000005,827.25 L 378.92500000000007,757.75 L 345.975,757.75zM 576.6250000000001,201.75 L 609.575,201.75 L 609.575,132.25 L 609.575,62.75 L 576.6250000000001,62.75 L 576.6250000000001,-6.75 L 543.6750000000001,-6.75 L 510.7250000000001,-6.75 L 477.7750000000001,-6.75 L 444.82500000000005,-6.75 L 411.87500000000006,-6.75 L 378.92500000000007,-6.75 L 345.975,-6.75 L 313.02500000000003,-6.75 L 280.07500000000005,-6.75 L 247.12500000000003,-6.75 L 214.175,-6.75 L 181.225,-6.75 L 148.275,-6.75 L 115.32500000000002,-6.75 L 82.375,-6.75 L 49.425000000000004,-6.75 L 49.425000000000004,62.75 L 82.375,62.75 L 115.32500000000002,62.75 L 148.275,62.75 L 148.275,132.25 L 148.275,201.75 L 148.275,271.25 L 148.275,340.75 L 148.275,410.25 L 148.275,479.75 L 148.275,549.25 L 148.275,618.75 L 115.32500000000002,618.75 L 82.375,618.75 L 49.425000000000004,618.75 L 181.225,618.75 L 214.175,618.75 L 247.12500000000003,618.75 L 280.07500000000005,618.75 L 313.02500000000003,618.75 L 345.975,618.75 L 378.92500000000007,618.75 L 411.87500000000006,618.75 L 444.82500000000005,618.75 L 444.82500000000005,688.25 L 477.7750000000001,688.25 L 510.7250000000001,688.25 L 543.6750000000001,688.25 L 543.6750000000001,618.75 L 543.6750000000001,549.25 L 543.6750000000001,479.75 L 576.6250000000001,479.75 L 510.7250000000001,479.75 L 510.7250000000001,549.25 L 477.7750000000001,549.25 L 477.7750000000001,618.75 L 214.175,549.25 L 214.175,479.75 L 214.175,410.25 L 214.175,340.75 L 247.12500000000003,340.75 L 280.07500000000005,340.75 L 313.02500000000003,340.75 L 345.975,340.75 L 378.92500000000007,340.75 L 411.87500000000006,340.75 L 444.82500000000005,340.75 L 444.82500000000005,410.25 L 477.7750000000001,410.25 L 477.7750000000001,340.75 L 477.7750000000001,271.25 L 444.82500000000005,271.25 L 214.175,271.25 L 214.175,201.75 L 214.175,132.25 L 214.175,62.75 L 247.12500000000003,62.75 L 280.07500000000005,62.75 L 313.02500000000003,62.75 L 345.975,62.75 L 378.92500000000007,62.75 L 411.87500000000006,62.75 L 444.82500000000005,62.75 L 477.7750000000001,62.75 L 510.7250000000001,62.75 L 543.6750000000001,62.75 L 543.6750000000001,132.25 L 576.6250000000001,132.25 L 576.6250000000001,201.75zz"/>
    <glyph glyph-name="Ecircumflex" unicode="&#202;" horiz-adv-x="659" d="M 345.975,827.25 L 313.02500000000003,827.25 L 313.02500000000003,757.75 L 280.07500000000005,757.75 L 247.12500000000003,757.75 L 214.175,757.75 L 181.225,757.75 L 247.12500000000003,827.25 L 280.07500000000005,827.25 L 280.07500000000005,896.75 L 313.02500000000003,896.75 L 345.975,896.75 L 378.92500000000007,896.75 L 378.92500000000007,827.25 L 411.87500000000006,827.25 L 444.82500000000005,827.25 L 444.82500000000005,757.75 L 477.7750000000001,757.75 L 411.87500000000006,757.75 L 378.92500000000007,757.75 L 345.975,827.25zM 576.6250000000001,201.75 L 609.575,201.75 L 609.575,132.25 L 609.575,62.75 L 576.6250000000001,62.75 L 576.6250000000001,-6.75 L 543.6750000000001,-6.75 L 510.7250000000001,-6.75 L 477.7750000000001,-6.75 L 444.82500000000005,-6.75 L 411.87500000000006,-6.75 L 378.92500000000007,-6.75 L 345.975,-6.75 L 313.02500000000003,-6.75 L 280.07500000000005,-6.75 L 247.12500000000003,-6.75 L 214.175,-6.75 L 181.225,-6.75 L 148.275,-6.75 L 115.32500000000002,-6.75 L 82.375,-6.75 L 49.425000000000004,-6.75 L 49.425000000000004,62.75 L 82.375,62.75 L 115.32500000000002,62.75 L 148.275,62.75 L 148.275,132.25 L 148.275,201.75 L 148.275,271.25 L 148.275,340.75 L 148.275,410.25 L 148.275,479.75 L 148.275,549.25 L 148.275,618.75 L 115.32500000000002,618.75 L 82.375,618.75 L 49.425000000000004,618.75 L 181.225,618.75 L 214.175,618.75 L 247.12500000000003,618.75 L 280.07500000000005,618.75 L 313.02500000000003,618.75 L 345.975,618.75 L 378.92500000000007,618.75 L 411.87500000000006,618.75 L 444.82500000000005,618.75 L 444.82500000000005,688.25 L 477.7750000000001,688.25 L 510.7250000000001,688.25 L 543.6750000000001,688.25 L 543.6750000000001,618.75 L 543.6750000000001,549.25 L 543.6750000000001,479.75 L 576.6250000000001,479.75 L 510.7250000000001,479.75 L 510.7250000000001,549.25 L 477.7750000000001,549.25 L 477.7750000000001,618.75 L 214.175,549.25 L 214.175,479.75 L 214.175,410.25 L 214.175,340.75 L 247.12500000000003,340.75 L 280.07500000000005,340.75 L 313.02500000000003,340.75 L 345.975,340.75 L 378.92500000000007,340.75 L 411.87500000000006,340.75 L 444.82500000000005,340.75 L 444.82500000000005,410.25 L 477.7750000000001,410.25 L 477.7750000000001,340.75 L 477.7750000000001,271.25 L 444.82500000000005,271.25 L 214.175,271.25 L 214.175,201.75 L 214.175,132.25 L 214.175,62.75 L 247.12500000000003,62.75 L 280.07500000000005,62.75 L 313.02500000000003,62.75 L 345.975,62.75 L 378.92500000000007,62.75 L 411.87500000000006,62.75 L 444.82500000000005,62.75 L 477.7750000000001,62.75 L 510.7250000000001,62.75 L 543.6750000000001,62.75 L 543.6750000000001,132.25 L 576.6250000000001,132.25 L 576.6250000000001,201.75zz"/>
    <glyph glyph-name="Edieresis" unicode="&#203;" horiz-adv-x="659" d="M 247.12500000000003,757.75 L 214.175,757.75 L 181.225,757.75 L 181.225,827.25 L 214.175,827.25 L 214.175,896.75 L 247.12500000000003,896.75 L 247.12500000000003,827.25 L 280.07500000000005,827.25 L 280.07500000000005,757.75 L 247.12500000000003,757.75zM 444.82500000000005,757.75 L 411.87500000000006,757.75 L 378.92500000000007,757.75 L 378.92500000000007,827.25 L 411.87500000000006,827.25 L 411.87500000000006,896.75 L 444.82500000000005,896.75 L 477.7750000000001,827.25 L 477.7750000000001,757.75 L 444.82500000000005,757.75zM 576.6250000000001,201.75 L 609.575,201.75 L 609.575,132.25 L 609.575,62.75 L 576.6250000000001,62.75 L 576.6250000000001,-6.75 L 543.6750000000001,-6.75 L 510.7250000000001,-6.75 L 477.7750000000001,-6.75 L 444.82500000000005,-6.75 L 411.87500000000006,-6.75 L 378.92500000000007,-6.75 L 345.975,-6.75 L 313.02500000000003,-6.75 L 280.07500000000005,-6.75 L 247.12500000000003,-6.75 L 214.175,-6.75 L 181.225,-6.75 L 148.275,-6.75 L 115.32500000000002,-6.75 L 82.375,-6.75 L 49.425000000000004,-6.75 L 49.425000000000004,62.75 L 82.375,62.75 L 115.32500000000002,62.75 L 148.275,62.75 L 148.275,132.25 L 148.275,201.75 L 148.275,271.25 L 148.275,340.75 L 148.275,410.25 L 148.275,479.75 L 148.275,549.25 L 148.275,618.75 L 115.32500000000002,618.75 L 82.375,618.75 L 49.425000000000004,618.75 L 181.225,618.75 L 214.175,618.75 L 247.12500000000003,618.75 L 280.07500000000005,618.75 L 313.02500000000003,618.75 L 345.975,618.75 L 378.92500000000007,618.75 L 411.87500000000006,618.75 L 444.82500000000005,618.75 L 444.82500000000005,688.25 L 477.7750000000001,688.25 L 510.7250000000001,688.25 L 543.6750000000001,688.25 L 543.6750000000001,618.75 L 543.6750000000001,549.25 L 543.6750000000001,479.75 L 576.6250000000001,479.75 L 510.7250000000001,479.75 L 510.7250000000001,549.25 L 477.7750000000001,549.25 L 477.7750000000001,618.75 L 214.175,549.25 L 214.175,479.75 L 214.175,410.25 L 214.175,340.75 L 247.12500000000003,340.75 L 280.07500000000005,340.75 L 313.02500000000003,340.75 L 345.975,340.75 L 378.92500000000007,340.75 L 411.87500000000006,340.75 L 444.82500000000005,340.75 L 444.82500000000005,410.25 L 477.7750000000001,410.25 L 477.7750000000001,340.75 L 477.7750000000001,271.25 L 444.82500000000005,271.25 L 214.175,271.25 L 214.175,201.75 L 214.175,132.25 L 214.175,62.75 L 247.12500000000003,62.75 L 280.07500000000005,62.75 L 313.02500000000003,62.75 L 345.975,62.75 L 378.92500000000007,62.75 L 411.87500000000006,62.75 L 444.82500000000005,62.75 L 477.7750000000001,62.75 L 510.7250000000001,62.75 L 543.6750000000001,62.75 L 543.6750000000001,132.25 L 576.6250000000001,132.25 L 576.6250000000001,201.75zz"/>
    <glyph glyph-name="Edotaccent" unicode="&#278;" horiz-adv-x="659" d="M 345.975,757.75 L 313.02500000000003,757.75 L 280.07500000000005,757.75 L 280.07500000000005,827.25 L 280.07500000000005,896.75 L 313.02500000000003,896.75 L 345.975,896.75 L 378.92500000000007,896.75 L 378.92500000000007,827.25 L 378.92500000000007,757.75 L 345.975,757.75zM 576.6250000000001,201.75 L 609.575,201.75 L 609.575,132.25 L 609.575,62.75 L 576.6250000000001,62.75 L 576.6250000000001,-6.75 L 543.6750000000001,-6.75 L 510.7250000000001,-6.75 L 477.7750000000001,-6.75 L 444.82500000000005,-6.75 L 411.87500000000006,-6.75 L 378.92500000000007,-6.75 L 345.975,-6.75 L 313.02500000000003,-6.75 L 280.07500000000005,-6.75 L 247.12500000000003,-6.75 L 214.175,-6.75 L 181.225,-6.75 L 148.275,-6.75 L 115.32500000000002,-6.75 L 82.375,-6.75 L 49.425000000000004,-6.75 L 49.425000000000004,62.75 L 82.375,62.75 L 115.32500000000002,62.75 L 148.275,62.75 L 148.275,132.25 L 148.275,201.75 L 148.275,271.25 L 148.275,340.75 L 148.275,410.25 L 148.275,479.75 L 148.275,549.25 L 148.275,618.75 L 115.32500000000002,618.75 L 82.375,618.75 L 49.425000000000004,618.75 L 181.225,618.75 L 214.175,618.75 L 247.12500000000003,618.75 L 280.07500000000005,618.75 L 313.02500000000003,618.75 L 345.975,618.75 L 378.92500000000007,618.75 L 411.87500000000006,618.75 L 444.82500000000005,618.75 L 444.82500000000005,688.25 L 477.7750000000001,688.25 L 510.7250000000001,688.25 L 543.6750000000001,688.25 L 543.6750000000001,618.75 L 543.6750000000001,549.25 L 543.6750000000001,479.75 L 576.6250000000001,479.75 L 510.7250000000001,479.75 L 510.7250000000001,549.25 L 477.7750000000001,549.25 L 477.7750000000001,618.75 L 214.175,549.25 L 214.175,479.75 L 214.175,410.25 L 214.175,340.75 L 247.12500000000003,340.75 L 280.07500000000005,340.75 L 313.02500000000003,340.75 L 345.975,340.75 L 378.92500000000007,340.75 L 411.87500000000006,340.75 L 444.82500000000005,340.75 L 444.82500000000005,410.25 L 477.7750000000001,410.25 L 477.7750000000001,340.75 L 477.7750000000001,271.25 L 444.82500000000005,271.25 L 214.175,271.25 L 214.175,201.75 L 214.175,132.25 L 214.175,62.75 L 247.12500000000003,62.75 L 280.07500000000005,62.75 L 313.02500000000003,62.75 L 345.975,62.75 L 378.92500000000007,62.75 L 411.87500000000006,62.75 L 444.82500000000005,62.75 L 477.7750000000001,62.75 L 510.7250000000001,62.75 L 543.6750000000001,62.75 L 543.6750000000001,132.25 L 576.6250000000001,132.25 L 576.6250000000001,201.75zz"/>
    <glyph glyph-name="Egrave" unicode="&#200;" horiz-adv-x="659" d="M 411.87500000000006,757.75 L 378.92500000000007,757.75 L 345.975,757.75 L 313.02500000000003,757.75 L 280.07500000000005,757.75 L 280.07500000000005,827.25 L 247.12500000000003,827.25 L 214.175,827.25 L 181.225,827.25 L 181.225,896.75 L 214.175,896.75 L 247.12500000000003,896.75 L 280.07500000000005,896.75 L 313.02500000000003,827.25 L 345.975,827.25 L 378.92500000000007,827.25 L 411.87500000000006,757.75zM 576.6250000000001,201.75 L 609.575,201.75 L 609.575,132.25 L 609.575,62.75 L 576.6250000000001,62.75 L 576.6250000000001,-6.75 L 543.6750000000001,-6.75 L 510.7250000000001,-6.75 L 477.7750000000001,-6.75 L 444.82500000000005,-6.75 L 411.87500000000006,-6.75 L 378.92500000000007,-6.75 L 345.975,-6.75 L 313.02500000000003,-6.75 L 280.07500000000005,-6.75 L 247.12500000000003,-6.75 L 214.175,-6.75 L 181.225,-6.75 L 148.275,-6.75 L 115.32500000000002,-6.75 L 82.375,-6.75 L 49.425000000000004,-6.75 L 49.425000000000004,62.75 L 82.375,62.75 L 115.32500000000002,62.75 L 148.275,62.75 L 148.275,132.25 L 148.275,201.75 L 148.275,271.25 L 148.275,340.75 L 148.275,410.25 L 148.275,479.75 L 148.275,549.25 L 148.275,618.75 L 115.32500000000002,618.75 L 82.375,618.75 L 49.425000000000004,618.75 L 181.225,618.75 L 214.175,618.75 L 247.12500000000003,618.75 L 280.07500000000005,618.75 L 313.02500000000003,618.75 L 345.975,618.75 L 378.92500000000007,618.75 L 411.87500000000006,618.75 L 444.82500000000005,618.75 L 444.82500000000005,688.25 L 477.7750000000001,688.25 L 510.7250000000001,688.25 L 543.6750000000001,688.25 L 543.6750000000001,618.75 L 543.6750000000001,549.25 L 543.6750000000001,479.75 L 576.6250000000001,479.75 L 510.7250000000001,479.75 L 510.7250000000001,549.25 L 477.7750000000001,549.25 L 477.7750000000001,618.75 L 214.175,549.25 L 214.175,479.75 L 214.175,410.25 L 214.175,340.75 L 247.12500000000003,340.75 L 280.07500000000005,340.75 L 313.02500000000003,340.75 L 345.975,340.75 L 378.92500000000007,340.75 L 411.87500000000006,340.75 L 444.82500000000005,340.75 L 444.82500000000005,410.25 L 477.7750000000001,410.25 L 477.7750000000001,340.75 L 477.7750000000001,271.25 L 444.82500000000005,271.25 L 214.175,271.25 L 214.175,201.75 L 214.175,132.25 L 214.175,62.75 L 247.12500000000003,62.75 L 280.07500000000005,62.75 L 313.02500000000003,62.75 L 345.975,62.75 L 378.92500000000007,62.75 L 411.87500000000006,62.75 L 444.82500000000005,62.75 L 477.7750000000001,62.75 L 510.7250000000001,62.75 L 543.6750000000001,62.75 L 543.6750000000001,132.25 L 576.6250000000001,132.25 L 576.6250000000001,201.75zz"/>
    <glyph glyph-name="Emacron" unicode="&#274;" horiz-adv-x="659" d="M 510.7250000000001,827.25 L 510.7250000000001,757.75 L 477.7750000000001,757.75 L 444.82500000000005,757.75 L 411.87500000000006,757.75 L 378.92500000000007,757.75 L 345.975,757.75 L 313.02500000000003,757.75 L 280.07500000000005,757.75 L 247.12500000000003,757.75 L 214.175,757.75 L 181.225,757.75 L 148.275,757.75 L 148.275,827.25 L 181.225,827.25 L 214.175,827.25 L 247.12500000000003,827.25 L 280.07500000000005,827.25 L 313.02500000000003,827.25 L 345.975,827.25 L 378.92500000000007,827.25 L 411.87500000000006,827.25 L 444.82500000000005,827.25 L 477.7750000000001,827.25 L 510.7250000000001,827.25zM 576.6250000000001,201.75 L 609.575,201.75 L 609.575,132.25 L 609.575,62.75 L 576.6250000000001,62.75 L 576.6250000000001,-6.75 L 543.6750000000001,-6.75 L 510.7250000000001,-6.75 L 477.7750000000001,-6.75 L 444.82500000000005,-6.75 L 411.87500000000006,-6.75 L 378.92500000000007,-6.75 L 345.975,-6.75 L 313.02500000000003,-6.75 L 280.07500000000005,-6.75 L 247.12500000000003,-6.75 L 214.175,-6.75 L 181.225,-6.75 L 148.275,-6.75 L 115.32500000000002,-6.75 L 82.375,-6.75 L 49.425000000000004,-6.75 L 49.425000000000004,62.75 L 82.375,62.75 L 115.32500000000002,62.75 L 148.275,62.75 L 148.275,132.25 L 148.275,201.75 L 148.275,271.25 L 148.275,340.75 L 148.275,410.25 L 148.275,479.75 L 148.275,549.25 L 148.275,618.75 L 115.32500000000002,618.75 L 82.375,618.75 L 49.425000000000004,618.75 L 181.225,618.75 L 214.175,618.75 L 247.12500000000003,618.75 L 280.07500000000005,618.75 L 313.02500000000003,618.75 L 345.975,618.75 L 378.92500000000007,618.75 L 411.87500000000006,618.75 L 444.82500000000005,618.75 L 444.82500000000005,688.25 L 477.7750000000001,688.25 L 510.7250000000001,688.25 L 543.6750000000001,688.25 L 543.6750000000001,618.75 L 543.6750000000001,549.25 L 543.6750000000001,479.75 L 576.6250000000001,479.75 L 510.7250000000001,479.75 L 510.7250000000001,549.25 L 477.7750000000001,549.25 L 477.7750000000001,618.75 L 214.175,549.25 L 214.175,479.75 L 214.175,410.25 L 214.175,340.75 L 247.12500000000003,340.75 L 280.07500000000005,340.75 L 313.02500000000003,340.75 L 345.975,340.75 L 378.92500000000007,340.75 L 411.87500000000006,340.75 L 444.82500000000005,340.75 L 444.82500000000005,410.25 L 477.7750000000001,410.25 L 477.7750000000001,340.75 L 477.7750000000001,271.25 L 444.82500000000005,271.25 L 214.175,271.25 L 214.175,201.75 L 214.175,132.25 L 214.175,62.75 L 247.12500000000003,62.75 L 280.07500000000005,62.75 L 313.02500000000003,62.75 L 345.975,62.75 L 378.92500000000007,62.75 L 411.87500000000006,62.75 L 444.82500000000005,62.75 L 477.7750000000001,62.75 L 510.7250000000001,62.75 L 543.6750000000001,62.75 L 543.6750000000001,132.25 L 576.6250000000001,132.25 L 576.6250000000001,201.75zz"/>
    <glyph glyph-name="Eogonek" unicode="&#280;" horiz-adv-x="659" d="M 543.6750000000001,-145.75 L 576.6250000000001,-145.75 L 609.575,-145.75 L 576.6250000000001,-215.25 L 543.6750000000001,-215.25 L 510.7250000000001,-215.25 L 477.7750000000001,-215.25 L 444.82500000000005,-215.25 L 444.82500000000005,-145.75 L 411.87500000000006,-145.75 L 444.82500000000005,-76.25 L 477.7750000000001,-76.25 L 477.7750000000001,-6.75 L 510.7250000000001,-6.75 L 543.6750000000001,-6.75 L 444.82500000000005,-6.75 L 411.87500000000006,-6.75 L 378.92500000000007,-6.75 L 345.975,-6.75 L 313.02500000000003,-6.75 L 280.07500000000005,-6.75 L 247.12500000000003,-6.75 L 214.175,-6.75 L 181.225,-6.75 L 148.275,-6.75 L 115.32500000000002,-6.75 L 82.375,-6.75 L 49.425000000000004,-6.75 L 49.425000000000004,62.75 L 82.375,62.75 L 115.32500000000002,62.75 L 148.275,62.75 L 148.275,132.25 L 148.275,201.75 L 148.275,271.25 L 148.275,340.75 L 148.275,410.25 L 148.275,479.75 L 148.275,549.25 L 148.275,618.75 L 115.32500000000002,618.75 L 82.375,618.75 L 49.425000000000004,618.75 L 181.225,618.75 L 214.175,618.75 L 247.12500000000003,618.75 L 280.07500000000005,618.75 L 313.02500000000003,618.75 L 345.975,618.75 L 378.92500000000007,618.75 L 411.87500000000006,618.75 L 444.82500000000005,618.75 L 444.82500000000005,688.25 L 477.7750000000001,688.25 L 510.7250000000001,688.25 L 543.6750000000001,688.25 L 543.6750000000001,618.75 L 543.6750000000001,549.25 L 543.6750000000001,479.75 L 576.6250000000001,479.75 L 510.7250000000001,479.75 L 510.7250000000001,549.25 L 477.7750000000001,549.25 L 477.7750000000001,618.75 L 214.175,549.25 L 214.175,479.75 L 214.175,410.25 L 214.175,340.75 L 247.12500000000003,340.75 L 280.07500000000005,340.75 L 313.02500000000003,340.75 L 345.975,340.75 L 378.92500000000007,340.75 L 411.87500000000006,340.75 L 444.82500000000005,340.75 L 444.82500000000005,410.25 L 477.7750000000001,410.25 L 477.7750000000001,340.75 L 477.7750000000001,271.25 L 444.82500000000005,271.25 L 214.175,271.25 L 214.175,201.75 L 214.175,132.25 L 214.175,62.75 L 247.12500000000003,62.75 L 280.07500000000005,62.75 L 313.02500000000003,62.75 L 345.975,62.75 L 378.92500000000007,62.75 L 411.87500000000006,62.75 L 444.82500000000005,62.75 L 477.7750000000001,62.75 L 510.7250000000001,62.75 L 543.6750000000001,62.75 L 543.6750000000001,132.25 L 576.6250000000001,132.25 L 576.6250000000001,201.75 L 609.575,201.75 L 609.575,132.25 L 609.575,62.75 L 576.6250000000001,62.75 L 576.6250000000001,-6.75 L 543.6750000000001,-76.25 L 510.7250000000001,-76.25 L 477.7750000000001,-145.75 L 510.7250000000001,-145.75 L 543.6750000000001,-145.75zz"/>
    <glyph glyph-name="Gbreve" unicode="&#286;" horiz-adv-x="768" d="M 403.2,757.75 L 364.79999999999995,757.75 L 326.4,757.75 L 288.0,757.75 L 288.0,827.25 L 249.59999999999997,827.25 L 249.59999999999997,896.75 L 288.0,896.75 L 326.4,827.25 L 364.79999999999995,827.25 L 403.2,827.25 L 441.59999999999997,827.25 L 479.99999999999994,827.25 L 479.99999999999994,896.75 L 518.4,896.75 L 518.4,827.25 L 479.99999999999994,757.75 L 441.59999999999997,757.75 L 403.2,757.75zM 710.4,340.75 L 710.4,271.25 L 672.0,271.25 L 672.0,201.75 L 672.0,132.25 L 672.0,62.75 L 672.0,-6.75 L 633.6,-6.75 L 595.2,-6.75 L 595.2,62.75 L 556.8000000000001,-6.75 L 518.4,-6.75 L 479.99999999999994,-6.75 L 441.59999999999997,-6.75 L 403.2,-6.75 L 364.79999999999995,-6.75 L 326.4,-6.75 L 288.0,-6.75 L 249.59999999999997,-6.75 L 249.59999999999997,62.75 L 211.2,62.75 L 172.79999999999998,62.75 L 134.39999999999998,62.75 L 134.39999999999998,132.25 L 96.0,132.25 L 96.0,201.75 L 57.599999999999994,201.75 L 57.599999999999994,271.25 L 57.599999999999994,340.75 L 57.599999999999994,410.25 L 96.0,479.75 L 134.39999999999998,549.25 L 172.79999999999998,549.25 L 172.79999999999998,618.75 L 211.2,618.75 L 249.59999999999997,618.75 L 288.0,618.75 L 326.4,618.75 L 364.79999999999995,688.25 L 403.2,688.25 L 441.59999999999997,688.25 L 479.99999999999994,688.25 L 479.99999999999994,618.75 L 518.4,618.75 L 556.8000000000001,618.75 L 595.2,618.75 L 633.6,618.75 L 633.6,549.25 L 633.6,479.75 L 633.6,410.25 L 595.2,410.25 L 595.2,479.75 L 595.2,549.25 L 556.8000000000001,549.25 L 441.59999999999997,618.75 L 403.2,618.75 L 364.79999999999995,618.75 L 288.0,549.25 L 249.59999999999997,549.25 L 211.2,549.25 L 211.2,479.75 L 172.79999999999998,479.75 L 172.79999999999998,410.25 L 172.79999999999998,340.75 L 172.79999999999998,271.25 L 172.79999999999998,201.75 L 211.2,132.25 L 249.59999999999997,132.25 L 288.0,62.75 L 326.4,62.75 L 364.79999999999995,62.75 L 403.2,62.75 L 441.59999999999997,62.75 L 479.99999999999994,62.75 L 518.4,62.75 L 556.8000000000001,62.75 L 556.8000000000001,132.25 L 556.8000000000001,201.75 L 556.8000000000001,271.25 L 518.4,271.25 L 479.99999999999994,271.25 L 479.99999999999994,340.75 L 518.4,340.75 L 556.8000000000001,340.75 L 595.2,340.75 L 633.6,340.75 L 672.0,340.75 L 710.4,340.75zz"/>
    <glyph glyph-name="uni0122" unicode="&#290;" horiz-adv-x="768" d="M 710.4,340.75 L 710.4,271.25 L 672.0,271.25 L 672.0,201.75 L 672.0,132.25 L 672.0,62.75 L 672.0,-6.75 L 633.6,-6.75 L 595.2,-6.75 L 595.2,62.75 L 556.8000000000001,-6.75 L 518.4,-6.75 L 479.99999999999994,-6.75 L 441.59999999999997,-6.75 L 403.2,-6.75 L 364.79999999999995,-6.75 L 326.4,-6.75 L 288.0,-6.75 L 249.59999999999997,-6.75 L 249.59999999999997,62.75 L 211.2,62.75 L 172.79999999999998,62.75 L 134.39999999999998,62.75 L 134.39999999999998,132.25 L 96.0,132.25 L 96.0,201.75 L 57.599999999999994,201.75 L 57.599999999999994,271.25 L 57.599999999999994,340.75 L 57.599999999999994,410.25 L 96.0,479.75 L 134.39999999999998,549.25 L 172.79999999999998,549.25 L 172.79999999999998,618.75 L 211.2,618.75 L 249.59999999999997,618.75 L 288.0,618.75 L 326.4,618.75 L 364.79999999999995,688.25 L 403.2,688.25 L 441.59999999999997,688.25 L 479.99999999999994,688.25 L 479.99999999999994,618.75 L 518.4,618.75 L 556.8000000000001,618.75 L 595.2,618.75 L 633.6,618.75 L 633.6,549.25 L 633.6,479.75 L 633.6,410.25 L 595.2,410.25 L 595.2,479.75 L 595.2,549.25 L 556.8000000000001,549.25 L 441.59999999999997,618.75 L 403.2,618.75 L 364.79999999999995,618.75 L 288.0,549.25 L 249.59999999999997,549.25 L 211.2,549.25 L 211.2,479.75 L 172.79999999999998,479.75 L 172.79999999999998,410.25 L 172.79999999999998,340.75 L 172.79999999999998,271.25 L 172.79999999999998,201.75 L 211.2,132.25 L 249.59999999999997,132.25 L 288.0,62.75 L 326.4,62.75 L 364.79999999999995,62.75 L 403.2,62.75 L 441.59999999999997,62.75 L 479.99999999999994,62.75 L 518.4,62.75 L 556.8000000000001,62.75 L 556.8000000000001,132.25 L 556.8000000000001,201.75 L 556.8000000000001,271.25 L 518.4,271.25 L 479.99999999999994,271.25 L 479.99999999999994,340.75 L 518.4,340.75 L 556.8000000000001,340.75 L 595.2,340.75 L 633.6,340.75 L 672.0,340.75 L 710.4,340.75zM 403.2,-76.25 L 441.59999999999997,-76.25 L 441.59999999999997,-145.75 L 441.59999999999997,-215.25 L 403.2,-215.25 L 364.79999999999995,-215.25 L 403.2,-145.75 L 364.79999999999995,-145.75 L 326.4,-145.75 L 326.4,-76.25 L 364.79999999999995,-76.25 L 403.2,-76.25zz"/>
    <glyph glyph-name="Gdotaccent" unicode="&#288;" horiz-adv-x="768" d="M 403.2,757.75 L 364.79999999999995,757.75 L 326.4,757.75 L 326.4,827.25 L 326.4,896.75 L 364.79999999999995,896.75 L 403.2,896.75 L 441.59999999999997,896.75 L 441.59999999999997,827.25 L 441.59999999999997,757.75 L 403.2,757.75zM 710.4,340.75 L 710.4,271.25 L 672.0,271.25 L 672.0,201.75 L 672.0,132.25 L 672.0,62.75 L 672.0,-6.75 L 633.6,-6.75 L 595.2,-6.75 L 595.2,62.75 L 556.8000000000001,-6.75 L 518.4,-6.75 L 479.99999999999994,-6.75 L 441.59999999999997,-6.75 L 403.2,-6.75 L 364.79999999999995,-6.75 L 326.4,-6.75 L 288.0,-6.75 L 249.59999999999997,-6.75 L 249.59999999999997,62.75 L 211.2,62.75 L 172.79999999999998,62.75 L 134.39999999999998,62.75 L 134.39999999999998,132.25 L 96.0,132.25 L 96.0,201.75 L 57.599999999999994,201.75 L 57.599999999999994,271.25 L 57.599999999999994,340.75 L 57.599999999999994,410.25 L 96.0,479.75 L 134.39999999999998,549.25 L 172.79999999999998,549.25 L 172.79999999999998,618.75 L 211.2,618.75 L 249.59999999999997,618.75 L 288.0,618.75 L 326.4,618.75 L 364.79999999999995,688.25 L 403.2,688.25 L 441.59999999999997,688.25 L 479.99999999999994,688.25 L 479.99999999999994,618.75 L 518.4,618.75 L 556.8000000000001,618.75 L 595.2,618.75 L 633.6,618.75 L 633.6,549.25 L 633.6,479.75 L 633.6,410.25 L 595.2,410.25 L 595.2,479.75 L 595.2,549.25 L 556.8000000000001,549.25 L 441.59999999999997,618.75 L 403.2,618.75 L 364.79999999999995,618.75 L 288.0,549.25 L 249.59999999999997,549.25 L 211.2,549.25 L 211.2,479.75 L 172.79999999999998,479.75 L 172.79999999999998,410.25 L 172.79999999999998,340.75 L 172.79999999999998,271.25 L 172.79999999999998,201.75 L 211.2,132.25 L 249.59999999999997,132.25 L 288.0,62.75 L 326.4,62.75 L 364.79999999999995,62.75 L 403.2,62.75 L 441.59999999999997,62.75 L 479.99999999999994,62.75 L 518.4,62.75 L 556.8000000000001,62.75 L 556.8000000000001,132.25 L 556.8000000000001,201.75 L 556.8000000000001,271.25 L 518.4,271.25 L 479.99999999999994,271.25 L 479.99999999999994,340.75 L 518.4,340.75 L 556.8000000000001,340.75 L 595.2,340.75 L 633.6,340.75 L 672.0,340.75 L 710.4,340.75zz"/>
    <glyph glyph-name="Hbar" unicode="&#294;" horiz-adv-x="800" d="M 780.0,618.75 L 740.0,618.75 L 700.0,618.75 L 700.0,549.25 L 700.0,479.75 L 740.0,479.75 L 700.0,410.25 L 700.0,340.75 L 700.0,271.25 L 700.0,201.75 L 700.0,132.25 L 700.0,62.75 L 740.0,62.75 L 780.0,62.75 L 780.0,-6.75 L 740.0,-6.75 L 700.0,-6.75 L 660.0,-6.75 L 620.0,-6.75 L 580.0,-6.75 L 540.0,-6.75 L 540.0,62.75 L 580.0,62.75 L 620.0,62.75 L 620.0,132.25 L 620.0,201.75 L 620.0,271.25 L 620.0,340.75 L 580.0,340.75 L 540.0,340.75 L 500.0,340.75 L 460.0,340.75 L 420.0,340.75 L 380.0,340.75 L 340.0,340.75 L 300.0,340.75 L 260.0,340.75 L 220.0,340.75 L 220.0,271.25 L 220.0,201.75 L 220.0,132.25 L 220.0,62.75 L 260.0,62.75 L 300.0,62.75 L 300.0,-6.75 L 260.0,-6.75 L 220.0,-6.75 L 180.0,-6.75 L 140.0,-6.75 L 100.0,-6.75 L 60.0,-6.75 L 60.0,62.75 L 100.0,62.75 L 140.0,62.75 L 140.0,132.25 L 140.0,201.75 L 140.0,271.25 L 140.0,340.75 L 140.0,410.25 L 140.0,479.75 L 100.0,479.75 L 60.0,479.75 L 140.0,549.25 L 140.0,618.75 L 100.0,618.75 L 60.0,618.75 L 180.0,618.75 L 220.0,618.75 L 260.0,618.75 L 300.0,618.75 L 220.0,549.25 L 220.0,479.75 L 260.0,479.75 L 300.0,479.75 L 340.0,479.75 L 380.0,479.75 L 420.0,479.75 L 460.0,479.75 L 500.0,479.75 L 540.0,479.75 L 580.0,479.75 L 620.0,479.75 L 620.0,549.25 L 620.0,618.75 L 580.0,618.75 L 540.0,618.75 L 660.0,618.75 L 780.0,618.75zM 620.0,340.75 L 620.0,410.25 L 620.0,479.75 L 580.0,479.75 L 540.0,479.75 L 500.0,479.75 L 460.0,479.75 L 420.0,479.75 L 380.0,479.75 L 340.0,479.75 L 300.0,479.75 L 260.0,479.75 L 220.0,479.75 L 220.0,410.25 L 220.0,340.75 L 260.0,340.75 L 300.0,340.75 L 340.0,340.75 L 380.0,340.75 L 420.0,340.75 L 460.0,340.75 L 500.0,340.75 L 540.0,340.75 L 580.0,340.75 L 620.0,340.75zz"/>
    <glyph glyph-name="Iacute" unicode="&#205;" horiz-adv-x="369" d="M 359.77500000000003,827.25 L 341.325,827.25 L 322.875,827.25 L 304.425,827.25 L 285.975,827.25 L 267.52500000000003,827.25 L 249.075,827.25 L 249.075,757.75 L 230.62499999999997,757.75 L 212.17499999999998,757.75 L 193.725,757.75 L 175.27499999999998,757.75 L 156.825,757.75 L 138.375,757.75 L 119.92499999999998,757.75 L 156.825,827.25 L 175.27499999999998,827.25 L 193.725,827.25 L 212.17499999999998,827.25 L 230.62499999999997,827.25 L 249.075,896.75 L 267.52500000000003,896.75 L 285.975,896.75 L 304.425,896.75 L 322.875,896.75 L 341.325,896.75 L 359.77500000000003,827.25zM 322.875,618.75 L 304.425,618.75 L 285.975,618.75 L 267.52500000000003,618.75 L 249.075,618.75 L 230.62499999999997,618.75 L 230.62499999999997,549.25 L 230.62499999999997,479.75 L 230.62499999999997,410.25 L 230.62499999999997,340.75 L 230.62499999999997,271.25 L 230.62499999999997,201.75 L 230.62499999999997,132.25 L 230.62499999999997,62.75 L 249.075,62.75 L 267.52500000000003,62.75 L 285.975,62.75 L 304.425,62.75 L 322.875,62.75 L 322.875,-6.75 L 304.425,-6.75 L 285.975,-6.75 L 267.52500000000003,-6.75 L 249.075,-6.75 L 230.62499999999997,-6.75 L 212.17499999999998,-6.75 L 193.725,-6.75 L 175.27499999999998,-6.75 L 156.825,-6.75 L 138.375,-6.75 L 119.92499999999998,-6.75 L 101.475,-6.75 L 83.02499999999999,-6.75 L 64.57499999999999,-6.75 L 46.125,-6.75 L 46.125,62.75 L 64.57499999999999,62.75 L 83.02499999999999,62.75 L 101.475,62.75 L 119.92499999999998,62.75 L 138.375,62.75 L 138.375,132.25 L 138.375,201.75 L 138.375,271.25 L 138.375,340.75 L 138.375,410.25 L 138.375,479.75 L 138.375,549.25 L 138.375,618.75 L 119.92499999999998,618.75 L 101.475,618.75 L 83.02499999999999,618.75 L 64.57499999999999,618.75 L 46.125,618.75 L 156.825,618.75 L 175.27499999999998,618.75 L 193.725,618.75 L 212.17499999999998,618.75 L 322.875,618.75zz"/>
    <glyph glyph-name="Icircumflex" unicode="&#206;" horiz-adv-x="369" d="M 175.27499999999998,827.25 L 156.825,827.25 L 156.825,757.75 L 138.375,757.75 L 119.92499999999998,757.75 L 101.475,757.75 L 83.02499999999999,757.75 L 64.57499999999999,757.75 L 46.125,757.75 L 83.02499999999999,827.25 L 101.475,827.25 L 119.92499999999998,827.25 L 138.375,827.25 L 138.375,896.75 L 156.825,896.75 L 175.27499999999998,896.75 L 193.725,896.75 L 212.17499999999998,896.75 L 230.62499999999997,896.75 L 230.62499999999997,827.25 L 249.075,827.25 L 267.52500000000003,827.25 L 285.975,827.25 L 285.975,757.75 L 304.425,757.75 L 322.875,757.75 L 267.52500000000003,757.75 L 249.075,757.75 L 230.62499999999997,757.75 L 212.17499999999998,757.75 L 212.17499999999998,827.25 L 193.725,827.25 L 175.27499999999998,827.25zM 322.875,618.75 L 304.425,618.75 L 285.975,618.75 L 267.52500000000003,618.75 L 249.075,618.75 L 230.62499999999997,618.75 L 230.62499999999997,549.25 L 230.62499999999997,479.75 L 230.62499999999997,410.25 L 230.62499999999997,340.75 L 230.62499999999997,271.25 L 230.62499999999997,201.75 L 230.62499999999997,132.25 L 230.62499999999997,62.75 L 249.075,62.75 L 267.52500000000003,62.75 L 285.975,62.75 L 304.425,62.75 L 322.875,62.75 L 322.875,-6.75 L 304.425,-6.75 L 285.975,-6.75 L 267.52500000000003,-6.75 L 249.075,-6.75 L 230.62499999999997,-6.75 L 212.17499999999998,-6.75 L 193.725,-6.75 L 175.27499999999998,-6.75 L 156.825,-6.75 L 138.375,-6.75 L 119.92499999999998,-6.75 L 101.475,-6.75 L 83.02499999999999,-6.75 L 64.57499999999999,-6.75 L 46.125,-6.75 L 46.125,62.75 L 64.57499999999999,62.75 L 83.02499999999999,62.75 L 101.475,62.75 L 119.92499999999998,62.75 L 138.375,62.75 L 138.375,132.25 L 138.375,201.75 L 138.375,271.25 L 138.375,340.75 L 138.375,410.25 L 138.375,479.75 L 138.375,549.25 L 138.375,618.75 L 119.92499999999998,618.75 L 101.475,618.75 L 83.02499999999999,618.75 L 64.57499999999999,618.75 L 46.125,618.75 L 156.825,618.75 L 175.27499999999998,618.75 L 193.725,618.75 L 212.17499999999998,618.75 L 322.875,618.75zz"/>
    <glyph glyph-name="Idieresis" unicode="&#207;" horiz-adv-x="369" d="M 138.375,827.25 L 138.375,757.75 L 119.92499999999998,757.75 L 101.475,757.75 L 83.02499999999999,757.75 L 64.57499999999999,757.75 L 46.125,757.75 L 27.674999999999997,757.75 L 27.674999999999997,827.25 L 46.125,827.25 L 64.57499999999999,827.25 L 64.57499999999999,896.75 L 83.02499999999999,896.75 L 101.475,896.75 L 101.475,827.25 L 119.92499999999998,827.25 L 138.375,827.25zM 285.975,896.75 L 304.425,896.75 L 304.425,827.25 L 322.875,827.25 L 341.325,827.25 L 341.325,757.75 L 322.875,757.75 L 304.425,757.75 L 285.975,757.75 L 267.52500000000003,757.75 L 249.075,757.75 L 230.62499999999997,757.75 L 230.62499999999997,827.25 L 249.075,827.25 L 249.075,896.75 L 267.52500000000003,896.75 L 285.975,896.75zM 322.875,618.75 L 304.425,618.75 L 285.975,618.75 L 267.52500000000003,618.75 L 249.075,618.75 L 230.62499999999997,618.75 L 230.62499999999997,549.25 L 230.62499999999997,479.75 L 230.62499999999997,410.25 L 230.62499999999997,340.75 L 230.62499999999997,271.25 L 230.62499999999997,201.75 L 230.62499999999997,132.25 L 230.62499999999997,62.75 L 249.075,62.75 L 267.52500000000003,62.75 L 285.975,62.75 L 304.425,62.75 L 322.875,62.75 L 322.875,-6.75 L 304.425,-6.75 L 285.975,-6.75 L 267.52500000000003,-6.75 L 249.075,-6.75 L 230.62499999999997,-6.75 L 212.17499999999998,-6.75 L 193.725,-6.75 L 175.27499999999998,-6.75 L 156.825,-6.75 L 138.375,-6.75 L 119.92499999999998,-6.75 L 101.475,-6.75 L 83.02499999999999,-6.75 L 64.57499999999999,-6.75 L 46.125,-6.75 L 46.125,62.75 L 64.57499999999999,62.75 L 83.02499999999999,62.75 L 101.475,62.75 L 119.92499999999998,62.75 L 138.375,62.75 L 138.375,132.25 L 138.375,201.75 L 138.375,271.25 L 138.375,340.75 L 138.375,410.25 L 138.375,479.75 L 138.375,549.25 L 138.375,618.75 L 119.92499999999998,618.75 L 101.475,618.75 L 83.02499999999999,618.75 L 64.57499999999999,618.75 L 46.125,618.75 L 156.825,618.75 L 175.27499999999998,618.75 L 193.725,618.75 L 212.17499999999998,618.75 L 322.875,618.75zz"/>
    <glyph glyph-name="Idotaccent" unicode="&#304;" horiz-adv-x="369" d="M 175.27499999999998,757.75 L 156.825,757.75 L 138.375,757.75 L 138.375,827.25 L 119.92499999999998,827.25 L 138.375,896.75 L 156.825,896.75 L 175.27499999999998,896.75 L 193.725,896.75 L 212.17499999999998,896.75 L 230.62499999999997,896.75 L 230.62499999999997,827.25 L 249.075,827.25 L 230.62499999999997,757.75 L 212.17499999999998,757.75 L 193.725,757.75 L 175.27499999999998,757.75zM 322.875,618.75 L 304.425,618.75 L 285.975,618.75 L 267.52500000000003,618.75 L 249.075,618.75 L 230.62499999999997,618.75 L 230.62499999999997,549.25 L 230.62499999999997,479.75 L 230.62499999999997,410.25 L 230.62499999999997,340.75 L 230.62499999999997,271.25 L 230.62499999999997,201.75 L 230.62499999999997,132.25 L 230.62499999999997,62.75 L 249.075,62.75 L 267.52500000000003,62.75 L 285.975,62.75 L 304.425,62.75 L 322.875,62.75 L 322.875,-6.75 L 304.425,-6.75 L 285.975,-6.75 L 267.52500000000003,-6.75 L 249.075,-6.75 L 230.62499999999997,-6.75 L 212.17499999999998,-6.75 L 193.725,-6.75 L 175.27499999999998,-6.75 L 156.825,-6.75 L 138.375,-6.75 L 119.92499999999998,-6.75 L 101.475,-6.75 L 83.02499999999999,-6.75 L 64.57499999999999,-6.75 L 46.125,-6.75 L 46.125,62.75 L 64.57499999999999,62.75 L 83.02499999999999,62.75 L 101.475,62.75 L 119.92499999999998,62.75 L 138.375,62.75 L 138.375,132.25 L 138.375,201.75 L 138.375,271.25 L 138.375,340.75 L 138.375,410.25 L 138.375,479.75 L 138.375,549.25 L 138.375,618.75 L 119.92499999999998,618.75 L 101.475,618.75 L 83.02499999999999,618.75 L 64.57499999999999,618.75 L 46.125,618.75 L 156.825,618.75 L 175.27499999999998,618.75 L 193.725,618.75 L 212.17499999999998,618.75 L 322.875,618.75zz"/>
    <glyph glyph-name="Igrave" unicode="&#204;" horiz-adv-x="369" d="M 267.52500000000003,757.75 L 249.075,757.75 L 230.62499999999997,757.75 L 212.17499999999998,757.75 L 193.725,757.75 L 175.27499999999998,757.75 L 156.825,757.75 L 138.375,757.75 L 119.92499999999998,757.75 L 119.92499999999998,827.25 L 101.475,827.25 L 83.02499999999999,827.25 L 64.57499999999999,827.25 L 46.125,827.25 L 27.674999999999997,827.25 L 27.674999999999997,896.75 L 46.125,896.75 L 64.57499999999999,896.75 L 83.02499999999999,896.75 L 101.475,896.75 L 119.92499999999998,896.75 L 138.375,896.75 L 138.375,827.25 L 156.825,827.25 L 175.27499999999998,827.25 L 193.725,827.25 L 212.17499999999998,827.25 L 267.52500000000003,757.75zM 322.875,618.75 L 304.425,618.75 L 285.975,618.75 L 267.52500000000003,618.75 L 249.075,618.75 L 230.62499999999997,618.75 L 230.62499999999997,549.25 L 230.62499999999997,479.75 L 230.62499999999997,410.25 L 230.62499999999997,340.75 L 230.62499999999997,271.25 L 230.62499999999997,201.75 L 230.62499999999997,132.25 L 230.62499999999997,62.75 L 249.075,62.75 L 267.52500000000003,62.75 L 285.975,62.75 L 304.425,62.75 L 322.875,62.75 L 322.875,-6.75 L 304.425,-6.75 L 285.975,-6.75 L 267.52500000000003,-6.75 L 249.075,-6.75 L 230.62499999999997,-6.75 L 212.17499999999998,-6.75 L 193.725,-6.75 L 175.27499999999998,-6.75 L 156.825,-6.75 L 138.375,-6.75 L 119.92499999999998,-6.75 L 101.475,-6.75 L 83.02499999999999,-6.75 L 64.57499999999999,-6.75 L 46.125,-6.75 L 46.125,62.75 L 64.57499999999999,62.75 L 83.02499999999999,62.75 L 101.475,62.75 L 119.92499999999998,62.75 L 138.375,62.75 L 138.375,132.25 L 138.375,201.75 L 138.375,271.25 L 138.375,340.75 L 138.375,410.25 L 138.375,479.75 L 138.375,549.25 L 138.375,618.75 L 119.92499999999998,618.75 L 101.475,618.75 L 83.02499999999999,618.75 L 64.57499999999999,618.75 L 46.125,618.75 L 156.825,618.75 L 175.27499999999998,618.75 L 193.725,618.75 L 212.17499999999998,618.75 L 322.875,618.75zz"/>
    <glyph glyph-name="Imacron" unicode="&#298;" horiz-adv-x="369" d="M 9.225,827.25 L 27.674999999999997,827.25 L 46.125,827.25 L 64.57499999999999,827.25 L 83.02499999999999,827.25 L 101.475,827.25 L 119.92499999999998,827.25 L 138.375,827.25 L 156.825,827.25 L 175.27499999999998,827.25 L 193.725,827.25 L 212.17499999999998,827.25 L 230.62499999999997,827.25 L 249.075,827.25 L 267.52500000000003,827.25 L 285.975,827.25 L 304.425,827.25 L 322.875,827.25 L 341.325,827.25 L 359.77500000000003,827.25 L 359.77500000000003,757.75 L 341.325,757.75 L 322.875,757.75 L 304.425,757.75 L 285.975,757.75 L 267.52500000000003,757.75 L 249.075,757.75 L 230.62499999999997,757.75 L 212.17499999999998,757.75 L 193.725,757.75 L 175.27499999999998,757.75 L 156.825,757.75 L 138.375,757.75 L 119.92499999999998,757.75 L 101.475,757.75 L 83.02499999999999,757.75 L 64.57499999999999,757.75 L 46.125,757.75 L 27.674999999999997,757.75 L 9.225,757.75 L 9.225,827.25zM 322.875,618.75 L 304.425,618.75 L 285.975,618.75 L 267.52500000000003,618.75 L 249.075,618.75 L 230.62499999999997,618.75 L 230.62499999999997,549.25 L 230.62499999999997,479.75 L 230.62499999999997,410.25 L 230.62499999999997,340.75 L 230.62499999999997,271.25 L 230.62499999999997,201.75 L 230.62499999999997,132.25 L 230.62499999999997,62.75 L 249.075,62.75 L 267.52500000000003,62.75 L 285.975,62.75 L 304.425,62.75 L 322.875,62.75 L 322.875,-6.75 L 304.425,-6.75 L 285.975,-6.75 L 267.52500000000003,-6.75 L 249.075,-6.75 L 230.62499999999997,-6.75 L 212.17499999999998,-6.75 L 193.725,-6.75 L 175.27499999999998,-6.75 L 156.825,-6.75 L 138.375,-6.75 L 119.92499999999998,-6.75 L 101.475,-6.75 L 83.02499999999999,-6.75 L 64.57499999999999,-6.75 L 46.125,-6.75 L 46.125,62.75 L 64.57499999999999,62.75 L 83.02499999999999,62.75 L 101.475,62.75 L 119.92499999999998,62.75 L 138.375,62.75 L 138.375,132.25 L 138.375,201.75 L 138.375,271.25 L 138.375,340.75 L 138.375,410.25 L 138.375,479.75 L 138.375,549.25 L 138.375,618.75 L 119.92499999999998,618.75 L 101.475,618.75 L 83.02499999999999,618.75 L 64.57499999999999,618.75 L 46.125,618.75 L 156.825,618.75 L 175.27499999999998,618.75 L 193.725,618.75 L 212.17499999999998,618.75 L 322.875,618.75zz"/>
    <glyph glyph-name="Iogonek" unicode="&#302;" horiz-adv-x="369" d="M 322.875,618.75 L 304.425,618.75 L 285.975,618.75 L 267.52500000000003,618.75 L 249.075,618.75 L 230.62499999999997,618.75 L 230.62499999999997,549.25 L 230.62499999999997,479.75 L 230.62499999999997,410.25 L 230.62499999999997,340.75 L 230.62499999999997,271.25 L 230.62499999999997,201.75 L 230.62499999999997,132.25 L 230.62499999999997,62.75 L 249.075,62.75 L 267.52500000000003,62.75 L 285.975,62.75 L 304.425,62.75 L 322.875,62.75 L 322.875,-6.75 L 304.425,-6.75 L 285.975,-6.75 L 267.52500000000003,-6.75 L 249.075,-6.75 L 230.62499999999997,-6.75 L 212.17499999999998,-6.75 L 193.725,-6.75 L 175.27499999999998,-6.75 L 175.27499999999998,-76.25 L 156.825,-76.25 L 138.375,-76.25 L 138.375,-145.75 L 156.825,-145.75 L 175.27499999999998,-145.75 L 193.725,-145.75 L 212.17499999999998,-145.75 L 230.62499999999997,-145.75 L 249.075,-145.75 L 267.52500000000003,-145.75 L 249.075,-215.25 L 230.62499999999997,-215.25 L 212.17499999999998,-215.25 L 193.725,-215.25 L 175.27499999999998,-215.25 L 156.825,-215.25 L 138.375,-215.25 L 119.92499999999998,-215.25 L 101.475,-215.25 L 83.02499999999999,-215.25 L 83.02499999999999,-145.75 L 83.02499999999999,-76.25 L 101.475,-76.25 L 119.92499999999998,-76.25 L 138.375,-6.75 L 156.825,-6.75 L 119.92499999999998,-6.75 L 101.475,-6.75 L 83.02499999999999,-6.75 L 64.57499999999999,-6.75 L 46.125,-6.75 L 46.125,62.75 L 64.57499999999999,62.75 L 83.02499999999999,62.75 L 101.475,62.75 L 119.92499999999998,62.75 L 138.375,62.75 L 138.375,132.25 L 138.375,201.75 L 138.375,271.25 L 138.375,340.75 L 138.375,410.25 L 138.375,479.75 L 138.375,549.25 L 138.375,618.75 L 119.92499999999998,618.75 L 101.475,618.75 L 83.02499999999999,618.75 L 64.57499999999999,618.75 L 46.125,618.75 L 156.825,618.75 L 175.27499999999998,618.75 L 193.725,618.75 L 212.17499999999998,618.75 L 322.875,618.75zz"/>
    <glyph glyph-name="uni0136" unicode="&#310;" horiz-adv-x="688" d="M 395.59999999999997,271.25 L 429.99999999999994,271.25 L 429.99999999999994,201.75 L 464.4,201.75 L 498.79999999999995,201.75 L 498.79999999999995,132.25 L 533.2,132.25 L 567.6,132.25 L 567.6,62.75 L 602.0,62.75 L 636.4,62.75 L 670.8000000000001,-6.75 L 636.4,-6.75 L 602.0,-6.75 L 567.6,-6.75 L 533.2,-6.75 L 498.79999999999995,-6.75 L 498.79999999999995,62.75 L 464.4,62.75 L 429.99999999999994,62.75 L 429.99999999999994,132.25 L 395.59999999999997,132.25 L 395.59999999999997,201.75 L 361.2,201.75 L 326.79999999999995,201.75 L 326.79999999999995,271.25 L 292.4,271.25 L 258.0,340.75 L 223.59999999999997,340.75 L 223.59999999999997,271.25 L 223.59999999999997,201.75 L 223.59999999999997,132.25 L 223.59999999999997,62.75 L 258.0,62.75 L 292.4,62.75 L 326.79999999999995,62.75 L 326.79999999999995,-6.75 L 292.4,-6.75 L 258.0,-6.75 L 223.59999999999997,-6.75 L 189.2,-6.75 L 154.79999999999998,-6.75 L 120.39999999999999,-6.75 L 86.0,-6.75 L 51.599999999999994,-6.75 L 51.599999999999994,62.75 L 86.0,62.75 L 120.39999999999999,62.75 L 154.79999999999998,62.75 L 154.79999999999998,132.25 L 154.79999999999998,201.75 L 154.79999999999998,271.25 L 154.79999999999998,340.75 L 154.79999999999998,410.25 L 154.79999999999998,479.75 L 154.79999999999998,549.25 L 154.79999999999998,618.75 L 120.39999999999999,618.75 L 86.0,618.75 L 51.599999999999994,618.75 L 189.2,618.75 L 223.59999999999997,618.75 L 258.0,618.75 L 292.4,618.75 L 326.79999999999995,618.75 L 223.59999999999997,549.25 L 223.59999999999997,479.75 L 223.59999999999997,410.25 L 292.4,340.75 L 292.4,410.25 L 326.79999999999995,410.25 L 361.2,410.25 L 361.2,479.75 L 395.59999999999997,479.75 L 429.99999999999994,479.75 L 429.99999999999994,549.25 L 464.4,549.25 L 498.79999999999995,549.25 L 498.79999999999995,618.75 L 464.4,618.75 L 429.99999999999994,618.75 L 533.2,618.75 L 567.6,618.75 L 602.0,618.75 L 636.4,618.75 L 670.8000000000001,618.75 L 567.6,549.25 L 533.2,549.25 L 498.79999999999995,479.75 L 464.4,479.75 L 429.99999999999994,410.25 L 395.59999999999997,410.25 L 326.79999999999995,340.75 L 361.2,340.75 L 361.2,271.25 L 395.59999999999997,271.25zM 361.2,-76.25 L 395.59999999999997,-76.25 L 429.99999999999994,-76.25 L 429.99999999999994,-145.75 L 429.99999999999994,-215.25 L 395.59999999999997,-215.25 L 361.2,-215.25 L 326.79999999999995,-215.25 L 361.2,-145.75 L 326.79999999999995,-145.75 L 292.4,-145.75 L 292.4,-76.25 L 326.79999999999995,-76.25 L 361.2,-76.25zz"/>
    <glyph glyph-name="Lacute" unicode="&#313;" horiz-adv-x="649" d="M 340.725,827.25 L 308.27500000000003,827.25 L 275.82500000000005,827.25 L 243.37500000000003,827.25 L 243.37500000000003,757.75 L 210.925,757.75 L 178.475,757.75 L 146.025,757.75 L 113.57500000000002,757.75 L 146.025,827.25 L 178.475,827.25 L 210.925,827.25 L 243.37500000000003,896.75 L 275.82500000000005,896.75 L 308.27500000000003,896.75 L 340.725,896.75 L 340.725,827.25zM 600.325,201.75 L 632.7750000000001,201.75 L 600.325,132.25 L 600.325,62.75 L 567.8750000000001,62.75 L 567.8750000000001,-6.75 L 535.4250000000001,-6.75 L 502.9750000000001,-6.75 L 470.5250000000001,-6.75 L 438.07500000000005,-6.75 L 405.62500000000006,-6.75 L 373.17500000000007,-6.75 L 340.725,-6.75 L 308.27500000000003,-6.75 L 275.82500000000005,-6.75 L 243.37500000000003,-6.75 L 210.925,-6.75 L 178.475,-6.75 L 146.025,-6.75 L 113.57500000000002,-6.75 L 81.125,-6.75 L 48.675000000000004,-6.75 L 48.675000000000004,62.75 L 81.125,62.75 L 113.57500000000002,62.75 L 146.025,62.75 L 146.025,132.25 L 146.025,201.75 L 146.025,271.25 L 146.025,340.75 L 146.025,410.25 L 146.025,479.75 L 146.025,549.25 L 146.025,618.75 L 113.57500000000002,618.75 L 81.125,618.75 L 48.675000000000004,618.75 L 178.475,618.75 L 210.925,618.75 L 243.37500000000003,618.75 L 275.82500000000005,618.75 L 308.27500000000003,618.75 L 210.925,549.25 L 210.925,479.75 L 210.925,410.25 L 210.925,340.75 L 210.925,271.25 L 210.925,201.75 L 210.925,132.25 L 210.925,62.75 L 243.37500000000003,62.75 L 275.82500000000005,62.75 L 308.27500000000003,62.75 L 340.725,62.75 L 373.17500000000007,62.75 L 405.62500000000006,62.75 L 438.07500000000005,62.75 L 470.5250000000001,62.75 L 502.9750000000001,62.75 L 535.4250000000001,62.75 L 535.4250000000001,132.25 L 567.8750000000001,132.25 L 567.8750000000001,201.75 L 600.325,201.75zz"/>
    <glyph glyph-name="Lcaron" unicode="&#317;" horiz-adv-x="649" d="M 502.9750000000001,549.25 L 470.5250000000001,549.25 L 470.5250000000001,618.75 L 438.07500000000005,618.75 L 405.62500000000006,618.75 L 470.5250000000001,688.25 L 502.9750000000001,688.25 L 502.9750000000001,618.75 L 535.4250000000001,618.75 L 535.4250000000001,549.25 L 535.4250000000001,479.75 L 502.9750000000001,479.75 L 470.5250000000001,479.75 L 502.9750000000001,549.25zM 600.325,201.75 L 632.7750000000001,201.75 L 600.325,132.25 L 600.325,62.75 L 567.8750000000001,62.75 L 567.8750000000001,-6.75 L 535.4250000000001,-6.75 L 502.9750000000001,-6.75 L 470.5250000000001,-6.75 L 438.07500000000005,-6.75 L 405.62500000000006,-6.75 L 373.17500000000007,-6.75 L 340.725,-6.75 L 308.27500000000003,-6.75 L 275.82500000000005,-6.75 L 243.37500000000003,-6.75 L 210.925,-6.75 L 178.475,-6.75 L 146.025,-6.75 L 113.57500000000002,-6.75 L 81.125,-6.75 L 48.675000000000004,-6.75 L 48.675000000000004,62.75 L 81.125,62.75 L 113.57500000000002,62.75 L 146.025,62.75 L 146.025,132.25 L 146.025,201.75 L 146.025,271.25 L 146.025,340.75 L 146.025,410.25 L 146.025,479.75 L 146.025,549.25 L 146.025,618.75 L 113.57500000000002,618.75 L 81.125,618.75 L 48.675000000000004,618.75 L 178.475,618.75 L 210.925,618.75 L 243.37500000000003,618.75 L 275.82500000000005,618.75 L 308.27500000000003,618.75 L 210.925,549.25 L 210.925,479.75 L 210.925,410.25 L 210.925,340.75 L 210.925,271.25 L 210.925,201.75 L 210.925,132.25 L 210.925,62.75 L 243.37500000000003,62.75 L 275.82500000000005,62.75 L 308.27500000000003,62.75 L 340.725,62.75 L 373.17500000000007,62.75 L 405.62500000000006,62.75 L 438.07500000000005,62.75 L 470.5250000000001,62.75 L 502.9750000000001,62.75 L 535.4250000000001,62.75 L 535.4250000000001,132.25 L 567.8750000000001,132.25 L 567.8750000000001,201.75 L 600.325,201.75zz"/>
    <glyph glyph-name="uni013B" unicode="&#315;" horiz-adv-x="649" d="M 600.325,201.75 L 632.7750000000001,201.75 L 600.325,132.25 L 600.325,62.75 L 567.8750000000001,62.75 L 567.8750000000001,-6.75 L 535.4250000000001,-6.75 L 502.9750000000001,-6.75 L 470.5250000000001,-6.75 L 438.07500000000005,-6.75 L 405.62500000000006,-6.75 L 373.17500000000007,-6.75 L 340.725,-6.75 L 308.27500000000003,-6.75 L 275.82500000000005,-6.75 L 243.37500000000003,-6.75 L 210.925,-6.75 L 178.475,-6.75 L 146.025,-6.75 L 113.57500000000002,-6.75 L 81.125,-6.75 L 48.675000000000004,-6.75 L 48.675000000000004,62.75 L 81.125,62.75 L 113.57500000000002,62.75 L 146.025,62.75 L 146.025,132.25 L 146.025,201.75 L 146.025,271.25 L 146.025,340.75 L 146.025,410.25 L 146.025,479.75 L 146.025,549.25 L 146.025,618.75 L 113.57500000000002,618.75 L 81.125,618.75 L 48.675000000000004,618.75 L 178.475,618.75 L 210.925,618.75 L 243.37500000000003,618.75 L 275.82500000000005,618.75 L 308.27500000000003,618.75 L 210.925,549.25 L 210.925,479.75 L 210.925,410.25 L 210.925,340.75 L 210.925,271.25 L 210.925,201.75 L 210.925,132.25 L 210.925,62.75 L 243.37500000000003,62.75 L 275.82500000000005,62.75 L 308.27500000000003,62.75 L 340.725,62.75 L 373.17500000000007,62.75 L 405.62500000000006,62.75 L 438.07500000000005,62.75 L 470.5250000000001,62.75 L 502.9750000000001,62.75 L 535.4250000000001,62.75 L 535.4250000000001,132.25 L 567.8750000000001,132.25 L 567.8750000000001,201.75 L 600.325,201.75zM 340.725,-76.25 L 373.17500000000007,-76.25 L 405.62500000000006,-76.25 L 405.62500000000006,-145.75 L 405.62500000000006,-215.25 L 373.17500000000007,-215.25 L 340.725,-215.25 L 308.27500000000003,-215.25 L 373.17500000000007,-145.75 L 340.725,-145.75 L 308.27500000000003,-145.75 L 275.82500000000005,-145.75 L 275.82500000000005,-76.25 L 308.27500000000003,-76.25 L 340.725,-76.25zz"/>
    <glyph glyph-name="Lslash" unicode="&#321;" horiz-adv-x="649" d="M 600.325,201.75 L 632.7750000000001,201.75 L 600.325,132.25 L 600.325,62.75 L 567.8750000000001,62.75 L 567.8750000000001,-6.75 L 535.4250000000001,-6.75 L 502.9750000000001,-6.75 L 470.5250000000001,-6.75 L 438.07500000000005,-6.75 L 405.62500000000006,-6.75 L 373.17500000000007,-6.75 L 340.725,-6.75 L 308.27500000000003,-6.75 L 275.82500000000005,-6.75 L 243.37500000000003,-6.75 L 210.925,-6.75 L 178.475,-6.75 L 146.025,-6.75 L 113.57500000000002,-6.75 L 81.125,-6.75 L 48.675000000000004,-6.75 L 48.675000000000004,62.75 L 81.125,62.75 L 113.57500000000002,62.75 L 146.025,62.75 L 146.025,132.25 L 146.025,201.75 L 146.025,271.25 L 113.57500000000002,271.25 L 113.57500000000002,201.75 L 81.125,201.75 L 48.675000000000004,201.75 L 81.125,271.25 L 146.025,340.75 L 146.025,410.25 L 146.025,479.75 L 146.025,549.25 L 146.025,618.75 L 113.57500000000002,618.75 L 81.125,618.75 L 48.675000000000004,618.75 L 178.475,618.75 L 210.925,618.75 L 243.37500000000003,618.75 L 275.82500000000005,618.75 L 308.27500000000003,618.75 L 210.925,549.25 L 210.925,479.75 L 210.925,410.25 L 243.37500000000003,410.25 L 275.82500000000005,410.25 L 275.82500000000005,479.75 L 308.27500000000003,479.75 L 340.725,479.75 L 340.725,410.25 L 308.27500000000003,410.25 L 275.82500000000005,340.75 L 243.37500000000003,340.75 L 210.925,340.75 L 210.925,271.25 L 210.925,201.75 L 210.925,132.25 L 210.925,62.75 L 243.37500000000003,62.75 L 275.82500000000005,62.75 L 308.27500000000003,62.75 L 340.725,62.75 L 373.17500000000007,62.75 L 405.62500000000006,62.75 L 438.07500000000005,62.75 L 470.5250000000001,62.75 L 502.9750000000001,62.75 L 535.4250000000001,62.75 L 535.4250000000001,132.25 L 567.8750000000001,132.25 L 567.8750000000001,201.75 L 600.325,201.75zz"/>
    <glyph glyph-name="Nacute" unicode="&#323;" horiz-adv-x="834" d="M 604.6500000000001,827.25 L 562.95,827.25 L 521.25,827.25 L 479.55000000000007,827.25 L 479.55000000000007,757.75 L 437.85,757.75 L 396.15000000000003,757.75 L 354.45000000000005,757.75 L 396.15000000000003,827.25 L 437.85,827.25 L 479.55000000000007,896.75 L 521.25,896.75 L 562.95,896.75 L 604.6500000000001,827.25zM 813.1500000000001,618.75 L 771.45,618.75 L 729.7500000000001,618.75 L 688.0500000000001,618.75 L 688.0500000000001,549.25 L 688.0500000000001,479.75 L 688.0500000000001,410.25 L 688.0500000000001,340.75 L 688.0500000000001,271.25 L 688.0500000000001,201.75 L 688.0500000000001,132.25 L 688.0500000000001,62.75 L 688.0500000000001,-6.75 L 646.35,-6.75 L 646.35,62.75 L 604.6500000000001,62.75 L 562.95,132.25 L 521.25,132.25 L 521.25,201.75 L 479.55000000000007,201.75 L 479.55000000000007,271.25 L 437.85,271.25 L 396.15000000000003,271.25 L 396.15000000000003,340.75 L 354.45000000000005,340.75 L 354.45000000000005,410.25 L 312.75000000000006,410.25 L 271.05,410.25 L 271.05,479.75 L 229.35,479.75 L 229.35,549.25 L 187.65,549.25 L 187.65,479.75 L 187.65,410.25 L 187.65,340.75 L 187.65,271.25 L 229.35,271.25 L 229.35,201.75 L 229.35,132.25 L 229.35,62.75 L 271.05,62.75 L 312.75000000000006,62.75 L 354.45000000000005,62.75 L 354.45000000000005,-6.75 L 312.75000000000006,-6.75 L 271.05,-6.75 L 229.35,-6.75 L 187.65,-6.75 L 145.95000000000002,-6.75 L 104.25,-6.75 L 62.550000000000004,-6.75 L 62.550000000000004,62.75 L 104.25,62.75 L 145.95000000000002,62.75 L 145.95000000000002,132.25 L 145.95000000000002,201.75 L 145.95000000000002,271.25 L 145.95000000000002,340.75 L 145.95000000000002,410.25 L 145.95000000000002,479.75 L 145.95000000000002,549.25 L 145.95000000000002,618.75 L 104.25,618.75 L 62.550000000000004,618.75 L 187.65,618.75 L 229.35,618.75 L 271.05,618.75 L 271.05,549.25 L 312.75000000000006,549.25 L 354.45000000000005,549.25 L 354.45000000000005,479.75 L 396.15000000000003,479.75 L 396.15000000000003,410.25 L 437.85,410.25 L 437.85,340.75 L 479.55000000000007,340.75 L 521.25,340.75 L 521.25,271.25 L 562.95,271.25 L 562.95,201.75 L 604.6500000000001,201.75 L 646.35,201.75 L 646.35,132.25 L 646.35,271.25 L 646.35,340.75 L 646.35,410.25 L 646.35,479.75 L 646.35,549.25 L 646.35,618.75 L 604.6500000000001,618.75 L 562.95,618.75 L 521.25,618.75 L 813.1500000000001,618.75zz"/>
    <glyph glyph-name="Ncaron" unicode="&#327;" horiz-adv-x="834" d="M 437.85,757.75 L 396.15000000000003,757.75 L 354.45000000000005,757.75 L 354.45000000000005,827.25 L 312.75000000000006,827.25 L 312.75000000000006,896.75 L 271.05,896.75 L 354.45000000000005,896.75 L 396.15000000000003,827.25 L 437.85,827.25 L 479.55000000000007,827.25 L 479.55000000000007,896.75 L 521.25,896.75 L 562.95,896.75 L 521.25,827.25 L 479.55000000000007,757.75 L 437.85,757.75zM 813.1500000000001,618.75 L 771.45,618.75 L 729.7500000000001,618.75 L 688.0500000000001,618.75 L 688.0500000000001,549.25 L 688.0500000000001,479.75 L 688.0500000000001,410.25 L 688.0500000000001,340.75 L 688.0500000000001,271.25 L 688.0500000000001,201.75 L 688.0500000000001,132.25 L 688.0500000000001,62.75 L 688.0500000000001,-6.75 L 646.35,-6.75 L 646.35,62.75 L 604.6500000000001,62.75 L 562.95,132.25 L 521.25,132.25 L 521.25,201.75 L 479.55000000000007,201.75 L 479.55000000000007,271.25 L 437.85,271.25 L 396.15000000000003,271.25 L 396.15000000000003,340.75 L 354.45000000000005,340.75 L 354.45000000000005,410.25 L 312.75000000000006,410.25 L 271.05,410.25 L 271.05,479.75 L 229.35,479.75 L 229.35,549.25 L 187.65,549.25 L 187.65,479.75 L 187.65,410.25 L 187.65,340.75 L 187.65,271.25 L 229.35,271.25 L 229.35,201.75 L 229.35,132.25 L 229.35,62.75 L 271.05,62.75 L 312.75000000000006,62.75 L 354.45000000000005,62.75 L 354.45000000000005,-6.75 L 312.75000000000006,-6.75 L 271.05,-6.75 L 229.35,-6.75 L 187.65,-6.75 L 145.95000000000002,-6.75 L 104.25,-6.75 L 62.550000000000004,-6.75 L 62.550000000000004,62.75 L 104.25,62.75 L 145.95000000000002,62.75 L 145.95000000000002,132.25 L 145.95000000000002,201.75 L 145.95000000000002,271.25 L 145.95000000000002,340.75 L 145.95000000000002,410.25 L 145.95000000000002,479.75 L 145.95000000000002,549.25 L 145.95000000000002,618.75 L 104.25,618.75 L 62.550000000000004,618.75 L 187.65,618.75 L 229.35,618.75 L 271.05,618.75 L 271.05,549.25 L 312.75000000000006,549.25 L 354.45000000000005,549.25 L 354.45000000000005,479.75 L 396.15000000000003,479.75 L 396.15000000000003,410.25 L 437.85,410.25 L 437.85,340.75 L 479.55000000000007,340.75 L 521.25,340.75 L 521.25,271.25 L 562.95,271.25 L 562.95,201.75 L 604.6500000000001,201.75 L 646.35,201.75 L 646.35,132.25 L 646.35,271.25 L 646.35,340.75 L 646.35,410.25 L 646.35,479.75 L 646.35,549.25 L 646.35,618.75 L 604.6500000000001,618.75 L 562.95,618.75 L 521.25,618.75 L 813.1500000000001,618.75zz"/>
    <glyph glyph-name="uni0145" unicode="&#325;" horiz-adv-x="834" d="M 813.1500000000001,618.75 L 771.45,618.75 L 729.7500000000001,618.75 L 688.0500000000001,618.75 L 688.0500000000001,549.25 L 688.0500000000001,479.75 L 688.0500000000001,410.25 L 688.0500000000001,340.75 L 688.0500000000001,271.25 L 688.0500000000001,201.75 L 688.0500000000001,132.25 L 688.0500000000001,62.75 L 688.0500000000001,-6.75 L 646.35,-6.75 L 646.35,62.75 L 604.6500000000001,62.75 L 562.95,132.25 L 521.25,132.25 L 521.25,201.75 L 479.55000000000007,201.75 L 479.55000000000007,271.25 L 437.85,271.25 L 396.15000000000003,271.25 L 396.15000000000003,340.75 L 354.45000000000005,340.75 L 354.45000000000005,410.25 L 312.75000000000006,410.25 L 271.05,410.25 L 271.05,479.75 L 229.35,479.75 L 229.35,549.25 L 187.65,549.25 L 187.65,479.75 L 187.65,410.25 L 187.65,340.75 L 187.65,271.25 L 229.35,271.25 L 229.35,201.75 L 229.35,132.25 L 229.35,62.75 L 271.05,62.75 L 312.75000000000006,62.75 L 354.45000000000005,62.75 L 354.45000000000005,-6.75 L 312.75000000000006,-6.75 L 271.05,-6.75 L 229.35,-6.75 L 187.65,-6.75 L 145.95000000000002,-6.75 L 104.25,-6.75 L 62.550000000000004,-6.75 L 62.550000000000004,62.75 L 104.25,62.75 L 145.95000000000002,62.75 L 145.95000000000002,132.25 L 145.95000000000002,201.75 L 145.95000000000002,271.25 L 145.95000000000002,340.75 L 145.95000000000002,410.25 L 145.95000000000002,479.75 L 145.95000000000002,549.25 L 145.95000000000002,618.75 L 104.25,618.75 L 62.550000000000004,618.75 L 187.65,618.75 L 229.35,618.75 L 271.05,618.75 L 271.05,549.25 L 312.75000000000006,549.25 L 354.45000000000005,549.25 L 354.45000000000005,479.75 L 396.15000000000003,479.75 L 396.15000000000003,410.25 L 437.85,410.25 L 437.85,340.75 L 479.55000000000007,340.75 L 521.25,340.75 L 521.25,271.25 L 562.95,271.25 L 562.95,201.75 L 604.6500000000001,201.75 L 646.35,201.75 L 646.35,132.25 L 646.35,271.25 L 646.35,340.75 L 646.35,410.25 L 646.35,479.75 L 646.35,549.25 L 646.35,618.75 L 604.6500000000001,618.75 L 562.95,618.75 L 521.25,618.75 L 813.1500000000001,618.75zM 437.85,-76.25 L 479.55000000000007,-76.25 L 479.55000000000007,-145.75 L 479.55000000000007,-215.25 L 437.85,-215.25 L 396.15000000000003,-215.25 L 437.85,-145.75 L 396.15000000000003,-145.75 L 354.45000000000005,-145.75 L 354.45000000000005,-76.25 L 396.15000000000003,-76.25 L 437.85,-76.25zz"/>
    <glyph glyph-name="Eng" unicode="&#330;" horiz-adv-x="834" d="M 813.1500000000001,618.75 L 771.45,618.75 L 729.7500000000001,618.75 L 688.0500000000001,618.75 L 688.0500000000001,549.25 L 688.0500000000001,479.75 L 688.0500000000001,410.25 L 688.0500000000001,340.75 L 688.0500000000001,271.25 L 688.0500000000001,201.75 L 688.0500000000001,132.25 L 688.0500000000001,62.75 L 688.0500000000001,-6.75 L 688.0500000000001,-76.25 L 688.0500000000001,-145.75 L 646.35,-145.75 L 604.6500000000001,-145.75 L 604.6500000000001,-215.25 L 562.95,-215.25 L 521.25,-215.25 L 521.25,-145.75 L 562.95,-145.75 L 604.6500000000001,-76.25 L 646.35,-76.25 L 646.35,-6.75 L 646.35,62.75 L 604.6500000000001,62.75 L 562.95,132.25 L 521.25,132.25 L 521.25,201.75 L 479.55000000000007,201.75 L 479.55000000000007,271.25 L 437.85,271.25 L 396.15000000000003,271.25 L 396.15000000000003,340.75 L 354.45000000000005,340.75 L 354.45000000000005,410.25 L 312.75000000000006,410.25 L 271.05,410.25 L 271.05,479.75 L 229.35,479.75 L 229.35,549.25 L 187.65,549.25 L 187.65,479.75 L 187.65,410.25 L 187.65,340.75 L 187.65,271.25 L 229.35,271.25 L 229.35,201.75 L 229.35,132.25 L 229.35,62.75 L 271.05,62.75 L 312.75000000000006,62.75 L 354.45000000000005,62.75 L 354.45000000000005,-6.75 L 312.75000000000006,-6.75 L 271.05,-6.75 L 229.35,-6.75 L 187.65,-6.75 L 145.95000000000002,-6.75 L 104.25,-6.75 L 62.550000000000004,-6.75 L 62.550000000000004,62.75 L 104.25,62.75 L 145.95000000000002,62.75 L 145.95000000000002,132.25 L 145.95000000000002,201.75 L 145.95000000000002,271.25 L 145.95000000000002,340.75 L 145.95000000000002,410.25 L 145.95000000000002,479.75 L 145.95000000000002,549.25 L 145.95000000000002,618.75 L 104.25,618.75 L 62.550000000000004,618.75 L 187.65,618.75 L 229.35,618.75 L 271.05,618.75 L 271.05,549.25 L 312.75000000000006,549.25 L 354.45000000000005,549.25 L 354.45000000000005,479.75 L 396.15000000000003,479.75 L 396.15000000000003,410.25 L 437.85,410.25 L 437.85,340.75 L 479.55000000000007,340.75 L 521.25,340.75 L 521.25,271.25 L 562.95,271.25 L 562.95,201.75 L 604.6500000000001,201.75 L 646.35,201.75 L 646.35,132.25 L 646.35,271.25 L 646.35,340.75 L 646.35,410.25 L 646.35,479.75 L 646.35,549.25 L 646.35,618.75 L 604.6500000000001,618.75 L 562.95,618.75 L 521.25,618.75 L 813.1500000000001,618.75zz"/>
    <glyph glyph-name="Ntilde" unicode="&#209;" horiz-adv-x="834" d="M 312.75000000000006,827.25 L 312.75000000000006,757.75 L 271.05,757.75 L 229.35,757.75 L 271.05,827.25 L 312.75000000000006,896.75 L 354.45000000000005,896.75 L 354.45000000000005,827.25 L 396.15000000000003,827.25 L 437.85,827.25 L 479.55000000000007,827.25 L 521.25,827.25 L 562.95,827.25 L 562.95,896.75 L 604.6500000000001,896.75 L 604.6500000000001,827.25 L 562.95,757.75 L 521.25,757.75 L 479.55000000000007,757.75 L 437.85,757.75 L 396.15000000000003,757.75 L 312.75000000000006,827.25zM 813.1500000000001,618.75 L 771.45,618.75 L 729.7500000000001,618.75 L 688.0500000000001,618.75 L 688.0500000000001,549.25 L 688.0500000000001,479.75 L 688.0500000000001,410.25 L 688.0500000000001,340.75 L 688.0500000000001,271.25 L 688.0500000000001,201.75 L 688.0500000000001,132.25 L 688.0500000000001,62.75 L 688.0500000000001,-6.75 L 646.35,-6.75 L 646.35,62.75 L 604.6500000000001,62.75 L 562.95,132.25 L 521.25,132.25 L 521.25,201.75 L 479.55000000000007,201.75 L 479.55000000000007,271.25 L 437.85,271.25 L 396.15000000000003,271.25 L 396.15000000000003,340.75 L 354.45000000000005,340.75 L 354.45000000000005,410.25 L 312.75000000000006,410.25 L 271.05,410.25 L 271.05,479.75 L 229.35,479.75 L 229.35,549.25 L 187.65,549.25 L 187.65,479.75 L 187.65,410.25 L 187.65,340.75 L 187.65,271.25 L 229.35,271.25 L 229.35,201.75 L 229.35,132.25 L 229.35,62.75 L 271.05,62.75 L 312.75000000000006,62.75 L 354.45000000000005,62.75 L 354.45000000000005,-6.75 L 312.75000000000006,-6.75 L 271.05,-6.75 L 229.35,-6.75 L 187.65,-6.75 L 145.95000000000002,-6.75 L 104.25,-6.75 L 62.550000000000004,-6.75 L 62.550000000000004,62.75 L 104.25,62.75 L 145.95000000000002,62.75 L 145.95000000000002,132.25 L 145.95000000000002,201.75 L 145.95000000000002,271.25 L 145.95000000000002,340.75 L 145.95000000000002,410.25 L 145.95000000000002,479.75 L 145.95000000000002,549.25 L 145.95000000000002,618.75 L 104.25,618.75 L 62.550000000000004,618.75 L 187.65,618.75 L 229.35,618.75 L 271.05,618.75 L 271.05,549.25 L 312.75000000000006,549.25 L 354.45000000000005,549.25 L 354.45000000000005,479.75 L 396.15000000000003,479.75 L 396.15000000000003,410.25 L 437.85,410.25 L 437.85,340.75 L 479.55000000000007,340.75 L 521.25,340.75 L 521.25,271.25 L 562.95,271.25 L 562.95,201.75 L 604.6500000000001,201.75 L 646.35,201.75 L 646.35,132.25 L 646.35,271.25 L 646.35,340.75 L 646.35,410.25 L 646.35,479.75 L 646.35,549.25 L 646.35,618.75 L 604.6500000000001,618.75 L 562.95,618.75 L 521.25,618.75 L 813.1500000000001,618.75zz"/>
    <glyph glyph-name="Oacute" unicode="&#211;" horiz-adv-x="786" d="M 334.04999999999995,757.75 L 373.34999999999997,757.75 L 373.34999999999997,827.25 L 412.65,827.25 L 451.94999999999993,827.25 L 451.94999999999993,896.75 L 491.24999999999994,896.75 L 530.55,896.75 L 569.8499999999999,896.75 L 569.8499999999999,827.25 L 530.55,827.25 L 491.24999999999994,827.25 L 451.94999999999993,757.75 L 412.65,757.75 L 334.04999999999995,757.75zM 412.65,-6.75 L 373.34999999999997,-6.75 L 334.04999999999995,-6.75 L 294.74999999999994,-6.75 L 255.45,-6.75 L 216.15,-6.75 L 216.15,62.75 L 176.85,62.75 L 137.54999999999998,62.75 L 137.54999999999998,132.25 L 98.25,132.25 L 98.25,201.75 L 58.949999999999996,201.75 L 58.949999999999996,271.25 L 58.949999999999996,340.75 L 58.949999999999996,410.25 L 98.25,479.75 L 98.25,549.25 L 137.54999999999998,549.25 L 176.85,549.25 L 176.85,618.75 L 216.15,618.75 L 255.45,618.75 L 294.74999999999994,618.75 L 334.04999999999995,618.75 L 334.04999999999995,688.25 L 373.34999999999997,688.25 L 412.65,688.25 L 451.94999999999993,688.25 L 451.94999999999993,618.75 L 491.24999999999994,618.75 L 530.55,618.75 L 569.8499999999999,618.75 L 609.15,618.75 L 609.15,549.25 L 648.4499999999999,549.25 L 687.7499999999999,549.25 L 687.7499999999999,479.75 L 727.05,410.25 L 727.05,340.75 L 727.05,271.25 L 727.05,201.75 L 687.7499999999999,201.75 L 687.7499999999999,132.25 L 648.4499999999999,132.25 L 648.4499999999999,62.75 L 609.15,62.75 L 569.8499999999999,62.75 L 569.8499999999999,-6.75 L 530.55,-6.75 L 491.24999999999994,-6.75 L 451.94999999999993,-6.75 L 412.65,-6.75zM 412.65,62.75 L 451.94999999999993,62.75 L 491.24999999999994,62.75 L 530.55,62.75 L 569.8499999999999,62.75 L 569.8499999999999,132.25 L 609.15,132.25 L 609.15,201.75 L 609.15,271.25 L 648.4499999999999,271.25 L 648.4499999999999,340.75 L 609.15,340.75 L 609.15,410.25 L 609.15,479.75 L 569.8499999999999,479.75 L 569.8499999999999,549.25 L 530.55,549.25 L 530.55,618.75 L 491.24999999999994,618.75 L 451.94999999999993,618.75 L 412.65,618.75 L 373.34999999999997,618.75 L 334.04999999999995,618.75 L 294.74999999999994,618.75 L 255.45,618.75 L 255.45,549.25 L 216.15,549.25 L 216.15,479.75 L 176.85,479.75 L 176.85,410.25 L 176.85,340.75 L 137.54999999999998,340.75 L 137.54999999999998,271.25 L 176.85,271.25 L 176.85,201.75 L 176.85,132.25 L 216.15,132.25 L 216.15,62.75 L 255.45,62.75 L 294.74999999999994,62.75 L 334.04999999999995,62.75 L 373.34999999999997,62.75 L 412.65,62.75zz"/>
    </font>
</defs>
</svg>
