<svg xmlns="http://www.w3.org/2000/svg" xmlns:xlink="http://www.w3.org/1999/xlink" version="1.1">
<metadata>
Created by FontForge 20190801 at Mon Sep 16 20:41:22 2019
 By Unknown
Copyright \(c\) 2015 by Lucas Descroix. All rights reserved.
</metadata>
<defs>
<font id="FerroForgeBase-Italic" horiz-adv-x="0">
  <font-face font-family="FerroForje-Italic#20" font-weight="400" font-style="italic" font-stretch="normal" units-per-em="1000" panose-1="0 0 5 0 0 0 0 0 0 0" ascent="750" descent="-250" x-height="509" cap-height="650" bbox="-422 -287 1125 992.216" underline-thickness="50" underline-position="-100" slope="-10" unicode-range="U+000D-FB02"/>
<missing-glyph horiz-adv-x="617"/>
    <glyph glyph-name="fi" unicode="fi" horiz-adv-x="615" d="M 599.625,618.75 L 568.875,618.75 L 538.125,618.75 L 538.125,549.25 L 507.375,549.25 L 507.375,618.75 L 476.625,618.75 L 476.625,688.25 L 507.375,688.25 L 445.875,688.25 L 415.125,688.25 L 415.125,757.75 L 384.375,757.75 L 353.625,757.75 L 322.875,757.75 L 292.125,757.75 L 292.125,688.25 L 261.375,688.25 L 230.625,688.25 L 230.625,618.75 L 230.625,549.25 L 199.875,549.25 L 199.875,479.75 L 230.625,479.75 L 261.375,479.75 L 292.125,479.75 L 322.875,479.75 L 322.875,410.25 L 292.125,410.25 L 261.375,410.25 L 230.625,410.25 L 199.875,410.25 L 169.125,410.25 L 169.125,340.75 L 169.125,271.25 L 169.125,201.75 L 138.375,201.75 L 138.375,132.25 L 138.375,62.75 L 107.625,62.75 L 107.625,-6.75 L 107.625,-76.25 L 76.875,-76.25 L 76.875,-145.75 L 46.125,-145.75 L 46.125,-215.25 L 15.375,-215.25 L 15.375,-145.75 L 15.375,-76.25 L 46.125,-76.25 L 46.125,-6.75 L 46.125,62.75 L 46.125,132.25 L 76.875,132.25 L 76.875,201.75 L 76.875,271.25 L 107.625,340.75 L 107.625,410.25 L 76.875,410.25 L 46.125,410.25 L 46.125,479.75 L 76.875,479.75 L 107.625,479.75 L 138.375,479.75 L 138.375,549.25 L 138.375,618.75 L 169.125,688.25 L 199.875,688.25 L 199.875,757.75 L 230.625,757.75 L 261.375,757.75 L 292.125,827.25 L 322.875,827.25 L 353.625,827.25 L 384.375,827.25 L 415.125,827.25 L 445.875,757.75 L 476.625,757.75 L 507.375,757.75 L 538.125,757.75 L 538.125,688.25 L 568.875,688.25 L 599.625,688.25 L 599.625,618.75zM 476.625,62.75 L 507.375,62.75 L 507.375,132.25 L 538.125,132.25 L 568.875,132.25 L 568.875,62.75 L 538.125,62.75 L 507.375,-6.75 L 476.625,-6.75 L 445.875,-6.75 L 415.125,-6.75 L 384.375,-6.75 L 384.375,62.75 L 384.375,132.25 L 384.375,201.75 L 415.125,201.75 L 415.125,271.25 L 445.875,271.25 L 445.875,340.75 L 476.625,340.75 L 476.625,410.25 L 445.875,410.25 L 415.125,410.25 L 415.125,340.75 L 384.375,340.75 L 353.625,340.75 L 384.375,410.25 L 415.125,479.75 L 445.875,479.75 L 476.625,479.75 L 507.375,479.75 L 538.125,479.75 L 538.125,410.25 L 538.125,340.75 L 538.125,271.25 L 507.375,271.25 L 507.375,201.75 L 476.625,201.75 L 476.625,132.25 L 445.875,62.75 L 476.625,62.75zz"/>
    <glyph glyph-name="fl" unicode="fl" horiz-adv-x="577" d="M 504.87500000000006,132.25 L 533.725,132.25 L 533.725,62.75 L 504.87500000000006,62.75 L 476.02500000000003,62.75 L 476.02500000000003,-6.75 L 447.175,-6.75 L 418.32500000000005,-6.75 L 389.475,-6.75 L 360.62500000000006,-6.75 L 360.62500000000006,62.75 L 360.62500000000006,132.25 L 360.62500000000006,201.75 L 360.62500000000006,271.25 L 389.475,271.25 L 389.475,340.75 L 389.475,410.25 L 418.32500000000005,410.25 L 418.32500000000005,479.75 L 418.32500000000005,549.25 L 418.32500000000005,618.75 L 447.175,618.75 L 447.175,688.25 L 418.32500000000005,688.25 L 389.475,688.25 L 389.475,757.75 L 360.62500000000006,757.75 L 331.77500000000003,757.75 L 302.925,757.75 L 274.07500000000005,757.75 L 245.22500000000002,757.75 L 245.22500000000002,688.25 L 245.22500000000002,618.75 L 216.37500000000003,618.75 L 216.37500000000003,549.25 L 187.52500000000003,549.25 L 187.52500000000003,479.75 L 216.37500000000003,479.75 L 245.22500000000002,479.75 L 274.07500000000005,479.75 L 302.925,479.75 L 331.77500000000003,479.75 L 302.925,410.25 L 274.07500000000005,410.25 L 245.22500000000002,410.25 L 216.37500000000003,410.25 L 187.52500000000003,410.25 L 158.675,340.75 L 158.675,271.25 L 158.675,201.75 L 129.82500000000002,201.75 L 129.82500000000002,132.25 L 129.82500000000002,62.75 L 100.97500000000001,62.75 L 100.97500000000001,-6.75 L 100.97500000000001,-76.25 L 72.125,-76.25 L 72.125,-145.75 L 43.275000000000006,-145.75 L 43.275000000000006,-215.25 L 14.425,-215.25 L 14.425,-145.75 L 14.425,-76.25 L 14.425,-6.75 L 43.275000000000006,-6.75 L 43.275000000000006,62.75 L 43.275000000000006,132.25 L 72.125,132.25 L 72.125,201.75 L 72.125,271.25 L 72.125,340.75 L 100.97500000000001,340.75 L 100.97500000000001,410.25 L 72.125,410.25 L 43.275000000000006,410.25 L 14.425,410.25 L 43.275000000000006,479.75 L 72.125,479.75 L 100.97500000000001,479.75 L 129.82500000000002,479.75 L 129.82500000000002,549.25 L 129.82500000000002,618.75 L 158.675,618.75 L 158.675,688.25 L 187.52500000000003,688.25 L 187.52500000000003,757.75 L 216.37500000000003,757.75 L 245.22500000000002,827.25 L 274.07500000000005,827.25 L 302.925,827.25 L 331.77500000000003,827.25 L 360.62500000000006,827.25 L 389.475,827.25 L 418.32500000000005,827.25 L 418.32500000000005,757.75 L 447.175,757.75 L 476.02500000000003,757.75 L 504.87500000000006,757.75 L 533.725,757.75 L 533.725,688.25 L 533.725,618.75 L 504.87500000000006,618.75 L 504.87500000000006,549.25 L 504.87500000000006,479.75 L 476.02500000000003,479.75 L 476.02500000000003,410.25 L 476.02500000000003,340.75 L 447.175,340.75 L 447.175,271.25 L 447.175,201.75 L 447.175,132.25 L 418.32500000000005,132.25 L 418.32500000000005,62.75 L 447.175,62.75 L 476.02500000000003,132.25 L 504.87500000000006,132.25zz"/>
    <glyph glyph-name=".notdef" horiz-adv-x="617"/>
    <glyph glyph-name="NULL" horiz-adv-x="4"/>
    <glyph glyph-name="NULL" horiz-adv-x="4"/>
    <glyph glyph-name="CR" unicode="&#13;" horiz-adv-x="617"/>
    <glyph glyph-name="space" unicode=" " horiz-adv-x="210"/>
    <glyph glyph-name="A" unicode="A" horiz-adv-x="726" d="M 598.9499999999999,62.75 L 635.2499999999999,62.75 L 671.55,62.75 L 671.55,-6.75 L 635.2499999999999,-6.75 L 598.9499999999999,-6.75 L 562.65,-6.75 L 526.3499999999999,-6.75 L 490.04999999999995,-6.75 L 453.74999999999994,-6.75 L 417.44999999999993,-6.75 L 417.44999999999993,62.75 L 453.74999999999994,62.75 L 490.04999999999995,62.75 L 490.04999999999995,132.25 L 490.04999999999995,201.75 L 453.74999999999994,201.75 L 417.44999999999993,201.75 L 381.15,201.75 L 344.84999999999997,201.75 L 308.54999999999995,201.75 L 272.24999999999994,201.75 L 235.95,201.75 L 199.65,201.75 L 163.35,201.75 L 163.35,132.25 L 127.04999999999998,132.25 L 127.04999999999998,62.75 L 90.75,62.75 L 163.35,62.75 L 199.65,62.75 L 199.65,-6.75 L 163.35,-6.75 L 127.04999999999998,-6.75 L 90.75,-6.75 L 54.449999999999996,-6.75 L 18.15,-6.75 L 18.15,62.75 L 54.449999999999996,62.75 L 54.449999999999996,132.25 L 90.75,132.25 L 90.75,201.75 L 127.04999999999998,201.75 L 163.35,271.25 L 199.65,271.25 L 199.65,340.75 L 235.95,340.75 L 235.95,410.25 L 272.24999999999994,410.25 L 272.24999999999994,479.75 L 308.54999999999995,479.75 L 308.54999999999995,549.25 L 344.84999999999997,549.25 L 344.84999999999997,618.75 L 381.15,618.75 L 381.15,688.25 L 417.44999999999993,688.25 L 453.74999999999994,688.25 L 490.04999999999995,618.75 L 490.04999999999995,549.25 L 490.04999999999995,479.75 L 526.3499999999999,479.75 L 526.3499999999999,410.25 L 526.3499999999999,340.75 L 526.3499999999999,271.25 L 562.65,271.25 L 562.65,201.75 L 562.65,132.25 L 598.9499999999999,132.25 L 598.9499999999999,62.75zM 235.95,271.25 L 272.24999999999994,271.25 L 308.54999999999995,271.25 L 344.84999999999997,271.25 L 381.15,271.25 L 417.44999999999993,271.25 L 453.74999999999994,271.25 L 453.74999999999994,340.75 L 453.74999999999994,410.25 L 417.44999999999993,410.25 L 417.44999999999993,479.75 L 417.44999999999993,549.25 L 381.15,549.25 L 344.84999999999997,549.25 L 344.84999999999997,479.75 L 308.54999999999995,479.75 L 308.54999999999995,410.25 L 272.24999999999994,410.25 L 272.24999999999994,340.75 L 235.95,340.75 L 235.95,271.25zz"/>
    <glyph glyph-name="B" unicode="B" horiz-adv-x="602" d="M 376.25000000000006,340.75 L 406.35,340.75 L 436.45000000000005,340.75 L 466.55,340.75 L 466.55,271.25 L 496.65000000000003,271.25 L 526.75,271.25 L 526.75,201.75 L 526.75,132.25 L 496.65000000000003,132.25 L 466.55,62.75 L 436.45000000000005,62.75 L 406.35,62.75 L 376.25000000000006,62.75 L 376.25000000000006,-6.75 L 346.15000000000003,-6.75 L 316.05,-6.75 L 285.95000000000005,-6.75 L 255.85000000000002,-6.75 L 225.75000000000003,-6.75 L 195.65000000000003,-6.75 L 165.55,-6.75 L 135.45000000000002,-6.75 L 105.35000000000001,-6.75 L 75.25,-6.75 L 45.150000000000006,-6.75 L 15.05,-6.75 L 15.05,62.75 L 45.150000000000006,62.75 L 75.25,62.75 L 75.25,132.25 L 105.35000000000001,132.25 L 105.35000000000001,201.75 L 105.35000000000001,271.25 L 135.45000000000002,271.25 L 135.45000000000002,340.75 L 135.45000000000002,410.25 L 135.45000000000002,479.75 L 165.55,479.75 L 165.55,549.25 L 165.55,618.75 L 135.45000000000002,618.75 L 105.35000000000001,618.75 L 75.25,618.75 L 195.65000000000003,618.75 L 225.75000000000003,618.75 L 255.85000000000002,618.75 L 285.95000000000005,618.75 L 316.05,618.75 L 346.15000000000003,618.75 L 376.25000000000006,618.75 L 406.35,618.75 L 436.45000000000005,618.75 L 466.55,618.75 L 496.65000000000003,618.75 L 526.75,618.75 L 526.75,549.25 L 526.75,479.75 L 496.65000000000003,479.75 L 496.65000000000003,410.25 L 466.55,410.25 L 436.45000000000005,410.25 L 376.25000000000006,340.75zM 255.85000000000002,618.75 L 255.85000000000002,549.25 L 255.85000000000002,479.75 L 225.75000000000003,479.75 L 225.75000000000003,410.25 L 225.75000000000003,340.75 L 255.85000000000002,340.75 L 285.95000000000005,340.75 L 316.05,340.75 L 346.15000000000003,340.75 L 376.25000000000006,340.75 L 376.25000000000006,410.25 L 406.35,410.25 L 436.45000000000005,410.25 L 436.45000000000005,479.75 L 436.45000000000005,549.25 L 406.35,549.25 L 406.35,618.75 L 376.25000000000006,618.75 L 346.15000000000003,618.75 L 316.05,618.75 L 285.95000000000005,618.75 L 255.85000000000002,618.75zM 316.05,62.75 L 346.15000000000003,62.75 L 376.25000000000006,62.75 L 406.35,62.75 L 406.35,132.25 L 436.45000000000005,132.25 L 436.45000000000005,201.75 L 436.45000000000005,271.25 L 406.35,271.25 L 376.25000000000006,271.25 L 376.25000000000006,340.75 L 346.15000000000003,340.75 L 316.05,340.75 L 285.95000000000005,340.75 L 255.85000000000002,340.75 L 225.75000000000003,340.75 L 195.65000000000003,340.75 L 195.65000000000003,271.25 L 195.65000000000003,201.75 L 195.65000000000003,132.25 L 165.55,132.25 L 165.55,62.75 L 195.65000000000003,62.75 L 225.75000000000003,62.75 L 255.85000000000002,62.75 L 285.95000000000005,62.75 L 316.05,62.75zz"/>
    <glyph glyph-name="C" unicode="C" horiz-adv-x="666" d="M 416.24999999999994,688.25 L 449.54999999999995,688.25 L 482.8499999999999,688.25 L 482.8499999999999,618.75 L 516.15,618.75 L 549.4499999999999,618.75 L 582.7499999999999,618.75 L 616.05,618.75 L 616.05,549.25 L 582.7499999999999,549.25 L 582.7499999999999,479.75 L 582.7499999999999,410.25 L 549.4499999999999,410.25 L 549.4499999999999,479.75 L 549.4499999999999,549.25 L 516.15,549.25 L 449.54999999999995,618.75 L 416.24999999999994,618.75 L 382.94999999999993,618.75 L 349.65,618.75 L 316.34999999999997,618.75 L 283.04999999999995,618.75 L 283.04999999999995,549.25 L 249.74999999999997,549.25 L 216.45,549.25 L 216.45,479.75 L 183.15,479.75 L 183.15,410.25 L 149.85,410.25 L 149.85,340.75 L 149.85,271.25 L 116.54999999999998,271.25 L 116.54999999999998,201.75 L 149.85,201.75 L 149.85,132.25 L 183.15,132.25 L 183.15,62.75 L 216.45,62.75 L 249.74999999999997,62.75 L 283.04999999999995,62.75 L 316.34999999999997,62.75 L 349.65,62.75 L 382.94999999999993,62.75 L 416.24999999999994,62.75 L 449.54999999999995,62.75 L 449.54999999999995,132.25 L 482.8499999999999,132.25 L 516.15,132.25 L 516.15,201.75 L 549.4499999999999,201.75 L 582.7499999999999,201.75 L 549.4499999999999,132.25 L 516.15,62.75 L 482.8499999999999,62.75 L 482.8499999999999,-6.75 L 449.54999999999995,-6.75 L 416.24999999999994,-6.75 L 382.94999999999993,-6.75 L 349.65,-6.75 L 316.34999999999997,-6.75 L 283.04999999999995,-6.75 L 249.74999999999997,-6.75 L 216.45,-6.75 L 183.15,-6.75 L 149.85,-6.75 L 149.85,62.75 L 116.54999999999998,62.75 L 83.25,62.75 L 83.25,132.25 L 49.949999999999996,132.25 L 49.949999999999996,201.75 L 49.949999999999996,271.25 L 49.949999999999996,340.75 L 49.949999999999996,410.25 L 83.25,410.25 L 83.25,479.75 L 116.54999999999998,479.75 L 116.54999999999998,549.25 L 149.85,549.25 L 183.15,549.25 L 183.15,618.75 L 216.45,618.75 L 249.74999999999997,618.75 L 349.65,688.25 L 382.94999999999993,688.25 L 416.24999999999994,688.25zz"/>
    <glyph glyph-name="D" unicode="D" horiz-adv-x="691" d="M 328.22499999999997,618.75 L 362.775,618.75 L 397.32499999999993,618.75 L 431.87499999999994,618.75 L 466.42499999999995,618.75 L 500.9749999999999,618.75 L 535.525,618.75 L 535.525,549.25 L 570.0749999999999,549.25 L 604.6249999999999,549.25 L 604.6249999999999,479.75 L 639.175,479.75 L 639.175,410.25 L 639.175,340.75 L 639.175,271.25 L 604.6249999999999,271.25 L 604.6249999999999,201.75 L 570.0749999999999,201.75 L 570.0749999999999,132.25 L 535.525,132.25 L 500.9749999999999,132.25 L 500.9749999999999,62.75 L 466.42499999999995,62.75 L 431.87499999999994,62.75 L 397.32499999999993,-6.75 L 362.775,-6.75 L 328.22499999999997,-6.75 L 293.67499999999995,-6.75 L 259.12499999999994,-6.75 L 224.575,-6.75 L 190.025,-6.75 L 155.475,-6.75 L 120.92499999999998,-6.75 L 86.375,-6.75 L 51.824999999999996,-6.75 L 17.275,-6.75 L 17.275,62.75 L 51.824999999999996,62.75 L 86.375,62.75 L 86.375,132.25 L 86.375,201.75 L 120.92499999999998,201.75 L 120.92499999999998,271.25 L 120.92499999999998,340.75 L 120.92499999999998,410.25 L 155.475,410.25 L 155.475,479.75 L 155.475,549.25 L 155.475,618.75 L 190.025,618.75 L 120.92499999999998,618.75 L 86.375,618.75 L 224.575,618.75 L 259.12499999999994,618.75 L 293.67499999999995,618.75 L 328.22499999999997,618.75zM 328.22499999999997,62.75 L 362.775,62.75 L 397.32499999999993,62.75 L 431.87499999999994,62.75 L 431.87499999999994,132.25 L 466.42499999999995,132.25 L 466.42499999999995,201.75 L 500.9749999999999,201.75 L 500.9749999999999,271.25 L 535.525,271.25 L 535.525,340.75 L 535.525,410.25 L 535.525,479.75 L 500.9749999999999,479.75 L 500.9749999999999,549.25 L 466.42499999999995,549.25 L 431.87499999999994,549.25 L 431.87499999999994,618.75 L 397.32499999999993,618.75 L 362.775,618.75 L 328.22499999999997,618.75 L 293.67499999999995,618.75 L 259.12499999999994,618.75 L 259.12499999999994,549.25 L 259.12499999999994,479.75 L 224.575,479.75 L 224.575,410.25 L 224.575,340.75 L 190.025,271.25 L 190.025,201.75 L 190.025,132.25 L 155.475,132.25 L 155.475,62.75 L 190.025,62.75 L 224.575,62.75 L 259.12499999999994,62.75 L 293.67499999999995,62.75 L 328.22499999999997,62.75zz"/>
    <glyph glyph-name="E" unicode="E" horiz-adv-x="625" d="M 515.625,618.75 L 484.375,618.75 L 453.125,618.75 L 421.875,618.75 L 390.625,618.75 L 359.375,618.75 L 328.125,618.75 L 296.875,618.75 L 265.625,618.75 L 484.375,688.25 L 515.625,688.25 L 546.875,688.25 L 578.125,688.25 L 578.125,618.75 L 578.125,549.25 L 578.125,479.75 L 546.875,479.75 L 515.625,479.75 L 515.625,549.25 L 515.625,618.75zM 453.125,62.75 L 484.375,62.75 L 484.375,132.25 L 515.625,132.25 L 515.625,201.75 L 546.875,201.75 L 578.125,201.75 L 546.875,132.25 L 546.875,62.75 L 515.625,62.75 L 515.625,-6.75 L 484.375,-6.75 L 453.125,-6.75 L 421.875,-6.75 L 390.625,-6.75 L 359.375,-6.75 L 328.125,-6.75 L 296.875,-6.75 L 265.625,-6.75 L 234.375,-6.75 L 203.125,-6.75 L 171.875,-6.75 L 140.625,-6.75 L 109.375,-6.75 L 78.125,-6.75 L 46.875,-6.75 L 15.625,-6.75 L 15.625,62.75 L 46.875,62.75 L 78.125,62.75 L 78.125,132.25 L 109.375,132.25 L 109.375,201.75 L 109.375,271.25 L 109.375,340.75 L 140.625,340.75 L 140.625,410.25 L 140.625,479.75 L 171.875,479.75 L 171.875,549.25 L 171.875,618.75 L 140.625,618.75 L 109.375,618.75 L 78.125,618.75 L 203.125,618.75 L 234.375,618.75 L 265.625,618.75 L 265.625,549.25 L 234.375,549.25 L 234.375,479.75 L 234.375,410.25 L 234.375,340.75 L 203.125,340.75 L 265.625,340.75 L 296.875,340.75 L 328.125,340.75 L 359.375,340.75 L 390.625,340.75 L 390.625,410.25 L 421.875,410.25 L 421.875,479.75 L 453.125,479.75 L 453.125,410.25 L 453.125,340.75 L 421.875,340.75 L 421.875,271.25 L 390.625,271.25 L 203.125,271.25 L 203.125,201.75 L 171.875,201.75 L 171.875,132.25 L 171.875,62.75 L 203.125,62.75 L 234.375,62.75 L 265.625,62.75 L 296.875,62.75 L 328.125,62.75 L 359.375,62.75 L 390.625,62.75 L 421.875,62.75 L 453.125,62.75zz"/>
    <glyph glyph-name="F" unicode="F" horiz-adv-x="601" d="M 255.425,618.75 L 285.47499999999997,618.75 L 315.525,618.75 L 345.575,618.75 L 375.625,618.75 L 405.675,618.75 L 435.72499999999997,618.75 L 465.775,618.75 L 495.825,688.25 L 525.875,688.25 L 555.925,688.25 L 585.975,688.25 L 585.975,618.75 L 585.975,549.25 L 555.925,549.25 L 555.925,479.75 L 525.875,479.75 L 525.875,549.25 L 495.825,549.25 L 495.825,618.75 L 255.425,618.75zM 255.425,618.75 L 255.425,549.25 L 255.425,479.75 L 225.375,479.75 L 225.375,410.25 L 225.375,340.75 L 255.425,340.75 L 285.47499999999997,340.75 L 315.525,340.75 L 345.575,340.75 L 375.625,340.75 L 405.675,340.75 L 405.675,410.25 L 435.72499999999997,410.25 L 465.775,410.25 L 435.72499999999997,340.75 L 435.72499999999997,271.25 L 405.675,271.25 L 405.675,201.75 L 375.625,201.75 L 375.625,271.25 L 345.575,271.25 L 315.525,271.25 L 285.47499999999997,271.25 L 255.425,271.25 L 225.375,271.25 L 195.32500000000002,271.25 L 195.32500000000002,201.75 L 195.32500000000002,132.25 L 165.275,132.25 L 165.275,62.75 L 195.32500000000002,62.75 L 225.375,62.75 L 255.425,62.75 L 255.425,-6.75 L 225.375,-6.75 L 195.32500000000002,-6.75 L 165.275,-6.75 L 135.225,-6.75 L 105.17500000000001,-6.75 L 75.125,-6.75 L 45.075,-6.75 L 15.025,-6.75 L 15.025,62.75 L 45.075,62.75 L 75.125,62.75 L 75.125,132.25 L 105.17500000000001,132.25 L 105.17500000000001,201.75 L 105.17500000000001,271.25 L 135.225,271.25 L 135.225,340.75 L 135.225,410.25 L 135.225,479.75 L 165.275,479.75 L 165.275,549.25 L 165.275,618.75 L 135.225,618.75 L 105.17500000000001,618.75 L 75.125,618.75 L 195.32500000000002,618.75 L 225.375,618.75 L 255.425,618.75zz"/>
    <glyph glyph-name="G" unicode="G" horiz-adv-x="642" d="M 625.9499999999999,340.75 L 625.9499999999999,271.25 L 593.85,271.25 L 561.75,271.25 L 561.75,201.75 L 561.75,132.25 L 529.65,132.25 L 529.65,62.75 L 529.65,-6.75 L 497.55,-6.75 L 465.45000000000005,-6.75 L 433.35,-6.75 L 401.25000000000006,-6.75 L 369.15000000000003,-6.75 L 337.05,-6.75 L 304.95000000000005,-6.75 L 272.85,-6.75 L 240.75000000000003,-6.75 L 208.65000000000003,-6.75 L 176.55,-6.75 L 144.45000000000002,-6.75 L 144.45000000000002,62.75 L 112.35000000000001,62.75 L 80.25,62.75 L 80.25,132.25 L 48.150000000000006,132.25 L 48.150000000000006,201.75 L 48.150000000000006,271.25 L 48.150000000000006,340.75 L 48.150000000000006,410.25 L 80.25,410.25 L 80.25,479.75 L 112.35000000000001,479.75 L 112.35000000000001,549.25 L 144.45000000000002,549.25 L 176.55,549.25 L 208.65000000000003,618.75 L 240.75000000000003,618.75 L 272.85,618.75 L 304.95000000000005,618.75 L 337.05,618.75 L 337.05,688.25 L 369.15000000000003,688.25 L 401.25000000000006,688.25 L 433.35,688.25 L 465.45000000000005,688.25 L 497.55,688.25 L 497.55,618.75 L 529.65,618.75 L 561.75,618.75 L 593.85,618.75 L 625.9499999999999,618.75 L 593.85,549.25 L 593.85,479.75 L 593.85,410.25 L 561.75,410.25 L 561.75,479.75 L 561.75,549.25 L 529.65,549.25 L 497.55,549.25 L 465.45000000000005,618.75 L 433.35,618.75 L 401.25000000000006,618.75 L 369.15000000000003,618.75 L 272.85,549.25 L 240.75000000000003,549.25 L 208.65000000000003,549.25 L 208.65000000000003,479.75 L 176.55,479.75 L 176.55,410.25 L 144.45000000000002,410.25 L 144.45000000000002,340.75 L 144.45000000000002,271.25 L 144.45000000000002,201.75 L 144.45000000000002,132.25 L 176.55,132.25 L 176.55,62.75 L 208.65000000000003,62.75 L 240.75000000000003,62.75 L 272.85,62.75 L 304.95000000000005,62.75 L 337.05,62.75 L 369.15000000000003,62.75 L 401.25000000000006,62.75 L 433.35,62.75 L 465.45000000000005,62.75 L 465.45000000000005,132.25 L 465.45000000000005,201.75 L 465.45000000000005,271.25 L 433.35,271.25 L 401.25000000000006,271.25 L 369.15000000000003,271.25 L 369.15000000000003,340.75 L 401.25000000000006,340.75 L 433.35,340.75 L 465.45000000000005,340.75 L 497.55,340.75 L 529.65,340.75 L 561.75,340.75 L 593.85,340.75 L 625.9499999999999,340.75zz"/>
    <glyph glyph-name="H" unicode="H" horiz-adv-x="755" d="M 736.125,618.75 L 698.375,618.75 L 660.625,618.75 L 660.625,549.25 L 660.625,479.75 L 622.875,479.75 L 622.875,410.25 L 622.875,340.75 L 622.875,271.25 L 585.125,271.25 L 585.125,201.75 L 585.125,132.25 L 585.125,62.75 L 547.375,62.75 L 622.875,62.75 L 660.625,62.75 L 660.625,-6.75 L 622.875,-6.75 L 585.125,-6.75 L 547.375,-6.75 L 509.625,-6.75 L 471.875,-6.75 L 434.125,-6.75 L 396.375,-6.75 L 396.375,62.75 L 434.125,62.75 L 471.875,62.75 L 471.875,132.25 L 509.625,132.25 L 509.625,201.75 L 509.625,271.25 L 509.625,340.75 L 471.875,340.75 L 434.125,340.75 L 396.375,340.75 L 358.625,340.75 L 320.875,340.75 L 283.125,340.75 L 245.375,340.75 L 207.625,340.75 L 207.625,271.25 L 207.625,201.75 L 169.875,201.75 L 169.875,132.25 L 169.875,62.75 L 207.625,62.75 L 245.375,62.75 L 245.375,-6.75 L 207.625,-6.75 L 169.875,-6.75 L 132.125,-6.75 L 94.375,-6.75 L 56.625,-6.75 L 18.875,-6.75 L 18.875,62.75 L 56.625,62.75 L 94.375,62.75 L 94.375,132.25 L 94.375,201.75 L 94.375,271.25 L 132.125,271.25 L 132.125,340.75 L 132.125,410.25 L 132.125,479.75 L 169.875,479.75 L 169.875,549.25 L 169.875,618.75 L 132.125,618.75 L 94.375,618.75 L 207.625,618.75 L 245.375,618.75 L 283.125,618.75 L 320.875,618.75 L 358.625,618.75 L 245.375,549.25 L 245.375,479.75 L 245.375,410.25 L 207.625,410.25 L 547.375,340.75 L 547.375,410.25 L 547.375,479.75 L 547.375,549.25 L 585.125,549.25 L 585.125,618.75 L 547.375,618.75 L 509.625,618.75 L 622.875,618.75 L 736.125,618.75zz"/>
    <glyph glyph-name="I" unicode="I" horiz-adv-x="351" d="M 342.22499999999997,618.75 L 324.675,618.75 L 307.125,618.75 L 289.575,618.75 L 272.025,618.75 L 254.47500000000002,618.75 L 254.47500000000002,549.25 L 236.925,549.25 L 236.925,479.75 L 236.925,410.25 L 219.37500000000003,410.25 L 219.37500000000003,340.75 L 201.82500000000002,340.75 L 201.82500000000002,271.25 L 201.82500000000002,201.75 L 184.275,201.75 L 184.275,132.25 L 166.72500000000002,132.25 L 166.72500000000002,62.75 L 184.275,62.75 L 201.82500000000002,62.75 L 219.37500000000003,62.75 L 236.925,62.75 L 254.47500000000002,62.75 L 254.47500000000002,-6.75 L 236.925,-6.75 L 219.37500000000003,-6.75 L 201.82500000000002,-6.75 L 184.275,-6.75 L 166.72500000000002,-6.75 L 149.175,-6.75 L 131.625,-6.75 L 114.07500000000002,-6.75 L 96.525,-6.75 L 78.97500000000001,-6.75 L 61.425000000000004,-6.75 L 43.875,-6.75 L 26.325000000000003,-6.75 L 8.775,-6.75 L 8.775,62.75 L 26.325000000000003,62.75 L 43.875,62.75 L 61.425000000000004,62.75 L 78.97500000000001,62.75 L 78.97500000000001,132.25 L 96.525,132.25 L 96.525,201.75 L 114.07500000000002,201.75 L 114.07500000000002,271.25 L 131.625,340.75 L 131.625,410.25 L 149.175,410.25 L 149.175,479.75 L 166.72500000000002,479.75 L 166.72500000000002,549.25 L 166.72500000000002,618.75 L 149.175,618.75 L 131.625,618.75 L 114.07500000000002,618.75 L 96.525,618.75 L 78.97500000000001,618.75 L 184.275,618.75 L 201.82500000000002,618.75 L 219.37500000000003,618.75 L 236.925,618.75 L 342.22499999999997,618.75zz"/>
    <glyph glyph-name="J" unicode="J" horiz-adv-x="380" d="M 370.5,618.75 L 351.5,618.75 L 332.5,618.75 L 313.5,618.75 L 294.5,618.75 L 275.5,618.75 L 275.5,549.25 L 256.5,549.25 L 256.5,479.75 L 256.5,410.25 L 237.5,410.25 L 237.5,340.75 L 218.5,271.25 L 218.5,201.75 L 199.5,201.75 L 199.5,132.25 L 199.5,62.75 L 180.5,62.75 L 180.5,-6.75 L 161.5,-6.75 L 142.5,-6.75 L 142.5,-76.25 L 123.5,-76.25 L 104.5,-76.25 L 85.5,-76.25 L 66.5,-76.25 L 66.5,-145.75 L 47.5,-145.75 L 28.5,-145.75 L 9.5,-145.75 L 9.5,-76.25 L 28.5,-76.25 L 47.5,-76.25 L 47.5,-6.75 L 66.5,-6.75 L 85.5,-6.75 L 85.5,62.75 L 104.5,62.75 L 104.5,132.25 L 123.5,132.25 L 123.5,201.75 L 123.5,271.25 L 142.5,271.25 L 142.5,340.75 L 161.5,340.75 L 161.5,410.25 L 161.5,479.75 L 180.5,479.75 L 180.5,549.25 L 180.5,618.75 L 199.5,618.75 L 161.5,618.75 L 142.5,618.75 L 123.5,618.75 L 104.5,618.75 L 218.5,618.75 L 237.5,618.75 L 256.5,618.75 L 370.5,618.75zz"/>
    <glyph glyph-name="K" unicode="K" horiz-adv-x="663" d="M 646.4250000000001,618.75 L 613.275,618.75 L 613.275,549.25 L 580.125,549.25 L 546.975,549.25 L 513.825,549.25 L 513.825,479.75 L 480.67499999999995,479.75 L 447.525,479.75 L 414.37499999999994,479.75 L 414.37499999999994,410.25 L 381.22499999999997,410.25 L 348.075,410.25 L 348.075,340.75 L 314.92499999999995,340.75 L 281.775,340.75 L 314.92499999999995,271.25 L 348.075,271.25 L 381.22499999999997,271.25 L 381.22499999999997,201.75 L 414.37499999999994,201.75 L 447.525,201.75 L 447.525,132.25 L 480.67499999999995,132.25 L 480.67499999999995,62.75 L 513.825,62.75 L 546.975,62.75 L 580.125,62.75 L 580.125,-6.75 L 613.275,-6.75 L 546.975,-6.75 L 513.825,-6.75 L 480.67499999999995,-6.75 L 447.525,-6.75 L 447.525,62.75 L 414.37499999999994,62.75 L 381.22499999999997,62.75 L 381.22499999999997,132.25 L 348.075,132.25 L 348.075,201.75 L 314.92499999999995,201.75 L 281.775,201.75 L 281.775,271.25 L 248.62499999999997,271.25 L 248.62499999999997,340.75 L 215.47499999999997,340.75 L 215.47499999999997,271.25 L 182.325,271.25 L 182.325,201.75 L 182.325,132.25 L 182.325,62.75 L 149.17499999999998,62.75 L 215.47499999999997,62.75 L 248.62499999999997,62.75 L 248.62499999999997,-6.75 L 215.47499999999997,-6.75 L 182.325,-6.75 L 149.17499999999998,-6.75 L 116.02499999999999,-6.75 L 82.875,-6.75 L 49.724999999999994,-6.75 L 16.575,-6.75 L 16.575,62.75 L 49.724999999999994,62.75 L 82.875,62.75 L 82.875,132.25 L 82.875,201.75 L 116.02499999999999,201.75 L 116.02499999999999,271.25 L 116.02499999999999,340.75 L 149.17499999999998,340.75 L 149.17499999999998,410.25 L 149.17499999999998,479.75 L 149.17499999999998,549.25 L 182.325,549.25 L 182.325,618.75 L 149.17499999999998,618.75 L 116.02499999999999,618.75 L 82.875,618.75 L 215.47499999999997,618.75 L 248.62499999999997,618.75 L 281.775,618.75 L 314.92499999999995,618.75 L 348.075,618.75 L 248.62499999999997,549.25 L 248.62499999999997,479.75 L 215.47499999999997,410.25 L 281.775,410.25 L 314.92499999999995,410.25 L 348.075,479.75 L 381.22499999999997,479.75 L 447.525,549.25 L 480.67499999999995,549.25 L 513.825,618.75 L 546.975,618.75 L 480.67499999999995,618.75 L 447.525,618.75 L 580.125,618.75 L 646.4250000000001,618.75zz"/>
    <glyph glyph-name="L" unicode="L" horiz-adv-x="623" d="M 545.125,201.75 L 576.275,201.75 L 576.275,132.25 L 545.125,132.25 L 545.125,62.75 L 513.975,62.75 L 513.975,-6.75 L 482.825,-6.75 L 451.67499999999995,-6.75 L 420.525,-6.75 L 389.37499999999994,-6.75 L 358.22499999999997,-6.75 L 327.075,-6.75 L 295.92499999999995,-6.75 L 264.775,-6.75 L 233.62499999999997,-6.75 L 202.47499999999997,-6.75 L 171.325,-6.75 L 140.17499999999998,-6.75 L 109.02499999999999,-6.75 L 77.875,-6.75 L 46.724999999999994,-6.75 L 15.575,-6.75 L 15.575,62.75 L 46.724999999999994,62.75 L 77.875,62.75 L 77.875,132.25 L 109.02499999999999,132.25 L 109.02499999999999,201.75 L 109.02499999999999,271.25 L 109.02499999999999,340.75 L 140.17499999999998,340.75 L 140.17499999999998,410.25 L 140.17499999999998,479.75 L 171.325,479.75 L 171.325,549.25 L 171.325,618.75 L 140.17499999999998,618.75 L 109.02499999999999,618.75 L 77.875,618.75 L 202.47499999999997,618.75 L 233.62499999999997,618.75 L 264.775,618.75 L 295.92499999999995,618.75 L 327.075,618.75 L 358.22499999999997,618.75 L 264.775,549.25 L 233.62499999999997,549.25 L 233.62499999999997,479.75 L 233.62499999999997,410.25 L 233.62499999999997,340.75 L 202.47499999999997,340.75 L 202.47499999999997,271.25 L 202.47499999999997,201.75 L 171.325,201.75 L 171.325,132.25 L 171.325,62.75 L 202.47499999999997,62.75 L 233.62499999999997,62.75 L 264.775,62.75 L 295.92499999999995,62.75 L 327.075,62.75 L 358.22499999999997,62.75 L 389.37499999999994,62.75 L 420.525,62.75 L 451.67499999999995,62.75 L 482.825,62.75 L 482.825,132.25 L 513.975,132.25 L 513.975,201.75 L 545.125,201.75zz"/>
    <glyph glyph-name="M" unicode="M" horiz-adv-x="975" d="M 804.375,62.75 L 853.125,62.75 L 901.875,62.75 L 901.875,-6.75 L 853.125,-6.75 L 804.375,-6.75 L 755.625,-6.75 L 706.875,-6.75 L 658.125,-6.75 L 609.375,-6.75 L 609.375,62.75 L 658.125,62.75 L 706.875,62.75 L 706.875,132.25 L 706.875,201.75 L 755.625,201.75 L 755.625,271.25 L 755.625,340.75 L 755.625,410.25 L 755.625,479.75 L 755.625,549.25 L 706.875,479.75 L 706.875,410.25 L 658.125,410.25 L 658.125,340.75 L 609.375,340.75 L 609.375,271.25 L 560.625,271.25 L 560.625,201.75 L 511.875,201.75 L 511.875,132.25 L 463.125,132.25 L 463.125,62.75 L 414.375,62.75 L 414.375,-6.75 L 365.625,62.75 L 365.625,132.25 L 365.625,201.75 L 316.875,201.75 L 316.875,271.25 L 316.875,340.75 L 316.875,410.25 L 268.125,410.25 L 268.125,479.75 L 268.125,549.25 L 219.375,549.25 L 219.375,479.75 L 219.375,410.25 L 219.375,340.75 L 170.625,340.75 L 170.625,271.25 L 170.625,201.75 L 170.625,132.25 L 170.625,62.75 L 121.875,62.75 L 219.375,62.75 L 268.125,62.75 L 268.125,-6.75 L 219.375,-6.75 L 170.625,-6.75 L 121.875,-6.75 L 73.125,-6.75 L 24.375,-6.75 L 24.375,62.75 L 73.125,62.75 L 121.875,132.25 L 121.875,201.75 L 121.875,271.25 L 170.625,410.25 L 170.625,479.75 L 219.375,618.75 L 170.625,618.75 L 121.875,618.75 L 268.125,618.75 L 316.875,618.75 L 316.875,549.25 L 365.625,549.25 L 365.625,479.75 L 365.625,410.25 L 365.625,340.75 L 414.375,340.75 L 414.375,271.25 L 414.375,201.75 L 463.125,201.75 L 511.875,271.25 L 560.625,340.75 L 609.375,410.25 L 658.125,479.75 L 706.875,549.25 L 755.625,618.75 L 755.625,688.25 L 804.375,688.25 L 853.125,688.25 L 853.125,618.75 L 853.125,549.25 L 853.125,479.75 L 853.125,410.25 L 853.125,340.75 L 853.125,271.25 L 804.375,271.25 L 804.375,201.75 L 804.375,132.25 L 804.375,62.75zz"/>
    <glyph glyph-name="N" unicode="N" horiz-adv-x="761" d="M 741.9749999999999,618.75 L 703.925,618.75 L 703.925,549.25 L 665.8749999999999,549.25 L 665.8749999999999,479.75 L 665.8749999999999,410.25 L 665.8749999999999,340.75 L 627.8249999999999,340.75 L 627.8249999999999,271.25 L 627.8249999999999,201.75 L 627.8249999999999,132.25 L 589.775,132.25 L 589.775,62.75 L 627.8249999999999,62.75 L 665.8749999999999,62.75 L 665.8749999999999,-6.75 L 703.925,-6.75 L 627.8249999999999,-6.75 L 589.775,-6.75 L 551.7249999999999,-6.75 L 551.7249999999999,62.75 L 513.675,62.75 L 513.675,132.25 L 475.62499999999994,132.25 L 475.62499999999994,201.75 L 437.57499999999993,201.75 L 399.525,271.25 L 361.47499999999997,271.25 L 361.47499999999997,340.75 L 323.42499999999995,340.75 L 323.42499999999995,410.25 L 285.37499999999994,410.25 L 285.37499999999994,479.75 L 247.325,479.75 L 247.325,549.25 L 209.275,549.25 L 209.275,479.75 L 209.275,410.25 L 171.225,410.25 L 171.225,340.75 L 171.225,271.25 L 171.225,201.75 L 133.17499999999998,201.75 L 133.17499999999998,132.25 L 133.17499999999998,62.75 L 171.225,62.75 L 209.275,62.75 L 247.325,62.75 L 285.37499999999994,62.75 L 285.37499999999994,-6.75 L 247.325,-6.75 L 209.275,-6.75 L 171.225,-6.75 L 133.17499999999998,-6.75 L 95.125,-6.75 L 57.074999999999996,-6.75 L 19.025,-6.75 L 19.025,62.75 L 57.074999999999996,62.75 L 95.125,62.75 L 95.125,132.25 L 95.125,201.75 L 133.17499999999998,271.25 L 133.17499999999998,340.75 L 133.17499999999998,410.25 L 171.225,479.75 L 171.225,549.25 L 171.225,618.75 L 133.17499999999998,618.75 L 95.125,618.75 L 209.275,618.75 L 247.325,618.75 L 285.37499999999994,618.75 L 285.37499999999994,549.25 L 323.42499999999995,549.25 L 361.47499999999997,479.75 L 399.525,410.25 L 437.57499999999993,410.25 L 437.57499999999993,340.75 L 475.62499999999994,340.75 L 475.62499999999994,271.25 L 513.675,271.25 L 513.675,201.75 L 551.7249999999999,201.75 L 551.7249999999999,132.25 L 589.775,201.75 L 589.775,271.25 L 589.775,340.75 L 627.8249999999999,410.25 L 627.8249999999999,479.75 L 627.8249999999999,549.25 L 627.8249999999999,618.75 L 665.8749999999999,618.75 L 589.775,618.75 L 551.7249999999999,618.75 L 513.675,618.75 L 741.9749999999999,618.75zz"/>
    <glyph glyph-name="O" unicode="O" horiz-adv-x="718" d="M 305.15,-6.75 L 269.25,-6.75 L 233.34999999999997,-6.75 L 197.45,-6.75 L 161.54999999999998,-6.75 L 125.64999999999999,62.75 L 89.75,62.75 L 89.75,132.25 L 53.849999999999994,132.25 L 53.849999999999994,201.75 L 53.849999999999994,271.25 L 53.849999999999994,340.75 L 53.849999999999994,410.25 L 89.75,410.25 L 89.75,479.75 L 125.64999999999999,479.75 L 125.64999999999999,549.25 L 161.54999999999998,549.25 L 197.45,549.25 L 197.45,618.75 L 233.34999999999997,618.75 L 269.25,618.75 L 305.15,618.75 L 341.04999999999995,618.75 L 341.04999999999995,688.25 L 376.95,688.25 L 412.84999999999997,688.25 L 448.74999999999994,688.25 L 484.65,688.25 L 484.65,618.75 L 520.55,618.75 L 556.45,618.75 L 592.35,618.75 L 592.35,549.25 L 628.25,549.25 L 628.25,479.75 L 664.15,479.75 L 664.15,410.25 L 664.15,340.75 L 664.15,271.25 L 628.25,271.25 L 628.25,201.75 L 592.35,201.75 L 592.35,132.25 L 556.45,132.25 L 556.45,62.75 L 520.55,62.75 L 484.65,62.75 L 448.74999999999994,62.75 L 448.74999999999994,-6.75 L 412.84999999999997,-6.75 L 376.95,-6.75 L 341.04999999999995,-6.75 L 305.15,-6.75zM 376.95,62.75 L 412.84999999999997,62.75 L 448.74999999999994,62.75 L 448.74999999999994,132.25 L 484.65,132.25 L 520.55,132.25 L 520.55,201.75 L 556.45,201.75 L 556.45,271.25 L 556.45,340.75 L 556.45,410.25 L 592.35,410.25 L 556.45,479.75 L 556.45,549.25 L 520.55,549.25 L 484.65,549.25 L 484.65,618.75 L 448.74999999999994,618.75 L 412.84999999999997,618.75 L 376.95,618.75 L 341.04999999999995,618.75 L 305.15,618.75 L 269.25,618.75 L 269.25,549.25 L 233.34999999999997,549.25 L 233.34999999999997,479.75 L 197.45,479.75 L 161.54999999999998,410.25 L 161.54999999999998,340.75 L 125.64999999999999,340.75 L 125.64999999999999,271.25 L 125.64999999999999,201.75 L 125.64999999999999,132.25 L 161.54999999999998,132.25 L 161.54999999999998,62.75 L 197.45,62.75 L 233.34999999999997,62.75 L 269.25,62.75 L 305.15,62.75 L 341.04999999999995,62.75 L 376.95,62.75zz"/>
    <glyph glyph-name="P" unicode="P" horiz-adv-x="613" d="M 383.12499999999994,618.75 L 413.775,618.75 L 444.42499999999995,618.75 L 475.075,618.75 L 505.72499999999997,618.75 L 536.375,618.75 L 567.025,618.75 L 567.025,549.25 L 567.025,479.75 L 597.6750000000001,479.75 L 567.025,410.25 L 536.375,410.25 L 536.375,340.75 L 505.72499999999997,340.75 L 475.075,340.75 L 475.075,271.25 L 444.42499999999995,271.25 L 413.775,271.25 L 383.12499999999994,271.25 L 352.47499999999997,271.25 L 321.825,271.25 L 291.17499999999995,271.25 L 383.12499999999994,340.75 L 413.775,340.75 L 444.42499999999995,340.75 L 444.42499999999995,410.25 L 475.075,410.25 L 475.075,479.75 L 475.075,549.25 L 444.42499999999995,549.25 L 352.47499999999997,618.75 L 321.825,618.75 L 291.17499999999995,618.75 L 260.525,618.75 L 260.525,549.25 L 229.87499999999997,479.75 L 229.87499999999997,410.25 L 229.87499999999997,340.75 L 199.22499999999997,340.75 L 199.22499999999997,271.25 L 199.22499999999997,201.75 L 168.575,201.75 L 168.575,132.25 L 168.575,62.75 L 199.22499999999997,62.75 L 229.87499999999997,62.75 L 260.525,62.75 L 260.525,-6.75 L 229.87499999999997,-6.75 L 199.22499999999997,-6.75 L 168.575,-6.75 L 137.92499999999998,-6.75 L 107.27499999999999,-6.75 L 76.625,-6.75 L 45.974999999999994,-6.75 L 15.325,-6.75 L 15.325,62.75 L 45.974999999999994,62.75 L 76.625,62.75 L 76.625,132.25 L 107.27499999999999,132.25 L 107.27499999999999,201.75 L 107.27499999999999,271.25 L 137.92499999999998,340.75 L 137.92499999999998,410.25 L 137.92499999999998,479.75 L 168.575,479.75 L 168.575,549.25 L 168.575,618.75 L 137.92499999999998,618.75 L 107.27499999999999,618.75 L 76.625,618.75 L 199.22499999999997,618.75 L 229.87499999999997,618.75 L 383.12499999999994,618.75zz"/>
    <glyph glyph-name="Q" unicode="Q" horiz-adv-x="718" d="M 484.65,-145.75 L 520.55,-145.75 L 556.45,-145.75 L 592.35,-145.75 L 520.55,-215.25 L 484.65,-215.25 L 448.74999999999994,-215.25 L 412.84999999999997,-215.25 L 376.95,-215.25 L 376.95,-145.75 L 341.04999999999995,-145.75 L 305.15,-145.75 L 269.25,-76.25 L 233.34999999999997,-76.25 L 233.34999999999997,-6.75 L 197.45,-6.75 L 161.54999999999998,-6.75 L 125.64999999999999,62.75 L 89.75,62.75 L 89.75,132.25 L 53.849999999999994,132.25 L 53.849999999999994,201.75 L 53.849999999999994,271.25 L 53.849999999999994,340.75 L 53.849999999999994,410.25 L 89.75,410.25 L 89.75,479.75 L 125.64999999999999,479.75 L 125.64999999999999,549.25 L 161.54999999999998,549.25 L 197.45,549.25 L 197.45,618.75 L 233.34999999999997,618.75 L 269.25,618.75 L 305.15,618.75 L 341.04999999999995,618.75 L 341.04999999999995,688.25 L 376.95,688.25 L 412.84999999999997,688.25 L 448.74999999999994,688.25 L 484.65,688.25 L 484.65,618.75 L 520.55,618.75 L 556.45,618.75 L 592.35,618.75 L 592.35,549.25 L 628.25,549.25 L 628.25,479.75 L 664.15,479.75 L 664.15,410.25 L 664.15,340.75 L 664.15,271.25 L 628.25,271.25 L 628.25,201.75 L 592.35,201.75 L 592.35,132.25 L 556.45,132.25 L 556.45,62.75 L 520.55,62.75 L 484.65,62.75 L 448.74999999999994,62.75 L 448.74999999999994,-6.75 L 412.84999999999997,-6.75 L 376.95,-6.75 L 341.04999999999995,-6.75 L 305.15,-6.75 L 269.25,-6.75 L 305.15,-76.25 L 341.04999999999995,-76.25 L 376.95,-76.25 L 412.84999999999997,-145.75 L 448.74999999999994,-145.75 L 484.65,-145.75zM 125.64999999999999,201.75 L 125.64999999999999,132.25 L 161.54999999999998,132.25 L 161.54999999999998,62.75 L 197.45,62.75 L 233.34999999999997,62.75 L 269.25,62.75 L 305.15,62.75 L 341.04999999999995,62.75 L 376.95,62.75 L 412.84999999999997,62.75 L 448.74999999999994,62.75 L 448.74999999999994,132.25 L 484.65,132.25 L 520.55,132.25 L 520.55,201.75 L 556.45,201.75 L 556.45,271.25 L 556.45,340.75 L 556.45,410.25 L 592.35,410.25 L 556.45,479.75 L 556.45,549.25 L 520.55,549.25 L 484.65,549.25 L 484.65,618.75 L 448.74999999999994,618.75 L 412.84999999999997,618.75 L 376.95,618.75 L 341.04999999999995,618.75 L 305.15,618.75 L 269.25,618.75 L 269.25,549.25 L 233.34999999999997,549.25 L 233.34999999999997,479.75 L 197.45,479.75 L 161.54999999999998,410.25 L 161.54999999999998,340.75 L 125.64999999999999,340.75 L 125.64999999999999,271.25 L 125.64999999999999,201.75zz"/>
    <glyph glyph-name="R" unicode="R" horiz-adv-x="687" d="M 429.37500000000006,271.25 L 429.37500000000006,201.75 L 463.725,201.75 L 463.725,132.25 L 498.07500000000005,132.25 L 498.07500000000005,62.75 L 532.425,62.75 L 566.775,62.75 L 601.125,62.75 L 601.125,-6.75 L 635.475,-6.75 L 566.775,-6.75 L 532.425,-6.75 L 498.07500000000005,-6.75 L 463.725,-6.75 L 463.725,62.75 L 429.37500000000006,62.75 L 429.37500000000006,132.25 L 395.02500000000003,132.25 L 395.02500000000003,201.75 L 360.675,201.75 L 360.675,271.25 L 326.32500000000005,271.25 L 291.975,271.25 L 257.625,271.25 L 223.27500000000003,271.25 L 188.925,271.25 L 188.925,201.75 L 188.925,132.25 L 154.57500000000002,132.25 L 154.57500000000002,62.75 L 188.925,62.75 L 223.27500000000003,62.75 L 257.625,62.75 L 257.625,-6.75 L 223.27500000000003,-6.75 L 188.925,-6.75 L 154.57500000000002,-6.75 L 120.22500000000001,-6.75 L 85.875,-6.75 L 51.525000000000006,-6.75 L 17.175,-6.75 L 17.175,62.75 L 51.525000000000006,62.75 L 85.875,62.75 L 85.875,132.25 L 85.875,201.75 L 120.22500000000001,201.75 L 120.22500000000001,271.25 L 120.22500000000001,340.75 L 120.22500000000001,410.25 L 154.57500000000002,410.25 L 154.57500000000002,479.75 L 154.57500000000002,549.25 L 188.925,618.75 L 154.57500000000002,618.75 L 120.22500000000001,618.75 L 85.875,618.75 L 223.27500000000003,618.75 L 257.625,618.75 L 291.975,618.75 L 326.32500000000005,618.75 L 360.675,618.75 L 395.02500000000003,618.75 L 429.37500000000006,618.75 L 463.725,618.75 L 498.07500000000005,618.75 L 532.425,618.75 L 566.775,618.75 L 566.775,549.25 L 566.775,479.75 L 566.775,410.25 L 532.425,410.25 L 532.425,340.75 L 498.07500000000005,340.75 L 463.725,340.75 L 429.37500000000006,340.75 L 395.02500000000003,340.75 L 395.02500000000003,271.25 L 429.37500000000006,271.25zM 223.27500000000003,340.75 L 257.625,340.75 L 291.975,340.75 L 326.32500000000005,340.75 L 360.675,340.75 L 395.02500000000003,340.75 L 429.37500000000006,340.75 L 429.37500000000006,410.25 L 463.725,410.25 L 463.725,479.75 L 498.07500000000005,479.75 L 498.07500000000005,549.25 L 463.725,549.25 L 463.725,618.75 L 429.37500000000006,618.75 L 395.02500000000003,618.75 L 360.675,618.75 L 326.32500000000005,618.75 L 291.975,618.75 L 257.625,618.75 L 257.625,549.25 L 257.625,479.75 L 223.27500000000003,479.75 L 223.27500000000003,410.25 L 223.27500000000003,340.75zz"/>
    <glyph glyph-name="S" unicode="S" horiz-adv-x="531" d="M 225.675,-6.75 L 199.125,-6.75 L 172.57500000000002,-6.75 L 146.025,-6.75 L 119.47500000000001,-6.75 L 92.92500000000001,-6.75 L 66.375,-6.75 L 39.825,-6.75 L 39.825,62.75 L 39.825,132.25 L 39.825,201.75 L 66.375,201.75 L 66.375,132.25 L 92.92500000000001,132.25 L 92.92500000000001,62.75 L 119.47500000000001,62.75 L 146.025,62.75 L 172.57500000000002,62.75 L 199.125,62.75 L 225.675,62.75 L 252.22500000000002,62.75 L 278.775,62.75 L 305.325,62.75 L 331.875,62.75 L 358.425,62.75 L 358.425,132.25 L 384.97499999999997,132.25 L 358.425,201.75 L 331.875,201.75 L 331.875,271.25 L 305.325,271.25 L 278.775,271.25 L 252.22500000000002,271.25 L 225.675,340.75 L 199.125,340.75 L 172.57500000000002,340.75 L 146.025,340.75 L 146.025,410.25 L 119.47500000000001,410.25 L 119.47500000000001,479.75 L 119.47500000000001,549.25 L 146.025,549.25 L 172.57500000000002,549.25 L 172.57500000000002,618.75 L 199.125,618.75 L 225.675,618.75 L 252.22500000000002,618.75 L 278.775,618.75 L 305.325,618.75 L 305.325,688.25 L 331.875,688.25 L 358.425,688.25 L 384.97499999999997,688.25 L 411.525,688.25 L 411.525,618.75 L 438.075,618.75 L 464.625,618.75 L 491.175,618.75 L 491.175,549.25 L 491.175,479.75 L 464.625,479.75 L 438.075,479.75 L 438.075,549.25 L 411.525,549.25 L 384.97499999999997,618.75 L 358.425,618.75 L 331.875,618.75 L 225.675,549.25 L 199.125,549.25 L 199.125,479.75 L 225.675,479.75 L 225.675,410.25 L 252.22500000000002,410.25 L 278.775,410.25 L 305.325,410.25 L 305.325,340.75 L 331.875,340.75 L 358.425,340.75 L 384.97499999999997,340.75 L 411.525,271.25 L 438.075,271.25 L 438.075,201.75 L 464.625,201.75 L 438.075,132.25 L 411.525,62.75 L 384.97499999999997,62.75 L 358.425,-6.75 L 331.875,-6.75 L 305.325,-6.75 L 278.775,-6.75 L 252.22500000000002,-6.75 L 225.675,-6.75zz"/>
    <glyph glyph-name="T" unicode="T" horiz-adv-x="619" d="M 324.975,618.75 L 355.925,618.75 L 386.875,618.75 L 417.825,618.75 L 448.77500000000003,618.75 L 479.725,618.75 L 510.675,618.75 L 541.625,618.75 L 541.625,688.25 L 572.575,688.25 L 603.525,688.25 L 603.525,618.75 L 603.525,549.25 L 603.525,479.75 L 572.575,479.75 L 572.575,549.25 L 572.575,618.75 L 386.875,549.25 L 386.875,479.75 L 355.925,479.75 L 355.925,410.25 L 355.925,340.75 L 324.975,340.75 L 324.975,271.25 L 324.975,201.75 L 324.975,132.25 L 294.02500000000003,132.25 L 294.02500000000003,62.75 L 324.975,62.75 L 355.925,62.75 L 386.875,62.75 L 386.875,-6.75 L 355.925,-6.75 L 324.975,-6.75 L 294.02500000000003,-6.75 L 263.075,-6.75 L 232.125,-6.75 L 201.17499999999998,-6.75 L 170.225,-6.75 L 139.275,-6.75 L 108.32499999999999,-6.75 L 108.32499999999999,62.75 L 139.275,62.75 L 170.225,62.75 L 201.17499999999998,62.75 L 201.17499999999998,132.25 L 232.125,132.25 L 232.125,201.75 L 232.125,271.25 L 263.075,271.25 L 263.075,340.75 L 263.075,410.25 L 263.075,479.75 L 294.02500000000003,479.75 L 294.02500000000003,549.25 L 294.02500000000003,618.75 L 263.075,618.75 L 232.125,618.75 L 201.17499999999998,618.75 L 170.225,618.75 L 139.275,618.75 L 108.32499999999999,618.75 L 108.32499999999999,549.25 L 77.375,549.25 L 77.375,479.75 L 46.425,479.75 L 46.425,549.25 L 46.425,618.75 L 77.375,618.75 L 324.975,618.75zz"/>
    <glyph glyph-name="U" unicode="U" horiz-adv-x="806" d="M 544.05,618.75 L 584.3499999999999,618.75 L 624.65,618.75 L 664.9499999999999,618.75 L 705.2499999999999,618.75 L 745.55,618.75 L 785.8499999999999,618.75 L 664.9499999999999,549.25 L 664.9499999999999,479.75 L 664.9499999999999,410.25 L 664.9499999999999,340.75 L 624.65,340.75 L 624.65,271.25 L 624.65,201.75 L 584.3499999999999,201.75 L 584.3499999999999,132.25 L 544.05,132.25 L 544.05,62.75 L 503.74999999999994,62.75 L 463.44999999999993,62.75 L 463.44999999999993,-6.75 L 423.15,-6.75 L 382.84999999999997,-6.75 L 342.54999999999995,-6.75 L 302.24999999999994,-6.75 L 261.95,-6.75 L 221.65,-6.75 L 181.35,-6.75 L 181.35,62.75 L 141.04999999999998,62.75 L 141.04999999999998,132.25 L 100.75,132.25 L 100.75,201.75 L 100.75,271.25 L 141.04999999999998,271.25 L 141.04999999999998,340.75 L 141.04999999999998,410.25 L 141.04999999999998,479.75 L 181.35,549.25 L 181.35,618.75 L 141.04999999999998,618.75 L 100.75,618.75 L 221.65,618.75 L 261.95,618.75 L 302.24999999999994,618.75 L 342.54999999999995,618.75 L 261.95,549.25 L 261.95,479.75 L 221.65,479.75 L 221.65,410.25 L 221.65,340.75 L 221.65,271.25 L 181.35,271.25 L 181.35,201.75 L 181.35,132.25 L 221.65,132.25 L 221.65,62.75 L 261.95,62.75 L 302.24999999999994,62.75 L 342.54999999999995,62.75 L 382.84999999999997,62.75 L 423.15,62.75 L 503.74999999999994,132.25 L 544.05,201.75 L 584.3499999999999,271.25 L 584.3499999999999,340.75 L 584.3499999999999,410.25 L 624.65,410.25 L 624.65,479.75 L 624.65,549.25 L 544.05,618.75zz"/>
    <glyph glyph-name="V" unicode="V" horiz-adv-x="709" d="M 691.2750000000001,618.75 L 655.825,618.75 L 655.825,549.25 L 620.3750000000001,549.25 L 620.3750000000001,479.75 L 584.9250000000001,479.75 L 549.475,410.25 L 514.0250000000001,410.25 L 514.0250000000001,340.75 L 478.57500000000005,340.75 L 478.57500000000005,271.25 L 443.12500000000006,271.25 L 443.12500000000006,201.75 L 407.67500000000007,201.75 L 407.67500000000007,132.25 L 372.225,132.25 L 372.225,62.75 L 336.77500000000003,62.75 L 336.77500000000003,-6.75 L 301.32500000000005,-6.75 L 265.87500000000006,-6.75 L 230.425,-6.75 L 230.425,62.75 L 230.425,132.25 L 230.425,201.75 L 194.975,201.75 L 194.975,271.25 L 194.975,340.75 L 159.525,340.75 L 159.525,410.25 L 159.525,479.75 L 159.525,549.25 L 124.07500000000002,549.25 L 124.07500000000002,618.75 L 88.625,618.75 L 53.175000000000004,618.75 L 159.525,618.75 L 194.975,618.75 L 230.425,618.75 L 265.87500000000006,618.75 L 301.32500000000005,618.75 L 230.425,549.25 L 230.425,479.75 L 230.425,410.25 L 265.87500000000006,410.25 L 265.87500000000006,340.75 L 265.87500000000006,271.25 L 301.32500000000005,271.25 L 301.32500000000005,201.75 L 301.32500000000005,132.25 L 301.32500000000005,62.75 L 336.77500000000003,132.25 L 372.225,201.75 L 407.67500000000007,271.25 L 443.12500000000006,340.75 L 478.57500000000005,410.25 L 514.0250000000001,479.75 L 549.475,479.75 L 549.475,549.25 L 584.9250000000001,549.25 L 584.9250000000001,618.75 L 620.3750000000001,618.75 L 549.475,618.75 L 514.0250000000001,618.75 L 691.2750000000001,618.75zz"/>
    <glyph glyph-name="a" unicode="a" horiz-adv-x="541" d="M 500.425,132.25 L 500.425,62.75 L 473.375,62.75 L 446.325,62.75 L 419.275,62.75 L 419.275,-6.75 L 392.22499999999997,-6.75 L 365.175,-6.75 L 338.125,-6.75 L 311.075,-6.75 L 284.025,-6.75 L 284.025,62.75 L 311.075,62.75 L 311.075,132.25 L 338.125,132.25 L 338.125,201.75 L 338.125,271.25 L 365.175,271.25 L 365.175,340.75 L 392.22499999999997,340.75 L 311.075,271.25 L 311.075,201.75 L 284.025,201.75 L 284.025,132.25 L 256.975,132.25 L 256.975,62.75 L 229.925,62.75 L 229.925,-6.75 L 202.875,-6.75 L 175.82500000000002,-6.75 L 148.775,-6.75 L 121.72500000000001,-6.75 L 94.67500000000001,-6.75 L 67.625,62.75 L 40.575,62.75 L 40.575,132.25 L 40.575,201.75 L 40.575,271.25 L 67.625,271.25 L 67.625,340.75 L 94.67500000000001,340.75 L 121.72500000000001,340.75 L 121.72500000000001,410.25 L 148.775,410.25 L 175.82500000000002,410.25 L 175.82500000000002,479.75 L 202.875,479.75 L 229.925,479.75 L 256.975,479.75 L 284.025,479.75 L 311.075,479.75 L 338.125,479.75 L 365.175,479.75 L 392.22499999999997,479.75 L 419.275,479.75 L 446.325,479.75 L 446.325,410.25 L 446.325,340.75 L 419.275,340.75 L 419.275,271.25 L 419.275,201.75 L 392.22499999999997,201.75 L 392.22499999999997,132.25 L 392.22499999999997,62.75 L 473.375,132.25 L 500.425,132.25zM 202.875,62.75 L 202.875,132.25 L 229.925,132.25 L 256.975,132.25 L 256.975,201.75 L 284.025,201.75 L 284.025,271.25 L 311.075,271.25 L 311.075,340.75 L 338.125,340.75 L 365.175,340.75 L 365.175,410.25 L 392.22499999999997,410.25 L 338.125,410.25 L 311.075,410.25 L 311.075,479.75 L 284.025,479.75 L 256.975,479.75 L 229.925,479.75 L 229.925,410.25 L 202.875,410.25 L 175.82500000000002,410.25 L 175.82500000000002,340.75 L 148.775,340.75 L 148.775,271.25 L 121.72500000000001,271.25 L 121.72500000000001,201.75 L 121.72500000000001,132.25 L 121.72500000000001,62.75 L 148.775,62.75 L 175.82500000000002,62.75 L 202.875,62.75zz"/>
    <glyph glyph-name="b" unicode="b" horiz-adv-x="529" d="M 330.625,479.75 L 357.075,479.75 L 383.52500000000003,479.75 L 409.975,479.75 L 436.425,479.75 L 462.875,479.75 L 462.875,410.25 L 489.325,410.25 L 489.325,340.75 L 489.325,271.25 L 462.875,271.25 L 462.875,201.75 L 436.425,201.75 L 436.425,132.25 L 409.975,132.25 L 383.52500000000003,132.25 L 383.52500000000003,62.75 L 357.075,62.75 L 330.625,62.75 L 330.625,-6.75 L 304.175,-6.75 L 277.725,-6.75 L 251.27499999999998,-6.75 L 224.825,-6.75 L 198.375,-6.75 L 171.92499999999998,-6.75 L 145.475,-6.75 L 119.02499999999999,-6.75 L 92.57499999999999,62.75 L 66.125,62.75 L 66.125,132.25 L 66.125,201.75 L 92.57499999999999,201.75 L 92.57499999999999,271.25 L 92.57499999999999,340.75 L 119.02499999999999,340.75 L 119.02499999999999,410.25 L 119.02499999999999,479.75 L 145.475,479.75 L 145.475,549.25 L 145.475,618.75 L 119.02499999999999,618.75 L 119.02499999999999,688.25 L 92.57499999999999,688.25 L 66.125,688.25 L 145.475,688.25 L 171.92499999999998,688.25 L 198.375,688.25 L 224.825,688.25 L 251.27499999999998,688.25 L 224.825,618.75 L 224.825,549.25 L 198.375,549.25 L 198.375,479.75 L 198.375,410.25 L 171.92499999999998,410.25 L 171.92499999999998,340.75 L 171.92499999999998,271.25 L 145.475,271.25 L 145.475,201.75 L 145.475,132.25 L 171.92499999999998,132.25 L 171.92499999999998,201.75 L 198.375,201.75 L 198.375,271.25 L 224.825,271.25 L 224.825,340.75 L 251.27499999999998,340.75 L 251.27499999999998,410.25 L 277.725,410.25 L 304.175,410.25 L 304.175,479.75 L 330.625,479.75zM 277.725,62.75 L 304.175,62.75 L 330.625,62.75 L 330.625,132.25 L 357.075,132.25 L 383.52500000000003,132.25 L 383.52500000000003,201.75 L 409.975,201.75 L 409.975,271.25 L 409.975,340.75 L 409.975,410.25 L 383.52500000000003,410.25 L 357.075,410.25 L 330.625,410.25 L 304.175,410.25 L 304.175,340.75 L 277.725,340.75 L 251.27499999999998,271.25 L 224.825,271.25 L 224.825,201.75 L 198.375,201.75 L 198.375,132.25 L 171.92499999999998,132.25 L 145.475,62.75 L 171.92499999999998,62.75 L 198.375,62.75 L 224.825,62.75 L 251.27499999999998,62.75 L 277.725,62.75zz"/>
    <glyph glyph-name="c" unicode="c" horiz-adv-x="403" d="M 231.72499999999997,479.75 L 211.575,479.75 L 211.575,410.25 L 191.42499999999998,410.25 L 171.27499999999998,410.25 L 171.27499999999998,340.75 L 151.12499999999997,340.75 L 130.975,340.75 L 130.975,271.25 L 110.825,271.25 L 110.825,201.75 L 110.825,132.25 L 130.975,132.25 L 130.975,62.75 L 151.12499999999997,62.75 L 171.27499999999998,62.75 L 191.42499999999998,62.75 L 211.575,62.75 L 231.72499999999997,62.75 L 251.87499999999997,62.75 L 272.025,62.75 L 292.17499999999995,62.75 L 312.325,62.75 L 332.47499999999997,62.75 L 292.17499999999995,-6.75 L 272.025,-6.75 L 251.87499999999997,-6.75 L 231.72499999999997,-6.75 L 211.575,-6.75 L 191.42499999999998,-6.75 L 171.27499999999998,-6.75 L 151.12499999999997,-6.75 L 130.975,-6.75 L 110.825,-6.75 L 90.675,-6.75 L 90.675,62.75 L 70.52499999999999,62.75 L 50.375,62.75 L 30.224999999999998,132.25 L 30.224999999999998,201.75 L 50.375,201.75 L 50.375,271.25 L 70.52499999999999,271.25 L 70.52499999999999,340.75 L 90.675,340.75 L 110.825,410.25 L 130.975,410.25 L 151.12499999999997,410.25 L 151.12499999999997,479.75 L 171.27499999999998,479.75 L 191.42499999999998,479.75 L 251.87499999999997,479.75 L 272.025,479.75 L 292.17499999999995,479.75 L 312.325,479.75 L 332.47499999999997,479.75 L 352.62499999999994,479.75 L 372.775,479.75 L 392.92499999999995,479.75 L 392.92499999999995,410.25 L 372.775,410.25 L 352.62499999999994,410.25 L 352.62499999999994,340.75 L 332.47499999999997,340.75 L 312.325,340.75 L 312.325,410.25 L 332.47499999999997,410.25 L 231.72499999999997,479.75zz"/>
    <glyph glyph-name="d" unicode="d" horiz-adv-x="550" d="M 508.75,132.25 L 508.75,62.75 L 481.25,62.75 L 453.75,62.75 L 426.25,62.75 L 426.25,-6.75 L 398.75,-6.75 L 371.25,-6.75 L 343.75,-6.75 L 316.25,-6.75 L 288.75,-6.75 L 316.25,62.75 L 316.25,132.25 L 343.75,132.25 L 343.75,201.75 L 343.75,271.25 L 371.25,271.25 L 371.25,340.75 L 316.25,271.25 L 316.25,201.75 L 288.75,201.75 L 288.75,132.25 L 261.25,132.25 L 261.25,62.75 L 233.75,62.75 L 206.25,-6.75 L 178.75,-6.75 L 151.25,-6.75 L 123.75,-6.75 L 96.25,-6.75 L 68.75,-6.75 L 68.75,62.75 L 41.25,62.75 L 41.25,132.25 L 41.25,201.75 L 41.25,271.25 L 68.75,271.25 L 68.75,340.75 L 96.25,340.75 L 123.75,410.25 L 151.25,410.25 L 178.75,410.25 L 178.75,479.75 L 206.25,479.75 L 233.75,479.75 L 261.25,479.75 L 288.75,479.75 L 316.25,479.75 L 343.75,479.75 L 371.25,479.75 L 398.75,479.75 L 398.75,549.25 L 398.75,618.75 L 426.25,618.75 L 371.25,618.75 L 371.25,688.25 L 343.75,688.25 L 316.25,688.25 L 398.75,688.25 L 426.25,688.25 L 453.75,688.25 L 481.25,688.25 L 508.75,688.25 L 481.25,618.75 L 481.25,549.25 L 481.25,479.75 L 453.75,479.75 L 453.75,410.25 L 453.75,340.75 L 426.25,340.75 L 426.25,271.25 L 426.25,201.75 L 398.75,201.75 L 398.75,132.25 L 398.75,62.75 L 481.25,132.25 L 508.75,132.25zM 178.75,62.75 L 206.25,62.75 L 206.25,132.25 L 233.75,132.25 L 233.75,201.75 L 261.25,201.75 L 288.75,201.75 L 288.75,271.25 L 316.25,271.25 L 316.25,340.75 L 343.75,340.75 L 371.25,340.75 L 371.25,410.25 L 343.75,410.25 L 316.25,410.25 L 316.25,479.75 L 288.75,479.75 L 261.25,479.75 L 233.75,479.75 L 233.75,410.25 L 206.25,410.25 L 178.75,410.25 L 178.75,340.75 L 151.25,340.75 L 123.75,271.25 L 123.75,201.75 L 96.25,201.75 L 96.25,132.25 L 123.75,132.25 L 123.75,62.75 L 151.25,62.75 L 178.75,62.75zz"/>
    <glyph glyph-name="e" unicode="e" horiz-adv-x="413" d="M 382.025,410.25 L 382.025,340.75 L 361.37499999999994,340.75 L 340.72499999999997,340.75 L 320.075,340.75 L 320.075,271.25 L 299.42499999999995,271.25 L 278.775,271.25 L 258.125,271.25 L 237.47499999999997,271.25 L 216.825,271.25 L 216.825,201.75 L 196.17499999999998,201.75 L 175.52499999999998,201.75 L 154.87499999999997,201.75 L 134.225,201.75 L 113.575,201.75 L 113.575,132.25 L 134.225,132.25 L 134.225,62.75 L 154.87499999999997,62.75 L 175.52499999999998,62.75 L 196.17499999999998,62.75 L 216.825,62.75 L 237.47499999999997,62.75 L 258.125,62.75 L 278.775,62.75 L 299.42499999999995,62.75 L 320.075,62.75 L 340.72499999999997,62.75 L 299.42499999999995,-6.75 L 278.775,-6.75 L 258.125,-6.75 L 237.47499999999997,-6.75 L 216.825,-6.75 L 196.17499999999998,-6.75 L 175.52499999999998,-6.75 L 154.87499999999997,-6.75 L 134.225,-6.75 L 113.575,-6.75 L 92.925,-6.75 L 72.27499999999999,62.75 L 51.625,62.75 L 30.974999999999998,62.75 L 30.974999999999998,132.25 L 30.974999999999998,201.75 L 51.625,201.75 L 51.625,271.25 L 72.27499999999999,271.25 L 72.27499999999999,340.75 L 92.925,340.75 L 92.925,410.25 L 113.575,410.25 L 134.225,410.25 L 154.87499999999997,410.25 L 154.87499999999997,479.75 L 175.52499999999998,479.75 L 196.17499999999998,479.75 L 216.825,479.75 L 237.47499999999997,479.75 L 258.125,479.75 L 278.775,479.75 L 299.42499999999995,479.75 L 320.075,479.75 L 340.72499999999997,479.75 L 361.37499999999994,479.75 L 382.025,479.75 L 382.025,410.25zM 237.47499999999997,479.75 L 216.825,479.75 L 216.825,410.25 L 196.17499999999998,410.25 L 175.52499999999998,410.25 L 154.87499999999997,410.25 L 154.87499999999997,340.75 L 134.225,340.75 L 134.225,271.25 L 113.575,271.25 L 113.575,201.75 L 134.225,201.75 L 154.87499999999997,271.25 L 175.52499999999998,271.25 L 196.17499999999998,271.25 L 216.825,271.25 L 237.47499999999997,271.25 L 237.47499999999997,340.75 L 258.125,340.75 L 278.775,340.75 L 299.42499999999995,340.75 L 320.075,340.75 L 320.075,410.25 L 299.42499999999995,410.25 L 299.42499999999995,479.75 L 278.775,479.75 L 258.125,479.75 L 237.47499999999997,479.75zz"/>
    <glyph glyph-name="f" unicode="f" horiz-adv-x="327" d="M 318.82500000000005,757.75 L 302.475,757.75 L 286.12500000000006,757.75 L 286.12500000000006,688.25 L 269.77500000000003,688.25 L 269.77500000000003,618.75 L 253.42500000000004,618.75 L 237.07500000000005,618.75 L 237.07500000000005,549.25 L 220.72500000000002,549.25 L 220.72500000000002,479.75 L 237.07500000000005,479.75 L 253.42500000000004,479.75 L 269.77500000000003,479.75 L 286.12500000000006,479.75 L 302.475,479.75 L 318.82500000000005,479.75 L 220.72500000000002,410.25 L 204.37500000000003,410.25 L 204.37500000000003,340.75 L 188.02500000000003,271.25 L 188.02500000000003,201.75 L 171.675,201.75 L 171.675,132.25 L 171.675,62.75 L 155.32500000000002,62.75 L 155.32500000000002,-6.75 L 138.97500000000002,-6.75 L 138.97500000000002,-76.25 L 122.62500000000001,-76.25 L 122.62500000000001,-145.75 L 106.275,-145.75 L 89.925,-145.75 L 89.925,-215.25 L 73.575,-215.25 L 40.875,-215.25 L 57.22500000000001,-215.25 L 57.22500000000001,-145.75 L 57.22500000000001,-76.25 L 73.575,-76.25 L 73.575,-6.75 L 89.925,-6.75 L 89.925,62.75 L 89.925,132.25 L 106.275,132.25 L 106.275,201.75 L 122.62500000000001,201.75 L 122.62500000000001,271.25 L 122.62500000000001,340.75 L 138.97500000000002,340.75 L 138.97500000000002,410.25 L 138.97500000000002,479.75 L 122.62500000000001,479.75 L 106.275,479.75 L 89.925,479.75 L 73.575,479.75 L 57.22500000000001,479.75 L 40.875,479.75 L 155.32500000000002,479.75 L 155.32500000000002,549.25 L 171.675,549.25 L 171.675,618.75 L 188.02500000000003,618.75 L 188.02500000000003,688.25 L 204.37500000000003,688.25 L 220.72500000000002,688.25 L 237.07500000000005,688.25 L 237.07500000000005,757.75 L 253.42500000000004,757.75 L 269.77500000000003,757.75 L 318.82500000000005,757.75zz"/>
    <glyph glyph-name="g" unicode="g" horiz-adv-x="456" d="M 444.59999999999997,410.25 L 444.59999999999997,479.75 L 421.8,479.75 L 399.0,479.75 L 376.2,479.75 L 353.4,479.75 L 376.2,410.25 L 399.0,410.25 L 399.0,340.75 L 376.2,271.25 L 353.4,271.25 L 353.4,201.75 L 330.59999999999997,201.75 L 307.8,201.75 L 285.0,201.75 L 262.2,201.75 L 239.4,201.75 L 216.60000000000002,201.75 L 193.8,201.75 L 171.0,201.75 L 148.20000000000002,201.75 L 148.20000000000002,132.25 L 125.4,132.25 L 102.60000000000001,132.25 L 125.4,62.75 L 148.20000000000002,62.75 L 171.0,62.75 L 193.8,62.75 L 216.60000000000002,62.75 L 216.60000000000002,-6.75 L 239.4,-6.75 L 262.2,-6.75 L 285.0,-6.75 L 307.8,-6.75 L 307.8,-76.25 L 330.59999999999997,-76.25 L 330.59999999999997,-145.75 L 307.8,-145.75 L 285.0,-145.75 L 262.2,-145.75 L 262.2,-215.25 L 239.4,-215.25 L 216.60000000000002,-215.25 L 193.8,-215.25 L 171.0,-215.25 L 148.20000000000002,-215.25 L 125.4,-215.25 L 102.60000000000001,-215.25 L 79.80000000000001,-215.25 L 57.0,-215.25 L 34.2,-215.25 L 11.4,-215.25 L 11.4,-6.75 L 11.4,-76.25 L 11.4,-145.75 L 34.2,-145.75 L 57.0,-145.75 L 79.80000000000001,-145.75 L 102.60000000000001,-145.75 L 125.4,-145.75 L 148.20000000000002,-145.75 L 171.0,-145.75 L 193.8,-145.75 L 216.60000000000002,-145.75 L 239.4,-145.75 L 239.4,-76.25 L 216.60000000000002,-76.25 L 193.8,-76.25 L 193.8,-6.75 L 171.0,-6.75 L 148.20000000000002,-6.75 L 125.4,-6.75 L 102.60000000000001,-6.75 L 79.80000000000001,-6.75 L 79.80000000000001,62.75 L 57.0,62.75 L 34.2,62.75 L 34.2,132.25 L 57.0,132.25 L 79.80000000000001,132.25 L 102.60000000000001,201.75 L 125.4,201.75 L 79.80000000000001,201.75 L 79.80000000000001,271.25 L 57.0,271.25 L 57.0,340.75 L 79.80000000000001,340.75 L 79.80000000000001,410.25 L 102.60000000000001,410.25 L 125.4,410.25 L 125.4,479.75 L 148.20000000000002,479.75 L 171.0,479.75 L 193.8,479.75 L 216.60000000000002,479.75 L 239.4,479.75 L 262.2,479.75 L 285.0,479.75 L 307.8,479.75 L 330.59999999999997,479.75 L 444.59999999999997,410.25zM 239.4,201.75 L 262.2,201.75 L 262.2,271.25 L 285.0,271.25 L 307.8,271.25 L 307.8,340.75 L 307.8,410.25 L 285.0,410.25 L 285.0,479.75 L 262.2,479.75 L 239.4,479.75 L 216.60000000000002,479.75 L 193.8,479.75 L 193.8,410.25 L 171.0,410.25 L 148.20000000000002,410.25 L 148.20000000000002,340.75 L 148.20000000000002,271.25 L 148.20000000000002,201.75 L 171.0,201.75 L 193.8,201.75 L 216.60000000000002,201.75 L 239.4,201.75zz"/>
    <glyph glyph-name="h" unicode="h" horiz-adv-x="540" d="M 499.5,132.25 L 499.5,62.75 L 472.5,62.75 L 445.5,62.75 L 418.5,62.75 L 418.5,-6.75 L 391.5,-6.75 L 364.5,-6.75 L 337.5,-6.75 L 310.5,-6.75 L 310.5,62.75 L 310.5,132.25 L 337.5,132.25 L 337.5,201.75 L 364.5,271.25 L 364.5,340.75 L 364.5,410.25 L 337.5,410.25 L 310.5,410.25 L 283.5,410.25 L 283.5,340.75 L 256.5,340.75 L 256.5,271.25 L 229.5,271.25 L 229.5,201.75 L 202.5,201.75 L 175.5,132.25 L 148.5,132.25 L 148.5,62.75 L 121.5,62.75 L 121.5,-6.75 L 94.5,-6.75 L 67.5,-6.75 L 40.5,-6.75 L 40.5,62.75 L 67.5,62.75 L 67.5,132.25 L 67.5,201.75 L 94.5,201.75 L 94.5,271.25 L 94.5,340.75 L 121.5,340.75 L 121.5,410.25 L 121.5,479.75 L 148.5,549.25 L 148.5,618.75 L 121.5,618.75 L 121.5,688.25 L 94.5,688.25 L 67.5,688.25 L 148.5,688.25 L 175.5,688.25 L 202.5,688.25 L 229.5,688.25 L 229.5,618.75 L 229.5,549.25 L 202.5,549.25 L 202.5,479.75 L 202.5,410.25 L 175.5,410.25 L 175.5,340.75 L 175.5,271.25 L 148.5,271.25 L 148.5,201.75 L 121.5,132.25 L 175.5,201.75 L 202.5,271.25 L 229.5,340.75 L 256.5,410.25 L 283.5,479.75 L 310.5,479.75 L 337.5,479.75 L 364.5,479.75 L 391.5,479.75 L 418.5,479.75 L 445.5,479.75 L 445.5,410.25 L 445.5,340.75 L 445.5,271.25 L 418.5,271.25 L 418.5,201.75 L 418.5,132.25 L 391.5,132.25 L 391.5,62.75 L 364.5,62.75 L 472.5,132.25 L 499.5,132.25zz"/>
    <glyph glyph-name="i" unicode="i" horiz-adv-x="322" d="M 249.55000000000004,757.75 L 265.65000000000003,757.75 L 265.65000000000003,688.25 L 281.75000000000006,688.25 L 297.85,688.25 L 297.85,618.75 L 281.75000000000006,618.75 L 265.65000000000003,618.75 L 249.55000000000004,618.75 L 233.45000000000005,618.75 L 217.35000000000002,618.75 L 201.25000000000003,618.75 L 185.15000000000003,618.75 L 185.15000000000003,688.25 L 169.05,688.25 L 201.25000000000003,688.25 L 201.25000000000003,757.75 L 217.35000000000002,757.75 L 233.45000000000005,757.75 L 249.55000000000004,757.75zM 265.65000000000003,132.25 L 265.65000000000003,62.75 L 281.75000000000006,62.75 L 249.55000000000004,62.75 L 233.45000000000005,62.75 L 217.35000000000002,62.75 L 201.25000000000003,62.75 L 201.25000000000003,-6.75 L 185.15000000000003,-6.75 L 169.05,-6.75 L 152.95000000000002,-6.75 L 136.85000000000002,-6.75 L 120.75000000000001,-6.75 L 104.65,-6.75 L 88.55,-6.75 L 72.45,-6.75 L 88.55,62.75 L 88.55,132.25 L 104.65,132.25 L 104.65,201.75 L 120.75000000000001,201.75 L 120.75000000000001,271.25 L 136.85000000000002,271.25 L 136.85000000000002,340.75 L 152.95000000000002,410.25 L 136.85000000000002,410.25 L 120.75000000000001,410.25 L 104.65,410.25 L 88.55,410.25 L 72.45,410.25 L 56.35000000000001,410.25 L 40.25,410.25 L 72.45,479.75 L 88.55,479.75 L 104.65,479.75 L 120.75000000000001,479.75 L 136.85000000000002,479.75 L 152.95000000000002,479.75 L 169.05,479.75 L 185.15000000000003,479.75 L 201.25000000000003,479.75 L 217.35000000000002,479.75 L 233.45000000000005,479.75 L 249.55000000000004,479.75 L 233.45000000000005,410.25 L 217.35000000000002,410.25 L 217.35000000000002,340.75 L 201.25000000000003,340.75 L 201.25000000000003,271.25 L 201.25000000000003,201.75 L 185.15000000000003,201.75 L 185.15000000000003,132.25 L 169.05,132.25 L 169.05,62.75 L 152.95000000000002,62.75 L 185.15000000000003,62.75 L 249.55000000000004,132.25 L 265.65000000000003,132.25zz"/>
    <glyph glyph-name="j" unicode="j" horiz-adv-x="295" d="M 243.375,757.75 L 258.125,757.75 L 272.875,757.75 L 272.875,688.25 L 287.625,688.25 L 287.625,618.75 L 272.875,618.75 L 258.125,618.75 L 243.375,618.75 L 228.625,618.75 L 213.875,618.75 L 199.125,618.75 L 184.375,618.75 L 184.375,688.25 L 169.625,688.25 L 199.125,688.25 L 199.125,757.75 L 213.875,757.75 L 228.625,757.75 L 243.375,757.75zM 154.875,410.25 L 140.125,410.25 L 125.375,410.25 L 110.625,410.25 L 95.875,410.25 L 81.125,410.25 L 66.375,410.25 L 51.625,410.25 L 36.875,410.25 L 66.375,479.75 L 81.125,479.75 L 95.875,479.75 L 110.625,479.75 L 125.375,479.75 L 140.125,479.75 L 154.875,479.75 L 169.625,479.75 L 184.375,479.75 L 199.125,479.75 L 213.875,479.75 L 228.625,479.75 L 243.375,479.75 L 228.625,410.25 L 213.875,410.25 L 213.875,340.75 L 199.125,340.75 L 199.125,271.25 L 184.375,271.25 L 184.375,201.75 L 169.625,132.25 L 154.875,132.25 L 154.875,62.75 L 140.125,62.75 L 140.125,-6.75 L 125.375,-6.75 L 125.375,-76.25 L 110.625,-76.25 L 110.625,-145.75 L 95.875,-145.75 L 81.125,-145.75 L 81.125,-215.25 L 66.375,-215.25 L 51.625,-215.25 L 36.875,-215.25 L 22.125,-215.25 L 7.375,-215.25 L 7.375,-145.75 L 22.125,-145.75 L 36.875,-145.75 L 51.625,-145.75 L 66.375,-145.75 L 66.375,-76.25 L 81.125,-76.25 L 81.125,-6.75 L 81.125,62.75 L 95.875,132.25 L 95.875,201.75 L 110.625,201.75 L 110.625,271.25 L 125.375,271.25 L 125.375,340.75 L 140.125,340.75 L 154.875,410.25zz"/>
    <glyph glyph-name="l" unicode="l" horiz-adv-x="284" d="M 120.69999999999999,62.75 L 134.9,62.75 L 149.1,62.75 L 163.29999999999998,62.75 L 177.49999999999997,62.75 L 191.7,62.75 L 205.89999999999998,62.75 L 220.1,62.75 L 220.1,132.25 L 234.29999999999998,132.25 L 234.29999999999998,62.75 L 163.29999999999998,-6.75 L 149.1,-6.75 L 134.9,-6.75 L 120.69999999999999,-6.75 L 106.49999999999999,-6.75 L 92.29999999999998,-6.75 L 78.1,-6.75 L 63.9,-6.75 L 49.699999999999996,-6.75 L 35.5,-6.75 L 49.699999999999996,62.75 L 63.9,62.75 L 63.9,132.25 L 63.9,201.75 L 78.1,201.75 L 78.1,271.25 L 92.29999999999998,271.25 L 92.29999999999998,340.75 L 106.49999999999999,340.75 L 106.49999999999999,410.25 L 120.69999999999999,410.25 L 120.69999999999999,479.75 L 134.9,479.75 L 134.9,549.25 L 149.1,618.75 L 134.9,618.75 L 120.69999999999999,618.75 L 106.49999999999999,618.75 L 106.49999999999999,688.25 L 92.29999999999998,688.25 L 78.1,688.25 L 63.9,688.25 L 49.699999999999996,688.25 L 120.69999999999999,688.25 L 134.9,688.25 L 149.1,688.25 L 163.29999999999998,688.25 L 177.49999999999997,688.25 L 191.7,688.25 L 205.89999999999998,688.25 L 220.1,688.25 L 234.29999999999998,688.25 L 234.29999999999998,618.75 L 220.1,618.75 L 220.1,549.25 L 205.89999999999998,549.25 L 205.89999999999998,479.75 L 191.7,479.75 L 191.7,410.25 L 177.49999999999997,410.25 L 177.49999999999997,340.75 L 163.29999999999998,340.75 L 163.29999999999998,271.25 L 149.1,271.25 L 149.1,201.75 L 134.9,132.25 L 120.69999999999999,62.75zz"/>
    <glyph glyph-name="m" unicode="m" horiz-adv-x="846" d="M 782.55,132.25 L 782.55,62.75 L 740.2499999999999,62.75 L 740.2499999999999,-6.75 L 697.9499999999999,-6.75 L 655.65,-6.75 L 613.3499999999999,-6.75 L 613.3499999999999,62.75 L 613.3499999999999,132.25 L 655.65,132.25 L 655.65,201.75 L 655.65,271.25 L 655.65,340.75 L 697.9499999999999,340.75 L 697.9499999999999,410.25 L 655.65,410.25 L 613.3499999999999,410.25 L 613.3499999999999,340.75 L 571.05,340.75 L 571.05,271.25 L 528.75,271.25 L 528.75,201.75 L 486.44999999999993,201.75 L 486.44999999999993,132.25 L 444.15,132.25 L 444.15,62.75 L 444.15,-6.75 L 401.84999999999997,-6.75 L 359.54999999999995,-6.75 L 359.54999999999995,62.75 L 359.54999999999995,132.25 L 359.54999999999995,201.75 L 401.84999999999997,201.75 L 401.84999999999997,271.25 L 401.84999999999997,340.75 L 401.84999999999997,410.25 L 359.54999999999995,410.25 L 317.24999999999994,410.25 L 317.24999999999994,340.75 L 274.95,340.75 L 274.95,271.25 L 274.95,201.75 L 232.65,201.75 L 232.65,132.25 L 190.35,132.25 L 190.35,62.75 L 148.04999999999998,62.75 L 148.04999999999998,-6.75 L 105.75,-6.75 L 63.449999999999996,-6.75 L 105.75,62.75 L 105.75,132.25 L 105.75,201.75 L 105.75,271.25 L 148.04999999999998,271.25 L 148.04999999999998,340.75 L 148.04999999999998,410.25 L 105.75,410.25 L 63.449999999999996,410.25 L 21.15,410.25 L 63.449999999999996,479.75 L 105.75,479.75 L 148.04999999999998,479.75 L 190.35,479.75 L 232.65,479.75 L 232.65,410.25 L 232.65,340.75 L 190.35,340.75 L 190.35,271.25 L 190.35,201.75 L 148.04999999999998,132.25 L 232.65,271.25 L 274.95,410.25 L 317.24999999999994,479.75 L 359.54999999999995,479.75 L 401.84999999999997,479.75 L 444.15,479.75 L 486.44999999999993,479.75 L 486.44999999999993,410.25 L 486.44999999999993,340.75 L 486.44999999999993,271.25 L 444.15,271.25 L 444.15,201.75 L 401.84999999999997,132.25 L 401.84999999999997,62.75 L 528.75,340.75 L 571.05,410.25 L 571.05,479.75 L 613.3499999999999,479.75 L 655.65,479.75 L 697.9499999999999,479.75 L 740.2499999999999,479.75 L 740.2499999999999,410.25 L 782.55,410.25 L 782.55,340.75 L 740.2499999999999,340.75 L 740.2499999999999,271.25 L 740.2499999999999,201.75 L 697.9499999999999,201.75 L 697.9499999999999,132.25 L 697.9499999999999,62.75 L 782.55,132.25zz"/>
    <glyph glyph-name="n" unicode="n" horiz-adv-x="576" d="M 532.8,132.25 L 532.8,62.75 L 504.0,62.75 L 475.2,62.75 L 446.4,-6.75 L 417.59999999999997,-6.75 L 388.8,-6.75 L 360.0,-6.75 L 331.2,-6.75 L 331.2,62.75 L 360.0,62.75 L 360.0,132.25 L 360.0,201.75 L 388.8,201.75 L 388.8,271.25 L 388.8,340.75 L 417.59999999999997,340.75 L 417.59999999999997,410.25 L 388.8,410.25 L 360.0,410.25 L 331.2,410.25 L 331.2,340.75 L 302.4,340.75 L 302.4,271.25 L 273.59999999999997,271.25 L 244.8,201.75 L 216.0,201.75 L 216.0,132.25 L 187.20000000000002,132.25 L 187.20000000000002,62.75 L 158.4,62.75 L 158.4,-6.75 L 129.6,-6.75 L 100.80000000000001,-6.75 L 72.0,-6.75 L 72.0,62.75 L 100.80000000000001,62.75 L 100.80000000000001,132.25 L 100.80000000000001,201.75 L 129.6,201.75 L 129.6,271.25 L 129.6,340.75 L 158.4,340.75 L 158.4,410.25 L 129.6,410.25 L 100.80000000000001,410.25 L 72.0,410.25 L 43.2,410.25 L 72.0,479.75 L 100.80000000000001,479.75 L 129.6,479.75 L 158.4,479.75 L 187.20000000000002,479.75 L 216.0,479.75 L 244.8,479.75 L 244.8,410.25 L 216.0,410.25 L 216.0,340.75 L 216.0,271.25 L 187.20000000000002,271.25 L 187.20000000000002,201.75 L 158.4,201.75 L 158.4,132.25 L 244.8,271.25 L 244.8,340.75 L 273.59999999999997,340.75 L 302.4,410.25 L 331.2,479.75 L 360.0,479.75 L 388.8,479.75 L 417.59999999999997,479.75 L 446.4,479.75 L 475.2,479.75 L 475.2,410.25 L 504.0,410.25 L 504.0,340.75 L 475.2,340.75 L 475.2,271.25 L 446.4,201.75 L 446.4,132.25 L 417.59999999999997,132.25 L 417.59999999999997,62.75 L 446.4,62.75 L 504.0,132.25 L 532.8,132.25zz"/>
    <glyph glyph-name="o" unicode="o" horiz-adv-x="476" d="M 178.5,-6.75 L 154.70000000000002,-6.75 L 130.9,-6.75 L 107.10000000000001,-6.75 L 83.30000000000001,-6.75 L 83.30000000000001,62.75 L 59.5,62.75 L 35.7,132.25 L 35.7,201.75 L 35.7,271.25 L 59.5,271.25 L 59.5,340.75 L 83.30000000000001,340.75 L 83.30000000000001,410.25 L 107.10000000000001,410.25 L 130.9,410.25 L 154.70000000000002,479.75 L 178.5,479.75 L 202.3,479.75 L 226.10000000000002,479.75 L 249.9,479.75 L 273.7,479.75 L 297.5,479.75 L 321.3,479.75 L 345.09999999999997,479.75 L 368.9,479.75 L 392.7,479.75 L 392.7,410.25 L 416.5,410.25 L 416.5,340.75 L 440.3,340.75 L 440.3,271.25 L 416.5,271.25 L 416.5,201.75 L 392.7,132.25 L 368.9,132.25 L 368.9,62.75 L 345.09999999999997,62.75 L 321.3,62.75 L 297.5,62.75 L 297.5,-6.75 L 273.7,-6.75 L 249.9,-6.75 L 226.10000000000002,-6.75 L 202.3,-6.75 L 178.5,-6.75zM 226.10000000000002,-6.75 L 249.9,62.75 L 273.7,62.75 L 297.5,62.75 L 297.5,132.25 L 321.3,132.25 L 321.3,201.75 L 345.09999999999997,201.75 L 345.09999999999997,271.25 L 345.09999999999997,340.75 L 345.09999999999997,410.25 L 321.3,410.25 L 321.3,479.75 L 297.5,479.75 L 273.7,479.75 L 249.9,479.75 L 226.10000000000002,479.75 L 202.3,479.75 L 202.3,410.25 L 178.5,410.25 L 154.70000000000002,340.75 L 130.9,271.25 L 130.9,201.75 L 130.9,132.25 L 130.9,62.75 L 154.70000000000002,62.75 L 178.5,62.75 L 202.3,62.75 L 226.10000000000002,62.75 L 226.10000000000002,-6.75zz"/>
    <glyph glyph-name="p" unicode="p" horiz-adv-x="498" d="M 286.34999999999997,479.75 L 311.24999999999994,479.75 L 336.15,479.75 L 361.04999999999995,479.75 L 385.95,479.75 L 410.84999999999997,479.75 L 435.74999999999994,479.75 L 435.74999999999994,410.25 L 460.65,410.25 L 460.65,340.75 L 460.65,271.25 L 435.74999999999994,271.25 L 435.74999999999994,201.75 L 410.84999999999997,201.75 L 410.84999999999997,132.25 L 385.95,132.25 L 361.04999999999995,132.25 L 361.04999999999995,62.75 L 336.15,62.75 L 311.24999999999994,62.75 L 311.24999999999994,-6.75 L 286.34999999999997,-6.75 L 261.45,-6.75 L 236.54999999999998,-6.75 L 211.64999999999998,-6.75 L 186.74999999999997,-6.75 L 161.84999999999997,-6.75 L 136.95,-6.75 L 112.05,-6.75 L 112.05,-76.25 L 112.05,-145.75 L 87.14999999999999,-145.75 L 87.14999999999999,-215.25 L 62.25,-215.25 L 37.349999999999994,-215.25 L 12.45,-215.25 L 12.45,-145.75 L 37.349999999999994,-145.75 L 37.349999999999994,-76.25 L 37.349999999999994,-6.75 L 62.25,-6.75 L 62.25,62.75 L 62.25,132.25 L 87.14999999999999,132.25 L 87.14999999999999,201.75 L 87.14999999999999,271.25 L 62.25,271.25 L 62.25,201.75 L 37.349999999999994,201.75 L 12.45,201.75 L 12.45,271.25 L 37.349999999999994,271.25 L 87.14999999999999,340.75 L 112.05,340.75 L 112.05,410.25 L 136.95,410.25 L 136.95,479.75 L 136.95,549.25 L 161.84999999999997,549.25 L 161.84999999999997,618.75 L 186.74999999999997,618.75 L 211.64999999999998,618.75 L 236.54999999999998,618.75 L 236.54999999999998,549.25 L 211.64999999999998,549.25 L 211.64999999999998,479.75 L 186.74999999999997,479.75 L 186.74999999999997,410.25 L 211.64999999999998,410.25 L 236.54999999999998,410.25 L 236.54999999999998,479.75 L 261.45,479.75 L 286.34999999999997,479.75zM 261.45,62.75 L 286.34999999999997,62.75 L 311.24999999999994,62.75 L 311.24999999999994,132.25 L 336.15,132.25 L 336.15,201.75 L 361.04999999999995,201.75 L 361.04999999999995,271.25 L 385.95,271.25 L 385.95,340.75 L 385.95,410.25 L 361.04999999999995,410.25 L 336.15,410.25 L 311.24999999999994,410.25 L 286.34999999999997,410.25 L 261.45,410.25 L 236.54999999999998,410.25 L 211.64999999999998,410.25 L 211.64999999999998,340.75 L 186.74999999999997,340.75 L 161.84999999999997,340.75 L 161.84999999999997,271.25 L 161.84999999999997,201.75 L 136.95,201.75 L 136.95,132.25 L 136.95,62.75 L 161.84999999999997,62.75 L 186.74999999999997,62.75 L 211.64999999999998,62.75 L 236.54999999999998,62.75 L 261.45,62.75zz"/>
    <glyph glyph-name="q" unicode="q" horiz-adv-x="500" d="M 462.5,479.75 L 437.5,479.75 L 437.5,410.25 L 437.5,340.75 L 412.5,340.75 L 412.5,271.25 L 387.5,271.25 L 387.5,201.75 L 387.5,132.25 L 362.5,132.25 L 362.5,62.75 L 362.5,-6.75 L 337.5,-6.75 L 337.5,-76.25 L 337.5,-145.75 L 312.5,-145.75 L 362.5,-145.75 L 387.5,-145.75 L 412.5,-145.75 L 412.5,-215.25 L 387.5,-215.25 L 362.5,-215.25 L 337.5,-215.25 L 312.5,-215.25 L 287.5,-215.25 L 262.5,-215.25 L 237.5,-215.25 L 212.5,-215.25 L 187.5,-215.25 L 162.5,-215.25 L 137.5,-215.25 L 137.5,-145.75 L 162.5,-145.75 L 187.5,-145.75 L 212.5,-145.75 L 237.5,-145.75 L 262.5,-145.75 L 262.5,-76.25 L 262.5,-6.75 L 287.5,-6.75 L 287.5,62.75 L 312.5,62.75 L 312.5,132.25 L 312.5,201.75 L 337.5,201.75 L 337.5,271.25 L 362.5,271.25 L 362.5,340.75 L 312.5,271.25 L 287.5,201.75 L 287.5,132.25 L 262.5,132.25 L 262.5,62.75 L 237.5,62.75 L 212.5,62.75 L 212.5,-6.75 L 187.5,-6.75 L 162.5,-6.75 L 137.5,-6.75 L 112.5,-6.75 L 87.5,-6.75 L 87.5,62.75 L 62.5,62.75 L 37.5,62.75 L 37.5,132.25 L 37.5,201.75 L 37.5,271.25 L 62.5,271.25 L 62.5,340.75 L 87.5,340.75 L 112.5,340.75 L 112.5,410.25 L 137.5,410.25 L 162.5,410.25 L 162.5,479.75 L 187.5,479.75 L 212.5,479.75 L 237.5,479.75 L 262.5,479.75 L 287.5,479.75 L 312.5,479.75 L 337.5,479.75 L 362.5,479.75 L 387.5,479.75 L 412.5,479.75 L 462.5,479.75zM 187.5,62.75 L 212.5,62.75 L 212.5,132.25 L 237.5,132.25 L 237.5,201.75 L 262.5,201.75 L 287.5,201.75 L 287.5,271.25 L 312.5,271.25 L 312.5,340.75 L 337.5,340.75 L 362.5,340.75 L 362.5,410.25 L 387.5,410.25 L 337.5,410.25 L 312.5,410.25 L 312.5,479.75 L 287.5,479.75 L 262.5,479.75 L 237.5,479.75 L 212.5,479.75 L 212.5,410.25 L 187.5,410.25 L 162.5,410.25 L 162.5,340.75 L 137.5,340.75 L 137.5,271.25 L 112.5,271.25 L 112.5,201.75 L 112.5,132.25 L 137.5,132.25 L 137.5,62.75 L 162.5,62.75 L 187.5,62.75zz"/>
    <glyph glyph-name="r" unicode="r" horiz-adv-x="439" d="M 340.225,479.75 L 362.175,479.75 L 384.125,479.75 L 406.075,479.75 L 428.02500000000003,479.75 L 428.02500000000003,410.25 L 406.075,410.25 L 406.075,340.75 L 384.125,410.25 L 362.175,410.25 L 340.225,410.25 L 318.27500000000003,410.25 L 318.27500000000003,340.75 L 296.325,340.75 L 296.325,271.25 L 274.375,271.25 L 252.42499999999998,271.25 L 252.42499999999998,201.75 L 230.475,201.75 L 230.475,132.25 L 208.52499999999998,132.25 L 186.575,132.25 L 186.575,62.75 L 164.625,62.75 L 164.625,-6.75 L 142.67499999999998,-6.75 L 120.725,-6.75 L 98.77499999999999,-6.75 L 76.82499999999999,-6.75 L 76.82499999999999,62.75 L 98.77499999999999,62.75 L 98.77499999999999,132.25 L 98.77499999999999,201.75 L 120.725,201.75 L 120.725,271.25 L 142.67499999999998,271.25 L 142.67499999999998,340.75 L 142.67499999999998,410.25 L 164.625,410.25 L 120.725,410.25 L 98.77499999999999,410.25 L 76.82499999999999,410.25 L 54.875,410.25 L 32.925,410.25 L 76.82499999999999,479.75 L 98.77499999999999,479.75 L 120.725,479.75 L 142.67499999999998,479.75 L 164.625,479.75 L 186.575,479.75 L 208.52499999999998,479.75 L 230.475,479.75 L 252.42499999999998,479.75 L 230.475,410.25 L 230.475,340.75 L 208.52499999999998,340.75 L 208.52499999999998,271.25 L 186.575,271.25 L 186.575,201.75 L 164.625,201.75 L 164.625,132.25 L 142.67499999999998,132.25 L 142.67499999999998,62.75 L 208.52499999999998,201.75 L 230.475,271.25 L 252.42499999999998,340.75 L 274.375,340.75 L 274.375,410.25 L 296.325,410.25 L 318.27500000000003,479.75 L 340.225,479.75zz"/>
    <glyph glyph-name="s" unicode="s" horiz-adv-x="409" d="M 10.225,62.75 L 10.225,132.25 L 30.674999999999997,132.25 L 51.125,132.25 L 71.57499999999999,132.25 L 71.57499999999999,201.75 L 92.02499999999999,132.25 L 71.57499999999999,62.75 L 92.02499999999999,62.75 L 112.475,62.75 L 132.92499999999998,62.75 L 153.375,62.75 L 173.825,62.75 L 194.27499999999998,62.75 L 214.725,62.75 L 235.17499999999998,62.75 L 255.62499999999997,62.75 L 255.62499999999997,132.25 L 235.17499999999998,132.25 L 235.17499999999998,201.75 L 214.725,201.75 L 194.27499999999998,201.75 L 173.825,201.75 L 153.375,201.75 L 153.375,271.25 L 132.92499999999998,271.25 L 112.475,271.25 L 92.02499999999999,271.25 L 92.02499999999999,340.75 L 92.02499999999999,410.25 L 112.475,410.25 L 132.92499999999998,410.25 L 132.92499999999998,479.75 L 153.375,479.75 L 173.825,479.75 L 194.27499999999998,479.75 L 214.725,479.75 L 235.17499999999998,479.75 L 255.62499999999997,479.75 L 276.075,479.75 L 296.52500000000003,479.75 L 316.975,479.75 L 337.425,479.75 L 357.875,479.75 L 357.875,410.25 L 337.425,410.25 L 316.975,410.25 L 316.975,340.75 L 296.52500000000003,340.75 L 276.075,340.75 L 276.075,410.25 L 296.52500000000003,410.25 L 173.825,410.25 L 153.375,410.25 L 153.375,340.75 L 173.825,340.75 L 194.27499999999998,340.75 L 194.27499999999998,271.25 L 214.725,271.25 L 235.17499999999998,271.25 L 255.62499999999997,271.25 L 276.075,271.25 L 296.52500000000003,201.75 L 316.975,201.75 L 316.975,132.25 L 337.425,132.25 L 316.975,62.75 L 296.52500000000003,62.75 L 276.075,62.75 L 255.62499999999997,-6.75 L 235.17499999999998,-6.75 L 214.725,-6.75 L 194.27499999999998,-6.75 L 173.825,-6.75 L 153.375,-6.75 L 132.92499999999998,-6.75 L 112.475,-6.75 L 92.02499999999999,-6.75 L 71.57499999999999,-6.75 L 51.125,-6.75 L 30.674999999999997,-6.75 L 30.674999999999997,62.75 L 10.225,62.75zz"/>
    <glyph glyph-name="t" unicode="t" horiz-adv-x="343" d="M 334.42499999999995,479.75 L 317.275,479.75 L 300.12499999999994,479.75 L 282.97499999999997,479.75 L 265.825,479.75 L 248.67499999999995,479.75 L 231.52499999999998,479.75 L 231.52499999999998,410.25 L 214.37499999999997,410.25 L 214.37499999999997,340.75 L 197.22499999999997,340.75 L 197.22499999999997,271.25 L 180.075,271.25 L 180.075,201.75 L 180.075,132.25 L 162.92499999999998,132.25 L 162.92499999999998,62.75 L 145.77499999999998,62.75 L 180.075,62.75 L 197.22499999999997,62.75 L 214.37499999999997,62.75 L 231.52499999999998,62.75 L 248.67499999999995,62.75 L 248.67499999999995,132.25 L 265.825,132.25 L 265.825,62.75 L 197.22499999999997,-6.75 L 180.075,-6.75 L 162.92499999999998,-6.75 L 145.77499999999998,-6.75 L 128.62499999999997,-6.75 L 111.475,-6.75 L 94.325,-6.75 L 77.175,-6.75 L 77.175,62.75 L 94.325,62.75 L 94.325,132.25 L 94.325,201.75 L 111.475,201.75 L 111.475,271.25 L 128.62499999999997,271.25 L 128.62499999999997,340.75 L 145.77499999999998,340.75 L 145.77499999999998,410.25 L 145.77499999999998,479.75 L 128.62499999999997,479.75 L 111.475,479.75 L 94.325,479.75 L 77.175,479.75 L 145.77499999999998,549.25 L 162.92499999999998,549.25 L 180.075,549.25 L 197.22499999999997,549.25 L 214.37499999999997,549.25 L 231.52499999999998,549.25 L 231.52499999999998,618.75 L 248.67499999999995,618.75 L 265.825,618.75 L 248.67499999999995,549.25 L 334.42499999999995,479.75zz"/>
    <glyph glyph-name="u" unicode="u" horiz-adv-x="576" d="M 532.8,132.25 L 532.8,62.75 L 504.0,62.75 L 475.2,62.75 L 475.2,-6.75 L 446.4,-6.75 L 417.59999999999997,-6.75 L 388.8,-6.75 L 360.0,-6.75 L 331.2,-6.75 L 331.2,62.75 L 360.0,62.75 L 360.0,132.25 L 360.0,201.75 L 388.8,201.75 L 388.8,271.25 L 388.8,340.75 L 417.59999999999997,340.75 L 417.59999999999997,410.25 L 360.0,340.75 L 360.0,271.25 L 331.2,271.25 L 331.2,201.75 L 302.4,201.75 L 302.4,132.25 L 273.59999999999997,132.25 L 273.59999999999997,62.75 L 244.8,62.75 L 244.8,-6.75 L 216.0,-6.75 L 187.20000000000002,-6.75 L 158.4,-6.75 L 129.6,-6.75 L 100.80000000000001,-6.75 L 100.80000000000001,62.75 L 72.0,62.75 L 72.0,132.25 L 100.80000000000001,132.25 L 100.80000000000001,201.75 L 100.80000000000001,271.25 L 129.6,271.25 L 129.6,340.75 L 158.4,340.75 L 158.4,410.25 L 129.6,410.25 L 100.80000000000001,410.25 L 72.0,410.25 L 43.2,410.25 L 72.0,479.75 L 100.80000000000001,479.75 L 129.6,479.75 L 158.4,479.75 L 187.20000000000002,479.75 L 216.0,479.75 L 244.8,479.75 L 216.0,410.25 L 216.0,340.75 L 187.20000000000002,340.75 L 187.20000000000002,271.25 L 187.20000000000002,201.75 L 158.4,201.75 L 158.4,132.25 L 158.4,62.75 L 187.20000000000002,62.75 L 216.0,62.75 L 244.8,132.25 L 273.59999999999997,201.75 L 302.4,271.25 L 331.2,340.75 L 360.0,410.25 L 388.8,410.25 L 417.59999999999997,479.75 L 446.4,479.75 L 475.2,479.75 L 504.0,479.75 L 475.2,410.25 L 475.2,340.75 L 475.2,271.25 L 446.4,271.25 L 446.4,201.75 L 446.4,132.25 L 417.59999999999997,132.25 L 417.59999999999997,62.75 L 446.4,62.75 L 504.0,132.25 L 532.8,132.25zz"/>
    <glyph glyph-name="v" unicode="v" horiz-adv-x="495" d="M 408.375,479.75 L 433.125,479.75 L 457.875,479.75 L 482.625,479.75 L 482.625,410.25 L 482.625,340.75 L 457.875,340.75 L 457.875,271.25 L 433.125,271.25 L 433.125,201.75 L 408.375,201.75 L 383.625,201.75 L 383.625,132.25 L 358.875,132.25 L 334.125,132.25 L 309.375,62.75 L 284.625,62.75 L 259.875,62.75 L 235.125,62.75 L 235.125,-6.75 L 210.375,-6.75 L 185.625,-6.75 L 160.875,-6.75 L 160.875,62.75 L 160.875,132.25 L 185.625,132.25 L 185.625,201.75 L 185.625,271.25 L 185.625,340.75 L 185.625,410.25 L 160.875,410.25 L 136.125,410.25 L 111.375,410.25 L 86.625,410.25 L 61.875,410.25 L 37.125,410.25 L 12.375,410.25 L 37.125,479.75 L 61.875,479.75 L 86.625,479.75 L 111.375,479.75 L 136.125,479.75 L 160.875,479.75 L 185.625,479.75 L 210.375,479.75 L 235.125,479.75 L 235.125,410.25 L 259.875,410.25 L 259.875,340.75 L 259.875,271.25 L 259.875,201.75 L 259.875,132.25 L 235.125,132.25 L 210.375,62.75 L 284.625,132.25 L 309.375,132.25 L 334.125,201.75 L 358.875,201.75 L 358.875,271.25 L 383.625,271.25 L 408.375,271.25 L 408.375,340.75 L 408.375,410.25 L 433.125,410.25 L 383.625,410.25 L 358.875,410.25 L 358.875,479.75 L 334.125,479.75 L 383.625,479.75 L 408.375,479.75zz"/>
    <glyph glyph-name="x" unicode="x" horiz-adv-x="601" d="M 495.825,410.25 L 465.775,410.25 L 435.72499999999997,410.25 L 435.72499999999997,340.75 L 405.675,340.75 L 375.625,340.75 L 375.625,271.25 L 345.575,271.25 L 315.525,271.25 L 345.575,201.75 L 375.625,201.75 L 375.625,132.25 L 405.675,132.25 L 405.675,62.75 L 435.72499999999997,62.75 L 465.775,62.75 L 495.825,62.75 L 495.825,132.25 L 525.875,132.25 L 525.875,62.75 L 465.775,-6.75 L 435.72499999999997,-6.75 L 405.675,-6.75 L 375.625,-6.75 L 345.575,-6.75 L 345.575,62.75 L 315.525,62.75 L 315.525,132.25 L 285.47499999999997,132.25 L 285.47499999999997,201.75 L 255.425,201.75 L 255.425,132.25 L 225.375,132.25 L 195.32500000000002,132.25 L 195.32500000000002,62.75 L 165.275,62.75 L 135.225,62.75 L 135.225,-6.75 L 105.17500000000001,-6.75 L 75.125,-6.75 L 45.075,-6.75 L 15.025,-6.75 L 15.025,62.75 L 15.025,132.25 L 45.075,132.25 L 45.075,62.75 L 75.125,62.75 L 105.17500000000001,62.75 L 135.225,132.25 L 165.275,132.25 L 195.32500000000002,201.75 L 225.375,201.75 L 255.425,271.25 L 225.375,271.25 L 225.375,340.75 L 195.32500000000002,340.75 L 195.32500000000002,410.25 L 165.275,410.25 L 135.225,410.25 L 105.17500000000001,410.25 L 75.125,410.25 L 45.075,410.25 L 75.125,479.75 L 105.17500000000001,479.75 L 135.225,479.75 L 165.275,479.75 L 195.32500000000002,479.75 L 225.375,479.75 L 255.425,479.75 L 255.425,410.25 L 285.47499999999997,410.25 L 285.47499999999997,340.75 L 315.525,340.75 L 345.575,340.75 L 375.625,410.25 L 405.675,410.25 L 405.675,479.75 L 435.72499999999997,479.75 L 465.775,479.75 L 495.825,479.75 L 525.875,479.75 L 555.925,479.75 L 585.975,479.75 L 585.975,410.25 L 555.925,410.25 L 525.875,410.25 L 495.825,410.25zz"/>
    <glyph glyph-name="y" unicode="y" horiz-adv-x="483" d="M 12.075,-145.75 L 12.075,-215.25 L 36.224999999999994,-215.25 L 36.224999999999994,-145.75 L 60.375,-145.75 L 84.52499999999999,-145.75 L 108.675,-145.75 L 132.825,-145.75 L 132.825,-76.25 L 156.97499999999997,-76.25 L 181.12499999999997,-76.25 L 205.27499999999998,-76.25 L 205.27499999999998,-6.75 L 229.42499999999998,-6.75 L 253.575,-6.75 L 277.72499999999997,-6.75 L 277.72499999999997,62.75 L 301.87499999999994,62.75 L 326.025,62.75 L 326.025,132.25 L 350.17499999999995,132.25 L 374.325,132.25 L 374.325,201.75 L 398.47499999999997,201.75 L 422.62499999999994,201.75 L 422.62499999999994,271.25 L 446.775,271.25 L 446.775,340.75 L 470.92499999999995,340.75 L 470.92499999999995,410.25 L 470.92499999999995,479.75 L 446.775,479.75 L 422.62499999999994,479.75 L 398.47499999999997,479.75 L 374.325,479.75 L 350.17499999999995,479.75 L 350.17499999999995,410.25 L 374.325,410.25 L 398.47499999999997,410.25 L 422.62499999999994,410.25 L 422.62499999999994,340.75 L 398.47499999999997,340.75 L 398.47499999999997,271.25 L 374.325,271.25 L 350.17499999999995,201.75 L 326.025,201.75 L 301.87499999999994,132.25 L 277.72499999999997,132.25 L 253.575,62.75 L 229.42499999999998,62.75 L 205.27499999999998,62.75 L 229.42499999999998,132.25 L 253.575,132.25 L 253.575,201.75 L 253.575,271.25 L 253.575,340.75 L 253.575,410.25 L 229.42499999999998,410.25 L 229.42499999999998,479.75 L 205.27499999999998,479.75 L 181.12499999999997,479.75 L 156.97499999999997,479.75 L 132.825,479.75 L 108.675,479.75 L 84.52499999999999,479.75 L 60.375,479.75 L 60.375,410.25 L 36.224999999999994,410.25 L 12.075,410.25 L 36.224999999999994,340.75 L 84.52499999999999,410.25 L 108.675,410.25 L 132.825,410.25 L 156.97499999999997,410.25 L 181.12499999999997,410.25 L 181.12499999999997,340.75 L 181.12499999999997,271.25 L 181.12499999999997,201.75 L 181.12499999999997,132.25 L 156.97499999999997,62.75 L 156.97499999999997,-6.75 L 132.825,-6.75 L 108.675,-76.25 L 84.52499999999999,-76.25 L 60.375,-76.25 L 12.075,-145.75zz"/>
    <glyph glyph-name="Z" unicode="Z" horiz-adv-x="612" d="M 443.70000000000005,62.75 L 474.3,62.75 L 474.3,132.25 L 504.90000000000003,132.25 L 504.90000000000003,201.75 L 535.5,201.75 L 566.1,201.75 L 566.1,132.25 L 535.5,132.25 L 535.5,62.75 L 504.90000000000003,62.75 L 504.90000000000003,-6.75 L 474.3,-6.75 L 443.70000000000005,-6.75 L 413.1,-6.75 L 382.50000000000006,-6.75 L 351.90000000000003,-6.75 L 321.3,-6.75 L 290.70000000000005,-6.75 L 260.1,-6.75 L 229.50000000000003,-6.75 L 198.90000000000003,-6.75 L 168.3,-6.75 L 137.70000000000002,-6.75 L 107.10000000000001,-6.75 L 76.5,-6.75 L 45.900000000000006,-6.75 L 15.3,-6.75 L 15.3,62.75 L 45.900000000000006,62.75 L 45.900000000000006,132.25 L 76.5,132.25 L 107.10000000000001,132.25 L 107.10000000000001,201.75 L 137.70000000000002,201.75 L 168.3,271.25 L 198.90000000000003,271.25 L 229.50000000000003,340.75 L 260.1,340.75 L 290.70000000000005,410.25 L 321.3,410.25 L 351.90000000000003,479.75 L 382.50000000000006,479.75 L 382.50000000000006,549.25 L 413.1,549.25 L 443.70000000000005,549.25 L 443.70000000000005,618.75 L 474.3,618.75 L 413.1,618.75 L 382.50000000000006,618.75 L 351.90000000000003,618.75 L 321.3,618.75 L 290.70000000000005,618.75 L 260.1,618.75 L 229.50000000000003,618.75 L 198.90000000000003,618.75 L 168.3,618.75 L 168.3,549.25 L 137.70000000000002,549.25 L 107.10000000000001,549.25 L 107.10000000000001,479.75 L 76.5,479.75 L 76.5,549.25 L 107.10000000000001,618.75 L 107.10000000000001,688.25 L 137.70000000000002,688.25 L 168.3,688.25 L 198.90000000000003,688.25 L 504.90000000000003,618.75 L 535.5,618.75 L 566.1,618.75 L 596.6999999999999,618.75 L 535.5,549.25 L 504.90000000000003,549.25 L 474.3,479.75 L 443.70000000000005,479.75 L 413.1,410.25 L 382.50000000000006,410.25 L 351.90000000000003,340.75 L 321.3,340.75 L 321.3,271.25 L 290.70000000000005,271.25 L 260.1,271.25 L 229.50000000000003,201.75 L 198.90000000000003,201.75 L 198.90000000000003,132.25 L 168.3,132.25 L 137.70000000000002,132.25 L 137.70000000000002,62.75 L 107.10000000000001,62.75 L 76.5,62.75 L 168.3,62.75 L 198.90000000000003,62.75 L 229.50000000000003,62.75 L 260.1,62.75 L 290.70000000000005,62.75 L 321.3,62.75 L 351.90000000000003,62.75 L 382.50000000000006,62.75 L 413.1,62.75 L 443.70000000000005,62.75zz"/>
    <glyph glyph-name="Aacute" unicode="&#193;" horiz-adv-x="726" d="M 598.9499999999999,827.25 L 562.65,827.25 L 526.3499999999999,827.25 L 490.04999999999995,827.25 L 490.04999999999995,757.75 L 453.74999999999994,757.75 L 417.44999999999993,757.75 L 381.15,757.75 L 344.84999999999997,757.75 L 417.44999999999993,827.25 L 453.74999999999994,827.25 L 490.04999999999995,896.75 L 526.3499999999999,896.75 L 562.65,896.75 L 598.9499999999999,827.25zM 598.9499999999999,62.75 L 635.2499999999999,62.75 L 671.55,62.75 L 671.55,-6.75 L 635.2499999999999,-6.75 L 598.9499999999999,-6.75 L 562.65,-6.75 L 526.3499999999999,-6.75 L 490.04999999999995,-6.75 L 453.74999999999994,-6.75 L 417.44999999999993,-6.75 L 417.44999999999993,62.75 L 453.74999999999994,62.75 L 490.04999999999995,62.75 L 490.04999999999995,132.25 L 490.04999999999995,201.75 L 453.74999999999994,201.75 L 417.44999999999993,201.75 L 381.15,201.75 L 344.84999999999997,201.75 L 308.54999999999995,201.75 L 272.24999999999994,201.75 L 235.95,201.75 L 199.65,201.75 L 163.35,201.75 L 163.35,132.25 L 127.04999999999998,132.25 L 127.04999999999998,62.75 L 90.75,62.75 L 163.35,62.75 L 199.65,62.75 L 199.65,-6.75 L 163.35,-6.75 L 127.04999999999998,-6.75 L 90.75,-6.75 L 54.449999999999996,-6.75 L 18.15,-6.75 L 18.15,62.75 L 54.449999999999996,62.75 L 54.449999999999996,132.25 L 90.75,132.25 L 90.75,201.75 L 127.04999999999998,201.75 L 163.35,271.25 L 199.65,271.25 L 199.65,340.75 L 235.95,340.75 L 235.95,410.25 L 272.24999999999994,410.25 L 272.24999999999994,479.75 L 308.54999999999995,479.75 L 308.54999999999995,549.25 L 344.84999999999997,549.25 L 344.84999999999997,618.75 L 381.15,618.75 L 381.15,688.25 L 417.44999999999993,688.25 L 453.74999999999994,688.25 L 490.04999999999995,618.75 L 490.04999999999995,549.25 L 490.04999999999995,479.75 L 526.3499999999999,479.75 L 526.3499999999999,410.25 L 526.3499999999999,340.75 L 526.3499999999999,271.25 L 562.65,271.25 L 562.65,201.75 L 562.65,132.25 L 598.9499999999999,132.25 L 598.9499999999999,62.75zM 235.95,271.25 L 272.24999999999994,271.25 L 308.54999999999995,271.25 L 344.84999999999997,271.25 L 381.15,271.25 L 417.44999999999993,271.25 L 453.74999999999994,271.25 L 453.74999999999994,340.75 L 453.74999999999994,410.25 L 417.44999999999993,410.25 L 417.44999999999993,479.75 L 417.44999999999993,549.25 L 381.15,549.25 L 344.84999999999997,549.25 L 344.84999999999997,479.75 L 308.54999999999995,479.75 L 308.54999999999995,410.25 L 272.24999999999994,410.25 L 272.24999999999994,340.75 L 235.95,340.75 L 235.95,271.25zz"/>
    <glyph glyph-name="Abreve" unicode="&#258;" horiz-adv-x="726" d="M 417.44999999999993,757.75 L 381.15,757.75 L 344.84999999999997,757.75 L 308.54999999999995,757.75 L 308.54999999999995,827.25 L 308.54999999999995,896.75 L 344.84999999999997,896.75 L 344.84999999999997,827.25 L 381.15,827.25 L 417.44999999999993,827.25 L 453.74999999999994,827.25 L 490.04999999999995,827.25 L 526.3499999999999,827.25 L 526.3499999999999,896.75 L 562.65,896.75 L 562.65,827.25 L 526.3499999999999,757.75 L 490.04999999999995,757.75 L 453.74999999999994,757.75 L 417.44999999999993,757.75zM 598.9499999999999,62.75 L 635.2499999999999,62.75 L 671.55,62.75 L 671.55,-6.75 L 635.2499999999999,-6.75 L 598.9499999999999,-6.75 L 562.65,-6.75 L 526.3499999999999,-6.75 L 490.04999999999995,-6.75 L 453.74999999999994,-6.75 L 417.44999999999993,-6.75 L 417.44999999999993,62.75 L 453.74999999999994,62.75 L 490.04999999999995,62.75 L 490.04999999999995,132.25 L 490.04999999999995,201.75 L 453.74999999999994,201.75 L 417.44999999999993,201.75 L 381.15,201.75 L 344.84999999999997,201.75 L 308.54999999999995,201.75 L 272.24999999999994,201.75 L 235.95,201.75 L 199.65,201.75 L 163.35,201.75 L 163.35,132.25 L 127.04999999999998,132.25 L 127.04999999999998,62.75 L 90.75,62.75 L 163.35,62.75 L 199.65,62.75 L 199.65,-6.75 L 163.35,-6.75 L 127.04999999999998,-6.75 L 90.75,-6.75 L 54.449999999999996,-6.75 L 18.15,-6.75 L 18.15,62.75 L 54.449999999999996,62.75 L 54.449999999999996,132.25 L 90.75,132.25 L 90.75,201.75 L 127.04999999999998,201.75 L 163.35,271.25 L 199.65,271.25 L 199.65,340.75 L 235.95,340.75 L 235.95,410.25 L 272.24999999999994,410.25 L 272.24999999999994,479.75 L 308.54999999999995,479.75 L 308.54999999999995,549.25 L 344.84999999999997,549.25 L 344.84999999999997,618.75 L 381.15,618.75 L 381.15,688.25 L 417.44999999999993,688.25 L 453.74999999999994,688.25 L 490.04999999999995,618.75 L 490.04999999999995,549.25 L 490.04999999999995,479.75 L 526.3499999999999,479.75 L 526.3499999999999,410.25 L 526.3499999999999,340.75 L 526.3499999999999,271.25 L 562.65,271.25 L 562.65,201.75 L 562.65,132.25 L 598.9499999999999,132.25 L 598.9499999999999,62.75zM 235.95,271.25 L 272.24999999999994,271.25 L 308.54999999999995,271.25 L 344.84999999999997,271.25 L 381.15,271.25 L 417.44999999999993,271.25 L 453.74999999999994,271.25 L 453.74999999999994,340.75 L 453.74999999999994,410.25 L 417.44999999999993,410.25 L 417.44999999999993,479.75 L 417.44999999999993,549.25 L 381.15,549.25 L 344.84999999999997,549.25 L 344.84999999999997,479.75 L 308.54999999999995,479.75 L 308.54999999999995,410.25 L 272.24999999999994,410.25 L 272.24999999999994,340.75 L 235.95,340.75 L 235.95,271.25zz"/>
    <glyph glyph-name="Acircumflex" unicode="&#194;" horiz-adv-x="726" d="M 453.74999999999994,827.25 L 417.44999999999993,827.25 L 417.44999999999993,757.75 L 381.15,757.75 L 344.84999999999997,757.75 L 308.54999999999995,757.75 L 272.24999999999994,757.75 L 344.84999999999997,827.25 L 381.15,827.25 L 417.44999999999993,896.75 L 453.74999999999994,896.75 L 490.04999999999995,896.75 L 490.04999999999995,827.25 L 526.3499999999999,827.25 L 526.3499999999999,757.75 L 562.65,757.75 L 490.04999999999995,757.75 L 453.74999999999994,757.75 L 453.74999999999994,827.25zM 598.9499999999999,62.75 L 635.2499999999999,62.75 L 671.55,62.75 L 671.55,-6.75 L 635.2499999999999,-6.75 L 598.9499999999999,-6.75 L 562.65,-6.75 L 526.3499999999999,-6.75 L 490.04999999999995,-6.75 L 453.74999999999994,-6.75 L 417.44999999999993,-6.75 L 417.44999999999993,62.75 L 453.74999999999994,62.75 L 490.04999999999995,62.75 L 490.04999999999995,132.25 L 490.04999999999995,201.75 L 453.74999999999994,201.75 L 417.44999999999993,201.75 L 381.15,201.75 L 344.84999999999997,201.75 L 308.54999999999995,201.75 L 272.24999999999994,201.75 L 235.95,201.75 L 199.65,201.75 L 163.35,201.75 L 163.35,132.25 L 127.04999999999998,132.25 L 127.04999999999998,62.75 L 90.75,62.75 L 163.35,62.75 L 199.65,62.75 L 199.65,-6.75 L 163.35,-6.75 L 127.04999999999998,-6.75 L 90.75,-6.75 L 54.449999999999996,-6.75 L 18.15,-6.75 L 18.15,62.75 L 54.449999999999996,62.75 L 54.449999999999996,132.25 L 90.75,132.25 L 90.75,201.75 L 127.04999999999998,201.75 L 163.35,271.25 L 199.65,271.25 L 199.65,340.75 L 235.95,340.75 L 235.95,410.25 L 272.24999999999994,410.25 L 272.24999999999994,479.75 L 308.54999999999995,479.75 L 308.54999999999995,549.25 L 344.84999999999997,549.25 L 344.84999999999997,618.75 L 381.15,618.75 L 381.15,688.25 L 417.44999999999993,688.25 L 453.74999999999994,688.25 L 490.04999999999995,618.75 L 490.04999999999995,549.25 L 490.04999999999995,479.75 L 526.3499999999999,479.75 L 526.3499999999999,410.25 L 526.3499999999999,340.75 L 526.3499999999999,271.25 L 562.65,271.25 L 562.65,201.75 L 562.65,132.25 L 598.9499999999999,132.25 L 598.9499999999999,62.75zM 235.95,271.25 L 272.24999999999994,271.25 L 308.54999999999995,271.25 L 344.84999999999997,271.25 L 381.15,271.25 L 417.44999999999993,271.25 L 453.74999999999994,271.25 L 453.74999999999994,340.75 L 453.74999999999994,410.25 L 417.44999999999993,410.25 L 417.44999999999993,479.75 L 417.44999999999993,549.25 L 381.15,549.25 L 344.84999999999997,549.25 L 344.84999999999997,479.75 L 308.54999999999995,479.75 L 308.54999999999995,410.25 L 272.24999999999994,410.25 L 272.24999999999994,340.75 L 235.95,340.75 L 235.95,271.25zz"/>
    <glyph glyph-name="Adieresis" unicode="&#196;" horiz-adv-x="726" d="M 526.3499999999999,757.75 L 490.04999999999995,757.75 L 490.04999999999995,827.25 L 453.74999999999994,827.25 L 526.3499999999999,827.25 L 526.3499999999999,896.75 L 562.65,896.75 L 562.65,827.25 L 598.9499999999999,827.25 L 598.9499999999999,757.75 L 562.65,757.75 L 526.3499999999999,757.75zM 308.54999999999995,757.75 L 272.24999999999994,757.75 L 272.24999999999994,827.25 L 308.54999999999995,827.25 L 344.84999999999997,827.25 L 344.84999999999997,896.75 L 381.15,827.25 L 417.44999999999993,827.25 L 417.44999999999993,757.75 L 381.15,757.75 L 344.84999999999997,757.75 L 308.54999999999995,757.75zM 598.9499999999999,62.75 L 635.2499999999999,62.75 L 671.55,62.75 L 671.55,-6.75 L 635.2499999999999,-6.75 L 598.9499999999999,-6.75 L 562.65,-6.75 L 526.3499999999999,-6.75 L 490.04999999999995,-6.75 L 453.74999999999994,-6.75 L 417.44999999999993,-6.75 L 417.44999999999993,62.75 L 453.74999999999994,62.75 L 490.04999999999995,62.75 L 490.04999999999995,132.25 L 490.04999999999995,201.75 L 453.74999999999994,201.75 L 417.44999999999993,201.75 L 381.15,201.75 L 344.84999999999997,201.75 L 308.54999999999995,201.75 L 272.24999999999994,201.75 L 235.95,201.75 L 199.65,201.75 L 163.35,201.75 L 163.35,132.25 L 127.04999999999998,132.25 L 127.04999999999998,62.75 L 90.75,62.75 L 163.35,62.75 L 199.65,62.75 L 199.65,-6.75 L 163.35,-6.75 L 127.04999999999998,-6.75 L 90.75,-6.75 L 54.449999999999996,-6.75 L 18.15,-6.75 L 18.15,62.75 L 54.449999999999996,62.75 L 54.449999999999996,132.25 L 90.75,132.25 L 90.75,201.75 L 127.04999999999998,201.75 L 163.35,271.25 L 199.65,271.25 L 199.65,340.75 L 235.95,340.75 L 235.95,410.25 L 272.24999999999994,410.25 L 272.24999999999994,479.75 L 308.54999999999995,479.75 L 308.54999999999995,549.25 L 344.84999999999997,549.25 L 344.84999999999997,618.75 L 381.15,618.75 L 381.15,688.25 L 417.44999999999993,688.25 L 453.74999999999994,688.25 L 490.04999999999995,618.75 L 490.04999999999995,549.25 L 490.04999999999995,479.75 L 526.3499999999999,479.75 L 526.3499999999999,410.25 L 526.3499999999999,340.75 L 526.3499999999999,271.25 L 562.65,271.25 L 562.65,201.75 L 562.65,132.25 L 598.9499999999999,132.25 L 598.9499999999999,62.75zM 235.95,271.25 L 272.24999999999994,271.25 L 308.54999999999995,271.25 L 344.84999999999997,271.25 L 381.15,271.25 L 417.44999999999993,271.25 L 453.74999999999994,271.25 L 453.74999999999994,340.75 L 453.74999999999994,410.25 L 417.44999999999993,410.25 L 417.44999999999993,479.75 L 417.44999999999993,549.25 L 381.15,549.25 L 344.84999999999997,549.25 L 344.84999999999997,479.75 L 308.54999999999995,479.75 L 308.54999999999995,410.25 L 272.24999999999994,410.25 L 272.24999999999994,340.75 L 235.95,340.75 L 235.95,271.25zz"/>
    <glyph glyph-name="Agrave" unicode="&#192;" horiz-adv-x="726" d="M 526.3499999999999,757.75 L 490.04999999999995,757.75 L 453.74999999999994,757.75 L 417.44999999999993,757.75 L 381.15,757.75 L 381.15,827.25 L 344.84999999999997,827.25 L 308.54999999999995,827.25 L 272.24999999999994,827.25 L 308.54999999999995,896.75 L 344.84999999999997,896.75 L 381.15,896.75 L 417.44999999999993,827.25 L 453.74999999999994,827.25 L 490.04999999999995,827.25 L 526.3499999999999,757.75zM 598.9499999999999,62.75 L 635.2499999999999,62.75 L 671.55,62.75 L 671.55,-6.75 L 635.2499999999999,-6.75 L 598.9499999999999,-6.75 L 562.65,-6.75 L 526.3499999999999,-6.75 L 490.04999999999995,-6.75 L 453.74999999999994,-6.75 L 417.44999999999993,-6.75 L 417.44999999999993,62.75 L 453.74999999999994,62.75 L 490.04999999999995,62.75 L 490.04999999999995,132.25 L 490.04999999999995,201.75 L 453.74999999999994,201.75 L 417.44999999999993,201.75 L 381.15,201.75 L 344.84999999999997,201.75 L 308.54999999999995,201.75 L 272.24999999999994,201.75 L 235.95,201.75 L 199.65,201.75 L 163.35,201.75 L 163.35,132.25 L 127.04999999999998,132.25 L 127.04999999999998,62.75 L 90.75,62.75 L 163.35,62.75 L 199.65,62.75 L 199.65,-6.75 L 163.35,-6.75 L 127.04999999999998,-6.75 L 90.75,-6.75 L 54.449999999999996,-6.75 L 18.15,-6.75 L 18.15,62.75 L 54.449999999999996,62.75 L 54.449999999999996,132.25 L 90.75,132.25 L 90.75,201.75 L 127.04999999999998,201.75 L 163.35,271.25 L 199.65,271.25 L 199.65,340.75 L 235.95,340.75 L 235.95,410.25 L 272.24999999999994,410.25 L 272.24999999999994,479.75 L 308.54999999999995,479.75 L 308.54999999999995,549.25 L 344.84999999999997,549.25 L 344.84999999999997,618.75 L 381.15,618.75 L 381.15,688.25 L 417.44999999999993,688.25 L 453.74999999999994,688.25 L 490.04999999999995,618.75 L 490.04999999999995,549.25 L 490.04999999999995,479.75 L 526.3499999999999,479.75 L 526.3499999999999,410.25 L 526.3499999999999,340.75 L 526.3499999999999,271.25 L 562.65,271.25 L 562.65,201.75 L 562.65,132.25 L 598.9499999999999,132.25 L 598.9499999999999,62.75zM 235.95,271.25 L 272.24999999999994,271.25 L 308.54999999999995,271.25 L 344.84999999999997,271.25 L 381.15,271.25 L 417.44999999999993,271.25 L 453.74999999999994,271.25 L 453.74999999999994,340.75 L 453.74999999999994,410.25 L 417.44999999999993,410.25 L 417.44999999999993,479.75 L 417.44999999999993,549.25 L 381.15,549.25 L 344.84999999999997,549.25 L 344.84999999999997,479.75 L 308.54999999999995,479.75 L 308.54999999999995,410.25 L 272.24999999999994,410.25 L 272.24999999999994,340.75 L 235.95,340.75 L 235.95,271.25zz"/>
    <glyph glyph-name="Amacron" unicode="&#256;" horiz-adv-x="726" d="M 598.9499999999999,827.25 L 598.9499999999999,757.75 L 562.65,757.75 L 526.3499999999999,757.75 L 490.04999999999995,757.75 L 453.74999999999994,757.75 L 417.44999999999993,757.75 L 381.15,757.75 L 344.84999999999997,757.75 L 308.54999999999995,757.75 L 272.24999999999994,757.75 L 235.95,757.75 L 235.95,827.25 L 272.24999999999994,827.25 L 308.54999999999995,827.25 L 344.84999999999997,827.25 L 381.15,827.25 L 417.44999999999993,827.25 L 453.74999999999994,827.25 L 490.04999999999995,827.25 L 526.3499999999999,827.25 L 562.65,827.25 L 598.9499999999999,827.25zM 598.9499999999999,62.75 L 635.2499999999999,62.75 L 671.55,62.75 L 671.55,-6.75 L 635.2499999999999,-6.75 L 598.9499999999999,-6.75 L 562.65,-6.75 L 526.3499999999999,-6.75 L 490.04999999999995,-6.75 L 453.74999999999994,-6.75 L 417.44999999999993,-6.75 L 417.44999999999993,62.75 L 453.74999999999994,62.75 L 490.04999999999995,62.75 L 490.04999999999995,132.25 L 490.04999999999995,201.75 L 453.74999999999994,201.75 L 417.44999999999993,201.75 L 381.15,201.75 L 344.84999999999997,201.75 L 308.54999999999995,201.75 L 272.24999999999994,201.75 L 235.95,201.75 L 199.65,201.75 L 163.35,201.75 L 163.35,132.25 L 127.04999999999998,132.25 L 127.04999999999998,62.75 L 90.75,62.75 L 163.35,62.75 L 199.65,62.75 L 199.65,-6.75 L 163.35,-6.75 L 127.04999999999998,-6.75 L 90.75,-6.75 L 54.449999999999996,-6.75 L 18.15,-6.75 L 18.15,62.75 L 54.449999999999996,62.75 L 54.449999999999996,132.25 L 90.75,132.25 L 90.75,201.75 L 127.04999999999998,201.75 L 163.35,271.25 L 199.65,271.25 L 199.65,340.75 L 235.95,340.75 L 235.95,410.25 L 272.24999999999994,410.25 L 272.24999999999994,479.75 L 308.54999999999995,479.75 L 308.54999999999995,549.25 L 344.84999999999997,549.25 L 344.84999999999997,618.75 L 381.15,618.75 L 381.15,688.25 L 417.44999999999993,688.25 L 453.74999999999994,688.25 L 490.04999999999995,618.75 L 490.04999999999995,549.25 L 490.04999999999995,479.75 L 526.3499999999999,479.75 L 526.3499999999999,410.25 L 526.3499999999999,340.75 L 526.3499999999999,271.25 L 562.65,271.25 L 562.65,201.75 L 562.65,132.25 L 598.9499999999999,132.25 L 598.9499999999999,62.75zM 235.95,271.25 L 272.24999999999994,271.25 L 308.54999999999995,271.25 L 344.84999999999997,271.25 L 381.15,271.25 L 417.44999999999993,271.25 L 453.74999999999994,271.25 L 453.74999999999994,340.75 L 453.74999999999994,410.25 L 417.44999999999993,410.25 L 417.44999999999993,479.75 L 417.44999999999993,549.25 L 381.15,549.25 L 344.84999999999997,549.25 L 344.84999999999997,479.75 L 308.54999999999995,479.75 L 308.54999999999995,410.25 L 272.24999999999994,410.25 L 272.24999999999994,340.75 L 235.95,340.75 L 235.95,271.25zz"/>
    <glyph glyph-name="Aogonek" unicode="&#260;" horiz-adv-x="726" d="M 562.65,-6.75 L 526.3499999999999,-6.75 L 526.3499999999999,-76.25 L 490.04999999999995,-76.25 L 490.04999999999995,-145.75 L 526.3499999999999,-145.75 L 562.65,-145.75 L 598.9499999999999,-145.75 L 562.65,-215.25 L 526.3499999999999,-215.25 L 490.04999999999995,-215.25 L 453.74999999999994,-215.25 L 453.74999999999994,-145.75 L 417.44999999999993,-145.75 L 417.44999999999993,-76.25 L 453.74999999999994,-76.25 L 453.74999999999994,-6.75 L 490.04999999999995,-6.75 L 417.44999999999993,-6.75 L 417.44999999999993,62.75 L 453.74999999999994,62.75 L 490.04999999999995,62.75 L 490.04999999999995,132.25 L 490.04999999999995,201.75 L 453.74999999999994,201.75 L 417.44999999999993,201.75 L 381.15,201.75 L 344.84999999999997,201.75 L 308.54999999999995,201.75 L 272.24999999999994,201.75 L 235.95,201.75 L 199.65,201.75 L 163.35,201.75 L 163.35,132.25 L 127.04999999999998,132.25 L 127.04999999999998,62.75 L 90.75,62.75 L 163.35,62.75 L 199.65,62.75 L 199.65,-6.75 L 163.35,-6.75 L 127.04999999999998,-6.75 L 90.75,-6.75 L 54.449999999999996,-6.75 L 18.15,-6.75 L 18.15,62.75 L 54.449999999999996,62.75 L 54.449999999999996,132.25 L 90.75,132.25 L 90.75,201.75 L 127.04999999999998,201.75 L 163.35,271.25 L 199.65,271.25 L 199.65,340.75 L 235.95,340.75 L 235.95,410.25 L 272.24999999999994,410.25 L 272.24999999999994,479.75 L 308.54999999999995,479.75 L 308.54999999999995,549.25 L 344.84999999999997,549.25 L 344.84999999999997,618.75 L 381.15,618.75 L 381.15,688.25 L 417.44999999999993,688.25 L 453.74999999999994,688.25 L 490.04999999999995,618.75 L 490.04999999999995,549.25 L 490.04999999999995,479.75 L 526.3499999999999,479.75 L 526.3499999999999,410.25 L 526.3499999999999,340.75 L 526.3499999999999,271.25 L 562.65,271.25 L 562.65,201.75 L 562.65,132.25 L 598.9499999999999,132.25 L 598.9499999999999,62.75 L 635.2499999999999,62.75 L 671.55,62.75 L 671.55,-6.75 L 635.2499999999999,-6.75 L 598.9499999999999,-6.75 L 562.65,-6.75zM 235.95,271.25 L 272.24999999999994,271.25 L 308.54999999999995,271.25 L 344.84999999999997,271.25 L 381.15,271.25 L 417.44999999999993,271.25 L 453.74999999999994,271.25 L 453.74999999999994,340.75 L 453.74999999999994,410.25 L 417.44999999999993,410.25 L 417.44999999999993,479.75 L 417.44999999999993,549.25 L 381.15,549.25 L 344.84999999999997,549.25 L 344.84999999999997,479.75 L 308.54999999999995,479.75 L 308.54999999999995,410.25 L 272.24999999999994,410.25 L 272.24999999999994,340.75 L 235.95,340.75 L 235.95,271.25zz"/>
    <glyph glyph-name="Aring" unicode="&#197;" horiz-adv-x="726" d="M 453.74999999999994,757.75 L 417.44999999999993,757.75 L 381.15,757.75 L 344.84999999999997,757.75 L 344.84999999999997,827.25 L 344.84999999999997,896.75 L 381.15,896.75 L 417.44999999999993,896.75 L 453.74999999999994,896.75 L 490.04999999999995,896.75 L 526.3499999999999,896.75 L 526.3499999999999,827.25 L 526.3499999999999,757.75 L 490.04999999999995,757.75 L 453.74999999999994,757.75zM 453.74999999999994,896.75 L 417.44999999999993,896.75 L 381.15,896.75 L 381.15,827.25 L 381.15,757.75 L 417.44999999999993,757.75 L 453.74999999999994,757.75 L 490.04999999999995,757.75 L 490.04999999999995,827.25 L 490.04999999999995,896.75 L 453.74999999999994,896.75zM 598.9499999999999,62.75 L 635.2499999999999,62.75 L 671.55,62.75 L 671.55,-6.75 L 635.2499999999999,-6.75 L 598.9499999999999,-6.75 L 562.65,-6.75 L 526.3499999999999,-6.75 L 490.04999999999995,-6.75 L 453.74999999999994,-6.75 L 417.44999999999993,-6.75 L 417.44999999999993,62.75 L 453.74999999999994,62.75 L 490.04999999999995,62.75 L 490.04999999999995,132.25 L 490.04999999999995,201.75 L 453.74999999999994,201.75 L 417.44999999999993,201.75 L 381.15,201.75 L 344.84999999999997,201.75 L 308.54999999999995,201.75 L 272.24999999999994,201.75 L 235.95,201.75 L 199.65,201.75 L 163.35,201.75 L 163.35,132.25 L 127.04999999999998,132.25 L 127.04999999999998,62.75 L 90.75,62.75 L 163.35,62.75 L 199.65,62.75 L 199.65,-6.75 L 163.35,-6.75 L 127.04999999999998,-6.75 L 90.75,-6.75 L 54.449999999999996,-6.75 L 18.15,-6.75 L 18.15,62.75 L 54.449999999999996,62.75 L 54.449999999999996,132.25 L 90.75,132.25 L 90.75,201.75 L 127.04999999999998,201.75 L 163.35,271.25 L 199.65,271.25 L 199.65,340.75 L 235.95,340.75 L 235.95,410.25 L 272.24999999999994,410.25 L 272.24999999999994,479.75 L 308.54999999999995,479.75 L 308.54999999999995,549.25 L 344.84999999999997,549.25 L 344.84999999999997,618.75 L 381.15,618.75 L 381.15,688.25 L 417.44999999999993,688.25 L 453.74999999999994,688.25 L 490.04999999999995,618.75 L 490.04999999999995,549.25 L 490.04999999999995,479.75 L 526.3499999999999,479.75 L 526.3499999999999,410.25 L 526.3499999999999,340.75 L 526.3499999999999,271.25 L 562.65,271.25 L 562.65,201.75 L 562.65,132.25 L 598.9499999999999,132.25 L 598.9499999999999,62.75zM 235.95,271.25 L 272.24999999999994,271.25 L 308.54999999999995,271.25 L 344.84999999999997,271.25 L 381.15,271.25 L 417.44999999999993,271.25 L 453.74999999999994,271.25 L 453.74999999999994,340.75 L 453.74999999999994,410.25 L 417.44999999999993,410.25 L 417.44999999999993,479.75 L 417.44999999999993,549.25 L 381.15,549.25 L 344.84999999999997,549.25 L 344.84999999999997,479.75 L 308.54999999999995,479.75 L 308.54999999999995,410.25 L 272.24999999999994,410.25 L 272.24999999999994,340.75 L 235.95,340.75 L 235.95,271.25zz"/>
    <glyph glyph-name="Atilde" unicode="&#195;" horiz-adv-x="726" d="M 344.84999999999997,827.25 L 308.54999999999995,827.25 L 308.54999999999995,757.75 L 272.24999999999994,757.75 L 272.24999999999994,827.25 L 344.84999999999997,896.75 L 381.15,896.75 L 381.15,827.25 L 417.44999999999993,827.25 L 453.74999999999994,827.25 L 490.04999999999995,827.25 L 526.3499999999999,827.25 L 562.65,827.25 L 562.65,896.75 L 598.9499999999999,896.75 L 598.9499999999999,827.25 L 562.65,757.75 L 526.3499999999999,757.75 L 490.04999999999995,757.75 L 453.74999999999994,757.75 L 417.44999999999993,757.75 L 381.15,757.75 L 344.84999999999997,827.25zM 598.9499999999999,62.75 L 635.2499999999999,62.75 L 671.55,62.75 L 671.55,-6.75 L 635.2499999999999,-6.75 L 598.9499999999999,-6.75 L 562.65,-6.75 L 526.3499999999999,-6.75 L 490.04999999999995,-6.75 L 453.74999999999994,-6.75 L 417.44999999999993,-6.75 L 417.44999999999993,62.75 L 453.74999999999994,62.75 L 490.04999999999995,62.75 L 490.04999999999995,132.25 L 490.04999999999995,201.75 L 453.74999999999994,201.75 L 417.44999999999993,201.75 L 381.15,201.75 L 344.84999999999997,201.75 L 308.54999999999995,201.75 L 272.24999999999994,201.75 L 235.95,201.75 L 199.65,201.75 L 163.35,201.75 L 163.35,132.25 L 127.04999999999998,132.25 L 127.04999999999998,62.75 L 90.75,62.75 L 163.35,62.75 L 199.65,62.75 L 199.65,-6.75 L 163.35,-6.75 L 127.04999999999998,-6.75 L 90.75,-6.75 L 54.449999999999996,-6.75 L 18.15,-6.75 L 18.15,62.75 L 54.449999999999996,62.75 L 54.449999999999996,132.25 L 90.75,132.25 L 90.75,201.75 L 127.04999999999998,201.75 L 163.35,271.25 L 199.65,271.25 L 199.65,340.75 L 235.95,340.75 L 235.95,410.25 L 272.24999999999994,410.25 L 272.24999999999994,479.75 L 308.54999999999995,479.75 L 308.54999999999995,549.25 L 344.84999999999997,549.25 L 344.84999999999997,618.75 L 381.15,618.75 L 381.15,688.25 L 417.44999999999993,688.25 L 453.74999999999994,688.25 L 490.04999999999995,618.75 L 490.04999999999995,549.25 L 490.04999999999995,479.75 L 526.3499999999999,479.75 L 526.3499999999999,410.25 L 526.3499999999999,340.75 L 526.3499999999999,271.25 L 562.65,271.25 L 562.65,201.75 L 562.65,132.25 L 598.9499999999999,132.25 L 598.9499999999999,62.75zM 235.95,271.25 L 272.24999999999994,271.25 L 308.54999999999995,271.25 L 344.84999999999997,271.25 L 381.15,271.25 L 417.44999999999993,271.25 L 453.74999999999994,271.25 L 453.74999999999994,340.75 L 453.74999999999994,410.25 L 417.44999999999993,410.25 L 417.44999999999993,479.75 L 417.44999999999993,549.25 L 381.15,549.25 L 344.84999999999997,549.25 L 344.84999999999997,479.75 L 308.54999999999995,479.75 L 308.54999999999995,410.25 L 272.24999999999994,410.25 L 272.24999999999994,340.75 L 235.95,340.75 L 235.95,271.25zz"/>
    <glyph glyph-name="AE" unicode="&#198;" horiz-adv-x="937" d="M 819.875,618.75 L 773.025,618.75 L 726.175,618.75 L 679.3249999999999,618.75 L 632.475,618.75 L 585.625,618.75 L 773.025,688.25 L 819.875,688.25 L 866.725,688.25 L 913.5749999999999,688.25 L 913.5749999999999,618.75 L 866.725,618.75 L 866.725,549.25 L 866.725,479.75 L 819.875,479.75 L 819.875,549.25 L 819.875,618.75zM 773.025,62.75 L 773.025,132.25 L 819.875,132.25 L 819.875,201.75 L 866.725,201.75 L 866.725,132.25 L 866.725,62.75 L 819.875,62.75 L 819.875,-6.75 L 773.025,-6.75 L 726.175,-6.75 L 679.3249999999999,-6.75 L 632.475,-6.75 L 585.625,-6.75 L 538.775,-6.75 L 491.925,-6.75 L 445.07500000000005,-6.75 L 398.225,-6.75 L 351.375,-6.75 L 304.52500000000003,-6.75 L 304.52500000000003,62.75 L 351.375,62.75 L 398.225,62.75 L 398.225,132.25 L 398.225,201.75 L 351.375,201.75 L 304.52500000000003,201.75 L 257.675,201.75 L 210.82500000000002,201.75 L 163.97500000000002,201.75 L 163.97500000000002,132.25 L 117.125,132.25 L 117.125,62.75 L 70.275,62.75 L 163.97500000000002,62.75 L 163.97500000000002,-6.75 L 117.125,-6.75 L 70.275,-6.75 L 23.425,-6.75 L 23.425,62.75 L 70.275,132.25 L 117.125,201.75 L 163.97500000000002,271.25 L 210.82500000000002,271.25 L 210.82500000000002,340.75 L 257.675,340.75 L 257.675,410.25 L 304.52500000000003,410.25 L 304.52500000000003,479.75 L 351.375,479.75 L 398.225,549.25 L 445.07500000000005,549.25 L 445.07500000000005,618.75 L 398.225,618.75 L 491.925,618.75 L 538.775,618.75 L 585.625,618.75 L 585.625,549.25 L 538.775,549.25 L 538.775,479.75 L 538.775,410.25 L 538.775,340.75 L 585.625,340.75 L 632.475,340.75 L 679.3249999999999,340.75 L 726.175,340.75 L 726.175,410.25 L 726.175,479.75 L 773.025,479.75 L 773.025,410.25 L 773.025,340.75 L 726.175,271.25 L 679.3249999999999,271.25 L 538.775,271.25 L 491.925,271.25 L 491.925,201.75 L 491.925,132.25 L 491.925,62.75 L 538.775,62.75 L 585.625,62.75 L 632.475,62.75 L 679.3249999999999,62.75 L 726.175,62.75 L 773.025,62.75zM 257.675,271.25 L 304.52500000000003,271.25 L 351.375,271.25 L 398.225,271.25 L 445.07500000000005,271.25 L 445.07500000000005,340.75 L 445.07500000000005,410.25 L 445.07500000000005,479.75 L 491.925,479.75 L 491.925,549.25 L 491.925,618.75 L 445.07500000000005,549.25 L 398.225,479.75 L 351.375,479.75 L 351.375,410.25 L 304.52500000000003,410.25 L 304.52500000000003,340.75 L 257.675,340.75 L 257.675,271.25zz"/>
    <glyph glyph-name="Cacute" unicode="&#262;" horiz-adv-x="666" d="M 349.65,757.75 L 316.34999999999997,757.75 L 382.94999999999993,757.75 L 382.94999999999993,827.25 L 416.24999999999994,827.25 L 449.54999999999995,827.25 L 449.54999999999995,896.75 L 482.8499999999999,896.75 L 516.15,896.75 L 549.4499999999999,896.75 L 549.4499999999999,827.25 L 516.15,827.25 L 482.8499999999999,827.25 L 449.54999999999995,757.75 L 416.24999999999994,757.75 L 349.65,757.75zM 416.24999999999994,688.25 L 449.54999999999995,688.25 L 482.8499999999999,688.25 L 482.8499999999999,618.75 L 516.15,618.75 L 549.4499999999999,618.75 L 582.7499999999999,618.75 L 616.05,618.75 L 616.05,549.25 L 582.7499999999999,549.25 L 582.7499999999999,479.75 L 582.7499999999999,410.25 L 549.4499999999999,410.25 L 549.4499999999999,479.75 L 549.4499999999999,549.25 L 516.15,549.25 L 449.54999999999995,618.75 L 416.24999999999994,618.75 L 382.94999999999993,618.75 L 349.65,618.75 L 316.34999999999997,618.75 L 283.04999999999995,618.75 L 283.04999999999995,549.25 L 249.74999999999997,549.25 L 216.45,549.25 L 216.45,479.75 L 183.15,479.75 L 183.15,410.25 L 149.85,410.25 L 149.85,340.75 L 149.85,271.25 L 116.54999999999998,271.25 L 116.54999999999998,201.75 L 149.85,201.75 L 149.85,132.25 L 183.15,132.25 L 183.15,62.75 L 216.45,62.75 L 249.74999999999997,62.75 L 283.04999999999995,62.75 L 316.34999999999997,62.75 L 349.65,62.75 L 382.94999999999993,62.75 L 416.24999999999994,62.75 L 449.54999999999995,62.75 L 449.54999999999995,132.25 L 482.8499999999999,132.25 L 516.15,132.25 L 516.15,201.75 L 549.4499999999999,201.75 L 582.7499999999999,201.75 L 549.4499999999999,132.25 L 516.15,62.75 L 482.8499999999999,62.75 L 482.8499999999999,-6.75 L 449.54999999999995,-6.75 L 416.24999999999994,-6.75 L 382.94999999999993,-6.75 L 349.65,-6.75 L 316.34999999999997,-6.75 L 283.04999999999995,-6.75 L 249.74999999999997,-6.75 L 216.45,-6.75 L 183.15,-6.75 L 149.85,-6.75 L 149.85,62.75 L 116.54999999999998,62.75 L 83.25,62.75 L 83.25,132.25 L 49.949999999999996,132.25 L 49.949999999999996,201.75 L 49.949999999999996,271.25 L 49.949999999999996,340.75 L 49.949999999999996,410.25 L 83.25,410.25 L 83.25,479.75 L 116.54999999999998,479.75 L 116.54999999999998,549.25 L 149.85,549.25 L 183.15,549.25 L 183.15,618.75 L 216.45,618.75 L 249.74999999999997,618.75 L 349.65,688.25 L 382.94999999999993,688.25 L 416.24999999999994,688.25zz"/>
    <glyph glyph-name="Ccaron" unicode="&#268;" horiz-adv-x="666" d="M 549.4499999999999,896.75 L 516.15,896.75 L 516.15,827.25 L 482.8499999999999,827.25 L 449.54999999999995,757.75 L 416.24999999999994,757.75 L 382.94999999999993,757.75 L 349.65,757.75 L 349.65,827.25 L 316.34999999999997,827.25 L 283.04999999999995,896.75 L 316.34999999999997,896.75 L 349.65,896.75 L 382.94999999999993,827.25 L 416.24999999999994,827.25 L 449.54999999999995,827.25 L 482.8499999999999,896.75 L 549.4499999999999,896.75zM 416.24999999999994,688.25 L 449.54999999999995,688.25 L 482.8499999999999,688.25 L 482.8499999999999,618.75 L 516.15,618.75 L 549.4499999999999,618.75 L 582.7499999999999,618.75 L 616.05,618.75 L 616.05,549.25 L 582.7499999999999,549.25 L 582.7499999999999,479.75 L 582.7499999999999,410.25 L 549.4499999999999,410.25 L 549.4499999999999,479.75 L 549.4499999999999,549.25 L 516.15,549.25 L 449.54999999999995,618.75 L 416.24999999999994,618.75 L 382.94999999999993,618.75 L 349.65,618.75 L 316.34999999999997,618.75 L 283.04999999999995,618.75 L 283.04999999999995,549.25 L 249.74999999999997,549.25 L 216.45,549.25 L 216.45,479.75 L 183.15,479.75 L 183.15,410.25 L 149.85,410.25 L 149.85,340.75 L 149.85,271.25 L 116.54999999999998,271.25 L 116.54999999999998,201.75 L 149.85,201.75 L 149.85,132.25 L 183.15,132.25 L 183.15,62.75 L 216.45,62.75 L 249.74999999999997,62.75 L 283.04999999999995,62.75 L 316.34999999999997,62.75 L 349.65,62.75 L 382.94999999999993,62.75 L 416.24999999999994,62.75 L 449.54999999999995,62.75 L 449.54999999999995,132.25 L 482.8499999999999,132.25 L 516.15,132.25 L 516.15,201.75 L 549.4499999999999,201.75 L 582.7499999999999,201.75 L 549.4499999999999,132.25 L 516.15,62.75 L 482.8499999999999,62.75 L 482.8499999999999,-6.75 L 449.54999999999995,-6.75 L 416.24999999999994,-6.75 L 382.94999999999993,-6.75 L 349.65,-6.75 L 316.34999999999997,-6.75 L 283.04999999999995,-6.75 L 249.74999999999997,-6.75 L 216.45,-6.75 L 183.15,-6.75 L 149.85,-6.75 L 149.85,62.75 L 116.54999999999998,62.75 L 83.25,62.75 L 83.25,132.25 L 49.949999999999996,132.25 L 49.949999999999996,201.75 L 49.949999999999996,271.25 L 49.949999999999996,340.75 L 49.949999999999996,410.25 L 83.25,410.25 L 83.25,479.75 L 116.54999999999998,479.75 L 116.54999999999998,549.25 L 149.85,549.25 L 183.15,549.25 L 183.15,618.75 L 216.45,618.75 L 249.74999999999997,618.75 L 349.65,688.25 L 382.94999999999993,688.25 L 416.24999999999994,688.25zz"/>
    <glyph glyph-name="Ccedilla" unicode="&#199;" horiz-adv-x="666" d="M 582.7499999999999,410.25 L 549.4499999999999,410.25 L 549.4499999999999,479.75 L 549.4499999999999,549.25 L 516.15,549.25 L 516.15,618.75 L 482.8499999999999,618.75 L 449.54999999999995,618.75 L 416.24999999999994,618.75 L 382.94999999999993,618.75 L 349.65,618.75 L 316.34999999999997,618.75 L 283.04999999999995,618.75 L 283.04999999999995,549.25 L 249.74999999999997,549.25 L 216.45,549.25 L 216.45,479.75 L 183.15,479.75 L 183.15,410.25 L 149.85,410.25 L 149.85,340.75 L 149.85,271.25 L 116.54999999999998,271.25 L 116.54999999999998,201.75 L 149.85,201.75 L 149.85,132.25 L 183.15,132.25 L 183.15,62.75 L 216.45,62.75 L 249.74999999999997,62.75 L 283.04999999999995,62.75 L 316.34999999999997,62.75 L 349.65,62.75 L 382.94999999999993,62.75 L 416.24999999999994,62.75 L 449.54999999999995,62.75 L 449.54999999999995,132.25 L 482.8499999999999,132.25 L 516.15,132.25 L 516.15,201.75 L 549.4499999999999,201.75 L 582.7499999999999,201.75 L 549.4499999999999,132.25 L 516.15,62.75 L 482.8499999999999,62.75 L 482.8499999999999,-6.75 L 449.54999999999995,-6.75 L 416.24999999999994,-6.75 L 382.94999999999993,-6.75 L 349.65,-6.75 L 316.34999999999997,-6.75 L 283.04999999999995,-6.75 L 283.04999999999995,-76.25 L 316.34999999999997,-76.25 L 349.65,-76.25 L 349.65,-145.75 L 382.94999999999993,-145.75 L 349.65,-215.25 L 316.34999999999997,-215.25 L 283.04999999999995,-215.25 L 249.74999999999997,-215.25 L 316.34999999999997,-145.75 L 283.04999999999995,-145.75 L 249.74999999999997,-145.75 L 249.74999999999997,-76.25 L 216.45,-76.25 L 249.74999999999997,-6.75 L 216.45,-6.75 L 183.15,-6.75 L 149.85,-6.75 L 149.85,62.75 L 116.54999999999998,62.75 L 83.25,62.75 L 83.25,132.25 L 49.949999999999996,132.25 L 49.949999999999996,201.75 L 49.949999999999996,271.25 L 49.949999999999996,340.75 L 49.949999999999996,410.25 L 83.25,410.25 L 83.25,479.75 L 116.54999999999998,479.75 L 116.54999999999998,549.25 L 149.85,549.25 L 183.15,549.25 L 183.15,618.75 L 216.45,618.75 L 249.74999999999997,618.75 L 349.65,688.25 L 382.94999999999993,688.25 L 416.24999999999994,688.25 L 449.54999999999995,688.25 L 482.8499999999999,688.25 L 549.4499999999999,618.75 L 582.7499999999999,618.75 L 616.05,618.75 L 616.05,549.25 L 582.7499999999999,549.25 L 582.7499999999999,479.75 L 582.7499999999999,410.25zz"/>
    <glyph glyph-name="Cdotaccent" unicode="&#266;" horiz-adv-x="666" d="M 416.24999999999994,827.25 L 449.54999999999995,827.25 L 482.8499999999999,827.25 L 482.8499999999999,757.75 L 449.54999999999995,757.75 L 416.24999999999994,757.75 L 416.24999999999994,688.25 L 382.94999999999993,688.25 L 382.94999999999993,757.75 L 349.65,757.75 L 349.65,827.25 L 382.94999999999993,827.25 L 416.24999999999994,827.25zM 416.24999999999994,688.25 L 449.54999999999995,688.25 L 482.8499999999999,688.25 L 482.8499999999999,618.75 L 516.15,618.75 L 549.4499999999999,618.75 L 582.7499999999999,618.75 L 616.05,618.75 L 616.05,549.25 L 582.7499999999999,549.25 L 582.7499999999999,479.75 L 582.7499999999999,410.25 L 549.4499999999999,410.25 L 549.4499999999999,479.75 L 549.4499999999999,549.25 L 516.15,549.25 L 449.54999999999995,618.75 L 416.24999999999994,618.75 L 382.94999999999993,618.75 L 349.65,618.75 L 316.34999999999997,618.75 L 283.04999999999995,618.75 L 283.04999999999995,549.25 L 249.74999999999997,549.25 L 216.45,549.25 L 216.45,479.75 L 183.15,479.75 L 183.15,410.25 L 149.85,410.25 L 149.85,340.75 L 149.85,271.25 L 116.54999999999998,271.25 L 116.54999999999998,201.75 L 149.85,201.75 L 149.85,132.25 L 183.15,132.25 L 183.15,62.75 L 216.45,62.75 L 249.74999999999997,62.75 L 283.04999999999995,62.75 L 316.34999999999997,62.75 L 349.65,62.75 L 382.94999999999993,62.75 L 416.24999999999994,62.75 L 449.54999999999995,62.75 L 449.54999999999995,132.25 L 482.8499999999999,132.25 L 516.15,132.25 L 516.15,201.75 L 549.4499999999999,201.75 L 582.7499999999999,201.75 L 549.4499999999999,132.25 L 516.15,62.75 L 482.8499999999999,62.75 L 482.8499999999999,-6.75 L 449.54999999999995,-6.75 L 416.24999999999994,-6.75 L 382.94999999999993,-6.75 L 349.65,-6.75 L 316.34999999999997,-6.75 L 283.04999999999995,-6.75 L 249.74999999999997,-6.75 L 216.45,-6.75 L 183.15,-6.75 L 149.85,-6.75 L 149.85,62.75 L 116.54999999999998,62.75 L 83.25,62.75 L 83.25,132.25 L 49.949999999999996,132.25 L 49.949999999999996,201.75 L 49.949999999999996,271.25 L 49.949999999999996,340.75 L 49.949999999999996,410.25 L 83.25,410.25 L 83.25,479.75 L 116.54999999999998,479.75 L 116.54999999999998,549.25 L 149.85,549.25 L 183.15,549.25 L 183.15,618.75 L 216.45,618.75 L 249.74999999999997,618.75 L 349.65,688.25 L 382.94999999999993,688.25 L 416.24999999999994,688.25zz"/>
    <glyph glyph-name="Eth" unicode="&#208;" horiz-adv-x="691" d="M 328.22499999999997,618.75 L 362.775,618.75 L 397.32499999999993,618.75 L 431.87499999999994,618.75 L 466.42499999999995,618.75 L 500.9749999999999,618.75 L 535.525,618.75 L 535.525,549.25 L 570.0749999999999,549.25 L 604.6249999999999,549.25 L 604.6249999999999,479.75 L 639.175,479.75 L 639.175,410.25 L 639.175,340.75 L 639.175,271.25 L 604.6249999999999,271.25 L 604.6249999999999,201.75 L 570.0749999999999,201.75 L 570.0749999999999,132.25 L 535.525,132.25 L 500.9749999999999,132.25 L 500.9749999999999,62.75 L 466.42499999999995,62.75 L 431.87499999999994,62.75 L 397.32499999999993,-6.75 L 362.775,-6.75 L 328.22499999999997,-6.75 L 293.67499999999995,-6.75 L 259.12499999999994,-6.75 L 224.575,-6.75 L 190.025,-6.75 L 155.475,-6.75 L 120.92499999999998,-6.75 L 86.375,-6.75 L 51.824999999999996,-6.75 L 17.275,-6.75 L 17.275,62.75 L 51.824999999999996,62.75 L 86.375,62.75 L 86.375,132.25 L 86.375,201.75 L 120.92499999999998,201.75 L 120.92499999999998,271.25 L 120.92499999999998,340.75 L 86.375,340.75 L 51.824999999999996,340.75 L 17.275,340.75 L 120.92499999999998,410.25 L 155.475,410.25 L 155.475,479.75 L 155.475,549.25 L 155.475,618.75 L 190.025,618.75 L 120.92499999999998,618.75 L 86.375,618.75 L 224.575,618.75 L 259.12499999999994,618.75 L 293.67499999999995,618.75 L 328.22499999999997,618.75zM 328.22499999999997,62.75 L 362.775,62.75 L 397.32499999999993,62.75 L 431.87499999999994,62.75 L 431.87499999999994,132.25 L 466.42499999999995,132.25 L 466.42499999999995,201.75 L 500.9749999999999,201.75 L 500.9749999999999,271.25 L 535.525,271.25 L 535.525,340.75 L 535.525,410.25 L 535.525,479.75 L 500.9749999999999,479.75 L 500.9749999999999,549.25 L 466.42499999999995,549.25 L 431.87499999999994,549.25 L 431.87499999999994,618.75 L 397.32499999999993,618.75 L 362.775,618.75 L 328.22499999999997,618.75 L 293.67499999999995,618.75 L 259.12499999999994,618.75 L 259.12499999999994,549.25 L 259.12499999999994,479.75 L 224.575,479.75 L 224.575,410.25 L 224.575,340.75 L 259.12499999999994,340.75 L 293.67499999999995,340.75 L 328.22499999999997,340.75 L 362.775,340.75 L 397.32499999999993,340.75 L 224.575,271.25 L 190.025,271.25 L 190.025,201.75 L 190.025,132.25 L 155.475,132.25 L 155.475,62.75 L 190.025,62.75 L 224.575,62.75 L 259.12499999999994,62.75 L 293.67499999999995,62.75 L 328.22499999999997,62.75zz"/>
    <glyph glyph-name="Dcaron" unicode="&#270;" horiz-adv-x="691" d="M 397.32499999999993,757.75 L 362.775,757.75 L 328.22499999999997,757.75 L 328.22499999999997,827.25 L 293.67499999999995,827.25 L 293.67499999999995,896.75 L 259.12499999999994,896.75 L 328.22499999999997,896.75 L 362.775,827.25 L 397.32499999999993,827.25 L 431.87499999999994,827.25 L 466.42499999999995,827.25 L 466.42499999999995,896.75 L 500.9749999999999,896.75 L 535.525,896.75 L 500.9749999999999,827.25 L 466.42499999999995,757.75 L 431.87499999999994,757.75 L 397.32499999999993,757.75zM 328.22499999999997,618.75 L 362.775,618.75 L 397.32499999999993,618.75 L 431.87499999999994,618.75 L 466.42499999999995,618.75 L 500.9749999999999,618.75 L 535.525,618.75 L 535.525,549.25 L 570.0749999999999,549.25 L 604.6249999999999,549.25 L 604.6249999999999,479.75 L 639.175,479.75 L 639.175,410.25 L 639.175,340.75 L 639.175,271.25 L 604.6249999999999,271.25 L 604.6249999999999,201.75 L 570.0749999999999,201.75 L 570.0749999999999,132.25 L 535.525,132.25 L 500.9749999999999,132.25 L 500.9749999999999,62.75 L 466.42499999999995,62.75 L 431.87499999999994,62.75 L 397.32499999999993,-6.75 L 362.775,-6.75 L 328.22499999999997,-6.75 L 293.67499999999995,-6.75 L 259.12499999999994,-6.75 L 224.575,-6.75 L 190.025,-6.75 L 155.475,-6.75 L 120.92499999999998,-6.75 L 86.375,-6.75 L 51.824999999999996,-6.75 L 17.275,-6.75 L 17.275,62.75 L 51.824999999999996,62.75 L 86.375,62.75 L 86.375,132.25 L 86.375,201.75 L 120.92499999999998,201.75 L 120.92499999999998,271.25 L 120.92499999999998,340.75 L 120.92499999999998,410.25 L 155.475,410.25 L 155.475,479.75 L 155.475,549.25 L 155.475,618.75 L 190.025,618.75 L 120.92499999999998,618.75 L 86.375,618.75 L 224.575,618.75 L 259.12499999999994,618.75 L 293.67499999999995,618.75 L 328.22499999999997,618.75zM 328.22499999999997,62.75 L 362.775,62.75 L 397.32499999999993,62.75 L 431.87499999999994,62.75 L 431.87499999999994,132.25 L 466.42499999999995,132.25 L 466.42499999999995,201.75 L 500.9749999999999,201.75 L 500.9749999999999,271.25 L 535.525,271.25 L 535.525,340.75 L 535.525,410.25 L 535.525,479.75 L 500.9749999999999,479.75 L 500.9749999999999,549.25 L 466.42499999999995,549.25 L 431.87499999999994,549.25 L 431.87499999999994,618.75 L 397.32499999999993,618.75 L 362.775,618.75 L 328.22499999999997,618.75 L 293.67499999999995,618.75 L 259.12499999999994,618.75 L 259.12499999999994,549.25 L 259.12499999999994,479.75 L 224.575,479.75 L 224.575,410.25 L 224.575,340.75 L 190.025,271.25 L 190.025,201.75 L 190.025,132.25 L 155.475,132.25 L 155.475,62.75 L 190.025,62.75 L 224.575,62.75 L 259.12499999999994,62.75 L 293.67499999999995,62.75 L 328.22499999999997,62.75zz"/>
    <glyph glyph-name="Dcroat" unicode="&#272;" horiz-adv-x="691" d="M 328.22499999999997,618.75 L 362.775,618.75 L 397.32499999999993,618.75 L 431.87499999999994,618.75 L 466.42499999999995,618.75 L 500.9749999999999,618.75 L 535.525,618.75 L 535.525,549.25 L 570.0749999999999,549.25 L 604.6249999999999,549.25 L 604.6249999999999,479.75 L 639.175,479.75 L 639.175,410.25 L 639.175,340.75 L 639.175,271.25 L 604.6249999999999,271.25 L 604.6249999999999,201.75 L 570.0749999999999,201.75 L 570.0749999999999,132.25 L 535.525,132.25 L 500.9749999999999,132.25 L 500.9749999999999,62.75 L 466.42499999999995,62.75 L 431.87499999999994,62.75 L 397.32499999999993,-6.75 L 362.775,-6.75 L 328.22499999999997,-6.75 L 293.67499999999995,-6.75 L 259.12499999999994,-6.75 L 224.575,-6.75 L 190.025,-6.75 L 155.475,-6.75 L 120.92499999999998,-6.75 L 86.375,-6.75 L 51.824999999999996,-6.75 L 17.275,-6.75 L 17.275,62.75 L 51.824999999999996,62.75 L 86.375,62.75 L 86.375,132.25 L 86.375,201.75 L 120.92499999999998,201.75 L 120.92499999999998,271.25 L 120.92499999999998,340.75 L 86.375,340.75 L 51.824999999999996,340.75 L 17.275,340.75 L 120.92499999999998,410.25 L 155.475,410.25 L 155.475,479.75 L 155.475,549.25 L 155.475,618.75 L 190.025,618.75 L 120.92499999999998,618.75 L 86.375,618.75 L 224.575,618.75 L 259.12499999999994,618.75 L 293.67499999999995,618.75 L 328.22499999999997,618.75zM 328.22499999999997,62.75 L 362.775,62.75 L 397.32499999999993,62.75 L 431.87499999999994,62.75 L 431.87499999999994,132.25 L 466.42499999999995,132.25 L 466.42499999999995,201.75 L 500.9749999999999,201.75 L 500.9749999999999,271.25 L 535.525,271.25 L 535.525,340.75 L 535.525,410.25 L 535.525,479.75 L 500.9749999999999,479.75 L 500.9749999999999,549.25 L 466.42499999999995,549.25 L 431.87499999999994,549.25 L 431.87499999999994,618.75 L 397.32499999999993,618.75 L 362.775,618.75 L 328.22499999999997,618.75 L 293.67499999999995,618.75 L 259.12499999999994,618.75 L 259.12499999999994,549.25 L 259.12499999999994,479.75 L 224.575,479.75 L 224.575,410.25 L 224.575,340.75 L 259.12499999999994,340.75 L 293.67499999999995,340.75 L 328.22499999999997,340.75 L 362.775,340.75 L 397.32499999999993,340.75 L 224.575,271.25 L 190.025,271.25 L 190.025,201.75 L 190.025,132.25 L 155.475,132.25 L 155.475,62.75 L 190.025,62.75 L 224.575,62.75 L 259.12499999999994,62.75 L 293.67499999999995,62.75 L 328.22499999999997,62.75zz"/>
    <glyph glyph-name="Eacute" unicode="&#201;" horiz-adv-x="625" d="M 546.875,827.25 L 515.625,827.25 L 484.375,827.25 L 453.125,827.25 L 453.125,757.75 L 421.875,757.75 L 390.625,757.75 L 359.375,757.75 L 328.125,757.75 L 296.875,757.75 L 359.375,827.25 L 390.625,827.25 L 421.875,827.25 L 453.125,896.75 L 484.375,896.75 L 515.625,896.75 L 546.875,896.75 L 546.875,827.25zM 515.625,618.75 L 484.375,618.75 L 453.125,618.75 L 421.875,618.75 L 390.625,618.75 L 359.375,618.75 L 328.125,618.75 L 296.875,618.75 L 265.625,618.75 L 484.375,688.25 L 515.625,688.25 L 546.875,688.25 L 578.125,688.25 L 578.125,618.75 L 578.125,549.25 L 578.125,479.75 L 546.875,479.75 L 515.625,479.75 L 515.625,549.25 L 515.625,618.75zM 453.125,62.75 L 484.375,62.75 L 484.375,132.25 L 515.625,132.25 L 515.625,201.75 L 546.875,201.75 L 578.125,201.75 L 546.875,132.25 L 546.875,62.75 L 515.625,62.75 L 515.625,-6.75 L 484.375,-6.75 L 453.125,-6.75 L 421.875,-6.75 L 390.625,-6.75 L 359.375,-6.75 L 328.125,-6.75 L 296.875,-6.75 L 265.625,-6.75 L 234.375,-6.75 L 203.125,-6.75 L 171.875,-6.75 L 140.625,-6.75 L 109.375,-6.75 L 78.125,-6.75 L 46.875,-6.75 L 15.625,-6.75 L 15.625,62.75 L 46.875,62.75 L 78.125,62.75 L 78.125,132.25 L 109.375,132.25 L 109.375,201.75 L 109.375,271.25 L 109.375,340.75 L 140.625,340.75 L 140.625,410.25 L 140.625,479.75 L 171.875,479.75 L 171.875,549.25 L 171.875,618.75 L 140.625,618.75 L 109.375,618.75 L 78.125,618.75 L 203.125,618.75 L 234.375,618.75 L 265.625,618.75 L 265.625,549.25 L 234.375,549.25 L 234.375,479.75 L 234.375,410.25 L 234.375,340.75 L 203.125,340.75 L 265.625,340.75 L 296.875,340.75 L 328.125,340.75 L 359.375,340.75 L 390.625,340.75 L 390.625,410.25 L 421.875,410.25 L 421.875,479.75 L 453.125,479.75 L 453.125,410.25 L 453.125,340.75 L 421.875,340.75 L 421.875,271.25 L 390.625,271.25 L 203.125,271.25 L 203.125,201.75 L 171.875,201.75 L 171.875,132.25 L 171.875,62.75 L 203.125,62.75 L 234.375,62.75 L 265.625,62.75 L 296.875,62.75 L 328.125,62.75 L 359.375,62.75 L 390.625,62.75 L 421.875,62.75 L 453.125,62.75zz"/>
    <glyph glyph-name="Ecaron" unicode="&#282;" horiz-adv-x="625" d="M 390.625,757.75 L 359.375,757.75 L 328.125,757.75 L 328.125,827.25 L 296.875,827.25 L 296.875,896.75 L 265.625,896.75 L 328.125,896.75 L 359.375,827.25 L 390.625,827.25 L 421.875,827.25 L 453.125,827.25 L 453.125,896.75 L 484.375,896.75 L 515.625,896.75 L 546.875,896.75 L 515.625,827.25 L 484.375,827.25 L 453.125,757.75 L 421.875,757.75 L 390.625,757.75zM 515.625,618.75 L 484.375,618.75 L 453.125,618.75 L 421.875,618.75 L 390.625,618.75 L 359.375,618.75 L 328.125,618.75 L 296.875,618.75 L 265.625,618.75 L 484.375,688.25 L 515.625,688.25 L 546.875,688.25 L 578.125,688.25 L 578.125,618.75 L 578.125,549.25 L 578.125,479.75 L 546.875,479.75 L 515.625,479.75 L 515.625,549.25 L 515.625,618.75zM 453.125,62.75 L 484.375,62.75 L 484.375,132.25 L 515.625,132.25 L 515.625,201.75 L 546.875,201.75 L 578.125,201.75 L 546.875,132.25 L 546.875,62.75 L 515.625,62.75 L 515.625,-6.75 L 484.375,-6.75 L 453.125,-6.75 L 421.875,-6.75 L 390.625,-6.75 L 359.375,-6.75 L 328.125,-6.75 L 296.875,-6.75 L 265.625,-6.75 L 234.375,-6.75 L 203.125,-6.75 L 171.875,-6.75 L 140.625,-6.75 L 109.375,-6.75 L 78.125,-6.75 L 46.875,-6.75 L 15.625,-6.75 L 15.625,62.75 L 46.875,62.75 L 78.125,62.75 L 78.125,132.25 L 109.375,132.25 L 109.375,201.75 L 109.375,271.25 L 109.375,340.75 L 140.625,340.75 L 140.625,410.25 L 140.625,479.75 L 171.875,479.75 L 171.875,549.25 L 171.875,618.75 L 140.625,618.75 L 109.375,618.75 L 78.125,618.75 L 203.125,618.75 L 234.375,618.75 L 265.625,618.75 L 265.625,549.25 L 234.375,549.25 L 234.375,479.75 L 234.375,410.25 L 234.375,340.75 L 203.125,340.75 L 265.625,340.75 L 296.875,340.75 L 328.125,340.75 L 359.375,340.75 L 390.625,340.75 L 390.625,410.25 L 421.875,410.25 L 421.875,479.75 L 453.125,479.75 L 453.125,410.25 L 453.125,340.75 L 421.875,340.75 L 421.875,271.25 L 390.625,271.25 L 203.125,271.25 L 203.125,201.75 L 171.875,201.75 L 171.875,132.25 L 171.875,62.75 L 203.125,62.75 L 234.375,62.75 L 265.625,62.75 L 296.875,62.75 L 328.125,62.75 L 359.375,62.75 L 390.625,62.75 L 421.875,62.75 L 453.125,62.75zz"/>
    <glyph glyph-name="Ecircumflex" unicode="&#202;" horiz-adv-x="625" d="M 390.625,827.25 L 359.375,827.25 L 359.375,757.75 L 328.125,757.75 L 296.875,757.75 L 265.625,757.75 L 234.375,757.75 L 296.875,827.25 L 328.125,827.25 L 359.375,896.75 L 390.625,896.75 L 421.875,896.75 L 453.125,896.75 L 453.125,827.25 L 484.375,827.25 L 484.375,757.75 L 515.625,757.75 L 453.125,757.75 L 421.875,757.75 L 421.875,827.25 L 390.625,827.25zM 515.625,618.75 L 484.375,618.75 L 453.125,618.75 L 421.875,618.75 L 390.625,618.75 L 359.375,618.75 L 328.125,618.75 L 296.875,618.75 L 265.625,618.75 L 484.375,688.25 L 515.625,688.25 L 546.875,688.25 L 578.125,688.25 L 578.125,618.75 L 578.125,549.25 L 578.125,479.75 L 546.875,479.75 L 515.625,479.75 L 515.625,549.25 L 515.625,618.75zM 453.125,62.75 L 484.375,62.75 L 484.375,132.25 L 515.625,132.25 L 515.625,201.75 L 546.875,201.75 L 578.125,201.75 L 546.875,132.25 L 546.875,62.75 L 515.625,62.75 L 515.625,-6.75 L 484.375,-6.75 L 453.125,-6.75 L 421.875,-6.75 L 390.625,-6.75 L 359.375,-6.75 L 328.125,-6.75 L 296.875,-6.75 L 265.625,-6.75 L 234.375,-6.75 L 203.125,-6.75 L 171.875,-6.75 L 140.625,-6.75 L 109.375,-6.75 L 78.125,-6.75 L 46.875,-6.75 L 15.625,-6.75 L 15.625,62.75 L 46.875,62.75 L 78.125,62.75 L 78.125,132.25 L 109.375,132.25 L 109.375,201.75 L 109.375,271.25 L 109.375,340.75 L 140.625,340.75 L 140.625,410.25 L 140.625,479.75 L 171.875,479.75 L 171.875,549.25 L 171.875,618.75 L 140.625,618.75 L 109.375,618.75 L 78.125,618.75 L 203.125,618.75 L 234.375,618.75 L 265.625,618.75 L 265.625,549.25 L 234.375,549.25 L 234.375,479.75 L 234.375,410.25 L 234.375,340.75 L 203.125,340.75 L 265.625,340.75 L 296.875,340.75 L 328.125,340.75 L 359.375,340.75 L 390.625,340.75 L 390.625,410.25 L 421.875,410.25 L 421.875,479.75 L 453.125,479.75 L 453.125,410.25 L 453.125,340.75 L 421.875,340.75 L 421.875,271.25 L 390.625,271.25 L 203.125,271.25 L 203.125,201.75 L 171.875,201.75 L 171.875,132.25 L 171.875,62.75 L 203.125,62.75 L 234.375,62.75 L 265.625,62.75 L 296.875,62.75 L 328.125,62.75 L 359.375,62.75 L 390.625,62.75 L 421.875,62.75 L 453.125,62.75zz"/>
    <glyph glyph-name="Edieresis" unicode="&#203;" horiz-adv-x="625" d="M 484.375,757.75 L 453.125,757.75 L 453.125,827.25 L 421.875,827.25 L 484.375,827.25 L 484.375,896.75 L 515.625,896.75 L 515.625,827.25 L 546.875,827.25 L 546.875,757.75 L 515.625,757.75 L 484.375,757.75zM 296.875,757.75 L 265.625,757.75 L 234.375,757.75 L 234.375,827.25 L 265.625,827.25 L 296.875,827.25 L 296.875,896.75 L 328.125,896.75 L 328.125,827.25 L 359.375,827.25 L 359.375,757.75 L 328.125,757.75 L 296.875,757.75zM 515.625,618.75 L 484.375,618.75 L 453.125,618.75 L 421.875,618.75 L 390.625,618.75 L 359.375,618.75 L 328.125,618.75 L 296.875,618.75 L 265.625,618.75 L 484.375,688.25 L 515.625,688.25 L 546.875,688.25 L 578.125,688.25 L 578.125,618.75 L 578.125,549.25 L 578.125,479.75 L 546.875,479.75 L 515.625,479.75 L 515.625,549.25 L 515.625,618.75zM 453.125,62.75 L 484.375,62.75 L 484.375,132.25 L 515.625,132.25 L 515.625,201.75 L 546.875,201.75 L 578.125,201.75 L 546.875,132.25 L 546.875,62.75 L 515.625,62.75 L 515.625,-6.75 L 484.375,-6.75 L 453.125,-6.75 L 421.875,-6.75 L 390.625,-6.75 L 359.375,-6.75 L 328.125,-6.75 L 296.875,-6.75 L 265.625,-6.75 L 234.375,-6.75 L 203.125,-6.75 L 171.875,-6.75 L 140.625,-6.75 L 109.375,-6.75 L 78.125,-6.75 L 46.875,-6.75 L 15.625,-6.75 L 15.625,62.75 L 46.875,62.75 L 78.125,62.75 L 78.125,132.25 L 109.375,132.25 L 109.375,201.75 L 109.375,271.25 L 109.375,340.75 L 140.625,340.75 L 140.625,410.25 L 140.625,479.75 L 171.875,479.75 L 171.875,549.25 L 171.875,618.75 L 140.625,618.75 L 109.375,618.75 L 78.125,618.75 L 203.125,618.75 L 234.375,618.75 L 265.625,618.75 L 265.625,549.25 L 234.375,549.25 L 234.375,479.75 L 234.375,410.25 L 234.375,340.75 L 203.125,340.75 L 265.625,340.75 L 296.875,340.75 L 328.125,340.75 L 359.375,340.75 L 390.625,340.75 L 390.625,410.25 L 421.875,410.25 L 421.875,479.75 L 453.125,479.75 L 453.125,410.25 L 453.125,340.75 L 421.875,340.75 L 421.875,271.25 L 390.625,271.25 L 203.125,271.25 L 203.125,201.75 L 171.875,201.75 L 171.875,132.25 L 171.875,62.75 L 203.125,62.75 L 234.375,62.75 L 265.625,62.75 L 296.875,62.75 L 328.125,62.75 L 359.375,62.75 L 390.625,62.75 L 421.875,62.75 L 453.125,62.75zz"/>
    <glyph glyph-name="Edotaccent" unicode="&#278;" horiz-adv-x="625" d="M 390.625,688.25 L 359.375,688.25 L 359.375,757.75 L 328.125,757.75 L 328.125,827.25 L 359.375,827.25 L 390.625,827.25 L 421.875,827.25 L 453.125,827.25 L 453.125,757.75 L 421.875,757.75 L 390.625,757.75 L 390.625,688.25zM 515.625,618.75 L 484.375,618.75 L 453.125,618.75 L 421.875,618.75 L 390.625,618.75 L 359.375,618.75 L 328.125,618.75 L 296.875,618.75 L 265.625,618.75 L 484.375,688.25 L 515.625,688.25 L 546.875,688.25 L 578.125,688.25 L 578.125,618.75 L 578.125,549.25 L 578.125,479.75 L 546.875,479.75 L 515.625,479.75 L 515.625,549.25 L 515.625,618.75zM 453.125,62.75 L 484.375,62.75 L 484.375,132.25 L 515.625,132.25 L 515.625,201.75 L 546.875,201.75 L 578.125,201.75 L 546.875,132.25 L 546.875,62.75 L 515.625,62.75 L 515.625,-6.75 L 484.375,-6.75 L 453.125,-6.75 L 421.875,-6.75 L 390.625,-6.75 L 359.375,-6.75 L 328.125,-6.75 L 296.875,-6.75 L 265.625,-6.75 L 234.375,-6.75 L 203.125,-6.75 L 171.875,-6.75 L 140.625,-6.75 L 109.375,-6.75 L 78.125,-6.75 L 46.875,-6.75 L 15.625,-6.75 L 15.625,62.75 L 46.875,62.75 L 78.125,62.75 L 78.125,132.25 L 109.375,132.25 L 109.375,201.75 L 109.375,271.25 L 109.375,340.75 L 140.625,340.75 L 140.625,410.25 L 140.625,479.75 L 171.875,479.75 L 171.875,549.25 L 171.875,618.75 L 140.625,618.75 L 109.375,618.75 L 78.125,618.75 L 203.125,618.75 L 234.375,618.75 L 265.625,618.75 L 265.625,549.25 L 234.375,549.25 L 234.375,479.75 L 234.375,410.25 L 234.375,340.75 L 203.125,340.75 L 265.625,340.75 L 296.875,340.75 L 328.125,340.75 L 359.375,340.75 L 390.625,340.75 L 390.625,410.25 L 421.875,410.25 L 421.875,479.75 L 453.125,479.75 L 453.125,410.25 L 453.125,340.75 L 421.875,340.75 L 421.875,271.25 L 390.625,271.25 L 203.125,271.25 L 203.125,201.75 L 171.875,201.75 L 171.875,132.25 L 171.875,62.75 L 203.125,62.75 L 234.375,62.75 L 265.625,62.75 L 296.875,62.75 L 328.125,62.75 L 359.375,62.75 L 390.625,62.75 L 421.875,62.75 L 453.125,62.75zz"/>
    <glyph glyph-name="Egrave" unicode="&#200;" horiz-adv-x="625" d="M 484.375,757.75 L 453.125,757.75 L 421.875,757.75 L 390.625,757.75 L 359.375,757.75 L 328.125,757.75 L 328.125,827.25 L 296.875,827.25 L 265.625,827.25 L 234.375,827.25 L 265.625,896.75 L 296.875,896.75 L 328.125,896.75 L 359.375,896.75 L 359.375,827.25 L 390.625,827.25 L 421.875,827.25 L 484.375,757.75zM 515.625,618.75 L 484.375,618.75 L 453.125,618.75 L 421.875,618.75 L 390.625,618.75 L 359.375,618.75 L 328.125,618.75 L 296.875,618.75 L 265.625,618.75 L 484.375,688.25 L 515.625,688.25 L 546.875,688.25 L 578.125,688.25 L 578.125,618.75 L 578.125,549.25 L 578.125,479.75 L 546.875,479.75 L 515.625,479.75 L 515.625,549.25 L 515.625,618.75zM 453.125,62.75 L 484.375,62.75 L 484.375,132.25 L 515.625,132.25 L 515.625,201.75 L 546.875,201.75 L 578.125,201.75 L 546.875,132.25 L 546.875,62.75 L 515.625,62.75 L 515.625,-6.75 L 484.375,-6.75 L 453.125,-6.75 L 421.875,-6.75 L 390.625,-6.75 L 359.375,-6.75 L 328.125,-6.75 L 296.875,-6.75 L 265.625,-6.75 L 234.375,-6.75 L 203.125,-6.75 L 171.875,-6.75 L 140.625,-6.75 L 109.375,-6.75 L 78.125,-6.75 L 46.875,-6.75 L 15.625,-6.75 L 15.625,62.75 L 46.875,62.75 L 78.125,62.75 L 78.125,132.25 L 109.375,132.25 L 109.375,201.75 L 109.375,271.25 L 109.375,340.75 L 140.625,340.75 L 140.625,410.25 L 140.625,479.75 L 171.875,479.75 L 171.875,549.25 L 171.875,618.75 L 140.625,618.75 L 109.375,618.75 L 78.125,618.75 L 203.125,618.75 L 234.375,618.75 L 265.625,618.75 L 265.625,549.25 L 234.375,549.25 L 234.375,479.75 L 234.375,410.25 L 234.375,340.75 L 203.125,340.75 L 265.625,340.75 L 296.875,340.75 L 328.125,340.75 L 359.375,340.75 L 390.625,340.75 L 390.625,410.25 L 421.875,410.25 L 421.875,479.75 L 453.125,479.75 L 453.125,410.25 L 453.125,340.75 L 421.875,340.75 L 421.875,271.25 L 390.625,271.25 L 203.125,271.25 L 203.125,201.75 L 171.875,201.75 L 171.875,132.25 L 171.875,62.75 L 203.125,62.75 L 234.375,62.75 L 265.625,62.75 L 296.875,62.75 L 328.125,62.75 L 359.375,62.75 L 390.625,62.75 L 421.875,62.75 L 453.125,62.75zz"/>
    <glyph glyph-name="Emacron" unicode="&#274;" horiz-adv-x="625" d="M 578.125,827.25 L 578.125,757.75 L 546.875,757.75 L 515.625,757.75 L 484.375,757.75 L 453.125,757.75 L 421.875,757.75 L 390.625,757.75 L 359.375,757.75 L 328.125,757.75 L 296.875,757.75 L 265.625,757.75 L 234.375,757.75 L 203.125,757.75 L 203.125,827.25 L 234.375,827.25 L 265.625,827.25 L 296.875,827.25 L 328.125,827.25 L 359.375,827.25 L 390.625,827.25 L 421.875,827.25 L 453.125,827.25 L 484.375,827.25 L 515.625,827.25 L 546.875,827.25 L 578.125,827.25zM 515.625,618.75 L 484.375,618.75 L 453.125,618.75 L 421.875,618.75 L 390.625,618.75 L 359.375,618.75 L 328.125,618.75 L 296.875,618.75 L 265.625,618.75 L 484.375,688.25 L 515.625,688.25 L 546.875,688.25 L 578.125,688.25 L 578.125,618.75 L 578.125,549.25 L 578.125,479.75 L 546.875,479.75 L 515.625,479.75 L 515.625,549.25 L 515.625,618.75zM 453.125,62.75 L 484.375,62.75 L 484.375,132.25 L 515.625,132.25 L 515.625,201.75 L 546.875,201.75 L 578.125,201.75 L 546.875,132.25 L 546.875,62.75 L 515.625,62.75 L 515.625,-6.75 L 484.375,-6.75 L 453.125,-6.75 L 421.875,-6.75 L 390.625,-6.75 L 359.375,-6.75 L 328.125,-6.75 L 296.875,-6.75 L 265.625,-6.75 L 234.375,-6.75 L 203.125,-6.75 L 171.875,-6.75 L 140.625,-6.75 L 109.375,-6.75 L 78.125,-6.75 L 46.875,-6.75 L 15.625,-6.75 L 15.625,62.75 L 46.875,62.75 L 78.125,62.75 L 78.125,132.25 L 109.375,132.25 L 109.375,201.75 L 109.375,271.25 L 109.375,340.75 L 140.625,340.75 L 140.625,410.25 L 140.625,479.75 L 171.875,479.75 L 171.875,549.25 L 171.875,618.75 L 140.625,618.75 L 109.375,618.75 L 78.125,618.75 L 203.125,618.75 L 234.375,618.75 L 265.625,618.75 L 265.625,549.25 L 234.375,549.25 L 234.375,479.75 L 234.375,410.25 L 234.375,340.75 L 203.125,340.75 L 265.625,340.75 L 296.875,340.75 L 328.125,340.75 L 359.375,340.75 L 390.625,340.75 L 390.625,410.25 L 421.875,410.25 L 421.875,479.75 L 453.125,479.75 L 453.125,410.25 L 453.125,340.75 L 421.875,340.75 L 421.875,271.25 L 390.625,271.25 L 203.125,271.25 L 203.125,201.75 L 171.875,201.75 L 171.875,132.25 L 171.875,62.75 L 203.125,62.75 L 234.375,62.75 L 265.625,62.75 L 296.875,62.75 L 328.125,62.75 L 359.375,62.75 L 390.625,62.75 L 421.875,62.75 L 453.125,62.75zz"/>
    <glyph glyph-name="Eogonek" unicode="&#280;" horiz-adv-x="625" d="M 515.625,618.75 L 484.375,618.75 L 453.125,618.75 L 421.875,618.75 L 390.625,618.75 L 359.375,618.75 L 328.125,618.75 L 296.875,618.75 L 265.625,618.75 L 484.375,688.25 L 515.625,688.25 L 546.875,688.25 L 578.125,688.25 L 578.125,618.75 L 578.125,549.25 L 578.125,479.75 L 546.875,479.75 L 515.625,479.75 L 515.625,549.25 L 515.625,618.75zM 484.375,-6.75 L 453.125,-6.75 L 453.125,-76.25 L 421.875,-76.25 L 390.625,-76.25 L 390.625,-145.75 L 421.875,-145.75 L 453.125,-145.75 L 484.375,-145.75 L 515.625,-145.75 L 484.375,-215.25 L 453.125,-215.25 L 421.875,-215.25 L 390.625,-215.25 L 359.375,-215.25 L 359.375,-145.75 L 328.125,-145.75 L 359.375,-76.25 L 390.625,-6.75 L 421.875,-6.75 L 359.375,-6.75 L 328.125,-6.75 L 296.875,-6.75 L 265.625,-6.75 L 234.375,-6.75 L 203.125,-6.75 L 171.875,-6.75 L 140.625,-6.75 L 109.375,-6.75 L 78.125,-6.75 L 46.875,-6.75 L 15.625,-6.75 L 15.625,62.75 L 46.875,62.75 L 78.125,62.75 L 78.125,132.25 L 109.375,132.25 L 109.375,201.75 L 109.375,271.25 L 109.375,340.75 L 140.625,340.75 L 140.625,410.25 L 140.625,479.75 L 171.875,479.75 L 171.875,549.25 L 171.875,618.75 L 140.625,618.75 L 109.375,618.75 L 78.125,618.75 L 203.125,618.75 L 234.375,618.75 L 265.625,618.75 L 265.625,549.25 L 234.375,549.25 L 234.375,479.75 L 234.375,410.25 L 234.375,340.75 L 203.125,340.75 L 265.625,340.75 L 296.875,340.75 L 328.125,340.75 L 359.375,340.75 L 390.625,340.75 L 390.625,410.25 L 421.875,410.25 L 421.875,479.75 L 453.125,479.75 L 453.125,410.25 L 453.125,340.75 L 421.875,340.75 L 421.875,271.25 L 390.625,271.25 L 203.125,271.25 L 203.125,201.75 L 171.875,201.75 L 171.875,132.25 L 171.875,62.75 L 203.125,62.75 L 234.375,62.75 L 265.625,62.75 L 296.875,62.75 L 328.125,62.75 L 359.375,62.75 L 390.625,62.75 L 421.875,62.75 L 453.125,62.75 L 484.375,62.75 L 484.375,132.25 L 515.625,132.25 L 515.625,201.75 L 546.875,201.75 L 578.125,201.75 L 546.875,132.25 L 546.875,62.75 L 515.625,62.75 L 515.625,-6.75 L 484.375,-6.75zz"/>
    <glyph glyph-name="Gbreve" unicode="&#286;" horiz-adv-x="642" d="M 401.25000000000006,757.75 L 369.15000000000003,757.75 L 337.05,757.75 L 304.95000000000005,757.75 L 304.95000000000005,827.25 L 272.85,827.25 L 272.85,896.75 L 304.95000000000005,896.75 L 337.05,827.25 L 369.15000000000003,827.25 L 401.25000000000006,827.25 L 433.35,827.25 L 465.45000000000005,827.25 L 497.55,827.25 L 497.55,896.75 L 529.65,896.75 L 561.75,896.75 L 529.65,827.25 L 497.55,757.75 L 465.45000000000005,757.75 L 433.35,757.75 L 401.25000000000006,757.75zM 625.9499999999999,340.75 L 625.9499999999999,271.25 L 593.85,271.25 L 561.75,271.25 L 561.75,201.75 L 561.75,132.25 L 529.65,132.25 L 529.65,62.75 L 529.65,-6.75 L 497.55,-6.75 L 465.45000000000005,-6.75 L 433.35,-6.75 L 401.25000000000006,-6.75 L 369.15000000000003,-6.75 L 337.05,-6.75 L 304.95000000000005,-6.75 L 272.85,-6.75 L 240.75000000000003,-6.75 L 208.65000000000003,-6.75 L 176.55,-6.75 L 144.45000000000002,-6.75 L 144.45000000000002,62.75 L 112.35000000000001,62.75 L 80.25,62.75 L 80.25,132.25 L 48.150000000000006,132.25 L 48.150000000000006,201.75 L 48.150000000000006,271.25 L 48.150000000000006,340.75 L 48.150000000000006,410.25 L 80.25,410.25 L 80.25,479.75 L 112.35000000000001,479.75 L 112.35000000000001,549.25 L 144.45000000000002,549.25 L 176.55,549.25 L 208.65000000000003,618.75 L 240.75000000000003,618.75 L 272.85,618.75 L 304.95000000000005,618.75 L 337.05,618.75 L 337.05,688.25 L 369.15000000000003,688.25 L 401.25000000000006,688.25 L 433.35,688.25 L 465.45000000000005,688.25 L 497.55,688.25 L 497.55,618.75 L 529.65,618.75 L 561.75,618.75 L 593.85,618.75 L 625.9499999999999,618.75 L 593.85,549.25 L 593.85,479.75 L 593.85,410.25 L 561.75,410.25 L 561.75,479.75 L 561.75,549.25 L 529.65,549.25 L 497.55,549.25 L 465.45000000000005,618.75 L 433.35,618.75 L 401.25000000000006,618.75 L 369.15000000000003,618.75 L 272.85,549.25 L 240.75000000000003,549.25 L 208.65000000000003,549.25 L 208.65000000000003,479.75 L 176.55,479.75 L 176.55,410.25 L 144.45000000000002,410.25 L 144.45000000000002,340.75 L 144.45000000000002,271.25 L 144.45000000000002,201.75 L 144.45000000000002,132.25 L 176.55,132.25 L 176.55,62.75 L 208.65000000000003,62.75 L 240.75000000000003,62.75 L 272.85,62.75 L 304.95000000000005,62.75 L 337.05,62.75 L 369.15000000000003,62.75 L 401.25000000000006,62.75 L 433.35,62.75 L 465.45000000000005,62.75 L 465.45000000000005,132.25 L 465.45000000000005,201.75 L 465.45000000000005,271.25 L 433.35,271.25 L 401.25000000000006,271.25 L 369.15000000000003,271.25 L 369.15000000000003,340.75 L 401.25000000000006,340.75 L 433.35,340.75 L 465.45000000000005,340.75 L 497.55,340.75 L 529.65,340.75 L 561.75,340.75 L 593.85,340.75 L 625.9499999999999,340.75zz"/>
    <glyph glyph-name="uni0122" unicode="&#290;" horiz-adv-x="642" d="M 625.9499999999999,340.75 L 625.9499999999999,271.25 L 593.85,271.25 L 561.75,271.25 L 561.75,201.75 L 561.75,132.25 L 529.65,132.25 L 529.65,62.75 L 529.65,-6.75 L 497.55,-6.75 L 465.45000000000005,-6.75 L 433.35,-6.75 L 401.25000000000006,-6.75 L 369.15000000000003,-6.75 L 337.05,-6.75 L 304.95000000000005,-6.75 L 272.85,-6.75 L 240.75000000000003,-6.75 L 208.65000000000003,-6.75 L 176.55,-6.75 L 144.45000000000002,-6.75 L 144.45000000000002,62.75 L 112.35000000000001,62.75 L 80.25,62.75 L 80.25,132.25 L 48.150000000000006,132.25 L 48.150000000000006,201.75 L 48.150000000000006,271.25 L 48.150000000000006,340.75 L 48.150000000000006,410.25 L 80.25,410.25 L 80.25,479.75 L 112.35000000000001,479.75 L 112.35000000000001,549.25 L 144.45000000000002,549.25 L 176.55,549.25 L 208.65000000000003,618.75 L 240.75000000000003,618.75 L 272.85,618.75 L 304.95000000000005,618.75 L 337.05,618.75 L 337.05,688.25 L 369.15000000000003,688.25 L 401.25000000000006,688.25 L 433.35,688.25 L 465.45000000000005,688.25 L 497.55,688.25 L 497.55,618.75 L 529.65,618.75 L 561.75,618.75 L 593.85,618.75 L 625.9499999999999,618.75 L 593.85,549.25 L 593.85,479.75 L 593.85,410.25 L 561.75,410.25 L 561.75,479.75 L 561.75,549.25 L 529.65,549.25 L 497.55,549.25 L 465.45000000000005,618.75 L 433.35,618.75 L 401.25000000000006,618.75 L 369.15000000000003,618.75 L 272.85,549.25 L 240.75000000000003,549.25 L 208.65000000000003,549.25 L 208.65000000000003,479.75 L 176.55,479.75 L 176.55,410.25 L 144.45000000000002,410.25 L 144.45000000000002,340.75 L 144.45000000000002,271.25 L 144.45000000000002,201.75 L 144.45000000000002,132.25 L 176.55,132.25 L 176.55,62.75 L 208.65000000000003,62.75 L 240.75000000000003,62.75 L 272.85,62.75 L 304.95000000000005,62.75 L 337.05,62.75 L 369.15000000000003,62.75 L 401.25000000000006,62.75 L 433.35,62.75 L 465.45000000000005,62.75 L 465.45000000000005,132.25 L 465.45000000000005,201.75 L 465.45000000000005,271.25 L 433.35,271.25 L 401.25000000000006,271.25 L 369.15000000000003,271.25 L 369.15000000000003,340.75 L 401.25000000000006,340.75 L 433.35,340.75 L 465.45000000000005,340.75 L 497.55,340.75 L 529.65,340.75 L 561.75,340.75 L 593.85,340.75 L 625.9499999999999,340.75zM 240.75000000000003,-76.25 L 272.85,-76.25 L 304.95000000000005,-76.25 L 304.95000000000005,-145.75 L 304.95000000000005,-215.25 L 272.85,-215.25 L 240.75000000000003,-215.25 L 208.65000000000003,-215.25 L 240.75000000000003,-145.75 L 208.65000000000003,-145.75 L 176.55,-145.75 L 176.55,-76.25 L 208.65000000000003,-76.25 L 240.75000000000003,-76.25zz"/>
    <glyph glyph-name="Gdotaccent" unicode="&#288;" horiz-adv-x="642" d="M 401.25000000000006,688.25 L 401.25000000000006,757.75 L 369.15000000000003,757.75 L 337.05,757.75 L 337.05,827.25 L 369.15000000000003,827.25 L 401.25000000000006,827.25 L 433.35,827.25 L 465.45000000000005,827.25 L 465.45000000000005,757.75 L 433.35,757.75 L 401.25000000000006,688.25zM 625.9499999999999,340.75 L 625.9499999999999,271.25 L 593.85,271.25 L 561.75,271.25 L 561.75,201.75 L 561.75,132.25 L 529.65,132.25 L 529.65,62.75 L 529.65,-6.75 L 497.55,-6.75 L 465.45000000000005,-6.75 L 433.35,-6.75 L 401.25000000000006,-6.75 L 369.15000000000003,-6.75 L 337.05,-6.75 L 304.95000000000005,-6.75 L 272.85,-6.75 L 240.75000000000003,-6.75 L 208.65000000000003,-6.75 L 176.55,-6.75 L 144.45000000000002,-6.75 L 144.45000000000002,62.75 L 112.35000000000001,62.75 L 80.25,62.75 L 80.25,132.25 L 48.150000000000006,132.25 L 48.150000000000006,201.75 L 48.150000000000006,271.25 L 48.150000000000006,340.75 L 48.150000000000006,410.25 L 80.25,410.25 L 80.25,479.75 L 112.35000000000001,479.75 L 112.35000000000001,549.25 L 144.45000000000002,549.25 L 176.55,549.25 L 208.65000000000003,618.75 L 240.75000000000003,618.75 L 272.85,618.75 L 304.95000000000005,618.75 L 337.05,618.75 L 337.05,688.25 L 369.15000000000003,688.25 L 401.25000000000006,688.25 L 433.35,688.25 L 465.45000000000005,688.25 L 497.55,688.25 L 497.55,618.75 L 529.65,618.75 L 561.75,618.75 L 593.85,618.75 L 625.9499999999999,618.75 L 593.85,549.25 L 593.85,479.75 L 593.85,410.25 L 561.75,410.25 L 561.75,479.75 L 561.75,549.25 L 529.65,549.25 L 497.55,549.25 L 465.45000000000005,618.75 L 433.35,618.75 L 401.25000000000006,618.75 L 369.15000000000003,618.75 L 272.85,549.25 L 240.75000000000003,549.25 L 208.65000000000003,549.25 L 208.65000000000003,479.75 L 176.55,479.75 L 176.55,410.25 L 144.45000000000002,410.25 L 144.45000000000002,340.75 L 144.45000000000002,271.25 L 144.45000000000002,201.75 L 144.45000000000002,132.25 L 176.55,132.25 L 176.55,62.75 L 208.65000000000003,62.75 L 240.75000000000003,62.75 L 272.85,62.75 L 304.95000000000005,62.75 L 337.05,62.75 L 369.15000000000003,62.75 L 401.25000000000006,62.75 L 433.35,62.75 L 465.45000000000005,62.75 L 465.45000000000005,132.25 L 465.45000000000005,201.75 L 465.45000000000005,271.25 L 433.35,271.25 L 401.25000000000006,271.25 L 369.15000000000003,271.25 L 369.15000000000003,340.75 L 401.25000000000006,340.75 L 433.35,340.75 L 465.45000000000005,340.75 L 497.55,340.75 L 529.65,340.75 L 561.75,340.75 L 593.85,340.75 L 625.9499999999999,340.75zz"/>
    <glyph glyph-name="Hbar" unicode="&#294;" horiz-adv-x="745" d="M 726.375,618.75 L 689.125,618.75 L 651.875,618.75 L 651.875,549.25 L 651.875,479.75 L 689.125,479.75 L 726.375,479.75 L 651.875,410.25 L 614.625,410.25 L 614.625,340.75 L 614.625,271.25 L 614.625,201.75 L 577.375,201.75 L 577.375,132.25 L 577.375,62.75 L 614.625,62.75 L 651.875,62.75 L 651.875,-6.75 L 614.625,-6.75 L 577.375,-6.75 L 540.125,-6.75 L 502.875,-6.75 L 465.625,-6.75 L 428.375,-6.75 L 391.125,-6.75 L 391.125,62.75 L 428.375,62.75 L 465.625,62.75 L 502.875,62.75 L 502.875,132.25 L 502.875,201.75 L 502.875,271.25 L 540.125,271.25 L 540.125,340.75 L 502.875,340.75 L 465.625,340.75 L 428.375,340.75 L 391.125,340.75 L 353.875,340.75 L 316.625,340.75 L 279.375,340.75 L 242.125,340.75 L 204.875,340.75 L 204.875,271.25 L 204.875,201.75 L 167.625,201.75 L 167.625,132.25 L 167.625,62.75 L 204.875,62.75 L 242.125,62.75 L 242.125,-6.75 L 204.875,-6.75 L 167.625,-6.75 L 130.375,-6.75 L 93.125,-6.75 L 55.875,-6.75 L 18.625,-6.75 L 18.625,62.75 L 55.875,62.75 L 93.125,62.75 L 93.125,132.25 L 93.125,201.75 L 93.125,271.25 L 130.375,271.25 L 130.375,340.75 L 130.375,410.25 L 130.375,479.75 L 167.625,479.75 L 93.125,479.75 L 55.875,479.75 L 167.625,549.25 L 167.625,618.75 L 130.375,618.75 L 93.125,618.75 L 204.875,618.75 L 242.125,618.75 L 279.375,618.75 L 316.625,618.75 L 353.875,618.75 L 242.125,549.25 L 242.125,479.75 L 279.375,479.75 L 316.625,479.75 L 353.875,479.75 L 391.125,479.75 L 428.375,479.75 L 465.625,479.75 L 502.875,479.75 L 540.125,479.75 L 577.375,479.75 L 577.375,549.25 L 577.375,618.75 L 540.125,618.75 L 502.875,618.75 L 614.625,618.75 L 726.375,618.75zM 540.125,340.75 L 540.125,410.25 L 540.125,479.75 L 502.875,479.75 L 465.625,479.75 L 428.375,479.75 L 391.125,479.75 L 353.875,479.75 L 316.625,479.75 L 279.375,479.75 L 242.125,479.75 L 242.125,410.25 L 204.875,410.25 L 204.875,340.75 L 242.125,340.75 L 279.375,340.75 L 316.625,340.75 L 353.875,340.75 L 391.125,340.75 L 428.375,340.75 L 465.625,340.75 L 502.875,340.75 L 540.125,340.75zz"/>
    <glyph glyph-name="Iacute" unicode="&#205;" horiz-adv-x="351" d="M 342.22499999999997,827.25 L 324.675,827.25 L 307.125,827.25 L 307.125,757.75 L 289.575,757.75 L 272.025,757.75 L 254.47500000000002,757.75 L 236.925,757.75 L 219.37500000000003,757.75 L 201.82500000000002,757.75 L 184.275,757.75 L 166.72500000000002,757.75 L 219.37500000000003,827.25 L 236.925,827.25 L 254.47500000000002,827.25 L 272.025,827.25 L 289.575,827.25 L 307.125,896.75 L 324.675,896.75 L 342.22499999999997,896.75 L 342.22499999999997,827.25zM 342.22499999999997,618.75 L 324.675,618.75 L 307.125,618.75 L 289.575,618.75 L 272.025,618.75 L 254.47500000000002,618.75 L 254.47500000000002,549.25 L 236.925,549.25 L 236.925,479.75 L 236.925,410.25 L 219.37500000000003,410.25 L 219.37500000000003,340.75 L 201.82500000000002,340.75 L 201.82500000000002,271.25 L 201.82500000000002,201.75 L 184.275,201.75 L 184.275,132.25 L 166.72500000000002,132.25 L 166.72500000000002,62.75 L 184.275,62.75 L 201.82500000000002,62.75 L 219.37500000000003,62.75 L 236.925,62.75 L 254.47500000000002,62.75 L 254.47500000000002,-6.75 L 236.925,-6.75 L 219.37500000000003,-6.75 L 201.82500000000002,-6.75 L 184.275,-6.75 L 166.72500000000002,-6.75 L 149.175,-6.75 L 131.625,-6.75 L 114.07500000000002,-6.75 L 96.525,-6.75 L 78.97500000000001,-6.75 L 61.425000000000004,-6.75 L 43.875,-6.75 L 26.325000000000003,-6.75 L 8.775,-6.75 L 8.775,62.75 L 26.325000000000003,62.75 L 43.875,62.75 L 61.425000000000004,62.75 L 78.97500000000001,62.75 L 78.97500000000001,132.25 L 96.525,132.25 L 96.525,201.75 L 114.07500000000002,201.75 L 114.07500000000002,271.25 L 131.625,340.75 L 131.625,410.25 L 149.175,410.25 L 149.175,479.75 L 166.72500000000002,479.75 L 166.72500000000002,549.25 L 166.72500000000002,618.75 L 149.175,618.75 L 131.625,618.75 L 114.07500000000002,618.75 L 96.525,618.75 L 78.97500000000001,618.75 L 184.275,618.75 L 201.82500000000002,618.75 L 219.37500000000003,618.75 L 236.925,618.75 L 342.22499999999997,618.75zz"/>
    <glyph glyph-name="Icircumflex" unicode="&#206;" horiz-adv-x="351" d="M 272.025,896.75 L 289.575,896.75 L 307.125,896.75 L 307.125,827.25 L 324.675,827.25 L 342.22499999999997,827.25 L 342.22499999999997,757.75 L 324.675,757.75 L 307.125,757.75 L 289.575,757.75 L 289.575,827.25 L 272.025,827.25 L 254.47500000000002,827.25 L 236.925,827.25 L 219.37500000000003,827.25 L 219.37500000000003,757.75 L 201.82500000000002,757.75 L 184.275,757.75 L 166.72500000000002,757.75 L 149.175,757.75 L 131.625,757.75 L 114.07500000000002,757.75 L 149.175,827.25 L 166.72500000000002,827.25 L 184.275,827.25 L 201.82500000000002,827.25 L 219.37500000000003,896.75 L 236.925,896.75 L 254.47500000000002,896.75 L 272.025,896.75zM 342.22499999999997,618.75 L 324.675,618.75 L 307.125,618.75 L 289.575,618.75 L 272.025,618.75 L 254.47500000000002,618.75 L 254.47500000000002,549.25 L 236.925,549.25 L 236.925,479.75 L 236.925,410.25 L 219.37500000000003,410.25 L 219.37500000000003,340.75 L 201.82500000000002,340.75 L 201.82500000000002,271.25 L 201.82500000000002,201.75 L 184.275,201.75 L 184.275,132.25 L 166.72500000000002,132.25 L 166.72500000000002,62.75 L 184.275,62.75 L 201.82500000000002,62.75 L 219.37500000000003,62.75 L 236.925,62.75 L 254.47500000000002,62.75 L 254.47500000000002,-6.75 L 236.925,-6.75 L 219.37500000000003,-6.75 L 201.82500000000002,-6.75 L 184.275,-6.75 L 166.72500000000002,-6.75 L 149.175,-6.75 L 131.625,-6.75 L 114.07500000000002,-6.75 L 96.525,-6.75 L 78.97500000000001,-6.75 L 61.425000000000004,-6.75 L 43.875,-6.75 L 26.325000000000003,-6.75 L 8.775,-6.75 L 8.775,62.75 L 26.325000000000003,62.75 L 43.875,62.75 L 61.425000000000004,62.75 L 78.97500000000001,62.75 L 78.97500000000001,132.25 L 96.525,132.25 L 96.525,201.75 L 114.07500000000002,201.75 L 114.07500000000002,271.25 L 131.625,340.75 L 131.625,410.25 L 149.175,410.25 L 149.175,479.75 L 166.72500000000002,479.75 L 166.72500000000002,549.25 L 166.72500000000002,618.75 L 149.175,618.75 L 131.625,618.75 L 114.07500000000002,618.75 L 96.525,618.75 L 78.97500000000001,618.75 L 184.275,618.75 L 201.82500000000002,618.75 L 219.37500000000003,618.75 L 236.925,618.75 L 342.22499999999997,618.75zz"/>
    <glyph glyph-name="Idieresis" unicode="&#207;" horiz-adv-x="351" d="M 342.22499999999997,896.75 L 342.22499999999997,757.75 L 324.675,757.75 L 307.125,757.75 L 289.575,827.25 L 307.125,827.25 L 324.675,827.25 L 342.22499999999997,827.25 L 342.22499999999997,896.75zM 149.175,757.75 L 131.625,757.75 L 114.07500000000002,757.75 L 96.525,757.75 L 96.525,827.25 L 78.97500000000001,827.25 L 114.07500000000002,827.25 L 131.625,827.25 L 149.175,827.25 L 149.175,896.75 L 166.72500000000002,896.75 L 166.72500000000002,827.25 L 184.275,827.25 L 201.82500000000002,827.25 L 219.37500000000003,827.25 L 219.37500000000003,757.75 L 201.82500000000002,757.75 L 184.275,757.75 L 166.72500000000002,757.75 L 149.175,757.75zM 342.22499999999997,618.75 L 324.675,618.75 L 307.125,618.75 L 289.575,618.75 L 272.025,618.75 L 254.47500000000002,618.75 L 254.47500000000002,549.25 L 236.925,549.25 L 236.925,479.75 L 236.925,410.25 L 219.37500000000003,410.25 L 219.37500000000003,340.75 L 201.82500000000002,340.75 L 201.82500000000002,271.25 L 201.82500000000002,201.75 L 184.275,201.75 L 184.275,132.25 L 166.72500000000002,132.25 L 166.72500000000002,62.75 L 184.275,62.75 L 201.82500000000002,62.75 L 219.37500000000003,62.75 L 236.925,62.75 L 254.47500000000002,62.75 L 254.47500000000002,-6.75 L 236.925,-6.75 L 219.37500000000003,-6.75 L 201.82500000000002,-6.75 L 184.275,-6.75 L 166.72500000000002,-6.75 L 149.175,-6.75 L 131.625,-6.75 L 114.07500000000002,-6.75 L 96.525,-6.75 L 78.97500000000001,-6.75 L 61.425000000000004,-6.75 L 43.875,-6.75 L 26.325000000000003,-6.75 L 8.775,-6.75 L 8.775,62.75 L 26.325000000000003,62.75 L 43.875,62.75 L 61.425000000000004,62.75 L 78.97500000000001,62.75 L 78.97500000000001,132.25 L 96.525,132.25 L 96.525,201.75 L 114.07500000000002,201.75 L 114.07500000000002,271.25 L 131.625,340.75 L 131.625,410.25 L 149.175,410.25 L 149.175,479.75 L 166.72500000000002,479.75 L 166.72500000000002,549.25 L 166.72500000000002,618.75 L 149.175,618.75 L 131.625,618.75 L 114.07500000000002,618.75 L 96.525,618.75 L 78.97500000000001,618.75 L 184.275,618.75 L 201.82500000000002,618.75 L 219.37500000000003,618.75 L 236.925,618.75 L 342.22499999999997,618.75zz"/>
    <glyph glyph-name="Idotaccent" unicode="&#304;" horiz-adv-x="351" d="M 236.925,688.25 L 236.925,757.75 L 219.37500000000003,757.75 L 201.82500000000002,757.75 L 184.275,757.75 L 184.275,827.25 L 201.82500000000002,827.25 L 219.37500000000003,827.25 L 236.925,827.25 L 254.47500000000002,827.25 L 272.025,827.25 L 289.575,827.25 L 307.125,827.25 L 307.125,757.75 L 324.675,757.75 L 289.575,757.75 L 272.025,757.75 L 254.47500000000002,757.75 L 254.47500000000002,688.25 L 236.925,688.25zM 342.22499999999997,618.75 L 324.675,618.75 L 307.125,618.75 L 289.575,618.75 L 272.025,618.75 L 254.47500000000002,618.75 L 254.47500000000002,549.25 L 236.925,549.25 L 236.925,479.75 L 236.925,410.25 L 219.37500000000003,410.25 L 219.37500000000003,340.75 L 201.82500000000002,340.75 L 201.82500000000002,271.25 L 201.82500000000002,201.75 L 184.275,201.75 L 184.275,132.25 L 166.72500000000002,132.25 L 166.72500000000002,62.75 L 184.275,62.75 L 201.82500000000002,62.75 L 219.37500000000003,62.75 L 236.925,62.75 L 254.47500000000002,62.75 L 254.47500000000002,-6.75 L 236.925,-6.75 L 219.37500000000003,-6.75 L 201.82500000000002,-6.75 L 184.275,-6.75 L 166.72500000000002,-6.75 L 149.175,-6.75 L 131.625,-6.75 L 114.07500000000002,-6.75 L 96.525,-6.75 L 78.97500000000001,-6.75 L 61.425000000000004,-6.75 L 43.875,-6.75 L 26.325000000000003,-6.75 L 8.775,-6.75 L 8.775,62.75 L 26.325000000000003,62.75 L 43.875,62.75 L 61.425000000000004,62.75 L 78.97500000000001,62.75 L 78.97500000000001,132.25 L 96.525,132.25 L 96.525,201.75 L 114.07500000000002,201.75 L 114.07500000000002,271.25 L 131.625,340.75 L 131.625,410.25 L 149.175,410.25 L 149.175,479.75 L 166.72500000000002,479.75 L 166.72500000000002,549.25 L 166.72500000000002,618.75 L 149.175,618.75 L 131.625,618.75 L 114.07500000000002,618.75 L 96.525,618.75 L 78.97500000000001,618.75 L 184.275,618.75 L 201.82500000000002,618.75 L 219.37500000000003,618.75 L 236.925,618.75 L 342.22499999999997,618.75zz"/>
    <glyph glyph-name="Igrave" unicode="&#204;" horiz-adv-x="351" d="M 342.22499999999997,757.75 L 324.675,757.75 L 307.125,757.75 L 289.575,757.75 L 272.025,757.75 L 254.47500000000002,757.75 L 236.925,757.75 L 219.37500000000003,757.75 L 201.82500000000002,757.75 L 201.82500000000002,827.25 L 184.275,827.25 L 166.72500000000002,827.25 L 149.175,827.25 L 131.625,827.25 L 114.07500000000002,827.25 L 96.525,827.25 L 114.07500000000002,896.75 L 131.625,896.75 L 149.175,896.75 L 166.72500000000002,896.75 L 184.275,896.75 L 201.82500000000002,896.75 L 219.37500000000003,896.75 L 219.37500000000003,827.25 L 236.925,827.25 L 254.47500000000002,827.25 L 272.025,827.25 L 289.575,827.25 L 342.22499999999997,757.75zM 342.22499999999997,618.75 L 324.675,618.75 L 307.125,618.75 L 289.575,618.75 L 272.025,618.75 L 254.47500000000002,618.75 L 254.47500000000002,549.25 L 236.925,549.25 L 236.925,479.75 L 236.925,410.25 L 219.37500000000003,410.25 L 219.37500000000003,340.75 L 201.82500000000002,340.75 L 201.82500000000002,271.25 L 201.82500000000002,201.75 L 184.275,201.75 L 184.275,132.25 L 166.72500000000002,132.25 L 166.72500000000002,62.75 L 184.275,62.75 L 201.82500000000002,62.75 L 219.37500000000003,62.75 L 236.925,62.75 L 254.47500000000002,62.75 L 254.47500000000002,-6.75 L 236.925,-6.75 L 219.37500000000003,-6.75 L 201.82500000000002,-6.75 L 184.275,-6.75 L 166.72500000000002,-6.75 L 149.175,-6.75 L 131.625,-6.75 L 114.07500000000002,-6.75 L 96.525,-6.75 L 78.97500000000001,-6.75 L 61.425000000000004,-6.75 L 43.875,-6.75 L 26.325000000000003,-6.75 L 8.775,-6.75 L 8.775,62.75 L 26.325000000000003,62.75 L 43.875,62.75 L 61.425000000000004,62.75 L 78.97500000000001,62.75 L 78.97500000000001,132.25 L 96.525,132.25 L 96.525,201.75 L 114.07500000000002,201.75 L 114.07500000000002,271.25 L 131.625,340.75 L 131.625,410.25 L 149.175,410.25 L 149.175,479.75 L 166.72500000000002,479.75 L 166.72500000000002,549.25 L 166.72500000000002,618.75 L 149.175,618.75 L 131.625,618.75 L 114.07500000000002,618.75 L 96.525,618.75 L 78.97500000000001,618.75 L 184.275,618.75 L 201.82500000000002,618.75 L 219.37500000000003,618.75 L 236.925,618.75 L 342.22499999999997,618.75zz"/>
    <glyph glyph-name="Imacron" unicode="&#298;" horiz-adv-x="351" d="M 61.425000000000004,827.25 L 78.97500000000001,827.25 L 96.525,827.25 L 114.07500000000002,827.25 L 131.625,827.25 L 149.175,827.25 L 166.72500000000002,827.25 L 184.275,827.25 L 201.82500000000002,827.25 L 219.37500000000003,827.25 L 236.925,827.25 L 254.47500000000002,827.25 L 272.025,827.25 L 289.575,827.25 L 307.125,827.25 L 324.675,827.25 L 342.22499999999997,827.25 L 342.22499999999997,757.75 L 324.675,757.75 L 307.125,757.75 L 289.575,757.75 L 272.025,757.75 L 254.47500000000002,757.75 L 236.925,757.75 L 219.37500000000003,757.75 L 201.82500000000002,757.75 L 184.275,757.75 L 166.72500000000002,757.75 L 149.175,757.75 L 131.625,757.75 L 114.07500000000002,757.75 L 96.525,757.75 L 78.97500000000001,757.75 L 61.425000000000004,757.75 L 61.425000000000004,827.25zM 342.22499999999997,618.75 L 324.675,618.75 L 307.125,618.75 L 289.575,618.75 L 272.025,618.75 L 254.47500000000002,618.75 L 254.47500000000002,549.25 L 236.925,549.25 L 236.925,479.75 L 236.925,410.25 L 219.37500000000003,410.25 L 219.37500000000003,340.75 L 201.82500000000002,340.75 L 201.82500000000002,271.25 L 201.82500000000002,201.75 L 184.275,201.75 L 184.275,132.25 L 166.72500000000002,132.25 L 166.72500000000002,62.75 L 184.275,62.75 L 201.82500000000002,62.75 L 219.37500000000003,62.75 L 236.925,62.75 L 254.47500000000002,62.75 L 254.47500000000002,-6.75 L 236.925,-6.75 L 219.37500000000003,-6.75 L 201.82500000000002,-6.75 L 184.275,-6.75 L 166.72500000000002,-6.75 L 149.175,-6.75 L 131.625,-6.75 L 114.07500000000002,-6.75 L 96.525,-6.75 L 78.97500000000001,-6.75 L 61.425000000000004,-6.75 L 43.875,-6.75 L 26.325000000000003,-6.75 L 8.775,-6.75 L 8.775,62.75 L 26.325000000000003,62.75 L 43.875,62.75 L 61.425000000000004,62.75 L 78.97500000000001,62.75 L 78.97500000000001,132.25 L 96.525,132.25 L 96.525,201.75 L 114.07500000000002,201.75 L 114.07500000000002,271.25 L 131.625,340.75 L 131.625,410.25 L 149.175,410.25 L 149.175,479.75 L 166.72500000000002,479.75 L 166.72500000000002,549.25 L 166.72500000000002,618.75 L 149.175,618.75 L 131.625,618.75 L 114.07500000000002,618.75 L 96.525,618.75 L 78.97500000000001,618.75 L 184.275,618.75 L 201.82500000000002,618.75 L 219.37500000000003,618.75 L 236.925,618.75 L 342.22499999999997,618.75zz"/>
    <glyph glyph-name="Iogonek" unicode="&#302;" horiz-adv-x="351" d="M 342.22499999999997,618.75 L 324.675,618.75 L 307.125,618.75 L 289.575,618.75 L 272.025,618.75 L 254.47500000000002,618.75 L 254.47500000000002,549.25 L 236.925,549.25 L 236.925,479.75 L 236.925,410.25 L 219.37500000000003,410.25 L 219.37500000000003,340.75 L 201.82500000000002,340.75 L 201.82500000000002,271.25 L 201.82500000000002,201.75 L 184.275,201.75 L 184.275,132.25 L 166.72500000000002,132.25 L 166.72500000000002,62.75 L 184.275,62.75 L 201.82500000000002,62.75 L 219.37500000000003,62.75 L 236.925,62.75 L 254.47500000000002,62.75 L 254.47500000000002,-6.75 L 236.925,-6.75 L 219.37500000000003,-6.75 L 201.82500000000002,-6.75 L 184.275,-6.75 L 166.72500000000002,-6.75 L 149.175,-6.75 L 131.625,-6.75 L 114.07500000000002,-6.75 L 114.07500000000002,-76.25 L 96.525,-76.25 L 78.97500000000001,-76.25 L 61.425000000000004,-76.25 L 61.425000000000004,-145.75 L 78.97500000000001,-145.75 L 96.525,-145.75 L 114.07500000000002,-145.75 L 131.625,-145.75 L 149.175,-145.75 L 166.72500000000002,-145.75 L 184.275,-145.75 L 166.72500000000002,-215.25 L 149.175,-215.25 L 131.625,-215.25 L 114.07500000000002,-215.25 L 96.525,-215.25 L 78.97500000000001,-215.25 L 61.425000000000004,-215.25 L 43.875,-215.25 L 26.325000000000003,-215.25 L 26.325000000000003,-145.75 L 8.775,-145.75 L 8.775,-76.25 L 26.325000000000003,-76.25 L 43.875,-76.25 L 61.425000000000004,-6.75 L 78.97500000000001,-6.75 L 96.525,-6.75 L 43.875,-6.75 L 26.325000000000003,-6.75 L 8.775,-6.75 L 8.775,62.75 L 26.325000000000003,62.75 L 43.875,62.75 L 61.425000000000004,62.75 L 78.97500000000001,62.75 L 78.97500000000001,132.25 L 96.525,132.25 L 96.525,201.75 L 114.07500000000002,201.75 L 114.07500000000002,271.25 L 131.625,340.75 L 131.625,410.25 L 149.175,410.25 L 149.175,479.75 L 166.72500000000002,479.75 L 166.72500000000002,549.25 L 166.72500000000002,618.75 L 149.175,618.75 L 131.625,618.75 L 114.07500000000002,618.75 L 96.525,618.75 L 78.97500000000001,618.75 L 184.275,618.75 L 201.82500000000002,618.75 L 219.37500000000003,618.75 L 236.925,618.75 L 342.22499999999997,618.75zz"/>
    <glyph glyph-name="uni0136" unicode="&#310;" horiz-adv-x="663" d="M 646.4250000000001,618.75 L 613.275,618.75 L 613.275,549.25 L 580.125,549.25 L 546.975,549.25 L 513.825,549.25 L 513.825,479.75 L 480.67499999999995,479.75 L 447.525,479.75 L 414.37499999999994,479.75 L 414.37499999999994,410.25 L 381.22499999999997,410.25 L 348.075,410.25 L 348.075,340.75 L 314.92499999999995,340.75 L 281.775,340.75 L 314.92499999999995,271.25 L 348.075,271.25 L 381.22499999999997,271.25 L 381.22499999999997,201.75 L 414.37499999999994,201.75 L 447.525,201.75 L 447.525,132.25 L 480.67499999999995,132.25 L 480.67499999999995,62.75 L 513.825,62.75 L 546.975,62.75 L 580.125,62.75 L 580.125,-6.75 L 613.275,-6.75 L 546.975,-6.75 L 513.825,-6.75 L 480.67499999999995,-6.75 L 447.525,-6.75 L 447.525,62.75 L 414.37499999999994,62.75 L 381.22499999999997,62.75 L 381.22499999999997,132.25 L 348.075,132.25 L 348.075,201.75 L 314.92499999999995,201.75 L 281.775,201.75 L 281.775,271.25 L 248.62499999999997,271.25 L 248.62499999999997,340.75 L 215.47499999999997,340.75 L 215.47499999999997,271.25 L 182.325,271.25 L 182.325,201.75 L 182.325,132.25 L 182.325,62.75 L 149.17499999999998,62.75 L 215.47499999999997,62.75 L 248.62499999999997,62.75 L 248.62499999999997,-6.75 L 215.47499999999997,-6.75 L 182.325,-6.75 L 149.17499999999998,-6.75 L 116.02499999999999,-6.75 L 82.875,-6.75 L 49.724999999999994,-6.75 L 16.575,-6.75 L 16.575,62.75 L 49.724999999999994,62.75 L 82.875,62.75 L 82.875,132.25 L 82.875,201.75 L 116.02499999999999,201.75 L 116.02499999999999,271.25 L 116.02499999999999,340.75 L 149.17499999999998,340.75 L 149.17499999999998,410.25 L 149.17499999999998,479.75 L 149.17499999999998,549.25 L 182.325,549.25 L 182.325,618.75 L 149.17499999999998,618.75 L 116.02499999999999,618.75 L 82.875,618.75 L 215.47499999999997,618.75 L 248.62499999999997,618.75 L 281.775,618.75 L 314.92499999999995,618.75 L 348.075,618.75 L 248.62499999999997,549.25 L 248.62499999999997,479.75 L 215.47499999999997,410.25 L 281.775,410.25 L 314.92499999999995,410.25 L 348.075,479.75 L 381.22499999999997,479.75 L 447.525,549.25 L 480.67499999999995,549.25 L 513.825,618.75 L 546.975,618.75 L 480.67499999999995,618.75 L 447.525,618.75 L 580.125,618.75 L 646.4250000000001,618.75zM 82.875,-76.25 L 116.02499999999999,-76.25 L 149.17499999999998,-76.25 L 149.17499999999998,-145.75 L 149.17499999999998,-215.25 L 116.02499999999999,-215.25 L 82.875,-215.25 L 49.724999999999994,-215.25 L 82.875,-145.75 L 49.724999999999994,-145.75 L 16.575,-145.75 L 16.575,-76.25 L 49.724999999999994,-76.25 L 82.875,-76.25zz"/>
    <glyph glyph-name="Lacute" unicode="&#313;" horiz-adv-x="623" d="M 420.525,827.25 L 389.37499999999994,827.25 L 358.22499999999997,827.25 L 327.075,827.25 L 327.075,757.75 L 295.92499999999995,757.75 L 264.775,757.75 L 233.62499999999997,757.75 L 202.47499999999997,757.75 L 171.325,757.75 L 233.62499999999997,827.25 L 264.775,827.25 L 295.92499999999995,827.25 L 327.075,896.75 L 358.22499999999997,896.75 L 389.37499999999994,896.75 L 420.525,896.75 L 420.525,827.25zM 545.125,201.75 L 576.275,201.75 L 576.275,132.25 L 545.125,132.25 L 545.125,62.75 L 513.975,62.75 L 513.975,-6.75 L 482.825,-6.75 L 451.67499999999995,-6.75 L 420.525,-6.75 L 389.37499999999994,-6.75 L 358.22499999999997,-6.75 L 327.075,-6.75 L 295.92499999999995,-6.75 L 264.775,-6.75 L 233.62499999999997,-6.75 L 202.47499999999997,-6.75 L 171.325,-6.75 L 140.17499999999998,-6.75 L 109.02499999999999,-6.75 L 77.875,-6.75 L 46.724999999999994,-6.75 L 15.575,-6.75 L 15.575,62.75 L 46.724999999999994,62.75 L 77.875,62.75 L 77.875,132.25 L 109.02499999999999,132.25 L 109.02499999999999,201.75 L 109.02499999999999,271.25 L 109.02499999999999,340.75 L 140.17499999999998,340.75 L 140.17499999999998,410.25 L 140.17499999999998,479.75 L 171.325,479.75 L 171.325,549.25 L 171.325,618.75 L 140.17499999999998,618.75 L 109.02499999999999,618.75 L 77.875,618.75 L 202.47499999999997,618.75 L 233.62499999999997,618.75 L 264.775,618.75 L 295.92499999999995,618.75 L 327.075,618.75 L 358.22499999999997,618.75 L 264.775,549.25 L 233.62499999999997,549.25 L 233.62499999999997,479.75 L 233.62499999999997,410.25 L 233.62499999999997,340.75 L 202.47499999999997,340.75 L 202.47499999999997,271.25 L 202.47499999999997,201.75 L 171.325,201.75 L 171.325,132.25 L 171.325,62.75 L 202.47499999999997,62.75 L 233.62499999999997,62.75 L 264.775,62.75 L 295.92499999999995,62.75 L 327.075,62.75 L 358.22499999999997,62.75 L 389.37499999999994,62.75 L 420.525,62.75 L 451.67499999999995,62.75 L 482.825,62.75 L 482.825,132.25 L 513.975,132.25 L 513.975,201.75 L 545.125,201.75zz"/>
    <glyph glyph-name="Lcaron" unicode="&#317;" horiz-adv-x="623" d="M 513.975,549.25 L 482.825,549.25 L 482.825,618.75 L 451.67499999999995,618.75 L 420.525,618.75 L 451.67499999999995,688.25 L 482.825,688.25 L 513.975,688.25 L 513.975,618.75 L 545.125,618.75 L 545.125,549.25 L 545.125,479.75 L 513.975,479.75 L 482.825,479.75 L 513.975,549.25zM 545.125,201.75 L 576.275,201.75 L 576.275,132.25 L 545.125,132.25 L 545.125,62.75 L 513.975,62.75 L 513.975,-6.75 L 482.825,-6.75 L 451.67499999999995,-6.75 L 420.525,-6.75 L 389.37499999999994,-6.75 L 358.22499999999997,-6.75 L 327.075,-6.75 L 295.92499999999995,-6.75 L 264.775,-6.75 L 233.62499999999997,-6.75 L 202.47499999999997,-6.75 L 171.325,-6.75 L 140.17499999999998,-6.75 L 109.02499999999999,-6.75 L 77.875,-6.75 L 46.724999999999994,-6.75 L 15.575,-6.75 L 15.575,62.75 L 46.724999999999994,62.75 L 77.875,62.75 L 77.875,132.25 L 109.02499999999999,132.25 L 109.02499999999999,201.75 L 109.02499999999999,271.25 L 109.02499999999999,340.75 L 140.17499999999998,340.75 L 140.17499999999998,410.25 L 140.17499999999998,479.75 L 171.325,479.75 L 171.325,549.25 L 171.325,618.75 L 140.17499999999998,618.75 L 109.02499999999999,618.75 L 77.875,618.75 L 202.47499999999997,618.75 L 233.62499999999997,618.75 L 264.775,618.75 L 295.92499999999995,618.75 L 327.075,618.75 L 358.22499999999997,618.75 L 264.775,549.25 L 233.62499999999997,549.25 L 233.62499999999997,479.75 L 233.62499999999997,410.25 L 233.62499999999997,340.75 L 202.47499999999997,340.75 L 202.47499999999997,271.25 L 202.47499999999997,201.75 L 171.325,201.75 L 171.325,132.25 L 171.325,62.75 L 202.47499999999997,62.75 L 233.62499999999997,62.75 L 264.775,62.75 L 295.92499999999995,62.75 L 327.075,62.75 L 358.22499999999997,62.75 L 389.37499999999994,62.75 L 420.525,62.75 L 451.67499999999995,62.75 L 482.825,62.75 L 482.825,132.25 L 513.975,132.25 L 513.975,201.75 L 545.125,201.75zz"/>
    <glyph glyph-name="uni013B" unicode="&#315;" horiz-adv-x="623" d="M 545.125,201.75 L 576.275,201.75 L 576.275,132.25 L 545.125,132.25 L 545.125,62.75 L 513.975,62.75 L 513.975,-6.75 L 482.825,-6.75 L 451.67499999999995,-6.75 L 420.525,-6.75 L 389.37499999999994,-6.75 L 358.22499999999997,-6.75 L 327.075,-6.75 L 295.92499999999995,-6.75 L 264.775,-6.75 L 233.62499999999997,-6.75 L 202.47499999999997,-6.75 L 171.325,-6.75 L 140.17499999999998,-6.75 L 109.02499999999999,-6.75 L 77.875,-6.75 L 46.724999999999994,-6.75 L 15.575,-6.75 L 15.575,62.75 L 46.724999999999994,62.75 L 77.875,62.75 L 77.875,132.25 L 109.02499999999999,132.25 L 109.02499999999999,201.75 L 109.02499999999999,271.25 L 109.02499999999999,340.75 L 140.17499999999998,340.75 L 140.17499999999998,410.25 L 140.17499999999998,479.75 L 171.325,479.75 L 171.325,549.25 L 171.325,618.75 L 140.17499999999998,618.75 L 109.02499999999999,618.75 L 77.875,618.75 L 202.47499999999997,618.75 L 233.62499999999997,618.75 L 264.775,618.75 L 295.92499999999995,618.75 L 327.075,618.75 L 358.22499999999997,618.75 L 264.775,549.25 L 233.62499999999997,549.25 L 233.62499999999997,479.75 L 233.62499999999997,410.25 L 233.62499999999997,340.75 L 202.47499999999997,340.75 L 202.47499999999997,271.25 L 202.47499999999997,201.75 L 171.325,201.75 L 171.325,132.25 L 171.325,62.75 L 202.47499999999997,62.75 L 233.62499999999997,62.75 L 264.775,62.75 L 295.92499999999995,62.75 L 327.075,62.75 L 358.22499999999997,62.75 L 389.37499999999994,62.75 L 420.525,62.75 L 451.67499999999995,62.75 L 482.825,62.75 L 482.825,132.25 L 513.975,132.25 L 513.975,201.75 L 545.125,201.75zM 264.775,-76.25 L 295.92499999999995,-76.25 L 327.075,-76.25 L 327.075,-145.75 L 327.075,-215.25 L 295.92499999999995,-215.25 L 264.775,-215.25 L 233.62499999999997,-215.25 L 264.775,-145.75 L 233.62499999999997,-145.75 L 202.47499999999997,-145.75 L 202.47499999999997,-76.25 L 233.62499999999997,-76.25 L 264.775,-76.25zz"/>
    <glyph glyph-name="Lslash" unicode="&#321;" horiz-adv-x="623" d="M 545.125,201.75 L 576.275,201.75 L 576.275,132.25 L 545.125,132.25 L 545.125,62.75 L 513.975,62.75 L 513.975,-6.75 L 482.825,-6.75 L 451.67499999999995,-6.75 L 420.525,-6.75 L 389.37499999999994,-6.75 L 358.22499999999997,-6.75 L 327.075,-6.75 L 295.92499999999995,-6.75 L 264.775,-6.75 L 233.62499999999997,-6.75 L 202.47499999999997,-6.75 L 171.325,-6.75 L 140.17499999999998,-6.75 L 109.02499999999999,-6.75 L 77.875,-6.75 L 46.724999999999994,-6.75 L 15.575,-6.75 L 15.575,62.75 L 46.724999999999994,62.75 L 77.875,62.75 L 77.875,132.25 L 109.02499999999999,132.25 L 109.02499999999999,201.75 L 109.02499999999999,271.25 L 77.875,271.25 L 46.724999999999994,271.25 L 15.575,271.25 L 77.875,340.75 L 109.02499999999999,340.75 L 140.17499999999998,340.75 L 140.17499999999998,410.25 L 140.17499999999998,479.75 L 171.325,479.75 L 171.325,549.25 L 171.325,618.75 L 140.17499999999998,618.75 L 109.02499999999999,618.75 L 77.875,618.75 L 202.47499999999997,618.75 L 233.62499999999997,618.75 L 264.775,618.75 L 295.92499999999995,618.75 L 327.075,618.75 L 358.22499999999997,618.75 L 264.775,549.25 L 233.62499999999997,549.25 L 233.62499999999997,479.75 L 233.62499999999997,410.25 L 264.775,410.25 L 264.775,479.75 L 295.92499999999995,479.75 L 327.075,479.75 L 327.075,410.25 L 295.92499999999995,410.25 L 233.62499999999997,340.75 L 202.47499999999997,340.75 L 202.47499999999997,271.25 L 202.47499999999997,201.75 L 171.325,201.75 L 171.325,132.25 L 171.325,62.75 L 202.47499999999997,62.75 L 233.62499999999997,62.75 L 264.775,62.75 L 295.92499999999995,62.75 L 327.075,62.75 L 358.22499999999997,62.75 L 389.37499999999994,62.75 L 420.525,62.75 L 451.67499999999995,62.75 L 482.825,62.75 L 482.825,132.25 L 513.975,132.25 L 513.975,201.75 L 545.125,201.75zz"/>
    <glyph glyph-name="Nacute" unicode="&#323;" horiz-adv-x="761" d="M 627.8249999999999,827.25 L 589.775,827.25 L 551.7249999999999,827.25 L 513.675,827.25 L 513.675,757.75 L 475.62499999999994,757.75 L 437.57499999999993,757.75 L 399.525,757.75 L 361.47499999999997,757.75 L 437.57499999999993,827.25 L 475.62499999999994,827.25 L 513.675,896.75 L 551.7249999999999,896.75 L 589.775,896.75 L 627.8249999999999,827.25zM 741.9749999999999,618.75 L 703.925,618.75 L 703.925,549.25 L 665.8749999999999,549.25 L 665.8749999999999,479.75 L 665.8749999999999,410.25 L 665.8749999999999,340.75 L 627.8249999999999,340.75 L 627.8249999999999,271.25 L 627.8249999999999,201.75 L 627.8249999999999,132.25 L 589.775,132.25 L 589.775,62.75 L 627.8249999999999,62.75 L 665.8749999999999,62.75 L 665.8749999999999,-6.75 L 703.925,-6.75 L 627.8249999999999,-6.75 L 589.775,-6.75 L 551.7249999999999,-6.75 L 551.7249999999999,62.75 L 513.675,62.75 L 513.675,132.25 L 475.62499999999994,132.25 L 475.62499999999994,201.75 L 437.57499999999993,201.75 L 399.525,271.25 L 361.47499999999997,271.25 L 361.47499999999997,340.75 L 323.42499999999995,340.75 L 323.42499999999995,410.25 L 285.37499999999994,410.25 L 285.37499999999994,479.75 L 247.325,479.75 L 247.325,549.25 L 209.275,549.25 L 209.275,479.75 L 209.275,410.25 L 171.225,410.25 L 171.225,340.75 L 171.225,271.25 L 171.225,201.75 L 133.17499999999998,201.75 L 133.17499999999998,132.25 L 133.17499999999998,62.75 L 171.225,62.75 L 209.275,62.75 L 247.325,62.75 L 285.37499999999994,62.75 L 285.37499999999994,-6.75 L 247.325,-6.75 L 209.275,-6.75 L 171.225,-6.75 L 133.17499999999998,-6.75 L 95.125,-6.75 L 57.074999999999996,-6.75 L 19.025,-6.75 L 19.025,62.75 L 57.074999999999996,62.75 L 95.125,62.75 L 95.125,132.25 L 95.125,201.75 L 133.17499999999998,271.25 L 133.17499999999998,340.75 L 133.17499999999998,410.25 L 171.225,479.75 L 171.225,549.25 L 171.225,618.75 L 133.17499999999998,618.75 L 95.125,618.75 L 209.275,618.75 L 247.325,618.75 L 285.37499999999994,618.75 L 285.37499999999994,549.25 L 323.42499999999995,549.25 L 361.47499999999997,479.75 L 399.525,410.25 L 437.57499999999993,410.25 L 437.57499999999993,340.75 L 475.62499999999994,340.75 L 475.62499999999994,271.25 L 513.675,271.25 L 513.675,201.75 L 551.7249999999999,201.75 L 551.7249999999999,132.25 L 589.775,201.75 L 589.775,271.25 L 589.775,340.75 L 627.8249999999999,410.25 L 627.8249999999999,479.75 L 627.8249999999999,549.25 L 627.8249999999999,618.75 L 665.8749999999999,618.75 L 589.775,618.75 L 551.7249999999999,618.75 L 513.675,618.75 L 741.9749999999999,618.75zz"/>
    <glyph glyph-name="Ncaron" unicode="&#327;" horiz-adv-x="761" d="M 437.57499999999993,757.75 L 399.525,757.75 L 399.525,827.25 L 361.47499999999997,827.25 L 361.47499999999997,896.75 L 323.42499999999995,896.75 L 399.525,896.75 L 437.57499999999993,827.25 L 475.62499999999994,827.25 L 513.675,827.25 L 513.675,896.75 L 551.7249999999999,896.75 L 589.775,896.75 L 589.775,827.25 L 551.7249999999999,827.25 L 513.675,757.75 L 475.62499999999994,757.75 L 437.57499999999993,757.75zM 741.9749999999999,618.75 L 703.925,618.75 L 703.925,549.25 L 665.8749999999999,549.25 L 665.8749999999999,479.75 L 665.8749999999999,410.25 L 665.8749999999999,340.75 L 627.8249999999999,340.75 L 627.8249999999999,271.25 L 627.8249999999999,201.75 L 627.8249999999999,132.25 L 589.775,132.25 L 589.775,62.75 L 627.8249999999999,62.75 L 665.8749999999999,62.75 L 665.8749999999999,-6.75 L 703.925,-6.75 L 627.8249999999999,-6.75 L 589.775,-6.75 L 551.7249999999999,-6.75 L 551.7249999999999,62.75 L 513.675,62.75 L 513.675,132.25 L 475.62499999999994,132.25 L 475.62499999999994,201.75 L 437.57499999999993,201.75 L 399.525,271.25 L 361.47499999999997,271.25 L 361.47499999999997,340.75 L 323.42499999999995,340.75 L 323.42499999999995,410.25 L 285.37499999999994,410.25 L 285.37499999999994,479.75 L 247.325,479.75 L 247.325,549.25 L 209.275,549.25 L 209.275,479.75 L 209.275,410.25 L 171.225,410.25 L 171.225,340.75 L 171.225,271.25 L 171.225,201.75 L 133.17499999999998,201.75 L 133.17499999999998,132.25 L 133.17499999999998,62.75 L 171.225,62.75 L 209.275,62.75 L 247.325,62.75 L 285.37499999999994,62.75 L 285.37499999999994,-6.75 L 247.325,-6.75 L 209.275,-6.75 L 171.225,-6.75 L 133.17499999999998,-6.75 L 95.125,-6.75 L 57.074999999999996,-6.75 L 19.025,-6.75 L 19.025,62.75 L 57.074999999999996,62.75 L 95.125,62.75 L 95.125,132.25 L 95.125,201.75 L 133.17499999999998,271.25 L 133.17499999999998,340.75 L 133.17499999999998,410.25 L 171.225,479.75 L 171.225,549.25 L 171.225,618.75 L 133.17499999999998,618.75 L 95.125,618.75 L 209.275,618.75 L 247.325,618.75 L 285.37499999999994,618.75 L 285.37499999999994,549.25 L 323.42499999999995,549.25 L 361.47499999999997,479.75 L 399.525,410.25 L 437.57499999999993,410.25 L 437.57499999999993,340.75 L 475.62499999999994,340.75 L 475.62499999999994,271.25 L 513.675,271.25 L 513.675,201.75 L 551.7249999999999,201.75 L 551.7249999999999,132.25 L 589.775,201.75 L 589.775,271.25 L 589.775,340.75 L 627.8249999999999,410.25 L 627.8249999999999,479.75 L 627.8249999999999,549.25 L 627.8249999999999,618.75 L 665.8749999999999,618.75 L 589.775,618.75 L 551.7249999999999,618.75 L 513.675,618.75 L 741.9749999999999,618.75zz"/>
    <glyph glyph-name="uni0145" unicode="&#325;" horiz-adv-x="761" d="M 741.9749999999999,618.75 L 703.925,618.75 L 703.925,549.25 L 665.8749999999999,549.25 L 665.8749999999999,479.75 L 665.8749999999999,410.25 L 665.8749999999999,340.75 L 627.8249999999999,340.75 L 627.8249999999999,271.25 L 627.8249999999999,201.75 L 627.8249999999999,132.25 L 589.775,132.25 L 589.775,62.75 L 627.8249999999999,62.75 L 665.8749999999999,62.75 L 665.8749999999999,-6.75 L 703.925,-6.75 L 627.8249999999999,-6.75 L 589.775,-6.75 L 551.7249999999999,-6.75 L 551.7249999999999,62.75 L 513.675,62.75 L 513.675,132.25 L 475.62499999999994,132.25 L 475.62499999999994,201.75 L 437.57499999999993,201.75 L 399.525,271.25 L 361.47499999999997,271.25 L 361.47499999999997,340.75 L 323.42499999999995,340.75 L 323.42499999999995,410.25 L 285.37499999999994,410.25 L 285.37499999999994,479.75 L 247.325,479.75 L 247.325,549.25 L 209.275,549.25 L 209.275,479.75 L 209.275,410.25 L 171.225,410.25 L 171.225,340.75 L 171.225,271.25 L 171.225,201.75 L 133.17499999999998,201.75 L 133.17499999999998,132.25 L 133.17499999999998,62.75 L 171.225,62.75 L 209.275,62.75 L 247.325,62.75 L 285.37499999999994,62.75 L 285.37499999999994,-6.75 L 247.325,-6.75 L 209.275,-6.75 L 171.225,-6.75 L 133.17499999999998,-6.75 L 95.125,-6.75 L 57.074999999999996,-6.75 L 19.025,-6.75 L 19.025,62.75 L 57.074999999999996,62.75 L 95.125,62.75 L 95.125,132.25 L 95.125,201.75 L 133.17499999999998,271.25 L 133.17499999999998,340.75 L 133.17499999999998,410.25 L 171.225,479.75 L 171.225,549.25 L 171.225,618.75 L 133.17499999999998,618.75 L 95.125,618.75 L 209.275,618.75 L 247.325,618.75 L 285.37499999999994,618.75 L 285.37499999999994,549.25 L 323.42499999999995,549.25 L 361.47499999999997,479.75 L 399.525,410.25 L 437.57499999999993,410.25 L 437.57499999999993,340.75 L 475.62499999999994,340.75 L 475.62499999999994,271.25 L 513.675,271.25 L 513.675,201.75 L 551.7249999999999,201.75 L 551.7249999999999,132.25 L 589.775,201.75 L 589.775,271.25 L 589.775,340.75 L 627.8249999999999,410.25 L 627.8249999999999,479.75 L 627.8249999999999,549.25 L 627.8249999999999,618.75 L 665.8749999999999,618.75 L 589.775,618.75 L 551.7249999999999,618.75 L 513.675,618.75 L 741.9749999999999,618.75zM 247.325,-76.25 L 285.37499999999994,-76.25 L 323.42499999999995,-76.25 L 323.42499999999995,-145.75 L 323.42499999999995,-215.25 L 285.37499999999994,-215.25 L 247.325,-215.25 L 209.275,-215.25 L 247.325,-145.75 L 285.37499999999994,-145.75 L 209.275,-145.75 L 209.275,-76.25 L 247.325,-76.25zz"/>
    <glyph glyph-name="Eng" unicode="&#330;" horiz-adv-x="981"/>
    <glyph glyph-name="Ntilde" unicode="&#209;" horiz-adv-x="761" d="M 361.47499999999997,827.25 L 323.42499999999995,827.25 L 323.42499999999995,757.75 L 285.37499999999994,757.75 L 285.37499999999994,827.25 L 361.47499999999997,896.75 L 399.525,896.75 L 399.525,827.25 L 437.57499999999993,827.25 L 475.62499999999994,827.25 L 513.675,827.25 L 551.7249999999999,827.25 L 589.775,827.25 L 589.775,896.75 L 627.8249999999999,896.75 L 627.8249999999999,827.25 L 589.775,757.75 L 551.7249999999999,757.75 L 513.675,757.75 L 475.62499999999994,757.75 L 437.57499999999993,757.75 L 399.525,757.75 L 361.47499999999997,827.25zM 741.9749999999999,618.75 L 703.925,618.75 L 703.925,549.25 L 665.8749999999999,549.25 L 665.8749999999999,479.75 L 665.8749999999999,410.25 L 665.8749999999999,340.75 L 627.8249999999999,340.75 L 627.8249999999999,271.25 L 627.8249999999999,201.75 L 627.8249999999999,132.25 L 589.775,132.25 L 589.775,62.75 L 627.8249999999999,62.75 L 665.8749999999999,62.75 L 665.8749999999999,-6.75 L 703.925,-6.75 L 627.8249999999999,-6.75 L 589.775,-6.75 L 551.7249999999999,-6.75 L 551.7249999999999,62.75 L 513.675,62.75 L 513.675,132.25 L 475.62499999999994,132.25 L 475.62499999999994,201.75 L 437.57499999999993,201.75 L 399.525,271.25 L 361.47499999999997,271.25 L 361.47499999999997,340.75 L 323.42499999999995,340.75 L 323.42499999999995,410.25 L 285.37499999999994,410.25 L 285.37499999999994,479.75 L 247.325,479.75 L 247.325,549.25 L 209.275,549.25 L 209.275,479.75 L 209.275,410.25 L 171.225,410.25 L 171.225,340.75 L 171.225,271.25 L 171.225,201.75 L 133.17499999999998,201.75 L 133.17499999999998,132.25 L 133.17499999999998,62.75 L 171.225,62.75 L 209.275,62.75 L 247.325,62.75 L 285.37499999999994,62.75 L 285.37499999999994,-6.75 L 247.325,-6.75 L 209.275,-6.75 L 171.225,-6.75 L 133.17499999999998,-6.75 L 95.125,-6.75 L 57.074999999999996,-6.75 L 19.025,-6.75 L 19.025,62.75 L 57.074999999999996,62.75 L 95.125,62.75 L 95.125,132.25 L 95.125,201.75 L 133.17499999999998,271.25 L 133.17499999999998,340.75 L 133.17499999999998,410.25 L 171.225,479.75 L 171.225,549.25 L 171.225,618.75 L 133.17499999999998,618.75 L 95.125,618.75 L 209.275,618.75 L 247.325,618.75 L 285.37499999999994,618.75 L 285.37499999999994,549.25 L 323.42499999999995,549.25 L 361.47499999999997,479.75 L 399.525,410.25 L 437.57499999999993,410.25 L 437.57499999999993,340.75 L 475.62499999999994,340.75 L 475.62499999999994,271.25 L 513.675,271.25 L 513.675,201.75 L 551.7249999999999,201.75 L 551.7249999999999,132.25 L 589.775,201.75 L 589.775,271.25 L 589.775,340.75 L 627.8249999999999,410.25 L 627.8249999999999,479.75 L 627.8249999999999,549.25 L 627.8249999999999,618.75 L 665.8749999999999,618.75 L 589.775,618.75 L 551.7249999999999,618.75 L 513.675,618.75 L 741.9749999999999,618.75zz"/>
    <glyph glyph-name="Oacute" unicode="&#211;" horiz-adv-x="718" d="M 376.95,757.75 L 341.04999999999995,757.75 L 412.84999999999997,757.75 L 412.84999999999997,827.25 L 448.74999999999994,827.25 L 484.65,827.25 L 484.65,896.75 L 520.55,896.75 L 556.45,896.75 L 592.35,896.75 L 592.35,827.25 L 556.45,827.25 L 520.55,827.25 L 484.65,757.75 L 448.74999999999994,757.75 L 376.95,757.75zM 305.15,-6.75 L 269.25,-6.75 L 233.34999999999997,-6.75 L 197.45,-6.75 L 161.54999999999998,-6.75 L 125.64999999999999,62.75 L 89.75,62.75 L 89.75,132.25 L 53.849999999999994,132.25 L 53.849999999999994,201.75 L 53.849999999999994,271.25 L 53.849999999999994,340.75 L 53.849999999999994,410.25 L 89.75,410.25 L 89.75,479.75 L 125.64999999999999,479.75 L 125.64999999999999,549.25 L 161.54999999999998,549.25 L 197.45,549.25 L 197.45,618.75 L 233.34999999999997,618.75 L 269.25,618.75 L 305.15,618.75 L 341.04999999999995,618.75 L 341.04999999999995,688.25 L 376.95,688.25 L 412.84999999999997,688.25 L 448.74999999999994,688.25 L 484.65,688.25 L 484.65,618.75 L 520.55,618.75 L 556.45,618.75 L 592.35,618.75 L 592.35,549.25 L 628.25,549.25 L 628.25,479.75 L 664.15,479.75 L 664.15,410.25 L 664.15,340.75 L 664.15,271.25 L 628.25,271.25 L 628.25,201.75 L 592.35,201.75 L 592.35,132.25 L 556.45,132.25 L 556.45,62.75 L 520.55,62.75 L 484.65,62.75 L 448.74999999999994,62.75 L 448.74999999999994,-6.75 L 412.84999999999997,-6.75 L 376.95,-6.75 L 341.04999999999995,-6.75 L 305.15,-6.75zM 376.95,62.75 L 412.84999999999997,62.75 L 448.74999999999994,62.75 L 448.74999999999994,132.25 L 484.65,132.25 L 520.55,132.25 L 520.55,201.75 L 556.45,201.75 L 556.45,271.25 L 556.45,340.75 L 556.45,410.25 L 592.35,410.25 L 556.45,479.75 L 556.45,549.25 L 520.55,549.25 L 484.65,549.25 L 484.65,618.75 L 448.74999999999994,618.75 L 412.84999999999997,618.75 L 376.95,618.75 L 341.04999999999995,618.75 L 305.15,618.75 L 269.25,618.75 L 269.25,549.25 L 233.34999999999997,549.25 L 233.34999999999997,479.75 L 197.45,479.75 L 161.54999999999998,410.25 L 161.54999999999998,340.75 L 125.64999999999999,340.75 L 125.64999999999999,271.25 L 125.64999999999999,201.75 L 125.64999999999999,132.25 L 161.54999999999998,132.25 L 161.54999999999998,62.75 L 197.45,62.75 L 233.34999999999997,62.75 L 269.25,62.75 L 305.15,62.75 L 341.04999999999995,62.75 L 376.95,62.75zz"/>
    </font>
</defs>
</svg>
