<?xml version="1.0" standalone="no"?>
<!DOCTYPE svg PUBLIC "-//W3C//DTD SVG 1.1//EN" "http://www.w3.org/Graphics/SVG/1.1/DTD/svg11.dtd" >
<svg xmlns="http://www.w3.org/2000/svg" xmlns:xlink="http://www.w3.org/1999/xlink" version="1.1">
<metadata>
Created by FontForge 20190801 at Mon Sep 16 20:41:22 2019
 By Unknown
Copyright \(c\) 2015 by Lucas Descroix. All rights reserved.
</metadata>
<defs>
<font id="FerroForgeBase-Regular" horiz-adv-x="0" >
  <font-face 
    font-family="FerroForge Base"
    font-weight="400"
    font-stretch="normal"
    units-per-em="1000"
    panose-1="0 0 5 0 0 0 0 0 0 0"
    ascent="750"
    descent="-250"
    x-height="500"
    cap-height="650"
    bbox="-410 -250 1223 998.752"
    underline-thickness="50"
    underline-position="-100"
    unicode-range="U+000D-FB02"
  />
<missing-glyph horiz-adv-x="506" 
 />
    <glyph glyph-name="fi" unicode="fi" horiz-adv-x="610" 
d="M491 38l66 -13v-25h-200v30l56 15v328l-47 20h-189v-355l67 -13v-25h-200v30l57 15v348h-51v43h51c2 143 72 274 219 274c68 0 130 -33 133 -76c2 -26 -16 -55 -41 -66l-56 31l16 51c-17 8 -39 14 -68 14c-84 0 -127 -57 -127 -205v-23h201l88 24h15v-78l10 -5v-339z" />
    <glyph glyph-name="fl" unicode="fl" horiz-adv-x="583" 
d="M492 38l66 -13v-25h-200v30l56 15v532c-8 -1 -17 -2 -26 -2c0 23 -1 45 -8 62l-49 21v14c-3 1 -7 1 -11 1c-52 0 -122 -40 -122 -174v-19h148v-50h-148v-393l62 -12v-25h-200v30l58 15v385h-73v25l73 15c6 123 87 240 221 240c31 0 57 -5 77 -14l51 14h15v-88l10 -5v-579
z" />
    <glyph glyph-name=".notdef" horiz-adv-x="506" 
 />
    <glyph glyph-name="NULL" horiz-adv-x="6" 
 />
    <glyph glyph-name="NULL" horiz-adv-x="6" 
 />
    <glyph glyph-name="CR" unicode="&#xd;" horiz-adv-x="506" 
 />
    <glyph glyph-name="space" unicode=" " horiz-adv-x="250" 
 />
    <glyph glyph-name="A" unicode="A" horiz-adv-x="726" 
d="M643 45l73 -15v-30h-259v30l94 19l-65 173h-280l-69 -174l95 -18v-30h-227v30l79 20l245 589l-8 21l81 25zM224 267h245l-120 318z" />
    <glyph glyph-name="B" unicode="B" horiz-adv-x="631" 
d="M382 349c106 -12 189 -70 189 -161c0 -123 -123 -188 -232 -188h-289v30l92 18v554l-92 18v30h246c169 0 230 -55 230 -138c0 -81 -62 -141 -144 -163zM296 615l-69 5v-269h92c58 0 114 54 114 137c0 68 -36 120 -137 127zM329 40c108 0 147 74 147 148
c0 77 -41 128 -157 128h-92v-258c23 -14 53 -18 102 -18z" />
    <glyph glyph-name="C" unicode="C" horiz-adv-x="741" 
d="M416 660c118 0 194 -47 216 -61v-159h-30c-8 92 -47 180 -180 180c-141 0 -267 -99 -267 -292c0 -178 108 -298 266 -298c135 0 178 89 222 181l28 -10l-58 -169c-56 -30 -144 -42 -205 -42c-209 0 -353 142 -353 331c0 200 161 339 361 339z" />
    <glyph glyph-name="D" unicode="D" horiz-adv-x="759" 
d="M343 650c200 0 361 -129 361 -329c0 -189 -144 -321 -353 -321h-301v30l92 18v554l-92 18v30h293zM348 40c148 0 256 110 256 288c0 193 -126 282 -277 282c-38 0 -73 -2 -100 -6v-531c27 -26 58 -33 121 -33z" />
    <glyph glyph-name="E" unicode="E" horiz-adv-x="659" 
d="M590 186l29 -9l-44 -177h-525v30l92 18v554l-92 18v30h177c50 0 224 0 319 10l15 -171l-25 -7l-56 119l-253 9v-260l203 3l19 74h30v-190h-30l-19 70l-203 3v-237c27 -26 60 -33 131 -33c45 0 100 6 155 14z" />
    <glyph glyph-name="F" unicode="F" horiz-adv-x="626" 
d="M546 660l15 -171l-25 -7l-56 119l-253 9v-265l203 3l19 74h30v-190h-30l-19 70l-203 3v-257l112 -18v-30h-289v30l92 18v554l-92 18v30h177c50 0 224 0 319 10z" />
    <glyph glyph-name="G" unicode="G" horiz-adv-x="768" 
d="M718 316v-30l-64 -16v-280h-15l-34 44c-62 -25 -120 -44 -197 -44c-209 0 -353 142 -353 331c0 200 161 339 361 339c120 0 198 -47 220 -61v-159h-30c-8 92 -49 180 -184 180c-141 0 -267 -99 -267 -292c0 -178 108 -298 266 -298c64 0 108 10 148 25v212l-100 19v30
h249z" />
    <glyph glyph-name="H" unicode="H" horiz-adv-x="840" 
d="M790 620l-92 -17v-556l92 -17v-30h-269v30l92 18v265h-386v-266l92 -17v-30h-269v30l92 18v554l-92 18v30h269v-30l-92 -17v-245h386v244l-92 18v30h269v-30z" />
    <glyph glyph-name="I" unicode="I" horiz-adv-x="369" 
d="M319 620l-92 -17v-556l92 -17v-30h-269v30l92 18v554l-92 18v30h269v-30z" />
    <glyph glyph-name="J" unicode="J" horiz-adv-x="364" 
d="M319 650v-30l-91 -17v-512c0 -146 -75 -204 -225 -301l-13 15c127 118 151 171 151 301v496l-91 18v30h269z" />
    <glyph glyph-name="K" unicode="K" horiz-adv-x="688" 
d="M409 244c108 -116 213 -222 279 -224v-20l-83 -10c-89 0 -187 128 -248 208l-83 110l-47 2v-263l92 -17v-30h-269v30l92 18v554l-92 18v30h269v-30l-92 -17v-253l38 1l251 251l-88 18v30h229v-30l-63 -14l-280 -260z" />
    <glyph glyph-name="L" unicode="L" horiz-adv-x="649" 
d="M590 186l29 -9l-47 -187c-124 10 -251 10 -378 10h-144v30l92 18v554l-92 18v30h269v-30l-92 -17v-530c27 -26 60 -33 131 -33c45 0 100 6 155 14z" />
    <glyph glyph-name="M" unicode="M" horiz-adv-x="997" 
d="M865 46l87 -16v-30h-269v30l92 18l-33 517l-248 -565h-15l-262 553l-15 -504l112 -19v-30h-264v30l102 20l29 552l-90 18v30h175l239 -521l232 521h175v-30l-84 -17z" />
    <glyph glyph-name="N" unicode="N" horiz-adv-x="834" 
d="M799 650v-30l-101 -20l-7 -610h-15l-471 547l6 -488l133 -19v-30h-284v30l101 20l6 531c-27 29 -51 43 -117 49v20h171l432 -506l-5 457l-123 19v30h274z" />
    <glyph glyph-name="O" unicode="O" horiz-adv-x="786" 
d="M393 -10c-194 0 -338 136 -338 331c0 188 144 339 338 339s338 -151 338 -339c0 -195 -144 -331 -338 -331zM393 30c153 0 238 131 238 298c0 179 -98 292 -238 292s-238 -113 -238 -292c0 -167 85 -298 238 -298z" />
    <glyph glyph-name="P" unicode="P" horiz-adv-x="614" 
d="M295 283c119 5 174 92 174 175c0 88 -46 147 -147 152l-95 5v-567l112 -18v-30h-289v30l92 18v554l-92 18v30h272c139 0 242 -65 242 -188c0 -101 -82 -204 -269 -204v25z" />
    <glyph glyph-name="Q" unicode="Q" horiz-adv-x="786" 
d="M564 -144c41 0 90 2 123 10l4 -15l-140 -61c-159 9 -256 118 -304 229c-116 50 -192 160 -192 302c0 188 144 339 338 339s338 -151 338 -339c0 -195 -144 -331 -338 -331c-27 0 -53 3 -78 8c58 -86 150 -142 249 -142zM155 328c0 -167 85 -298 238 -298s238 131 238 298
c0 179 -98 292 -238 292s-238 -113 -238 -292z" />
    <glyph glyph-name="R" unicode="R" horiz-adv-x="700" 
d="M488 237c81 -138 142 -215 227 -217v-20l-93 -10c-86 0 -141 102 -195 223l-34 76c-7 -1 -13 -1 -20 -1h-138v-241l92 -17v-30h-269v30l92 18v552l-100 20v30h280c139 0 242 -55 242 -178c0 -70 -50 -134 -127 -161zM343 323c89 4 134 72 134 145c0 88 -46 137 -147 142
l-95 5v-296z" />
    <glyph glyph-name="S" unicode="S" horiz-adv-x="554" 
d="M275 -10c-48 0 -116 12 -172 42l-38 167l28 10c26 -92 77 -179 192 -179c93 0 127 59 127 104c0 77 -65 120 -142 160c-87 45 -164 89 -164 182c0 89 73 184 201 184c70 0 128 -27 150 -41v-137h-30c-8 72 -40 138 -128 138c-73 0 -113 -44 -113 -100
c0 -71 50 -106 123 -145c100 -53 180 -101 180 -202c0 -97 -75 -183 -214 -183z" />
    <glyph glyph-name="T" unicode="T" horiz-adv-x="693" 
d="M648 660l15 -201l-25 -7l-56 149l-193 9v-562l122 -18v-30h-329v30l122 19v561l-193 -9l-56 -149l-25 7l15 201c95 -10 249 -10 259 -10h85c10 0 164 0 259 10z" />
    <glyph glyph-name="U" unicode="U" horiz-adv-x="824" 
d="M524 650h250v-30l-100 -19v-372c0 -151 -107 -239 -247 -239c-192 0 -285 106 -285 280v332l-92 18v30h269v-30l-92 -17v-323c0 -194 118 -230 210 -230c103 0 187 56 187 190v360l-100 20v30z" />
    <glyph glyph-name="V" unicode="V" horiz-adv-x="695" 
d="M690 650v-30l-71 -17l-241 -603l-59 -10l-237 615l-77 15v30h269v-30l-100 -19l193 -508l200 508l-96 19v30h219z" />
    <glyph glyph-name="a" unicode="a" horiz-adv-x="502" 
d="M471 69l6 -18l-74 -56c-55 0 -80 24 -90 64l-144 -69c-88 0 -119 62 -119 116c0 23 8 66 16 86l244 82v54c0 100 -38 126 -115 126c-46 0 -50 -33 -50 -120c-25 -5 -80 -14 -80 23c0 76 133 153 178 153c97 0 150 -46 148 -175l-4 -250c0 -16 5 -24 37 -24
c19 0 36 4 47 8zM307 87l3 156l-170 -67c-2 -9 -3 -45 -3 -54c0 -34 13 -65 55 -65c35 0 90 19 115 30z" />
    <glyph glyph-name="b" unicode="b" horiz-adv-x="543" 
d="M287 510c90 0 216 -57 216 -246c0 -148 -97 -274 -231 -274c-129 0 -196 101 -196 101v537l-71 30v15l136 37h15v-266zM289 27c75 0 128 68 128 205c0 147 -66 214 -139 214c-38 0 -103 -26 -122 -34v-197c0 -117 45 -188 133 -188z" />
    <glyph glyph-name="c" unicode="c" horiz-adv-x="456" 
d="M283 510c88 0 131 -42 131 -83c0 -32 -29 -52 -82 -52c0 52 -6 98 -68 98c-52 0 -141 -40 -141 -199c0 -155 67 -226 176 -226c36 0 81 12 107 24l10 -20c-29 -25 -75 -62 -164 -62c-104 0 -212 85 -212 242c0 153 104 278 243 278z" />
    <glyph glyph-name="d" unicode="d" horiz-adv-x="563" 
d="M467 72l71 -30v-15l-136 -37h-15v66l-131 -66c-90 0 -216 57 -216 246c0 148 97 274 231 274c56 0 92 -21 116 -44v162l-71 30v15l136 37h15v-638zM126 268c0 -147 66 -214 139 -214c38 0 103 26 122 34v197c0 117 -45 188 -133 188c-75 0 -128 -68 -128 -205z" />
    <glyph glyph-name="e" unicode="e" horiz-adv-x="458" 
d="M289 48c46 0 91 12 117 24l10 -20c-29 -23 -88 -62 -162 -62c-111 0 -214 85 -214 242c0 158 94 278 220 278c85 0 158 -50 158 -182l-291 8c-2 -19 -4 -39 -4 -62c0 -155 72 -226 166 -226zM251 475c-38 0 -94 -23 -117 -109h191c-1 78 -27 109 -74 109z" />
    <glyph glyph-name="f" unicode="f" horiz-adv-x="360" 
d="M339 710c88 0 131 -42 131 -83c0 -32 -29 -52 -82 -52c0 52 -6 98 -68 98c-52 0 -122 -40 -122 -174v-19h148v-50h-148v-393l62 -12v-25h-200v30l58 15v385h-73v25l73 15c6 123 87 240 221 240z" />
    <glyph glyph-name="g" unicode="g" horiz-adv-x="482" 
d="M455 448c-37 8 -75 11 -114 11c26 -26 42 -61 42 -101c0 -89 -81 -151 -168 -151c-10 0 -20 1 -29 2c-24 -5 -67 -30 -67 -67c0 -31 22 -47 72 -47h158c34 0 92 -28 92 -103c0 -151 -165 -202 -257 -202c-82 0 -159 36 -159 114c0 55 42 87 96 118c-45 14 -74 45 -74 85
c0 56 50 89 103 111c-59 22 -104 74 -104 140c0 89 81 151 169 151c33 0 65 -9 92 -24c43 12 91 25 118 25c30 0 37 -12 37 -30c0 -6 -1 -17 -7 -32zM215 242c53 0 83 40 83 116s-30 116 -83 116c-54 0 -84 -40 -84 -116s30 -116 84 -116zM304 15h-133c-11 0 -23 1 -33 3
c-27 -21 -36 -44 -36 -87c0 -39 25 -90 115 -90c129 0 173 63 173 125c0 44 -28 49 -86 49z" />
    <glyph glyph-name="h" unicode="h" horiz-adv-x="555" 
d="M469 37l61 -12v-25h-200v30l59 16v291c0 70 -11 109 -81 109c-46 0 -113 -26 -132 -34v-375l61 -12v-25h-200v30l59 16v582l-71 30v15l136 37h15v-266l131 66c110 0 162 -37 162 -156v-317z" />
    <glyph glyph-name="i" unicode="i" horiz-adv-x="281" 
d="M147 614c-34 0 -60 29 -60 66c0 36 26 65 60 65c33 0 59 -29 59 -65c0 -37 -26 -66 -59 -66zM173 37l60 -12v-25h-200v30l60 16v382l-71 30v15l136 37h15v-473z" />
    <glyph glyph-name="j" unicode="j" horiz-adv-x="287" 
d="M153 745c33 0 59 -29 59 -65c0 -37 -26 -66 -59 -66c-34 0 -60 29 -60 66c0 36 26 65 60 65zM41 473l136 37h15v-544c0 -119 -82 -166 -169 -176l-3 25c71 28 92 58 92 158v455l-71 30v15z" />
    <glyph glyph-name="l" unicode="l" horiz-adv-x="261" 
d="M176 37l60 -12v-25h-200v30l60 16v582l-71 30v15l136 37h15v-673z" />
    <glyph glyph-name="m" unicode="m" horiz-adv-x="843" 
d="M757 37l61 -12v-25h-200v30l59 16v291c0 70 -11 109 -81 109c-41 0 -107 -25 -135 -36c3 -16 5 -35 5 -56v-317l61 -12v-25h-200v30l59 16v291c0 70 -11 109 -81 109c-46 0 -113 -26 -132 -34v-375l61 -12v-25h-200v30l59 16v378l-61 34v15l126 37h15v-66l131 66
c78 0 127 -19 149 -72l142 72c110 0 162 -37 162 -156v-317z" />
    <glyph glyph-name="n" unicode="n" horiz-adv-x="552" 
d="M466 37l61 -12v-25h-200v30l59 16v291c0 70 -11 109 -81 109c-46 0 -113 -26 -132 -34v-375l61 -12v-25h-200v30l59 16v378l-61 34v15l126 37h15v-66l131 66c110 0 162 -37 162 -156v-317z" />
    <glyph glyph-name="o" unicode="o" horiz-adv-x="531" 
d="M266 -11c-127 0 -226 100 -226 261c0 160 99 260 226 260c126 0 225 -100 225 -260c0 -161 -99 -261 -225 -261zM266 24c86 0 135 85 135 226c0 140 -49 225 -135 225c-87 0 -136 -85 -136 -225c0 -141 49 -226 136 -226z" />
    <glyph glyph-name="p" unicode="p" horiz-adv-x="561" 
d="M290 -10c-53 0 -90 20 -116 44v-185l140 -19v-30h-309v30l89 20v578l-71 30v15l136 37h15v-66l131 66c90 0 216 -57 216 -246c0 -148 -97 -274 -231 -274zM296 446c-38 0 -103 -26 -122 -34v-197c0 -117 45 -188 133 -188c75 0 128 68 128 205c0 147 -66 214 -139 214z
" />
    <glyph glyph-name="q" unicode="q" horiz-adv-x="551" 
d="M467 -150l99 -20v-30h-301v30l122 18v208l-131 -66c-90 0 -216 57 -216 246c0 148 97 274 231 274c70 0 110 -30 132 -57l39 57h25v-660zM265 54c38 0 103 26 122 34v197c0 117 -45 188 -133 188c-75 0 -128 -68 -128 -205c0 -147 66 -214 139 -214z" />
    <glyph glyph-name="r" unicode="r" horiz-adv-x="394" 
d="M297 510c33 0 72 -18 72 -65c0 -34 -18 -59 -60 -69c-4 35 -17 51 -47 51c-32 0 -75 -34 -89 -46v-344l61 -12v-25h-200v30l59 16v378l-61 34v15l126 37h15v-95z" />
    <glyph glyph-name="s" unicode="s" horiz-adv-x="411" 
d="M209 -10c-53 0 -90 10 -143 25l-16 146l25 7c16 -70 64 -143 140 -143c49 0 73 33 73 73c0 54 -43 86 -96 114c-60 32 -117 73 -117 155c0 72 55 143 151 143c48 0 83 -15 102 -24v-124h-25c-5 50 -25 113 -87 113c-43 0 -72 -34 -72 -79s29 -76 79 -103
c80 -43 138 -90 138 -170c0 -77 -66 -133 -152 -133z" />
    <glyph glyph-name="t" unicode="t" horiz-adv-x="365" 
d="M238 54c29 0 67 8 82 13l6 -18l-109 -59c-40 0 -122 26 -122 96v364h-70v15l135 130h15v-95h160c0 -17 -5 -30 -20 -50h-140v-336c0 -50 24 -60 63 -60z" />
    <glyph glyph-name="u" unicode="u" horiz-adv-x="544" 
d="M448 72l71 -30v-15l-136 -37h-15v66l-131 -66c-100 0 -162 37 -162 156v354h80v-337c0 -70 11 -109 81 -109c46 0 113 26 132 34v340l-71 30v15l136 37h15v-438z" />
    <glyph glyph-name="v" unicode="v" horiz-adv-x="498" 
d="M498 500v-30l-52 -16l-197 -459h-15l-190 471l-44 9v25h205v-30l-65 -18l124 -324l134 333l-88 14v25h188z" />
    <glyph glyph-name="x" unicode="x" horiz-adv-x="479" 
d="M404 452l-126 -195l136 -221l40 -11v-25h-208v30l71 17l-100 162l-92 -170l58 -14v-25h-158v30l54 19l117 194l-138 223l-33 9v25h208v-30l-76 -18l100 -162l100 171l-51 14v25h148v-30z" />
    <glyph glyph-name="y" unicode="y" horiz-adv-x="511" 
d="M511 500v-30l-52 -16l-191 -458l-46 -172c-7 -27 -17 -34 -30 -34c-19 0 -40 19 -55 39l97 191l-185 445l-49 10v25h218v-30l-72 -20l131 -332l134 343l-88 14v25h188z" />
    <glyph glyph-name="Z" unicode="Z" horiz-adv-x="647" 
d="M578 186l29 -9l-44 -177h-515l-8 13l405 596l-303 -8l-56 -139l-25 7l15 191c95 -10 248 -10 397 -10h2h77l8 -13l-405 -596l346 13z" />
    <glyph glyph-name="Aacute" unicode="&#xc1;" horiz-adv-x="726" 
d="M542 842l-229 -116l-13 21l148 126c56 48 84 -5 94 -31zM643 45l73 -15v-30h-259v30l94 19l-65 173h-280l-69 -174l95 -18v-30h-227v30l79 20l245 589l-8 21l81 25zM224 267h245l-120 318z" />
    <glyph glyph-name="Abreve" unicode="&#x102;" horiz-adv-x="726" 
d="M373 730c-86 0 -123 60 -133 170l23 3c22 -72 47 -103 110 -103c62 0 87 31 109 103l23 -3c-10 -110 -47 -170 -132 -170zM643 45l73 -15v-30h-259v30l94 19l-65 173h-280l-69 -174l95 -18v-30h-227v30l79 20l245 589l-8 21l81 25zM224 267h245l-120 318z" />
    <glyph glyph-name="Acircumflex" unicode="&#xc2;" horiz-adv-x="726" 
d="M373 816l-119 -90l-20 12l131 167h15l132 -167l-19 -12zM643 45l73 -15v-30h-259v30l94 19l-65 173h-280l-69 -174l95 -18v-30h-227v30l79 20l245 589l-8 21l81 25zM224 267h245l-120 318z" />
    <glyph glyph-name="Adieresis" unicode="&#xc4;" horiz-adv-x="726" 
d="M273 750c-31 0 -55 26 -55 60c0 33 24 59 55 59c30 0 54 -26 54 -59c0 -34 -24 -60 -54 -60zM473 750c-31 0 -55 26 -55 60c0 33 24 59 55 59c30 0 54 -26 54 -59c0 -34 -24 -60 -54 -60zM643 45l73 -15v-30h-259v30l94 19l-65 173h-280l-69 -174l95 -18v-30h-227v30
l79 20l245 589l-8 21l81 25zM224 267h245l-120 318z" />
    <glyph glyph-name="Agrave" unicode="&#xc0;" horiz-adv-x="726" 
d="M456 747l-13 -21l-229 116c10 26 38 79 94 31zM643 45l73 -15v-30h-259v30l94 19l-65 173h-280l-69 -174l95 -18v-30h-227v30l79 20l245 589l-8 21l81 25zM224 267h245l-120 318z" />
    <glyph glyph-name="Amacron" unicode="&#x100;" horiz-adv-x="726" 
d="M553 800v-50h-360v50h360zM643 45l73 -15v-30h-259v30l94 19l-65 173h-280l-69 -174l95 -18v-30h-227v30l79 20l245 589l-8 21l81 25zM224 267h245l-120 318z" />
    <glyph glyph-name="Aogonek" unicode="&#x104;" horiz-adv-x="726" 
d="M616 0c-48 -39 -74 -71 -74 -108c0 -21 13 -40 53 -40c27 0 53 8 70 15l6 -18c-23 -20 -57 -49 -116 -49c-40 0 -75 22 -75 74c0 47 53 95 96 126h-119v30l94 19l-65 173h-280l-69 -174l95 -18v-30h-227v30l79 20l245 589l-8 21l81 25l241 -640l73 -15v-30h-100zM224 267
h245l-120 318z" />
    <glyph glyph-name="Aring" unicode="&#xc5;" horiz-adv-x="726" 
d="M373 725c-61 0 -103 35 -103 96c0 55 42 95 103 95c60 0 102 -40 102 -95c0 -61 -42 -96 -102 -96zM373 882c-33 0 -58 -18 -58 -61c0 -49 25 -62 58 -62c32 0 57 13 57 62c0 43 -25 61 -57 61zM643 45l73 -15v-30h-259v30l94 19l-65 173h-280l-69 -174l95 -18v-30h-227
v30l79 20l245 589l-8 21l81 25zM224 267h245l-120 318z" />
    <glyph glyph-name="Atilde" unicode="&#xc3;" horiz-adv-x="726" 
d="M269 815l-48 -83l-19 7c10 74 44 129 85 129c50 0 148 -59 178 -59l60 72l19 -7c-10 -69 -45 -124 -89 -124c-60 0 -156 65 -186 65zM643 45l73 -15v-30h-259v30l94 19l-65 173h-280l-69 -174l95 -18v-30h-227v30l79 20l245 589l-8 21l81 25zM224 267h245l-120 318z" />
    <glyph glyph-name="AE" unicode="&#xc6;" horiz-adv-x="961" 
d="M892 186l29 -9l-44 -177h-525v30l92 18v174h-211l-97 -174l96 -18v-30h-227v30l77 19l323 560l-53 11v30h177c50 0 224 0 319 10l15 -171l-25 -7l-56 119l-253 9v-260l203 3l19 74h30v-190h-30l-19 70l-203 3v-237c27 -26 60 -33 131 -33c45 0 100 6 155 14zM258 267h186
v331z" />
    <glyph glyph-name="Cacute" unicode="&#x106;" horiz-adv-x="741" 
d="M355 726l-13 21l148 126c56 48 84 -5 94 -31zM416 660c118 0 194 -47 216 -61v-159h-30c-8 92 -47 180 -180 180c-141 0 -267 -99 -267 -292c0 -178 108 -298 266 -298c135 0 178 89 222 181l28 -10l-58 -169c-56 -30 -144 -42 -205 -42c-209 0 -353 142 -353 331
c0 200 161 339 361 339z" />
    <glyph glyph-name="Ccaron" unicode="&#x10c;" horiz-adv-x="741" 
d="M554 893l-132 -167h-15l-131 167l20 12l119 -90l120 90zM416 660c118 0 194 -47 216 -61v-159h-30c-8 92 -47 180 -180 180c-141 0 -267 -99 -267 -292c0 -178 108 -298 266 -298c135 0 178 89 222 181l28 -10l-58 -169c-56 -30 -144 -42 -205 -42
c-209 0 -353 142 -353 331c0 200 161 339 361 339z" />
    <glyph glyph-name="Ccedilla" unicode="&#xc7;" horiz-adv-x="741" 
d="M408 -10h-6l-20 -54c59 -14 99 -37 99 -82c0 -73 -82 -104 -146 -104l-6 24c70 13 97 36 97 63s-30 39 -100 54l40 101c-186 18 -311 153 -311 329c0 200 161 339 361 339c118 0 194 -47 216 -61v-159h-30c-8 92 -47 180 -180 180c-141 0 -267 -99 -267 -292
c0 -178 108 -298 266 -298c135 0 178 89 222 181l28 -10l-58 -169c-56 -30 -144 -42 -205 -42z" />
    <glyph glyph-name="Cdotaccent" unicode="&#x10a;" horiz-adv-x="741" 
d="M415 754c-34 0 -60 29 -60 66c0 36 26 65 60 65c33 0 59 -29 59 -65c0 -37 -26 -66 -59 -66zM416 660c118 0 194 -47 216 -61v-159h-30c-8 92 -47 180 -180 180c-141 0 -267 -99 -267 -292c0 -178 108 -298 266 -298c135 0 178 89 222 181l28 -10l-58 -169
c-56 -30 -144 -42 -205 -42c-209 0 -353 142 -353 331c0 200 161 339 361 339z" />
    <glyph glyph-name="Eth" unicode="&#xd0;" horiz-adv-x="759" 
d="M343 650c200 0 361 -129 361 -329c0 -189 -144 -321 -353 -321h-301v30l92 18v259h-96v40h96v255l-92 18v30h293zM348 40c148 0 256 110 256 288c0 193 -126 282 -277 282c-38 0 -73 -2 -100 -6v-257h175v-40h-175v-234c27 -26 58 -33 121 -33z" />
    <glyph glyph-name="Dcaron" unicode="&#x10e;" horiz-adv-x="759" 
d="M363 726h-15l-131 167l20 12l119 -90l120 90l19 -12zM343 650c200 0 361 -129 361 -329c0 -189 -144 -321 -353 -321h-301v30l92 18v554l-92 18v30h293zM348 40c148 0 256 110 256 288c0 193 -126 282 -277 282c-38 0 -73 -2 -100 -6v-531c27 -26 58 -33 121 -33z" />
    <glyph glyph-name="Dcroat" unicode="&#x110;" horiz-adv-x="759" 
d="M343 650c200 0 361 -129 361 -329c0 -189 -144 -321 -353 -321h-301v30l92 18v259h-96v40h96v255l-92 18v30h293zM348 40c148 0 256 110 256 288c0 193 -126 282 -277 282c-38 0 -73 -2 -100 -6v-257h175v-40h-175v-234c27 -26 58 -33 121 -33z" />
    <glyph glyph-name="Eacute" unicode="&#xc9;" horiz-adv-x="659" 
d="M505 842l-229 -116l-13 21l148 126c56 48 84 -5 94 -31zM590 186l29 -9l-44 -177h-525v30l92 18v554l-92 18v30h177c50 0 224 0 319 10l15 -171l-25 -7l-56 119l-253 9v-260l203 3l19 74h30v-190h-30l-19 70l-203 3v-237c27 -26 60 -33 131 -33c45 0 100 6 155 14z" />
    <glyph glyph-name="Ecaron" unicode="&#x11a;" horiz-adv-x="659" 
d="M343 726h-15l-131 167l20 12l119 -90l120 90l19 -12zM590 186l29 -9l-44 -177h-525v30l92 18v554l-92 18v30h177c50 0 224 0 319 10l15 -171l-25 -7l-56 119l-253 9v-260l203 3l19 74h30v-190h-30l-19 70l-203 3v-237c27 -26 60 -33 131 -33c45 0 100 6 155 14z" />
    <glyph glyph-name="Ecircumflex" unicode="&#xca;" horiz-adv-x="659" 
d="M336 816l-119 -90l-20 12l131 167h15l132 -167l-19 -12zM590 186l29 -9l-44 -177h-525v30l92 18v554l-92 18v30h177c50 0 224 0 319 10l15 -171l-25 -7l-56 119l-253 9v-260l203 3l19 74h30v-190h-30l-19 70l-203 3v-237c27 -26 60 -33 131 -33c45 0 100 6 155 14z" />
    <glyph glyph-name="Edieresis" unicode="&#xcb;" horiz-adv-x="659" 
d="M236 750c-31 0 -55 26 -55 60c0 33 24 59 55 59c30 0 54 -26 54 -59c0 -34 -24 -60 -54 -60zM436 750c-31 0 -55 26 -55 60c0 33 24 59 55 59c30 0 54 -26 54 -59c0 -34 -24 -60 -54 -60zM590 186l29 -9l-44 -177h-525v30l92 18v554l-92 18v30h177c50 0 224 0 319 10
l15 -171l-25 -7l-56 119l-253 9v-260l203 3l19 74h30v-190h-30l-19 70l-203 3v-237c27 -26 60 -33 131 -33c45 0 100 6 155 14z" />
    <glyph glyph-name="Edotaccent" unicode="&#x116;" horiz-adv-x="659" 
d="M336 754c-34 0 -60 29 -60 66c0 36 26 65 60 65c33 0 59 -29 59 -65c0 -37 -26 -66 -59 -66zM590 186l29 -9l-44 -177h-525v30l92 18v554l-92 18v30h177c50 0 224 0 319 10l15 -171l-25 -7l-56 119l-253 9v-260l203 3l19 74h30v-190h-30l-19 70l-203 3v-237
c27 -26 60 -33 131 -33c45 0 100 6 155 14z" />
    <glyph glyph-name="Egrave" unicode="&#xc8;" horiz-adv-x="659" 
d="M419 747l-13 -21l-229 116c10 26 38 79 94 31zM590 186l29 -9l-44 -177h-525v30l92 18v554l-92 18v30h177c50 0 224 0 319 10l15 -171l-25 -7l-56 119l-253 9v-260l203 3l19 74h30v-190h-30l-19 70l-203 3v-237c27 -26 60 -33 131 -33c45 0 100 6 155 14z" />
    <glyph glyph-name="Emacron" unicode="&#x112;" horiz-adv-x="659" 
d="M516 800v-50h-360v50h360zM590 186l29 -9l-44 -177h-525v30l92 18v554l-92 18v30h177c50 0 224 0 319 10l15 -171l-25 -7l-56 119l-253 9v-260l203 3l19 74h30v-190h-30l-19 70l-203 3v-237c27 -26 60 -33 131 -33c45 0 100 6 155 14z" />
    <glyph glyph-name="Eogonek" unicode="&#x118;" horiz-adv-x="659" 
d="M542 -158c27 0 53 8 70 15l6 -18c-23 -20 -57 -49 -116 -49c-40 0 -75 22 -75 74c0 53 66 106 111 136h-488v30l92 18v554l-92 18v30h177c50 0 224 0 319 10l15 -171l-25 -7l-56 119l-253 9v-260l203 3l19 74h30v-190h-30l-19 70l-203 3v-237c27 -26 60 -33 131 -33
c45 0 100 6 155 14l77 132l29 -9l-44 -177c-55 -44 -86 -78 -86 -118c0 -21 13 -40 53 -40z" />
    <glyph glyph-name="Gbreve" unicode="&#x11e;" horiz-adv-x="768" 
d="M389 740c-86 0 -123 60 -133 170l23 3c22 -72 47 -103 110 -103c62 0 87 31 109 103l23 -3c-10 -110 -47 -170 -132 -170zM718 316v-30l-64 -16v-280h-15l-34 44c-62 -25 -120 -44 -197 -44c-209 0 -353 142 -353 331c0 200 161 339 361 339c120 0 198 -47 220 -61v-159
h-30c-8 92 -49 180 -184 180c-141 0 -267 -99 -267 -292c0 -178 108 -298 266 -298c64 0 108 10 148 25v212l-100 19v30h249z" />
    <glyph glyph-name="uni0122" unicode="&#x122;" horiz-adv-x="768" 
d="M718 316v-30l-64 -16v-280h-15l-34 44c-62 -25 -120 -44 -197 -44c-209 0 -353 142 -353 331c0 200 161 339 361 339c120 0 198 -47 220 -61v-159h-30c-8 92 -49 180 -184 180c-141 0 -267 -99 -267 -292c0 -178 108 -298 266 -298c64 0 108 10 148 25v212l-100 19v30
h249zM390 -66c38 0 65 -24 65 -65c0 -56 -46 -91 -85 -119l-19 18c23 19 48 41 48 65c0 27 -36 36 -77 36c0 38 28 65 68 65z" />
    <glyph glyph-name="Gdotaccent" unicode="&#x120;" horiz-adv-x="768" 
d="M389 764c-34 0 -60 29 -60 66c0 36 26 65 60 65c33 0 59 -29 59 -65c0 -37 -26 -66 -59 -66zM718 316v-30l-64 -16v-280h-15l-34 44c-62 -25 -120 -44 -197 -44c-209 0 -353 142 -353 331c0 200 161 339 361 339c120 0 198 -47 220 -61v-159h-30c-8 92 -49 180 -184 180
c-141 0 -267 -99 -267 -292c0 -178 108 -298 266 -298c64 0 108 10 148 25v212l-100 19v30h249z" />
    <glyph glyph-name="Hbar" unicode="&#x126;" horiz-adv-x="800" 
d="M790 620l-92 -17v-103h52v-40h-52v-413l92 -17v-30h-269v30l92 18v265h-386v-266l92 -17v-30h-269v30l92 18v412h-92v40h92v102l-92 18v30h269v-30l-92 -17v-103h386v102l-92 18v30h269v-30zM613 358v102h-386v-102h386z" />
    <glyph glyph-name="Iacute" unicode="&#xcd;" horiz-adv-x="369" 
d="M353 842l-229 -116l-13 21l148 126c56 48 84 -5 94 -31zM319 650v-30l-92 -17v-556l92 -17v-30h-269v30l92 18v554l-92 18v30h269z" />
    <glyph glyph-name="Icircumflex" unicode="&#xce;" horiz-adv-x="369" 
d="M184 816l-119 -90l-20 12l131 167h15l132 -167l-19 -12zM319 650v-30l-92 -17v-556l92 -17v-30h-269v30l92 18v554l-92 18v30h269z" />
    <glyph glyph-name="Idieresis" unicode="&#xcf;" horiz-adv-x="369" 
d="M138 810c0 -34 -24 -60 -54 -60c-31 0 -55 26 -55 60c0 33 24 59 55 59c30 0 54 -26 54 -59zM284 869c30 0 54 -26 54 -59c0 -34 -24 -60 -54 -60c-31 0 -55 26 -55 60c0 33 24 59 55 59zM319 650v-30l-92 -17v-556l92 -17v-30h-269v30l92 18v554l-92 18v30h269z" />
    <glyph glyph-name="Idotaccent" unicode="&#x130;" horiz-adv-x="369" 
d="M184 754c-34 0 -60 29 -60 66c0 36 26 65 60 65c33 0 59 -29 59 -65c0 -37 -26 -66 -59 -66zM319 620l-92 -17v-556l92 -17v-30h-269v30l92 18v554l-92 18v30h269v-30z" />
    <glyph glyph-name="Igrave" unicode="&#xcc;" horiz-adv-x="369" 
d="M267 747l-13 -21l-229 116c10 26 38 79 94 31zM319 620l-92 -17v-556l92 -17v-30h-269v30l92 18v554l-92 18v30h269v-30z" />
    <glyph glyph-name="Imacron" unicode="&#x12a;" horiz-adv-x="369" 
d="M4 800h360v-50h-360v50zM319 650v-30l-92 -17v-556l92 -17v-30h-269v30l92 18v554l-92 18v30h269z" />
    <glyph glyph-name="Iogonek" unicode="&#x12e;" horiz-adv-x="369" 
d="M319 620l-92 -17v-556l92 -17v-30h-95c-55 -44 -86 -78 -86 -118c0 -21 13 -40 53 -40c27 0 53 8 70 15l6 -18c-23 -20 -57 -49 -116 -49c-40 0 -75 22 -75 74c0 53 66 106 111 136h-137v30l92 18v554l-92 18v30h269v-30z" />
    <glyph glyph-name="uni0136" unicode="&#x136;" horiz-adv-x="688" 
d="M409 244c108 -116 213 -222 279 -224v-20l-83 -10c-89 0 -187 128 -248 208l-83 110l-47 2v-263l92 -17v-30h-269v30l92 18v554l-92 18v30h269v-30l-92 -17v-253l38 1l251 251l-88 18v30h229v-30l-63 -14l-280 -260zM367 -66c38 0 65 -24 65 -65c0 -56 -46 -91 -85 -119
l-19 18c23 19 48 41 48 65c0 27 -36 36 -77 36c0 38 28 65 68 65z" />
    <glyph glyph-name="Lacute" unicode="&#x139;" horiz-adv-x="649" 
d="M352 852l-229 -116l-13 21l148 126c56 48 84 -5 94 -31zM590 186l29 -9l-47 -187c-124 10 -251 10 -378 10h-144v30l92 18v554l-92 18v30h269v-30l-92 -17v-530c27 -26 60 -33 131 -33c45 0 100 6 155 14z" />
    <glyph glyph-name="Lcaron" unicode="&#x13d;" horiz-adv-x="649" 
d="M488 548c0 41 -24 54 -67 54c0 36 31 58 63 58c44 0 60 -31 60 -73c0 -48 -33 -102 -52 -127l-21 11c14 31 17 64 17 77zM590 186l29 -9l-47 -187c-124 10 -251 10 -378 10h-144v30l92 18v554l-92 18v30h269v-30l-92 -17v-530c27 -26 60 -33 131 -33c45 0 100 6 155 14z
" />
    <glyph glyph-name="uni013B" unicode="&#x13b;" horiz-adv-x="649" 
d="M590 186l29 -9l-47 -187c-124 10 -251 10 -378 10h-144v30l92 18v554l-92 18v30h269v-30l-92 -17v-530c27 -26 60 -33 131 -33c45 0 100 6 155 14zM354 -66c38 0 65 -24 65 -65c0 -56 -46 -91 -85 -119l-19 18c23 19 48 41 48 65c0 27 -36 36 -77 36c0 38 28 65 68 65z
" />
    <glyph glyph-name="Lslash" unicode="&#x141;" horiz-adv-x="649" 
d="M590 186l29 -9l-47 -187c-124 10 -251 10 -378 10h-144v30l92 18v205l-63 -63l-28 28l91 91v293l-92 18v30h269v-30l-92 -17v-208l75 75l29 -29l-104 -104v-264c27 -26 60 -33 131 -33c45 0 100 6 155 14z" />
    <glyph glyph-name="Nacute" unicode="&#x143;" horiz-adv-x="834" 
d="M587 842l-229 -116l-13 21l148 126c56 48 84 -5 94 -31zM799 650v-30l-101 -20l-7 -610h-15l-471 547l6 -488l133 -19v-30h-284v30l101 20l6 531c-27 29 -51 43 -117 49v20h171l432 -506l-5 457l-123 19v30h274z" />
    <glyph glyph-name="Ncaron" unicode="&#x147;" horiz-adv-x="834" 
d="M425 726h-15l-131 167l20 12l119 -90l120 90l19 -12zM799 650v-30l-101 -20l-7 -610h-15l-471 547l6 -488l133 -19v-30h-284v30l101 20l6 531c-27 29 -51 43 -117 49v20h171l432 -506l-5 457l-123 19v30h274z" />
    <glyph glyph-name="uni0145" unicode="&#x145;" horiz-adv-x="834" 
d="M799 650v-30l-101 -20l-7 -610h-15l-471 547l6 -488l133 -19v-30h-284v30l101 20l6 531c-27 29 -51 43 -117 49v20h171l432 -506l-5 457l-123 19v30h274zM419 -66c38 0 65 -24 65 -65c0 -56 -46 -91 -85 -119l-19 18c23 19 48 41 48 65c0 27 -36 36 -77 36
c0 38 28 65 68 65z" />
    <glyph glyph-name="Eng" unicode="&#x14a;" horiz-adv-x="834" 
d="M799 650v-30l-101 -20l-7 -610h-5v-24c0 -119 -82 -166 -169 -176l-3 25c91 28 112 58 112 158v75l-421 489l6 -488l133 -19v-30h-284v30l101 20l6 531c-27 29 -51 43 -117 49v20h171l432 -506l-5 457l-123 19v30h274z" />
    <glyph glyph-name="Ntilde" unicode="&#xd1;" horiz-adv-x="834" 
d="M314 815l-48 -83l-19 7c10 74 44 129 85 129c50 0 148 -59 178 -59l60 72l19 -7c-10 -69 -45 -124 -89 -124c-60 0 -156 65 -186 65zM799 650v-30l-101 -20l-7 -610h-15l-471 547l6 -488l133 -19v-30h-284v30l101 20l6 531c-27 29 -51 43 -117 49v20h171l432 -506l-5 457
l-123 19v30h274z" />
    <glyph glyph-name="Oacute" unicode="&#xd3;" horiz-adv-x="786" 
d="M329 736l-13 21l148 126c56 48 84 -5 94 -31zM393 -10c-194 0 -338 136 -338 331c0 188 144 339 338 339s338 -151 338 -339c0 -195 -144 -331 -338 -331zM393 30c153 0 238 131 238 298c0 179 -98 292 -238 292s-238 -113 -238 -292c0 -167 85 -298 238 -298z" />
    <glyph glyph-name="Ocircumflex" unicode="&#xd4;" horiz-adv-x="786" 
d="M270 736l-20 12l131 167h15l132 -167l-19 -12l-120 90zM393 -10c-194 0 -338 136 -338 331c0 188 144 339 338 339s338 -151 338 -339c0 -195 -144 -331 -338 -331zM393 30c153 0 238 131 238 298c0 179 -98 292 -238 292s-238 -113 -238 -292c0 -167 85 -298 238 -298z
" />
    <glyph glyph-name="Odieresis" unicode="&#xd6;" horiz-adv-x="786" 
d="M289 760c-31 0 -55 26 -55 60c0 33 24 59 55 59c30 0 54 -26 54 -59c0 -34 -24 -60 -54 -60zM489 760c-31 0 -55 26 -55 60c0 33 24 59 55 59c30 0 54 -26 54 -59c0 -34 -24 -60 -54 -60zM393 -10c-194 0 -338 136 -338 331c0 188 144 339 338 339s338 -151 338 -339
c0 -195 -144 -331 -338 -331zM393 30c153 0 238 131 238 298c0 179 -98 292 -238 292s-238 -113 -238 -292c0 -167 85 -298 238 -298z" />
    <glyph glyph-name="Ograve" unicode="&#xd2;" horiz-adv-x="786" 
d="M324 883l148 -126l-13 -21l-229 116c10 26 38 79 94 31zM393 -10c-194 0 -338 136 -338 331c0 188 144 339 338 339s338 -151 338 -339c0 -195 -144 -331 -338 -331zM393 30c153 0 238 131 238 298c0 179 -98 292 -238 292s-238 -113 -238 -292c0 -167 85 -298 238 -298z
" />
    <glyph glyph-name="Ohungarumlaut" unicode="&#x150;" horiz-adv-x="786" 
d="M256 736l-13 21l148 126c56 48 84 -5 94 -31zM466 736l-13 21l148 126c56 48 84 -5 94 -31zM393 -10c-194 0 -338 136 -338 331c0 188 144 339 338 339s338 -151 338 -339c0 -195 -144 -331 -338 -331zM393 30c153 0 238 131 238 298c0 179 -98 292 -238 292
s-238 -113 -238 -292c0 -167 85 -298 238 -298z" />
    <glyph glyph-name="Omacron" unicode="&#x14c;" horiz-adv-x="786" 
d="M569 810v-50h-360v50h360zM393 -10c-194 0 -338 136 -338 331c0 188 144 339 338 339s338 -151 338 -339c0 -195 -144 -331 -338 -331zM393 30c153 0 238 131 238 298c0 179 -98 292 -238 292s-238 -113 -238 -292c0 -167 85 -298 238 -298z" />
    <glyph glyph-name="Oslash" unicode="&#xd8;" horiz-adv-x="786" 
d="M568 613c99 -58 163 -167 163 -292c0 -195 -144 -331 -338 -331c-60 0 -116 13 -163 37l-76 -131l-39 23l76 131c-84 58 -136 154 -136 271c0 188 144 339 338 339c48 0 93 -9 134 -26l70 121l39 -23zM155 328c0 -88 24 -166 69 -221l279 485c-32 18 -69 28 -110 28
c-140 0 -238 -113 -238 -292zM393 30c153 0 238 131 238 298c0 105 -34 188 -91 238l-283 -491c36 -29 82 -45 136 -45z" />
    <glyph glyph-name="Otilde" unicode="&#xd5;" horiz-adv-x="786" 
d="M541 891l19 -7c-10 -69 -45 -124 -89 -124c-60 0 -156 65 -186 65l-48 -83l-19 7c10 74 44 129 85 129c50 0 148 -59 178 -59zM393 -10c-194 0 -338 136 -338 331c0 188 144 339 338 339s338 -151 338 -339c0 -195 -144 -331 -338 -331zM393 30c153 0 238 131 238 298
c0 179 -98 292 -238 292s-238 -113 -238 -292c0 -167 85 -298 238 -298z" />
    <glyph glyph-name="OE" unicode="&#x152;" horiz-adv-x="1048" 
d="M1008 177l-44 -177h-483c-28 -7 -57 -10 -88 -10c-194 0 -338 136 -338 331c0 188 144 339 338 339c29 0 58 -3 84 -10c221 0 372 1 458 10l15 -171l-25 -7l-56 119l-294 8c87 -55 145 -148 155 -257l69 1l19 74h30v-190h-30l-19 70l-68 1c-4 -106 -51 -194 -126 -251
c32 -11 76 -17 142 -17c45 0 100 6 155 14l77 132zM155 328c0 -167 85 -298 238 -298s238 131 238 298c0 179 -98 292 -238 292s-238 -113 -238 -292z" />
    <glyph glyph-name="Thorn" unicode="&#xde;" horiz-adv-x="632" 
d="M340 523c139 0 242 -65 242 -188s-103 -188 -242 -188h-113v-100l92 -17v-30h-269v30l92 18v554l-92 18v30h269v-30l-92 -17v-80h113zM340 187c101 4 147 64 147 148s-46 144 -147 148l-113 5v-306z" />
    <glyph glyph-name="Racute" unicode="&#x154;" horiz-adv-x="700" 
d="M491 842l-229 -116l-13 21l148 126c56 48 84 -5 94 -31zM488 237c81 -138 142 -215 227 -217v-20l-93 -10c-86 0 -141 102 -195 223l-34 76c-7 -1 -13 -1 -20 -1h-138v-241l92 -17v-30h-269v30l92 18v552l-100 20v30h280c139 0 242 -55 242 -178
c0 -70 -50 -134 -127 -161zM343 323c89 4 134 72 134 145c0 88 -46 137 -147 142l-95 5v-296z" />
    <glyph glyph-name="Rcaron" unicode="&#x158;" horiz-adv-x="700" 
d="M329 726h-15l-131 167l20 12l119 -90l120 90l19 -12zM488 237c81 -138 142 -215 227 -217v-20l-93 -10c-86 0 -141 102 -195 223l-34 76c-7 -1 -13 -1 -20 -1h-138v-241l92 -17v-30h-269v30l92 18v552l-100 20v30h280c139 0 242 -55 242 -178c0 -70 -50 -134 -127 -161z
M343 323c89 4 134 72 134 145c0 88 -46 137 -147 142l-95 5v-296z" />
    <glyph glyph-name="uni0156" unicode="&#x156;" horiz-adv-x="700" 
d="M488 237c81 -138 142 -215 227 -217v-20l-93 -10c-86 0 -141 102 -195 223l-34 76c-7 -1 -13 -1 -20 -1h-138v-241l92 -17v-30h-269v30l92 18v552l-100 20v30h280c139 0 242 -55 242 -178c0 -70 -50 -134 -127 -161zM343 323c89 4 134 72 134 145c0 88 -46 137 -147 142
l-95 5v-296zM373 -66c38 0 65 -24 65 -65c0 -56 -46 -91 -85 -119l-19 18c23 19 48 41 48 65c0 27 -36 36 -77 36c0 38 28 65 68 65z" />
    <glyph glyph-name="Sacute" unicode="&#x15a;" horiz-adv-x="554" 
d="M246 726l-13 21l148 126c56 48 84 -5 94 -31zM275 -10c-48 0 -116 12 -172 42l-38 167l28 10c26 -92 77 -179 192 -179c93 0 127 59 127 104c0 77 -65 120 -142 160c-87 45 -164 89 -164 182c0 89 73 184 201 184c70 0 128 -27 150 -41v-137h-30c-8 72 -40 138 -128 138
c-73 0 -113 -44 -113 -100c0 -71 50 -106 123 -145c100 -53 180 -101 180 -202c0 -97 -75 -183 -214 -183z" />
    <glyph glyph-name="Scaron" unicode="&#x160;" horiz-adv-x="554" 
d="M445 893l-132 -167h-15l-131 167l20 12l119 -90l120 90zM275 -10c-48 0 -116 12 -172 42l-38 167l28 10c26 -92 77 -179 192 -179c93 0 127 59 127 104c0 77 -65 120 -142 160c-87 45 -164 89 -164 182c0 89 73 184 201 184c70 0 128 -27 150 -41v-137h-30
c-8 72 -40 138 -128 138c-73 0 -113 -44 -113 -100c0 -71 50 -106 123 -145c100 -53 180 -101 180 -202c0 -97 -75 -183 -214 -183z" />
    <glyph glyph-name="Scedilla" unicode="&#x15e;" horiz-adv-x="554" 
d="M489 173c0 -89 -64 -169 -182 -181l-21 -56c59 -14 99 -37 99 -82c0 -73 -82 -104 -146 -104l-6 24c70 13 97 36 97 63s-30 39 -100 54l39 99c-48 1 -112 13 -166 42l-38 167l28 10c26 -92 77 -179 192 -179c93 0 127 59 127 104c0 77 -65 120 -142 160
c-87 45 -164 89 -164 182c0 89 73 184 201 184c70 0 128 -27 150 -41v-137h-30c-8 72 -40 138 -128 138c-73 0 -113 -44 -113 -100c0 -71 50 -106 123 -145c100 -53 180 -101 180 -202z" />
    <glyph glyph-name="uni0218" unicode="&#x218;" horiz-adv-x="554" 
d="M275 -10c-48 0 -116 12 -172 42l-38 167l28 10c26 -92 77 -179 192 -179c93 0 127 59 127 104c0 77 -65 120 -142 160c-87 45 -164 89 -164 182c0 89 73 184 201 184c70 0 128 -27 150 -41v-137h-30c-8 72 -40 138 -128 138c-73 0 -113 -44 -113 -100
c0 -71 50 -106 123 -145c100 -53 180 -101 180 -202c0 -97 -75 -183 -214 -183zM290 -66c38 0 65 -24 65 -65c0 -56 -46 -91 -85 -119l-19 18c23 19 48 41 48 65c0 27 -36 36 -77 36c0 38 28 65 68 65z" />
    <glyph glyph-name="uni1E9E" unicode="&#x1e9e;" horiz-adv-x="773" 
d="M507 366c133 -59 221 -116 221 -209c0 -91 -75 -167 -191 -167c-42 0 -99 12 -145 42l-38 167l28 10c26 -92 67 -179 162 -179c73 0 107 49 107 102c0 49 -36 95 -217 174l101 207c-9 63 -49 107 -133 107c-74 0 -180 -37 -180 -201v-372l92 -17v-30h-269v30l92 18v328
c0 138 98 284 275 284c94 0 163 -36 205 -84z" />
    <glyph glyph-name="Tbar" unicode="&#x166;" horiz-adv-x="693" 
d="M648 660l15 -201l-25 -7l-56 149l-193 9v-260h136v-40h-136v-262l122 -18v-30h-329v30l122 19v261h-135v40h135v260l-193 -9l-56 -149l-25 7l15 201c95 -10 249 -10 259 -10h85c10 0 164 0 259 10z" />
    <glyph glyph-name="Tcaron" unicode="&#x164;" horiz-adv-x="693" 
d="M354 736h-15l-131 167l20 12l119 -90l120 90l19 -12zM648 660l15 -201l-25 -7l-56 149l-193 9v-562l122 -18v-30h-329v30l122 19v561l-193 -9l-56 -149l-25 7l15 201c95 -10 249 -10 259 -10h85c10 0 164 0 259 10z" />
    <glyph glyph-name="uni0162" unicode="&#x162;" horiz-adv-x="693" 
d="M648 660l15 -201l-25 -7l-56 149l-193 9v-562l122 -18v-30h-143l-24 -64c59 -14 99 -37 99 -82c0 -73 -82 -104 -146 -104l-6 24c70 13 97 36 97 63s-30 39 -100 54l43 109h-149v30l122 19v561l-193 -9l-56 -149l-25 7l15 201c95 -10 249 -10 259 -10h85
c10 0 164 0 259 10z" />
    <glyph glyph-name="uni021A" unicode="&#x21a;" horiz-adv-x="693" 
d="M648 660l15 -201l-25 -7l-56 149l-193 9v-562l122 -18v-30h-329v30l122 19v561l-193 -9l-56 -149l-25 7l15 201c95 -10 249 -10 259 -10h85c10 0 164 0 259 10zM348 -66c38 0 65 -24 65 -65c0 -56 -46 -91 -85 -119l-19 18c23 19 48 41 48 65c0 27 -36 36 -77 36
c0 38 28 65 68 65z" />
    <glyph glyph-name="Uacute" unicode="&#xda;" horiz-adv-x="824" 
d="M593 842l-229 -116l-13 21l148 126c56 48 84 -5 94 -31zM524 650h250v-30l-100 -19v-372c0 -151 -107 -239 -247 -239c-192 0 -285 106 -285 280v332l-92 18v30h269v-30l-92 -17v-323c0 -194 118 -230 210 -230c103 0 187 56 187 190v360l-100 20v30z" />
    <glyph glyph-name="Ucircumflex" unicode="&#xdb;" horiz-adv-x="824" 
d="M424 816l-119 -90l-20 12l131 167h15l132 -167l-19 -12zM524 650h250v-30l-100 -19v-372c0 -151 -107 -239 -247 -239c-192 0 -285 106 -285 280v332l-92 18v30h269v-30l-92 -17v-323c0 -194 118 -230 210 -230c103 0 187 56 187 190v360l-100 20v30z" />
    <glyph glyph-name="Udieresis" unicode="&#xdc;" horiz-adv-x="824" 
d="M324 750c-31 0 -55 26 -55 60c0 33 24 59 55 59c30 0 54 -26 54 -59c0 -34 -24 -60 -54 -60zM524 750c-31 0 -55 26 -55 60c0 33 24 59 55 59c30 0 54 -26 54 -59c0 -34 -24 -60 -54 -60zM524 650h250v-30l-100 -19v-372c0 -151 -107 -239 -247 -239
c-192 0 -285 106 -285 280v332l-92 18v30h269v-30l-92 -17v-323c0 -194 118 -230 210 -230c103 0 187 56 187 190v360l-100 20v30z" />
    <glyph glyph-name="Ugrave" unicode="&#xd9;" horiz-adv-x="824" 
d="M507 747l-13 -21l-229 116c10 26 38 79 94 31zM524 650h250v-30l-100 -19v-372c0 -151 -107 -239 -247 -239c-192 0 -285 106 -285 280v332l-92 18v30h269v-30l-92 -17v-323c0 -194 118 -230 210 -230c103 0 187 56 187 190v360l-100 20v30z" />
    <glyph glyph-name="Uhungarumlaut" unicode="&#x170;" horiz-adv-x="824" 
d="M520 842l-229 -116l-13 21l148 126c56 48 84 -5 94 -31zM501 726l-13 21l148 126c56 48 84 -5 94 -31zM524 650h250v-30l-100 -19v-372c0 -151 -107 -239 -247 -239c-192 0 -285 106 -285 280v332l-92 18v30h269v-30l-92 -17v-323c0 -194 118 -230 210 -230
c103 0 187 56 187 190v360l-100 20v30z" />
    <glyph glyph-name="Umacron" unicode="&#x16a;" horiz-adv-x="824" 
d="M604 800v-50h-360v50h360zM524 650h250v-30l-100 -19v-372c0 -151 -107 -239 -247 -239c-192 0 -285 106 -285 280v332l-92 18v30h269v-30l-92 -17v-323c0 -194 118 -230 210 -230c103 0 187 56 187 190v360l-100 20v30z" />
    <glyph glyph-name="Uogonek" unicode="&#x172;" horiz-adv-x="824" 
d="M524 650h250v-30l-100 -19v-372c0 -121 -69 -202 -169 -229c-55 -44 -86 -78 -86 -118c0 -21 13 -40 53 -40c27 0 53 8 70 15l6 -18c-23 -20 -57 -49 -116 -49c-40 0 -75 22 -75 74c0 48 54 97 98 127c-9 -1 -18 -1 -28 -1c-192 0 -285 106 -285 280v332l-92 18v30h269
v-30l-92 -17v-323c0 -194 118 -230 210 -230c103 0 187 56 187 190v360l-100 20v30z" />
    <glyph glyph-name="Uring" unicode="&#x16e;" horiz-adv-x="824" 
d="M424 725c-61 0 -103 35 -103 96c0 55 42 95 103 95c60 0 102 -40 102 -95c0 -61 -42 -96 -102 -96zM424 882c-33 0 -58 -18 -58 -61c0 -49 25 -62 58 -62c32 0 57 13 57 62c0 43 -25 61 -57 61zM524 650h250v-30l-100 -19v-372c0 -151 -107 -239 -247 -239
c-192 0 -285 106 -285 280v332l-92 18v30h269v-30l-92 -17v-323c0 -194 118 -230 210 -230c103 0 187 56 187 190v360l-100 20v30z" />
    <glyph glyph-name="W" unicode="W" horiz-adv-x="1130" 
d="M1125 650v-30l-61 -16l-241 -604l-59 -10l-192 497l-194 -487l-59 -10l-237 615l-77 15v30h269v-30l-100 -19l193 -508l181 458l-23 58l-54 11v30h229v-30l-82 -17l194 -510l200 508l-96 19v30h209z" />
    <glyph glyph-name="Wacute" unicode="&#x1e82;" horiz-adv-x="1130" 
d="M759 842l-229 -116l-13 21l148 126c56 48 84 -5 94 -31zM1125 650v-30l-61 -16l-241 -604l-59 -10l-192 497l-194 -487l-59 -10l-237 615l-77 15v30h269v-30l-100 -19l193 -508l181 458l-23 58l-54 11v30h229v-30l-82 -17l194 -510l200 508l-96 19v30h209z" />
    <glyph glyph-name="Wcircumflex" unicode="&#x174;" horiz-adv-x="1130" 
d="M590 816l-119 -90l-20 12l131 167h15l132 -167l-19 -12zM1125 650v-30l-61 -16l-241 -604l-59 -10l-192 497l-194 -487l-59 -10l-237 615l-77 15v30h269v-30l-100 -19l193 -508l181 458l-23 58l-54 11v30h229v-30l-82 -17l194 -510l200 508l-96 19v30h209z" />
    <glyph glyph-name="Wdieresis" unicode="&#x1e84;" horiz-adv-x="1130" 
d="M490 750c-31 0 -55 26 -55 60c0 33 24 59 55 59c30 0 54 -26 54 -59c0 -34 -24 -60 -54 -60zM690 750c-31 0 -55 26 -55 60c0 33 24 59 55 59c30 0 54 -26 54 -59c0 -34 -24 -60 -54 -60zM1125 650v-30l-61 -16l-241 -604l-59 -10l-192 497l-194 -487l-59 -10l-237 615
l-77 15v30h269v-30l-100 -19l193 -508l181 458l-23 58l-54 11v30h229v-30l-82 -17l194 -510l200 508l-96 19v30h209z" />
    <glyph glyph-name="Wgrave" unicode="&#x1e80;" horiz-adv-x="1130" 
d="M673 747l-13 -21l-229 116c10 26 38 79 94 31zM1125 650v-30l-61 -16l-241 -604l-59 -10l-192 497l-194 -487l-59 -10l-237 615l-77 15v30h269v-30l-100 -19l193 -508l181 458l-23 58l-54 11v30h229v-30l-82 -17l194 -510l200 508l-96 19v30h209z" />
    <glyph glyph-name="X" unicode="X" horiz-adv-x="666" 
d="M555 602l-183 -263l208 -290h1l70 -19v-30h-239v30l72 14l-171 239l-149 -234l110 -19v-30h-259v30l93 19l179 271l-202 282l-70 18v30h245v-30l-79 -15l167 -233l150 229l-106 19v30h259v-30z" />
    <glyph glyph-name="Y" unicode="Y" horiz-adv-x="665" 
d="M579 603l-200 -352v-204l92 -17v-30h-269v30l92 18v180l-208 376l-81 16v30h269v-30l-94 -18l172 -317l169 317l-90 18v30h229v-30z" />
    <glyph glyph-name="Yacute" unicode="&#xdd;" horiz-adv-x="665" 
d="M507 852l-229 -116l-13 21l148 126c56 48 84 -5 94 -31zM579 603l-200 -352v-204l92 -17v-30h-269v30l92 18v180l-208 376l-81 16v30h269v-30l-94 -18l172 -317l169 317l-90 18v30h229v-30z" />
    <glyph glyph-name="Ycircumflex" unicode="&#x176;" horiz-adv-x="665" 
d="M338 826l-119 -90l-20 12l131 167h15l132 -167l-19 -12zM579 603l-200 -352v-204l92 -17v-30h-269v30l92 18v180l-208 376l-81 16v30h269v-30l-94 -18l172 -317l169 317l-90 18v30h229v-30z" />
    <glyph glyph-name="Ydieresis" unicode="&#x178;" horiz-adv-x="665" 
d="M238 760c-31 0 -55 26 -55 60c0 33 24 59 55 59c30 0 54 -26 54 -59c0 -34 -24 -60 -54 -60zM438 760c-31 0 -55 26 -55 60c0 33 24 59 55 59c30 0 54 -26 54 -59c0 -34 -24 -60 -54 -60zM579 603l-200 -352v-204l92 -17v-30h-269v30l92 18v180l-208 376l-81 16v30h269
v-30l-94 -18l172 -317l169 317l-90 18v30h229v-30z" />
    <glyph glyph-name="Ygrave" unicode="&#x1ef2;" horiz-adv-x="665" 
d="M421 757l-13 -21l-229 116c10 26 38 79 94 31zM579 603l-200 -352v-204l92 -17v-30h-269v30l92 18v180l-208 376l-81 16v30h269v-30l-94 -18l172 -317l169 317l-90 18v30h229v-30z" />
    <glyph glyph-name="Zacute" unicode="&#x179;" horiz-adv-x="647" 
d="M502 842l-229 -116l-13 21l148 126c56 48 84 -5 94 -31zM578 186l29 -9l-44 -177h-515l-8 13l405 596l-303 -8l-56 -139l-25 7l15 191c95 -10 248 -10 397 -10h2h77l8 -13l-405 -596l346 13z" />
    <glyph glyph-name="Zcaron" unicode="&#x17d;" horiz-adv-x="647" 
d="M340 726h-15l-131 167l20 12l119 -90l120 90l19 -12zM578 186l29 -9l-44 -177h-515l-8 13l405 596l-303 -8l-56 -139l-25 7l15 191c95 -10 248 -10 397 -10h2h77l8 -13l-405 -596l346 13z" />
    <glyph glyph-name="Zdotaccent" unicode="&#x17b;" horiz-adv-x="647" 
d="M333 754c-34 0 -60 29 -60 66c0 36 26 65 60 65c33 0 59 -29 59 -65c0 -37 -26 -66 -59 -66zM578 186l29 -9l-44 -177h-515l-8 13l405 596l-303 -8l-56 -139l-25 7l15 191c95 -10 248 -10 397 -10h2h77l8 -13l-405 -596l346 13z" />
    <glyph glyph-name="aacute" unicode="&#xe1;" horiz-adv-x="502" 
d="M369 796l-140 -215l-22 12l65 183c25 69 76 38 97 20zM471 69l6 -18l-74 -56c-55 0 -80 24 -90 64l-144 -69c-88 0 -119 62 -119 116c0 23 8 66 16 86l244 82v54c0 100 -38 126 -115 126c-46 0 -50 -33 -50 -120c-25 -5 -80 -14 -80 23c0 76 133 153 178 153
c97 0 150 -46 148 -175l-4 -250c0 -16 5 -24 37 -24c19 0 36 4 47 8zM307 87l3 156l-170 -67c-2 -9 -3 -45 -3 -54c0 -34 13 -65 55 -65c35 0 90 19 115 30z" />
    <glyph glyph-name="abreve" unicode="&#x103;" horiz-adv-x="502" 
d="M249 590c-76 0 -113 60 -113 210l23 3c12 -112 37 -143 90 -143c52 0 77 31 89 143l23 -3c0 -150 -37 -210 -112 -210zM471 69l6 -18l-74 -56c-55 0 -80 24 -90 64l-144 -69c-88 0 -119 62 -119 116c0 23 8 66 16 86l244 82v54c0 100 -38 126 -115 126
c-46 0 -50 -33 -50 -120c-25 -5 -80 -14 -80 23c0 76 133 153 178 153c97 0 150 -46 148 -175l-4 -250c0 -16 5 -24 37 -24c19 0 36 4 47 8zM307 87l3 156l-170 -67c-2 -9 -3 -45 -3 -54c0 -34 13 -65 55 -65c35 0 90 19 115 30z" />
    <glyph glyph-name="acircumflex" unicode="&#xe2;" horiz-adv-x="502" 
d="M249 700l-99 -119l-20 12l111 217h15l112 -217l-19 -12zM471 69l6 -18l-74 -56c-55 0 -80 24 -90 64l-144 -69c-88 0 -119 62 -119 116c0 23 8 66 16 86l244 82v54c0 100 -38 126 -115 126c-46 0 -50 -33 -50 -120c-25 -5 -80 -14 -80 23c0 76 133 153 178 153
c97 0 150 -46 148 -175l-4 -250c0 -16 5 -24 37 -24c19 0 36 4 47 8zM307 87l3 156l-170 -67c-2 -9 -3 -45 -3 -54c0 -34 13 -65 55 -65c35 0 90 19 115 30z" />
    <glyph glyph-name="adieresis" unicode="&#xe4;" horiz-adv-x="502" 
d="M159 610c-31 0 -55 26 -55 60c0 33 24 59 55 59c30 0 54 -26 54 -59c0 -34 -24 -60 -54 -60zM339 610c-31 0 -55 26 -55 60c0 33 24 59 55 59c30 0 54 -26 54 -59c0 -34 -24 -60 -54 -60zM471 69l6 -18l-74 -56c-55 0 -80 24 -90 64l-144 -69c-88 0 -119 62 -119 116
c0 23 8 66 16 86l244 82v54c0 100 -38 126 -115 126c-46 0 -50 -33 -50 -120c-25 -5 -80 -14 -80 23c0 76 133 153 178 153c97 0 150 -46 148 -175l-4 -250c0 -16 5 -24 37 -24c19 0 36 4 47 8zM307 87l3 156l-170 -67c-2 -9 -3 -45 -3 -54c0 -34 13 -65 55 -65
c35 0 90 19 115 30z" />
    <glyph glyph-name="agrave" unicode="&#xe0;" horiz-adv-x="502" 
d="M291 593l-22 -12l-140 215c21 18 72 49 97 -20zM471 69l6 -18l-74 -56c-55 0 -80 24 -90 64l-144 -69c-88 0 -119 62 -119 116c0 23 8 66 16 86l244 82v54c0 100 -38 126 -115 126c-46 0 -50 -33 -50 -120c-25 -5 -80 -14 -80 23c0 76 133 153 178 153
c97 0 150 -46 148 -175l-4 -250c0 -16 5 -24 37 -24c19 0 36 4 47 8zM307 87l3 156l-170 -67c-2 -9 -3 -45 -3 -54c0 -34 13 -65 55 -65c35 0 90 19 115 30z" />
    <glyph glyph-name="amacron" unicode="&#x101;" horiz-adv-x="502" 
d="M394 680v-50h-290v50h290zM471 69l6 -18l-74 -56c-55 0 -80 24 -90 64l-144 -69c-88 0 -119 62 -119 116c0 23 8 66 16 86l244 82v54c0 100 -38 126 -115 126c-46 0 -50 -33 -50 -120c-25 -5 -80 -14 -80 23c0 76 133 153 178 153c97 0 150 -46 148 -175l-4 -250
c0 -16 5 -24 37 -24c19 0 36 4 47 8zM307 87l3 156l-170 -67c-2 -9 -3 -45 -3 -54c0 -34 13 -65 55 -65c35 0 90 19 115 30z" />
    <glyph glyph-name="aogonek" unicode="&#x105;" horiz-adv-x="502" 
d="M360 -163c17 0 43 8 60 15l6 -18c-23 -20 -57 -49 -96 -49c-40 0 -75 22 -75 74c0 55 71 110 116 139c-33 8 -50 29 -58 61l-144 -69c-88 0 -119 62 -119 116c0 23 8 66 16 86l244 82v54c0 100 -38 126 -115 126c-46 0 -50 -33 -50 -120c-25 -5 -80 -14 -80 23
c0 76 133 153 178 153c97 0 150 -46 148 -175l-4 -250c0 -16 5 -24 37 -24c19 0 36 4 47 8l6 -18l-74 -56c-55 -44 -86 -78 -86 -118c0 -21 13 -40 43 -40zM307 87l3 156l-170 -67c-2 -9 -3 -45 -3 -54c0 -34 13 -65 55 -65c35 0 90 19 115 30z" />
    <glyph glyph-name="aring" unicode="&#xe5;" horiz-adv-x="502" 
d="M249 585c-61 0 -103 35 -103 96c0 55 42 95 103 95c60 0 102 -40 102 -95c0 -61 -42 -96 -102 -96zM249 742c-33 0 -58 -18 -58 -61c0 -49 25 -62 58 -62c32 0 57 13 57 62c0 43 -25 61 -57 61zM471 69l6 -18l-74 -56c-55 0 -80 24 -90 64l-144 -69
c-88 0 -119 62 -119 116c0 23 8 66 16 86l244 82v54c0 100 -38 126 -115 126c-46 0 -50 -33 -50 -120c-25 -5 -80 -14 -80 23c0 76 133 153 178 153c97 0 150 -46 148 -175l-4 -250c0 -16 5 -24 37 -24c19 0 36 4 47 8zM307 87l3 156l-170 -67c-2 -9 -3 -45 -3 -54
c0 -34 13 -65 55 -65c35 0 90 19 115 30z" />
    <glyph glyph-name="atilde" unicode="&#xe3;" horiz-adv-x="502" 
d="M175 665l-48 -83l-19 7c10 74 34 121 95 121c50 0 98 -41 128 -41l60 72l19 -7c-10 -69 -35 -124 -99 -124c-60 0 -106 55 -136 55zM471 69l6 -18l-74 -56c-55 0 -80 24 -90 64l-144 -69c-88 0 -119 62 -119 116c0 23 8 66 16 86l244 82v54c0 100 -38 126 -115 126
c-46 0 -50 -33 -50 -120c-25 -5 -80 -14 -80 23c0 76 133 153 178 153c97 0 150 -46 148 -175l-4 -250c0 -16 5 -24 37 -24c19 0 36 4 47 8zM307 87l3 156l-170 -67c-2 -9 -3 -45 -3 -54c0 -34 13 -65 55 -65c35 0 90 19 115 30z" />
    <glyph glyph-name="ae" unicode="&#xe6;" horiz-adv-x="735" 
d="M566 48c46 0 91 12 117 24l10 -20c-29 -23 -88 -62 -162 -62c-67 0 -131 31 -171 89l-191 -89c-88 0 -119 62 -119 116c0 23 5 70 16 86l244 82v54c0 100 -28 126 -115 126c-46 0 -50 -33 -50 -120c-25 -5 -80 -14 -80 23c0 76 133 153 178 153c64 0 110 -25 129 -90
c39 56 98 90 165 90c85 0 158 -50 158 -182l-291 8c-2 -19 -4 -39 -4 -62c0 -155 72 -226 166 -226zM528 475c-38 0 -94 -23 -117 -109h191c-1 78 -27 109 -74 109zM307 87l3 156l-170 -67c-2 -9 -3 -45 -3 -54c0 -34 13 -65 55 -65c35 0 90 19 115 30z" />
    <glyph glyph-name="cacute" unicode="&#x107;" horiz-adv-x="456" 
d="M292 776c25 69 76 38 97 20l-140 -215l-22 12zM283 510c88 0 131 -42 131 -83c0 -32 -29 -52 -82 -52c0 52 -6 98 -68 98c-52 0 -141 -40 -141 -199c0 -155 67 -226 176 -226c36 0 81 12 107 24l10 -20c-29 -25 -75 -62 -164 -62c-104 0 -212 85 -212 242
c0 153 104 278 243 278z" />
    <glyph glyph-name="ccaron" unicode="&#x10d;" horiz-adv-x="456" 
d="M388 803l-112 -217h-15l-111 217l20 12l99 -119l100 119zM283 510c88 0 131 -42 131 -83c0 -32 -29 -52 -82 -52c0 52 -6 98 -68 98c-52 0 -141 -40 -141 -199c0 -155 67 -226 176 -226c36 0 81 12 107 24l10 -20c-29 -25 -75 -62 -164 -62c-104 0 -212 85 -212 242
c0 153 104 278 243 278z" />
    <glyph glyph-name="ccedilla" unicode="&#xe7;" horiz-adv-x="456" 
d="M246 -65c51 -14 90 -37 90 -81c0 -73 -82 -104 -136 -104l-6 24c60 13 87 36 87 63s-30 39 -90 54l39 100c-96 11 -190 95 -190 241c0 153 104 278 243 278c88 0 131 -42 131 -83c0 -32 -29 -52 -82 -52c0 52 -6 98 -68 98c-52 0 -141 -40 -141 -199
c0 -155 67 -226 176 -226c36 0 81 12 107 24l10 -20c-27 -24 -70 -58 -148 -62z" />
    <glyph glyph-name="cdotaccent" unicode="&#x10b;" horiz-adv-x="456" 
d="M269 614c-34 0 -60 29 -60 66c0 36 26 65 60 65c33 0 59 -29 59 -65c0 -37 -26 -66 -59 -66zM283 510c88 0 131 -42 131 -83c0 -32 -29 -52 -82 -52c0 52 -6 98 -68 98c-52 0 -141 -40 -141 -199c0 -155 67 -226 176 -226c36 0 81 12 107 24l10 -20
c-29 -25 -75 -62 -164 -62c-104 0 -212 85 -212 242c0 153 104 278 243 278z" />
    <glyph glyph-name="eth" unicode="&#xf0;" horiz-adv-x="531" 
d="M269 617c113 -89 222 -220 222 -377c0 -151 -99 -251 -225 -251c-127 0 -226 100 -226 251c0 150 99 240 216 240c42 0 73 -18 100 -47c-35 59 -82 113 -129 157l-142 -90l-20 34l132 84c-32 28 -64 51 -90 67l16 25c34 -17 73 -39 113 -68l107 68l20 -34zM266 24
c86 0 135 85 135 216c0 130 -49 205 -135 205c-87 0 -136 -75 -136 -205c0 -131 49 -216 136 -216z" />
    <glyph glyph-name="dcaron" unicode="&#x10f;" horiz-adv-x="563" 
d="M217 586h-15l-111 217l20 12l99 -119l100 119l19 -12zM467 72l71 -30v-15l-136 -37h-15v66l-131 -66c-90 0 -216 57 -216 246c0 148 97 274 231 274c56 0 92 -21 116 -44v162l-71 30v15l136 37h15v-638zM126 268c0 -147 66 -214 139 -214c38 0 103 26 122 34v197
c0 117 -45 188 -133 188c-75 0 -128 -68 -128 -205z" />
    <glyph glyph-name="dcroat" unicode="&#x111;" horiz-adv-x="563" 
d="M555 550h-88v-478l71 -30v-15l-136 -37h-15v66l-131 -66c-90 0 -216 57 -216 246c0 148 97 274 231 274c56 0 92 -21 116 -44v84h-188v40h188v38l-71 30v15l136 37h15v-120h88v-40zM126 268c0 -147 66 -214 139 -214c38 0 103 26 122 34v197c0 117 -45 188 -133 188
c-75 0 -128 -68 -128 -205z" />
    <glyph glyph-name="eacute" unicode="&#xe9;" horiz-adv-x="458" 
d="M367 796l-140 -215l-22 12l65 183c25 69 76 38 97 20zM289 48c46 0 91 12 117 24l10 -20c-29 -23 -88 -62 -162 -62c-111 0 -214 85 -214 242c0 158 94 278 220 278c85 0 158 -50 158 -182l-291 8c-2 -19 -4 -39 -4 -62c0 -155 72 -226 166 -226zM251 475
c-38 0 -94 -23 -117 -109h191c-1 78 -27 109 -74 109z" />
    <glyph glyph-name="ecaron" unicode="&#x11b;" horiz-adv-x="458" 
d="M254 586h-15l-111 217l20 12l99 -119l100 119l19 -12zM289 48c46 0 91 12 117 24l10 -20c-29 -23 -88 -62 -162 -62c-111 0 -214 85 -214 242c0 158 94 278 220 278c85 0 158 -50 158 -182l-291 8c-2 -19 -4 -39 -4 -62c0 -155 72 -226 166 -226zM251 475
c-38 0 -94 -23 -117 -109h191c-1 78 -27 109 -74 109z" />
    <glyph glyph-name="ecircumflex" unicode="&#xea;" horiz-adv-x="458" 
d="M247 700l-99 -119l-20 12l111 217h15l112 -217l-19 -12zM289 48c46 0 91 12 117 24l10 -20c-29 -23 -88 -62 -162 -62c-111 0 -214 85 -214 242c0 158 94 278 220 278c85 0 158 -50 158 -182l-291 8c-2 -19 -4 -39 -4 -62c0 -155 72 -226 166 -226zM251 475
c-38 0 -94 -23 -117 -109h191c-1 78 -27 109 -74 109z" />
    <glyph glyph-name="edieresis" unicode="&#xeb;" horiz-adv-x="458" 
d="M157 610c-31 0 -55 26 -55 60c0 33 24 59 55 59c30 0 54 -26 54 -59c0 -34 -24 -60 -54 -60zM337 610c-31 0 -55 26 -55 60c0 33 24 59 55 59c30 0 54 -26 54 -59c0 -34 -24 -60 -54 -60zM289 48c46 0 91 12 117 24l10 -20c-29 -23 -88 -62 -162 -62
c-111 0 -214 85 -214 242c0 158 94 278 220 278c85 0 158 -50 158 -182l-291 8c-2 -19 -4 -39 -4 -62c0 -155 72 -226 166 -226zM251 475c-38 0 -94 -23 -117 -109h191c-1 78 -27 109 -74 109z" />
    <glyph glyph-name="edotaccent" unicode="&#x117;" horiz-adv-x="458" 
d="M247 614c-34 0 -60 29 -60 66c0 36 26 65 60 65c33 0 59 -29 59 -65c0 -37 -26 -66 -59 -66zM289 48c46 0 91 12 117 24l10 -20c-29 -23 -88 -62 -162 -62c-111 0 -214 85 -214 242c0 158 94 278 220 278c85 0 158 -50 158 -182l-291 8c-2 -19 -4 -39 -4 -62
c0 -155 72 -226 166 -226zM251 475c-38 0 -94 -23 -117 -109h191c-1 78 -27 109 -74 109z" />
    <glyph glyph-name="egrave" unicode="&#xe8;" horiz-adv-x="458" 
d="M289 593l-22 -12l-140 215c21 18 72 49 97 -20zM289 48c46 0 91 12 117 24l10 -20c-29 -23 -88 -62 -162 -62c-111 0 -214 85 -214 242c0 158 94 278 220 278c85 0 158 -50 158 -182l-291 8c-2 -19 -4 -39 -4 -62c0 -155 72 -226 166 -226zM251 475
c-38 0 -94 -23 -117 -109h191c-1 78 -27 109 -74 109z" />
    <glyph glyph-name="emacron" unicode="&#x113;" horiz-adv-x="458" 
d="M392 680v-50h-290v50h290zM289 48c46 0 91 12 117 24l10 -20c-29 -23 -88 -62 -162 -62c-111 0 -214 85 -214 242c0 158 94 278 220 278c85 0 158 -50 158 -182l-291 8c-2 -19 -4 -39 -4 -62c0 -155 72 -226 166 -226zM251 475c-38 0 -94 -23 -117 -109h191
c-1 78 -27 109 -74 109z" />
    <glyph glyph-name="eogonek" unicode="&#x119;" horiz-adv-x="458" 
d="M319 0c-55 -44 -86 -78 -86 -118c0 -21 13 -40 43 -40c17 0 43 8 60 15l6 -18c-23 -20 -57 -49 -96 -49c-40 0 -75 22 -75 74c0 48 53 96 97 126h-14c-111 0 -214 85 -214 242c0 158 94 278 220 278c85 0 158 -50 158 -182l-291 8c-2 -19 -4 -39 -4 -62
c0 -155 72 -226 166 -226c46 0 91 12 117 24l10 -20c-20 -16 -54 -39 -97 -52zM251 475c-38 0 -94 -23 -117 -109h191c-1 78 -27 109 -74 109z" />
    <glyph glyph-name="gbreve" unicode="&#x11f;" horiz-adv-x="482" 
d="M214 590c-76 0 -113 60 -113 210l23 3c12 -112 37 -143 90 -143c52 0 77 31 89 143l23 -3c0 -150 -37 -210 -112 -210zM455 448c-37 8 -75 11 -114 11c26 -26 42 -61 42 -101c0 -89 -81 -151 -168 -151c-10 0 -20 1 -29 2c-24 -5 -67 -30 -67 -67c0 -31 22 -47 72 -47
h158c34 0 92 -28 92 -103c0 -151 -165 -202 -257 -202c-82 0 -159 36 -159 114c0 55 42 87 96 118c-45 14 -74 45 -74 85c0 56 50 89 103 111c-59 22 -104 74 -104 140c0 89 81 151 169 151c33 0 65 -9 92 -24c43 12 91 25 118 25c30 0 37 -12 37 -30c0 -6 -1 -17 -7 -32z
M215 242c53 0 83 40 83 116s-30 116 -83 116c-54 0 -84 -40 -84 -116s30 -116 84 -116zM304 15h-133c-11 0 -23 1 -33 3c-27 -21 -36 -44 -36 -87c0 -39 25 -90 115 -90c129 0 173 63 173 125c0 44 -28 49 -86 49z" />
    <glyph glyph-name="uni0123" unicode="&#x123;" horiz-adv-x="482" 
d="M213 590c-38 0 -65 24 -65 65c0 56 46 91 85 119l19 -18c-23 -19 -48 -41 -48 -65c0 -27 36 -36 77 -36c0 -38 -28 -65 -68 -65zM455 448c-37 8 -75 11 -114 11c26 -26 42 -61 42 -101c0 -89 -81 -151 -168 -151c-10 0 -20 1 -29 2c-24 -5 -67 -30 -67 -67
c0 -31 22 -47 72 -47h158c34 0 92 -28 92 -103c0 -151 -165 -202 -257 -202c-82 0 -159 36 -159 114c0 55 42 87 96 118c-45 14 -74 45 -74 85c0 56 50 89 103 111c-59 22 -104 74 -104 140c0 89 81 151 169 151c33 0 65 -9 92 -24c43 12 91 25 118 25c30 0 37 -12 37 -30
c0 -6 -1 -17 -7 -32zM215 242c53 0 83 40 83 116s-30 116 -83 116c-54 0 -84 -40 -84 -116s30 -116 84 -116zM304 15h-133c-11 0 -23 1 -33 3c-27 -21 -36 -44 -36 -87c0 -39 25 -90 115 -90c129 0 173 63 173 125c0 44 -28 49 -86 49z" />
    <glyph glyph-name="gdotaccent" unicode="&#x121;" horiz-adv-x="482" 
d="M214 614c-34 0 -60 29 -60 66c0 36 26 65 60 65c33 0 59 -29 59 -65c0 -37 -26 -66 -59 -66zM455 448c-37 8 -75 11 -114 11c26 -26 42 -61 42 -101c0 -89 -81 -151 -168 -151c-10 0 -20 1 -29 2c-24 -5 -67 -30 -67 -67c0 -31 22 -47 72 -47h158c34 0 92 -28 92 -103
c0 -151 -165 -202 -257 -202c-82 0 -159 36 -159 114c0 55 42 87 96 118c-45 14 -74 45 -74 85c0 56 50 89 103 111c-59 22 -104 74 -104 140c0 89 81 151 169 151c33 0 65 -9 92 -24c43 12 91 25 118 25c30 0 37 -12 37 -30c0 -6 -1 -17 -7 -32zM215 242c53 0 83 40 83 116
s-30 116 -83 116c-54 0 -84 -40 -84 -116s30 -116 84 -116zM304 15h-133c-11 0 -23 1 -33 3c-27 -21 -36 -44 -36 -87c0 -39 25 -90 115 -90c129 0 173 63 173 125c0 44 -28 49 -86 49z" />
    <glyph glyph-name="hbar" unicode="&#x127;" horiz-adv-x="555" 
d="M469 37l61 -12v-25h-200v30l59 16v291c0 70 -11 109 -81 109c-46 0 -113 -26 -132 -34v-375l61 -12v-25h-200v30l59 16v504h-87v40h87v38l-71 30v15l136 37h15v-120h189v-40h-189v-106l131 66c110 0 162 -37 162 -156v-317z" />
    <glyph glyph-name="dotlessi" unicode="&#x131;" horiz-adv-x="268" 
d="M183 37l60 -12v-25h-200v30l60 16v382l-71 30v15l136 37h15v-473z" />
    <glyph glyph-name="iacute" unicode="&#xed;" horiz-adv-x="268" 
d="M263 796l-140 -215l-22 12l65 183c25 69 76 38 97 20zM183 37l60 -12v-25h-200v30l60 16v382l-71 30v15l136 37h15v-473z" />
    <glyph glyph-name="icircumflex" unicode="&#xee;" horiz-adv-x="268" 
d="M150 810l112 -217l-19 -12l-100 119l-99 -119l-20 12l111 217h15zM183 37l60 -12v-25h-200v30l60 16v382l-71 30v15l136 37h15v-473z" />
    <glyph glyph-name="idieresis" unicode="&#xef;" horiz-adv-x="268" 
d="M107 670c0 -34 -24 -60 -54 -60c-31 0 -55 26 -55 60c0 33 24 59 55 59c30 0 54 -26 54 -59zM233 729c30 0 54 -26 54 -59c0 -34 -24 -60 -54 -60c-31 0 -55 26 -55 60c0 33 24 59 55 59zM183 37l60 -12v-25h-200v30l60 16v382l-71 30v15l136 37h15v-473z" />
    <glyph glyph-name="i.loclTRK" horiz-adv-x="268" 
d="M143 614c-34 0 -60 29 -60 66c0 36 26 65 60 65c33 0 59 -29 59 -65c0 -37 -26 -66 -59 -66zM183 37l60 -12v-25h-200v30l60 16v382l-71 30v15l136 37h15v-473z" />
    <glyph glyph-name="igrave" unicode="&#xec;" horiz-adv-x="268" 
d="M185 593l-22 -12l-140 215c21 18 72 49 97 -20zM183 37l60 -12v-25h-200v30l60 16v382l-71 30v15l136 37h15v-473z" />
    <glyph glyph-name="imacron" unicode="&#x12b;" horiz-adv-x="268" 
d="M-2 680h290v-50h-290v50zM183 37l60 -12v-25h-200v30l60 16v382l-71 30v15l136 37h15v-473z" />
    <glyph glyph-name="iogonek" unicode="&#x12f;" horiz-adv-x="281" 
d="M147 614c-34 0 -60 29 -60 66c0 36 26 65 60 65c33 0 59 -29 59 -65c0 -37 -26 -66 -59 -66zM233 25v-25h-57v-1c-55 -44 -86 -78 -86 -118c0 -21 13 -40 43 -40c17 0 43 8 60 15l6 -18c-23 -20 -57 -49 -96 -49c-40 0 -75 22 -75 74c0 54 67 108 113 137h-108v30l60 16
v382l-71 30v15l136 37h15v-473z" />
    <glyph glyph-name="k" unicode="k" horiz-adv-x="563" 
d="M282 299c100 -176 191 -277 266 -279v-20l-83 -10c-87 0 -183 142 -225 270l-64 -60v-163l61 -12v-25h-200v30l59 16v582l-71 30v15l136 37h15v-456l209 205l-6 1l-75 15v25h200v-30l-58 -15z" />
    <glyph glyph-name="uni0137" unicode="&#x137;" horiz-adv-x="563" 
d="M282 299c100 -176 191 -277 266 -279v-20l-83 -10c-87 0 -183 142 -225 270l-64 -60v-163l61 -12v-25h-200v30l59 16v582l-71 30v15l136 37h15v-456l209 205l-6 1l-75 15v25h200v-30l-58 -15zM279 -66c38 0 65 -24 65 -65c0 -56 -46 -91 -85 -119l-19 18
c23 19 48 41 48 65c0 27 -36 36 -77 36c0 38 28 65 68 65z" />
    <glyph glyph-name="lacute" unicode="&#x13a;" horiz-adv-x="261" 
d="M266 976l-140 -215l-22 12l65 183c25 69 76 38 97 20zM176 37l60 -12v-25h-200v30l60 16v582l-71 30v15l136 37h15v-673z" />
    <glyph glyph-name="lcaron" unicode="&#x13e;" horiz-adv-x="261" 
d="M176 37l60 -12v-25h-200v30l60 16v582l-71 30v15l136 37h15v-673zM267 710c43 0 60 -31 60 -63c0 -48 -33 -92 -52 -117l-21 11c14 31 17 54 17 67c0 31 -24 44 -67 44c0 36 31 58 63 58z" />
    <glyph glyph-name="uni013C" unicode="&#x13c;" horiz-adv-x="261" 
d="M176 37l60 -12v-25h-200v30l60 16v582l-71 30v15l136 37h15v-673zM138 -66c38 0 65 -24 65 -65c0 -56 -46 -91 -85 -119l-19 18c23 19 48 41 48 65c0 27 -36 36 -77 36c0 38 28 65 68 65z" />
    <glyph glyph-name="lslash" unicode="&#x142;" horiz-adv-x="261" 
d="M176 353v-316l60 -12v-25h-200v30l60 16v228l-56 -56l-28 28l84 84v298l-71 30v15l136 37h15v-299l87 87l29 -29z" />
    <glyph glyph-name="nacute" unicode="&#x144;" horiz-adv-x="552" 
d="M389 796l-140 -215l-22 12l65 183c25 69 76 38 97 20zM466 37l61 -12v-25h-200v30l59 16v291c0 70 -11 109 -81 109c-46 0 -113 -26 -132 -34v-375l61 -12v-25h-200v30l59 16v378l-61 34v15l126 37h15v-66l131 66c110 0 162 -37 162 -156v-317z" />
    <glyph glyph-name="ncaron" unicode="&#x148;" horiz-adv-x="552" 
d="M276 586h-15l-111 217l20 12l99 -119l100 119l19 -12zM466 37l61 -12v-25h-200v30l59 16v291c0 70 -11 109 -81 109c-46 0 -113 -26 -132 -34v-375l61 -12v-25h-200v30l59 16v378l-61 34v15l126 37h15v-66l131 66c110 0 162 -37 162 -156v-317z" />
    <glyph glyph-name="uni0146" unicode="&#x146;" horiz-adv-x="552" 
d="M466 37l61 -12v-25h-200v30l59 16v291c0 70 -11 109 -81 109c-46 0 -113 -26 -132 -34v-375l61 -12v-25h-200v30l59 16v378l-61 34v15l126 37h15v-66l131 66c110 0 162 -37 162 -156v-317zM280 -66c38 0 65 -24 65 -65c0 -56 -46 -91 -85 -119l-19 18c23 19 48 41 48 65
c0 27 -36 36 -77 36c0 38 28 65 68 65z" />
    <glyph glyph-name="eng" unicode="&#x14b;" horiz-adv-x="546" 
d="M304 510c110 0 162 -37 162 -156v-388c0 -119 -82 -166 -169 -176l-3 25c71 28 92 58 92 158v364c0 70 -11 109 -81 109c-46 0 -113 -26 -132 -34v-375l61 -12v-25h-200v30l59 16v378l-61 34v15l126 37h15v-66z" />
    <glyph glyph-name="ntilde" unicode="&#xf1;" horiz-adv-x="552" 
d="M195 665l-48 -83l-19 7c10 74 34 121 95 121c50 0 98 -41 128 -41l60 72l19 -7c-10 -69 -35 -124 -99 -124c-60 0 -106 55 -136 55zM466 37l61 -12v-25h-200v30l59 16v291c0 70 -11 109 -81 109c-46 0 -113 -26 -132 -34v-375l61 -12v-25h-200v30l59 16v378l-61 34v15
l126 37h15v-66l131 66c110 0 162 -37 162 -156v-317z" />
    <glyph glyph-name="oacute" unicode="&#xf3;" horiz-adv-x="531" 
d="M288 776c25 69 76 38 97 20l-140 -215l-22 12zM266 -11c-127 0 -226 100 -226 261c0 160 99 260 226 260c126 0 225 -100 225 -260c0 -161 -99 -261 -225 -261zM266 24c86 0 135 85 135 226c0 140 -49 225 -135 225c-87 0 -136 -85 -136 -225c0 -141 49 -226 136 -226z
" />
    <glyph glyph-name="ocircumflex" unicode="&#xf4;" horiz-adv-x="531" 
d="M384 593l-19 -12l-100 119l-99 -119l-20 12l111 217h15zM266 -11c-127 0 -226 100 -226 261c0 160 99 260 226 260c126 0 225 -100 225 -260c0 -161 -99 -261 -225 -261zM266 24c86 0 135 85 135 226c0 140 -49 225 -135 225c-87 0 -136 -85 -136 -225
c0 -141 49 -226 136 -226z" />
    <glyph glyph-name="odieresis" unicode="&#xf6;" horiz-adv-x="531" 
d="M175 610c-31 0 -55 26 -55 60c0 33 24 59 55 59c30 0 54 -26 54 -59c0 -34 -24 -60 -54 -60zM355 610c-31 0 -55 26 -55 60c0 33 24 59 55 59c30 0 54 -26 54 -59c0 -34 -24 -60 -54 -60zM266 -11c-127 0 -226 100 -226 261c0 160 99 260 226 260
c126 0 225 -100 225 -260c0 -161 -99 -261 -225 -261zM266 24c86 0 135 85 135 226c0 140 -49 225 -135 225c-87 0 -136 -85 -136 -225c0 -141 49 -226 136 -226z" />
    <glyph glyph-name="ograve" unicode="&#xf2;" horiz-adv-x="531" 
d="M242 776l65 -183l-22 -12l-140 215c21 18 72 49 97 -20zM266 -11c-127 0 -226 100 -226 261c0 160 99 260 226 260c126 0 225 -100 225 -260c0 -161 -99 -261 -225 -261zM266 24c86 0 135 85 135 226c0 140 -49 225 -135 225c-87 0 -136 -85 -136 -225
c0 -141 49 -226 136 -226z" />
    <glyph glyph-name="ohungarumlaut" unicode="&#x151;" horiz-adv-x="531" 
d="M224 776c25 69 76 38 97 20l-140 -215l-22 12zM374 776c25 69 76 38 97 20l-140 -215l-22 12zM266 -11c-127 0 -226 100 -226 261c0 160 99 260 226 260c126 0 225 -100 225 -260c0 -161 -99 -261 -225 -261zM266 24c86 0 135 85 135 226c0 140 -49 225 -135 225
c-87 0 -136 -85 -136 -225c0 -141 49 -226 136 -226z" />
    <glyph glyph-name="omacron" unicode="&#x14d;" horiz-adv-x="531" 
d="M410 680v-50h-290v50h290zM266 -11c-127 0 -226 100 -226 261c0 160 99 260 226 260c126 0 225 -100 225 -260c0 -161 -99 -261 -225 -261zM266 24c86 0 135 85 135 226c0 140 -49 225 -135 225c-87 0 -136 -85 -136 -225c0 -141 49 -226 136 -226z" />
    <glyph glyph-name="oslash" unicode="&#xf8;" horiz-adv-x="531" 
d="M390 471c61 -43 101 -120 101 -221c0 -161 -99 -261 -225 -261c-33 0 -63 7 -91 19l-45 -96l-41 20l46 100c-58 43 -95 119 -95 218c0 160 99 260 226 260c30 0 58 -6 84 -16l43 91l41 -20zM130 250c0 -67 11 -122 32 -161l170 365c-19 14 -41 21 -66 21
c-87 0 -136 -85 -136 -225zM266 24c86 0 135 85 135 226c0 71 -13 128 -36 166l-171 -366c20 -17 44 -26 72 -26z" />
    <glyph glyph-name="otilde" unicode="&#xf5;" horiz-adv-x="531" 
d="M407 741l19 -7c-10 -69 -35 -124 -99 -124c-60 0 -106 55 -136 55l-48 -83l-19 7c10 74 34 121 95 121c50 0 98 -41 128 -41zM266 -11c-127 0 -226 100 -226 261c0 160 99 260 226 260c126 0 225 -100 225 -260c0 -161 -99 -261 -225 -261zM266 24c86 0 135 85 135 226
c0 140 -49 225 -135 225c-87 0 -136 -85 -136 -225c0 -141 49 -226 136 -226z" />
    <glyph glyph-name="oe" unicode="&#x153;" horiz-adv-x="828" 
d="M659 48c46 0 91 12 117 24l10 -20c-29 -23 -88 -62 -162 -62c-70 0 -137 34 -176 98c-41 -63 -107 -99 -182 -99c-127 0 -226 100 -226 261c0 160 99 260 226 260c79 0 147 -39 187 -108c40 66 103 108 177 108c85 0 158 -50 158 -182l-291 8c-2 -19 -4 -39 -4 -62
c0 -155 72 -226 166 -226zM266 24c86 0 135 85 135 226c0 140 -49 225 -135 225c-87 0 -136 -85 -136 -225c0 -141 49 -226 136 -226zM621 475c-38 0 -94 -23 -117 -109h191c-1 78 -27 109 -74 109z" />
    <glyph glyph-name="thorn" unicode="&#xfe;" horiz-adv-x="561" 
d="M290 -10c-53 0 -90 20 -116 44v-185l140 -19v-30h-309v30l89 20v778l-71 30v15l136 37h15v-266l131 66c90 0 216 -57 216 -246c0 -148 -97 -274 -231 -274zM296 446c-38 0 -103 -26 -122 -34v-197c0 -117 45 -188 133 -188c75 0 128 68 128 205c0 147 -66 214 -139 214z
" />
    <glyph glyph-name="racute" unicode="&#x155;" horiz-adv-x="394" 
d="M330 796l-140 -215l-22 12l65 183c25 69 76 38 97 20zM297 510c33 0 72 -18 72 -65c0 -34 -18 -59 -60 -69c-4 35 -17 51 -47 51c-32 0 -75 -34 -89 -46v-344l61 -12v-25h-200v30l59 16v378l-61 34v15l126 37h15v-95z" />
    <glyph glyph-name="rcaron" unicode="&#x159;" horiz-adv-x="394" 
d="M217 586h-15l-111 217l20 12l99 -119l100 119l19 -12zM297 510c33 0 72 -18 72 -65c0 -34 -18 -59 -60 -69c-4 35 -17 51 -47 51c-32 0 -75 -34 -89 -46v-344l61 -12v-25h-200v30l59 16v378l-61 34v15l126 37h15v-95z" />
    <glyph glyph-name="uni0157" unicode="&#x157;" horiz-adv-x="394" 
d="M297 510c33 0 72 -18 72 -65c0 -34 -18 -59 -60 -69c-4 35 -17 51 -47 51c-32 0 -75 -34 -89 -46v-344l61 -12v-25h-200v30l59 16v378l-61 34v15l126 37h15v-95zM135 -66c38 0 65 -24 65 -65c0 -56 -46 -91 -85 -119l-19 18c23 19 48 41 48 65c0 27 -36 36 -77 36
c0 38 28 65 68 65z" />
    <glyph glyph-name="sacute" unicode="&#x15b;" horiz-adv-x="411" 
d="M239 776c25 69 76 38 97 20l-140 -215l-22 12zM209 -10c-53 0 -90 10 -143 25l-16 146l25 7c16 -70 64 -143 140 -143c49 0 73 33 73 73c0 54 -43 86 -96 114c-60 32 -117 73 -117 155c0 72 55 143 151 143c48 0 83 -15 102 -24v-124h-25c-5 50 -25 113 -87 113
c-43 0 -72 -34 -72 -79s29 -76 79 -103c80 -43 138 -90 138 -170c0 -77 -66 -133 -152 -133z" />
    <glyph glyph-name="scaron" unicode="&#x161;" horiz-adv-x="411" 
d="M335 803l-112 -217h-15l-111 217l20 12l99 -119l100 119zM209 -10c-53 0 -90 10 -143 25l-16 146l25 7c16 -70 64 -143 140 -143c49 0 73 33 73 73c0 54 -43 86 -96 114c-60 32 -117 73 -117 155c0 72 55 143 151 143c48 0 83 -15 102 -24v-124h-25
c-5 50 -25 113 -87 113c-43 0 -72 -34 -72 -79s29 -76 79 -103c80 -43 138 -90 138 -170c0 -77 -66 -133 -152 -133z" />
    <glyph glyph-name="scedilla" unicode="&#x15f;" horiz-adv-x="411" 
d="M361 123c0 -73 -59 -127 -137 -132l-22 -56c51 -14 90 -37 90 -81c0 -73 -82 -104 -136 -104l-6 24c60 13 87 36 87 63s-30 39 -90 54l39 100c-41 2 -75 11 -120 24l-16 146l25 7c16 -70 64 -143 140 -143c49 0 73 33 73 73c0 54 -43 86 -96 114c-60 32 -117 73 -117 155
c0 72 55 143 151 143c48 0 83 -15 102 -24v-124h-25c-5 50 -25 113 -87 113c-43 0 -72 -34 -72 -79s29 -76 79 -103c80 -43 138 -90 138 -170z" />
    <glyph glyph-name="uni0219" unicode="&#x219;" horiz-adv-x="411" 
d="M209 -10c-53 0 -90 10 -143 25l-16 146l25 7c16 -70 64 -143 140 -143c49 0 73 33 73 73c0 54 -43 86 -96 114c-60 32 -117 73 -117 155c0 72 55 143 151 143c48 0 83 -15 102 -24v-124h-25c-5 50 -25 113 -87 113c-43 0 -72 -34 -72 -79s29 -76 79 -103
c80 -43 138 -90 138 -170c0 -77 -66 -133 -152 -133zM207 -66c38 0 65 -24 65 -65c0 -56 -46 -91 -85 -119l-19 18c23 19 48 41 48 65c0 27 -36 36 -77 36c0 38 28 65 68 65z" />
    <glyph glyph-name="germandbls" unicode="&#xdf;" horiz-adv-x="576" 
d="M418 293c62 -35 138 -80 138 -168c0 -79 -62 -135 -158 -135c-45 0 -84 12 -137 31l-16 140l25 7c16 -70 64 -143 140 -143c49 0 73 33 73 73c0 56 -44 85 -96 114c-50 28 -112 67 -112 134c0 84 100 164 100 251c0 44 -26 76 -74 76c-53 0 -103 -40 -103 -174v-499h-148
v30l68 18v382h-73v25l73 15c4 123 61 240 176 240c76 0 117 -51 117 -112c0 -80 -69 -155 -69 -213c0 -45 43 -73 76 -92z" />
    <glyph glyph-name="tbar" unicode="&#x167;" horiz-adv-x="370" 
d="M243 54c29 0 67 8 82 13l6 -18l-109 -59c-40 0 -122 26 -122 96v203h-75v40h75v121h-70v15l135 130h15v-95h160c0 -17 -5 -30 -20 -50h-140v-121h145v-40h-145v-175c0 -50 24 -60 63 -60z" />
    <glyph glyph-name="tcaron" unicode="&#x165;" horiz-adv-x="365" 
d="M255 608c0 31 -24 44 -67 44c0 36 31 58 63 58c43 0 60 -31 60 -63c0 -48 -33 -92 -52 -117l-21 11c14 31 17 54 17 67zM238 54c29 0 67 8 82 13l6 -18l-109 -59c-40 0 -122 26 -122 96v364h-70v15l135 130h15v-95h160c0 -17 -5 -30 -20 -50h-140v-336
c0 -50 24 -60 63 -60z" />
    <glyph glyph-name="uni0163" unicode="&#x163;" horiz-adv-x="365" 
d="M217 -10c-4 0 -9 0 -14 1l-22 -56c51 -14 90 -37 90 -81c0 -73 -82 -104 -136 -104l-6 24c60 13 87 36 87 63s-30 39 -90 54l42 108c-36 13 -73 40 -73 87v364h-70v15l135 130h15v-95h160c0 -17 -5 -30 -20 -50h-140v-336c0 -50 24 -60 63 -60c29 0 67 8 82 13l6 -18z
" />
    <glyph glyph-name="uni021B" unicode="&#x21b;" horiz-adv-x="365" 
d="M238 54c29 0 67 8 82 13l6 -18l-109 -59c-40 0 -122 26 -122 96v364h-70v15l135 130h15v-95h160c0 -17 -5 -30 -20 -50h-140v-336c0 -50 24 -60 63 -60zM186 -66c38 0 65 -24 65 -65c0 -56 -46 -91 -85 -119l-19 18c23 19 48 41 48 65c0 27 -36 36 -77 36
c0 38 28 65 68 65z" />
    <glyph glyph-name="uacute" unicode="&#xfa;" horiz-adv-x="544" 
d="M382 796l-140 -215l-22 12l65 183c25 69 76 38 97 20zM448 72l71 -30v-15l-136 -37h-15v66l-131 -66c-100 0 -162 37 -162 156v354h80v-337c0 -70 11 -109 81 -109c46 0 113 26 132 34v340l-71 30v15l136 37h15v-438z" />
    <glyph glyph-name="ucircumflex" unicode="&#xfb;" horiz-adv-x="544" 
d="M262 700l-99 -119l-20 12l111 217h15l112 -217l-19 -12zM448 72l71 -30v-15l-136 -37h-15v66l-131 -66c-100 0 -162 37 -162 156v354h80v-337c0 -70 11 -109 81 -109c46 0 113 26 132 34v340l-71 30v15l136 37h15v-438z" />
    <glyph glyph-name="udieresis" unicode="&#xfc;" horiz-adv-x="544" 
d="M172 610c-31 0 -55 26 -55 60c0 33 24 59 55 59c30 0 54 -26 54 -59c0 -34 -24 -60 -54 -60zM352 610c-31 0 -55 26 -55 60c0 33 24 59 55 59c30 0 54 -26 54 -59c0 -34 -24 -60 -54 -60zM448 72l71 -30v-15l-136 -37h-15v66l-131 -66c-100 0 -162 37 -162 156v354h80
v-337c0 -70 11 -109 81 -109c46 0 113 26 132 34v340l-71 30v15l136 37h15v-438z" />
    <glyph glyph-name="ugrave" unicode="&#xf9;" horiz-adv-x="544" 
d="M304 593l-22 -12l-140 215c21 18 72 49 97 -20zM448 72l71 -30v-15l-136 -37h-15v66l-131 -66c-100 0 -162 37 -162 156v354h80v-337c0 -70 11 -109 81 -109c46 0 113 26 132 34v340l-71 30v15l136 37h15v-438z" />
    <glyph glyph-name="uhungarumlaut" unicode="&#x171;" horiz-adv-x="544" 
d="M318 796l-140 -215l-22 12l65 183c25 69 76 38 97 20zM328 581l-22 12l65 183c25 69 76 38 97 20zM448 72l71 -30v-15l-136 -37h-15v66l-131 -66c-100 0 -162 37 -162 156v354h80v-337c0 -70 11 -109 81 -109c46 0 113 26 132 34v340l-71 30v15l136 37h15v-438z" />
    <glyph glyph-name="umacron" unicode="&#x16b;" horiz-adv-x="544" 
d="M407 680v-50h-290v50h290zM448 72l71 -30v-15l-136 -37h-15v66l-131 -66c-100 0 -162 37 -162 156v354h80v-337c0 -70 11 -109 81 -109c46 0 113 26 132 34v340l-71 30v15l136 37h15v-438z" />
    <glyph glyph-name="uogonek" unicode="&#x173;" horiz-adv-x="544" 
d="M417 -1c-54 -43 -85 -77 -85 -117c0 -21 13 -40 43 -40c17 0 43 8 60 15l6 -18c-23 -20 -57 -49 -96 -49c-40 0 -75 22 -75 74c0 48 54 96 98 127v65l-131 -66c-100 0 -162 37 -162 156v354h80v-337c0 -70 11 -109 81 -109c46 0 113 26 132 34v340l-71 30v15l136 37h15
v-438l71 -30v-15z" />
    <glyph glyph-name="uring" unicode="&#x16f;" horiz-adv-x="544" 
d="M262 585c-61 0 -103 35 -103 96c0 55 42 95 103 95c60 0 102 -40 102 -95c0 -61 -42 -96 -102 -96zM262 742c-33 0 -58 -18 -58 -61c0 -49 25 -62 58 -62c32 0 57 13 57 62c0 43 -25 61 -57 61zM448 72l71 -30v-15l-136 -37h-15v66l-131 -66c-100 0 -162 37 -162 156v354
h80v-337c0 -70 11 -109 81 -109c46 0 113 26 132 34v340l-71 30v15l136 37h15v-438z" />
    <glyph glyph-name="w" unicode="w" horiz-adv-x="821" 
d="M821 500v-30l-52 -16l-197 -459h-15l-149 370l-159 -370h-15l-190 471l-44 9v25h205v-30l-65 -18l124 -324l120 297l-17 41l-57 9v25h188v-30l-47 -15l130 -343l140 349l-107 14v25h207z" />
    <glyph glyph-name="wacute" unicode="&#x1e83;" horiz-adv-x="821" 
d="M538 796l-140 -215l-22 12l65 183c25 69 76 38 97 20zM821 500v-30l-52 -16l-197 -459h-15l-149 370l-159 -370h-15l-190 471l-44 9v25h205v-30l-65 -18l124 -324l120 297l-17 41l-57 9v25h188v-30l-47 -15l130 -343l140 349l-107 14v25h207z" />
    <glyph glyph-name="wcircumflex" unicode="&#x175;" horiz-adv-x="821" 
d="M418 700l-99 -119l-20 12l111 217h15l112 -217l-19 -12zM821 500v-30l-52 -16l-197 -459h-15l-149 370l-159 -370h-15l-190 471l-44 9v25h205v-30l-65 -18l124 -324l120 297l-17 41l-57 9v25h188v-30l-47 -15l130 -343l140 349l-107 14v25h207z" />
    <glyph glyph-name="wdieresis" unicode="&#x1e85;" horiz-adv-x="821" 
d="M328 610c-31 0 -55 26 -55 60c0 33 24 59 55 59c30 0 54 -26 54 -59c0 -34 -24 -60 -54 -60zM508 610c-31 0 -55 26 -55 60c0 33 24 59 55 59c30 0 54 -26 54 -59c0 -34 -24 -60 -54 -60zM821 500v-30l-52 -16l-197 -459h-15l-149 370l-159 -370h-15l-190 471l-44 9v25
h205v-30l-65 -18l124 -324l120 297l-17 41l-57 9v25h188v-30l-47 -15l130 -343l140 349l-107 14v25h207z" />
    <glyph glyph-name="wgrave" unicode="&#x1e81;" horiz-adv-x="821" 
d="M460 593l-22 -12l-140 215c21 18 72 49 97 -20zM821 500v-30l-52 -16l-197 -459h-15l-149 370l-159 -370h-15l-190 471l-44 9v25h205v-30l-65 -18l124 -324l120 297l-17 41l-57 9v25h188v-30l-47 -15l130 -343l140 349l-107 14v25h207z" />
    <glyph glyph-name="yacute" unicode="&#xfd;" horiz-adv-x="511" 
d="M392 796l-140 -215l-22 12l65 183c25 69 76 38 97 20zM511 500v-30l-52 -16l-191 -458l-46 -172c-7 -27 -17 -34 -30 -34c-19 0 -40 19 -55 39l97 191l-185 445l-49 10v25h218v-30l-72 -20l131 -332l134 343l-88 14v25h188z" />
    <glyph glyph-name="ycircumflex" unicode="&#x177;" horiz-adv-x="511" 
d="M272 700l-99 -119l-20 12l111 217h15l112 -217l-19 -12zM511 500v-30l-52 -16l-191 -458l-46 -172c-7 -27 -17 -34 -30 -34c-19 0 -40 19 -55 39l97 191l-185 445l-49 10v25h218v-30l-72 -20l131 -332l134 343l-88 14v25h188z" />
    <glyph glyph-name="ydieresis" unicode="&#xff;" horiz-adv-x="511" 
d="M182 610c-31 0 -55 26 -55 60c0 33 24 59 55 59c30 0 54 -26 54 -59c0 -34 -24 -60 -54 -60zM362 610c-31 0 -55 26 -55 60c0 33 24 59 55 59c30 0 54 -26 54 -59c0 -34 -24 -60 -54 -60zM511 500v-30l-52 -16l-191 -458l-46 -172c-7 -27 -17 -34 -30 -34
c-19 0 -40 19 -55 39l97 191l-185 445l-49 10v25h218v-30l-72 -20l131 -332l134 343l-88 14v25h188z" />
    <glyph glyph-name="ygrave" unicode="&#x1ef3;" horiz-adv-x="511" 
d="M314 593l-22 -12l-140 215c21 18 72 49 97 -20zM511 500v-30l-52 -16l-191 -458l-46 -172c-7 -27 -17 -34 -30 -34c-19 0 -40 19 -55 39l97 191l-185 445l-49 10v25h218v-30l-72 -20l131 -332l134 343l-88 14v25h188z" />
    <glyph glyph-name="z" unicode="z" horiz-adv-x="482" 
d="M418 139l24 -8l-30 -131h-354l-8 13l268 447l-174 -5l-42 -94l-24 4l10 145c65 -9 175 -10 255 -10h75l8 -13l-269 -448l203 9z" />
    <glyph glyph-name="zacute" unicode="&#x17a;" horiz-adv-x="482" 
d="M369 796l-140 -215l-22 12l65 183c25 69 76 38 97 20zM418 139l24 -8l-30 -131h-354l-8 13l268 447l-174 -5l-42 -94l-24 4l10 145c65 -9 175 -10 255 -10h75l8 -13l-269 -448l203 9z" />
    <glyph glyph-name="zcaron" unicode="&#x17e;" horiz-adv-x="448" 
d="M260 586h-15l-111 217l20 12l99 -119l100 119l19 -12zM418 139l24 -8l-30 -131h-354l-8 13l268 447l-174 -5l-42 -94l-24 4l10 145c65 -9 175 -10 255 -10h75l8 -13l-269 -448l203 9z" />
    <glyph glyph-name="zdotaccent" unicode="&#x17c;" horiz-adv-x="482" 
d="M249 614c-34 0 -60 29 -60 66c0 36 26 65 60 65c33 0 59 -29 59 -65c0 -37 -26 -66 -59 -66zM418 139l24 -8l-30 -131h-354l-8 13l268 447l-174 -5l-42 -94l-24 4l10 145c65 -9 175 -10 255 -10h75l8 -13l-269 -448l203 9z" />
    <glyph glyph-name="z.001" horiz-adv-x="462" 
d="M403 139l24 -8l-30 -131h-354l-8 13l268 447l-174 -5l-42 -94l-24 4l10 145c65 -9 175 -10 255 -10h75l8 -13l-269 -448l203 9z" />
    <glyph glyph-name="T_h" horiz-adv-x="1248" 
d="M1162 37l61 -12v-25h-200v30l59 16v291c0 70 -11 109 -81 109c-46 0 -113 -26 -132 -34v-375l61 -12v-25h-200v30l59 16v582l-71 30v15l136 37h15v-266l131 66c110 0 162 -37 162 -156v-317zM389 650c10 0 164 0 259 10l15 -201l-25 -7l-56 149l-193 9v-562l122 -18v-30
h-329v30l122 19v561l-193 -9l-56 -149l-25 7l15 201c95 -10 249 -10 259 -10h85z" />
    <glyph glyph-name="g_g" horiz-adv-x="954" 
d="M425 510c30 0 37 -12 37 -30c0 -6 -1 -17 -7 -32c-37 8 -75 11 -114 11c26 -26 42 -61 42 -101c0 -89 -81 -151 -168 -151c-10 0 -20 1 -29 2c-24 -5 -67 -30 -67 -67c0 -31 22 -47 72 -47h158c34 0 92 -28 92 -103c0 -151 -165 -202 -257 -202c-82 0 -159 36 -159 114
c0 55 42 87 96 118c-45 14 -74 45 -74 85c0 56 50 89 103 111c-59 22 -104 74 -104 140c0 89 81 151 169 151c33 0 65 -9 92 -24c43 12 91 25 118 25zM927 448c-37 8 -75 11 -114 11c26 -26 42 -61 42 -101c0 -89 -81 -151 -168 -151c-10 0 -20 1 -29 2
c-24 -5 -67 -30 -67 -67c0 -31 22 -47 72 -47h158c34 0 92 -28 92 -103c0 -151 -165 -202 -257 -202c-82 0 -159 36 -159 114c0 55 42 87 96 118c-45 14 -74 45 -74 85c0 56 50 89 103 111c-59 22 -104 74 -104 140c0 89 81 151 169 151c33 0 65 -9 92 -24
c43 12 91 25 118 25c30 0 37 -12 37 -30c0 -6 -1 -17 -7 -32zM215 242c53 0 83 40 83 116s-30 116 -83 116c-54 0 -84 -40 -84 -116s30 -116 84 -116zM687 242c53 0 83 40 83 116s-30 116 -83 116c-54 0 -84 -40 -84 -116s30 -116 84 -116zM304 15h-133c-11 0 -23 1 -33 3
c-27 -21 -36 -44 -36 -87c0 -39 25 -90 115 -90c129 0 173 63 173 125c0 44 -28 49 -86 49zM776 15h-133c-11 0 -23 1 -33 3c-27 -21 -36 -44 -36 -87c0 -39 25 -90 115 -90c129 0 173 63 173 125c0 44 -28 49 -86 49z" />
    <glyph glyph-name="g_y" horiz-adv-x="1004" 
d="M425 510c30 0 37 -12 37 -30c0 -6 -1 -17 -7 -32c-37 8 -75 11 -114 11c26 -26 42 -61 42 -101c0 -89 -81 -151 -168 -151c-10 0 -20 1 -29 2c-24 -5 -67 -30 -67 -67c0 -31 22 -47 72 -47h158c34 0 92 -28 92 -103c0 -151 -165 -202 -257 -202c-82 0 -159 36 -159 114
c0 55 42 87 96 118c-45 14 -74 45 -74 85c0 56 50 89 103 111c-59 22 -104 74 -104 140c0 89 81 151 169 151c33 0 65 -9 92 -24c43 12 91 25 118 25zM1004 500v-30l-52 -16l-191 -458l-46 -172c-7 -27 -17 -34 -30 -34c-19 0 -40 19 -55 39l97 191l-185 445l-49 10v25h218
v-30l-72 -20l131 -332l134 343l-88 14v25h188zM215 242c53 0 83 40 83 116s-30 116 -83 116c-54 0 -84 -40 -84 -116s30 -116 84 -116zM304 15h-133c-11 0 -23 1 -33 3c-27 -21 -36 -44 -36 -87c0 -39 25 -90 115 -90c129 0 173 63 173 125c0 44 -28 49 -86 49z" />
    <glyph glyph-name="ordfeminine" unicode="&#xaa;" horiz-adv-x="239" 
d="M229 479l10 -7s-7 -29 -35 -29c-24 0 -31 23 -32 35l-1 1c-21 -18 -51 -42 -56 -42c-51 0 -77 38 -77 84c0 34 88 56 130 65v54c0 22 -32 33 -35 33l-49 -18l9 -23c0 -11 -11 -19 -20 -19c-18 0 -29 16 -29 40c0 22 92 47 93 47c18 0 73 -12 73 -66v-148s0 -10 7 -17
c7 4 12 10 12 10zM82 525c0 -21 14 -51 35 -51c7 0 36 21 51 36v50c-16 -1 -86 -27 -86 -35z" />
    <glyph glyph-name="ordmasculine" unicode="&#xba;" horiz-adv-x="322" 
d="M161 700c69 0 123 -59 123 -132s-54 -132 -123 -132c-64 0 -123 59 -123 132s59 132 123 132zM142 670c-12 0 -59 -35 -59 -103c0 -58 47 -104 97 -104c12 0 59 36 59 104c0 58 -47 103 -97 103z" />
    <glyph glyph-name="uni0394" unicode="&#x394;" horiz-adv-x="657" 
d="M40 0l289 660l288 -660h-577zM111 45h435l-217 506z" />
    <glyph glyph-name="uni03A9" unicode="&#x3a9;" horiz-adv-x="715" 
d="M635 149h30l-6 -149h-246v140c71 20 148 114 148 238c0 134 -60 247 -203 247c-144 0 -204 -113 -204 -247c0 -126 79 -218 148 -237v-141h-246l-6 149h30l26 -86l151 -6v72c-107 24 -193 125 -193 252c0 140 91 279 294 279s294 -139 294 -279
c0 -127 -87 -228 -195 -252v-72l152 7z" />
    <glyph glyph-name="uni03BC" unicode="&#x3bc;" horiz-adv-x="544" 
d="M448 72l71 -30v-15l-136 -37h-15v66l-131 -66c-31 0 -59 4 -82 12v-202h-80v700h80v-337c0 -70 11 -109 81 -109c46 0 113 26 132 34v340l-71 30v15l136 37h15v-438z" />
    <glyph glyph-name="pi" unicode="&#x3c0;" horiz-adv-x="647" 
d="M509 30c37 0 52 35 58 81h30c-10 -81 -39 -121 -107 -121c-67 0 -117 46 -117 133v307h-126c-1 -125 -24 -297 -70 -440c-26 0 -74 10 -74 56c0 44 94 175 105 384h-55c-60 0 -73 -14 -83 -53h-30c10 63 27 123 113 123h331c60 0 73 14 83 53h30
c-10 -63 -27 -123 -113 -123h-31v-291c0 -74 13 -109 56 -109z" />
    <glyph glyph-name="zero" unicode="0" horiz-adv-x="551" 
d="M276 510c124 0 230 -101 230 -260c0 -160 -106 -260 -230 -260c-125 0 -231 100 -231 260c0 159 106 260 231 260zM276 422c-94 0 -191 -42 -191 -172s97 -172 191 -172s191 42 191 172s-97 172 -191 172z" />
    <glyph glyph-name="one" unicode="1" horiz-adv-x="333" 
d="M204 40l84 -15v-25h-238v30l84 20v364l-84 34v15l139 37h15v-460z" />
    <glyph glyph-name="two" unicode="2" horiz-adv-x="424" 
d="M369 136h30l-40 -136h-287l-10 40c75 74 178 177 178 292c0 77 -44 104 -96 104c-47 0 -78 -26 -90 -39l-19 16c23 42 75 97 156 97s131 -52 131 -136c0 -116 -112 -236 -194 -313l200 8z" />
    <glyph glyph-name="three" unicode="3" horiz-adv-x="358" 
d="M136 185c70 0 167 -39 167 -136c0 -101 -124 -191 -217 -223l-7 14c64 44 140 120 140 209c0 74 -55 116 -121 121l-27 -14l-10 20c55 36 154 112 154 186c0 49 -31 74 -79 74c-49 0 -86 -24 -101 -42l-10 20c17 41 68 96 142 96c81 0 128 -47 128 -116
c0 -85 -79 -154 -172 -209h13z" />
    <glyph glyph-name="four" unicode="4" horiz-adv-x="469" 
d="M439 70l-21 -70h-74v-154h-80v154h-229l-10 39l283 471l36 -10v-430h95zM94 70h170v292z" />
    <glyph glyph-name="five" unicode="5" horiz-adv-x="335" 
d="M90 342c81 -11 188 -80 188 -228c0 -142 -115 -247 -195 -288l-9 12c58 57 120 151 120 267c0 108 -68 170 -119 186l-25 40l46 179c28 -8 58 -10 98 -10c30 0 61 2 91 10l-20 -80c-20 -6 -46 -9 -75 -9c-28 0 -53 1 -77 4z" />
    <glyph glyph-name="six" unicode="6" horiz-adv-x="435" 
d="M231 393c85 0 164 -53 164 -196c0 -135 -84 -207 -174 -207c-123 0 -181 92 -181 217c0 300 308 352 308 352l10 -20s-181 -63 -223 -192c24 28 56 46 96 46zM222 34c51 0 88 43 88 144s-43 166 -104 166c-53 0 -81 -48 -81 -142c0 -91 28 -168 97 -168z" />
    <glyph glyph-name="seven" unicode="7" horiz-adv-x="367" 
d="M337 500l10 -10l-183 -666l-63 19l185 577h-196l-33 -56h-37l40 136h277z" />
    <glyph glyph-name="eight" unicode="8" horiz-adv-x="428" 
d="M271 290c55 -23 107 -62 107 -146c0 -82 -69 -154 -159 -154c-91 0 -169 62 -169 154c0 79 40 117 91 145c-50 24 -84 59 -84 134c0 87 62 144 152 144c94 0 152 -61 152 -143c0 -42 -12 -66 -30 -89c0 0 -32 -26 -60 -45zM204 526c-38 0 -70 -32 -70 -99
c0 -69 35 -105 103 -127c16 13 47 49 47 123c0 64 -30 103 -80 103zM221 31c43 0 71 37 71 112c0 78 -35 107 -103 129c-26 -19 -53 -59 -53 -129c0 -65 30 -112 85 -112z" />
    <glyph glyph-name="nine" unicode="9" horiz-adv-x="430" 
d="M209 510c123 0 181 -92 181 -237c0 -270 -292 -449 -292 -449l-10 20s160 111 208 310c-24 -29 -57 -47 -97 -47c-85 0 -164 73 -164 196c0 135 84 207 174 207zM224 147c53 0 81 77 81 151c0 100 -28 177 -97 177c-51 0 -88 -43 -88 -153c0 -81 43 -175 104 -175z" />
    <glyph glyph-name="zero.lf" horiz-adv-x="503" 
d="M250 624c149 0 240 -159 240 -314c0 -165 -101 -325 -240 -325c-138 0 -239 170 -239 325c0 165 111 314 239 314zM216 570c-32 0 -121 -104 -121 -262c0 -129 77 -275 191 -275c32 0 121 116 121 275c0 128 -77 262 -191 262z" />
    <glyph glyph-name="one.lf" horiz-adv-x="269" 
d="M181 48l65 -20v-29c-67 5 -136 5 -208 0v29l65 20v482l-83 -41v41l127 100h35l-1 -102v-480z" />
    <glyph glyph-name="two.lf" horiz-adv-x="451" 
d="M428 136l-14 -88l-7 -48h-370l32 46c163 241 222 325 222 422c0 94 -72 108 -86 108c-23 0 -117 -79 -117 -79l-24 40s78 99 175 99c84 0 149 -51 149 -148c0 -112 -153 -310 -246 -441l207 2l42 87h37z" />
    <glyph glyph-name="three.lf" horiz-adv-x="366" 
d="M240 362c46 -13 103 -52 103 -137c0 -189 -187 -249 -253 -249c-26 0 -68 27 -68 56l15 41l91 -58c48 18 121 70 121 201c0 77 -54 102 -60 102c-66 0 -122 -30 -122 -30v51c91 33 166 81 166 159c0 74 -52 86 -66 86c-45 0 -127 -79 -127 -79l-24 42s86 89 150 89
c60 0 157 -31 157 -140c0 -63 -44 -107 -83 -134z" />
    <glyph glyph-name="four.lf" horiz-adv-x="516" 
d="M493 216v-52h-103l2 -164h-94v164h-209l-47 34l256 401l86 25l5 -408h104zM121 216h177v292z" />
    <glyph glyph-name="five.lf" horiz-adv-x="376" 
d="M363 551c-61 -18 -122 -20 -183 -6l-34 -129c31 -2 195 -21 195 -187c0 -189 -182 -249 -248 -249c-26 0 -68 27 -68 56l15 41l91 -58c48 18 121 70 121 201c0 127 -122 135 -122 135l-47 34l72 241c67 -15 136 -15 208 0v-79z" />
    <glyph glyph-name="six.lf" horiz-adv-x="434" 
d="M227 353c95 0 184 -63 184 -171c0 -120 -99 -202 -184 -202c-138 0 -199 122 -199 222c0 335 342 403 342 403l-25 -49s-170 -53 -221 -241c40 23 82 38 103 38zM239 24c15 0 94 34 94 157c0 80 -69 127 -119 127c-15 0 -105 -14 -105 -107c0 -110 60 -177 130 -177z" />
    <glyph glyph-name="seven.lf" horiz-adv-x="417" 
d="M394 590l-278 -603h-73l247 529l-212 -2l-12 -57h-41l1 133h368z" />
    <glyph glyph-name="eight.lf" horiz-adv-x="409" 
d="M266 307c62 -24 120 -77 120 -155c0 -95 -84 -162 -169 -162c-7 0 -13 0 -20 1c-89 8 -159 68 -159 161c0 61 43 124 96 153c-52 24 -89 66 -89 137c0 85 82 156 152 156c7 0 15 0 22 -1c85 -8 147 -68 147 -155c0 -30 -14 -58 -32 -81c0 0 -34 -32 -68 -54zM186 557
c-13 0 -64 -36 -64 -116c0 -61 46 -114 96 -122l16 -3c17 14 55 62 55 125c0 59 -36 102 -78 113c-8 2 -17 3 -25 3zM229 31c15 0 71 32 71 120c0 68 -48 126 -99 134l-14 3c-23 -20 -63 -74 -63 -137c0 -62 34 -108 84 -118c7 -1 14 -2 21 -2z" />
    <glyph glyph-name="nine.lf" horiz-adv-x="420" 
d="M209 586c127 0 189 -122 188 -222c1 -334 -341 -403 -341 -403l24 49s169 52 221 239c-36 -21 -73 -35 -93 -35c-84 -1 -195 62 -194 190c1 120 109 182 195 182zM317 364v1c0 110 -51 177 -120 177c-15 0 -104 -14 -104 -136c0 -111 89 -148 128 -147c15 0 95 14 96 105
z" />
    <glyph glyph-name="uni00B9" unicode="&#xb9;" horiz-adv-x="226" 
d="M134 484l47 -8v-14h-131v17l46 11v200l-46 19v8l76 21h8v-254z" />
    <glyph glyph-name="uni00B2" unicode="&#xb2;" horiz-adv-x="241" 
d="M204 509h18l-24 -82h-174l-6 24c45 45 107 108 107 177c0 47 -26 63 -58 63c-28 0 -47 -16 -54 -23l-12 9c14 26 46 59 95 59s79 -31 79 -82c0 -71 -69 -144 -118 -191l122 5z" />
    <glyph glyph-name="uni00B3" unicode="&#xb3;" horiz-adv-x="249" 
d="M92 537c43 0 102 -24 102 -82c0 -62 -76 -116 -132 -135l-4 8c39 27 85 73 85 127c0 45 -33 70 -74 74l-16 -9l-6 12c33 21 93 68 93 112c0 30 -18 45 -48 45c-29 0 -52 -14 -61 -25l-6 12c10 25 41 58 86 58c49 0 78 -28 78 -70c0 -52 -48 -94 -105 -127h8z" />
    <glyph glyph-name="fraction" unicode="&#x2044;" horiz-adv-x="606" 
 />
    <glyph glyph-name="onehalf" unicode="&#xbd;" horiz-adv-x="606" 
 />
    <glyph glyph-name="onequarter" unicode="&#xbc;" horiz-adv-x="606" 
 />
    <glyph glyph-name="threequarters" unicode="&#xbe;" horiz-adv-x="606" 
 />
    <glyph glyph-name="period" unicode="." horiz-adv-x="219" 
d="M110 -10c-34 0 -60 26 -60 60c0 33 26 59 60 59c33 0 59 -26 59 -59c0 -34 -26 -60 -59 -60z" />
    <glyph glyph-name="comma" unicode="," horiz-adv-x="218" 
d="M102 111c39 0 66 -30 66 -85c0 -75 -46 -147 -85 -182l-19 18c31 34 48 74 48 109c0 47 -35 62 -77 62c0 56 34 78 67 78z" />
    <glyph glyph-name="colon" unicode=":" horiz-adv-x="219" 
d="M110 329c-34 0 -60 26 -60 60c0 33 26 59 60 59c33 0 59 -26 59 -59c0 -34 -26 -60 -59 -60zM109 -10c-33 0 -59 26 -59 60c0 33 26 59 59 59c34 0 60 -26 60 -59c0 -34 -26 -60 -60 -60z" />
    <glyph glyph-name="semicolon" unicode=";" horiz-adv-x="218" 
d="M103 329c-34 0 -60 26 -60 60c0 33 26 59 60 59c33 0 59 -26 59 -59c0 -34 -26 -60 -59 -60zM102 111c39 0 66 -30 66 -85c0 -75 -46 -147 -85 -182l-19 18c31 34 48 74 48 109c0 47 -35 62 -77 62c0 56 34 78 67 78z" />
    <glyph glyph-name="ellipsis" unicode="&#x2026;" horiz-adv-x="531" 
d="M110 -10c-34 0 -60 26 -60 60c0 33 26 59 60 59c33 0 59 -26 59 -59c0 -34 -26 -60 -59 -60zM273 -10c-34 0 -60 26 -60 60c0 33 26 59 60 59c33 0 59 -26 59 -59c0 -34 -26 -60 -59 -60zM437 -10c-34 0 -60 26 -60 60c0 33 26 59 60 59c33 0 59 -26 59 -59
c0 -34 -26 -60 -59 -60z" />
    <glyph glyph-name="exclam" unicode="!" horiz-adv-x="229" 
d="M166 690l-39 -499h-25l-38 499l51 20zM115 -10c-34 0 -60 26 -60 60c0 33 26 59 60 59c33 0 59 -26 59 -59c0 -34 -26 -60 -59 -60z" />
    <glyph glyph-name="exclamdown" unicode="&#xa1;" horiz-adv-x="198" 
d="M115 690c33 0 59 -26 59 -60c0 -33 -26 -59 -59 -59c-34 0 -60 26 -60 59c0 34 26 60 60 60zM166 -10l-51 -20l-51 20l38 499h25z" />
    <glyph glyph-name="question" unicode="?" horiz-adv-x="399" 
d="M120 710c0 -96 229 -95 229 -240c0 -92 -99 -123 -99 -123l-85 26l-19 -183h-25l-22 248l130 -43s43 27 43 75c0 94 -167 97 -167 186v54h15zM137 109c33 0 59 -26 59 -59c0 -34 -26 -60 -59 -60c-34 0 -60 26 -60 60c0 33 26 59 60 59z" />
    <glyph glyph-name="questiondown" unicode="&#xbf;" horiz-adv-x="303" 
d="M166 700c34 0 60 -26 60 -60c0 -33 -26 -59 -60 -59c-33 0 -59 26 -59 59c0 34 26 60 59 60zM74 295c0 0 -43 -27 -43 -75c0 -94 167 -97 167 -186v-54h-15c0 96 -229 95 -229 240c0 92 99 123 99 123l85 -26l19 183h25l22 -248z" />
    <glyph glyph-name="periodcentered" unicode="&#xb7;" horiz-adv-x="204" 
d="M110 252c-34 0 -60 26 -60 60c0 33 26 59 60 59c33 0 59 -26 59 -59c0 -34 -26 -60 -59 -60z" />
    <glyph glyph-name="bullet" unicode="&#x2022;" horiz-adv-x="481" 
d="M241 450c79 0 142 -63 142 -142c0 -80 -63 -143 -142 -143c-80 0 -143 63 -143 143c0 79 63 142 143 142z" />
    <glyph glyph-name="asterisk" unicode="*" horiz-adv-x="490" 
d="M237 490l-25 210h66l-24 -210l190 87l21 -63l-207 -41l142 -154l-53 -39l-102 185l-103 -184l-54 38l144 156l-207 40l20 63z" />
    <glyph glyph-name="numbersign" unicode="#" horiz-adv-x="703" 
d="M488 401l-58 -189l212 14v-38l-224 -15l-67 -219l-37 18l61 198l-131 -9l-63 -207l-37 18l57 186l-140 -10l-1 39l153 10l58 189l-209 -14v38l221 15l70 229l37 -18l-64 -208l131 9l66 217l37 -18l-60 -196l142 10l1 -39zM256 200l131 9l57 189l-130 -9z" />
    <glyph glyph-name="slash" unicode="/" horiz-adv-x="409" 
d="M318 712l39 -12l-246 -787l-39 12z" />
    <glyph glyph-name="backslash" unicode="\" horiz-adv-x="290" 
d="M37 712l246 -787l-39 -12l-246 787z" />
    <glyph glyph-name="parenleft" unicode="(" horiz-adv-x="335" 
d="M285 -135c-126 100 -225 267 -225 459s99 359 225 459l20 -23c-102 -95 -200 -255 -200 -436s98 -341 200 -436z" />
    <glyph glyph-name="parenright" unicode=")" horiz-adv-x="335" 
d="M50 -135l-20 23c102 95 200 255 200 436s-98 341 -200 436l20 23c126 -100 225 -267 225 -459s-99 -359 -225 -459z" />
    <glyph glyph-name="braceleft" unicode="{" horiz-adv-x="353" 
d="M50 303v34c88 13 112 56 112 112c0 71 -38 127 -38 191c0 47 21 90 189 90v-30c-124 0 -146 -25 -146 -60c0 -58 43 -121 43 -190c0 -93 -72 -130 -103 -130c31 0 103 -37 103 -130c0 -69 -43 -132 -43 -190c0 -35 22 -60 146 -60v-30c-168 0 -189 43 -189 90
c0 64 38 120 38 191c0 56 -24 99 -112 112z" />
    <glyph glyph-name="braceright" unicode="}" horiz-adv-x="353" 
d="M303 303c-88 -13 -112 -56 -112 -112c0 -71 38 -127 38 -191c0 -47 -21 -90 -189 -90v30c124 0 146 25 146 60c0 58 -43 121 -43 190c0 93 72 130 103 130c-31 0 -103 37 -103 130c0 69 43 132 43 190c0 35 -22 60 -146 60v30c168 0 189 -43 189 -90
c0 -64 -38 -120 -38 -191c0 -56 24 -99 112 -112v-34z" />
    <glyph glyph-name="bracketleft" unicode="[" horiz-adv-x="349" 
d="M125 -60h184v-30h-229v820h225v-30h-180v-760z" />
    <glyph glyph-name="bracketright" unicode="]" horiz-adv-x="349" 
d="M269 730v-820h-229v30h184v760h-180v30h225z" />
    <glyph glyph-name="hyphen" unicode="-" horiz-adv-x="436" 
d="M358 338v-50h-280v50h280z" />
    <glyph glyph-name="uni00AD" unicode="&#xad;" horiz-adv-x="436" 
d="M358 338v-50h-280v50h280z" />
    <glyph glyph-name="endash" unicode="&#x2013;" horiz-adv-x="516" 
d="M448 338v-50h-380v50h380z" />
    <glyph glyph-name="emdash" unicode="&#x2014;" horiz-adv-x="750" 
d="M715 338v-50h-680v50h680z" />
    <glyph glyph-name="underscore" unicode="_" horiz-adv-x="546" 
d="M488 50v-50h-430v50h430z" />
    <glyph glyph-name="quotesinglbase" unicode="&#x201a;" horiz-adv-x="233" 
d="M117 111c39 0 66 -30 66 -85c0 -75 -46 -147 -85 -182l-19 18c31 34 48 74 48 109c0 47 -35 62 -77 62c0 56 34 78 67 78z" />
    <glyph glyph-name="quotedblbase" unicode="&#x201e;" horiz-adv-x="249" 
d="M102 111c39 0 66 -30 66 -85c0 -75 -46 -147 -85 -182l-19 18c31 34 48 74 48 109c0 47 -35 62 -77 62c0 56 34 78 67 78z" />
    <glyph glyph-name="quotedblleft" unicode="&#x201c;" horiz-adv-x="379" 
d="M101 711c33 0 67 -22 67 -78c-42 0 -77 -15 -77 -62c0 -35 17 -75 48 -109l-19 -18c-39 35 -85 107 -85 182c0 55 27 85 66 85zM262 711c33 0 67 -22 67 -78c-42 0 -77 -15 -77 -62c0 -35 17 -75 48 -109l-19 -18c-39 35 -85 107 -85 182c0 55 27 85 66 85z" />
    <glyph glyph-name="quotedblright" unicode="&#x201d;" horiz-adv-x="379" 
d="M102 711c39 0 66 -30 66 -85c0 -75 -46 -147 -85 -182l-19 18c31 34 48 74 48 109c0 47 -35 62 -77 62c0 56 34 78 67 78zM263 711c39 0 66 -30 66 -85c0 -75 -46 -147 -85 -182l-19 18c31 34 48 74 48 109c0 47 -35 62 -77 62c0 56 34 78 67 78z" />
    <glyph glyph-name="quoteleft" unicode="&#x2018;" horiz-adv-x="218" 
d="M116 711c33 0 67 -22 67 -78c-42 0 -77 -15 -77 -62c0 -35 17 -75 48 -109l-19 -18c-39 35 -85 107 -85 182c0 55 27 85 66 85z" />
    <glyph glyph-name="quoteright" unicode="&#x2019;" horiz-adv-x="218" 
d="M102 711c39 0 66 -30 66 -85c0 -75 -46 -147 -85 -182l-19 18c31 34 48 74 48 109c0 47 -35 62 -77 62c0 56 34 78 67 78z" />
    <glyph glyph-name="guillemotleft" unicode="&#xab;" horiz-adv-x="492" 
d="M241 445l-114 -201l114 -201l-23 -20l-188 221l188 221zM437 445l-114 -201l114 -201l-23 -20l-188 221l188 221z" />
    <glyph glyph-name="guillemotright" unicode="&#xbb;" horiz-adv-x="492" 
d="M78 465l188 -221l-188 -221l-23 20l114 201l-114 201zM274 465l188 -221l-188 -221l-23 20l114 201l-114 201z" />
    <glyph glyph-name="guilsinglleft" unicode="&#x2039;" horiz-adv-x="296" 
d="M241 445l-114 -201l114 -201l-23 -20l-188 221l188 221z" />
    <glyph glyph-name="guilsinglright" unicode="&#x203a;" horiz-adv-x="296" 
d="M78 465l188 -221l-188 -221l-23 20l114 201l-114 201z" />
    <glyph glyph-name="quotedbl" unicode="&#x22;" horiz-adv-x="379" 
d="M117 711c39 0 66 -30 66 -85c0 -75 -46 -147 -85 -182l-19 18c31 34 48 74 48 109c0 47 -35 62 -77 62c0 56 34 78 67 78zM278 711c39 0 66 -30 66 -85c0 -75 -46 -147 -85 -182l-19 18c31 34 48 74 48 109c0 47 -35 62 -77 62c0 56 34 78 67 78z" />
    <glyph glyph-name="quotesingle" unicode="'" horiz-adv-x="218" 
d="M102 711c39 0 66 -30 66 -85c0 -75 -46 -147 -85 -182l-19 18c31 34 48 74 48 109c0 47 -35 62 -77 62c0 56 34 78 67 78z" />
    <glyph glyph-name="cent" unicode="&#xa2;" horiz-adv-x="534" 
d="M467 242l27 -8l-43 -124c-41 -22 -105 -36 -150 -36h-7l-15 -172l-45 4l15 172c-124 22 -209 122 -209 244c0 141 113 246 253 253l13 153l45 -4l-13 -151c68 -7 113 -37 127 -48v-116h-30c-6 62 -23 116 -101 125l-36 -420h13c99 0 127 61 156 128zM140 327
c0 -106 37 -181 113 -205l36 412c-91 -10 -149 -77 -149 -207z" />
    <glyph glyph-name="currency" unicode="&#xa4;" horiz-adv-x="622" 
d="M532 325c0 -55 -18 -105 -49 -144l89 -89l-28 -28l-88 88c-39 -32 -89 -52 -145 -52c-57 0 -106 20 -145 52l-88 -88l-28 28l89 89c-31 39 -49 89 -49 144s18 105 49 144l-89 89l28 28l89 -89c38 33 88 53 144 53s106 -20 144 -53l89 89l28 -28l-89 -89
c31 -39 49 -89 49 -144zM311 156c94 0 163 74 163 169c0 94 -69 169 -163 169s-163 -75 -163 -169c0 -95 69 -169 163 -169z" />
    <glyph glyph-name="dollar" unicode="$" horiz-adv-x="554" 
d="M309 375c100 -53 180 -101 180 -202c0 -97 -75 -183 -214 -183h-11l-8 -88l-45 4l8 89c-38 6 -80 17 -116 37l-38 167l28 10c21 -73 57 -144 130 -169l23 267c-77 41 -140 85 -140 169c0 82 62 169 171 182l6 70l45 -4l-6 -64c63 -4 115 -28 135 -41v-137h-30
c-7 66 -35 128 -108 137l-21 -238zM186 520c0 -52 26 -84 69 -113l18 211c-56 -9 -87 -49 -87 -98zM285 30c93 0 127 59 127 104c0 70 -54 112 -123 150l-22 -253c6 -1 12 -1 18 -1z" />
    <glyph glyph-name="Euro" unicode="&#x20ac;" horiz-adv-x="657" 
d="M589 211l28 -10l-58 -169c-56 -30 -124 -42 -185 -42c-150 0 -255 100 -284 244h-70l10 45h53c-1 14 -2 28 -2 42c0 8 0 15 1 23h-62l10 45h56c26 163 146 271 296 271c98 0 174 -47 196 -61v-159h-30c-8 92 -47 180 -160 180c-99 0 -185 -78 -204 -231h279l-10 -45h-272
v-16c0 -17 1 -33 2 -49h250l-10 -45h-234c23 -125 94 -204 198 -204c115 0 158 89 202 181z" />
    <glyph glyph-name="florin" unicode="&#x192;" horiz-adv-x="508" 
d="M460 660c65 0 108 -42 108 -83c0 -32 -29 -52 -82 -52c0 52 -6 98 -47 98c-38 0 -84 -40 -109 -174l-21 -115h130l-10 -45h-128l-49 -265c-20 -108 -99 -234 -206 -234c-62 0 -106 42 -106 83c0 32 29 52 82 52c0 -47 6 -98 43 -98c33 0 84 39 106 174l47 288h-123l10 45
h120l20 122c13 79 101 204 215 204z" />
    <glyph glyph-name="sterling" unicode="&#xa3;" horiz-adv-x="622" 
d="M565 173l22 -7c-30 -126 -68 -176 -144 -176c-77 0 -145 50 -218 82c-31 -56 -78 -82 -121 -82c-53 0 -84 29 -84 74c0 44 31 75 89 75c20 0 41 -4 62 -9v2c0 54 0 107 2 157h-123l10 45h115c10 189 53 326 222 326c63 0 127 -28 150 -41v-137h-30
c-9 76 -40 138 -132 138c-100 0 -132 -74 -132 -154c0 -35 3 -83 5 -132h235l-10 -45h-223c1 -19 1 -38 1 -55c0 -50 -7 -92 -20 -126c54 -19 112 -38 177 -38c85 0 117 31 147 103zM106 30c34 0 55 18 62 63c-16 4 -33 6 -51 6c-39 0 -57 -12 -57 -34c0 -24 20 -35 46 -35z
" />
    <glyph glyph-name="yen" unicode="&#xa5;" horiz-adv-x="665" 
d="M660 620l-81 -17l-200 -352h179l-10 -45h-169v-45h179l-10 -45h-169v-69l92 -17v-30h-269v30l92 18v68h-179l10 45h169v45h-179l10 45h156l-195 353l-81 16v30h269v-30l-94 -18l172 -317l169 317l-90 18v30h229v-30z" />
    <glyph glyph-name="plus" unicode="+" horiz-adv-x="600" 
d="M326 274v-225h-52v225h-214v50h214v225h52v-225h214v-50h-214z" />
    <glyph glyph-name="minus" unicode="&#x2212;" horiz-adv-x="600" 
d="M540 324v-50h-480v50h480z" />
    <glyph glyph-name="multiply" unicode="&#xd7;" horiz-adv-x="600" 
d="M142 104l-37 37l159 159l-158 158l35 35l158 -158l159 159l37 -37l-159 -159l158 -158l-35 -35l-158 158z" />
    <glyph glyph-name="divide" unicode="&#xf7;" horiz-adv-x="606" 
d="M301 424c-34 0 -60 29 -60 66c0 36 26 65 60 65c33 0 59 -29 59 -65c0 -37 -26 -66 -59 -66zM540 324v-50h-480v50h480zM301 43c-34 0 -60 29 -60 66c0 36 26 65 60 65c33 0 59 -29 59 -65c0 -37 -26 -66 -59 -66z" />
    <glyph glyph-name="equal" unicode="=" horiz-adv-x="600" 
d="M60 464h480v-50h-480v50zM60 184h480v-50h-480v50z" />
    <glyph glyph-name="notequal" unicode="&#x2260;" horiz-adv-x="600" 
d="M540 414h-184l-61 -230h245v-50h-258l-33 -122l-48 13l29 109h-170v50h184l61 230h-245v50h258l33 122l48 -13l-29 -109h170v-50z" />
    <glyph glyph-name="greater" unicode="&#x3e;" horiz-adv-x="600" 
d="M540 554v-61l-425 -194l425 -195v-60l-480 230v50z" />
    <glyph glyph-name="less" unicode="&#x3c;" horiz-adv-x="600" 
d="M60 554l480 -230v-50l-480 -230v60l425 195l-425 194v61z" />
    <glyph glyph-name="greaterequal" unicode="&#x2265;" horiz-adv-x="600" 
d="M540 594v-61l-425 -194l425 -195v-60l-480 230v50zM60 -20v50h480v-50h-480z" />
    <glyph glyph-name="lessequal" unicode="&#x2264;" horiz-adv-x="600" 
d="M60 594l480 -230v-50l-480 -230v60l425 195l-425 194v61zM60 -20v50h480v-50h-480z" />
    <glyph glyph-name="plusminus" unicode="&#xb1;" horiz-adv-x="600" 
d="M326 315v-225h-52v225h-214v50h214v225h52v-225h214v-50h-214zM540 30v-50h-480v50h480z" />
    <glyph glyph-name="approxequal" unicode="&#x2248;" horiz-adv-x="600" 
d="M496 476l44 -22c-30 -60 -69 -88 -124 -88c-100 0 -146 74 -228 74c-39 0 -61 -16 -84 -60l-44 22c30 60 69 88 123 88c101 0 152 -74 228 -74c40 0 62 16 85 60zM496 217l44 -22c-30 -60 -69 -88 -124 -88c-100 0 -146 74 -228 74c-39 0 -61 -16 -84 -60l-44 22
c30 60 69 88 123 88c101 0 152 -74 228 -74c40 0 62 16 85 60z" />
    <glyph glyph-name="asciitilde" unicode="~" horiz-adv-x="600" 
d="M486 548l44 -22c-30 -60 -69 -88 -124 -88c-100 0 -126 74 -208 74c-39 0 -61 -16 -84 -60l-44 22c30 60 69 88 123 88c101 0 132 -74 208 -74c40 0 62 16 85 60z" />
    <glyph glyph-name="logicalnot" unicode="&#xac;" horiz-adv-x="600" 
d="M60 340h460v-270h-48v220h-412v50z" />
    <glyph glyph-name="asciicircum" unicode="^" horiz-adv-x="600" 
d="M181 410l-20 12l131 167h15l132 -167l-19 -12l-120 90z" />
    <glyph glyph-name="infinity" unicode="&#x221e;" horiz-adv-x="792" 
d="M574 516c116 0 168 -100 168 -216c0 -114 -50 -214 -175 -214c-98 0 -145 62 -179 134c-34 -73 -79 -133 -169 -133c-116 0 -169 101 -169 215s53 214 172 214c97 0 143 -67 179 -143c33 77 79 143 173 143zM590 156c66 0 107 41 107 146c0 103 -40 174 -121 174
c-83 0 -118 -76 -150 -160c36 -83 74 -160 164 -160zM219 127c78 0 113 70 144 150c-35 86 -68 169 -159 169c-64 0 -109 -41 -109 -145c0 -107 47 -174 124 -174z" />
    <glyph glyph-name="integral" unicode="&#x222b;" horiz-adv-x="588" 
d="M231 101l34 405c7 79 101 204 215 204c65 0 108 -42 108 -83c0 -32 -29 -52 -82 -52c0 52 -6 98 -47 98c-38 0 -95 -38 -109 -174l-38 -375c-11 -108 -99 -234 -206 -234c-62 0 -106 42 -106 83c0 32 29 52 82 52c0 -47 6 -98 43 -98c33 0 95 39 106 174z" />
    <glyph glyph-name="product" unicode="&#x220f;" horiz-adv-x="810" 
d="M760 620l-92 -17v-556l92 -17v-30h-269v30l92 18v554h-356v-555l92 -17v-30h-269v30l92 18v554l-92 18v30h710v-30z" />
    <glyph glyph-name="summation" unicode="&#x2211;" horiz-adv-x="644" 
d="M555 186l29 -9l-44 -177h-477l-8 13l201 288l-194 336l8 13h461l15 -161l-25 -7l-56 118l-294 9l165 -282l-192 -269l344 6z" />
    <glyph glyph-name="radical" unicode="&#x221a;" horiz-adv-x="709" 
d="M709 650v-40h-206l-234 -615h-15l-234 505h92l169 -372l188 522h240z" />
    <glyph glyph-name="partialdiff" unicode="&#x2202;" horiz-adv-x="539" 
d="M242 -10c-119 0 -197 87 -197 213c0 121 82 258 225 258l124 -79c1 149 -59 274 -194 274c-56 0 -98 -21 -146 -48l-14 21c48 38 114 81 198 81c157 0 241 -143 241 -331c0 -178 -104 -389 -237 -389zM135 240c0 -139 60 -209 140 -209c37 0 110 139 115 311
c-40 21 -110 55 -151 55c-71 0 -104 -76 -104 -157z" />
    <glyph glyph-name="percent" unicode="%" horiz-adv-x="651" 
d="M185 353c-84 0 -130 69 -130 154c0 84 46 153 130 153c83 0 129 -69 129 -153c0 -85 -47 -154 -129 -154zM394 356l-21 9l66 295l65 -26zM199 403c46 0 75 41 75 104c0 72 -28 113 -75 113c-46 0 -74 -41 -74 -113c0 -63 28 -104 74 -104zM213 -10l-65 26l116 287l22 -7z
M467 -10c-84 0 -130 69 -130 154c0 84 46 153 130 153c83 0 129 -69 129 -153c0 -85 -47 -154 -129 -154zM481 40c46 0 75 41 75 104c0 72 -28 113 -75 113c-46 0 -74 -41 -74 -113c0 -63 28 -104 74 -104z" />
    <glyph glyph-name="perthousand" unicode="&#x2030;" horiz-adv-x="954" 
d="M185 353c-84 0 -130 69 -130 154c0 84 46 153 130 153c83 0 129 -69 129 -153c0 -85 -47 -154 -129 -154zM394 356l-21 9l66 295l65 -26zM199 403c46 0 75 41 75 104c0 72 -28 113 -75 113c-46 0 -74 -41 -74 -113c0 -63 28 -104 74 -104zM213 -10l-65 26l116 287l22 -7z
M467 -10c-84 0 -130 69 -130 154c0 84 46 153 130 153c83 0 129 -69 129 -153c0 -85 -47 -154 -129 -154zM770 -10c-84 0 -130 69 -130 154c0 84 46 153 130 153c83 0 129 -69 129 -153c0 -85 -47 -154 -129 -154zM481 40c46 0 75 41 75 104c0 72 -28 113 -75 113
c-46 0 -74 -41 -74 -113c0 -63 28 -104 74 -104zM784 40c46 0 75 41 75 104c0 72 -28 113 -75 113c-46 0 -74 -41 -74 -113c0 -63 28 -104 74 -104z" />
    <glyph glyph-name="lozenge" unicode="&#x25ca;" horiz-adv-x="595" 
d="M297 688l253 -351l-252 -351l-253 351zM297 619l-200 -282l201 -282l200 282z" />
    <glyph glyph-name="at" unicode="@" horiz-adv-x="842" 
d="M556 72c-97 0 -70 135 -62 159l43 135h-5l-150 -315c-102 0 -153 51 -153 140c0 184 168 328 222 328c55 0 94 -25 113 -47l12 47l25 -9l-57 -325c-6 -35 -2 -82 3 -82c15 0 180 36 180 249c0 160 -92 274 -336 274c-51 0 -281 -114 -281 -366c0 -217 133 -338 373 -338
l180 68l10 -23c-41 -34 -134 -80 -236 -80c-216 0 -372 129 -372 373c0 206 165 400 381 400c232 0 326 -144 326 -308c0 -163 -104 -280 -216 -280zM370 122l171 322c-30 12 -85 28 -130 28c-49 -50 -113 -156 -113 -261c0 -52 28 -89 72 -89z" />
    <glyph glyph-name="ampersand" unicode="&#x26;" horiz-adv-x="703" 
d="M423 132c74 -68 165 -112 255 -112v-20l-83 -10c-71 0 -145 32 -211 83c-37 -47 -86 -83 -159 -83c-91 0 -175 57 -175 168c0 106 78 172 139 209c-6 27 -10 55 -10 83c0 151 108 210 205 210c69 0 134 -28 157 -41v-137h-30c-8 72 -40 138 -123 138
c-45 0 -123 -20 -123 -154c0 -111 53 -222 131 -306c46 86 83 184 167 184c54 0 88 -41 88 -83c0 -32 -19 -52 -72 -52c0 51 -6 78 -35 78c-49 0 -77 -78 -121 -155zM246 33c48 0 83 26 111 63c-71 63 -129 148 -158 236c-33 -47 -59 -100 -59 -162c0 -52 18 -137 106 -137z
" />
    <glyph glyph-name="paragraph" unicode="&#xb6;" horiz-adv-x="632" 
d="M387 0h-185v30l100 20v208c-186 1 -267 104 -267 204c0 123 103 188 242 188h110v-650zM592 550v-30l-95 -19v-601h-150v30l100 20v600h145z" />
    <glyph glyph-name="section" unicode="&#xa7;" horiz-adv-x="410" 
d="M281 159c43 -33 65 -62 65 -104c0 -70 -59 -126 -154 -126c-45 0 -83 12 -126 31l-26 130l25 7c14 -65 63 -133 134 -133c50 0 74 33 74 65c0 41 -38 64 -91 92c-60 32 -136 74 -136 151c0 51 33 96 83 123c-37 28 -59 65 -59 104c0 61 52 131 147 131
c47 0 82 -18 101 -28v-90h-25c-5 40 -25 83 -84 83c-46 0 -70 -29 -70 -62c0 -34 24 -62 74 -90c79 -44 157 -89 157 -167c0 -54 -38 -94 -89 -117zM115 303c0 -44 49 -73 98 -101l30 -17c30 13 54 35 54 66c0 49 -62 83 -115 111l-17 9c-28 -13 -50 -38 -50 -68z" />
    <glyph glyph-name="copyright" unicode="&#xa9;" horiz-adv-x="735" 
d="M368 14c-193 0 -318 125 -318 318s124 317 318 317c193 0 317 -124 317 -317s-125 -318 -317 -318zM368 56c170 0 271 105 271 276c0 172 -100 275 -271 275c-173 0 -273 -103 -273 -275c0 -171 101 -276 273 -276zM493 303c0 -72 -52 -108 -122 -108
c-74 0 -129 58 -129 136s56 137 129 137c69 0 121 -36 122 -107h-37c-5 47 -46 65 -85 65c-45 0 -84 -30 -84 -95s38 -94 84 -94c40 0 81 18 85 66h37z" />
    <glyph glyph-name="registered" unicode="&#xae;" horiz-adv-x="665" 
d="M333 95c-163 0 -288 125 -288 288s123 287 288 287c163 0 287 -124 287 -287s-125 -288 -287 -288zM333 137c146 0 241 103 241 246s-94 245 -241 245c-149 0 -242 -102 -242 -245s94 -246 242 -246zM234 258v262h118c77 0 96 -33 96 -79c0 -38 -13 -65 -62 -71
c49 -7 58 -31 58 -60v-52h-45v61c0 20 -10 29 -36 29h-84v-90h-45zM278 388h76c29 0 49 11 49 46s-20 44 -49 44h-76v-90z" />
    <glyph glyph-name="trademark" unicode="&#x2122;" horiz-adv-x="809" 
d="M211 655c5 0 81 0 127 5l-3 -107l-22 -3l-17 72l-75 4v-251l54 -8v-25h-167v25l56 8v251l-75 -4l-27 -72l-22 3l8 107c45 -5 122 -5 126 -5h37zM717 374l52 -7v-25h-150v25l54 8l-16 239l-119 -272h-7l-116 272l-8 -238l54 -9v-25h-141v25l43 9l14 274l77 5l87 -205
l91 205h122v-24l-55 -9z" />
    <glyph glyph-name="degree" unicode="&#xb0;" horiz-adv-x="320" 
d="M160 446c-95 0 -120 57 -120 112c0 54 25 112 120 112s120 -58 120 -112c0 -55 -25 -112 -120 -112zM160 484c60 0 75 30 75 74c0 43 -15 74 -75 74s-75 -31 -75 -74c0 -44 15 -74 75 -74z" />
    <glyph glyph-name="bar" unicode="|" horiz-adv-x="180" 
d="M110 710v-790h-40v790h40z" />
    <glyph glyph-name="brokenbar" unicode="&#xa6;" horiz-adv-x="180" 
d="M110 710v-305h-40v305h40zM110 225v-305h-40v305h40z" />
    <glyph glyph-name="dagger" unicode="&#x2020;" horiz-adv-x="370" 
d="M197 530h128v-30c-70 0 -91 -1 -94 -25l-38 -315h-16l-37 315c-3 24 -25 25 -95 25v30h128c-9 31 -28 104 -28 152l40 28l40 -27c0 -49 -19 -122 -28 -153z" />
    <glyph glyph-name="daggerdbl" unicode="&#x2021;" horiz-adv-x="370" 
d="M325 500c-70 0 -83 -1 -94 -25l-38 -85l38 -85c11 -24 24 -25 94 -25v-30h-128c9 -31 28 -104 28 -153l-40 -27l-40 28c0 48 19 121 28 152h-128v30c70 0 84 1 95 25l37 85l-37 85c-11 24 -25 25 -95 25v30h128c-9 31 -28 104 -28 152l40 28l40 -27
c0 -49 -19 -122 -28 -153h128v-30z" />
    <glyph glyph-name="uni0308" unicode="&#x308;" 
d="M-284 610c-31 0 -55 26 -55 60c0 33 24 59 55 59c30 0 54 -26 54 -59c0 -34 -24 -60 -54 -60zM-104 610c-31 0 -55 26 -55 60c0 33 24 59 55 59c30 0 54 -26 54 -59c0 -34 -24 -60 -54 -60z" />
    <glyph glyph-name="uni0307" unicode="&#x307;" 
d="M-104 614c-34 0 -60 29 -60 66c0 36 26 65 60 65c33 0 59 -29 59 -65c0 -37 -26 -66 -59 -66z" />
    <glyph glyph-name="gravecomb" unicode="&#x300;" 
d="M-115 776l65 -183l-22 -12l-140 215c21 18 72 49 97 -20z" />
    <glyph glyph-name="acutecomb" unicode="&#x301;" 
d="M-137 776c25 69 76 38 97 20l-140 -215l-22 12z" />
    <glyph glyph-name="uni030B" unicode="&#x30b;" 
d="M-297 776c25 69 76 38 97 20l-140 -215l-22 12zM-147 776c25 69 76 38 97 20l-140 -215l-22 12z" />
    <glyph glyph-name="uni030C.alt" 
d="M-110 710c43 0 60 -31 60 -63c0 -48 -33 -92 -52 -117l-21 11c14 31 17 54 17 67c0 31 -24 44 -67 44c0 36 31 58 63 58z" />
    <glyph glyph-name="uni0302" unicode="&#x302;" 
d="M-50 593l-19 -12l-100 119l-99 -119l-20 12l111 217h15z" />
    <glyph glyph-name="uni030C" unicode="&#x30c;" 
d="M-50 803l-112 -217h-15l-111 217l20 12l99 -119l100 119z" />
    <glyph glyph-name="uni0306" unicode="&#x306;" 
d="M-50 800l-23 3c-12 -112 -37 -143 -89 -143c-53 0 -78 31 -90 143l-23 -3c0 -150 37 -210 113 -210c75 0 112 60 112 210z" />
    <glyph glyph-name="uni030A" unicode="&#x30a;" 
d="M-152 776c60 0 102 -40 102 -95c0 -61 -42 -96 -102 -96c-61 0 -103 35 -103 96c0 55 42 95 103 95zM-152 742c-33 0 -58 -18 -58 -61c0 -49 25 -62 58 -62c32 0 57 13 57 62c0 43 -25 61 -57 61z" />
    <glyph glyph-name="tildecomb" unicode="&#x303;" 
d="M-69 741l19 -7c-10 -69 -35 -124 -99 -124c-60 0 -106 55 -136 55l-48 -83l-19 7c10 74 34 121 95 121c50 0 98 -41 128 -41z" />
    <glyph glyph-name="uni0304" unicode="&#x304;" 
d="M-50 680v-50h-290v50h290z" />
    <glyph glyph-name="uni0326" unicode="&#x326;" 
d="M-115 -66c38 0 65 -24 65 -65c0 -56 -46 -91 -85 -119l-19 18c23 19 48 41 48 65c0 27 -36 36 -77 36c0 38 28 65 68 65z" />
    <glyph glyph-name="uni0327" unicode="&#x327;" 
d="M-140 -65c51 -14 90 -37 90 -81c0 -73 -82 -104 -136 -104l-6 24c60 13 87 36 87 63s-30 39 -90 54l49 125l32 -14z" />
    <glyph glyph-name="uni0328" unicode="&#x328;" 
d="M-79 18l6 -18c-55 -44 -86 -78 -86 -118c0 -21 13 -40 43 -40c17 0 43 8 60 15l6 -18c-23 -20 -57 -49 -96 -49c-40 0 -75 22 -75 74c0 67 105 135 142 154z" />
    <glyph glyph-name="uni0335" unicode="&#x335;" 
d="M-406 520h356v-40h-356v40z" />
    <glyph glyph-name="acute" unicode="&#xb4;" horiz-adv-x="252" 
d="M115 776c25 69 76 38 97 20l-140 -215l-22 12z" />
    <glyph glyph-name="breve" unicode="&#x2d8;" horiz-adv-x="325" 
d="M275 800l-23 3c-12 -112 -37 -143 -89 -143c-53 0 -78 31 -90 143l-23 -3c0 -150 37 -210 113 -210c75 0 112 60 112 210z" />
    <glyph glyph-name="caron" unicode="&#x2c7;" horiz-adv-x="338" 
d="M288 803l-112 -217h-15l-111 217l20 12l99 -119l100 119z" />
    <glyph glyph-name="cedilla" unicode="&#xb8;" horiz-adv-x="245" 
d="M105 -65c51 -14 90 -37 90 -81c0 -73 -82 -104 -136 -104l-6 24c60 13 87 36 87 63s-30 39 -90 54l49 125l32 -14z" />
    <glyph glyph-name="circumflex" unicode="&#x2c6;" horiz-adv-x="338" 
d="M288 593l-19 -12l-100 119l-99 -119l-20 12l111 217h15z" />
    <glyph glyph-name="dieresis" unicode="&#xa8;" horiz-adv-x="389" 
d="M105 610c-31 0 -55 26 -55 60c0 33 24 59 55 59c30 0 54 -26 54 -59c0 -34 -24 -60 -54 -60zM285 610c-31 0 -55 26 -55 60c0 33 24 59 55 59c30 0 54 -26 54 -59c0 -34 -24 -60 -54 -60z" />
    <glyph glyph-name="dotaccent" unicode="&#x2d9;" horiz-adv-x="209" 
d="M105 614c-34 0 -60 29 -60 66c0 36 26 65 60 65c33 0 59 -29 59 -65c0 -37 -26 -66 -59 -66z" />
    <glyph glyph-name="grave" unicode="`" horiz-adv-x="262" 
d="M147 776l65 -183l-22 -12l-140 215c21 18 72 49 97 -20z" />
    <glyph glyph-name="hungarumlaut" unicode="&#x2dd;" horiz-adv-x="412" 
d="M115 776c25 69 76 38 97 20l-140 -215l-22 12zM265 776c25 69 76 38 97 20l-140 -215l-22 12z" />
    <glyph glyph-name="macron" unicode="&#xaf;" horiz-adv-x="390" 
d="M340 680v-50h-290v50h290z" />
    <glyph glyph-name="ogonek" unicode="&#x2db;" horiz-adv-x="271" 
d="M192 18l6 -18c-55 -44 -86 -78 -86 -118c0 -21 13 -40 43 -40c17 0 43 8 60 15l6 -18c-23 -20 -57 -49 -96 -49c-40 0 -75 22 -75 74c0 67 105 135 142 154z" />
    <glyph glyph-name="ring" unicode="&#x2da;" horiz-adv-x="305" 
d="M153 776c60 0 102 -40 102 -95c0 -61 -42 -96 -102 -96c-61 0 -103 35 -103 96c0 55 42 95 103 95zM153 742c-33 0 -58 -18 -58 -61c0 -49 25 -62 58 -62c32 0 57 13 57 62c0 43 -25 61 -57 61z" />
    <glyph glyph-name="tilde" unicode="&#x2dc;" horiz-adv-x="402" 
d="M333 741l19 -7c-10 -69 -35 -124 -99 -124c-60 0 -106 55 -136 55l-48 -83l-19 7c10 74 34 121 95 121c50 0 98 -41 128 -41z" />
    <glyph glyph-name="uni0308.case" 
d="M-304 610c-31 0 -55 26 -55 60c0 33 24 59 55 59c30 0 54 -26 54 -59c0 -34 -24 -60 -54 -60zM-104 610c-31 0 -55 26 -55 60c0 33 24 59 55 59c30 0 54 -26 54 -59c0 -34 -24 -60 -54 -60z" />
    <glyph glyph-name="uni0307.case" 
d="M-104 614c-34 0 -60 29 -60 66c0 36 26 65 60 65c33 0 59 -29 59 -65c0 -37 -26 -66 -59 -66z" />
    <glyph glyph-name="gravecomb.case" 
d="M-198 733l148 -126l-13 -21l-229 116c10 26 38 79 94 31z" />
    <glyph glyph-name="acutecomb.case" 
d="M-279 586l-13 21l148 126c56 48 84 -5 94 -31z" />
    <glyph glyph-name="uni030B.case" 
d="M-349 586l-13 21l148 126c56 48 84 -5 94 -31zM-139 586l-13 21l148 126c56 48 84 -5 94 -31z" />
    <glyph glyph-name="uni030C.alt.case" 
d="M-110 660c44 0 60 -31 60 -73c0 -48 -33 -102 -52 -127l-21 11c14 31 17 64 17 77c0 41 -24 54 -67 54c0 36 31 58 63 58z" />
    <glyph glyph-name="uni0302.case" 
d="M-308 586l-20 12l131 167h15l132 -167l-19 -12l-120 90z" />
    <glyph glyph-name="uni030C.case" 
d="M-50 753l-132 -167h-15l-131 167l20 12l119 -90l120 90z" />
    <glyph glyph-name="uni0306.case" 
d="M-50 760l-23 3c-22 -72 -47 -103 -109 -103c-63 0 -88 31 -110 103l-23 -3c10 -110 47 -170 133 -170c85 0 122 60 132 170z" />
    <glyph glyph-name="uni030A.case" 
d="M-152 776c60 0 102 -40 102 -95c0 -61 -42 -96 -102 -96c-61 0 -103 35 -103 96c0 55 42 95 103 95zM-152 742c-33 0 -58 -18 -58 -61c0 -49 25 -62 58 -62c32 0 57 13 57 62c0 43 -25 61 -57 61z" />
    <glyph glyph-name="tildecomb.case" 
d="M-69 741l19 -7c-10 -69 -45 -124 -89 -124c-60 0 -156 65 -186 65l-48 -83l-19 7c10 74 44 129 85 129c50 0 148 -59 178 -59z" />
    <glyph glyph-name="uni0304.case" 
d="M-50 700v-50h-360v50h360z" />
    <glyph glyph-name="uni0326.case" 
d="M-115 -66c38 0 65 -24 65 -65c0 -56 -46 -91 -85 -119l-19 18c23 19 48 41 48 65c0 27 -36 36 -77 36c0 38 28 65 68 65z" />
    <glyph glyph-name="uni0327.case" 
d="M-149 -64c59 -14 99 -37 99 -82c0 -73 -82 -104 -146 -104l-6 24c70 13 97 36 97 63s-30 39 -100 54l49 125l32 -14z" />
    <glyph glyph-name="uni0328.case" 
d="M-99 18l6 -18c-55 -44 -86 -78 -86 -118c0 -21 13 -40 53 -40c27 0 53 8 70 15l6 -18c-23 -20 -57 -49 -116 -49c-40 0 -75 22 -75 74c0 67 105 135 142 154z" />
    <glyph glyph-name="uni0335.case" 
d="M-406 520h356v-40h-356v40z" />
    <glyph glyph-name="acute.case" horiz-adv-x="342" 
d="M63 586l-13 21l148 126c56 48 84 -5 94 -31z" />
    <glyph glyph-name="breve.case" horiz-adv-x="365" 
d="M315 760l-23 3c-22 -72 -47 -103 -109 -103c-63 0 -88 31 -110 103l-23 -3c10 -110 47 -170 133 -170c85 0 122 60 132 170z" />
    <glyph glyph-name="caron.case" horiz-adv-x="378" 
d="M328 753l-132 -167h-15l-131 167l20 12l119 -90l120 90z" />
    <glyph glyph-name="cedilla.case" horiz-adv-x="245" 
d="M106 -64c59 -14 99 -37 99 -82c0 -73 -82 -104 -146 -104l-6 24c70 13 97 36 97 63s-30 39 -100 54l49 125l32 -14z" />
    <glyph glyph-name="circumflex.case" horiz-adv-x="378" 
d="M70 586l-20 12l131 167h15l132 -167l-19 -12l-120 90z" />
    <glyph glyph-name="dieresis.case" horiz-adv-x="409" 
d="M105 610c-31 0 -55 26 -55 60c0 33 24 59 55 59c30 0 54 -26 54 -59c0 -34 -24 -60 -54 -60zM305 610c-31 0 -55 26 -55 60c0 33 24 59 55 59c30 0 54 -26 54 -59c0 -34 -24 -60 -54 -60z" />
    <glyph glyph-name="dotaccent.case" horiz-adv-x="209" 
d="M105 614c-34 0 -60 29 -60 66c0 36 26 65 60 65c33 0 59 -29 59 -65c0 -37 -26 -66 -59 -66z" />
    <glyph glyph-name="grave.case" horiz-adv-x="342" 
d="M144 733l148 -126l-13 -21l-229 116c10 26 38 79 94 31z" />
    <glyph glyph-name="hungarumlaut.case" horiz-adv-x="552" 
d="M63 586l-13 21l148 126c56 48 84 -5 94 -31zM273 586l-13 21l148 126c56 48 84 -5 94 -31z" />
    <glyph glyph-name="macron.case" horiz-adv-x="460" 
d="M410 700v-50h-360v50h360z" />
    <glyph glyph-name="ogonek.case" horiz-adv-x="271" 
d="M192 18l6 -18c-55 -44 -86 -78 -86 -118c0 -21 13 -40 53 -40c27 0 53 8 70 15l6 -18c-23 -20 -57 -49 -116 -49c-40 0 -75 22 -75 74c0 67 105 135 142 154z" />
    <glyph glyph-name="ring.case" horiz-adv-x="305" 
d="M153 776c60 0 102 -40 102 -95c0 -61 -42 -96 -102 -96c-61 0 -103 35 -103 96c0 55 42 95 103 95zM153 742c-33 0 -58 -18 -58 -61c0 -49 25 -62 58 -62c32 0 57 13 57 62c0 43 -25 61 -57 61z" />
    <glyph glyph-name="tilde.case" horiz-adv-x="442" 
d="M373 741l19 -7c-10 -69 -45 -124 -89 -124c-60 0 -156 65 -186 65l-48 -83l-19 7c10 74 44 129 85 129c50 0 148 -59 178 -59z" />
    </font>
</defs>
</svg>
